  0
SECTION
  2
HEADER
  9
$ACADVER
  1
AC1015
  9
$ACADMAINTVER
 70
    11
  9
$DWGCODEPAGE
  3
ANSI_932
  9
$INSBASE
 10
0.0
 20
0.0
 30
0.0
  9
$EXTMIN
 10
0.0000000135560185
 20
-0.0000001317113174
 30
0.0
  9
$EXTMAX
 10
398.800000013556
 20
275.7999998682887
 30
0.0
  9
$LIMMIN
 10
0.0
 20
0.0
  9
$LIMMAX
 10
420.0
 20
297.0
  9
$ORTHOMODE
 70
     1
  9
$REGENMODE
 70
     1
  9
$FILLMODE
 70
     1
  9
$QTEXTMODE
 70
     0
  9
$MIRRTEXT
 70
     1
  9
$LTSCALE
 40
1.0
  9
$ATTMODE
 70
     1
  9
$TEXTSIZE
 40
2.5
  9
$TRACEWID
 40
1.0
  9
$TEXTSTYLE
  7
STANDARD
  9
$CLAYER
  8
SEIHIN
  9
$CELTYPE
  6
BYLAYER
  9
$CECOLOR
 62
   256
  9
$CELTSCALE
 40
1.0
  9
$DISPSILH
 70
     0
  9
$DIMSCALE
 40
1.0
  9
$DIMASZ
 40
3.0
  9
$DIMEXO
 40
3.0
  9
$DIMDLI
 40
7.0
  9
$DIMRND
 40
0.0
  9
$DIMDLE
 40
0.0
  9
$DIMEXE
 40
1.5
  9
$DIMTP
 40
0.0
  9
$DIMTM
 40
0.0
  9
$DIMTXT
 40
3.0
  9
$DIMCEN
 40
150.0
  9
$DIMTSZ
 40
0.0
  9
$DIMTOL
 70
     0
  9
$DIMLIM
 70
     0
  9
$DIMTIH
 70
     0
  9
$DIMTOH
 70
     0
  9
$DIMSE1
 70
     0
  9
$DIMSE2
 70
     0
  9
$DIMTAD
 70
     3
  9
$DIMZIN
 70
     0
  9
$DIMBLK
  1

  9
$DIMASO
 70
     1
  9
$DIMSHO
 70
     1
  9
$DIMPOST
  1

  9
$DIMAPOST
  1

  9
$DIMALT
 70
     0
  9
$DIMALTD
 70
     2
  9
$DIMALTF
 40
25.4
  9
$DIMLFAC
 40
1.0
  9
$DIMTOFL
 70
     1
  9
$DIMTVP
 40
0.0
  9
$DIMTIX
 70
     0
  9
$DIMSOXD
 70
     0
  9
$DIMSAH
 70
     1
  9
$DIMBLK1
  1
OPEN
  9
$DIMBLK2
  1
OPEN
  9
$DIMSTYLE
  2
STANDARD
  9
$DIMCLRD
 70
   256
  9
$DIMCLRE
 70
   256
  9
$DIMCLRT
 70
   256
  9
$DIMTFAC
 40
1.0
  9
$DIMGAP
 40
1.0
  9
$DIMJUST
 70
     0
  9
$DIMSD1
 70
     0
  9
$DIMSD2
 70
     0
  9
$DIMTOLJ
 70
     1
  9
$DIMTZIN
 70
     0
  9
$DIMALTZ
 70
     0
  9
$DIMALTTZ
 70
     0
  9
$DIMUPT
 70
     0
  9
$DIMDEC
 70
     0
  9
$DIMTDEC
 70
     0
  9
$DIMALTU
 70
     2
  9
$DIMALTTD
 70
     2
  9
$DIMTXSTY
  7
STANDARD
  9
$DIMAUNIT
 70
     0
  9
$DIMADEC
 70
     0
  9
$DIMALTRND
 40
0.0
  9
$DIMAZIN
 70
     0
  9
$DIMDSEP
 70
    46
  9
$DIMATFIT
 70
     3
  9
$DIMFRAC
 70
     0
  9
$DIMLDRBLK
  1
OPEN
  9
$DIMLUNIT
 70
     2
  9
$DIMLWD
 70
    -1
  9
$DIMLWE
 70
    -1
  9
$DIMTMOVE
 70
     0
  9
$LUNITS
 70
     2
  9
$LUPREC
 70
     4
  9
$SKETCHINC
 40
1.0
  9
$FILLETRAD
 40
0.3
  9
$AUNITS
 70
     0
  9
$AUPREC
 70
     0
  9
$MENU
  1
.
  9
$ELEVATION
 40
0.0
  9
$PELEVATION
 40
0.0
  9
$THICKNESS
 40
0.0
  9
$LIMCHECK
 70
     0
  9
$CHAMFERA
 40
10.0
  9
$CHAMFERB
 40
10.0
  9
$CHAMFERC
 40
20.0
  9
$CHAMFERD
 40
0.0
  9
$SKPOLY
 70
     0
  9
$TDCREATE
 40
2451023.564106250
  9
$TDUCREATE
 40
2451023.189106250
  9
$TDUPDATE
 40
2454680.483670682
  9
$TDUUPDATE
 40
2454680.108670682
  9
$TDINDWG
 40
0.0265105556
  9
$TDUSRTIMER
 40
0.0265105556
  9
$USRTIMER
 70
     1
  9
$ANGBASE
 50
0.0
  9
$ANGDIR
 70
     0
  9
$PDMODE
 70
     0
  9
$PDSIZE
 40
0.0
  9
$PLINEWID
 40
0.0
  9
$SPLFRAME
 70
     0
  9
$SPLINETYPE
 70
     6
  9
$SPLINESEGS
 70
     8
  9
$HANDSEED
  5
F55
  9
$SURFTAB1
 70
     6
  9
$SURFTAB2
 70
     6
  9
$SURFTYPE
 70
     6
  9
$SURFU
 70
     6
  9
$SURFV
 70
     6
  9
$UCSBASE
  2

  9
$UCSNAME
  2

  9
$UCSORG
 10
0.0
 20
0.0
 30
0.0
  9
$UCSXDIR
 10
1.0
 20
0.0
 30
0.0
  9
$UCSYDIR
 10
0.0
 20
1.0
 30
0.0
  9
$UCSORTHOREF
  2

  9
$UCSORTHOVIEW
 70
     0
  9
$UCSORGTOP
 10
0.0
 20
0.0
 30
0.0
  9
$UCSORGBOTTOM
 10
0.0
 20
0.0
 30
0.0
  9
$UCSORGLEFT
 10
0.0
 20
0.0
 30
0.0
  9
$UCSORGRIGHT
 10
0.0
 20
0.0
 30
0.0
  9
$UCSORGFRONT
 10
0.0
 20
0.0
 30
0.0
  9
$UCSORGBACK
 10
0.0
 20
0.0
 30
0.0
  9
$PUCSBASE
  2

  9
$PUCSNAME
  2

  9
$PUCSORG
 10
0.0
 20
0.0
 30
0.0
  9
$PUCSXDIR
 10
1.0
 20
0.0
 30
0.0
  9
$PUCSYDIR
 10
0.0
 20
1.0
 30
0.0
  9
$PUCSORTHOREF
  2

  9
$PUCSORTHOVIEW
 70
     0
  9
$PUCSORGTOP
 10
0.0
 20
0.0
 30
0.0
  9
$PUCSORGBOTTOM
 10
0.0
 20
0.0
 30
0.0
  9
$PUCSORGLEFT
 10
0.0
 20
0.0
 30
0.0
  9
$PUCSORGRIGHT
 10
0.0
 20
0.0
 30
0.0
  9
$PUCSORGFRONT
 10
0.0
 20
0.0
 30
0.0
  9
$PUCSORGBACK
 10
0.0
 20
0.0
 30
0.0
  9
$USERI1
 70
     0
  9
$USERI2
 70
     0
  9
$USERI3
 70
     0
  9
$USERI4
 70
     0
  9
$USERI5
 70
     0
  9
$USERR1
 40
0.0
  9
$USERR2
 40
0.0
  9
$USERR3
 40
0.0
  9
$USERR4
 40
0.0
  9
$USERR5
 40
0.0
  9
$WORLDVIEW
 70
     1
  9
$SHADEDGE
 70
     3
  9
$SHADEDIF
 70
    70
  9
$TILEMODE
 70
     1
  9
$MAXACTVP
 70
    16
  9
$PINSBASE
 10
0.0
 20
0.0
 30
0.0
  9
$PLIMCHECK
 70
     0
  9
$PEXTMIN
 10
0.0
 20
0.0
 30
0.0
  9
$PEXTMAX
 10
420.0
 20
297.0
 30
0.0
  9
$PLIMMIN
 10
0.0
 20
0.0
  9
$PLIMMAX
 10
420.0
 20
297.0
  9
$UNITMODE
 70
     0
  9
$VISRETAIN
 70
     0
  9
$PLINEGEN
 70
     0
  9
$PSLTSCALE
 70
     1
  9
$TREEDEPTH
 70
  3020
  9
$CMLSTYLE
  2
STANDARD
  9
$CMLJUST
 70
     0
  9
$CMLSCALE
 40
1.0
  9
$PROXYGRAPHICS
 70
     1
  9
$MEASUREMENT
 70
     1
  9
$CELWEIGHT
370
    -1
  9
$ENDCAPS
280
     0
  9
$JOINSTYLE
280
     0
  9
$LWDISPLAY
290
     0
  9
$INSUNITS
 70
     0
  9
$HYPERLINKBASE
  1

  9
$STYLESHEET
  1
print.ctb
  9
$XEDIT
290
     1
  9
$CEPSNTYPE
380
     0
  9
$PSTYLEMODE
290
     1
  9
$FINGERPRINTGUID
  2
{95F2E6B4-0D5A-481E-8670-BB4FD1113E3B}
  9
$VERSIONGUID
  2
{617866F9-7AEA-48BC-8291-F9D17B9B2241}
  9
$EXTNAMES
290
     1
  9
$PSVPSCALE
 40
0.0
  9
$OLESTARTUP
290
     0
  0
ENDSEC
  0
SECTION
  2
CLASSES
  0
CLASS
  1
ACDBDICTIONARYWDFLT
  2
AcDbDictionaryWithDefault
  3
AutoCAD 2000
 90
        0
280
     0
281
     0
  0
CLASS
  1
ACDBPLACEHOLDER
  2
AcDbPlaceHolder
  3
AutoCAD 2000
 90
        0
280
     0
281
     0
  0
CLASS
  1
LAYOUT
  2
AcDbLayout
  3
AutoCAD 2000
 90
        0
280
     0
281
     0
  0
CLASS
  1
LONG_TRANSACTION
  2
AcDbLongTransaction
  3
AutoCAD 2000
 90
    32768
280
     0
281
     0
  0
CLASS
  1
LWPOLYLINE
  2
AcDbPolyline
  3
AutoCAD 2000
 90
    32768
280
     0
281
     1
  0
CLASS
  1
HATCH
  2
AcDbHatch
  3
AutoCAD 2000
 90
    32768
280
     0
281
     1
  0
CLASS
  1
XRECORD
  2
AcDbXrecord
  3
AutoCAD 2000
 90
    32768
280
     0
281
     0
  0
CLASS
  1
LONG_TRANSACTION
  2
AcDbLongTransaction
  3
AutoCAD 2000
 90
    32768
280
     0
281
     0
  0
CLASS
  1
LWPOLYLINE
  2
AcDbPolyline
  3
AutoCAD 2000
 90
    32768
280
     0
281
     1
  0
CLASS
  1
HATCH
  2
AcDbHatch
  3
AutoCAD 2000
 90
    32768
280
     0
281
     1
  0
CLASS
  1
XRECORD
  2
AcDbXrecord
  3
AutoCAD 2000
 90
    32768
280
     0
281
     0
  0
CLASS
  1
LONG_TRANSACTION
  2
AcDbLongTransaction
  3
AutoCAD 2000
 90
    32768
280
     0
281
     0
  0
CLASS
  1
LWPOLYLINE
  2
AcDbPolyline
  3
AutoCAD 2000
 90
    32768
280
     0
281
     1
  0
CLASS
  1
HATCH
  2
AcDbHatch
  3
AutoCAD 2000
 90
    32768
280
     0
281
     1
  0
CLASS
  1
XRECORD
  2
AcDbXrecord
  3
AutoCAD 2000
 90
    32768
280
     0
281
     0
  0
CLASS
  1
LONG_TRANSACTION
  2
AcDbLongTransaction
  3
AutoCAD 2000
 90
    32768
280
     0
281
     0
  0
CLASS
  1
LWPOLYLINE
  2
AcDbPolyline
  3
AutoCAD 2000
 90
    32768
280
     0
281
     1
  0
CLASS
  1
HATCH
  2
AcDbHatch
  3
AutoCAD 2000
 90
    32768
280
     0
281
     1
  0
CLASS
  1
XRECORD
  2
AcDbXrecord
  3
AutoCAD 2000
 90
    32768
280
     0
281
     0
  0
CLASS
  1
LONG_TRANSACTION
  2
AcDbLongTransaction
  3
AutoCAD 2000
 90
    32768
280
     0
281
     0
  0
CLASS
  1
LWPOLYLINE
  2
AcDbPolyline
  3
AutoCAD 2000
 90
    32768
280
     0
281
     1
  0
CLASS
  1
HATCH
  2
AcDbHatch
  3
AutoCAD 2000
 90
    32768
280
     0
281
     1
  0
CLASS
  1
XRECORD
  2
AcDbXrecord
  3
AutoCAD 2000
 90
    32768
280
     0
281
     0
  0
ENDSEC
  0
SECTION
  2
TABLES
  0
TABLE
  2
VPORT
  5
8
330
0
100
AcDbSymbolTable
 70
     2
  0
VPORT
  5
F54
330
8
100
AcDbSymbolTableRecord
100
AcDbViewportTableRecord
  2
*Active
 70
     0
 10
0.0
 20
0.0
 11
1.0
 21
1.0
 12
193.2185011591273
 22
127.7652646093068
 13
0.0
 23
0.0
 14
5.0
 24
5.0
 15
0.0
 25
0.0
 16
0.0
 26
0.0
 36
1.0
 17
0.0
 27
0.0
 37
0.0
 40
415.3883565045362
 41
1.577931034482758
 42
50.0
 43
0.0
 44
0.0
 50
0.0
 51
0.0
 71
     0
 72
   100
 73
     1
 74
     0
 75
     0
 76
     0
 77
     0
 78
     0
281
     0
 65
     1
110
0.0
120
0.0
130
0.0
111
1.0
121
0.0
131
0.0
112
0.0
122
1.0
132
0.0
 79
     0
146
0.0
  0
ENDTAB
  0
TABLE
  2
LTYPE
  5
5
330
0
100
AcDbSymbolTable
 70
     2
  0
LTYPE
  5
14
330
5
100
AcDbSymbolTableRecord
100
AcDbLinetypeTableRecord
  2
BYBLOCK
 70
     0
  3

 72
    65
 73
     0
 40
0.0
  0
LTYPE
  5
15
330
5
100
AcDbSymbolTableRecord
100
AcDbLinetypeTableRecord
  2
BYLAYER
 70
     0
  3

 72
    65
 73
     0
 40
0.0
  0
LTYPE
  5
16
330
5
100
AcDbSymbolTableRecord
100
AcDbLinetypeTableRecord
  2
CONTINUOUS
 70
     0
  3
Solid line
 72
    65
 73
     0
 40
0.0
  0
LTYPE
  5
E0F
330
5
100
AcDbSymbolTableRecord
100
AcDbLinetypeTableRecord
  2
CENTERX2
 70
     0
  3

 72
    65
 73
     4
 40
43.0
 49
40.0
 74
     0
 49
-1.0
 74
     0
 49
1.0
 74
     0
 49
-1.0
 74
     0
  0
ENDTAB
  0
TABLE
  2
LAYER
  5
2
330
0
100
AcDbSymbolTable
 70
     8
  0
LAYER
  5
F
330
2
100
AcDbSymbolTableRecord
100
AcDbLayerTableRecord
  2
0
 70
     0
 62
     7
  6
CONTINUOUS
370
    -3
390
482
  0
LAYER
  5
62
330
2
100
AcDbSymbolTableRecord
100
AcDbLayerTableRecord
  2
VIEWPORT
 70
     0
 62
     7
  6
CONTINUOUS
370
    -3
390
482
  0
LAYER
  5
6B
330
2
100
AcDbSymbolTableRecord
100
AcDbLayerTableRecord
  2
ZUWAKU
 70
     0
 62
     7
  6
CONTINUOUS
370
    -3
390
482
  0
LAYER
  5
1EF
330
2
100
AcDbSymbolTableRecord
100
AcDbLayerTableRecord
  2
SEIHIN
 70
     0
 62
     3
  6
CONTINUOUS
370
    -3
390
482
  0
LAYER
  5
1F0
330
2
100
AcDbSymbolTableRecord
100
AcDbLayerTableRecord
  2
DEFPOINTS
 70
     0
 62
     7
  6
CONTINUOUS
290
     0
370
    -3
390
482
  0
LAYER
  5
436
330
2
100
AcDbSymbolTableRecord
100
AcDbLayerTableRecord
  2
SUNPOU
 70
     0
 62
     4
  6
CONTINUOUS
370
    -3
390
482
  0
LAYER
  5
BD6
330
2
100
AcDbSymbolTableRecord
100
AcDbLayerTableRecord
  2
moji
 70
     0
 62
     2
  6
CONTINUOUS
370
    -3
390
482
  0
LAYER
  5
E12
330
2
100
AcDbSymbolTableRecord
100
AcDbLayerTableRecord
  2
CENTER_L
 70
     0
 62
     7
  6
CONTINUOUS
370
    -3
390
482
  0
ENDTAB
  0
TABLE
  2
STYLE
  5
3
330
0
100
AcDbSymbolTable
 70
     2
  0
STYLE
  5
10
330
3
100
AcDbSymbolTableRecord
100
AcDbTextStyleTableRecord
  2
STANDARD
 70
     0
 40
0.0
 41
1.0
 50
0.0
 71
     0
 42
2.5
  3
TXT
  4
bigfont.shx
  0
STYLE
  5
BD7
330
3
100
AcDbSymbolTableRecord
100
AcDbTextStyleTableRecord
  2
ｽﾀｲﾙ1
 70
     0
 40
0.0
 41
1.0
 50
0.0
 71
     0
 42
2.5
  3
MS PGothic.ttf
  4

1001
ACAD
1000
MS PGothic
1071
    32818
  0
ENDTAB
  0
TABLE
  2
VIEW
  5
6
330
0
100
AcDbSymbolTable
 70
     0
  0
ENDTAB
  0
TABLE
  2
UCS
  5
7
330
0
100
AcDbSymbolTable
 70
     0
  0
ENDTAB
  0
TABLE
  2
APPID
  5
9
330
0
100
AcDbSymbolTable
 70
     1
  0
APPID
  5
11
330
9
100
AcDbSymbolTableRecord
100
AcDbRegAppTableRecord
  2
ACAD
 70
     0
  0
ENDTAB
  0
TABLE
  2
DIMSTYLE
  5
A
330
0
100
AcDbSymbolTable
 70
     1
100
AcDbDimStyleTable
 71
     1
340
1D
  0
DIMSTYLE
105
1D
102
{ACAD_REACTORS
330
E35
330
E41
330
E33
330
E43
102
}
330
A
100
AcDbSymbolTableRecord
100
AcDbDimStyleTableRecord
  2
STANDARD
 70
     0
340
10
  0
ENDTAB
  0
TABLE
  2
BLOCK_RECORD
  5
1
330
0
100
AcDbSymbolTable
 70
     5
  0
BLOCK_RECORD
  5
1A
102
{ACAD_XDICTIONARY
360
A02
102
}
330
1
100
AcDbSymbolTableRecord
100
AcDbBlockTableRecord
  2
*MODEL_SPACE
340
485
  0
BLOCK_RECORD
  5
17
102
{ACAD_XDICTIONARY
360
A00
102
}
330
1
100
AcDbSymbolTableRecord
100
AcDbBlockTableRecord
  2
*PAPER_SPACE
340
486
  0
BLOCK_RECORD
  5
B2
330
1
100
AcDbSymbolTableRecord
100
AcDbBlockTableRecord
  2
_OPEN
340
0
102
{BLKREFS
331
F2E
331
F34
331
F35
331
F3D
331
F3E
331
F48
331
F49
102
}
  0
BLOCK_RECORD
  5
E4C
330
1
100
AcDbSymbolTableRecord
100
AcDbBlockTableRecord
  2
*D1
340
0
  0
BLOCK_RECORD
  5
E58
330
1
100
AcDbSymbolTableRecord
100
AcDbBlockTableRecord
  2
*D2
340
0
  0
BLOCK_RECORD
  5
E64
330
1
100
AcDbSymbolTableRecord
100
AcDbBlockTableRecord
  2
*D3
340
0
  0
BLOCK_RECORD
  5
E79
330
1
100
AcDbSymbolTableRecord
100
AcDbBlockTableRecord
  2
*D4
340
0
  0
ENDTAB
  0
ENDSEC
  0
SECTION
  2
BLOCKS
  0
BLOCK
  5
1B
330
1A
100
AcDbEntity
  8
0
100
AcDbBlockBegin
  2
*MODEL_SPACE
 70
     0
 10
0.0
 20
0.0
 30
0.0
  3
*MODEL_SPACE
  1

  0
ENDBLK
  5
1C
330
1A
100
AcDbEntity
  8
0
100
AcDbBlockEnd
  0
BLOCK
  5
18
330
17
100
AcDbEntity
 67
     1
  8
0
100
AcDbBlockBegin
  2
*PAPER_SPACE
 70
     0
 10
0.0
 20
0.0
 30
0.0
  3
*PAPER_SPACE
  1

  0
ENDBLK
  5
19
330
17
100
AcDbEntity
 67
     1
  8
0
100
AcDbBlockEnd
  0
BLOCK
  5
B3
330
B2
100
AcDbEntity
  8
0
100
AcDbBlockBegin
  2
_OPEN
 70
     0
 10
0.0
 20
0.0
 30
0.0
  3
_OPEN
  1

  0
LINE
  5
B4
330
B2
100
AcDbEntity
  8
0
  6
ByBlock
 62
     0
100
AcDbLine
 10
-1.0
 20
0.1666666666666666
 30
0.0
 11
0.0
 21
0.0
 31
0.0
  0
LINE
  5
B5
330
B2
100
AcDbEntity
  8
0
  6
ByBlock
 62
     0
100
AcDbLine
 10
0.0
 20
0.0
 30
0.0
 11
-1.0
 21
-0.1666666666666666
 31
0.0
  0
LINE
  5
B6
330
B2
100
AcDbEntity
  8
0
  6
ByBlock
 62
     0
100
AcDbLine
 10
0.0
 20
0.0
 30
0.0
 11
-1.0
 21
0.0
 31
0.0
  0
ENDBLK
  5
B7
330
B2
100
AcDbEntity
  8
0
100
AcDbBlockEnd
  0
BLOCK
  5
E56
330
E4C
100
AcDbEntity
  8
0
100
AcDbBlockBegin
  2
*D1
 70
     1
 10
0.0
 20
0.0
 30
0.0
  3
*D1
  1

  0
LINE
  5
F31
330
E4C
100
AcDbEntity
  8
SUNPOU
100
AcDbLine
 10
253.0621216849607
 20
156.5109108355414
 30
0.0
 11
253.0621216849607
 21
95.35271848045614
 31
0.0
  0
LINE
  5
F32
330
E4C
100
AcDbEntity
  8
SUNPOU
100
AcDbLine
 10
200.2657768990926
 20
107.2110168355414
 30
0.0
 11
200.2657768990926
 21
95.35271848045614
 31
0.0
  0
LINE
  5
F33
330
E4C
100
AcDbEntity
  8
SUNPOU
100
AcDbLine
 10
250.0621216849607
 20
96.85271848045614
 30
0.0
 11
203.2657768990926
 21
96.85271848045614
 31
0.0
  0
INSERT
  5
F34
330
E4C
100
AcDbEntity
  8
SUNPOU
100
AcDbBlockReference
  2
_OPEN
 10
253.0621216849607
 20
96.85271848045614
 30
0.0
 41
3.0
 42
3.0
 43
3.0
  0
INSERT
  5
F35
330
E4C
100
AcDbEntity
  8
SUNPOU
100
AcDbBlockReference
  2
_OPEN
 10
200.2657768990926
 20
96.85271848045614
 30
0.0
 41
3.0
 42
3.0
 43
3.0
 50
180.0
  0
MTEXT
  5
F36
330
E4C
100
AcDbEntity
  8
SUNPOU
100
AcDbMText
 10
226.6639492920266
 20
99.35271848045614
 30
0.0
 40
3.0
 41
0.0
 71
     5
 72
     1
  1
\A1;53
 73
     1
 44
1.0
  0
POINT
  5
F37
330
E4C
100
AcDbEntity
  8
DEFPOINTS
 62
     0
100
AcDbPoint
 10
253.0621216849607
 20
159.5109108355414
 30
0.0
  0
POINT
  5
F38
330
E4C
100
AcDbEntity
  8
DEFPOINTS
 62
     0
100
AcDbPoint
 10
200.2657768990926
 20
110.2110168355414
 30
0.0
  0
POINT
  5
F39
330
E4C
100
AcDbEntity
  8
DEFPOINTS
 62
     0
100
AcDbPoint
 10
200.2657768990926
 20
96.85271848045614
 30
0.0
  0
ENDBLK
  5
E57
330
E4C
100
AcDbEntity
  8
0
100
AcDbBlockEnd
  0
BLOCK
  5
E62
330
E58
100
AcDbEntity
  8
0
100
AcDbBlockBegin
  2
*D2
 70
     1
 10
0.0
 20
0.0
 30
0.0
  3
*D2
  1

  0
LINE
  5
F3A
330
E58
100
AcDbEntity
  8
SUNPOU
100
AcDbLine
 10
257.0621156849607
 20
158.5109168355414
 30
0.0
 11
257.0621156849607
 21
184.4870120351264
 31
0.0
  0
LINE
  5
F3B
330
E58
100
AcDbEntity
  8
SUNPOU
100
AcDbLine
 10
143.5388926899607
 20
158.5109168355414
 30
0.0
 11
143.5388926899607
 21
184.4870120351264
 31
0.0
  0
LINE
  5
F3C
330
E58
100
AcDbEntity
  8
SUNPOU
100
AcDbLine
 10
254.0621156849607
 20
182.9870120351264
 30
0.0
 11
146.5388926899607
 21
182.9870120351264
 31
0.0
  0
INSERT
  5
F3D
330
E58
100
AcDbEntity
  8
SUNPOU
100
AcDbBlockReference
  2
_OPEN
 10
257.0621156849607
 20
182.9870120351264
 30
0.0
 41
3.0
 42
3.0
 43
3.0
  0
INSERT
  5
F3E
330
E58
100
AcDbEntity
  8
SUNPOU
100
AcDbBlockReference
  2
_OPEN
 10
143.5388926899607
 20
182.9870120351264
 30
0.0
 41
3.0
 42
3.0
 43
3.0
 50
180.0
  0
MTEXT
  5
F3F
330
E58
100
AcDbEntity
  8
SUNPOU
100
AcDbMText
 10
200.3005041874607
 20
185.4870120351264
 30
0.0
 40
3.0
 41
0.0
 71
     5
 72
     1
  1
\A1;114
 73
     1
 44
1.0
  0
POINT
  5
F40
330
E58
100
AcDbEntity
  8
DEFPOINTS
 62
     0
100
AcDbPoint
 10
257.0621156849607
 20
155.5109168355414
 30
0.0
  0
POINT
  5
F41
330
E58
100
AcDbEntity
  8
DEFPOINTS
 62
     0
100
AcDbPoint
 10
143.5388926899607
 20
155.5109168355414
 30
0.0
  0
POINT
  5
F42
330
E58
100
AcDbEntity
  8
DEFPOINTS
 62
     0
100
AcDbPoint
 10
143.5388926899607
 20
182.9870120351264
 30
0.0
  0
ENDBLK
  5
E63
330
E58
100
AcDbEntity
  8
0
100
AcDbBlockEnd
  0
BLOCK
  5
E6A
330
E64
100
AcDbEntity
  8
0
100
AcDbBlockBegin
  2
*D3
 70
     1
 10
0.0
 20
0.0
 30
0.0
  3
*D3
  1

  0
LINE
  5
F2C
330
E64
100
AcDbEntity
  8
SUNPOU
100
AcDbLine
 10
212.9708827721852
 20
144.5228272325726
 30
0.0
 11
229.6783671025317
 21
123.4403635661229
 31
0.0
  0
MTEXT
  5
F2D
330
E64
100
AcDbEntity
  8
SUNPOU
100
AcDbMText
 10
217.8804248439083
 20
142.3528280053882
 30
0.0
 40
3.0
 41
0.0
 71
     5
 72
     1
  1
\A1;R50
 11
0.6210959400511588
 21
-0.7837345425920485
 31
0.0
 73
     1
 44
1.0
  0
INSERT
  5
F2E
330
E64
100
AcDbEntity
  8
SUNPOU
100
AcDbBlockReference
  2
_OPEN
 10
231.5416549226852
 20
121.0891599383468
 30
0.0
 41
3.0
 42
3.0
 43
3.0
 50
308.3962100635897
  0
POINT
  5
F2F
330
E64
100
AcDbEntity
  8
DEFPOINTS
 62
     0
100
AcDbPoint
 10
231.5416549226852
 20
121.0891599383468
 30
0.0
  0
POINT
  5
F30
330
E64
100
AcDbEntity
  8
DEFPOINTS
 62
     0
100
AcDbPoint
 10
200.3005216849606
 20
160.5110168355414
 30
0.0
  0
ENDBLK
  5
E6B
330
E64
100
AcDbEntity
  8
0
100
AcDbBlockEnd
  0
BLOCK
  5
E84
330
E79
100
AcDbEntity
  8
0
100
AcDbBlockBegin
  2
*D4
 70
     1
 10
0.0
 20
0.0
 30
0.0
  3
*D4
  1

  0
LINE
  5
F43
330
E79
100
AcDbEntity
  8
SUNPOU
100
AcDbLine
 10
240.1209891148884
 20
131.7998609608279
 30
0.0
 11
241.2418906251454
 21
133.1695446015858
 31
0.0
  0
LINE
  5
F44
330
E79
100
AcDbEntity
  8
SUNPOU
100
AcDbLine
 10
241.1270516610758
 20
130.976534322561
 30
0.0
 11
242.2479531713327
 21
132.3462179633189
 31
0.0
  0
LINE
  5
F45
330
E79
100
AcDbEntity
  8
SUNPOU
100
AcDbLine
 10
237.9702432344982
 20
133.9086814977503
 30
0.0
 11
235.6485800804463
 21
135.8086499709408
 31
0.0
  0
LINE
  5
F46
330
E79
100
AcDbEntity
  8
SUNPOU
100
AcDbLine
 10
243.6196320887894
 20
129.2854179131025
 30
0.0
 11
251.3585092689625
 21
122.9521896691343
 31
0.0
  0
LINE
  5
F47
330
E79
100
AcDbEntity
  8
SUNPOU
100
AcDbLine
 10
240.2919063885501
 20
132.0087130245598
 30
0.0
 11
241.2979689347375
 21
131.185386386293
 31
0.0
  0
INSERT
  5
F48
330
E79
100
AcDbEntity
  8
SUNPOU
100
AcDbBlockReference
  2
_OPEN
 10
240.2919063885501
 20
132.0087130245598
 30
0.0
 41
3.0
 42
3.0
 43
3.0
 50
320.7042978078614
  0
INSERT
  5
F49
330
E79
100
AcDbEntity
  8
SUNPOU
100
AcDbBlockReference
  2
_OPEN
 10
241.2979689347375
 20
131.185386386293
 30
0.0
 41
3.0
 42
3.0
 43
3.0
 50
140.7042978078613
  0
MTEXT
  5
F4A
330
E79
100
AcDbEntity
  8
SUNPOU
100
AcDbMText
 10
250.233209316894
 20
127.1035388495664
 30
0.0
 40
3.0
 41
0.0
 71
     5
 72
     1
  1
\A1;1.3
 11
0.7738877180173081
 21
-0.6333228243968187
 31
0.0
 73
     1
 44
1.0
  0
POINT
  5
F4B
330
E79
100
AcDbEntity
  8
DEFPOINTS
 62
     0
100
AcDbPoint
 10
238.221020641698
 20
129.478197806776
 30
0.0
  0
POINT
  5
F4C
330
E79
100
AcDbEntity
  8
DEFPOINTS
 62
     0
100
AcDbPoint
 10
239.2270831878853
 20
128.6548711685091
 30
0.0
  0
POINT
  5
F4D
330
E79
100
AcDbEntity
  8
DEFPOINTS
 62
     0
100
AcDbPoint
 10
241.2979689347375
 20
131.185386386293
 30
0.0
  0
ENDBLK
  5
E85
330
E79
100
AcDbEntity
  8
0
100
AcDbBlockEnd
  0
ENDSEC
  0
SECTION
  2
ENTITIES
  0
LINE
  5
D1A
330
1A
100
AcDbEntity
  8
ZUWAKU
100
AcDbLine
 10
104.32330065859
 20
7.599999868288701
 30
0.0
 11
223.7121819990517
 21
7.599999868288698
 31
0.0
  0
LINE
  5
D1B
330
1A
100
AcDbEntity
  8
ZUWAKU
100
AcDbLine
 10
104.32330065859
 20
7.799999868288699
 30
0.0
 11
223.7121819990517
 21
7.799999868288702
 31
0.0
  0
LINE
  5
D1C
330
1A
100
AcDbEntity
  8
ZUWAKU
100
AcDbLine
 10
104.32330065859
 20
7.699999868288699
 30
0.0
 11
223.7121819990517
 21
7.699999868288699
 31
0.0
  0
LINE
  5
D1D
330
1A
100
AcDbEntity
  8
ZUWAKU
100
AcDbLine
 10
0.0000000135560185
 20
15.39999986828869
 30
0.0
 11
398.7000000135559
 21
15.39999986828869
 31
0.0
  0
LINE
  5
D1E
330
1A
100
AcDbEntity
  8
ZUWAKU
100
AcDbLine
 10
0.0000000135560185
 20
15.29999986828868
 30
0.0
 11
398.7000000135559
 21
15.29999986828868
 31
0.0
  0
LINE
  5
D1F
330
1A
100
AcDbEntity
  8
ZUWAKU
100
AcDbLine
 10
0.0000000135560185
 20
15.19999986828868
 30
0.0
 11
398.7000000135559
 21
15.19999986828868
 31
0.0
  0
LINE
  5
D20
330
1A
100
AcDbEntity
  8
ZUWAKU
100
AcDbLine
 10
0.0000000135560185
 20
15.09999986828868
 30
0.0
 11
398.7000000135559
 21
15.09999986828868
 31
0.0
  0
LINE
  5
D21
330
1A
100
AcDbEntity
  8
ZUWAKU
100
AcDbLine
 10
0.0000000135560185
 20
14.99999986828868
 30
0.0
 11
398.7000000135559
 21
14.99999986828868
 31
0.0
  0
LWPOLYLINE
  5
D22
330
1A
100
AcDbEntity
  8
ZUWAKU
100
AcDbPolyline
 90
        4
 70
     1
 43
0.0
 10
0.1000000135559844
 20
275.6999998682887
 10
0.1000000135559844
 20
0.0999998682887054
 10
398.7000000135559
 20
0.0999998682887169
 10
398.700000013556
 20
275.6999998682887
  0
LWPOLYLINE
  5
D23
330
1A
100
AcDbEntity
  8
ZUWAKU
100
AcDbPolyline
 90
        4
 70
     1
 43
0.0
 10
0.300000013555973
 20
275.4999998682887
 10
0.300000013555973
 20
0.2999998682886939
 10
398.5000000135561
 20
0.299999868288717
 10
398.500000013556
 20
275.4999998682887
  0
LWPOLYLINE
  5
D24
330
1A
100
AcDbEntity
  8
ZUWAKU
100
AcDbPolyline
 90
        4
 70
     1
 43
0.0
 10
0.0000000135560185
 20
275.7999998682886
 10
0.0000000135560185
 20
-0.0000001317113174
 10
398.800000013556
 20
-0.0000001317112837
 10
398.800000013556
 20
275.7999998682887
  0
LWPOLYLINE
  5
D25
330
1A
100
AcDbEntity
  8
ZUWAKU
100
AcDbPolyline
 90
        4
 70
     1
 43
0.0
 10
0.2000000135560072
 20
275.5999998682887
 10
0.2000000135560072
 20
0.1999998682887281
 10
398.600000013556
 20
0.1999998682887165
 10
398.600000013556
 20
275.5999998682887
  0
LWPOLYLINE
  5
D26
330
1A
100
AcDbEntity
  8
ZUWAKU
100
AcDbPolyline
 90
        4
 70
     1
 43
0.0
 10
0.4000000135559958
 20
275.3999998682887
 10
0.4000000135559958
 20
0.3999998682887167
 10
398.4000000135559
 20
0.3999998682887167
 10
398.4000000135559
 20
275.3999998682887
  0
TEXT
  5
D27
330
1A
100
AcDbEntity
  8
moji
100
AcDbText
 10
46.47889480764058
 20
6.370588933426063
 30
0.0
 40
3.0
  1
丸トップのきとい・半丸といＨ型
 41
0.9
  7
ｽﾀｲﾙ1
100
AcDbText
  0
HATCH
  5
D28
330
1A
100
AcDbEntity
  8
ZUWAKU
100
AcDbHatch
 10
0.0
 20
0.0
 30
0.0
210
0.0
220
0.0
230
1.0
  2
ANSI37
 70
     0
 71
     0
 91
        8
 92
        7
 72
     1
 73
     1
 93
       24
 10
7.251131344115947
 20
8.822424108780474
 42
-0.1989123673796348
 10
7.04610609094658
 20
9.317398855610999
 42
0.0
 10
7.04610609094658
 20
9.962499868288688
 42
-0.4142135623730912
 10
7.308606090946568
 20
10.22499986828868
 42
0.0
 10
8.796106090946523
 20
10.22499986828868
 42
0.4142135623731546
 10
9.058606090946568
 20
10.48749986828868
 42
0.0
 10
9.058606090946568
 20
11.36249986828868
 42
0.4142135623731586
 10
8.796106090946523
 20
11.62499986828868
 42
0.0
 10
7.04610609094658
 20
11.62499986828868
 42
0.4142135623730928
 10
5.646106090946602
 20
10.22499986828869
 42
0.0
 10
5.646106090946602
 20
9.317398855611063
 42
0.1989123673796619
 10
6.261181850454818
 20
7.832474615119259
 42
0.0
 10
7.716080837777155
 20
6.377575627796931
 42
-0.1989123673796613
 10
7.92110609094658
 20
5.882600880966338
 42
0.0
 10
7.92110609094658
 20
5.237499868288679
 42
-0.4142135623730911
 10
7.658606090946591
 20
4.974999868288684
 42
0.0
 10
6.171106090946636
 20
4.974999868288684
 42
0.4142135623731526
 10
5.908606090946591
 20
4.71249986828869
 42
0.0
 10
5.908606090946591
 20
3.837499868288679
 42
0.4142135623731526
 10
6.171106090946636
 20
3.574999868288685
 42
0.0
 10
7.92110609094658
 20
3.574999868288685
 42
0.4142135623731044
 10
9.321106090946614
 20
4.974999868288673
 42
0.0
 10
9.321106090946614
 20
5.882600880966309
 42
0.1989123673796604
 10
8.706030331438341
 20
7.367525121458079
 42
0.0
 97
        0
 92
        7
 72
     1
 73
     1
 93
       16
 10
11.7711060909466
 20
9.524999868288688
 42
-0.4142135623730935
 10
12.47110609094659
 20
10.22499986828868
 42
0.0
 10
13.43360609094657
 20
10.22499986828868
 42
0.4142135623731546
 10
13.69610609094661
 20
10.48749986828868
 42
0.0
 10
13.69610609094661
 20
11.36249986828868
 42
0.4142135623730951
 10
13.43360609094662
 20
11.62499986828868
 42
0.0
 10
12.47110609094653
 20
11.62499986828866
 42
0.4142135623730892
 10
10.37110609094656
 20
9.524999868288652
 42
0.0
 10
10.37110609094656
 20
5.674999868288697
 42
0.4142135623730969
 10
12.47110609094659
 20
3.574999868288685
 42
0.0
 10
13.43360609094657
 20
3.574999868288685
 42
0.4142135623731526
 10
13.69610609094661
 20
3.837499868288679
 42
0.0
 10
13.69610609094661
 20
4.71249986828869
 42
0.4142135623730891
 10
13.43360609094662
 20
4.974999868288684
 42
0.0
 10
12.47110609094659
 20
4.974999868288684
 42
-0.4142135623730928
 10
11.7711060909466
 20
5.674999868288677
 42
0.0
 97
        0
 92
        7
 72
     1
 73
     1
 93
        2
 10
12.12110609094656
 20
7.599999868288684
 42
1.0
 10
13.87110609094657
 20
7.599999868288684
 42
1.0
 97
        0
 92
        7
 72
     1
 73
     1
 93
       26
 10
18.65742933203557
 20
9.602523465070397
 42
0.0
 10
19.18824914860448
 20
11.28345288420519
 42
0.5069206636600134
 10
18.9379336990068
 20
11.62499986828868
 42
0.0
 10
18.08848900920219
 20
11.62499986828868
 42
0.3272098845218764
 10
17.83817355960451
 20
11.44154685237217
 42
0.0
 10
16.90403862228862
 20
8.483452884205224
 42
-0.3272098845219541
 10
16.65372317269088
 20
8.299999868288683
 42
0.0
 10
16.58360609094666
 20
8.299999868288683
 42
-0.4142135623731526
 10
16.32110609094661
 20
8.562499868288677
 42
0.0
 10
16.32110609094661
 20
11.36249986828868
 42
0.4142135623730951
 10
16.05860609094662
 20
11.62499986828868
 42
0.0
 10
15.18360609094656
 20
11.62499986828868
 42
0.4142135623730871
 10
14.92110609094658
 20
11.36249986828869
 42
0.0
 10
14.92110609094658
 20
3.837499868288679
 42
0.4142135623730891
 10
15.18360609094656
 20
3.574999868288685
 42
0.0
 10
16.05860609094657
 20
3.574999868288685
 42
0.4142135623731526
 10
16.32110609094661
 20
3.837499868288679
 42
0.0
 10
16.32110609094661
 20
6.63749986828869
 42
-0.4142135623731526
 10
16.58360609094666
 20
6.899999868288684
 42
0.0
 10
16.65372317269094
 20
6.899999868288684
 42
-0.3272098845218915
 10
16.90403862228862
 20
6.716546852372147
 42
0.0
 10
17.83817355960451
 20
3.758452884205221
 42
0.3272098845218902
 10
18.08848900920219
 20
3.574999868288685
 42
0.0
 10
18.9379336990068
 20
3.574999868288685
 42
0.5069206636600335
 10
19.18824914860448
 20
3.916546852372189
 42
0.0
 10
18.02505345936765
 20
7.599999868288753
 42
0.0
 97
        0
 92
        7
 72
     1
 73
     1
 93
        8
 10
21.74610609094656
 20
11.36249986828869
 42
0.4142135623731546
 10
21.48360609094652
 20
11.62499986828868
 42
0.0
 10
20.60860609094663
 20
11.62499986828868
 42
0.4142135623731507
 10
20.34610609094659
 20
11.36249986828869
 42
0.0
 10
20.34610609094659
 20
3.837499868288679
 42
0.4142135623731526
 10
20.60860609094663
 20
3.574999868288685
 42
0.0
 10
21.48360609094652
 20
3.574999868288685
 42
0.4142135623731526
 10
21.74610609094656
 20
3.837499868288679
 42
0.0
 97
        0
 92
        7
 72
     1
 73
     1
 93
       24
 10
24.19610609094661
 20
9.962499868288688
 42
-0.4142135623731546
 10
24.45860609094665
 20
10.22499986828868
 42
0.0
 10
25.94610609094661
 20
10.22499986828868
 42
0.4142135623730911
 10
26.2086060909466
 20
10.48749986828868
 42
0.0
 10
26.2086060909466
 20
11.36249986828868
 42
0.4142135623730952
 10
25.94610609094661
 20
11.62499986828868
 42
0.0
 10
24.19610609094661
 20
11.62499986828868
 42
0.4142135623731048
 10
22.79610609094658
 20
10.22499986828869
 42
0.0
 10
22.79610609094658
 20
9.317398855611063
 42
0.1989123673796613
 10
23.41118185045485
 20
7.832474615119288
 42
0.0
 10
24.86608083777719
 20
6.377575627796954
 42
-0.1989123673796402
 10
25.07110609094661
 20
5.882600880966418
 42
0.0
 10
25.07110609094661
 20
5.237499868288679
 42
-0.4142135623730911
 10
24.80860609094662
 20
4.974999868288684
 42
0.0
 10
23.32110609094661
 20
4.974999868288684
 42
0.4142135623731526
 10
23.05860609094656
 20
4.71249986828869
 42
0.0
 10
23.05860609094656
 20
3.837499868288679
 42
0.4142135623730891
 10
23.32110609094655
 20
3.574999868288685
 42
0.0
 10
25.07110609094661
 20
3.574999868288685
 42
0.4142135623730925
 10
26.47110609094659
 20
4.974999868288673
 42
0.0
 10
26.47110609094659
 20
5.882600880966309
 42
0.1989123673796675
 10
25.85603033143831
 20
7.367525121458136
 42
0.0
 10
24.40113134411603
 20
8.822424108780394
 42
-0.1989123673796652
 10
24.19610609094661
 20
9.317398855610978
 42
0.0
 97
        0
 92
        7
 72
     1
 73
     1
 93
       16
 10
28.92110609094658
 20
11.36249986828868
 42
0.414213562373103
 10
28.65860609094659
 20
11.62499986828868
 42
0.0
 10
27.78360609094659
 20
11.62499986828868
 42
0.4142135623730871
 10
27.5211060909466
 20
11.36249986828869
 42
0.0
 10
27.5211060909466
 20
4.974999868288673
 42
0.4142135623730926
 10
28.92110609094658
 20
3.574999868288685
 42
0.0
 10
30.67110609094658
 20
3.574999868288685
 42
0.4142135623731044
 10
32.07110609094661
 20
4.974999868288673
 42
0.0
 10
32.07110609094661
 20
11.36249986828868
 42
0.4142135623730951
 10
31.80860609094662
 20
11.62499986828868
 42
0.0
 10
30.93360609094657
 20
11.62499986828868
 42
0.4142135623730871
 10
30.67110609094658
 20
11.36249986828869
 42
0.0
 10
30.67110609094658
 20
5.499999868288671
 42
-0.414213562373088
 10
30.1461060909466
 20
4.974999868288684
 42
0.0
 10
29.44610609094661
 20
4.974999868288684
 42
-0.4142135623731197
 10
28.92110609094658
 20
5.499999868288671
 42
0.0
 97
        0
 92
        7
 72
     1
 73
     1
 93
        8
 10
34.5211060909466
 20
11.36249986828869
 42
0.4142135623730871
 10
34.25860609094661
 20
11.62499986828868
 42
0.0
 10
33.38360609094661
 20
11.62499986828868
 42
0.4142135623731507
 10
33.12110609094657
 20
11.36249986828869
 42
0.0
 10
33.12110609094657
 20
3.837499868288679
 42
0.4142135623730891
 10
33.38360609094655
 20
3.574999868288685
 42
0.0
 10
34.25860609094661
 20
3.574999868288685
 42
0.4142135623730891
 10
34.5211060909466
 20
3.837499868288679
 42
0.0
 97
        0
 75
     0
 76
     1
 52
0.0
 41
0.1
 77
     0
 78
     2
 53
45.0
 43
-450.4711521537834
 44
-6.600000131711283
 45
-0.2245064030267288
 46
0.2245064030267288
 79
     0
 53
135.0
 43
-450.4711521537834
 44
-6.600000131711283
 45
-0.2245064030267288
 46
-0.2245064030267288
 79
     0
 47
0.057451373970553
 98
        8
 10
8.039927495067672
 20
7.58358669123146
 10
11.2022575167756
 20
9.422030959514188
 10
12.58218395638584
 20
7.755940691324042
 10
15.45703000437458
 20
8.100648691509434
 10
20.91923602303438
 20
8.330454825280241
 10
23.44910046112079
 20
9.709288026492288
 10
28.27884299975619
 20
9.36457882583619
 10
33.91353982336738
 20
9.594384959606998
  0
LINE
  5
D29
330
1A
100
AcDbEntity
  8
ZUWAKU
100
AcDbLine
 10
12.47110609094659
 20
11.62499986828866
 30
0.0
 11
13.43360609094657
 21
11.62499986828868
 31
0.0
  0
LINE
  5
D2A
330
1A
100
AcDbEntity
  8
ZUWAKU
100
AcDbLine
 10
13.43360609094657
 20
10.22499986828868
 30
0.0
 11
12.47110609094659
 21
10.22499986828868
 31
0.0
  0
LINE
  5
D2B
330
1A
100
AcDbEntity
  8
ZUWAKU
100
AcDbLine
 10
12.47110609094659
 20
4.974999868288684
 30
0.0
 11
13.43360609094657
 21
4.974999868288684
 31
0.0
  0
LINE
  5
D2C
330
1A
100
AcDbEntity
  8
ZUWAKU
100
AcDbLine
 10
13.43360609094657
 20
3.574999868288685
 30
0.0
 11
12.47110609094659
 21
3.574999868288685
 31
0.0
  0
CIRCLE
  5
D2D
330
1A
100
AcDbEntity
  8
ZUWAKU
100
AcDbCircle
 10
12.99610609094656
 20
7.599999868288684
 30
0.0
 40
0.875
  0
ARC
  5
D2E
330
1A
100
AcDbEntity
  8
ZUWAKU
100
AcDbCircle
 10
7.746106090946568
 20
9.317398855611035
 30
0.0
 40
0.7
100
AcDbArc
 50
180.0000000000016
 51
224.9999999999988
  0
LINE
  5
D2F
330
1A
100
AcDbEntity
  8
ZUWAKU
100
AcDbLine
 10
11.7711060909466
 20
9.524999868288684
 30
0.0
 11
11.7711060909466
 21
5.674999868288686
 31
0.0
  0
LINE
  5
D30
330
1A
100
AcDbEntity
  8
ZUWAKU
100
AcDbLine
 10
10.37110609094656
 20
5.674999868288686
 30
0.0
 11
10.37110609094656
 21
9.524999868288663
 31
0.0
  0
ARC
  5
D31
330
1A
100
AcDbEntity
  8
ZUWAKU
100
AcDbCircle
 10
7.746106090946568
 20
9.317398855611035
 30
0.0
 40
2.099999999999999
100
AcDbArc
 50
180.0
 51
225.0
  0
ARC
  5
D32
330
1A
100
AcDbEntity
  8
ZUWAKU
100
AcDbCircle
 10
7.92110609094658
 20
4.974999868288684
 30
0.0
 40
1.399999999999999
100
AcDbArc
 50
270.0
 51
0.0
  0
ARC
  5
D33
330
1A
100
AcDbEntity
  8
ZUWAKU
100
AcDbCircle
 10
12.47110609094659
 20
5.674999868288686
 30
0.0
 40
2.099999999999999
100
AcDbArc
 50
180.0
 51
270.0
  0
ARC
  5
D34
330
1A
100
AcDbEntity
  8
ZUWAKU
100
AcDbCircle
 10
7.221106090946591
 20
5.882600880966336
 30
0.0
 40
2.099999999999999
100
AcDbArc
 50
0.0
 51
45.0
  0
LINE
  5
D35
330
1A
100
AcDbEntity
  8
ZUWAKU
100
AcDbLine
 10
8.706030331438341
 20
7.367525121458097
 30
0.0
 11
7.251131344116004
 21
8.822424108780435
 31
0.0
  0
LINE
  5
D36
330
1A
100
AcDbEntity
  8
ZUWAKU
100
AcDbLine
 10
7.92110609094658
 20
5.237499868288686
 30
0.0
 11
7.92110609094658
 21
5.882600880966357
 31
0.0
  0
ARC
  5
D37
330
1A
100
AcDbEntity
  8
ZUWAKU
100
AcDbCircle
 10
7.658606090946591
 20
5.237499868288686
 30
0.0
 40
0.2625
100
AcDbArc
 50
270.0
 51
0.0
  0
ARC
  5
D38
330
1A
100
AcDbEntity
  8
ZUWAKU
100
AcDbCircle
 10
7.221106090946591
 20
5.882600880966357
 30
0.0
 40
0.7
100
AcDbArc
 50
0.0
 51
45.0
  0
LINE
  5
D39
330
1A
100
AcDbEntity
  8
ZUWAKU
100
AcDbLine
 10
5.908606090946591
 20
3.837499868288684
 30
0.0
 11
5.908606090946591
 21
4.712499868288684
 31
0.0
  0
ARC
  5
D3A
330
1A
100
AcDbEntity
  8
ZUWAKU
100
AcDbCircle
 10
6.17110609094658
 20
3.837499868288684
 30
0.0
 40
0.2625
100
AcDbArc
 50
180.0
 51
270.0
  0
ARC
  5
D3B
330
1A
100
AcDbEntity
  8
ZUWAKU
100
AcDbCircle
 10
6.17110609094658
 20
4.712499868288684
 30
0.0
 40
0.2625
100
AcDbArc
 50
90.0
 51
180.0
  0
LINE
  5
D3C
330
1A
100
AcDbEntity
  8
ZUWAKU
100
AcDbLine
 10
6.17110609094658
 20
3.574999868288685
 30
0.0
 11
7.92110609094658
 21
3.574999868288685
 31
0.0
  0
LINE
  5
D3D
330
1A
100
AcDbEntity
  8
ZUWAKU
100
AcDbLine
 10
6.17110609094658
 20
4.974999868288684
 30
0.0
 11
7.658606090946591
 21
4.974999868288684
 31
0.0
  0
LINE
  5
D3E
330
1A
100
AcDbEntity
  8
ZUWAKU
100
AcDbLine
 10
6.261181850454818
 20
7.832474615119274
 30
0.0
 11
7.716080837777155
 21
6.377575627796943
 31
0.0
  0
LINE
  5
D3F
330
1A
100
AcDbEntity
  8
ZUWAKU
100
AcDbLine
 10
9.321106090946614
 20
4.974999868288684
 30
0.0
 11
9.321106090946614
 21
5.882600880966357
 31
0.0
  0
ARC
  5
D40
330
1A
100
AcDbEntity
  8
ZUWAKU
100
AcDbCircle
 10
12.47110609094659
 20
5.674999868288686
 30
0.0
 40
0.7
100
AcDbArc
 50
180.0
 51
270.0
  0
ARC
  5
D41
330
1A
100
AcDbEntity
  8
ZUWAKU
100
AcDbCircle
 10
8.79610609094658
 20
11.36249986828868
 30
0.0
 40
0.2625
100
AcDbArc
 50
0.0
 51
90.0
  0
ARC
  5
D42
330
1A
100
AcDbEntity
  8
ZUWAKU
100
AcDbCircle
 10
8.79610609094658
 20
10.48749986828868
 30
0.0
 40
0.2625
100
AcDbArc
 50
270.0
 51
0.0
  0
LINE
  5
D43
330
1A
100
AcDbEntity
  8
ZUWAKU
100
AcDbLine
 10
7.04610609094658
 20
11.62499986828868
 30
0.0
 11
8.79610609094658
 21
11.62499986828868
 31
0.0
  0
ARC
  5
D44
330
1A
100
AcDbEntity
  8
ZUWAKU
100
AcDbCircle
 10
7.308606090946568
 20
9.962499868288684
 30
0.0
 40
0.2625
100
AcDbArc
 50
90.0
 51
180.0
  0
LINE
  5
D45
330
1A
100
AcDbEntity
  8
ZUWAKU
100
AcDbLine
 10
7.04610609094658
 20
9.962499868288684
 30
0.0
 11
7.04610609094658
 21
9.317398855611013
 31
0.0
  0
LINE
  5
D46
330
1A
100
AcDbEntity
  8
ZUWAKU
100
AcDbLine
 10
8.79610609094658
 20
10.22499986828868
 30
0.0
 11
7.308606090946568
 21
10.22499986828868
 31
0.0
  0
LINE
  5
D47
330
1A
100
AcDbEntity
  8
ZUWAKU
100
AcDbLine
 10
5.646106090946602
 20
10.22499986828868
 30
0.0
 11
5.646106090946602
 21
9.317398855611013
 31
0.0
  0
ARC
  5
D48
330
1A
100
AcDbEntity
  8
ZUWAKU
100
AcDbCircle
 10
7.04610609094658
 20
10.22499986828868
 30
0.0
 40
1.399999999999999
100
AcDbArc
 50
90.0
 51
180.0
  0
LINE
  5
D49
330
1A
100
AcDbEntity
  8
ZUWAKU
100
AcDbLine
 10
9.058606090946568
 20
11.36249986828868
 30
0.0
 11
9.058606090946568
 21
10.48749986828868
 31
0.0
  0
ARC
  5
D4A
330
1A
100
AcDbEntity
  8
ZUWAKU
100
AcDbCircle
 10
12.47110609094659
 20
9.524999868288684
 30
0.0
 40
0.7
100
AcDbArc
 50
90.0
 51
180.0
  0
ARC
  5
D4B
330
1A
100
AcDbEntity
  8
ZUWAKU
100
AcDbCircle
 10
12.47110609094659
 20
9.524999868288663
 30
0.0
 40
2.099999999999999
100
AcDbArc
 50
90.0
 51
180.0
  0
LINE
  5
D4C
330
1A
100
AcDbEntity
  8
ZUWAKU
100
AcDbLine
 10
39.66331478755012
 20
14.99999986828868
 30
0.0
 11
39.66331478755023
 21
0.3999998682887167
 31
0.0
  0
LINE
  5
D4D
330
1A
100
AcDbEntity
  8
ZUWAKU
100
AcDbLine
 10
39.76331478755014
 20
14.99999986828868
 30
0.0
 11
39.76331478755025
 21
0.3999998682887167
 31
0.0
  0
LINE
  5
D4E
330
1A
100
AcDbEntity
  8
ZUWAKU
100
AcDbLine
 10
39.56331478755021
 20
14.99999986828868
 30
0.0
 11
39.56331478755021
 21
0.3999998682887167
 31
0.0
  0
LINE
  5
D4F
330
1A
100
AcDbEntity
  8
ZUWAKU
100
AcDbLine
 10
32.07110609094661
 20
4.974999868288684
 30
0.0
 11
32.07110609094661
 21
11.36249986828868
 31
0.0
  0
LINE
  5
D50
330
1A
100
AcDbEntity
  8
ZUWAKU
100
AcDbLine
 10
30.67110609094658
 20
11.36249986828868
 30
0.0
 11
30.67110609094658
 21
5.499999868288682
 31
0.0
  0
LINE
  5
D51
330
1A
100
AcDbEntity
  8
ZUWAKU
100
AcDbLine
 10
34.5211060909466
 20
3.837499868288684
 30
0.0
 11
34.5211060909466
 21
11.36249986828868
 31
0.0
  0
LINE
  5
D52
330
1A
100
AcDbEntity
  8
ZUWAKU
100
AcDbLine
 10
33.12110609094657
 20
11.36249986828868
 30
0.0
 11
33.12110609094657
 21
3.837499868288684
 31
0.0
  0
ARC
  5
D53
330
1A
100
AcDbEntity
  8
ZUWAKU
100
AcDbCircle
 10
24.8961060909466
 20
9.317398855611035
 30
0.0
 40
0.7
100
AcDbArc
 50
180.0000000000016
 51
224.9999999999988
  0
ARC
  5
D54
330
1A
100
AcDbEntity
  8
ZUWAKU
100
AcDbCircle
 10
24.8961060909466
 20
9.317398855611035
 30
0.0
 40
2.099999999999999
100
AcDbArc
 50
180.0
 51
225.0
  0
LINE
  5
D55
330
1A
100
AcDbEntity
  8
ZUWAKU
100
AcDbLine
 10
18.65742933203557
 20
9.602523465070397
 30
0.0
 11
18.02505345936765
 21
7.599999868288694
 31
0.0
  0
LINE
  5
D56
330
1A
100
AcDbEntity
  8
ZUWAKU
100
AcDbLine
 10
20.34610609094659
 20
11.36249986828868
 30
0.0
 11
20.34610609094659
 21
3.837499868288684
 31
0.0
  0
LINE
  5
D57
330
1A
100
AcDbEntity
  8
ZUWAKU
100
AcDbLine
 10
21.74610609094656
 20
3.837499868288684
 30
0.0
 11
21.74610609094656
 21
11.36249986828868
 31
0.0
  0
LINE
  5
D58
330
1A
100
AcDbEntity
  8
ZUWAKU
100
AcDbLine
 10
27.5211060909466
 20
11.36249986828868
 30
0.0
 11
27.5211060909466
 21
4.974999868288684
 31
0.0
  0
LINE
  5
D59
330
1A
100
AcDbEntity
  8
ZUWAKU
100
AcDbLine
 10
28.92110609094658
 20
5.499999868288682
 30
0.0
 11
28.92110609094658
 21
11.36249986828868
 31
0.0
  0
LINE
  5
D5A
330
1A
100
AcDbEntity
  8
ZUWAKU
100
AcDbLine
 10
16.32110609094661
 20
8.562499868288686
 30
0.0
 11
16.32110609094661
 21
11.36249986828868
 31
0.0
  0
LINE
  5
D5B
330
1A
100
AcDbEntity
  8
ZUWAKU
100
AcDbLine
 10
14.92110609094658
 20
11.36249986828868
 30
0.0
 11
14.92110609094658
 21
3.837499868288684
 31
0.0
  0
LINE
  5
D5C
330
1A
100
AcDbEntity
  8
ZUWAKU
100
AcDbLine
 10
17.83817355960451
 20
11.44154685237217
 30
0.0
 11
16.90403862228862
 21
8.483452884205199
 31
0.0
  0
LINE
  5
D5D
330
1A
100
AcDbEntity
  8
ZUWAKU
100
AcDbLine
 10
30.1461060909466
 20
4.974999868288684
 30
0.0
 11
29.44610609094661
 21
4.974999868288684
 31
0.0
  0
LINE
  5
D5E
330
1A
100
AcDbEntity
  8
ZUWAKU
100
AcDbLine
 10
28.92110609094658
 20
3.574999868288685
 30
0.0
 11
30.67110609094658
 21
3.574999868288685
 31
0.0
  0
LINE
  5
D5F
330
1A
100
AcDbEntity
  8
ZUWAKU
100
AcDbLine
 10
20.60860609094658
 20
3.574999868288685
 30
0.0
 11
21.48360609094658
 21
3.574999868288685
 31
0.0
  0
LINE
  5
D60
330
1A
100
AcDbEntity
  8
ZUWAKU
100
AcDbLine
 10
17.83817355960451
 20
3.758452884205198
 30
0.0
 11
16.90403862228862
 21
6.716546852372168
 31
0.0
  0
ARC
  5
D61
330
1A
100
AcDbEntity
  8
ZUWAKU
100
AcDbCircle
 10
16.65372317269094
 20
8.562499868288686
 30
0.0
 40
0.2625
100
AcDbArc
 50
270.0
 51
342.4744316262769
  0
LINE
  5
D62
330
1A
100
AcDbEntity
  8
ZUWAKU
100
AcDbLine
 10
16.65372317269094
 20
8.299999868288683
 30
0.0
 11
16.5836060909466
 21
8.299999868288683
 31
0.0
  0
LINE
  5
D63
330
1A
100
AcDbEntity
  8
ZUWAKU
100
AcDbLine
 10
16.5836060909466
 20
6.899999868288684
 30
0.0
 11
16.65372317269094
 21
6.899999868288684
 31
0.0
  0
ARC
  5
D64
330
1A
100
AcDbEntity
  8
ZUWAKU
100
AcDbCircle
 10
16.5836060909466
 20
8.562499868288686
 30
0.0
 40
0.2625
100
AcDbArc
 50
180.0
 51
270.0
  0
LINE
  5
D65
330
1A
100
AcDbEntity
  8
ZUWAKU
100
AcDbLine
 10
15.18360609094656
 20
3.574999868288685
 30
0.0
 11
16.05860609094657
 21
3.574999868288685
 31
0.0
  0
ARC
  5
D66
330
1A
100
AcDbEntity
  8
ZUWAKU
100
AcDbCircle
 10
16.05860609094657
 20
3.837499868288684
 30
0.0
 40
0.2625
100
AcDbArc
 50
270.0
 51
0.0
  0
LINE
  5
D67
330
1A
100
AcDbEntity
  8
ZUWAKU
100
AcDbLine
 10
16.32110609094661
 20
3.837499868288684
 30
0.0
 11
16.32110609094661
 21
6.637499868288685
 31
0.0
  0
LINE
  5
D68
330
1A
100
AcDbEntity
  8
ZUWAKU
100
AcDbLine
 10
13.69610609094661
 20
4.712499868288684
 30
0.0
 11
13.69610609094661
 21
3.837499868288684
 31
0.0
  0
ARC
  5
D69
330
1A
100
AcDbEntity
  8
ZUWAKU
100
AcDbCircle
 10
13.43360609094657
 20
3.837499868288684
 30
0.0
 40
0.2625
100
AcDbArc
 50
270.0
 51
0.0
  0
ARC
  5
D6A
330
1A
100
AcDbEntity
  8
ZUWAKU
100
AcDbCircle
 10
13.43360609094657
 20
4.712499868288684
 30
0.0
 40
0.2625
100
AcDbArc
 50
0.0
 51
90.0
  0
ARC
  5
D6B
330
1A
100
AcDbEntity
  8
ZUWAKU
100
AcDbCircle
 10
15.18360609094656
 20
3.837499868288684
 30
0.0
 40
0.2625
100
AcDbArc
 50
180.0
 51
270.0
  0
ARC
  5
D6C
330
1A
100
AcDbEntity
  8
ZUWAKU
100
AcDbCircle
 10
16.65372317269094
 20
6.637499868288685
 30
0.0
 40
0.2625
100
AcDbArc
 50
17.52556837372303
 51
90.0
  0
ARC
  5
D6D
330
1A
100
AcDbEntity
  8
ZUWAKU
100
AcDbCircle
 10
16.5836060909466
 20
6.637499868288685
 30
0.0
 40
0.2625
100
AcDbArc
 50
90.0
 51
180.0
  0
ARC
  5
D6E
330
1A
100
AcDbEntity
  8
ZUWAKU
100
AcDbCircle
 10
20.60860609094658
 20
3.837499868288684
 30
0.0
 40
0.2625
100
AcDbArc
 50
180.0
 51
270.0
  0
LINE
  5
D6F
330
1A
100
AcDbEntity
  8
ZUWAKU
100
AcDbLine
 10
18.08848900920224
 20
3.574999868288685
 30
0.0
 11
18.93793369900675
 21
3.574999868288685
 31
0.0
  0
ARC
  5
D70
330
1A
100
AcDbEntity
  8
ZUWAKU
100
AcDbCircle
 10
18.93793369900675
 20
3.837499868288684
 30
0.0
 40
0.2625
100
AcDbArc
 50
270.0
 51
17.52556837372303
  0
LINE
  5
D71
330
1A
100
AcDbEntity
  8
ZUWAKU
100
AcDbLine
 10
19.18824914860448
 20
3.916546852372171
 30
0.0
 11
18.02505345936765
 21
7.599999868288694
 31
0.0
  0
ARC
  5
D72
330
1A
100
AcDbEntity
  8
ZUWAKU
100
AcDbCircle
 10
18.08848900920224
 20
3.837499868288684
 30
0.0
 40
0.2625
100
AcDbArc
 50
197.525568373723
 51
270.0
  0
ARC
  5
D73
330
1A
100
AcDbEntity
  8
ZUWAKU
100
AcDbCircle
 10
28.92110609094658
 20
4.974999868288684
 30
0.0
 40
1.399999999999999
100
AcDbArc
 50
180.0
 51
270.0
  0
ARC
  5
D74
330
1A
100
AcDbEntity
  8
ZUWAKU
100
AcDbCircle
 10
25.07110609094661
 20
4.974999868288684
 30
0.0
 40
1.399999999999999
100
AcDbArc
 50
270.0
 51
0.0
  0
LINE
  5
D75
330
1A
100
AcDbEntity
  8
ZUWAKU
100
AcDbLine
 10
25.85603033143837
 20
7.367525121458097
 30
0.0
 11
24.40113134411598
 21
8.822424108780435
 31
0.0
  0
LINE
  5
D76
330
1A
100
AcDbEntity
  8
ZUWAKU
100
AcDbLine
 10
25.07110609094661
 20
5.237499868288686
 30
0.0
 11
25.07110609094661
 21
5.882600880966357
 31
0.0
  0
ARC
  5
D77
330
1A
100
AcDbEntity
  8
ZUWAKU
100
AcDbCircle
 10
24.37110609094657
 20
5.882600880966357
 30
0.0
 40
0.7
100
AcDbArc
 50
0.0
 51
45.0
  0
ARC
  5
D78
330
1A
100
AcDbEntity
  8
ZUWAKU
100
AcDbCircle
 10
24.80860609094657
 20
5.237499868288686
 30
0.0
 40
0.2625
100
AcDbArc
 50
270.0
 51
0.0
  0
LINE
  5
D79
330
1A
100
AcDbEntity
  8
ZUWAKU
100
AcDbLine
 10
23.05860609094656
 20
3.837499868288684
 30
0.0
 11
23.05860609094656
 21
4.712499868288684
 31
0.0
  0
ARC
  5
D7A
330
1A
100
AcDbEntity
  8
ZUWAKU
100
AcDbCircle
 10
23.32110609094661
 20
3.837499868288684
 30
0.0
 40
0.2625
100
AcDbArc
 50
180.0
 51
270.0
  0
ARC
  5
D7B
330
1A
100
AcDbEntity
  8
ZUWAKU
100
AcDbCircle
 10
21.48360609094658
 20
3.837499868288684
 30
0.0
 40
0.2625
100
AcDbArc
 50
270.0
 51
0.0
  0
ARC
  5
D7C
330
1A
100
AcDbEntity
  8
ZUWAKU
100
AcDbCircle
 10
23.32110609094661
 20
4.712499868288684
 30
0.0
 40
0.2625
100
AcDbArc
 50
90.0
 51
180.0
  0
LINE
  5
D7D
330
1A
100
AcDbEntity
  8
ZUWAKU
100
AcDbLine
 10
23.32110609094661
 20
4.974999868288684
 30
0.0
 11
24.80860609094657
 21
4.974999868288684
 31
0.0
  0
LINE
  5
D7E
330
1A
100
AcDbEntity
  8
ZUWAKU
100
AcDbLine
 10
23.32110609094661
 20
3.574999868288685
 30
0.0
 11
25.07110609094661
 21
3.574999868288685
 31
0.0
  0
LINE
  5
D7F
330
1A
100
AcDbEntity
  8
ZUWAKU
100
AcDbLine
 10
23.41118185045485
 20
7.832474615119274
 30
0.0
 11
24.86608083777719
 21
6.377575627796943
 31
0.0
  0
LINE
  5
D80
330
1A
100
AcDbEntity
  8
ZUWAKU
100
AcDbLine
 10
26.47110609094659
 20
4.974999868288684
 30
0.0
 11
26.47110609094659
 21
5.882600880966357
 31
0.0
  0
ARC
  5
D81
330
1A
100
AcDbEntity
  8
ZUWAKU
100
AcDbCircle
 10
24.37110609094657
 20
5.882600880966336
 30
0.0
 40
2.099999999999999
100
AcDbArc
 50
0.0
 51
45.0
  0
ARC
  5
D82
330
1A
100
AcDbEntity
  8
ZUWAKU
100
AcDbCircle
 10
29.44610609094661
 20
5.499999868288682
 30
0.0
 40
0.525
100
AcDbArc
 50
180.0
 51
270.0
  0
ARC
  5
D83
330
1A
100
AcDbEntity
  8
ZUWAKU
100
AcDbCircle
 10
30.67110609094658
 20
4.974999868288684
 30
0.0
 40
1.399999999999999
100
AcDbArc
 50
270.0
 51
0.0
  0
LINE
  5
D84
330
1A
100
AcDbEntity
  8
ZUWAKU
100
AcDbLine
 10
33.38360609094661
 20
3.574999868288685
 30
0.0
 11
34.25860609094661
 21
3.574999868288685
 31
0.0
  0
ARC
  5
D85
330
1A
100
AcDbEntity
  8
ZUWAKU
100
AcDbCircle
 10
33.38360609094661
 20
3.837499868288684
 30
0.0
 40
0.2625
100
AcDbArc
 50
180.0
 51
270.0
  0
ARC
  5
D86
330
1A
100
AcDbEntity
  8
ZUWAKU
100
AcDbCircle
 10
30.1461060909466
 20
5.499999868288682
 30
0.0
 40
0.525
100
AcDbArc
 50
270.0
 51
0.0
  0
ARC
  5
D87
330
1A
100
AcDbEntity
  8
ZUWAKU
100
AcDbCircle
 10
34.25860609094661
 20
3.837499868288684
 30
0.0
 40
0.2625
100
AcDbArc
 50
270.0
 51
0.0
  0
LINE
  5
D88
330
1A
100
AcDbEntity
  8
ZUWAKU
100
AcDbLine
 10
21.48360609094658
 20
11.62499986828868
 30
0.0
 11
20.60860609094658
 21
11.62499986828868
 31
0.0
  0
ARC
  5
D89
330
1A
100
AcDbEntity
  8
ZUWAKU
100
AcDbCircle
 10
16.05860609094657
 20
11.36249986828868
 30
0.0
 40
0.2625
100
AcDbArc
 50
0.0
 51
90.0
  0
LINE
  5
D8A
330
1A
100
AcDbEntity
  8
ZUWAKU
100
AcDbLine
 10
16.05860609094657
 20
11.62499986828868
 30
0.0
 11
15.18360609094656
 21
11.62499986828868
 31
0.0
  0
ARC
  5
D8B
330
1A
100
AcDbEntity
  8
ZUWAKU
100
AcDbCircle
 10
13.43360609094657
 20
11.36249986828868
 30
0.0
 40
0.2625
100
AcDbArc
 50
0.0
 51
90.0
  0
ARC
  5
D8C
330
1A
100
AcDbEntity
  8
ZUWAKU
100
AcDbCircle
 10
15.18360609094656
 20
11.36249986828868
 30
0.0
 40
0.2625
100
AcDbArc
 50
90.0
 51
180.0
  0
ARC
  5
D8D
330
1A
100
AcDbEntity
  8
ZUWAKU
100
AcDbCircle
 10
13.43360609094657
 20
10.48749986828868
 30
0.0
 40
0.2625
100
AcDbArc
 50
270.0
 51
0.0
  0
LINE
  5
D8E
330
1A
100
AcDbEntity
  8
ZUWAKU
100
AcDbLine
 10
13.69610609094661
 20
11.36249986828868
 30
0.0
 11
13.69610609094661
 21
10.48749986828868
 31
0.0
  0
ARC
  5
D8F
330
1A
100
AcDbEntity
  8
ZUWAKU
100
AcDbCircle
 10
20.60860609094658
 20
11.36249986828868
 30
0.0
 40
0.2625
100
AcDbArc
 50
90.0
 51
180.0
  0
LINE
  5
D90
330
1A
100
AcDbEntity
  8
ZUWAKU
100
AcDbLine
 10
18.08848900920224
 20
11.62499986828868
 30
0.0
 11
18.93793369900675
 21
11.62499986828868
 31
0.0
  0
ARC
  5
D91
330
1A
100
AcDbEntity
  8
ZUWAKU
100
AcDbCircle
 10
18.93793369900675
 20
11.36249986828868
 30
0.0
 40
0.2625
100
AcDbArc
 50
342.4744316262769
 51
90.0
  0
LINE
  5
D92
330
1A
100
AcDbEntity
  8
ZUWAKU
100
AcDbLine
 10
19.18824914860448
 20
11.2834528842052
 30
0.0
 11
18.65742933203557
 21
9.602523465070397
 31
0.0
  0
ARC
  5
D93
330
1A
100
AcDbEntity
  8
ZUWAKU
100
AcDbCircle
 10
18.08848900920224
 20
11.36249986828868
 30
0.0
 40
0.2625
100
AcDbArc
 50
90.0
 51
162.4744316262769
  0
LINE
  5
D94
330
1A
100
AcDbEntity
  8
ZUWAKU
100
AcDbLine
 10
24.19610609094661
 20
11.62499986828868
 30
0.0
 11
25.94610609094661
 21
11.62499986828868
 31
0.0
  0
LINE
  5
D95
330
1A
100
AcDbEntity
  8
ZUWAKU
100
AcDbLine
 10
25.94610609094661
 20
10.22499986828868
 30
0.0
 11
24.4586060909466
 21
10.22499986828868
 31
0.0
  0
ARC
  5
D96
330
1A
100
AcDbEntity
  8
ZUWAKU
100
AcDbCircle
 10
24.4586060909466
 20
9.962499868288684
 30
0.0
 40
0.2625
100
AcDbArc
 50
90.0
 51
180.0
  0
LINE
  5
D97
330
1A
100
AcDbEntity
  8
ZUWAKU
100
AcDbLine
 10
24.19610609094661
 20
9.962499868288684
 30
0.0
 11
24.19610609094661
 21
9.317398855611013
 31
0.0
  0
ARC
  5
D98
330
1A
100
AcDbEntity
  8
ZUWAKU
100
AcDbCircle
 10
21.48360609094658
 20
11.36249986828868
 30
0.0
 40
0.2625
100
AcDbArc
 50
0.0
 51
90.0
  0
LINE
  5
D99
330
1A
100
AcDbEntity
  8
ZUWAKU
100
AcDbLine
 10
22.79610609094658
 20
10.22499986828868
 30
0.0
 11
22.79610609094658
 21
9.317398855611013
 31
0.0
  0
ARC
  5
D9A
330
1A
100
AcDbEntity
  8
ZUWAKU
100
AcDbCircle
 10
24.19610609094661
 20
10.22499986828868
 30
0.0
 40
1.399999999999999
100
AcDbArc
 50
90.0
 51
180.0
  0
ARC
  5
D9B
330
1A
100
AcDbEntity
  8
ZUWAKU
100
AcDbCircle
 10
28.65860609094659
 20
11.36249986828868
 30
0.0
 40
0.2625
100
AcDbArc
 50
0.0
 51
90.0
  0
ARC
  5
D9C
330
1A
100
AcDbEntity
  8
ZUWAKU
100
AcDbCircle
 10
27.78360609094659
 20
11.36249986828868
 30
0.0
 40
0.2625
100
AcDbArc
 50
90.0
 51
180.0
  0
LINE
  5
D9D
330
1A
100
AcDbEntity
  8
ZUWAKU
100
AcDbLine
 10
28.65860609094659
 20
11.62499986828868
 30
0.0
 11
27.78360609094659
 21
11.62499986828868
 31
0.0
  0
ARC
  5
D9E
330
1A
100
AcDbEntity
  8
ZUWAKU
100
AcDbCircle
 10
25.94610609094661
 20
11.36249986828868
 30
0.0
 40
0.2625
100
AcDbArc
 50
0.0
 51
90.0
  0
ARC
  5
D9F
330
1A
100
AcDbEntity
  8
ZUWAKU
100
AcDbCircle
 10
25.94610609094661
 20
10.48749986828868
 30
0.0
 40
0.2625
100
AcDbArc
 50
270.0
 51
0.0
  0
LINE
  5
DA0
330
1A
100
AcDbEntity
  8
ZUWAKU
100
AcDbLine
 10
26.2086060909466
 20
11.36249986828868
 30
0.0
 11
26.2086060909466
 21
10.48749986828868
 31
0.0
  0
LINE
  5
DA1
330
1A
100
AcDbEntity
  8
ZUWAKU
100
AcDbLine
 10
34.25860609094661
 20
11.62499986828868
 30
0.0
 11
33.38360609094661
 21
11.62499986828868
 31
0.0
  0
ARC
  5
DA2
330
1A
100
AcDbEntity
  8
ZUWAKU
100
AcDbCircle
 10
33.38360609094661
 20
11.36249986828868
 30
0.0
 40
0.2625
100
AcDbArc
 50
90.0
 51
180.0
  0
ARC
  5
DA3
330
1A
100
AcDbEntity
  8
ZUWAKU
100
AcDbCircle
 10
31.80860609094656
 20
11.36249986828868
 30
0.0
 40
0.2625
100
AcDbArc
 50
0.0
 51
90.0
  0
LINE
  5
DA4
330
1A
100
AcDbEntity
  8
ZUWAKU
100
AcDbLine
 10
31.80860609094656
 20
11.62499986828868
 30
0.0
 11
30.93360609094657
 21
11.62499986828868
 31
0.0
  0
ARC
  5
DA5
330
1A
100
AcDbEntity
  8
ZUWAKU
100
AcDbCircle
 10
30.93360609094657
 20
11.36249986828868
 30
0.0
 40
0.2625
100
AcDbArc
 50
90.0
 51
180.0
  0
ARC
  5
DA6
330
1A
100
AcDbEntity
  8
ZUWAKU
100
AcDbCircle
 10
34.25860609094661
 20
11.36249986828868
 30
0.0
 40
0.2625
100
AcDbArc
 50
0.0
 51
90.0
  0
TEXT
  5
DA7
330
1A
100
AcDbEntity
  8
moji
100
AcDbText
 10
119.9136013539815
 20
9.002460396992375
 30
0.0
 40
2.799999999999999
  1
のきとい
 41
0.9
  7
ｽﾀｲﾙ1
100
AcDbText
  0
TEXT
  5
DA8
330
1A
100
AcDbEntity
  8
moji
100
AcDbText
 10
119.9136013539815
 20
1.602460396992393
 30
0.0
 40
2.799999999999999
  1
Ｈ－５０（１０５）－３,６００
 41
0.9
  7
ｽﾀｲﾙ1
100
AcDbText
  0
LINE
  5
DA9
330
1A
100
AcDbEntity
  8
ZUWAKU
100
AcDbLine
 10
104.1233006585899
 20
14.99999986828868
 30
0.0
 11
104.1233006585899
 21
0.3999998682887167
 31
0.0
  0
LINE
  5
DAA
330
1A
100
AcDbEntity
  8
ZUWAKU
100
AcDbLine
 10
104.3233006585899
 20
14.99999986828868
 30
0.0
 11
104.32330065859
 21
0.3999998682887167
 31
0.0
  0
LINE
  5
DAB
330
1A
100
AcDbEntity
  8
ZUWAKU
100
AcDbLine
 10
104.2233006585898
 20
14.99999986828868
 30
0.0
 11
104.22330065859
 21
0.3999998682887167
 31
0.0
  0
TEXT
  5
DAC
330
1A
100
AcDbEntity
  8
ZUWAKU
100
AcDbText
 10
104.8620231696947
 20
4.827678137481491
 30
0.0
 40
2.0
  1
サイズ
 41
0.9
  7
ｽﾀｲﾙ1
100
AcDbText
  0
TEXT
  5
DAD
330
1A
100
AcDbEntity
  8
ZUWAKU
100
AcDbText
 10
104.8620231696946
 20
12.02767813748147
 30
0.0
 40
2.0
  1
品名
 41
0.9
  7
ｽﾀｲﾙ1
100
AcDbText
  0
LINE
  5
DAE
330
1A
100
AcDbEntity
  8
ZUWAKU
100
AcDbLine
 10
324.4086012686581
 20
7.599999868288698
 30
0.0
 11
348.6245052878266
 21
7.5999998682887
 31
0.0
  0
LINE
  5
DAF
330
1A
100
AcDbEntity
  8
ZUWAKU
100
AcDbLine
 10
324.4086012686582
 20
7.699999868288701
 30
0.0
 11
348.6245052878266
 21
7.699999868288699
 31
0.0
  0
LINE
  5
DB0
330
1A
100
AcDbEntity
  8
ZUWAKU
100
AcDbLine
 10
324.4086012686581
 20
7.799999868288699
 30
0.0
 11
348.6245052878266
 21
7.799999868288699
 31
0.0
  0
TEXT
  5
DB1
330
1A
100
AcDbEntity
  8
ZUWAKU
100
AcDbText
 10
329.1019688572072
 20
9.002460396992375
 30
0.0
 40
2.799999999999999
  1
　　．　　．　　
 41
0.9
  7
ｽﾀｲﾙ1
100
AcDbText
  0
LINE
  5
DB2
330
1A
100
AcDbEntity
  8
ZUWAKU
100
AcDbLine
 10
252.5995897626264
 20
7.599999868288701
 30
0.0
 11
276.2634778966122
 21
7.599999868288701
 31
0.0
  0
LINE
  5
DB3
330
1A
100
AcDbEntity
  8
ZUWAKU
100
AcDbLine
 10
252.5995897626264
 20
7.699999868288699
 30
0.0
 11
276.2634778966122
 21
7.699999868288699
 31
0.0
  0
LINE
  5
DB4
330
1A
100
AcDbEntity
  8
ZUWAKU
100
AcDbLine
 10
252.5995897626264
 20
7.799999868288699
 30
0.0
 11
276.2634778966122
 21
7.799999868288699
 31
0.0
  0
TEXT
  5
DB5
330
1A
100
AcDbEntity
  8
moji
100
AcDbText
 10
231.623216009057
 20
5.971308729118675
 30
0.0
 40
2.799999999999999
  1
ＡＡ０９□
 41
0.9
  7
ｽﾀｲﾙ1
100
AcDbText
  0
LINE
  5
DB6
330
1A
100
AcDbEntity
  8
ZUWAKU
100
AcDbLine
 10
223.8121819990516
 20
14.99999986828868
 30
0.0
 11
223.8121819990517
 21
0.3999998682887167
 31
0.0
  0
LINE
  5
DB7
330
1A
100
AcDbEntity
  8
ZUWAKU
100
AcDbLine
 10
223.9121819990516
 20
14.99999986828868
 30
0.0
 11
223.9121819990517
 21
0.3999998682887167
 31
0.0
  0
LINE
  5
DB8
330
1A
100
AcDbEntity
  8
ZUWAKU
100
AcDbLine
 10
223.7121819990517
 20
14.99999986828868
 30
0.0
 11
223.7121819990517
 21
0.3999998682887167
 31
0.0
  0
TEXT
  5
DB9
330
1A
100
AcDbEntity
  8
moji
100
AcDbText
 10
264.0204539997124
 20
9.002460396992375
 30
0.0
 40
2.799999999999999
  1
Ａ３
 41
0.9
  7
ｽﾀｲﾙ1
100
AcDbText
  0
LINE
  5
DBA
330
1A
100
AcDbEntity
  8
ZUWAKU
100
AcDbLine
 10
252.4995897626264
 20
14.99999986828868
 30
0.0
 11
252.4995897626265
 21
0.3999998682887167
 31
0.0
  0
LINE
  5
DBB
330
1A
100
AcDbEntity
  8
ZUWAKU
100
AcDbLine
 10
252.5995897626264
 20
14.99999986828868
 30
0.0
 11
252.5995897626265
 21
0.3999998682887167
 31
0.0
  0
LINE
  5
DBC
330
1A
100
AcDbEntity
  8
ZUWAKU
100
AcDbLine
 10
252.3995897626265
 20
14.99999986828868
 30
0.0
 11
252.3995897626265
 21
0.3999998682887167
 31
0.0
  0
TEXT
  5
DBD
330
1A
100
AcDbEntity
  8
ZUWAKU
100
AcDbText
 10
230.6528767248174
 20
1.307035323858428
 30
0.0
 40
1.5
  1
□には色品番が入ります
 41
0.9
  7
ｽﾀｲﾙ1
100
AcDbText
  0
TEXT
  5
DBE
330
1A
100
AcDbEntity
  8
ZUWAKU
100
AcDbText
 10
253.3383122737313
 20
4.827678137481491
 30
0.0
 40
2.0
  1
縮尺
 41
0.9
  7
ｽﾀｲﾙ1
100
AcDbText
  0
TEXT
  5
DBF
330
1A
100
AcDbEntity
  8
moji
100
AcDbText
 10
264.0204539997124
 20
1.602460396992393
 30
0.0
 40
2.799999999999999
  1
１/１
 41
0.9
  7
ｽﾀｲﾙ1
100
AcDbText
  0
TEXT
  5
DC0
330
1A
100
AcDbEntity
  8
ZUWAKU
100
AcDbText
 10
224.6509045101564
 20
12.02767813748147
 30
0.0
 40
2.0
  1
品番
 41
0.9
  7
ｽﾀｲﾙ1
100
AcDbText
  0
TEXT
  5
DC1
330
1A
100
AcDbEntity
  8
ZUWAKU
100
AcDbText
 10
253.3383122737312
 20
12.02767813748147
 30
0.0
 40
2.0
  1
用紙
 41
0.9
  7
ｽﾀｲﾙ1
100
AcDbText
  0
LINE
  5
DC2
330
1A
100
AcDbEntity
  8
ZUWAKU
100
AcDbLine
 10
324.3086012686582
 20
14.99999986828868
 30
0.0
 11
324.3086012686583
 21
0.3999998682887167
 31
0.0
  0
LINE
  5
DC3
330
1A
100
AcDbEntity
  8
ZUWAKU
100
AcDbLine
 10
324.4086012686582
 20
14.99999986828868
 30
0.0
 11
324.4086012686583
 21
0.3999998682887167
 31
0.0
  0
LINE
  5
DC4
330
1A
100
AcDbEntity
  8
ZUWAKU
100
AcDbLine
 10
324.2086012686582
 20
14.99999986828868
 30
0.0
 11
324.2086012686582
 21
0.3999998682887167
 31
0.0
  0
LINE
  5
DC5
330
1A
100
AcDbEntity
  8
ZUWAKU
100
AcDbLine
 10
276.3634778966121
 20
14.99999986828868
 30
0.0
 11
276.3634778966122
 21
0.3999998682887167
 31
0.0
  0
LINE
  5
DC6
330
1A
100
AcDbEntity
  8
ZUWAKU
100
AcDbLine
 10
276.4634778966121
 20
14.99999986828868
 30
0.0
 11
276.4634778966122
 21
0.3999998682887167
 31
0.0
  0
LINE
  5
DC7
330
1A
100
AcDbEntity
  8
ZUWAKU
100
AcDbLine
 10
276.2634778966122
 20
14.99999986828868
 30
0.0
 11
276.2634778966122
 21
0.3999998682887167
 31
0.0
  0
TEXT
  5
DC8
330
1A
100
AcDbEntity
  8
ZUWAKU
100
AcDbText
 10
325.147323779763
 20
12.02767813748147
 30
0.0
 40
2.0
  1
DATE
 41
0.9
  7
ｽﾀｲﾙ1
100
AcDbText
  0
LINE
  5
DC9
330
1A
100
AcDbEntity
  8
ZUWAKU
100
AcDbLine
 10
348.6245052878266
 20
14.99999986828868
 30
0.0
 11
348.6245052878266
 21
0.3999998682887167
 31
0.0
  0
LINE
  5
DCA
330
1A
100
AcDbEntity
  8
ZUWAKU
100
AcDbLine
 10
348.7245052878266
 20
14.99999986828868
 30
0.0
 11
348.7245052878266
 21
0.3999998682887167
 31
0.0
  0
LINE
  5
DCB
330
1A
100
AcDbEntity
  8
ZUWAKU
100
AcDbLine
 10
348.8245052878265
 20
14.99999986828868
 30
0.0
 11
348.8245052878267
 21
0.3999998682887167
 31
0.0
  0
LINE
  5
DCC
330
1A
100
AcDbEntity
  8
ZUWAKU
100
AcDbLine
 10
348.9245052878266
 20
14.99999986828868
 30
0.0
 11
348.9245052878267
 21
0.3999998682887167
 31
0.0
  0
TEXT
  5
DCD
330
1A
100
AcDbEntity
  8
ZUWAKU
100
AcDbText
 10
354.2640421096779
 20
8.776919536132083
 30
0.0
 40
3.0
  1
積水化学工業株式会社
 41
0.9
  7
ｽﾀｲﾙ1
100
AcDbText
  0
TEXT
  5
DCE
330
1A
100
AcDbEntity
  8
ZUWAKU
100
AcDbText
 10
354.2640421096779
 20
3.324420025215715
 30
0.0
 40
3.0
  1
建材事業部
 41
0.9
  7
ｽﾀｲﾙ1
100
AcDbText
  0
DIMENSION
  5
E33
330
1A
100
AcDbEntity
  8
SUNPOU
100
AcDbDimension
  2
*D1
 10
200.2657768990926
 20
96.85271848045614
 30
0.0
 11
226.6639492920266
 21
99.35271848045614
 31
0.0
 70
    32
 71
     5
 42
52.79634478586809
  3
STANDARD
100
AcDbAlignedDimension
 13
253.0621216849607
 23
159.5109108355414
 33
0.0
 14
200.2657768990926
 24
110.2110168355414
 34
0.0
100
AcDbRotatedDimension
1001
ACAD
1000
DSTYLE
1002
{
1070
    41
1040
3.0
1070
    42
1040
3.0
1070
    43
1040
7.0
1070
    44
1040
1.5
1070
    73
1070
     0
1070
    74
1070
     0
1070
    77
1070
     3
1070
   140
1040
3.0
1070
   141
1040
150.0
1070
   147
1040
1.0
1070
   172
1070
     1
1070
   173
1070
     1
1070
   176
1070
   256
1070
   177
1070
   256
1070
   178
1070
   256
1070
   271
1070
     0
1070
   272
1070
     2
1070
   343
1005
B2
1070
   344
1005
B2
1070
   371
1070
    -1
1070
   372
1070
    -1
1002
}
  0
ARC
  5
E34
330
1A
100
AcDbEntity
  8
SEIHIN
  6
Continuous
 62
     3
370
     5
100
AcDbCircle
 10
200.3005216849607
 20
160.5110168355413
 30
0.0
 40
50.300012
100
AcDbArc
 50
188.6764640000001
 51
351.2914929999997
  0
DIMENSION
  5
E35
330
1A
100
AcDbEntity
  8
SUNPOU
100
AcDbDimension
  2
*D2
 10
143.5388926899607
 20
182.9870120351264
 30
0.0
 11
200.3005041874607
 21
185.4870120351264
 31
0.0
 70
    32
 71
     5
 42
113.5232229949999
  3
STANDARD
100
AcDbAlignedDimension
 13
257.0621156849607
 23
155.5109168355414
 33
0.0
 14
143.5388926899607
 24
155.5109168355414
 34
0.0
100
AcDbRotatedDimension
1001
ACAD
1000
DSTYLE
1002
{
1070
    41
1040
3.0
1070
    42
1040
3.0
1070
    43
1040
7.0
1070
    44
1040
1.5
1070
    73
1070
     0
1070
    74
1070
     0
1070
    77
1070
     3
1070
   140
1040
3.0
1070
   141
1040
150.0
1070
   147
1040
1.0
1070
   172
1070
     1
1070
   173
1070
     1
1070
   176
1070
   256
1070
   177
1070
   256
1070
   178
1070
   256
1070
   271
1070
     0
1070
   272
1070
     2
1070
   343
1005
B2
1070
   344
1005
B2
1070
   371
1070
    -1
1070
   372
1070
    -1
1002
}
  0
ARC
  5
E37
330
1A
100
AcDbEntity
  8
SEIHIN
  6
Continuous
 62
     3
370
     5
100
AcDbCircle
 10
200.3005216849607
 20
160.5110168355413
 30
0.0
 40
49.00000099999997
100
AcDbArc
 50
229.6785399908408
 51
310.3214600091591
  0
LINE
  5
E39
330
1A
100
AcDbEntity
  8
CENTER_L
  6
CENTERX2
 62
     1
370
     5
100
AcDbLine
 10
200.3316642925232
 20
103.2110132985595
 30
0.0
 11
200.2740644820732
 21
118.5110241686799
 31
0.0
  0
ARC
  5
E3A
330
1A
100
AcDbEntity
  8
SEIHIN
  6
Continuous
 62
     3
370
     5
100
AcDbCircle
 10
200.3005216849607
 20
160.5110168355413
 30
0.0
 40
49.00000099999998
100
AcDbArc
 50
185.4133760000001
 51
220.3214600091603
  0
CIRCLE
  5
E3B
330
1A
100
AcDbEntity
  8
SEIHIN
  6
Continuous
 62
     3
370
     5
100
AcDbCircle
 10
147.5389216849607
 20
155.5111168355414
 30
0.0
 40
2.699999999999988
  0
ARC
  5
E3C
330
1A
100
AcDbEntity
  8
SEIHIN
  6
Continuous
 62
     3
370
     5
100
AcDbCircle
 10
147.5389216849607
 20
155.5111168355414
 30
0.0
 40
3.999993999999985
100
AcDbArc
 50
5.41398599999969
 51
185.4138510000003
  0
ARC
  5
E3D
330
1A
100
AcDbEntity
  8
SEIHIN
  6
Continuous
 62
     3
370
     5
100
AcDbCircle
 10
147.5389216849607
 20
155.5111168355414
 30
0.0
 40
4.000028999999987
100
AcDbArc
 50
185.4138509999994
 51
319.2528180000004
  0
ARC
  5
E3E
330
1A
100
AcDbEntity
  8
SEIHIN
  6
Continuous
 62
     3
370
     5
100
AcDbCircle
 10
200.3005216849607
 20
160.5110168355413
 30
0.0
 40
49.00000099999997
100
AcDbArc
 50
221.8424861407626
 51
228.1575138592362
  0
ARC
  5
E3F
330
1A
100
AcDbEntity
  8
SEIHIN
  6
Continuous
 62
     3
370
     5
100
AcDbCircle
 10
165.6522886997131
 20
125.8627838502937
 30
0.0
 40
4.000028999999982
100
AcDbArc
 50
317.3392699954195
 51
132.6607300045787
  0
ARC
  5
E40
330
1A
100
AcDbEntity
  8
SEIHIN
  6
Continuous
 62
     3
370
     5
100
AcDbCircle
 10
165.6522886997131
 20
125.8627838502937
 30
0.0
 40
2.699999999999984
100
AcDbArc
 50
316.5787569296184
 51
133.4212430703803
  0
DIMENSION
  5
E41
330
1A
100
AcDbEntity
  8
SUNPOU
100
AcDbDimension
  2
*D3
 10
200.3005216849606
 20
160.5110168355414
 30
0.0
 11
215.9210884874282
 21
140.8000881552603
 31
0.0
 70
   164
 71
     5
 42
50.30001200000005
  3
STANDARD
100
AcDbRadialDimension
 15
231.5416549226852
 25
121.0891599383468
 35
0.0
 40
0.0
1001
ACAD
1000
DSTYLE
1002
{
1070
    41
1040
3.0
1070
    42
1040
3.0
1070
    43
1040
7.0
1070
    44
1040
1.5
1070
    73
1070
     0
1070
    74
1070
     0
1070
    77
1070
     3
1070
   140
1040
3.0
1070
   141
1040
150.0
1070
   147
1040
1.0
1070
   172
1070
     1
1070
   173
1070
     1
1070
   176
1070
   256
1070
   177
1070
   256
1070
   178
1070
   256
1070
   271
1070
     0
1070
   272
1070
     2
1070
   343
1005
B2
1070
   344
1005
B2
1070
   371
1070
    -1
1070
   372
1070
    -1
1002
}
  0
DIMENSION
  5
E43
330
1A
100
AcDbEntity
  8
SUNPOU
100
AcDbDimension
  2
*D4
 10
241.2979689347375
 20
131.185386386293
 30
0.0
 11
250.233209316894
 21
127.1035388495664
 31
0.0
 70
    33
  1
1.3
 71
     5
 42
1.30001099999994
  3
STANDARD
100
AcDbAlignedDimension
 13
238.2210206416979
 23
129.478197806776
 33
0.0
 14
239.2270831878853
 24
128.6548711685091
 34
0.0
1001
ACAD
1000
DSTYLE
1002
{
1070
    41
1040
3.0
1070
    42
1040
3.0
1070
    43
1040
7.0
1070
    44
1040
1.5
1070
    73
1070
     0
1070
    74
1070
     0
1070
    77
1070
     3
1070
   140
1040
3.0
1070
   141
1040
150.0
1070
   147
1040
1.0
1070
   172
1070
     1
1070
   173
1070
     1
1070
   176
1070
   256
1070
   177
1070
   256
1070
   178
1070
   256
1070
   271
1070
     0
1070
   272
1070
     2
1070
   343
1005
B2
1070
   344
1005
B2
1070
   371
1070
    -1
1070
   372
1070
    -1
1002
}
  0
ARC
  5
E44
330
1A
100
AcDbEntity
  8
SEIHIN
  6
Continuous
 62
     3
370
     5
100
AcDbCircle
 10
200.3005216849607
 20
160.5110168355413
 30
0.0
 40
49.00000099999995
100
AcDbArc
 50
311.8424861407638
 51
318.1575138592373
  0
ARC
  5
E45
330
1A
100
AcDbEntity
  8
SEIHIN
  6
Continuous
 62
     3
370
     5
100
AcDbCircle
 10
234.9487546702083
 20
125.8627838502937
 30
0.0
 40
2.699999999999985
100
AcDbArc
 50
46.57875692961963
 51
223.4212430703815
  0
ARC
  5
E46
330
1A
100
AcDbEntity
  8
SEIHIN
  6
Continuous
 62
     3
370
     5
100
AcDbCircle
 10
234.9487546702083
 20
125.8627838502937
 30
0.0
 40
4.000028999999973
100
AcDbArc
 50
47.33926999542124
 51
185.4138510000003
  0
ARC
  5
E47
330
1A
100
AcDbEntity
  8
SEIHIN
  6
Continuous
 62
     3
370
     5
100
AcDbCircle
 10
234.9487546702083
 20
125.8627838502937
 30
0.0
 40
4.000028999999987
100
AcDbArc
 50
185.4138509999994
 51
222.6607300045798
  0
CIRCLE
  5
E48
330
1A
100
AcDbEntity
  8
SEIHIN
  6
Continuous
 62
     3
370
     5
100
AcDbCircle
 10
253.0621216849607
 20
155.5109168355414
 30
0.0
 40
2.699999999999988
  0
ARC
  5
E49
330
1A
100
AcDbEntity
  8
SEIHIN
  6
Continuous
 62
     3
370
     5
100
AcDbCircle
 10
253.0621216849607
 20
155.5109168355414
 30
0.0
 40
3.999993999999997
100
AcDbArc
 50
220.2695830000011
 51
121.7840119999984
  0
ARC
  5
E4A
330
1A
100
AcDbEntity
  8
SEIHIN
  6
Continuous
 62
     3
370
     5
100
AcDbCircle
 10
200.3005216849607
 20
160.5110168355413
 30
0.0
 40
49.00000099999996
100
AcDbArc
 50
319.6785399908396
 51
354.5863799999998
  0
ARC
  5
E4B
330
1A
100
AcDbEntity
  8
SEIHIN
  6
Continuous
 62
     3
370
     5
100
AcDbCircle
 10
253.0621216849607
 20
155.5109168355414
 30
0.0
 40
3.99995799999999
100
AcDbArc
 50
121.7847670000004
 51
174.5845880000004
  0
VIEWPORT
  5
22
330
17
100
AcDbEntity
 67
     1
  8
0
100
AcDbViewport
 10
313.6808219178082
 20
148.5
 30
0.0
 40
627.3616438356165
 41
297.0
 68
     2
 69
     1
 12
313.6808219178082
 22
148.5
 13
0.0
 23
0.0
 14
1.0
 24
1.0
 15
10.0
 25
10.0
 16
0.0
 26
0.0
 36
1.0
 17
0.0
 27
0.0
 37
0.0
 42
50.0
 43
0.0
 44
0.0
 45
297.0
 50
0.0
 51
0.0
 72
   100
 90
    32768
  1

281
     0
 71
     1
 74
     0
110
0.0
120
0.0
130
0.0
111
1.0
121
0.0
131
0.0
112
0.0
122
1.0
132
0.0
 79
     0
146
0.0
  0
VIEWPORT
  5
64
330
17
100
AcDbEntity
 67
     1
  8
VIEWPORT
100
AcDbViewport
 10
210.0
 20
148.5
 30
0.0
 40
420.0
 41
297.0
 68
     1
 69
     2
 12
210.0
 22
148.5
 13
0.0
 23
0.0
 14
5.0
 24
5.0
 15
0.0
 25
0.0
 16
0.0
 26
0.0
 36
1.0
 17
0.0
 27
0.0
 37
0.0
 42
50.0
 43
0.0
 44
0.0
 45
302.9399999999998
 50
0.0
 51
0.0
 72
   100
 90
    32768
  1

281
     0
 71
     1
 74
     0
110
0.0
120
0.0
130
0.0
111
1.0
121
0.0
131
0.0
112
0.0
122
1.0
132
0.0
 79
     0
146
0.0
  0
ENDSEC
  0
SECTION
  2
OBJECTS
  0
DICTIONARY
  5
C
330
0
100
AcDbDictionary
281
     1
  3
ACAD_GROUP
350
D
  3
ACAD_LAYOUT
350
483
  3
ACAD_MLINESTYLE
350
E
  3
ACAD_PLOTSETTINGS
350
484
  3
ACAD_PLOTSTYLENAME
350
481
  0
DICTIONARY
  5
A02
330
1A
100
AcDbDictionary
280
     1
281
     1
  3
ACAD_LAYOUTSELFREF
360
BBC
  0
DICTIONARY
  5
A00
330
17
100
AcDbDictionary
280
     1
281
     1
  3
ACAD_LAYOUTSELFREF
360
BBB
  0
DICTIONARY
  5
D
102
{ACAD_REACTORS
330
C
102
}
330
C
100
AcDbDictionary
281
     1
  0
DICTIONARY
  5
483
102
{ACAD_REACTORS
330
C
102
}
330
C
100
AcDbDictionary
281
     1
  3
Model
350
485
  3
ﾚｲｱｳﾄ1
350
486
  0
DICTIONARY
  5
E
102
{ACAD_REACTORS
330
C
102
}
330
C
100
AcDbDictionary
281
     1
  3
STANDARD
350
13
  0
DICTIONARY
  5
484
102
{ACAD_REACTORS
330
C
102
}
330
C
100
AcDbDictionary
281
     1
  0
ACDBDICTIONARYWDFLT
  5
481
102
{ACAD_REACTORS
330
C
102
}
330
C
100
AcDbDictionary
281
     1
  3
Normal
350
482
100
AcDbDictionaryWithDefault
340
482
1001
ACAD
1000
TREAT_AS_HARD
1070
     0
1000
TREAT_AS_HARD
1070
     0
1000
TREAT_AS_HARD
1070
     0
1000
TREAT_AS_HARD
1070
     0
1000
TREAT_AS_HARD
1070
     0
  0
XRECORD
  5
BBC
102
{ACAD_REACTORS
330
A02
102
}
330
A02
100
AcDbXrecord
280
     1
340
1A
  0
XRECORD
  5
BBB
102
{ACAD_REACTORS
330
A00
102
}
330
A00
100
AcDbXrecord
280
     1
340
17
  0
LAYOUT
  5
485
102
{ACAD_REACTORS
330
483
102
}
330
483
100
AcDbPlotSettings
  1

  2
Acrobat Distiller
  4
A3
  6

 40
3.174999952316284
 41
3.174999952316284
 42
3.17498779296875
 43
3.17498779296875
 44
297.0318298339843
 45
420.1583251953125
 46
0.0
 47
0.0
 48
0.0
 49
0.0
140
0.0
141
0.0
142
1.0
143
1.0
 70
 28336
 72
     1
 73
     1
 74
     2
  7
print.ctb
 75
    16
147
1.0
148
0.0
149
0.0
100
AcDbLayout
  1
Model
 70
     1
 71
     0
 10
0.0
 20
0.0
 11
12.0
 21
9.0
 12
0.0
 22
0.0
 32
0.0
 14
0.0
 24
0.0
 34
0.0
 15
0.0
 25
0.0
 35
0.0
146
0.0
 13
0.0
 23
0.0
 33
0.0
 16
1.0
 26
0.0
 36
0.0
 17
0.0
 27
1.0
 37
0.0
 76
     0
330
1A
  0
LAYOUT
  5
486
102
{ACAD_REACTORS
330
483
102
}
330
483
100
AcDbPlotSettings
  1

  2
C:\PROGRAM FILES\ACAD LT 2000\plotters\DWF ePlot.pc3
  4

  6

 40
0.0
 41
0.0
 42
0.0
 43
0.0
 44
0.0
 45
0.0
 46
0.0
 47
0.0
 48
0.0
 49
0.0
140
0.0
141
0.0
142
1.0
143
1.0
 70
   688
 72
     0
 73
     0
 74
     5
  7
print.ctb
 75
    16
147
1.0
148
0.0
149
0.0
100
AcDbLayout
  1
ﾚｲｱｳﾄ1
 70
     1
 71
     1
 10
0.0
 20
0.0
 11
420.0
 21
297.0
 12
0.0
 22
0.0
 32
0.0
 14
0.0
 24
0.0
 34
0.0
 15
420.0
 25
297.0
 35
0.0
146
0.0
 13
0.0
 23
0.0
 33
0.0
 16
1.0
 26
0.0
 36
0.0
 17
0.0
 27
1.0
 37
0.0
 76
     0
330
17
331
64
  0
MLINESTYLE
  5
13
102
{ACAD_REACTORS
330
E
102
}
330
E
100
AcDbMlineStyle
  2
STANDARD
 70
     0
  3

 62
     0
 51
90.0
 52
90.0
 71
     2
 49
0.5
 62
   256
  6
BYLAYER
 49
-0.5
 62
   256
  6
BYLAYER
  0
ACDBPLACEHOLDER
  5
482
102
{ACAD_REACTORS
330
481
102
}
330
481
  0
ENDSEC
  0
EOF
