  0
SECTION
  2
HEADER
  9
$ACADVER
  1
AC1014
  9
$ACADMAINTVER
 70
     9
  9
$DWGCODEPAGE
  3
ANSI_932
  9
$INSBASE
 10
0.0
 20
0.0
 30
0.0
  9
$EXTMIN
 10
-0.0128164049386896
 20
-0.0090633767458712
 30
-0.0015258207003583
  9
$EXTMAX
 10
398.8000497813338
 20
275.8226172192214
 30
0.0000000349246037
  9
$LIMMIN
 10
0.0
 20
0.0
  9
$LIMMAX
 10
420.0
 20
297.0
  9
$ORTHOMODE
 70
     0
  9
$REGENMODE
 70
     1
  9
$FILLMODE
 70
     1
  9
$QTEXTMODE
 70
     0
  9
$MIRRTEXT
 70
     1
  9
$DRAGMODE
 70
     2
  9
$LTSCALE
 40
1.0
  9
$OSMODE
 70
    35
  9
$ATTMODE
 70
     1
  9
$TEXTSIZE
 40
2.5
  9
$TRACEWID
 40
1.0
  9
$TEXTSTYLE
  7
STANDARD
  9
$CLAYER
  8
SEIHIN
  9
$CELTYPE
  6
BYLAYER
  9
$CECOLOR
 62
   256
  9
$CELTSCALE
 40
1.0
  9
$DELOBJ
 70
     1
  9
$DISPSILH
 70
     0
  9
$DIMSCALE
 40
1.0
  9
$DIMASZ
 40
3.0
  9
$DIMEXO
 40
3.0
  9
$DIMDLI
 40
7.0
  9
$DIMRND
 40
0.0
  9
$DIMDLE
 40
0.0
  9
$DIMEXE
 40
1.5
  9
$DIMTP
 40
0.0
  9
$DIMTM
 40
0.0
  9
$DIMTXT
 40
3.0
  9
$DIMCEN
 40
150.0
  9
$DIMTSZ
 40
0.0
  9
$DIMTOL
 70
     0
  9
$DIMLIM
 70
     0
  9
$DIMTIH
 70
     0
  9
$DIMTOH
 70
     0
  9
$DIMSE1
 70
     0
  9
$DIMSE2
 70
     0
  9
$DIMTAD
 70
     3
  9
$DIMZIN
 70
     0
  9
$DIMBLK
  1

  9
$DIMASO
 70
     1
  9
$DIMSHO
 70
     1
  9
$DIMPOST
  1

  9
$DIMAPOST
  1

  9
$DIMALT
 70
     0
  9
$DIMALTD
 70
     2
  9
$DIMALTF
 40
25.4
  9
$DIMLFAC
 40
1.0
  9
$DIMTOFL
 70
     1
  9
$DIMTVP
 40
0.0
  9
$DIMTIX
 70
     0
  9
$DIMSOXD
 70
     0
  9
$DIMSAH
 70
     1
  9
$DIMBLK1
  1
OPEN
  9
$DIMBLK2
  1
OPEN
  9
$DIMSTYLE
  2
STANDARD
  9
$DIMCLRD
 70
   256
  9
$DIMCLRE
 70
   256
  9
$DIMCLRT
 70
   256
  9
$DIMTFAC
 40
1.0
  9
$DIMGAP
 40
1.0
  9
$DIMJUST
 70
     0
  9
$DIMSD1
 70
     0
  9
$DIMSD2
 70
     0
  9
$DIMTOLJ
 70
     1
  9
$DIMTZIN
 70
     0
  9
$DIMALTZ
 70
     0
  9
$DIMALTTZ
 70
     0
  9
$DIMFIT
 70
     3
  9
$DIMUPT
 70
     0
  9
$DIMUNIT
 70
     2
  9
$DIMDEC
 70
     0
  9
$DIMTDEC
 70
     0
  9
$DIMALTU
 70
     2
  9
$DIMALTTD
 70
     2
  9
$DIMTXSTY
  7
STANDARD
  9
$DIMAUNIT
 70
     0
  9
$LUNITS
 70
     2
  9
$LUPREC
 70
     4
  9
$SKETCHINC
 40
1.0
  9
$FILLETRAD
 40
0.5
  9
$AUNITS
 70
     0
  9
$AUPREC
 70
     0
  9
$MENU
  1
.
  9
$ELEVATION
 40
0.0
  9
$PELEVATION
 40
0.0
  9
$THICKNESS
 40
0.0
  9
$LIMCHECK
 70
     0
  9
$BLIPMODE
 70
     0
  9
$CHAMFERA
 40
10.0
  9
$CHAMFERB
 40
10.0
  9
$CHAMFERC
 40
20.0
  9
$CHAMFERD
 40
0.0
  9
$SKPOLY
 70
     0
  9
$TDCREATE
 40
2450994.350997107
  9
$TDUPDATE
 40
2453802.452329456
  9
$TDINDWG
 40
0.0755849421
  9
$TDUSRTIMER
 40
0.0755849421
  9
$USRTIMER
 70
     1
  9
$ANGBASE
 50
0.0
  9
$ANGDIR
 70
     0
  9
$PDMODE
 70
     1
  9
$PDSIZE
 40
0.0
  9
$PLINEWID
 40
0.0
  9
$COORDS
 70
     1
  9
$SPLFRAME
 70
     0
  9
$SPLINETYPE
 70
     6
  9
$SPLINESEGS
 70
     8
  9
$ATTDIA
 70
     0
  9
$ATTREQ
 70
     1
  9
$HANDLING
 70
 10241
  9
$HANDSEED
  5
74B
  9
$SURFTAB1
 70
     6
  9
$SURFTAB2
 70
     6
  9
$SURFTYPE
 70
     6
  9
$SURFU
 70
     6
  9
$SURFV
 70
     6
  9
$UCSNAME
  2

  9
$UCSORG
 10
0.0
 20
0.0
 30
0.0
  9
$UCSXDIR
 10
1.0
 20
0.0
 30
0.0
  9
$UCSYDIR
 10
0.0
 20
1.0
 30
0.0
  9
$PUCSNAME
  2

  9
$PUCSORG
 10
0.0
 20
0.0
 30
0.0
  9
$PUCSXDIR
 10
1.0
 20
0.0
 30
0.0
  9
$PUCSYDIR
 10
0.0
 20
1.0
 30
0.0
  9
$USERI1
 70
     0
  9
$USERI2
 70
     0
  9
$USERI3
 70
     0
  9
$USERI4
 70
     0
  9
$USERI5
 70
     0
  9
$USERR1
 40
0.0
  9
$USERR2
 40
0.0
  9
$USERR3
 40
0.0
  9
$USERR4
 40
0.0
  9
$USERR5
 40
0.0
  9
$WORLDVIEW
 70
     1
  9
$SHADEDGE
 70
     3
  9
$SHADEDIF
 70
    70
  9
$TILEMODE
 70
     1
  9
$MAXACTVP
 70
    16
  9
$PINSBASE
 10
0.0
 20
0.0
 30
0.0
  9
$PLIMCHECK
 70
     0
  9
$PEXTMIN
 10
0.0
 20
0.0
 30
0.0
  9
$PEXTMAX
 10
420.0
 20
297.0
 30
0.0
  9
$PLIMMIN
 10
0.0
 20
0.0
  9
$PLIMMAX
 10
420.0
 20
297.0
  9
$UNITMODE
 70
     0
  9
$VISRETAIN
 70
     0
  9
$PLINEGEN
 70
     0
  9
$PSLTSCALE
 70
     1
  9
$TREEDEPTH
 70
  3020
  9
$PICKSTYLE
 70
     1
  9
$CMLSTYLE
  2
STANDARD
  9
$CMLJUST
 70
     0
  9
$CMLSCALE
 40
1.0
  9
$PROXYGRAPHICS
 70
     1
  9
$MEASUREMENT
 70
     1
  0
ENDSEC
  0
SECTION
  2
CLASSES
  0
CLASS
  1
ACDBDICTIONARYWDFLT
  2
AcDbDictionaryWithDefault
  3
AutoCAD 2000
 90
        0
280
     0
281
     0
  0
CLASS
  1
ACDBPLACEHOLDER
  2
AcDbPlaceHolder
  3
AutoCAD 2000
 90
        0
280
     0
281
     0
  0
CLASS
  1
LAYOUT
  2
AcDbLayout
  3
AutoCAD 2000
 90
        0
280
     0
281
     0
  0
CLASS
  1
LONG_TRANSACTION
  2
AcDbLongTransaction
  3
AutoCAD 2000
 90
        0
280
     0
281
     0
  0
CLASS
  1
LWPOLYLINE
  2
AcDbPolyline
  3
AutoCAD 2000
 90
        0
280
     0
281
     1
  0
CLASS
  1
HATCH
  2
AcDbHatch
  3
AutoCAD 2000
 90
        0
280
     0
281
     1
  0
CLASS
  1
XRECORD
  2
AcDbXrecord
  3
AutoCAD 2000
 90
        0
280
     0
281
     0
  0
CLASS
  1
LONG_TRANSACTION
  2
AcDbLongTransaction
  3
AutoCAD 2000
 90
        0
280
     0
281
     0
  0
CLASS
  1
LWPOLYLINE
  2
AcDbPolyline
  3
AutoCAD 2000
 90
        0
280
     0
281
     1
  0
CLASS
  1
HATCH
  2
AcDbHatch
  3
AutoCAD 2000
 90
        0
280
     0
281
     1
  0
CLASS
  1
XRECORD
  2
AcDbXrecord
  3
AutoCAD 2000
 90
        0
280
     0
281
     0
  0
CLASS
  1
LONG_TRANSACTION
  2
AcDbLongTransaction
  3
AutoCAD 2000
 90
        0
280
     0
281
     0
  0
CLASS
  1
LWPOLYLINE
  2
AcDbPolyline
  3
AutoCAD 2000
 90
        0
280
     0
281
     1
  0
CLASS
  1
HATCH
  2
AcDbHatch
  3
AutoCAD 2000
 90
        0
280
     0
281
     1
  0
CLASS
  1
XRECORD
  2
AcDbXrecord
  3
AutoCAD 2000
 90
        0
280
     0
281
     0
  0
CLASS
  1
LONG_TRANSACTION
  2
AcDbLongTransaction
  3
AutoCAD 2000
 90
        0
280
     0
281
     0
  0
CLASS
  1
LWPOLYLINE
  2
AcDbPolyline
  3
AutoCAD 2000
 90
        0
280
     0
281
     1
  0
CLASS
  1
HATCH
  2
AcDbHatch
  3
AutoCAD 2000
 90
        0
280
     0
281
     1
  0
CLASS
  1
XRECORD
  2
AcDbXrecord
  3
AutoCAD 2000
 90
        0
280
     0
281
     0
  0
ENDSEC
  0
SECTION
  2
TABLES
  0
TABLE
  2
VPORT
  5
8
330
0
100
AcDbSymbolTable
 70
     2
  0
VPORT
  5
727
330
8
100
AcDbSymbolTableRecord
100
AcDbViewportTableRecord
  2
*ACTIVE
 70
     0
 10
0.0
 20
0.0
 11
1.0
 21
1.0
 12
208.166408701369
 22
138.8421038274345
 13
0.0
 23
0.0
 14
5.0
 24
5.0
 15
0.0
 25
0.0
 16
0.0
 26
0.0
 36
1.0
 17
0.0
 27
0.0
 37
0.0
 40
337.9313793273079
 41
1.795454545454545
 42
50.0
 43
0.0
 44
0.0
 50
0.0
 51
0.0
 71
     0
 72
   100
 73
     1
 74
     0
 75
     0
 76
     0
 77
     0
 78
     0
  0
ENDTAB
  0
TABLE
  2
LTYPE
  5
5
330
0
100
AcDbSymbolTable
 70
     1
  0
LTYPE
  5
14
330
5
100
AcDbSymbolTableRecord
100
AcDbLinetypeTableRecord
  2
BYBLOCK
 70
     0
  3

 72
    65
 73
     0
 40
0.0
  0
LTYPE
  5
15
330
5
100
AcDbSymbolTableRecord
100
AcDbLinetypeTableRecord
  2
BYLAYER
 70
     0
  3

 72
    65
 73
     0
 40
0.0
  0
LTYPE
  5
16
330
5
100
AcDbSymbolTableRecord
100
AcDbLinetypeTableRecord
  2
CONTINUOUS
 70
     0
  3
Solid line
 72
    65
 73
     0
 40
0.0
  0
ENDTAB
  0
TABLE
  2
LAYER
  5
2
330
0
100
AcDbSymbolTable
 70
     7
  0
LAYER
  5
F
330
2
100
AcDbSymbolTableRecord
100
AcDbLayerTableRecord
  2
0
 70
     0
 62
     7
  6
CONTINUOUS
  0
LAYER
  5
62
330
2
100
AcDbSymbolTableRecord
100
AcDbLayerTableRecord
  2
VIEWPORT
 70
     0
 62
     7
  6
CONTINUOUS
  0
LAYER
  5
6B
330
2
100
AcDbSymbolTableRecord
100
AcDbLayerTableRecord
  2
ZUWAKU
 70
     0
 62
     7
  6
CONTINUOUS
  0
LAYER
  5
14B
330
2
100
AcDbSymbolTableRecord
100
AcDbLayerTableRecord
  2
SEIHIN
 70
     0
 62
     3
  6
CONTINUOUS
  0
LAYER
  5
14C
330
2
100
AcDbSymbolTableRecord
100
AcDbLayerTableRecord
  2
SUNPOU
 70
     0
 62
     4
  6
CONTINUOUS
  0
LAYER
  5
314
330
2
100
AcDbSymbolTableRecord
100
AcDbLayerTableRecord
  2
DEFPOINTS
 70
     0
 62
     7
  6
CONTINUOUS
  0
LAYER
  5
5B0
330
2
100
AcDbSymbolTableRecord
100
AcDbLayerTableRecord
  2
MOJI
 70
     0
 62
     2
  6
CONTINUOUS
  0
ENDTAB
  0
TABLE
  2
STYLE
  5
3
330
0
100
AcDbSymbolTable
 70
     2
  0
STYLE
  5
10
330
3
100
AcDbSymbolTableRecord
100
AcDbTextStyleTableRecord
  2
STANDARD
 70
     0
 40
0.0
 41
1.0
 50
0.0
 71
     0
 42
2.5
  3
TXT
  4
bigfont.shx
  0
STYLE
  5
5B1
330
3
100
AcDbSymbolTableRecord
100
AcDbTextStyleTableRecord
  2
ｽﾀｲﾙ1
 70
     0
 40
0.0
 41
1.0
 50
0.0
 71
     0
 42
2.5
  3
MS PGothic.ttf
  4

1001
ACAD
1000
MS PGothic
1071
    32818
  0
ENDTAB
  0
TABLE
  2
VIEW
  5
6
330
0
100
AcDbSymbolTable
 70
     0
  0
ENDTAB
  0
TABLE
  2
UCS
  5
7
330
0
100
AcDbSymbolTable
 70
     0
  0
ENDTAB
  0
TABLE
  2
APPID
  5
9
330
0
100
AcDbSymbolTable
 70
     1
  0
APPID
  5
11
330
9
100
AcDbSymbolTableRecord
100
AcDbRegAppTableRecord
  2
ACAD
 70
     0
  0
ENDTAB
  0
TABLE
  2
DIMSTYLE
  5
A
330
0
100
AcDbSymbolTable
 70
     1
  0
DIMSTYLE
105
1D
102
{ACAD_REACTORS
330
319
330
328
330
335
330
33E
330
34B
330
358
330
367
330
376
330
383
330
410
330
41D
330
4C8
102
}
330
A
100
AcDbSymbolTableRecord
100
AcDbDimStyleTableRecord
  2
STANDARD
 70
     0
  3

  4

  5

  6

  7

 40
1.0
 41
0.18
 42
0.0625
 43
0.38
 44
0.18
 45
0.0
 46
0.0
 47
0.0
 48
0.0
140
0.18
141
0.09
142
0.0
143
25.4
144
1.0
145
0.0
146
1.0
147
0.09
 71
     0
 72
     0
 73
     1
 74
     1
 75
     0
 76
     0
 77
     0
 78
     0
170
     0
171
     2
172
     0
173
     0
174
     0
175
     0
176
     0
177
     0
178
     0
270
     2
271
     4
272
     4
273
     2
274
     2
340
10
275
     0
280
     0
281
     0
282
     0
283
     1
284
     0
285
     0
286
     0
287
     3
288
     0
  0
ENDTAB
  0
TABLE
  2
BLOCK_RECORD
  5
1
330
0
100
AcDbSymbolTable
 70
    13
  0
BLOCK_RECORD
  5
1A
102
{ACAD_XDICTIONARY
360
520
102
}
330
1
100
AcDbSymbolTableRecord
100
AcDbBlockTableRecord
  2
*MODEL_SPACE
  0
BLOCK_RECORD
  5
17
102
{ACAD_XDICTIONARY
360
51E
102
}
330
1
100
AcDbSymbolTableRecord
100
AcDbBlockTableRecord
  2
*PAPER_SPACE
  0
BLOCK_RECORD
  5
B2
330
1
100
AcDbSymbolTableRecord
100
AcDbBlockTableRecord
  2
_OPEN
  0
BLOCK_RECORD
  5
30C
330
1
100
AcDbSymbolTableRecord
100
AcDbBlockTableRecord
  2
*D1
  0
BLOCK_RECORD
  5
31A
330
1
100
AcDbSymbolTableRecord
100
AcDbBlockTableRecord
  2
*D2
  0
BLOCK_RECORD
  5
329
330
1
100
AcDbSymbolTableRecord
100
AcDbBlockTableRecord
  2
*D3
  0
BLOCK_RECORD
  5
336
330
1
100
AcDbSymbolTableRecord
100
AcDbBlockTableRecord
  2
*D4
  0
BLOCK_RECORD
  5
33F
330
1
100
AcDbSymbolTableRecord
100
AcDbBlockTableRecord
  2
*D5
  0
BLOCK_RECORD
  5
34C
330
1
100
AcDbSymbolTableRecord
100
AcDbBlockTableRecord
  2
*D6
  0
BLOCK_RECORD
  5
359
330
1
100
AcDbSymbolTableRecord
100
AcDbBlockTableRecord
  2
*D7
  0
BLOCK_RECORD
  5
368
330
1
100
AcDbSymbolTableRecord
100
AcDbBlockTableRecord
  2
*D8
  0
BLOCK_RECORD
  5
377
330
1
100
AcDbSymbolTableRecord
100
AcDbBlockTableRecord
  2
*D9
  0
BLOCK_RECORD
  5
404
330
1
100
AcDbSymbolTableRecord
100
AcDbBlockTableRecord
  2
*D10
  0
BLOCK_RECORD
  5
411
330
1
100
AcDbSymbolTableRecord
100
AcDbBlockTableRecord
  2
*D11
  0
BLOCK_RECORD
  5
4C9
330
1
100
AcDbSymbolTableRecord
100
AcDbBlockTableRecord
  2
*D12
  0
ENDTAB
  0
ENDSEC
  0
SECTION
  2
BLOCKS
  0
BLOCK
  5
1B
330
1A
100
AcDbEntity
  8
0
100
AcDbBlockBegin
  2
*MODEL_SPACE
 70
     0
 10
0.0
 20
0.0
 30
0.0
  3
*MODEL_SPACE
  1

  0
ENDBLK
  5
1C
330
1A
100
AcDbEntity
  8
0
100
AcDbBlockEnd
  0
BLOCK
  5
18
330
17
100
AcDbEntity
 67
     1
  8
0
100
AcDbBlockBegin
  2
*PAPER_SPACE
 70
     0
 10
0.0
 20
0.0
 30
0.0
  3
*PAPER_SPACE
  1

  0
ENDBLK
  5
19
330
17
100
AcDbEntity
 67
     1
  8
0
100
AcDbBlockEnd
  0
BLOCK
  5
B3
330
B2
100
AcDbEntity
  8
0
100
AcDbBlockBegin
  2
_OPEN
 70
     0
 10
0.0
 20
0.0
 30
0.0
  3
_OPEN
  1

  0
LINE
  5
B4
330
B2
100
AcDbEntity
  8
0
  6
BYBLOCK
 62
     0
100
AcDbLine
 10
-1.0
 20
0.1666666666666666
 30
0.0
 11
0.0
 21
0.0
 31
0.0
  0
LINE
  5
B5
330
B2
100
AcDbEntity
  8
0
  6
BYBLOCK
 62
     0
100
AcDbLine
 10
0.0
 20
0.0
 30
0.0
 11
-1.0
 21
-0.1666666666666666
 31
0.0
  0
LINE
  5
B6
330
B2
100
AcDbEntity
  8
0
  6
BYBLOCK
 62
     0
100
AcDbLine
 10
0.0
 20
0.0
 30
0.0
 11
-1.0
 21
0.0
 31
0.0
  0
ENDBLK
  5
B7
330
B2
100
AcDbEntity
  8
0
100
AcDbBlockEnd
  0
BLOCK
  5
4A1
330
30C
100
AcDbEntity
  8
0
100
AcDbBlockBegin
  2
*D1
 70
     1
 10
0.0
 20
0.0
 30
0.0
  3
*D1
  1

  0
LINE
  5
4A2
330
30C
100
AcDbEntity
  8
0
  6
BYBLOCK
 62
     4
100
AcDbLine
 10
256.2122830009347
 20
172.0075404269316
 30
0.0
 11
274.9992169472607
 21
172.0075404269316
 31
0.0
  0
LINE
  5
4A3
330
30C
100
AcDbEntity
  8
0
  6
BYBLOCK
 62
     4
100
AcDbLine
 10
255.7123361238191
 20
156.0077024554854
 30
0.0
 11
274.9992169472607
 21
156.0077024554854
 31
0.0
  0
LINE
  5
4A4
330
30C
100
AcDbEntity
  8
0
  6
BYBLOCK
 62
     4
100
AcDbLine
 10
273.4992169472607
 20
169.0075404269316
 30
0.0
 11
273.4992169472607
 21
159.0077024554854
 31
0.0
  0
INSERT
  5
4A5
330
30C
100
AcDbEntity
  8
0
  6
BYBLOCK
 62
     4
100
AcDbBlockReference
  2
_OPEN
 10
273.4992169472607
 20
172.0075404269316
 30
0.0
 41
3.0
 42
3.0
 43
3.0
 50
90.0
  0
INSERT
  5
4A6
330
30C
100
AcDbEntity
  8
0
  6
BYBLOCK
 62
     4
100
AcDbBlockReference
  2
_OPEN
 10
273.4992169472607
 20
156.0077024554854
 30
0.0
 41
3.0
 42
3.0
 43
3.0
 50
270.0
  0
MTEXT
  5
4A7
330
30C
100
AcDbEntity
  8
0
  6
BYBLOCK
 62
     4
100
AcDbMText
 10
270.9992169472607
 20
164.0076214412085
 30
0.0
 40
3.0
 41
0.0
 71
     5
 72
     5
  1
\A1;16
 11
0.0
 21
1.0
 31
0.0
1001
ACAD
1000
MTEXTBEGIN
1070
    73
1070
     1
1070
    44
1040
1.0
1070
    74
1070
     0
1000
MTEXTEND
1000
MTEXTBEGIN
1070
    73
1070
     1
1070
    44
1040
1.0
1070
    74
1070
     0
1000
MTEXTEND
1000
MTEXTBEGIN
1070
    73
1070
     1
1070
    44
1040
1.0
1070
    74
1070
     0
1000
MTEXTEND
1000
MTEXTBEGIN
1070
    73
1070
     1
1070
    44
1040
1.0
1070
    74
1070
     0
1000
MTEXTEND
  0
POINT
  5
4A8
330
30C
100
AcDbEntity
  8
DEFPOINTS
  6
BYBLOCK
 62
     0
100
AcDbPoint
 10
253.2122830009347
 20
172.0075404269316
 30
0.0
  0
POINT
  5
4A9
330
30C
100
AcDbEntity
  8
DEFPOINTS
  6
BYBLOCK
 62
     0
100
AcDbPoint
 10
252.7123361238191
 20
156.0077024554854
 30
0.0
  0
POINT
  5
4AA
330
30C
100
AcDbEntity
  8
DEFPOINTS
  6
BYBLOCK
 62
     0
100
AcDbPoint
 10
273.4992169472607
 20
156.0077024554854
 30
0.0
  0
ENDBLK
  5
4AB
330
30C
100
AcDbEntity
  8
0
100
AcDbBlockEnd
  0
BLOCK
  5
494
330
31A
100
AcDbEntity
  8
0
100
AcDbBlockBegin
  2
*D2
 70
     1
 10
0.0
 20
0.0
 30
0.0
  3
*D2
  1

  0
LINE
  5
495
330
31A
100
AcDbEntity
  8
0
  6
BYBLOCK
 62
     4
100
AcDbLine
 10
244.2123196471195
 20
126.0075962073005
 30
0.0
 11
266.271235822408
 21
126.0075962073005
 31
0.0
  0
LINE
  5
496
330
31A
100
AcDbEntity
  8
0
  6
BYBLOCK
 62
     4
100
AcDbLine
 10
233.2124202984724
 20
117.0076016589563
 30
0.0
 11
266.271235822408
 21
117.0076016589563
 31
0.0
  0
LINE
  5
497
330
31A
100
AcDbEntity
  8
0
  6
BYBLOCK
 62
     4
100
AcDbLine
 10
264.771235822408
 20
129.0075962073005
 30
0.0
 11
264.771235822408
 21
132.0075962073005
 31
0.0
  0
LINE
  5
498
330
31A
100
AcDbEntity
  8
0
  6
BYBLOCK
 62
     4
100
AcDbLine
 10
264.771235822408
 20
114.0076016589563
 30
0.0
 11
264.771235822408
 21
111.0076016589564
 31
0.0
  0
LINE
  5
499
330
31A
100
AcDbEntity
  8
0
  6
BYBLOCK
 62
     4
100
AcDbLine
 10
264.771235822408
 20
126.0075962073005
 30
0.0
 11
264.771235822408
 21
117.0076016589563
 31
0.0
  0
INSERT
  5
49A
330
31A
100
AcDbEntity
  8
0
  6
BYBLOCK
 62
     4
100
AcDbBlockReference
  2
_OPEN
 10
264.771235822408
 20
126.0075962073005
 30
0.0
 41
3.0
 42
3.0
 43
3.0
 50
270.0
  0
INSERT
  5
49B
330
31A
100
AcDbEntity
  8
0
  6
BYBLOCK
 62
     4
100
AcDbBlockReference
  2
_OPEN
 10
264.771235822408
 20
117.0076016589563
 30
0.0
 41
3.0
 42
3.0
 43
3.0
 50
90.0
  0
MTEXT
  5
49C
330
31A
100
AcDbEntity
  8
0
  6
BYBLOCK
 62
     4
100
AcDbMText
 10
262.271235822408
 20
121.5075989331284
 30
0.0
 40
3.0
 41
0.0
 71
     5
 72
     5
  1
\A1;9
 11
0.0
 21
1.0
 31
0.0
1001
ACAD
1000
MTEXTBEGIN
1070
    73
1070
     1
1070
    44
1040
1.0
1070
    74
1070
     0
1000
MTEXTEND
1000
MTEXTBEGIN
1070
    73
1070
     1
1070
    44
1040
1.0
1070
    74
1070
     0
1000
MTEXTEND
1000
MTEXTBEGIN
1070
    73
1070
     1
1070
    44
1040
1.0
1070
    74
1070
     0
1000
MTEXTEND
1000
MTEXTBEGIN
1070
    73
1070
     1
1070
    44
1040
1.0
1070
    74
1070
     0
1000
MTEXTEND
  0
POINT
  5
49D
330
31A
100
AcDbEntity
  8
DEFPOINTS
  6
BYBLOCK
 62
     0
100
AcDbPoint
 10
241.2123196471195
 20
126.0075962073005
 30
0.0
  0
POINT
  5
49E
330
31A
100
AcDbEntity
  8
DEFPOINTS
  6
BYBLOCK
 62
     0
100
AcDbPoint
 10
230.2124202984725
 20
117.0076016589563
 30
0.0
  0
POINT
  5
49F
330
31A
100
AcDbEntity
  8
DEFPOINTS
  6
BYBLOCK
 62
     0
100
AcDbPoint
 10
264.771235822408
 20
117.0076016589563
 30
0.0
  0
ENDBLK
  5
4A0
330
31A
100
AcDbEntity
  8
0
100
AcDbBlockEnd
  0
BLOCK
  5
489
330
329
100
AcDbEntity
  8
0
100
AcDbBlockBegin
  2
*D3
 70
     1
 10
0.0
 20
0.0
 30
0.0
  3
*D3
  1

  0
LINE
  5
48A
330
329
100
AcDbEntity
  8
0
  6
BYBLOCK
 62
     4
100
AcDbLine
 10
256.2122830009347
 20
172.0075404269316
 30
0.0
 11
284.4277713947415
 21
172.0075404269316
 31
0.0
  0
LINE
  5
48B
330
329
100
AcDbEntity
  8
0
  6
BYBLOCK
 62
     4
100
AcDbLine
 10
233.2124202984724
 20
117.0076016589563
 30
0.0
 11
284.4277713947415
 21
117.0076016589563
 31
0.0
  0
LINE
  5
48C
330
329
100
AcDbEntity
  8
0
  6
BYBLOCK
 62
     4
100
AcDbLine
 10
282.9277713947415
 20
169.0075404269316
 30
0.0
 11
282.9277713947415
 21
120.0076016589563
 31
0.0
  0
INSERT
  5
48D
330
329
100
AcDbEntity
  8
0
  6
BYBLOCK
 62
     4
100
AcDbBlockReference
  2
_OPEN
 10
282.9277713947415
 20
172.0075404269316
 30
0.0
 41
3.0
 42
3.0
 43
3.0
 50
90.0
  0
INSERT
  5
48E
330
329
100
AcDbEntity
  8
0
  6
BYBLOCK
 62
     4
100
AcDbBlockReference
  2
_OPEN
 10
282.9277713947415
 20
117.0076016589563
 30
0.0
 41
3.0
 42
3.0
 43
3.0
 50
270.0
  0
MTEXT
  5
48F
330
329
100
AcDbEntity
  8
0
  6
BYBLOCK
 62
     4
100
AcDbMText
 10
280.4277713947415
 20
144.507571042944
 30
0.0
 40
3.0
 41
0.0
 71
     5
 72
     5
  1
\A1;55
 11
0.0
 21
1.0
 31
0.0
1001
ACAD
1000
MTEXTBEGIN
1070
    73
1070
     1
1070
    44
1040
1.0
1070
    74
1070
     0
1000
MTEXTEND
1000
MTEXTBEGIN
1070
    73
1070
     1
1070
    44
1040
1.0
1070
    74
1070
     0
1000
MTEXTEND
1000
MTEXTBEGIN
1070
    73
1070
     1
1070
    44
1040
1.0
1070
    74
1070
     0
1000
MTEXTEND
1000
MTEXTBEGIN
1070
    73
1070
     1
1070
    44
1040
1.0
1070
    74
1070
     0
1000
MTEXTEND
  0
POINT
  5
490
330
329
100
AcDbEntity
  8
DEFPOINTS
  6
BYBLOCK
 62
     0
100
AcDbPoint
 10
253.2122830009347
 20
172.0075404269316
 30
0.0
  0
POINT
  5
491
330
329
100
AcDbEntity
  8
DEFPOINTS
  6
BYBLOCK
 62
     0
100
AcDbPoint
 10
230.2124202984725
 20
117.0076016589563
 30
0.0
  0
POINT
  5
492
330
329
100
AcDbEntity
  8
DEFPOINTS
  6
BYBLOCK
 62
     0
100
AcDbPoint
 10
282.9277713947415
 20
117.0076016589563
 30
0.0
  0
ENDBLK
  5
493
330
329
100
AcDbEntity
  8
0
100
AcDbBlockEnd
  0
BLOCK
  5
337
330
336
100
AcDbEntity
  8
0
100
AcDbBlockBegin
  2
*D4
 70
     1
 10
0.0
 20
0.0
 30
0.0
  3
*D4
  1

  0
LINE
  5
338
330
336
100
AcDbEntity
  8
0
  6
BYBLOCK
 62
     4
100
AcDbLine
 10
199.3936988549641
 20
133.0206183449285
 30
0.0
 11
167.5226117506582
 21
108.8496654281299
 31
0.0
  0
INSERT
  5
339
330
336
100
AcDbEntity
  8
0
  6
BYBLOCK
 62
     4
100
AcDbBlockReference
  2
_OPEN
 10
165.1322810829229
 20
107.0368446154503
 30
0.0
 41
3.0
 42
3.0
 43
3.0
 50
217.1765890846931
  0
MTEXT
  5
33A
330
336
100
AcDbEntity
  8
0
  6
BYBLOCK
 62
     4
100
AcDbMText
 10
180.7523059583772
 20
122.0206737033022
 30
0.0
 40
3.0
 41
0.0
 71
     5
 72
     5
  1
\A1;R43
 11
0.7967768892450931
 21
0.604273604226523
 31
0.0
1001
ACAD
1000
MTEXTBEGIN
1070
    73
1070
     1
1070
    44
1040
1.0
1070
    74
1070
     0
1000
MTEXTEND
1000
MTEXTBEGIN
1070
    73
1070
     1
1070
    44
1040
1.0
1070
    74
1070
     0
1000
MTEXTEND
1000
MTEXTBEGIN
1070
    73
1070
     1
1070
    44
1040
1.0
1070
    74
1070
     0
1000
MTEXTEND
1000
MTEXTBEGIN
1070
    73
1070
     1
1070
    44
1040
1.0
1070
    74
1070
     0
1000
MTEXTEND
  0
POINT
  5
33B
330
336
100
AcDbEntity
  8
DEFPOINTS
  6
BYBLOCK
 62
     0
100
AcDbPoint
 10
165.1322810829229
 20
107.0368446154503
 30
0.0
  0
POINT
  5
33C
330
336
100
AcDbEntity
  8
DEFPOINTS
  6
BYBLOCK
 62
     0
100
AcDbPoint
 10
199.3936988549641
 20
133.0206183449285
 30
0.0
  0
ENDBLK
  5
33D
330
336
100
AcDbEntity
  8
0
100
AcDbBlockEnd
  0
BLOCK
  5
47E
330
33F
100
AcDbEntity
  8
0
100
AcDbBlockBegin
  2
*D5
 70
     1
 10
0.0
 20
0.0
 30
0.0
  3
*D5
  1

  0
LINE
  5
47F
330
33F
100
AcDbEntity
  8
0
  6
BYBLOCK
 62
     4
100
AcDbLine
 10
130.2123771673297
 20
172.0077024554853
 30
0.0
 11
116.9929185475816
 21
172.0077024554853
 31
0.0
  0
LINE
  5
480
330
33F
100
AcDbEntity
  8
0
  6
BYBLOCK
 62
     4
100
AcDbLine
 10
130.7124612729663
 20
156.0077024554854
 30
0.0
 11
116.9929185475816
 21
156.0077024554854
 31
0.0
  0
LINE
  5
481
330
33F
100
AcDbEntity
  8
0
  6
BYBLOCK
 62
     4
100
AcDbLine
 10
118.4929185475816
 20
169.0077024554853
 30
0.0
 11
118.4929185475816
 21
159.0077024554854
 31
0.0
  0
INSERT
  5
482
330
33F
100
AcDbEntity
  8
0
  6
BYBLOCK
 62
     4
100
AcDbBlockReference
  2
_OPEN
 10
118.4929185475816
 20
172.0077024554853
 30
0.0
 41
3.0
 42
3.0
 43
3.0
 50
90.0
  0
INSERT
  5
483
330
33F
100
AcDbEntity
  8
0
  6
BYBLOCK
 62
     4
100
AcDbBlockReference
  2
_OPEN
 10
118.4929185475816
 20
156.0077024554854
 30
0.0
 41
3.0
 42
3.0
 43
3.0
 50
270.0
  0
MTEXT
  5
484
330
33F
100
AcDbEntity
  8
0
  6
BYBLOCK
 62
     4
100
AcDbMText
 10
115.9929185475816
 20
164.0077024554853
 30
0.0
 40
3.0
 41
0.0
 71
     5
 72
     5
  1
\A1;16
 11
0.0
 21
1.0
 31
0.0
1001
ACAD
1000
MTEXTBEGIN
1070
    73
1070
     1
1070
    44
1040
1.0
1070
    74
1070
     0
1000
MTEXTEND
1000
MTEXTBEGIN
1070
    73
1070
     1
1070
    44
1040
1.0
1070
    74
1070
     0
1000
MTEXTEND
1000
MTEXTBEGIN
1070
    73
1070
     1
1070
    44
1040
1.0
1070
    74
1070
     0
1000
MTEXTEND
1000
MTEXTBEGIN
1070
    73
1070
     1
1070
    44
1040
1.0
1070
    74
1070
     0
1000
MTEXTEND
  0
POINT
  5
485
330
33F
100
AcDbEntity
  8
DEFPOINTS
  6
BYBLOCK
 62
     0
100
AcDbPoint
 10
133.2123771673297
 20
172.0077024554853
 30
0.0
  0
POINT
  5
486
330
33F
100
AcDbEntity
  8
DEFPOINTS
  6
BYBLOCK
 62
     0
100
AcDbPoint
 10
133.7124612729663
 20
156.0077024554854
 30
0.0
  0
POINT
  5
487
330
33F
100
AcDbEntity
  8
DEFPOINTS
  6
BYBLOCK
 62
     0
100
AcDbPoint
 10
118.4929185475816
 20
156.0077024554854
 30
0.0
  0
ENDBLK
  5
488
330
33F
100
AcDbEntity
  8
0
100
AcDbBlockEnd
  0
BLOCK
  5
473
330
34C
100
AcDbEntity
  8
0
100
AcDbBlockBegin
  2
*D6
 70
     1
 10
0.0
 20
0.0
 30
0.0
  3
*D6
  1

  0
LINE
  5
474
330
34C
100
AcDbEntity
  8
0
  6
BYBLOCK
 62
     4
100
AcDbLine
 10
130.2123771673297
 20
172.0077024554853
 30
0.0
 11
108.7429470780505
 21
172.0077024554853
 31
0.0
  0
LINE
  5
475
330
34C
100
AcDbEntity
  8
0
  6
BYBLOCK
 62
     4
100
AcDbLine
 10
182.0258411340719
 20
117.0077024554854
 30
0.0
 11
108.7429470780505
 21
117.0077024554854
 31
0.0
  0
LINE
  5
476
330
34C
100
AcDbEntity
  8
0
  6
BYBLOCK
 62
     4
100
AcDbLine
 10
110.2429470780505
 20
169.0077024554853
 30
0.0
 11
110.2429470780505
 21
120.0077024554854
 31
0.0
  0
INSERT
  5
477
330
34C
100
AcDbEntity
  8
0
  6
BYBLOCK
 62
     4
100
AcDbBlockReference
  2
_OPEN
 10
110.2429470780505
 20
172.0077024554853
 30
0.0
 41
3.0
 42
3.0
 43
3.0
 50
90.0
  0
INSERT
  5
478
330
34C
100
AcDbEntity
  8
0
  6
BYBLOCK
 62
     4
100
AcDbBlockReference
  2
_OPEN
 10
110.2429470780505
 20
117.0077024554854
 30
0.0
 41
3.0
 42
3.0
 43
3.0
 50
270.0
  0
MTEXT
  5
479
330
34C
100
AcDbEntity
  8
0
  6
BYBLOCK
 62
     4
100
AcDbMText
 10
107.7429470780505
 20
144.5077024554854
 30
0.0
 40
3.0
 41
0.0
 71
     5
 72
     5
  1
\A1;55
 11
0.0
 21
1.0
 31
0.0
1001
ACAD
1000
MTEXTBEGIN
1070
    73
1070
     1
1070
    44
1040
1.0
1070
    74
1070
     0
1000
MTEXTEND
1000
MTEXTBEGIN
1070
    73
1070
     1
1070
    44
1040
1.0
1070
    74
1070
     0
1000
MTEXTEND
1000
MTEXTBEGIN
1070
    73
1070
     1
1070
    44
1040
1.0
1070
    74
1070
     0
1000
MTEXTEND
1000
MTEXTBEGIN
1070
    73
1070
     1
1070
    44
1040
1.0
1070
    74
1070
     0
1000
MTEXTEND
  0
POINT
  5
47A
330
34C
100
AcDbEntity
  8
DEFPOINTS
  6
BYBLOCK
 62
     0
100
AcDbPoint
 10
133.2123771673297
 20
172.0077024554853
 30
0.0
  0
POINT
  5
47B
330
34C
100
AcDbEntity
  8
DEFPOINTS
  6
BYBLOCK
 62
     0
100
AcDbPoint
 10
185.0258411340719
 20
117.0077024554854
 30
0.0
  0
POINT
  5
47C
330
34C
100
AcDbEntity
  8
DEFPOINTS
  6
BYBLOCK
 62
     0
100
AcDbPoint
 10
110.2429470780505
 20
117.0077024554854
 30
0.0
  0
ENDBLK
  5
47D
330
34C
100
AcDbEntity
  8
0
100
AcDbBlockEnd
  0
BLOCK
  5
466
330
359
100
AcDbEntity
  8
0
100
AcDbBlockBegin
  2
*D7
 70
     1
 10
0.0
 20
0.0
 30
0.0
  3
*D7
  1

  0
LINE
  5
467
330
359
100
AcDbEntity
  8
0
  6
BYBLOCK
 62
     4
100
AcDbLine
 10
253.2122830009347
 20
175.0075404269316
 30
0.0
 11
253.2122830009347
 21
189.7460587435098
 31
0.0
  0
LINE
  5
468
330
359
100
AcDbEntity
  8
0
  6
BYBLOCK
 62
     4
100
AcDbLine
 10
244.3439402107386
 20
172.5077024554854
 30
0.0
 11
244.3439402107386
 21
189.7460587435098
 31
0.0
  0
LINE
  5
469
330
359
100
AcDbEntity
  8
0
  6
BYBLOCK
 62
     4
100
AcDbLine
 10
256.2122830009347
 20
188.2460587435098
 30
0.0
 11
259.2122830009347
 21
188.2460587435098
 31
0.0
  0
LINE
  5
46A
330
359
100
AcDbEntity
  8
0
  6
BYBLOCK
 62
     4
100
AcDbLine
 10
241.3439402107386
 20
188.2460587435098
 30
0.0
 11
238.3439402107386
 21
188.2460587435098
 31
0.0
  0
LINE
  5
46B
330
359
100
AcDbEntity
  8
0
  6
BYBLOCK
 62
     4
100
AcDbLine
 10
253.2122830009347
 20
188.2460587435098
 30
0.0
 11
244.3439402107386
 21
188.2460587435098
 31
0.0
  0
INSERT
  5
46C
330
359
100
AcDbEntity
  8
0
  6
BYBLOCK
 62
     4
100
AcDbBlockReference
  2
_OPEN
 10
253.2122830009347
 20
188.2460587435098
 30
0.0
 41
3.0
 42
3.0
 43
3.0
 50
180.0
  0
INSERT
  5
46D
330
359
100
AcDbEntity
  8
0
  6
BYBLOCK
 62
     4
100
AcDbBlockReference
  2
_OPEN
 10
244.3439402107386
 20
188.2460587435098
 30
0.0
 41
3.0
 42
3.0
 43
3.0
  0
MTEXT
  5
46E
330
359
100
AcDbEntity
  8
0
  6
BYBLOCK
 62
     4
100
AcDbMText
 10
248.7781116058366
 20
190.7460587435098
 30
0.0
 40
3.0
 41
0.0
 71
     5
 72
     5
  1
\A1;9
1001
ACAD
1000
MTEXTBEGIN
1070
    73
1070
     1
1070
    44
1040
1.0
1070
    74
1070
     0
1000
MTEXTEND
1000
MTEXTBEGIN
1070
    73
1070
     1
1070
    44
1040
1.0
1070
    74
1070
     0
1000
MTEXTEND
1000
MTEXTBEGIN
1070
    73
1070
     1
1070
    44
1040
1.0
1070
    74
1070
     0
1000
MTEXTEND
1000
MTEXTBEGIN
1070
    73
1070
     1
1070
    44
1040
1.0
1070
    74
1070
     0
1000
MTEXTEND
  0
POINT
  5
46F
330
359
100
AcDbEntity
  8
DEFPOINTS
  6
BYBLOCK
 62
     0
100
AcDbPoint
 10
253.2122830009347
 20
172.0075404269316
 30
0.0
  0
POINT
  5
470
330
359
100
AcDbEntity
  8
DEFPOINTS
  6
BYBLOCK
 62
     0
100
AcDbPoint
 10
244.3439402107386
 20
169.5077024554854
 30
0.0
  0
POINT
  5
471
330
359
100
AcDbEntity
  8
DEFPOINTS
  6
BYBLOCK
 62
     0
100
AcDbPoint
 10
244.3439402107386
 20
188.2460587435098
 30
0.0
  0
ENDBLK
  5
472
330
359
100
AcDbEntity
  8
0
100
AcDbBlockEnd
  0
BLOCK
  5
459
330
368
100
AcDbEntity
  8
0
100
AcDbBlockBegin
  2
*D8
 70
     1
 10
0.0
 20
0.0
 30
0.0
  3
*D8
  1

  0
LINE
  5
45A
330
368
100
AcDbEntity
  8
0
  6
BYBLOCK
 62
     4
100
AcDbLine
 10
133.2123771673297
 20
175.0077024554853
 30
0.0
 11
133.2123771673297
 21
189.7460587435098
 31
0.0
  0
LINE
  5
45B
330
368
100
AcDbEntity
  8
0
  6
BYBLOCK
 62
     4
100
AcDbLine
 10
142.0808425190949
 20
172.5077024554854
 30
0.0
 11
142.0808425190949
 21
189.7460587435098
 31
0.0
  0
LINE
  5
45C
330
368
100
AcDbEntity
  8
0
  6
BYBLOCK
 62
     4
100
AcDbLine
 10
130.2123771673297
 20
188.2460587435098
 30
0.0
 11
127.2123771673297
 21
188.2460587435098
 31
0.0
  0
LINE
  5
45D
330
368
100
AcDbEntity
  8
0
  6
BYBLOCK
 62
     4
100
AcDbLine
 10
145.0808425190948
 20
188.2460587435098
 30
0.0
 11
148.0808425190948
 21
188.2460587435098
 31
0.0
  0
LINE
  5
45E
330
368
100
AcDbEntity
  8
0
  6
BYBLOCK
 62
     4
100
AcDbLine
 10
133.2123771673297
 20
188.2460587435098
 30
0.0
 11
142.0808425190949
 21
188.2460587435098
 31
0.0
  0
INSERT
  5
45F
330
368
100
AcDbEntity
  8
0
  6
BYBLOCK
 62
     4
100
AcDbBlockReference
  2
_OPEN
 10
133.2123771673297
 20
188.2460587435098
 30
0.0
 41
3.0
 42
3.0
 43
3.0
  0
INSERT
  5
460
330
368
100
AcDbEntity
  8
0
  6
BYBLOCK
 62
     4
100
AcDbBlockReference
  2
_OPEN
 10
142.0808425190949
 20
188.2460587435098
 30
0.0
 41
3.0
 42
3.0
 43
3.0
 50
180.0
  0
MTEXT
  5
461
330
368
100
AcDbEntity
  8
0
  6
BYBLOCK
 62
     4
100
AcDbMText
 10
137.6466098432123
 20
190.7460587435098
 30
0.0
 40
3.0
 41
0.0
 71
     5
 72
     5
  1
\A1;9
1001
ACAD
1000
MTEXTBEGIN
1070
    73
1070
     1
1070
    44
1040
1.0
1070
    74
1070
     0
1000
MTEXTEND
1000
MTEXTBEGIN
1070
    73
1070
     1
1070
    44
1040
1.0
1070
    74
1070
     0
1000
MTEXTEND
1000
MTEXTBEGIN
1070
    73
1070
     1
1070
    44
1040
1.0
1070
    74
1070
     0
1000
MTEXTEND
1000
MTEXTBEGIN
1070
    73
1070
     1
1070
    44
1040
1.0
1070
    74
1070
     0
1000
MTEXTEND
  0
POINT
  5
462
330
368
100
AcDbEntity
  8
DEFPOINTS
  6
BYBLOCK
 62
     0
100
AcDbPoint
 10
133.2123771673297
 20
172.0077024554853
 30
0.0
  0
POINT
  5
463
330
368
100
AcDbEntity
  8
DEFPOINTS
  6
BYBLOCK
 62
     0
100
AcDbPoint
 10
142.0808425190949
 20
169.5077024554854
 30
0.0
  0
POINT
  5
464
330
368
100
AcDbEntity
  8
DEFPOINTS
  6
BYBLOCK
 62
     0
100
AcDbPoint
 10
142.0808425190949
 20
188.2460587435098
 30
0.0
  0
ENDBLK
  5
465
330
368
100
AcDbEntity
  8
0
100
AcDbBlockEnd
  0
BLOCK
  5
44E
330
377
100
AcDbEntity
  8
0
100
AcDbBlockBegin
  2
*D9
 70
     1
 10
0.0
 20
0.0
 30
0.0
  3
*D9
  1

  0
LINE
  5
44F
330
377
100
AcDbEntity
  8
0
  6
BYBLOCK
 62
     4
100
AcDbLine
 10
133.2123771673297
 20
175.0077024554853
 30
0.0
 11
133.2123771673297
 21
199.0683992655384
 31
0.0
  0
LINE
  5
450
330
377
100
AcDbEntity
  8
0
  6
BYBLOCK
 62
     4
100
AcDbLine
 10
253.2122830009347
 20
175.0075404269316
 30
0.0
 11
253.2122830009347
 21
199.0683992655384
 31
0.0
  0
LINE
  5
451
330
377
100
AcDbEntity
  8
0
  6
BYBLOCK
 62
     4
100
AcDbLine
 10
136.2123771673297
 20
197.5683992655384
 30
0.0
 11
250.2122830009347
 21
197.5683992655384
 31
0.0
  0
INSERT
  5
452
330
377
100
AcDbEntity
  8
0
  6
BYBLOCK
 62
     4
100
AcDbBlockReference
  2
_OPEN
 10
133.2123771673297
 20
197.5683992655384
 30
0.0
 41
3.0
 42
3.0
 43
3.0
 50
180.0
  0
INSERT
  5
453
330
377
100
AcDbEntity
  8
0
  6
BYBLOCK
 62
     4
100
AcDbBlockReference
  2
_OPEN
 10
253.2122830009347
 20
197.5683992655384
 30
0.0
 41
3.0
 42
3.0
 43
3.0
  0
MTEXT
  5
454
330
377
100
AcDbEntity
  8
0
  6
BYBLOCK
 62
     4
100
AcDbMText
 10
193.2123300841322
 20
200.0683992655384
 30
0.0
 40
3.0
 41
0.0
 71
     5
 72
     5
  1
\A1;120
1001
ACAD
1000
MTEXTBEGIN
1070
    73
1070
     1
1070
    44
1040
1.0
1070
    74
1070
     0
1000
MTEXTEND
1000
MTEXTBEGIN
1070
    73
1070
     1
1070
    44
1040
1.0
1070
    74
1070
     0
1000
MTEXTEND
1000
MTEXTBEGIN
1070
    73
1070
     1
1070
    44
1040
1.0
1070
    74
1070
     0
1000
MTEXTEND
1000
MTEXTBEGIN
1070
    73
1070
     1
1070
    44
1040
1.0
1070
    74
1070
     0
1000
MTEXTEND
  0
POINT
  5
455
330
377
100
AcDbEntity
  8
DEFPOINTS
  6
BYBLOCK
 62
     0
100
AcDbPoint
 10
133.2123771673297
 20
172.0077024554853
 30
0.0
  0
POINT
  5
456
330
377
100
AcDbEntity
  8
DEFPOINTS
  6
BYBLOCK
 62
     0
100
AcDbPoint
 10
253.2122830009347
 20
172.0075404269316
 30
0.0
  0
POINT
  5
457
330
377
100
AcDbEntity
  8
DEFPOINTS
  6
BYBLOCK
 62
     0
100
AcDbPoint
 10
253.2122830009347
 20
197.5683992655384
 30
0.0
  0
ENDBLK
  5
458
330
377
100
AcDbEntity
  8
0
100
AcDbBlockEnd
  0
BLOCK
  5
443
330
404
100
AcDbEntity
  8
0
100
AcDbBlockBegin
  2
*D10
 70
     1
 10
0.0
 20
0.0
 30
0.0
  3
*D10
  1

  0
LINE
  5
444
330
404
100
AcDbEntity
  8
0
  6
BYBLOCK
 62
     4
100
AcDbLine
 10
240.8917411340719
 20
122.7453024554854
 30
0.0
 11
240.8917411340719
 21
97.86140292691221
 31
0.0
  0
LINE
  5
445
330
404
100
AcDbEntity
  8
0
  6
BYBLOCK
 62
     4
100
AcDbLine
 10
229.8553411340719
 20
114.0076024554853
 30
0.0
 11
229.8553411340719
 21
97.86140292691221
 31
0.0
  0
LINE
  5
446
330
404
100
AcDbEntity
  8
0
  6
BYBLOCK
 62
     4
100
AcDbLine
 10
237.8917411340719
 20
99.3614029269122
 30
0.0
 11
232.8553411340719
 21
99.3614029269122
 31
0.0
  0
INSERT
  5
447
330
404
100
AcDbEntity
  8
0
  6
BYBLOCK
 62
     4
100
AcDbBlockReference
  2
_OPEN
 10
240.8917411340719
 20
99.3614029269122
 30
0.0
 41
3.0
 42
3.0
 43
3.0
  0
INSERT
  5
448
330
404
100
AcDbEntity
  8
0
  6
BYBLOCK
 62
     4
100
AcDbBlockReference
  2
_OPEN
 10
229.8553411340719
 20
99.3614029269122
 30
0.0
 41
3.0
 42
3.0
 43
3.0
 50
180.0
  0
MTEXT
  5
449
330
404
100
AcDbEntity
  8
0
  6
BYBLOCK
 62
     4
100
AcDbMText
 10
235.3735411340719
 20
101.8614029269122
 30
0.0
 40
3.0
 41
0.0
 71
     5
 72
     5
  1
\A1;11
1001
ACAD
1000
MTEXTBEGIN
1070
    73
1070
     1
1070
    44
1040
1.0
1070
    74
1070
     0
1000
MTEXTEND
1000
MTEXTBEGIN
1070
    73
1070
     1
1070
    44
1040
1.0
1070
    74
1070
     0
1000
MTEXTEND
1000
MTEXTBEGIN
1070
    73
1070
     1
1070
    44
1040
1.0
1070
    74
1070
     0
1000
MTEXTEND
1000
MTEXTBEGIN
1070
    73
1070
     1
1070
    44
1040
1.0
1070
    74
1070
     0
1000
MTEXTEND
  0
POINT
  5
44A
330
404
100
AcDbEntity
  8
DEFPOINTS
  6
BYBLOCK
 62
     0
100
AcDbPoint
 10
240.8917411340719
 20
125.7453024554854
 30
0.0
  0
POINT
  5
44B
330
404
100
AcDbEntity
  8
DEFPOINTS
  6
BYBLOCK
 62
     0
100
AcDbPoint
 10
229.8553411340719
 20
117.0076024554853
 30
0.0
  0
POINT
  5
44C
330
404
100
AcDbEntity
  8
DEFPOINTS
  6
BYBLOCK
 62
     0
100
AcDbPoint
 10
229.8553411340719
 20
99.3614029269122
 30
0.0
  0
ENDBLK
  5
44D
330
404
100
AcDbEntity
  8
0
100
AcDbBlockEnd
  0
BLOCK
  5
438
330
411
100
AcDbEntity
  8
0
100
AcDbBlockBegin
  2
*D11
 70
     1
 10
0.0
 20
0.0
 30
0.0
  3
*D11
  1

  0
LINE
  5
439
330
411
100
AcDbEntity
  8
0
  6
BYBLOCK
 62
     4
100
AcDbLine
 10
229.8553411340719
 20
114.0076024554853
 30
0.0
 11
229.8553411340719
 21
97.86140292691221
 31
0.0
  0
LINE
  5
43A
330
411
100
AcDbEntity
  8
0
  6
BYBLOCK
 62
     4
100
AcDbLine
 10
182.0258411340719
 20
114.0077024554854
 30
0.0
 11
182.0258411340719
 21
97.86140292691221
 31
0.0
  0
LINE
  5
43B
330
411
100
AcDbEntity
  8
0
  6
BYBLOCK
 62
     4
100
AcDbLine
 10
226.8553411340719
 20
99.3614029269122
 30
0.0
 11
185.0258411340719
 21
99.3614029269122
 31
0.0
  0
INSERT
  5
43C
330
411
100
AcDbEntity
  8
0
  6
BYBLOCK
 62
     4
100
AcDbBlockReference
  2
_OPEN
 10
229.8553411340719
 20
99.3614029269122
 30
0.0
 41
3.0
 42
3.0
 43
3.0
  0
INSERT
  5
43D
330
411
100
AcDbEntity
  8
0
  6
BYBLOCK
 62
     4
100
AcDbBlockReference
  2
_OPEN
 10
182.0258411340719
 20
99.3614029269122
 30
0.0
 41
3.0
 42
3.0
 43
3.0
 50
180.0
  0
MTEXT
  5
43E
330
411
100
AcDbEntity
  8
0
  6
BYBLOCK
 62
     4
100
AcDbMText
 10
205.9405911340719
 20
101.8614029269122
 30
0.0
 40
3.0
 41
0.0
 71
     5
 72
     5
  1
\A1;48
1001
ACAD
1000
MTEXTBEGIN
1070
    73
1070
     1
1070
    44
1040
1.0
1070
    74
1070
     0
1000
MTEXTEND
1000
MTEXTBEGIN
1070
    73
1070
     1
1070
    44
1040
1.0
1070
    74
1070
     0
1000
MTEXTEND
1000
MTEXTBEGIN
1070
    73
1070
     1
1070
    44
1040
1.0
1070
    74
1070
     0
1000
MTEXTEND
1000
MTEXTBEGIN
1070
    73
1070
     1
1070
    44
1040
1.0
1070
    74
1070
     0
1000
MTEXTEND
  0
POINT
  5
43F
330
411
100
AcDbEntity
  8
DEFPOINTS
  6
BYBLOCK
 62
     0
100
AcDbPoint
 10
229.8553411340719
 20
117.0076024554853
 30
0.0
  0
POINT
  5
440
330
411
100
AcDbEntity
  8
DEFPOINTS
  6
BYBLOCK
 62
     0
100
AcDbPoint
 10
182.0258411340719
 20
117.0077024554854
 30
0.0
  0
POINT
  5
441
330
411
100
AcDbEntity
  8
DEFPOINTS
  6
BYBLOCK
 62
     0
100
AcDbPoint
 10
182.0258411340719
 20
99.3614029269122
 30
0.0
  0
ENDBLK
  5
442
330
411
100
AcDbEntity
  8
0
100
AcDbBlockEnd
  0
BLOCK
  5
4D5
330
4C9
100
AcDbEntity
  8
0
100
AcDbBlockBegin
  2
*D12
 70
     1
 10
0.0
 20
0.0
 30
0.0
  3
*D12
  1

  0
LINE
  5
570
330
4C9
100
AcDbEntity
  8
SUNPOU
 62
     4
100
AcDbLine
 10
242.9494127341094
 20
129.0608400764245
 30
0.0
 11
243.2505738245436
 21
132.0723879939232
 31
0.0
  0
LINE
  5
571
330
4C9
100
AcDbEntity
  8
SUNPOU
 62
     4
100
AcDbLine
 10
244.2927126627192
 20
128.9265072740375
 30
0.0
 11
244.5938737531534
 21
131.9380551915362
 31
0.0
  0
LINE
  5
572
330
4C9
100
AcDbEntity
  8
SUNPOU
 62
     4
100
AcDbLine
 10
240.1162042027587
 20
130.8783498563279
 30
0.0
 11
237.1310932502927
 21
131.1768671949656
 31
0.0
  0
LINE
  5
573
330
4C9
100
AcDbEntity
  8
SUNPOU
 62
     4
100
AcDbLine
 10
247.4297260363005
 20
130.1469823766655
 30
0.0
 11
263.3503177827861
 21
128.5548899039312
 31
0.0
  0
LINE
  5
574
330
4C9
100
AcDbEntity
  8
SUNPOU
 62
     4
100
AcDbLine
 10
243.1013151552248
 20
130.5798325176902
 30
0.0
 11
244.4446150838345
 21
130.4454997153032
 31
0.0
  0
INSERT
  5
575
330
4C9
100
AcDbEntity
  8
SUNPOU
 62
     4
100
AcDbBlockReference
  2
_OPEN
 10
243.1013151552248
 20
130.5798325176902
 30
0.0
 41
3.0
 42
3.0
 43
3.0
 50
354.2892882142792
  0
INSERT
  5
576
330
4C9
100
AcDbEntity
  8
SUNPOU
 62
     4
100
AcDbBlockReference
  2
_OPEN
 10
244.4446150838345
 20
130.4454997153032
 30
0.0
 41
3.0
 42
3.0
 43
3.0
 50
174.2892882142792
  0
MTEXT
  5
577
330
4C9
100
AcDbEntity
  8
SUNPOU
 62
     4
100
AcDbMText
 10
257.131341834641
 20
131.6892699313679
 30
0.0
 40
3.0
 41
0.0
 71
     5
 72
     5
  1
\A1;t1.35
 11
0.9950369841553444
 21
-0.0995057795458987
 31
0.0
1001
ACAD
1000
MTEXTBEGIN
1070
    73
1070
     1
1070
    44
1040
1.0
1070
    74
1070
     0
1000
MTEXTEND
1000
MTEXTBEGIN
1070
    73
1070
     1
1070
    44
1040
1.0
1070
    74
1070
     0
1000
MTEXTEND
  0
POINT
  5
578
330
4C9
100
AcDbEntity
  8
DEFPOINTS
 62
     0
100
AcDbPoint
 10
242.6508953954717
 20
126.0757291239585
 30
0.0
  0
POINT
  5
579
330
4C9
100
AcDbEntity
  8
DEFPOINTS
 62
     0
100
AcDbPoint
 10
243.9941953240815
 20
125.9413963215715
 30
0.0
  0
POINT
  5
57A
330
4C9
100
AcDbEntity
  8
DEFPOINTS
 62
     0
100
AcDbPoint
 10
244.4446150838345
 20
130.4454997153032
 30
0.0
  0
ENDBLK
  5
4D6
330
4C9
100
AcDbEntity
  8
0
100
AcDbBlockEnd
  0
ENDSEC
  0
SECTION
  2
ENTITIES
  0
LINE
  5
22F
330
1A
100
AcDbEntity
  8
SEIHIN
  6
CONTINUOUS
 62
     3
 48
8.0
100
AcDbLine
 10
231.0682834201788
 20
101.252396798419
 30
0.0
 11
186.2388834201787
 21
101.2524967984191
 31
0.0
  0
ARC
  5
238
330
1A
100
AcDbEntity
  8
SEIHIN
  6
CONTINUOUS
 62
     3
 48
8.0
100
AcDbCircle
 10
186.2388671937214
 20
144.2525112747892
 30
0.0
 40
43.00001447645168
100
AcDbArc
 50
186.524910707118
 51
269.999888375144
  0
ARC
  5
24A
330
1A
100
AcDbEntity
  8
SEIHIN
  6
CONTINUOUS
 62
     3
 48
8.0
100
AcDbCircle
 10
138.026896992317
 20
143.4524836433326
 30
0.0
 40
1.999986844959662
100
AcDbArc
 50
181.7875531852363
 51
269.9996111843223
  0
ARC
  5
24B
330
1A
100
AcDbEntity
  8
SEIHIN
  6
CONTINUOUS
 62
     3
 48
8.0
100
AcDbCircle
 10
139.9405036328479
 20
146.2525555267991
 30
0.0
 40
5.2000412730095
100
AcDbArc
 50
90.00132454306161
 51
142.0757990790561
  0
ARC
  5
24C
330
1A
100
AcDbEntity
  8
SEIHIN
  6
CONTINUOUS
 62
     3
 48
8.0
100
AcDbCircle
 10
136.4887879149766
 20
154.252501435946
 30
0.0
 40
0.7999953624857498
100
AcDbArc
 50
90.00032191805336
 51
181.7911273464199
  0
ARC
  5
24D
330
1A
100
AcDbEntity
  8
SEIHIN
  6
CONTINUOUS
 62
     3
 48
8.0
100
AcDbCircle
 10
136.488796171029
 20
154.2525099535056
 30
0.0
 40
1.999986844954076
100
AcDbArc
 50
90.00036528735526
 51
181.7883072882699
  0
ARC
  5
24E
330
1A
100
AcDbEntity
  8
SEIHIN
  6
CONTINUOUS
 62
     3
 48
8.0
100
AcDbCircle
 10
139.9404213016254
 20
146.2525405809445
 30
0.0
 40
3.999989731271038
100
AcDbArc
 50
96.47731142013144
 51
181.7899836067308
  0
LINE
  5
24F
330
1A
100
AcDbEntity
  8
SEIHIN
  6
CONTINUOUS
 62
     3
 48
8.0
100
AcDbLine
 10
136.3791834201788
 20
140.2524967984191
 30
0.0
 11
142.5238834201788
 21
140.2524967984191
 31
0.0
  0
LINE
  5
25D
330
1A
100
AcDbEntity
  8
SEIHIN
  6
CONTINUOUS
 62
     3
 48
8.0
100
AcDbLine
 10
134.4897834201788
 20
154.1899967984191
 30
0.0
 11
134.8799834201788
 21
141.705696798419
 31
0.0
  0
ARC
  5
25E
330
1A
100
AcDbEntity
  8
SEIHIN
  6
CONTINUOUS
 62
     3
 48
8.0
100
AcDbCircle
 10
136.3792193793297
 20
141.7524619442758
 30
0.0
 40
1.499965146287778
100
AcDbArc
 50
181.7866280217767
 51
269.9986264296976
  0
LINE
  5
25F
330
1A
100
AcDbEntity
  8
SEIHIN
  6
CONTINUOUS
 62
     3
 48
8.0
100
AcDbLine
 10
136.0278834201787
 20
143.3900967984191
 30
0.0
 11
135.9423834201788
 21
146.127596798419
 31
0.0
  0
LINE
  5
260
330
1A
100
AcDbEntity
  8
SEIHIN
  6
CONTINUOUS
 62
     3
 48
8.0
100
AcDbLine
 10
135.6891834201788
 20
154.227496798419
 30
0.0
 11
135.8385834201787
 21
149.4485967984191
 31
0.0
  0
ARC
  5
26A
330
1A
100
AcDbEntity
  8
SEIHIN
  6
CONTINUOUS
 62
     3
 48
8.0
100
AcDbCircle
 10
140.2018100207762
 20
147.2524661215369
 30
0.0
 40
0.4999693238254178
100
AcDbArc
 50
171.8555038770532
 51
269.9969516090348
  0
LINE
  5
26B
330
1A
100
AcDbEntity
  8
SEIHIN
  6
CONTINUOUS
 62
     3
 48
8.0
100
AcDbLine
 10
142.9502834201788
 20
147.226296798419
 30
0.0
 11
143.2660834201787
 21
153.2261967984191
 31
0.0
  0
LINE
  5
26D
330
1A
100
AcDbEntity
  8
SEIHIN
  6
CONTINUOUS
 62
     3
 48
8.0
100
AcDbLine
 10
144.218233871259
 20
141.452496798419
 30
0.0
 11
138.0268834201788
 21
141.452496798419
 31
0.0
  0
ARC
  5
26E
330
1A
100
AcDbEntity
  8
SEIHIN
  6
CONTINUOUS
 62
     3
 48
8.0
100
AcDbCircle
 10
142.5238749960162
 20
139.2525043134756
 30
0.0
 40
0.9999924849789756
100
AcDbArc
 50
6.528264606674428
 51
89.99951732740891
  0
LINE
  5
26F
330
1A
100
AcDbEntity
  8
SEIHIN
  6
CONTINUOUS
 62
     3
 48
8.0
100
AcDbLine
 10
142.4508834201787
 20
146.7524967984191
 30
0.0
 11
140.2017834201787
 21
146.7524967984191
 31
0.0
  0
ARC
  5
270
330
1A
100
AcDbEntity
  8
SEIHIN
  6
CONTINUOUS
 62
     3
 48
8.0
100
AcDbCircle
 10
142.4508765331839
 20
147.2524902633336
 30
0.0
 40
0.499993464961963
100
AcDbArc
 50
270.0007892017873
 51
356.9970361317427
  0
LINE
  5
271
330
1A
100
AcDbEntity
  8
SEIHIN
  6
CONTINUOUS
 62
     3
 48
8.0
100
AcDbLine
 10
138.9615834201788
 20
155.0524967984191
 30
0.0
 11
138.4615834201788
 21
152.5524967984191
 31
0.0
  0
LINE
  5
272
330
1A
100
AcDbEntity
  8
SEIHIN
  6
CONTINUOUS
 62
     3
 48
8.0
100
AcDbLine
 10
138.4615834201788
 20
152.5524967984191
 30
0.0
 11
141.3980834201788
 21
152.5524967984191
 31
0.0
  0
LINE
  5
273
330
1A
100
AcDbEntity
  8
SEIHIN
  6
CONTINUOUS
 62
     3
 48
8.0
100
AcDbLine
 10
140.4022834201788
 20
151.452496798419
 30
0.0
 11
139.9403834201787
 21
151.452496798419
 31
0.0
  0
ARC
  5
274
330
1A
100
AcDbEntity
  8
SEIHIN
  6
CONTINUOUS
 62
     3
 48
8.0
100
AcDbCircle
 10
139.5455976385942
 20
149.730182164118
 30
0.0
 40
0.5000073448410256
100
AcDbArc
 50
351.8729478641243
 51
96.47829282996843
  0
LINE
  5
275
330
1A
100
AcDbEntity
  8
SEIHIN
  6
CONTINUOUS
 62
     3
 48
8.0
100
AcDbLine
 10
139.7068834201788
 20
147.3232967984191
 30
0.0
 11
140.0405834201788
 21
149.6594967984191
 31
0.0
  0
LINE
  5
276
330
1A
100
AcDbEntity
  8
SEIHIN
  6
CONTINUOUS
 62
     3
 48
8.0
100
AcDbLine
 10
140.4022834201788
 20
151.452496798419
 30
0.0
 11
141.3980834201788
 21
152.5524967984191
 31
0.0
  0
LINE
  5
277
330
1A
100
AcDbEntity
  8
SEIHIN
  6
CONTINUOUS
 62
     3
 48
8.0
100
AcDbLine
 10
141.4129834201787
 20
150.780896798419
 30
0.0
 11
141.9679834201787
 21
151.3939967984191
 31
0.0
  0
LINE
  5
278
330
1A
100
AcDbEntity
  8
SEIHIN
  6
CONTINUOUS
 62
     3
 48
8.0
100
AcDbLine
 10
141.7867834201788
 20
147.9524967984191
 30
0.0
 11
141.9679834201787
 21
151.3939967984191
 31
0.0
  0
LINE
  5
279
330
1A
100
AcDbEntity
  8
SEIHIN
  6
CONTINUOUS
 62
     3
 48
8.0
100
AcDbLine
 10
141.7867834201788
 20
147.9524967984191
 30
0.0
 11
141.0088834201788
 21
147.9524967984191
 31
0.0
  0
LINE
  5
27A
330
1A
100
AcDbEntity
  8
SEIHIN
  6
CONTINUOUS
 62
     3
 48
8.0
100
AcDbLine
 10
141.0088834201788
 20
147.9524967984191
 30
0.0
 11
141.4129834201787
 21
150.780896798419
 31
0.0
  0
ARC
  5
27B
330
1A
100
AcDbEntity
  8
SEIHIN
  6
CONTINUOUS
 62
     3
 48
8.0
100
AcDbCircle
 10
140.535176165623
 20
154.2525056482624
 30
0.0
 40
0.5000088498959383
100
AcDbArc
 50
168.6864043304884
 51
270.0008312961434
  0
ARC
  5
27C
330
1A
100
AcDbEntity
  8
SEIHIN
  6
CONTINUOUS
 62
     3
 48
8.0
100
AcDbCircle
 10
139.8153826371706
 20
155.7524977534209
 30
0.0
 40
0.4999990449987349
100
AcDbArc
 50
348.6967198015448
 51
89.99991027369452
  0
LINE
  5
27D
330
1A
100
AcDbEntity
  8
SEIHIN
  6
CONTINUOUS
 62
     3
 48
8.0
100
AcDbLine
 10
136.4887834201787
 20
155.0524967984191
 30
0.0
 11
138.9615834201788
 21
155.0524967984191
 31
0.0
  0
LINE
  5
27E
330
1A
100
AcDbEntity
  8
SEIHIN
  6
CONTINUOUS
 62
     3
 48
8.0
100
AcDbLine
 10
140.0448834201788
 20
154.350596798419
 30
0.0
 11
140.3056834201787
 21
155.654496798419
 31
0.0
  0
LINE
  5
27F
330
1A
100
AcDbEntity
  8
SEIHIN
  6
CONTINUOUS
 62
     3
 48
8.0
100
AcDbLine
 10
136.4887834201787
 20
156.252496798419
 30
0.0
 11
139.8153834201788
 21
156.252496798419
 31
0.0
  0
ARC
  5
280
330
1A
100
AcDbEntity
  8
SEIHIN
  6
CONTINUOUS
 62
     3
 48
8.0
100
AcDbCircle
 10
142.766677219021
 20
153.2525033335044
 30
0.0
 40
0.4999934649531607
100
AcDbArc
 50
356.9955363203384
 51
89.99928939038005
  0
LINE
  5
281
330
1A
100
AcDbEntity
  8
SEIHIN
  6
CONTINUOUS
 62
     3
 48
8.0
100
AcDbLine
 10
142.7666834201787
 20
153.7524967984191
 30
0.0
 11
140.5351834201788
 21
153.7524967984191
 31
0.0
  0
LINE
  5
298
330
1A
100
AcDbEntity
  8
SEIHIN
  6
CONTINUOUS
 62
     3
 48
8.0
100
AcDbLine
 10
245.3352834201788
 20
139.351996798419
 30
0.0
 11
242.4664834201787
 21
110.6645967984191
 31
0.0
  0
LINE
  5
29F
330
1A
100
AcDbEntity
  8
SEIHIN
  6
CONTINUOUS
 62
     3
 48
8.0
100
AcDbLine
 10
227.0682834201788
 20
101.252396798419
 30
0.0
 11
206.9103834201788
 21
101.252396798419
 31
0.0
  0
LINE
  5
2A6
330
1A
100
AcDbEntity
  8
SEIHIN
  6
CONTINUOUS
 62
     3
 48
8.0
100
AcDbLine
 10
242.1046834201788
 20
109.9900967984191
 30
0.0
 11
231.7015834201788
 21
101.4783967984191
 31
0.0
  0
ARC
  5
2A8
330
1A
100
AcDbEntity
  8
SEIHIN
  6
CONTINUOUS
 62
     3
 48
8.0
100
AcDbCircle
 10
231.0682764876015
 20
102.2523943234129
 30
0.0
 40
0.9999975250179316
100
AcDbArc
 50
270.0003972084043
 51
309.2946416752298
  0
ARC
  5
2AA
330
1A
100
AcDbEntity
  8
SEIHIN
  6
CONTINUOUS
 62
     3
 48
8.0
100
AcDbCircle
 10
241.4714608473097
 20
110.7640547267464
 30
0.0
 40
0.9999908507640039
100
AcDbArc
 50
309.2887092230696
 51
354.2862329477531
  0
ARC
  5
2C7
330
1A
100
AcDbEntity
  8
SEIHIN
  6
CONTINUOUS
 62
     3
 48
8.0
100
AcDbCircle
 10
246.3303040700199
 20
139.2525154862683
 30
0.0
 40
0.9999813123640345
100
AcDbArc
 50
90.00118317084957
 51
174.290590033351
  0
ARC
  5
2C8
330
1A
100
AcDbEntity
  8
SEIHIN
  6
CONTINUOUS
 62
     3
 48
8.0
100
AcDbCircle
 10
246.0838871296739
 20
153.2525007084497
 30
0.0
 40
0.4999960899831856
100
AcDbArc
 50
90.00042508015132
 51
183.0156217414654
  0
LINE
  5
2C9
330
1A
100
AcDbEntity
  8
SEIHIN
  6
CONTINUOUS
 62
     3
 48
8.0
100
AcDbLine
 10
244.6410971629482
 20
141.452496798419
 30
0.0
 11
250.8236834201789
 21
141.452496798419
 31
0.0
  0
LINE
  5
2CA
330
1A
100
AcDbEntity
  8
SEIHIN
  6
CONTINUOUS
 62
     3
 48
8.0
100
AcDbLine
 10
245.9003834201787
 20
147.2261967984191
 30
0.0
 11
245.5845834201789
 21
153.2261967984191
 31
0.0
  0
ARC
  5
2D3
330
1A
100
AcDbEntity
  8
SEIHIN
  6
CONTINUOUS
 62
     3
 48
8.0
100
AcDbCircle
 10
248.648793606615
 20
147.2525085431432
 30
0.0
 40
0.5000117448278309
100
AcDbArc
 50
269.9988327478018
 51
8.127314608715803
  0
ARC
  5
2D4
330
1A
100
AcDbEntity
  8
SEIHIN
  6
CONTINUOUS
 62
     3
 48
8.0
100
AcDbCircle
 10
248.9102524932426
 20
146.2525325430829
 30
0.0
 40
3.99998565374706
100
AcDbArc
 50
358.2086966591014
 51
83.52422380468325
  0
LINE
  5
2D5
330
1A
100
AcDbEntity
  8
SEIHIN
  6
CONTINUOUS
 62
     3
 48
8.0
100
AcDbLine
 10
254.3607834201789
 20
154.1899967984191
 30
0.0
 11
253.9706834201788
 21
141.705596798419
 31
0.0
  0
ARC
  5
2D6
330
1A
100
AcDbEntity
  8
SEIHIN
  6
CONTINUOUS
 62
     3
 48
8.0
100
AcDbCircle
 10
252.4714006333569
 20
141.7525134815669
 30
0.0
 40
1.500016683246579
100
AcDbArc
 50
269.9993425123348
 51
358.207642324411
  0
ARC
  5
2D7
330
1A
100
AcDbEntity
  8
SEIHIN
  6
CONTINUOUS
 62
     3
 48
8.0
100
AcDbCircle
 10
250.8237214080031
 20
143.4524336189912
 30
0.0
 40
2.000036820932882
100
AcDbArc
 50
269.9989117490339
 51
358.2110591274196
  0
LINE
  5
2D8
330
1A
100
AcDbEntity
  8
SEIHIN
  6
CONTINUOUS
 62
     3
 48
8.0
100
AcDbLine
 10
252.4713834201786
 20
140.2524967984191
 30
0.0
 11
246.3302834201788
 21
140.2524967984191
 31
0.0
  0
ARC
  5
2D9
330
1A
100
AcDbEntity
  8
SEIHIN
  6
CONTINUOUS
 62
     3
 48
8.0
100
AcDbCircle
 10
246.3996875415857
 20
147.2524928883886
 30
0.0
 40
0.4999960899864752
100
AcDbArc
 50
183.0147243791737
 51
269.9995277178594
  0
LINE
  5
2DA
330
1A
100
AcDbEntity
  8
SEIHIN
  6
CONTINUOUS
 62
     3
 48
8.0
100
AcDbLine
 10
246.3996834201787
 20
146.7524967984191
 30
0.0
 11
248.6487834201787
 21
146.7524967984191
 31
0.0
  0
LINE
  5
2DB
330
1A
100
AcDbEntity
  8
SEIHIN
  6
CONTINUOUS
 62
     3
 48
8.0
100
AcDbLine
 10
252.8227834201789
 20
143.3898967984191
 30
0.0
 11
252.9082834201787
 21
146.127496798419
 31
0.0
  0
ARC
  5
2DC
330
1A
100
AcDbEntity
  8
SEIHIN
  6
CONTINUOUS
 62
     3
 48
8.0
100
AcDbCircle
 10
252.3617721831843
 20
154.2525083922362
 30
0.0
 40
1.999988406214315
100
AcDbArc
 50
358.2088726535929
 51
89.99967808195611
  0
LINE
  5
2DD
330
1A
100
AcDbEntity
  8
SEIHIN
  6
CONTINUOUS
 62
     3
 48
8.0
100
AcDbLine
 10
249.8890834201787
 20
155.0524967984191
 30
0.0
 11
250.3890834201787
 21
152.5524967984191
 31
0.0
  0
LINE
  5
2DE
330
1A
100
AcDbEntity
  8
SEIHIN
  6
CONTINUOUS
 62
     3
 48
8.0
100
AcDbLine
 10
253.1613834201787
 20
154.227496798419
 30
0.0
 11
253.0120834201789
 21
149.4484967984191
 31
0.0
  0
ARC
  5
2DF
330
1A
100
AcDbEntity
  8
SEIHIN
  6
CONTINUOUS
 62
     3
 48
8.0
100
AcDbCircle
 10
248.9102655538278
 20
146.252505526799
 30
0.0
 40
5.199991271650611
100
AcDbArc
 50
37.92532860473096
 51
89.99980314072548
  0
LINE
  5
2E0
330
1A
100
AcDbEntity
  8
SEIHIN
  6
CONTINUOUS
 62
     3
 48
8.0
100
AcDbLine
 10
250.3890834201787
 20
152.5524967984191
 30
0.0
 11
247.4524834201788
 21
152.5524967984191
 31
0.0
  0
ARC
  5
2E1
330
1A
100
AcDbEntity
  8
SEIHIN
  6
CONTINUOUS
 62
     3
 48
8.0
100
AcDbCircle
 10
249.3050127926788
 20
149.7301270309139
 30
0.0
 40
0.4999578477751074
100
AcDbArc
 50
83.52609071220776
 51
188.1330561712924
  0
LINE
  5
2E2
330
1A
100
AcDbEntity
  8
SEIHIN
  6
CONTINUOUS
 62
     3
 48
8.0
100
AcDbLine
 10
248.4482834201788
 20
151.452496798419
 30
0.0
 11
247.4524834201788
 21
152.5524967984191
 31
0.0
  0
LINE
  5
2E3
330
1A
100
AcDbEntity
  8
SEIHIN
  6
CONTINUOUS
 62
     3
 48
8.0
100
AcDbLine
 10
247.4376834201787
 20
150.780896798419
 30
0.0
 11
246.8826834201787
 21
151.393896798419
 31
0.0
  0
LINE
  5
2E4
330
1A
100
AcDbEntity
  8
SEIHIN
  6
CONTINUOUS
 62
     3
 48
8.0
100
AcDbLine
 10
247.0637834201788
 20
147.9524967984191
 30
0.0
 11
246.8826834201787
 21
151.393896798419
 31
0.0
  0
LINE
  5
2E5
330
1A
100
AcDbEntity
  8
SEIHIN
  6
CONTINUOUS
 62
     3
 48
8.0
100
AcDbLine
 10
248.4482834201788
 20
151.452496798419
 30
0.0
 11
248.9102834201788
 21
151.452496798419
 31
0.0
  0
LINE
  5
2E6
330
1A
100
AcDbEntity
  8
SEIHIN
  6
CONTINUOUS
 62
     3
 48
8.0
100
AcDbLine
 10
247.8416834201786
 20
147.9524967984191
 30
0.0
 11
247.4376834201787
 21
150.780896798419
 31
0.0
  0
LINE
  5
2E7
330
1A
100
AcDbEntity
  8
SEIHIN
  6
CONTINUOUS
 62
     3
 48
8.0
100
AcDbLine
 10
247.0637834201788
 20
147.9524967984191
 30
0.0
 11
247.8416834201786
 21
147.9524967984191
 31
0.0
  0
LINE
  5
2E8
330
1A
100
AcDbEntity
  8
SEIHIN
  6
CONTINUOUS
 62
     3
 48
8.0
100
AcDbLine
 10
249.1437834201787
 20
147.323196798419
 30
0.0
 11
248.8099834201786
 21
149.6593967984191
 31
0.0
  0
LINE
  5
2E9
330
1A
100
AcDbEntity
  8
SEIHIN
  6
CONTINUOUS
 62
     3
 48
8.0
100
AcDbLine
 10
252.3617834201788
 20
156.252396798419
 30
0.0
 11
249.0351834201788
 21
156.252496798419
 31
0.0
  0
ARC
  5
2EA
330
1A
100
AcDbEntity
  8
SEIHIN
  6
CONTINUOUS
 62
     3
 48
8.0
100
AcDbCircle
 10
248.3153826371706
 20
154.2524958434172
 30
0.0
 40
0.4999990449987399
100
AcDbArc
 50
270.0000897263054
 51
11.30328019845509
  0
ARC
  5
2EB
330
1A
100
AcDbEntity
  8
SEIHIN
  6
CONTINUOUS
 62
     3
 48
8.0
100
AcDbCircle
 10
249.035176165623
 20
155.7524879485757
 30
0.0
 40
0.500008849895925
100
AcDbArc
 50
89.99916870385492
 51
191.3135956695117
  0
LINE
  5
2EC
330
1A
100
AcDbEntity
  8
SEIHIN
  6
CONTINUOUS
 62
     3
 48
8.0
100
AcDbLine
 10
246.0838834201788
 20
153.7524967984191
 30
0.0
 11
248.3153834201788
 21
153.7524967984191
 31
0.0
  0
LINE
  5
2ED
330
1A
100
AcDbEntity
  8
SEIHIN
  6
CONTINUOUS
 62
     3
 48
8.0
100
AcDbLine
 10
248.8056834201787
 20
154.3504967984191
 30
0.0
 11
248.5448834201788
 21
155.654496798419
 31
0.0
  0
ARC
  5
2EE
330
1A
100
AcDbEntity
  8
SEIHIN
  6
CONTINUOUS
 62
     3
 48
8.0
100
AcDbCircle
 10
252.3618273865319
 20
154.252451435946
 30
0.0
 40
0.7999453636812564
100
AcDbArc
 50
358.212343644788
 51
90.00314907315372
  0
LINE
  5
2EF
330
1A
100
AcDbEntity
  8
SEIHIN
  6
CONTINUOUS
 62
     3
 48
8.0
100
AcDbLine
 10
252.3617834201788
 20
155.052396798419
 30
0.0
 11
249.8890834201787
 21
155.0524967984191
 31
0.0
  0
DIMENSION
  5
319
330
1A
100
AcDbEntity
  8
SUNPOU
100
AcDbDimension
  2
*D1
 10
274.7121592333676
 20
140.2524967984191
 30
0.0
 11
272.2121592333676
 21
148.2524157841422
 31
0.0
 12
1.212942286106908
 22
-15.75520565706631
 32
0.0
 70
    32
  3
STANDARD
100
AcDbAlignedDimension
 13
254.4252252870416
 23
156.2523347698652
 33
0.0
 14
253.925278409926
 24
140.2524967984191
 34
0.0
 50
90.0
100
AcDbRotatedDimension
1001
ACAD
1000
DSTYLE
1002
{
1070
   140
1040
3.0
1070
    74
1070
     0
1070
   172
1070
     1
1070
    73
1070
     0
1070
   272
1070
     2
1070
    77
1070
     3
1070
   173
1070
     1
1070
   147
1040
1.0
1070
    42
1040
3.0
1070
    44
1040
1.5
1070
    43
1040
7.0
1070
   271
1070
     0
1070
   178
1070
     4
1070
   177
1070
     4
1070
   176
1070
     4
1070
   141
1040
150.0
1070
     7
1000
_OPEN
1070
     6
1000
_OPEN
1070
    41
1040
3.0
1002
}
  0
DIMENSION
  5
328
330
1A
100
AcDbEntity
  8
SUNPOU
100
AcDbDimension
  2
*D2
 10
265.9841781085149
 20
101.25239600189
 30
0.0
 11
263.4841781085149
 21
105.7523932760621
 31
0.0
 12
1.212942286106908
 22
-15.75520565706631
 32
0.0
 70
    32
  3
STANDARD
100
AcDbAlignedDimension
 13
242.4252619332265
 23
110.2523905502342
 33
0.0
 14
231.4253625845794
 24
101.25239600189
 34
0.0
 50
90.0
100
AcDbRotatedDimension
1001
ACAD
1000
DSTYLE
1002
{
1070
   140
1040
3.0
1070
    74
1070
     0
1070
   172
1070
     1
1070
    73
1070
     0
1070
   272
1070
     2
1070
    77
1070
     3
1070
   173
1070
     1
1070
   147
1040
1.0
1070
    42
1040
3.0
1070
    44
1040
1.5
1070
    43
1040
7.0
1070
   271
1070
     0
1070
   178
1070
     4
1070
   177
1070
     4
1070
   176
1070
     4
1070
   141
1040
150.0
1070
     7
1000
_OPEN
1070
     6
1000
_OPEN
1070
    41
1040
3.0
1002
}
  0
DIMENSION
  5
335
330
1A
100
AcDbEntity
  8
SUNPOU
100
AcDbDimension
  2
*D3
 10
284.1407136808484
 20
101.25239600189
 30
0.0
 11
281.6407136808484
 21
128.7523653858776
 31
0.0
 12
1.212942286106908
 22
-15.75520565706631
 32
0.0
 70
    32
  3
STANDARD
100
AcDbAlignedDimension
 13
254.4252252870416
 23
156.2523347698652
 33
0.0
 14
231.4253625845794
 24
101.25239600189
 34
0.0
 50
90.0
100
AcDbRotatedDimension
1001
ACAD
1000
DSTYLE
1002
{
1070
   140
1040
3.0
1070
    74
1070
     0
1070
   172
1070
     1
1070
    73
1070
     0
1070
   272
1070
     2
1070
    77
1070
     3
1070
   173
1070
     1
1070
   147
1040
1.0
1070
    42
1040
3.0
1070
    44
1040
1.5
1070
    43
1040
7.0
1070
   271
1070
     0
1070
   178
1070
     4
1070
   177
1070
     4
1070
   176
1070
     4
1070
   141
1040
150.0
1070
     7
1000
_OPEN
1070
     6
1000
_OPEN
1070
    41
1040
3.0
1002
}
  0
DIMENSION
  5
33E
330
1A
100
AcDbEntity
  8
SUNPOU
100
AcDbDimension
  2
*D4
 10
186.2388671937214
 20
144.2525112747892
 30
0.0
 11
167.5974742971345
 21
133.2525666331628
 31
0.0
 12
-13.15483166124272
 22
11.23189292986069
 32
0.0
 70
    36
  3
STANDARD
100
AcDbRadialDimension
 15
151.9774494216802
 25
118.2687375453111
 35
0.0
 40
0.0
1001
ACAD
1000
DSTYLE
1002
{
1070
   140
1040
3.0
1070
    74
1070
     0
1070
   172
1070
     1
1070
    73
1070
     0
1070
   272
1070
     2
1070
    77
1070
     3
1070
   173
1070
     1
1070
   147
1040
1.0
1070
    42
1040
3.0
1070
    44
1040
1.5
1070
    43
1040
7.0
1070
   271
1070
     0
1070
   178
1070
     4
1070
   177
1070
     4
1070
   176
1070
     4
1070
   141
1040
150.0
1070
     7
1000
_OPEN
1070
     6
1000
_OPEN
1070
    41
1040
3.0
1002
}
  0
DIMENSION
  5
34B
330
1A
100
AcDbEntity
  8
SUNPOU
100
AcDbDimension
  2
*D5
 10
119.7058608336885
 20
140.2524967984191
 30
0.0
 11
117.2058608336885
 21
148.2524967984191
 31
0.0
 12
1.212942286106908
 22
-15.75520565706631
 32
0.0
 70
    32
  3
STANDARD
100
AcDbAlignedDimension
 13
134.4253194534366
 23
156.252496798419
 33
0.0
 14
134.9254035590732
 24
140.2524967984191
 34
0.0
 50
90.0
100
AcDbRotatedDimension
1001
ACAD
1000
DSTYLE
1002
{
1070
   140
1040
3.0
1070
    74
1070
     0
1070
   172
1070
     1
1070
    73
1070
     0
1070
   272
1070
     2
1070
    77
1070
     3
1070
   173
1070
     1
1070
   147
1040
1.0
1070
    42
1040
3.0
1070
    44
1040
1.5
1070
    43
1040
7.0
1070
   271
1070
     0
1070
   178
1070
     4
1070
   177
1070
     4
1070
   176
1070
     4
1070
   141
1040
150.0
1070
     7
1000
_OPEN
1070
     6
1000
_OPEN
1070
    41
1040
3.0
1002
}
  0
DIMENSION
  5
358
330
1A
100
AcDbEntity
  8
SUNPOU
100
AcDbDimension
  2
*D6
 10
111.4558893641574
 20
101.2524967984191
 30
0.0
 11
108.9558893641574
 21
128.752496798419
 31
0.0
 12
1.212942286106908
 22
-15.75520565706631
 32
0.0
 70
    32
  3
STANDARD
100
AcDbAlignedDimension
 13
134.4253194534366
 23
156.252496798419
 33
0.0
 14
186.2387834201788
 24
101.2524967984191
 34
0.0
 50
90.0
100
AcDbRotatedDimension
1001
ACAD
1000
DSTYLE
1002
{
1070
   140
1040
3.0
1070
    74
1070
     0
1070
   172
1070
     1
1070
    73
1070
     0
1070
   272
1070
     2
1070
    77
1070
     3
1070
   173
1070
     1
1070
   147
1040
1.0
1070
    42
1040
3.0
1070
    44
1040
1.5
1070
    43
1040
7.0
1070
   271
1070
     0
1070
   178
1070
     4
1070
   177
1070
     4
1070
   176
1070
     4
1070
   141
1040
150.0
1070
     7
1000
_OPEN
1070
     6
1000
_OPEN
1070
    41
1040
3.0
1002
}
  0
DIMENSION
  5
367
330
1A
100
AcDbEntity
  8
SUNPOU
100
AcDbDimension
  2
*D7
 10
245.5568824968455
 20
172.4908530864435
 30
0.0
 11
249.9910538919436
 21
174.9908530864435
 31
0.0
 12
1.212942286106908
 22
-15.75520565706631
 32
0.0
 70
    32
  3
STANDARD
100
AcDbAlignedDimension
 13
254.4252252870416
 23
156.2523347698652
 33
0.0
 14
245.5568824968455
 24
153.7524967984191
 34
0.0
100
AcDbRotatedDimension
1001
ACAD
1000
DSTYLE
1002
{
1070
   140
1040
3.0
1070
    74
1070
     0
1070
   172
1070
     1
1070
    73
1070
     0
1070
   272
1070
     2
1070
    77
1070
     3
1070
   173
1070
     1
1070
   147
1040
1.0
1070
    42
1040
3.0
1070
    44
1040
1.5
1070
    43
1040
7.0
1070
   271
1070
     0
1070
   178
1070
     4
1070
   177
1070
     4
1070
   176
1070
     4
1070
   141
1040
150.0
1070
     7
1000
_OPEN
1070
     6
1000
_OPEN
1070
    41
1040
3.0
1002
}
  0
DIMENSION
  5
376
330
1A
100
AcDbEntity
  8
SUNPOU
100
AcDbDimension
  2
*D8
 10
143.2937848052018
 20
172.4908530864435
 30
0.0
 11
138.8595521293192
 21
174.9908530864435
 31
0.0
 12
1.212942286106908
 22
-15.75520565706631
 32
0.0
 70
    32
  3
STANDARD
100
AcDbAlignedDimension
 13
134.4253194534366
 23
156.252496798419
 33
0.0
 14
143.2937848052018
 24
153.7524967984191
 34
0.0
100
AcDbRotatedDimension
1001
ACAD
1000
DSTYLE
1002
{
1070
   140
1040
3.0
1070
    74
1070
     0
1070
   172
1070
     1
1070
    73
1070
     0
1070
   272
1070
     2
1070
    77
1070
     3
1070
   173
1070
     1
1070
   147
1040
1.0
1070
    42
1040
3.0
1070
    44
1040
1.5
1070
    43
1040
7.0
1070
   271
1070
     0
1070
   178
1070
     4
1070
   177
1070
     4
1070
   176
1070
     4
1070
   141
1040
150.0
1070
     7
1000
_OPEN
1070
     6
1000
_OPEN
1070
    41
1040
3.0
1002
}
  0
DIMENSION
  5
383
330
1A
100
AcDbEntity
  8
SUNPOU
100
AcDbDimension
  2
*D9
 10
254.4252252870416
 20
181.8131936084721
 30
0.0
 11
194.4252723702391
 21
184.3131936084721
 31
0.0
 12
1.212942286106908
 22
-15.75520565706631
 32
0.0
 70
    32
  3
STANDARD
100
AcDbAlignedDimension
 13
134.4253194534366
 23
156.252496798419
 33
0.0
 14
254.4252252870416
 24
156.2523347698652
 34
0.0
100
AcDbRotatedDimension
1001
ACAD
1000
DSTYLE
1002
{
1070
   140
1040
3.0
1070
    74
1070
     0
1070
   172
1070
     1
1070
    73
1070
     0
1070
   272
1070
     2
1070
    77
1070
     3
1070
   173
1070
     1
1070
   147
1040
1.0
1070
    42
1040
3.0
1070
    44
1040
1.5
1070
    43
1040
7.0
1070
   271
1070
     0
1070
   178
1070
     4
1070
   177
1070
     4
1070
   176
1070
     4
1070
   141
1040
150.0
1070
     7
1000
_OPEN
1070
     6
1000
_OPEN
1070
    41
1040
3.0
1002
}
  0
DIMENSION
  5
410
330
1A
100
AcDbEntity
  8
SUNPOU
100
AcDbDimension
  2
*D10
 10
231.0682834201788
 20
83.60619726984589
 30
0.0
 11
236.5864834201788
 21
86.10619726984589
 31
0.0
 12
1.212942286106908
 22
-15.75520565706631
 32
0.0
 70
    32
  3
STANDARD
100
AcDbAlignedDimension
 13
242.1046834201788
 23
109.9900967984191
 33
0.0
 14
231.0682834201788
 24
101.252396798419
 34
0.0
100
AcDbRotatedDimension
1001
ACAD
1000
DSTYLE
1002
{
1070
   140
1040
3.0
1070
    74
1070
     0
1070
   172
1070
     1
1070
    73
1070
     0
1070
   272
1070
     2
1070
    77
1070
     3
1070
   173
1070
     1
1070
   147
1040
1.0
1070
    42
1040
3.0
1070
    44
1040
1.5
1070
    43
1040
7.0
1070
   271
1070
     0
1070
   178
1070
     4
1070
   177
1070
     4
1070
   176
1070
     4
1070
   141
1040
150.0
1070
     7
1000
_OPEN
1070
     6
1000
_OPEN
1070
    41
1040
3.0
1002
}
  0
DIMENSION
  5
41D
330
1A
100
AcDbEntity
  8
SUNPOU
100
AcDbDimension
  2
*D11
 10
183.2387834201788
 20
83.60619726984589
 30
0.0
 11
207.1535334201788
 21
86.10619726984589
 31
0.0
 12
1.212942286106908
 22
-15.75520565706631
 32
0.0
 70
    32
  3
STANDARD
100
AcDbAlignedDimension
 13
231.0682834201788
 23
101.252396798419
 33
0.0
 14
183.2387834201788
 24
101.2524967984191
 34
0.0
100
AcDbRotatedDimension
1001
ACAD
1000
DSTYLE
1002
{
1070
   140
1040
3.0
1070
    74
1070
     0
1070
   172
1070
     1
1070
    73
1070
     0
1070
   272
1070
     2
1070
    77
1070
     3
1070
   173
1070
     1
1070
   147
1040
1.0
1070
    42
1040
3.0
1070
    44
1040
1.5
1070
    43
1040
7.0
1070
   271
1070
     0
1070
   178
1070
     4
1070
   177
1070
     4
1070
   176
1070
     4
1070
   141
1040
150.0
1070
     7
1000
_OPEN
1070
     6
1000
_OPEN
1070
    41
1040
3.0
1002
}
  0
ARC
  5
4B9
330
1A
100
AcDbEntity
  8
SEIHIN
  6
CONTINUOUS
 62
     3
 48
8.0
100
AcDbCircle
 10
186.2388671937214
 20
144.2525112747892
 30
0.0
 40
41.65001447645169
100
AcDbArc
 50
184.4904041369166
 51
269.999888375144
  0
LINE
  5
4BA
330
1A
100
AcDbEntity
  8
SEIHIN
  6
CONTINUOUS
 62
     3
 48
8.0
100
AcDbLine
 10
230.7649766529465
 20
102.6023974750024
 30
0.0
 11
186.2388864315953
 21
102.6024967984157
 31
0.0
  0
ARC
  5
4BB
330
1A
100
AcDbEntity
  8
SEIHIN
  6
CONTINUOUS
 62
     3
 48
8.0
100
AcDbCircle
 10
144.218233871259
 20
140.952496798419
 30
0.0
 40
0.5
100
AcDbArc
 50
4.490404136918214
 51
90.0
  0
LINE
  5
4BC
330
1A
100
AcDbEntity
  8
SEIHIN
  6
CONTINUOUS
 62
     3
 48
8.0
100
AcDbLine
 10
240.9773141436398
 20
110.8119841257786
 30
0.0
 11
231.0815982839305
 21
102.7154201512818
 31
0.0
  0
LINE
  5
4BD
330
1A
100
AcDbEntity
  8
SEIHIN
  6
CONTINUOUS
 62
     3
 48
8.0
100
AcDbLine
 10
244.1435786708705
 20
141.0022496881919
 30
0.0
 11
241.1582121200729
 21
111.149208559725
 31
0.0
  0
ARC
  5
4BE
330
1A
100
AcDbEntity
  8
SEIHIN
  6
CONTINUOUS
 62
     3
 48
8.0
100
AcDbCircle
 10
230.764977768286
 20
103.1023974750011
 30
0.0
 40
0.5
100
AcDbArc
 50
269.9998721915092
 51
309.2896467953287
  0
ARC
  5
4BF
330
1A
100
AcDbEntity
  8
SEIHIN
  6
CONTINUOUS
 62
     3
 48
8.0
100
AcDbCircle
 10
240.6606936279953
 20
111.1989614494979
 30
0.0
 40
0.5
100
AcDbArc
 50
309.2896467953288
 51
354.2892882142793
  0
ARC
  5
4C0
330
1A
100
AcDbEntity
  8
SEIHIN
  6
CONTINUOUS
 62
     3
 48
8.0
100
AcDbCircle
 10
244.6410971629482
 20
140.952496798419
 30
0.0
 40
0.5
100
AcDbArc
 50
90.0
 51
174.2892882142792
  0
DIMENSION
  5
4C8
330
1A
100
AcDbEntity
  8
SUNPOU
100
AcDbDimension
  2
*D12
 10
244.4446150838345
 20
130.4454997153032
 30
0.0
 11
257.131341834641
 21
131.6892699313679
 31
0.0
 70
    33
  1
t<>
  3
STANDARD
100
AcDbAlignedDimension
 13
242.6508953954717
 23
126.0757291239585
 33
0.0
 14
243.9941953240815
 24
125.9413963215715
 34
0.0
1001
ACAD
1000
DSTYLE
1002
{
1070
    41
1040
3.0
1070
    42
1040
3.0
1070
    43
1040
7.0
1070
    44
1040
1.5
1070
    73
1070
     0
1070
    74
1070
     0
1070
    77
1070
     3
1070
   140
1040
3.0
1070
   141
1040
150.0
1070
   147
1040
1.0
1070
   172
1070
     1
1070
   173
1070
     1
1070
   176
1070
     4
1070
   177
1070
     4
1070
   178
1070
     4
1070
   271
1070
     2
1070
   272
1070
     2
1070
   341
1005
B2
1070
     6
1000
OPEN
1070
     7
1000
OPEN
1002
}
  0
LINE
  5
66C
330
1A
100
AcDbEntity
  8
ZUWAKU
100
AcDbLine
 10
104.3233009526605
 20
7.599999652471407
 30
0.0
 11
223.7121822931222
 21
7.599999652471403
 31
0.0
  0
LINE
  5
66D
330
1A
100
AcDbEntity
  8
ZUWAKU
100
AcDbLine
 10
104.3233009526605
 20
7.799999652471404
 30
0.0
 11
223.7121822931222
 21
7.799999652471408
 31
0.0
  0
LINE
  5
66E
330
1A
100
AcDbEntity
  8
ZUWAKU
100
AcDbLine
 10
104.3233009526605
 20
7.699999652471404
 30
0.0
 11
223.7121822931222
 21
7.699999652471404
 31
0.0
  0
LINE
  5
66F
330
1A
100
AcDbEntity
  8
ZUWAKU
100
AcDbLine
 10
0.0000003076265784
 20
15.39999965247139
 30
0.0
 11
398.7000003076265
 21
15.39999965247139
 31
0.0
  0
LINE
  5
670
330
1A
100
AcDbEntity
  8
ZUWAKU
100
AcDbLine
 10
0.0000003076265784
 20
15.29999965247139
 30
0.0
 11
398.7000003076265
 21
15.29999965247139
 31
0.0
  0
LINE
  5
671
330
1A
100
AcDbEntity
  8
ZUWAKU
100
AcDbLine
 10
0.0000003076265784
 20
15.19999965247139
 30
0.0
 11
398.7000003076265
 21
15.19999965247139
 31
0.0
  0
LINE
  5
672
330
1A
100
AcDbEntity
  8
ZUWAKU
100
AcDbLine
 10
0.0000003076265784
 20
15.09999965247138
 30
0.0
 11
398.7000003076265
 21
15.09999965247138
 31
0.0
  0
LINE
  5
673
330
1A
100
AcDbEntity
  8
ZUWAKU
100
AcDbLine
 10
0.0000003076265784
 20
14.99999965247138
 30
0.0
 11
398.7000003076265
 21
14.99999965247138
 31
0.0
  0
LWPOLYLINE
  5
674
330
1A
100
AcDbEntity
  8
ZUWAKU
100
AcDbPolyline
 90
        4
 70
     1
 43
0.0
 10
0.1000003076265443
 20
275.6999996524714
 10
0.1000003076265443
 20
0.0999996524714106
 10
398.7000003076265
 20
0.0999996524714222
 10
398.7000003076266
 20
275.6999996524714
  0
LWPOLYLINE
  5
675
330
1A
100
AcDbEntity
  8
ZUWAKU
100
AcDbPolyline
 90
        4
 70
     1
 43
0.0
 10
0.300000307626533
 20
275.4999996524714
 10
0.300000307626533
 20
0.2999996524713992
 10
398.5000003076267
 20
0.2999996524714223
 10
398.5000003076265
 20
275.4999996524714
  0
LWPOLYLINE
  5
676
330
1A
100
AcDbEntity
  8
ZUWAKU
100
AcDbPolyline
 90
        4
 70
     1
 43
0.0
 10
0.0000003076265784
 20
275.7999996524714
 10
0.0000003076265784
 20
-0.0000003475286121
 10
398.8000003076266
 20
-0.0000003475285784
 10
398.8000003076266
 20
275.7999996524714
  0
LWPOLYLINE
  5
677
330
1A
100
AcDbEntity
  8
ZUWAKU
100
AcDbPolyline
 90
        4
 70
     1
 43
0.0
 10
0.2000003076265671
 20
275.5999996524713
 10
0.2000003076265671
 20
0.1999996524714334
 10
398.6000003076266
 20
0.1999996524714218
 10
398.6000003076266
 20
275.5999996524713
  0
LWPOLYLINE
  5
678
330
1A
100
AcDbEntity
  8
ZUWAKU
100
AcDbPolyline
 90
        4
 70
     1
 43
0.0
 10
0.4000003076265557
 20
275.3999996524714
 10
0.4000003076265557
 20
0.399999652471422
 10
398.4000003076265
 20
0.399999652471422
 10
398.4000003076265
 20
275.3999996524714
  0
TEXT
  5
679
330
1A
100
AcDbEntity
  8
MOJI
100
AcDbText
 10
46.47889510171114
 20
6.370588717608768
 30
0.0
 40
3.0
  1
新・丸トップＲＶ１０５
 41
0.9
  7
ｽﾀｲﾙ1
100
AcDbText
  0
HATCH
  5
67A
330
1A
100
AcDbEntity
  8
ZUWAKU
100
AcDbHatch
 10
0.0
 20
0.0
 30
0.0
210
0.0
220
0.0
230
1.0
  2
ANSI37
 70
     0
 71
     0
 91
        8
 92
        7
 72
     1
 73
     1
 93
       24
 10
7.251131638186507
 20
8.822423892963179
 42
-0.1989123673796348
 10
7.046106385017139
 20
9.317398639793704
 42
0.0
 10
7.046106385017139
 20
9.962499652471393
 42
-0.4142135623730912
 10
7.308606385017128
 20
10.22499965247138
 42
0.0
 10
8.796106385017083
 20
10.22499965247138
 42
0.4142135623731546
 10
9.058606385017128
 20
10.48749965247138
 42
0.0
 10
9.058606385017128
 20
11.36249965247139
 42
0.4142135623731586
 10
8.796106385017083
 20
11.62499965247139
 42
0.0
 10
7.046106385017139
 20
11.62499965247139
 42
0.4142135623730928
 10
5.646106385017162
 20
10.2249996524714
 42
0.0
 10
5.646106385017162
 20
9.317398639793768
 42
0.1989123673796619
 10
6.261182144525378
 20
7.832474399301965
 42
0.0
 10
7.716081131847715
 20
6.377575411979636
 42
-0.1989123673796613
 10
7.921106385017139
 20
5.882600665149043
 42
0.0
 10
7.921106385017139
 20
5.237499652471385
 42
-0.4142135623730911
 10
7.658606385017151
 20
4.974999652471389
 42
0.0
 10
6.171106385017196
 20
4.974999652471389
 42
0.4142135623731526
 10
5.908606385017151
 20
4.712499652471395
 42
0.0
 10
5.908606385017151
 20
3.837499652471384
 42
0.4142135623731526
 10
6.171106385017196
 20
3.57499965247139
 42
0.0
 10
7.921106385017139
 20
3.57499965247139
 42
0.4142135623731044
 10
9.321106385017174
 20
4.974999652471378
 42
0.0
 10
9.321106385017174
 20
5.882600665149015
 42
0.1989123673796604
 10
8.706030625508901
 20
7.367524905640784
 42
0.0
 97
        0
 92
        7
 72
     1
 73
     1
 93
       16
 10
11.77110638501716
 20
9.524999652471393
 42
-0.4142135623730935
 10
12.47110638501715
 20
10.22499965247138
 42
0.0
 10
13.43360638501712
 20
10.22499965247138
 42
0.4142135623731546
 10
13.69610638501717
 20
10.48749965247138
 42
0.0
 10
13.69610638501717
 20
11.36249965247139
 42
0.4142135623730951
 10
13.43360638501718
 20
11.62499965247139
 42
0.0
 10
12.47110638501709
 20
11.62499965247137
 42
0.4142135623730892
 10
10.37110638501712
 20
9.524999652471358
 42
0.0
 10
10.37110638501712
 20
5.674999652471402
 42
0.4142135623730969
 10
12.47110638501715
 20
3.57499965247139
 42
0.0
 10
13.43360638501712
 20
3.57499965247139
 42
0.4142135623731526
 10
13.69610638501717
 20
3.837499652471384
 42
0.0
 10
13.69610638501717
 20
4.712499652471395
 42
0.4142135623730891
 10
13.43360638501718
 20
4.974999652471389
 42
0.0
 10
12.47110638501715
 20
4.974999652471389
 42
-0.4142135623730928
 10
11.77110638501716
 20
5.674999652471383
 42
0.0
 97
        0
 92
        7
 72
     1
 73
     1
 93
        2
 10
12.12110638501712
 20
7.599999652471389
 42
1.0
 10
13.87110638501712
 20
7.599999652471389
 42
1.0
 97
        0
 92
        7
 72
     1
 73
     1
 93
       26
 10
18.65742962610613
 20
9.602523249253103
 42
0.0
 10
19.18824944267504
 20
11.28345266838789
 42
0.5069206636600134
 10
18.93793399307736
 20
11.62499965247139
 42
0.0
 10
18.08848930327275
 20
11.62499965247139
 42
0.3272098845218764
 10
17.83817385367507
 20
11.44154663655487
 42
0.0
 10
16.90403891635918
 20
8.483452668387929
 42
-0.3272098845219541
 10
16.65372346676145
 20
8.299999652471388
 42
0.0
 10
16.58360638501721
 20
8.299999652471388
 42
-0.4142135623731526
 10
16.32110638501717
 20
8.562499652471382
 42
0.0
 10
16.32110638501717
 20
11.36249965247139
 42
0.4142135623730951
 10
16.05860638501718
 20
11.62499965247139
 42
0.0
 10
15.18360638501713
 20
11.62499965247139
 42
0.4142135623730871
 10
14.92110638501713
 20
11.3624996524714
 42
0.0
 10
14.92110638501713
 20
3.837499652471384
 42
0.4142135623730891
 10
15.18360638501713
 20
3.57499965247139
 42
0.0
 10
16.05860638501712
 20
3.57499965247139
 42
0.4142135623731526
 10
16.32110638501717
 20
3.837499652471384
 42
0.0
 10
16.32110638501717
 20
6.637499652471396
 42
-0.4142135623731526
 10
16.58360638501721
 20
6.89999965247139
 42
0.0
 10
16.6537234667615
 20
6.89999965247139
 42
-0.3272098845218915
 10
16.90403891635918
 20
6.716546636554852
 42
0.0
 10
17.83817385367507
 20
3.758452668387926
 42
0.3272098845218902
 10
18.08848930327275
 20
3.57499965247139
 42
0.0
 10
18.93793399307736
 20
3.57499965247139
 42
0.5069206636600335
 10
19.18824944267504
 20
3.916546636554894
 42
0.0
 10
18.02505375343821
 20
7.599999652471458
 42
0.0
 97
        0
 92
        7
 72
     1
 73
     1
 93
        8
 10
21.74610638501712
 20
11.36249965247139
 42
0.4142135623731546
 10
21.48360638501708
 20
11.62499965247139
 42
0.0
 10
20.60860638501719
 20
11.62499965247139
 42
0.4142135623731507
 10
20.34610638501715
 20
11.3624996524714
 42
0.0
 10
20.34610638501715
 20
3.837499652471384
 42
0.4142135623731526
 10
20.60860638501719
 20
3.57499965247139
 42
0.0
 10
21.48360638501708
 20
3.57499965247139
 42
0.4142135623731526
 10
21.74610638501712
 20
3.837499652471384
 42
0.0
 97
        0
 92
        7
 72
     1
 73
     1
 93
       24
 10
24.19610638501717
 20
9.962499652471393
 42
-0.4142135623731546
 10
24.45860638501722
 20
10.22499965247138
 42
0.0
 10
25.94610638501717
 20
10.22499965247138
 42
0.4142135623730911
 10
26.20860638501716
 20
10.48749965247138
 42
0.0
 10
26.20860638501716
 20
11.36249965247139
 42
0.4142135623730952
 10
25.94610638501717
 20
11.62499965247139
 42
0.0
 10
24.19610638501717
 20
11.62499965247139
 42
0.4142135623731048
 10
22.79610638501714
 20
10.2249996524714
 42
0.0
 10
22.79610638501714
 20
9.317398639793768
 42
0.1989123673796613
 10
23.41118214452541
 20
7.832474399301993
 42
0.0
 10
24.86608113184775
 20
6.377575411979659
 42
-0.1989123673796402
 10
25.07110638501717
 20
5.882600665149123
 42
0.0
 10
25.07110638501717
 20
5.237499652471385
 42
-0.4142135623730911
 10
24.80860638501718
 20
4.974999652471389
 42
0.0
 10
23.32110638501717
 20
4.974999652471389
 42
0.4142135623731526
 10
23.05860638501712
 20
4.712499652471395
 42
0.0
 10
23.05860638501712
 20
3.837499652471384
 42
0.4142135623730891
 10
23.32110638501711
 20
3.57499965247139
 42
0.0
 10
25.07110638501717
 20
3.57499965247139
 42
0.4142135623730925
 10
26.47110638501715
 20
4.974999652471378
 42
0.0
 10
26.47110638501715
 20
5.882600665149015
 42
0.1989123673796675
 10
25.85603062550887
 20
7.367524905640841
 42
0.0
 10
24.4011316381866
 20
8.822423892963099
 42
-0.1989123673796652
 10
24.19610638501717
 20
9.317398639793683
 42
0.0
 97
        0
 92
        7
 72
     1
 73
     1
 93
       16
 10
28.92110638501714
 20
11.36249965247138
 42
0.414213562373103
 10
28.65860638501715
 20
11.62499965247139
 42
0.0
 10
27.78360638501715
 20
11.62499965247139
 42
0.4142135623730871
 10
27.52110638501716
 20
11.3624996524714
 42
0.0
 10
27.52110638501716
 20
4.974999652471378
 42
0.4142135623730926
 10
28.92110638501714
 20
3.57499965247139
 42
0.0
 10
30.67110638501714
 20
3.57499965247139
 42
0.4142135623731044
 10
32.07110638501717
 20
4.974999652471378
 42
0.0
 10
32.07110638501717
 20
11.36249965247139
 42
0.4142135623730951
 10
31.80860638501718
 20
11.62499965247139
 42
0.0
 10
30.93360638501712
 20
11.62499965247139
 42
0.4142135623730871
 10
30.67110638501714
 20
11.3624996524714
 42
0.0
 10
30.67110638501714
 20
5.499999652471377
 42
-0.414213562373088
 10
30.14610638501716
 20
4.974999652471389
 42
0.0
 10
29.44610638501717
 20
4.974999652471389
 42
-0.4142135623731197
 10
28.92110638501714
 20
5.499999652471377
 42
0.0
 97
        0
 92
        7
 72
     1
 73
     1
 93
        8
 10
34.52110638501716
 20
11.3624996524714
 42
0.4142135623730871
 10
34.25860638501717
 20
11.62499965247139
 42
0.0
 10
33.38360638501717
 20
11.62499965247139
 42
0.4142135623731507
 10
33.12110638501712
 20
11.3624996524714
 42
0.0
 10
33.12110638501712
 20
3.837499652471384
 42
0.4142135623730891
 10
33.38360638501711
 20
3.57499965247139
 42
0.0
 10
34.25860638501717
 20
3.57499965247139
 42
0.4142135623730891
 10
34.52110638501716
 20
3.837499652471384
 42
0.0
 97
        0
 75
     0
 76
     1
 52
0.0
 41
0.1
 77
     0
 78
     2
 53
45.0
 43
-450.4711518597129
 44
-6.600000347528578
 45
-0.2245064030267288
 46
0.2245064030267288
 79
     0
 53
135.0
 43
-450.4711518597129
 44
-6.600000347528578
 45
-0.2245064030267288
 46
-0.2245064030267288
 79
     0
 47
0.057451373970553
 98
        8
 10
8.039927789138232
 20
7.583586475414165
 10
11.20225781084616
 20
9.422030743696893
 10
12.5821842504564
 20
7.755940475506747
 10
15.45703029844514
 20
8.100648475692139
 10
20.91923631710494
 20
8.330454609462947
 10
23.44910075519135
 20
9.709287810674993
 10
28.27884329382675
 20
9.364578610018895
 10
33.91354011743795
 20
9.594384743789703
  0
LINE
  5
67B
330
1A
100
AcDbEntity
  8
ZUWAKU
100
AcDbLine
 10
12.47110638501715
 20
11.62499965247137
 30
0.0
 11
13.43360638501712
 21
11.62499965247139
 31
0.0
  0
LINE
  5
67C
330
1A
100
AcDbEntity
  8
ZUWAKU
100
AcDbLine
 10
13.43360638501712
 20
10.22499965247138
 30
0.0
 11
12.47110638501715
 21
10.22499965247138
 31
0.0
  0
LINE
  5
67D
330
1A
100
AcDbEntity
  8
ZUWAKU
100
AcDbLine
 10
12.47110638501715
 20
4.974999652471389
 30
0.0
 11
13.43360638501712
 21
4.974999652471389
 31
0.0
  0
LINE
  5
67E
330
1A
100
AcDbEntity
  8
ZUWAKU
100
AcDbLine
 10
13.43360638501712
 20
3.57499965247139
 30
0.0
 11
12.47110638501715
 21
3.57499965247139
 31
0.0
  0
CIRCLE
  5
67F
330
1A
100
AcDbEntity
  8
ZUWAKU
100
AcDbCircle
 10
12.99610638501712
 20
7.599999652471389
 30
0.0
 40
0.875
  0
ARC
  5
680
330
1A
100
AcDbEntity
  8
ZUWAKU
100
AcDbCircle
 10
7.746106385017128
 20
9.31739863979374
 30
0.0
 40
0.7
100
AcDbArc
 50
180.0000000000016
 51
224.9999999999988
  0
LINE
  5
681
330
1A
100
AcDbEntity
  8
ZUWAKU
100
AcDbLine
 10
11.77110638501716
 20
9.52499965247139
 30
0.0
 11
11.77110638501716
 21
5.674999652471392
 31
0.0
  0
LINE
  5
682
330
1A
100
AcDbEntity
  8
ZUWAKU
100
AcDbLine
 10
10.37110638501712
 20
5.674999652471392
 30
0.0
 11
10.37110638501712
 21
9.524999652471368
 31
0.0
  0
ARC
  5
683
330
1A
100
AcDbEntity
  8
ZUWAKU
100
AcDbCircle
 10
7.746106385017128
 20
9.31739863979374
 30
0.0
 40
2.099999999999999
100
AcDbArc
 50
180.0
 51
225.0
  0
ARC
  5
684
330
1A
100
AcDbEntity
  8
ZUWAKU
100
AcDbCircle
 10
7.921106385017139
 20
4.974999652471389
 30
0.0
 40
1.399999999999999
100
AcDbArc
 50
270.0
 51
0.0
  0
ARC
  5
685
330
1A
100
AcDbEntity
  8
ZUWAKU
100
AcDbCircle
 10
12.47110638501715
 20
5.674999652471392
 30
0.0
 40
2.099999999999999
100
AcDbArc
 50
180.0
 51
270.0
  0
ARC
  5
686
330
1A
100
AcDbEntity
  8
ZUWAKU
100
AcDbCircle
 10
7.221106385017151
 20
5.882600665149041
 30
0.0
 40
2.099999999999999
100
AcDbArc
 50
0.0
 51
45.0
  0
LINE
  5
687
330
1A
100
AcDbEntity
  8
ZUWAKU
100
AcDbLine
 10
8.706030625508901
 20
7.367524905640802
 30
0.0
 11
7.251131638186564
 21
8.82242389296314
 31
0.0
  0
LINE
  5
688
330
1A
100
AcDbEntity
  8
ZUWAKU
100
AcDbLine
 10
7.921106385017139
 20
5.237499652471392
 30
0.0
 11
7.921106385017139
 21
5.882600665149062
 31
0.0
  0
ARC
  5
689
330
1A
100
AcDbEntity
  8
ZUWAKU
100
AcDbCircle
 10
7.658606385017151
 20
5.237499652471392
 30
0.0
 40
0.2625
100
AcDbArc
 50
270.0
 51
0.0
  0
ARC
  5
68A
330
1A
100
AcDbEntity
  8
ZUWAKU
100
AcDbCircle
 10
7.221106385017151
 20
5.882600665149062
 30
0.0
 40
0.7
100
AcDbArc
 50
0.0
 51
45.0
  0
LINE
  5
68B
330
1A
100
AcDbEntity
  8
ZUWAKU
100
AcDbLine
 10
5.908606385017151
 20
3.83749965247139
 30
0.0
 11
5.908606385017151
 21
4.71249965247139
 31
0.0
  0
ARC
  5
68C
330
1A
100
AcDbEntity
  8
ZUWAKU
100
AcDbCircle
 10
6.171106385017139
 20
3.83749965247139
 30
0.0
 40
0.2625
100
AcDbArc
 50
180.0
 51
270.0
  0
ARC
  5
68D
330
1A
100
AcDbEntity
  8
ZUWAKU
100
AcDbCircle
 10
6.171106385017139
 20
4.71249965247139
 30
0.0
 40
0.2625
100
AcDbArc
 50
90.0
 51
180.0
  0
LINE
  5
68E
330
1A
100
AcDbEntity
  8
ZUWAKU
100
AcDbLine
 10
6.171106385017139
 20
3.57499965247139
 30
0.0
 11
7.921106385017139
 21
3.57499965247139
 31
0.0
  0
LINE
  5
68F
330
1A
100
AcDbEntity
  8
ZUWAKU
100
AcDbLine
 10
6.171106385017139
 20
4.974999652471389
 30
0.0
 11
7.658606385017151
 21
4.974999652471389
 31
0.0
  0
LINE
  5
690
330
1A
100
AcDbEntity
  8
ZUWAKU
100
AcDbLine
 10
6.261182144525378
 20
7.832474399301979
 30
0.0
 11
7.716081131847715
 21
6.377575411979648
 31
0.0
  0
LINE
  5
691
330
1A
100
AcDbEntity
  8
ZUWAKU
100
AcDbLine
 10
9.321106385017174
 20
4.974999652471389
 30
0.0
 11
9.321106385017174
 21
5.882600665149062
 31
0.0
  0
ARC
  5
692
330
1A
100
AcDbEntity
  8
ZUWAKU
100
AcDbCircle
 10
12.47110638501715
 20
5.674999652471392
 30
0.0
 40
0.7
100
AcDbArc
 50
180.0
 51
270.0
  0
ARC
  5
693
330
1A
100
AcDbEntity
  8
ZUWAKU
100
AcDbCircle
 10
8.796106385017139
 20
11.36249965247138
 30
0.0
 40
0.2625
100
AcDbArc
 50
0.0
 51
90.0
  0
ARC
  5
694
330
1A
100
AcDbEntity
  8
ZUWAKU
100
AcDbCircle
 10
8.796106385017139
 20
10.48749965247138
 30
0.0
 40
0.2625
100
AcDbArc
 50
270.0
 51
0.0
  0
LINE
  5
695
330
1A
100
AcDbEntity
  8
ZUWAKU
100
AcDbLine
 10
7.046106385017139
 20
11.62499965247139
 30
0.0
 11
8.796106385017139
 21
11.62499965247139
 31
0.0
  0
ARC
  5
696
330
1A
100
AcDbEntity
  8
ZUWAKU
100
AcDbCircle
 10
7.308606385017128
 20
9.96249965247139
 30
0.0
 40
0.2625
100
AcDbArc
 50
90.0
 51
180.0
  0
LINE
  5
697
330
1A
100
AcDbEntity
  8
ZUWAKU
100
AcDbLine
 10
7.046106385017139
 20
9.96249965247139
 30
0.0
 11
7.046106385017139
 21
9.317398639793719
 31
0.0
  0
LINE
  5
698
330
1A
100
AcDbEntity
  8
ZUWAKU
100
AcDbLine
 10
8.796106385017139
 20
10.22499965247138
 30
0.0
 11
7.308606385017128
 21
10.22499965247138
 31
0.0
  0
LINE
  5
699
330
1A
100
AcDbEntity
  8
ZUWAKU
100
AcDbLine
 10
5.646106385017162
 20
10.22499965247138
 30
0.0
 11
5.646106385017162
 21
9.317398639793719
 31
0.0
  0
ARC
  5
69A
330
1A
100
AcDbEntity
  8
ZUWAKU
100
AcDbCircle
 10
7.046106385017139
 20
10.22499965247138
 30
0.0
 40
1.399999999999999
100
AcDbArc
 50
90.0
 51
180.0
  0
LINE
  5
69B
330
1A
100
AcDbEntity
  8
ZUWAKU
100
AcDbLine
 10
9.058606385017128
 20
11.36249965247138
 30
0.0
 11
9.058606385017128
 21
10.48749965247138
 31
0.0
  0
ARC
  5
69C
330
1A
100
AcDbEntity
  8
ZUWAKU
100
AcDbCircle
 10
12.47110638501715
 20
9.52499965247139
 30
0.0
 40
0.7
100
AcDbArc
 50
90.0
 51
180.0
  0
ARC
  5
69D
330
1A
100
AcDbEntity
  8
ZUWAKU
100
AcDbCircle
 10
12.47110638501715
 20
9.524999652471368
 30
0.0
 40
2.099999999999999
100
AcDbArc
 50
90.0
 51
180.0
  0
LINE
  5
69E
330
1A
100
AcDbEntity
  8
ZUWAKU
100
AcDbLine
 10
39.66331508162068
 20
14.99999965247138
 30
0.0
 11
39.66331508162079
 21
0.399999652471422
 31
0.0
  0
LINE
  5
69F
330
1A
100
AcDbEntity
  8
ZUWAKU
100
AcDbLine
 10
39.7633150816207
 20
14.99999965247138
 30
0.0
 11
39.76331508162081
 21
0.399999652471422
 31
0.0
  0
LINE
  5
6A0
330
1A
100
AcDbEntity
  8
ZUWAKU
100
AcDbLine
 10
39.56331508162077
 20
14.99999965247138
 30
0.0
 11
39.56331508162077
 21
0.399999652471422
 31
0.0
  0
LINE
  5
6A1
330
1A
100
AcDbEntity
  8
ZUWAKU
100
AcDbLine
 10
32.07110638501717
 20
4.974999652471389
 30
0.0
 11
32.07110638501717
 21
11.36249965247138
 31
0.0
  0
LINE
  5
6A2
330
1A
100
AcDbEntity
  8
ZUWAKU
100
AcDbLine
 10
30.67110638501714
 20
11.36249965247138
 30
0.0
 11
30.67110638501714
 21
5.499999652471387
 31
0.0
  0
LINE
  5
6A3
330
1A
100
AcDbEntity
  8
ZUWAKU
100
AcDbLine
 10
34.52110638501716
 20
3.83749965247139
 30
0.0
 11
34.52110638501716
 21
11.36249965247138
 31
0.0
  0
LINE
  5
6A4
330
1A
100
AcDbEntity
  8
ZUWAKU
100
AcDbLine
 10
33.12110638501712
 20
11.36249965247138
 30
0.0
 11
33.12110638501712
 21
3.83749965247139
 31
0.0
  0
ARC
  5
6A5
330
1A
100
AcDbEntity
  8
ZUWAKU
100
AcDbCircle
 10
24.89610638501716
 20
9.31739863979374
 30
0.0
 40
0.7
100
AcDbArc
 50
180.0000000000016
 51
224.9999999999988
  0
ARC
  5
6A6
330
1A
100
AcDbEntity
  8
ZUWAKU
100
AcDbCircle
 10
24.89610638501716
 20
9.31739863979374
 30
0.0
 40
2.099999999999999
100
AcDbArc
 50
180.0
 51
225.0
  0
LINE
  5
6A7
330
1A
100
AcDbEntity
  8
ZUWAKU
100
AcDbLine
 10
18.65742962610613
 20
9.602523249253103
 30
0.0
 11
18.02505375343821
 21
7.599999652471399
 31
0.0
  0
LINE
  5
6A8
330
1A
100
AcDbEntity
  8
ZUWAKU
100
AcDbLine
 10
20.34610638501715
 20
11.36249965247138
 30
0.0
 11
20.34610638501715
 21
3.83749965247139
 31
0.0
  0
LINE
  5
6A9
330
1A
100
AcDbEntity
  8
ZUWAKU
100
AcDbLine
 10
21.74610638501712
 20
3.83749965247139
 30
0.0
 11
21.74610638501712
 21
11.36249965247138
 31
0.0
  0
LINE
  5
6AA
330
1A
100
AcDbEntity
  8
ZUWAKU
100
AcDbLine
 10
27.52110638501716
 20
11.36249965247138
 30
0.0
 11
27.52110638501716
 21
4.974999652471389
 31
0.0
  0
LINE
  5
6AB
330
1A
100
AcDbEntity
  8
ZUWAKU
100
AcDbLine
 10
28.92110638501714
 20
5.499999652471387
 30
0.0
 11
28.92110638501714
 21
11.36249965247138
 31
0.0
  0
LINE
  5
6AC
330
1A
100
AcDbEntity
  8
ZUWAKU
100
AcDbLine
 10
16.32110638501717
 20
8.562499652471391
 30
0.0
 11
16.32110638501717
 21
11.36249965247138
 31
0.0
  0
LINE
  5
6AD
330
1A
100
AcDbEntity
  8
ZUWAKU
100
AcDbLine
 10
14.92110638501713
 20
11.36249965247138
 30
0.0
 11
14.92110638501713
 21
3.83749965247139
 31
0.0
  0
LINE
  5
6AE
330
1A
100
AcDbEntity
  8
ZUWAKU
100
AcDbLine
 10
17.83817385367507
 20
11.44154663655487
 30
0.0
 11
16.90403891635918
 21
8.483452668387904
 31
0.0
  0
LINE
  5
6AF
330
1A
100
AcDbEntity
  8
ZUWAKU
100
AcDbLine
 10
30.14610638501716
 20
4.974999652471389
 30
0.0
 11
29.44610638501717
 21
4.974999652471389
 31
0.0
  0
LINE
  5
6B0
330
1A
100
AcDbEntity
  8
ZUWAKU
100
AcDbLine
 10
28.92110638501714
 20
3.57499965247139
 30
0.0
 11
30.67110638501714
 21
3.57499965247139
 31
0.0
  0
LINE
  5
6B1
330
1A
100
AcDbEntity
  8
ZUWAKU
100
AcDbLine
 10
20.60860638501714
 20
3.57499965247139
 30
0.0
 11
21.48360638501713
 21
3.57499965247139
 31
0.0
  0
LINE
  5
6B2
330
1A
100
AcDbEntity
  8
ZUWAKU
100
AcDbLine
 10
17.83817385367507
 20
3.758452668387903
 30
0.0
 11
16.90403891635918
 21
6.716546636554873
 31
0.0
  0
ARC
  5
6B3
330
1A
100
AcDbEntity
  8
ZUWAKU
100
AcDbCircle
 10
16.6537234667615
 20
8.562499652471391
 30
0.0
 40
0.2625
100
AcDbArc
 50
270.0
 51
342.4744316262769
  0
LINE
  5
6B4
330
1A
100
AcDbEntity
  8
ZUWAKU
100
AcDbLine
 10
16.6537234667615
 20
8.299999652471388
 30
0.0
 11
16.58360638501716
 21
8.299999652471388
 31
0.0
  0
LINE
  5
6B5
330
1A
100
AcDbEntity
  8
ZUWAKU
100
AcDbLine
 10
16.58360638501716
 20
6.89999965247139
 30
0.0
 11
16.6537234667615
 21
6.89999965247139
 31
0.0
  0
ARC
  5
6B6
330
1A
100
AcDbEntity
  8
ZUWAKU
100
AcDbCircle
 10
16.58360638501716
 20
8.562499652471391
 30
0.0
 40
0.2625
100
AcDbArc
 50
180.0
 51
270.0
  0
LINE
  5
6B7
330
1A
100
AcDbEntity
  8
ZUWAKU
100
AcDbLine
 10
15.18360638501713
 20
3.57499965247139
 30
0.0
 11
16.05860638501712
 21
3.57499965247139
 31
0.0
  0
ARC
  5
6B8
330
1A
100
AcDbEntity
  8
ZUWAKU
100
AcDbCircle
 10
16.05860638501712
 20
3.83749965247139
 30
0.0
 40
0.2625
100
AcDbArc
 50
270.0
 51
0.0
  0
LINE
  5
6B9
330
1A
100
AcDbEntity
  8
ZUWAKU
100
AcDbLine
 10
16.32110638501717
 20
3.83749965247139
 30
0.0
 11
16.32110638501717
 21
6.63749965247139
 31
0.0
  0
LINE
  5
6BA
330
1A
100
AcDbEntity
  8
ZUWAKU
100
AcDbLine
 10
13.69610638501717
 20
4.71249965247139
 30
0.0
 11
13.69610638501717
 21
3.83749965247139
 31
0.0
  0
ARC
  5
6BB
330
1A
100
AcDbEntity
  8
ZUWAKU
100
AcDbCircle
 10
13.43360638501712
 20
3.83749965247139
 30
0.0
 40
0.2625
100
AcDbArc
 50
270.0
 51
0.0
  0
ARC
  5
6BC
330
1A
100
AcDbEntity
  8
ZUWAKU
100
AcDbCircle
 10
13.43360638501712
 20
4.71249965247139
 30
0.0
 40
0.2625
100
AcDbArc
 50
0.0
 51
90.0
  0
ARC
  5
6BD
330
1A
100
AcDbEntity
  8
ZUWAKU
100
AcDbCircle
 10
15.18360638501713
 20
3.83749965247139
 30
0.0
 40
0.2625
100
AcDbArc
 50
180.0
 51
270.0
  0
ARC
  5
6BE
330
1A
100
AcDbEntity
  8
ZUWAKU
100
AcDbCircle
 10
16.6537234667615
 20
6.63749965247139
 30
0.0
 40
0.2625
100
AcDbArc
 50
17.52556837372303
 51
90.0
  0
ARC
  5
6BF
330
1A
100
AcDbEntity
  8
ZUWAKU
100
AcDbCircle
 10
16.58360638501716
 20
6.63749965247139
 30
0.0
 40
0.2625
100
AcDbArc
 50
90.0
 51
180.0
  0
ARC
  5
6C0
330
1A
100
AcDbEntity
  8
ZUWAKU
100
AcDbCircle
 10
20.60860638501714
 20
3.83749965247139
 30
0.0
 40
0.2625
100
AcDbArc
 50
180.0
 51
270.0
  0
LINE
  5
6C1
330
1A
100
AcDbEntity
  8
ZUWAKU
100
AcDbLine
 10
18.08848930327281
 20
3.57499965247139
 30
0.0
 11
18.9379339930773
 21
3.57499965247139
 31
0.0
  0
ARC
  5
6C2
330
1A
100
AcDbEntity
  8
ZUWAKU
100
AcDbCircle
 10
18.9379339930773
 20
3.83749965247139
 30
0.0
 40
0.2625
100
AcDbArc
 50
270.0
 51
17.52556837372303
  0
LINE
  5
6C3
330
1A
100
AcDbEntity
  8
ZUWAKU
100
AcDbLine
 10
19.18824944267504
 20
3.916546636554876
 30
0.0
 11
18.02505375343821
 21
7.599999652471399
 31
0.0
  0
ARC
  5
6C4
330
1A
100
AcDbEntity
  8
ZUWAKU
100
AcDbCircle
 10
18.08848930327281
 20
3.83749965247139
 30
0.0
 40
0.2625
100
AcDbArc
 50
197.525568373723
 51
270.0
  0
ARC
  5
6C5
330
1A
100
AcDbEntity
  8
ZUWAKU
100
AcDbCircle
 10
28.92110638501714
 20
4.974999652471389
 30
0.0
 40
1.399999999999999
100
AcDbArc
 50
180.0
 51
270.0
  0
ARC
  5
6C6
330
1A
100
AcDbEntity
  8
ZUWAKU
100
AcDbCircle
 10
25.07110638501717
 20
4.974999652471389
 30
0.0
 40
1.399999999999999
100
AcDbArc
 50
270.0
 51
0.0
  0
LINE
  5
6C7
330
1A
100
AcDbEntity
  8
ZUWAKU
100
AcDbLine
 10
25.85603062550893
 20
7.367524905640802
 30
0.0
 11
24.40113163818654
 21
8.82242389296314
 31
0.0
  0
LINE
  5
6C8
330
1A
100
AcDbEntity
  8
ZUWAKU
100
AcDbLine
 10
25.07110638501717
 20
5.237499652471392
 30
0.0
 11
25.07110638501717
 21
5.882600665149062
 31
0.0
  0
ARC
  5
6C9
330
1A
100
AcDbEntity
  8
ZUWAKU
100
AcDbCircle
 10
24.37110638501712
 20
5.882600665149062
 30
0.0
 40
0.7
100
AcDbArc
 50
0.0
 51
45.0
  0
ARC
  5
6CA
330
1A
100
AcDbEntity
  8
ZUWAKU
100
AcDbCircle
 10
24.80860638501713
 20
5.237499652471392
 30
0.0
 40
0.2625
100
AcDbArc
 50
270.0
 51
0.0
  0
LINE
  5
6CB
330
1A
100
AcDbEntity
  8
ZUWAKU
100
AcDbLine
 10
23.05860638501712
 20
3.83749965247139
 30
0.0
 11
23.05860638501712
 21
4.71249965247139
 31
0.0
  0
ARC
  5
6CC
330
1A
100
AcDbEntity
  8
ZUWAKU
100
AcDbCircle
 10
23.32110638501717
 20
3.83749965247139
 30
0.0
 40
0.2625
100
AcDbArc
 50
180.0
 51
270.0
  0
ARC
  5
6CD
330
1A
100
AcDbEntity
  8
ZUWAKU
100
AcDbCircle
 10
21.48360638501713
 20
3.83749965247139
 30
0.0
 40
0.2625
100
AcDbArc
 50
270.0
 51
0.0
  0
ARC
  5
6CE
330
1A
100
AcDbEntity
  8
ZUWAKU
100
AcDbCircle
 10
23.32110638501717
 20
4.71249965247139
 30
0.0
 40
0.2625
100
AcDbArc
 50
90.0
 51
180.0
  0
LINE
  5
6CF
330
1A
100
AcDbEntity
  8
ZUWAKU
100
AcDbLine
 10
23.32110638501717
 20
4.974999652471389
 30
0.0
 11
24.80860638501713
 21
4.974999652471389
 31
0.0
  0
LINE
  5
6D0
330
1A
100
AcDbEntity
  8
ZUWAKU
100
AcDbLine
 10
23.32110638501717
 20
3.57499965247139
 30
0.0
 11
25.07110638501717
 21
3.57499965247139
 31
0.0
  0
LINE
  5
6D1
330
1A
100
AcDbEntity
  8
ZUWAKU
100
AcDbLine
 10
23.41118214452541
 20
7.832474399301979
 30
0.0
 11
24.86608113184775
 21
6.377575411979648
 31
0.0
  0
LINE
  5
6D2
330
1A
100
AcDbEntity
  8
ZUWAKU
100
AcDbLine
 10
26.47110638501715
 20
4.974999652471389
 30
0.0
 11
26.47110638501715
 21
5.882600665149062
 31
0.0
  0
ARC
  5
6D3
330
1A
100
AcDbEntity
  8
ZUWAKU
100
AcDbCircle
 10
24.37110638501712
 20
5.882600665149041
 30
0.0
 40
2.099999999999999
100
AcDbArc
 50
0.0
 51
45.0
  0
ARC
  5
6D4
330
1A
100
AcDbEntity
  8
ZUWAKU
100
AcDbCircle
 10
29.44610638501717
 20
5.499999652471387
 30
0.0
 40
0.525
100
AcDbArc
 50
180.0
 51
270.0
  0
ARC
  5
6D5
330
1A
100
AcDbEntity
  8
ZUWAKU
100
AcDbCircle
 10
30.67110638501714
 20
4.974999652471389
 30
0.0
 40
1.399999999999999
100
AcDbArc
 50
270.0
 51
0.0
  0
LINE
  5
6D6
330
1A
100
AcDbEntity
  8
ZUWAKU
100
AcDbLine
 10
33.38360638501717
 20
3.57499965247139
 30
0.0
 11
34.25860638501717
 21
3.57499965247139
 31
0.0
  0
ARC
  5
6D7
330
1A
100
AcDbEntity
  8
ZUWAKU
100
AcDbCircle
 10
33.38360638501717
 20
3.83749965247139
 30
0.0
 40
0.2625
100
AcDbArc
 50
180.0
 51
270.0
  0
ARC
  5
6D8
330
1A
100
AcDbEntity
  8
ZUWAKU
100
AcDbCircle
 10
30.14610638501716
 20
5.499999652471387
 30
0.0
 40
0.525
100
AcDbArc
 50
270.0
 51
0.0
  0
ARC
  5
6D9
330
1A
100
AcDbEntity
  8
ZUWAKU
100
AcDbCircle
 10
34.25860638501717
 20
3.83749965247139
 30
0.0
 40
0.2625
100
AcDbArc
 50
270.0
 51
0.0
  0
LINE
  5
6DA
330
1A
100
AcDbEntity
  8
ZUWAKU
100
AcDbLine
 10
21.48360638501713
 20
11.62499965247139
 30
0.0
 11
20.60860638501714
 21
11.62499965247139
 31
0.0
  0
ARC
  5
6DB
330
1A
100
AcDbEntity
  8
ZUWAKU
100
AcDbCircle
 10
16.05860638501712
 20
11.36249965247138
 30
0.0
 40
0.2625
100
AcDbArc
 50
0.0
 51
90.0
  0
LINE
  5
6DC
330
1A
100
AcDbEntity
  8
ZUWAKU
100
AcDbLine
 10
16.05860638501712
 20
11.62499965247139
 30
0.0
 11
15.18360638501713
 21
11.62499965247139
 31
0.0
  0
ARC
  5
6DD
330
1A
100
AcDbEntity
  8
ZUWAKU
100
AcDbCircle
 10
13.43360638501712
 20
11.36249965247138
 30
0.0
 40
0.2625
100
AcDbArc
 50
0.0
 51
90.0
  0
ARC
  5
6DE
330
1A
100
AcDbEntity
  8
ZUWAKU
100
AcDbCircle
 10
15.18360638501713
 20
11.36249965247138
 30
0.0
 40
0.2625
100
AcDbArc
 50
90.0
 51
180.0
  0
ARC
  5
6DF
330
1A
100
AcDbEntity
  8
ZUWAKU
100
AcDbCircle
 10
13.43360638501712
 20
10.48749965247138
 30
0.0
 40
0.2625
100
AcDbArc
 50
270.0
 51
0.0
  0
LINE
  5
6E0
330
1A
100
AcDbEntity
  8
ZUWAKU
100
AcDbLine
 10
13.69610638501717
 20
11.36249965247138
 30
0.0
 11
13.69610638501717
 21
10.48749965247138
 31
0.0
  0
ARC
  5
6E1
330
1A
100
AcDbEntity
  8
ZUWAKU
100
AcDbCircle
 10
20.60860638501714
 20
11.36249965247138
 30
0.0
 40
0.2625
100
AcDbArc
 50
90.0
 51
180.0
  0
LINE
  5
6E2
330
1A
100
AcDbEntity
  8
ZUWAKU
100
AcDbLine
 10
18.08848930327281
 20
11.62499965247139
 30
0.0
 11
18.9379339930773
 21
11.62499965247139
 31
0.0
  0
ARC
  5
6E3
330
1A
100
AcDbEntity
  8
ZUWAKU
100
AcDbCircle
 10
18.9379339930773
 20
11.36249965247138
 30
0.0
 40
0.2625
100
AcDbArc
 50
342.4744316262769
 51
90.0
  0
LINE
  5
6E4
330
1A
100
AcDbEntity
  8
ZUWAKU
100
AcDbLine
 10
19.18824944267504
 20
11.2834526683879
 30
0.0
 11
18.65742962610613
 21
9.602523249253103
 31
0.0
  0
ARC
  5
6E5
330
1A
100
AcDbEntity
  8
ZUWAKU
100
AcDbCircle
 10
18.08848930327281
 20
11.36249965247138
 30
0.0
 40
0.2625
100
AcDbArc
 50
90.0
 51
162.4744316262769
  0
LINE
  5
6E6
330
1A
100
AcDbEntity
  8
ZUWAKU
100
AcDbLine
 10
24.19610638501717
 20
11.62499965247139
 30
0.0
 11
25.94610638501717
 21
11.62499965247139
 31
0.0
  0
LINE
  5
6E7
330
1A
100
AcDbEntity
  8
ZUWAKU
100
AcDbLine
 10
25.94610638501717
 20
10.22499965247138
 30
0.0
 11
24.45860638501716
 21
10.22499965247138
 31
0.0
  0
ARC
  5
6E8
330
1A
100
AcDbEntity
  8
ZUWAKU
100
AcDbCircle
 10
24.45860638501716
 20
9.96249965247139
 30
0.0
 40
0.2625
100
AcDbArc
 50
90.0
 51
180.0
  0
LINE
  5
6E9
330
1A
100
AcDbEntity
  8
ZUWAKU
100
AcDbLine
 10
24.19610638501717
 20
9.96249965247139
 30
0.0
 11
24.19610638501717
 21
9.317398639793719
 31
0.0
  0
ARC
  5
6EA
330
1A
100
AcDbEntity
  8
ZUWAKU
100
AcDbCircle
 10
21.48360638501713
 20
11.36249965247138
 30
0.0
 40
0.2625
100
AcDbArc
 50
0.0
 51
90.0
  0
LINE
  5
6EB
330
1A
100
AcDbEntity
  8
ZUWAKU
100
AcDbLine
 10
22.79610638501714
 20
10.22499965247138
 30
0.0
 11
22.79610638501714
 21
9.317398639793719
 31
0.0
  0
ARC
  5
6EC
330
1A
100
AcDbEntity
  8
ZUWAKU
100
AcDbCircle
 10
24.19610638501717
 20
10.22499965247138
 30
0.0
 40
1.399999999999999
100
AcDbArc
 50
90.0
 51
180.0
  0
ARC
  5
6ED
330
1A
100
AcDbEntity
  8
ZUWAKU
100
AcDbCircle
 10
28.65860638501715
 20
11.36249965247138
 30
0.0
 40
0.2625
100
AcDbArc
 50
0.0
 51
90.0
  0
ARC
  5
6EE
330
1A
100
AcDbEntity
  8
ZUWAKU
100
AcDbCircle
 10
27.78360638501715
 20
11.36249965247138
 30
0.0
 40
0.2625
100
AcDbArc
 50
90.0
 51
180.0
  0
LINE
  5
6EF
330
1A
100
AcDbEntity
  8
ZUWAKU
100
AcDbLine
 10
28.65860638501715
 20
11.62499965247139
 30
0.0
 11
27.78360638501715
 21
11.62499965247139
 31
0.0
  0
ARC
  5
6F0
330
1A
100
AcDbEntity
  8
ZUWAKU
100
AcDbCircle
 10
25.94610638501717
 20
11.36249965247138
 30
0.0
 40
0.2625
100
AcDbArc
 50
0.0
 51
90.0
  0
ARC
  5
6F1
330
1A
100
AcDbEntity
  8
ZUWAKU
100
AcDbCircle
 10
25.94610638501717
 20
10.48749965247138
 30
0.0
 40
0.2625
100
AcDbArc
 50
270.0
 51
0.0
  0
LINE
  5
6F2
330
1A
100
AcDbEntity
  8
ZUWAKU
100
AcDbLine
 10
26.20860638501716
 20
11.36249965247138
 30
0.0
 11
26.20860638501716
 21
10.48749965247138
 31
0.0
  0
LINE
  5
6F3
330
1A
100
AcDbEntity
  8
ZUWAKU
100
AcDbLine
 10
34.25860638501717
 20
11.62499965247139
 30
0.0
 11
33.38360638501717
 21
11.62499965247139
 31
0.0
  0
ARC
  5
6F4
330
1A
100
AcDbEntity
  8
ZUWAKU
100
AcDbCircle
 10
33.38360638501717
 20
11.36249965247138
 30
0.0
 40
0.2625
100
AcDbArc
 50
90.0
 51
180.0
  0
ARC
  5
6F5
330
1A
100
AcDbEntity
  8
ZUWAKU
100
AcDbCircle
 10
31.80860638501712
 20
11.36249965247138
 30
0.0
 40
0.2625
100
AcDbArc
 50
0.0
 51
90.0
  0
LINE
  5
6F6
330
1A
100
AcDbEntity
  8
ZUWAKU
100
AcDbLine
 10
31.80860638501712
 20
11.62499965247139
 30
0.0
 11
30.93360638501712
 21
11.62499965247139
 31
0.0
  0
ARC
  5
6F7
330
1A
100
AcDbEntity
  8
ZUWAKU
100
AcDbCircle
 10
30.93360638501712
 20
11.36249965247138
 30
0.0
 40
0.2625
100
AcDbArc
 50
90.0
 51
180.0
  0
ARC
  5
6F8
330
1A
100
AcDbEntity
  8
ZUWAKU
100
AcDbCircle
 10
34.25860638501717
 20
11.36249965247138
 30
0.0
 40
0.2625
100
AcDbArc
 50
0.0
 51
90.0
  0
TEXT
  5
6F9
330
1A
100
AcDbEntity
  8
MOJI
100
AcDbText
 10
119.9136016480521
 20
1.602460181175098
 30
0.0
 40
2.799999999999999
  1
ＲＶ１０５－３,６００
 41
0.9
  7
ｽﾀｲﾙ1
100
AcDbText
  0
TEXT
  5
6FA
330
1A
100
AcDbEntity
  8
MOJI
100
AcDbText
 10
119.9136016480521
 20
9.002460181175081
 30
0.0
 40
2.799999999999999
  1
のきとい
 41
0.9
  7
ｽﾀｲﾙ1
100
AcDbText
  0
LINE
  5
6FB
330
1A
100
AcDbEntity
  8
ZUWAKU
100
AcDbLine
 10
104.1233009526605
 20
14.99999965247138
 30
0.0
 11
104.1233009526605
 21
0.399999652471422
 31
0.0
  0
LINE
  5
6FC
330
1A
100
AcDbEntity
  8
ZUWAKU
100
AcDbLine
 10
104.3233009526604
 20
14.99999965247138
 30
0.0
 11
104.3233009526605
 21
0.399999652471422
 31
0.0
  0
LINE
  5
6FD
330
1A
100
AcDbEntity
  8
ZUWAKU
100
AcDbLine
 10
104.2233009526604
 20
14.99999965247138
 30
0.0
 11
104.2233009526605
 21
0.399999652471422
 31
0.0
  0
TEXT
  5
6FE
330
1A
100
AcDbEntity
  8
ZUWAKU
100
AcDbText
 10
104.8620234637653
 20
4.827677921664196
 30
0.0
 40
2.0
  1
サイズ
 41
0.9
  7
ｽﾀｲﾙ1
100
AcDbText
  0
TEXT
  5
6FF
330
1A
100
AcDbEntity
  8
ZUWAKU
100
AcDbText
 10
104.8620234637652
 20
12.02767792166417
 30
0.0
 40
2.0
  1
品名
 41
0.9
  7
ｽﾀｲﾙ1
100
AcDbText
  0
LINE
  5
700
330
1A
100
AcDbEntity
  8
ZUWAKU
100
AcDbLine
 10
324.4086015627286
 20
7.599999652471403
 30
0.0
 11
348.6245055818972
 21
7.599999652471405
 31
0.0
  0
LINE
  5
701
330
1A
100
AcDbEntity
  8
ZUWAKU
100
AcDbLine
 10
324.4086015627288
 20
7.699999652471406
 30
0.0
 11
348.6245055818972
 21
7.699999652471404
 31
0.0
  0
LINE
  5
702
330
1A
100
AcDbEntity
  8
ZUWAKU
100
AcDbLine
 10
324.4086015627286
 20
7.799999652471404
 30
0.0
 11
348.6245055818972
 21
7.799999652471404
 31
0.0
  0
TEXT
  5
703
330
1A
100
AcDbEntity
  8
ZUWAKU
100
AcDbText
 10
329.1019691512778
 20
9.002460181175081
 30
0.0
 40
2.799999999999999
  1
　　．　　．　　
 41
0.9
  7
ｽﾀｲﾙ1
100
AcDbText
  0
LINE
  5
704
330
1A
100
AcDbEntity
  8
ZUWAKU
100
AcDbLine
 10
252.599590056697
 20
7.599999652471407
 30
0.0
 11
276.2634781906827
 21
7.599999652471407
 31
0.0
  0
LINE
  5
705
330
1A
100
AcDbEntity
  8
ZUWAKU
100
AcDbLine
 10
252.599590056697
 20
7.699999652471404
 30
0.0
 11
276.2634781906827
 21
7.699999652471404
 31
0.0
  0
LINE
  5
706
330
1A
100
AcDbEntity
  8
ZUWAKU
100
AcDbLine
 10
252.599590056697
 20
7.799999652471404
 30
0.0
 11
276.2634781906827
 21
7.799999652471404
 31
0.0
  0
TEXT
  5
707
330
1A
100
AcDbEntity
  8
MOJI
100
AcDbText
 10
231.2836394686208
 20
5.97130851330138
 30
0.0
 40
2.799999999999999
  1
ＡＡ６０□
 41
0.9
  7
ｽﾀｲﾙ1
100
AcDbText
  0
LINE
  5
708
330
1A
100
AcDbEntity
  8
ZUWAKU
100
AcDbLine
 10
223.8121822931221
 20
14.99999965247138
 30
0.0
 11
223.8121822931223
 21
0.399999652471422
 31
0.0
  0
LINE
  5
709
330
1A
100
AcDbEntity
  8
ZUWAKU
100
AcDbLine
 10
223.9121822931222
 20
14.99999965247138
 30
0.0
 11
223.9121822931223
 21
0.399999652471422
 31
0.0
  0
LINE
  5
70A
330
1A
100
AcDbEntity
  8
ZUWAKU
100
AcDbLine
 10
223.7121822931222
 20
14.99999965247138
 30
0.0
 11
223.7121822931222
 21
0.399999652471422
 31
0.0
  0
TEXT
  5
70B
330
1A
100
AcDbEntity
  8
MOJI
100
AcDbText
 10
264.020454293783
 20
9.002460181175081
 30
0.0
 40
2.799999999999999
  1
Ａ３
 41
0.9
  7
ｽﾀｲﾙ1
100
AcDbText
  0
LINE
  5
70C
330
1A
100
AcDbEntity
  8
ZUWAKU
100
AcDbLine
 10
252.4995900566969
 20
14.99999965247138
 30
0.0
 11
252.4995900566971
 21
0.399999652471422
 31
0.0
  0
LINE
  5
70D
330
1A
100
AcDbEntity
  8
ZUWAKU
100
AcDbLine
 10
252.599590056697
 20
14.99999965247138
 30
0.0
 11
252.5995900566971
 21
0.399999652471422
 31
0.0
  0
LINE
  5
70E
330
1A
100
AcDbEntity
  8
ZUWAKU
100
AcDbLine
 10
252.399590056697
 20
14.99999965247138
 30
0.0
 11
252.399590056697
 21
0.399999652471422
 31
0.0
  0
TEXT
  5
70F
330
1A
100
AcDbEntity
  8
ZUWAKU
100
AcDbText
 10
231.3468811353801
 20
1.307035108041134
 30
0.0
 40
1.5
  1
□には色品番が入ります
 41
0.9
  7
ｽﾀｲﾙ1
100
AcDbText
  0
TEXT
  5
710
330
1A
100
AcDbEntity
  8
ZUWAKU
100
AcDbText
 10
253.3383125678019
 20
4.827677921664196
 30
0.0
 40
2.0
  1
縮尺
 41
0.9
  7
ｽﾀｲﾙ1
100
AcDbText
  0
TEXT
  5
711
330
1A
100
AcDbEntity
  8
MOJI
100
AcDbText
 10
264.020454293783
 20
1.602460181175098
 30
0.0
 40
2.799999999999999
  1
１/１
 41
0.9
  7
ｽﾀｲﾙ1
100
AcDbText
  0
TEXT
  5
712
330
1A
100
AcDbEntity
  8
ZUWAKU
100
AcDbText
 10
224.650904804227
 20
12.02767792166417
 30
0.0
 40
2.0
  1
品番
 41
0.9
  7
ｽﾀｲﾙ1
100
AcDbText
  0
TEXT
  5
713
330
1A
100
AcDbEntity
  8
ZUWAKU
100
AcDbText
 10
253.3383125678018
 20
12.02767792166417
 30
0.0
 40
2.0
  1
用紙
 41
0.9
  7
ｽﾀｲﾙ1
100
AcDbText
  0
LINE
  5
714
330
1A
100
AcDbEntity
  8
ZUWAKU
100
AcDbLine
 10
324.3086015627287
 20
14.99999965247138
 30
0.0
 11
324.3086015627288
 21
0.399999652471422
 31
0.0
  0
LINE
  5
715
330
1A
100
AcDbEntity
  8
ZUWAKU
100
AcDbLine
 10
324.4086015627288
 20
14.99999965247138
 30
0.0
 11
324.4086015627289
 21
0.399999652471422
 31
0.0
  0
LINE
  5
716
330
1A
100
AcDbEntity
  8
ZUWAKU
100
AcDbLine
 10
324.2086015627288
 20
14.99999965247138
 30
0.0
 11
324.2086015627288
 21
0.399999652471422
 31
0.0
  0
LINE
  5
717
330
1A
100
AcDbEntity
  8
ZUWAKU
100
AcDbLine
 10
276.3634781906826
 20
14.99999965247138
 30
0.0
 11
276.3634781906828
 21
0.399999652471422
 31
0.0
  0
LINE
  5
718
330
1A
100
AcDbEntity
  8
ZUWAKU
100
AcDbLine
 10
276.4634781906827
 20
14.99999965247138
 30
0.0
 11
276.4634781906828
 21
0.399999652471422
 31
0.0
  0
LINE
  5
719
330
1A
100
AcDbEntity
  8
ZUWAKU
100
AcDbLine
 10
276.2634781906827
 20
14.99999965247138
 30
0.0
 11
276.2634781906827
 21
0.399999652471422
 31
0.0
  0
TEXT
  5
71A
330
1A
100
AcDbEntity
  8
ZUWAKU
100
AcDbText
 10
325.1473240738336
 20
12.02767792166417
 30
0.0
 40
2.0
  1
DATE
 41
0.9
  7
ｽﾀｲﾙ1
100
AcDbText
  0
LINE
  5
71B
330
1A
100
AcDbEntity
  8
ZUWAKU
100
AcDbLine
 10
348.6245055818972
 20
14.99999965247138
 30
0.0
 11
348.6245055818972
 21
0.399999652471422
 31
0.0
  0
LINE
  5
71C
330
1A
100
AcDbEntity
  8
ZUWAKU
100
AcDbLine
 10
348.7245055818972
 20
14.99999965247138
 30
0.0
 11
348.7245055818972
 21
0.399999652471422
 31
0.0
  0
LINE
  5
71D
330
1A
100
AcDbEntity
  8
ZUWAKU
100
AcDbLine
 10
348.8245055818971
 20
14.99999965247138
 30
0.0
 11
348.8245055818972
 21
0.399999652471422
 31
0.0
  0
LINE
  5
71E
330
1A
100
AcDbEntity
  8
ZUWAKU
100
AcDbLine
 10
348.9245055818971
 20
14.99999965247138
 30
0.0
 11
348.9245055818972
 21
0.399999652471422
 31
0.0
  0
TEXT
  5
71F
330
1A
100
AcDbEntity
  8
ZUWAKU
100
AcDbText
 10
354.2640424037484
 20
8.776919320314789
 30
0.0
 40
3.0
  1
積水化学工業株式会社
 41
0.9
  7
ｽﾀｲﾙ1
100
AcDbText
  0
TEXT
  5
720
330
1A
100
AcDbEntity
  8
ZUWAKU
100
AcDbText
 10
354.2640424037484
 20
3.32441980939842
 30
0.0
 40
3.0
  1
建材事業部
 41
0.9
  7
ｽﾀｲﾙ1
100
AcDbText
  0
VIEWPORT
  5
22
330
17
100
AcDbEntity
 67
     1
  8
0
100
AcDbViewport
 10
313.6808219178082
 20
148.5
 30
0.0
 40
627.3616438356165
 41
297.0
 68
     2
 69
     1
1001
ACAD
1000
MVIEW
1002
{
1070
    16
1010
0.0
1020
0.0
1030
0.0
1010
0.0
1020
0.0
1030
1.0
1040
0.0
1040
297.0
1040
313.6808219178082
1040
148.5
1040
50.0
1040
0.0
1040
0.0
1070
     0
1070
   100
1070
     1
1070
     0
1070
     0
1070
     0
1070
     0
1070
     0
1040
0.0
1040
0.0
1040
0.0
1040
1.0
1040
1.0
1040
10.0
1040
10.0
1070
     0
1002
{
1002
}
1002
}
  0
VIEWPORT
  5
64
330
17
100
AcDbEntity
 67
     1
  8
VIEWPORT
100
AcDbViewport
 10
210.0
 20
148.5
 30
0.0
 40
420.0
 41
297.0
 68
     1
 69
     2
1001
ACAD
1000
MVIEW
1002
{
1070
    16
1010
0.0
1020
0.0
1030
0.0
1010
0.0
1020
0.0
1030
1.0
1040
0.0
1040
302.9399999999998
1040
210.0
1040
148.5
1040
50.0
1040
0.0
1040
0.0
1070
     0
1070
   100
1070
     1
1070
     0
1070
     0
1070
     0
1070
     0
1070
     0
1040
0.0
1040
0.0
1040
0.0
1040
5.0
1040
5.0
1040
0.0
1040
0.0
1070
     0
1002
{
1002
}
1002
}
  0
ENDSEC
  0
SECTION
  2
OBJECTS
  0
DICTIONARY
  5
C
330
0
100
AcDbDictionary
  3
ACAD_GROUP
350
D
  3
ACAD_LAYOUT
350
4B1
  3
ACAD_MLINESTYLE
350
E
  3
ACAD_PLOTSETTINGS
350
4B2
  3
ACAD_PLOTSTYLENAME
350
4AF
  3
ACDBHEADERROUNDTRIPXREC
350
728
  0
DICTIONARY
  5
520
330
1A
100
AcDbDictionary
280
     1
  3
ACAD_LAYOUTSELFREF
360
74A
  0
DICTIONARY
  5
51E
330
17
100
AcDbDictionary
280
     1
  3
ACAD_LAYOUTSELFREF
360
749
  0
DICTIONARY
  5
D
102
{ACAD_REACTORS
330
C
102
}
330
C
100
AcDbDictionary
  0
DICTIONARY
  5
4B1
102
{ACAD_REACTORS
330
C
102
}
330
C
100
AcDbDictionary
  0
DICTIONARY
  5
E
102
{ACAD_REACTORS
330
C
102
}
330
C
100
AcDbDictionary
  3
STANDARD
350
13
  0
DICTIONARY
  5
4B2
102
{ACAD_REACTORS
330
C
102
}
330
C
100
AcDbDictionary
  0
ACDBDICTIONARYWDFLT
  5
4AF
102
{ACAD_REACTORS
330
C
102
}
330
C
100
AcDbDictionary
281
     1
  3
Normal
350
4B0
100
AcDbDictionaryWithDefault
340
4B0
1001
ACAD
1000
TREAT_AS_HARD
1070
     0
1000
TREAT_AS_HARD
1070
     0
1000
TREAT_AS_HARD
1070
     0
  0
DICTIONARY
  5
728
102
{ACAD_REACTORS
330
C
102
}
330
C
100
AcDbDictionary
  3
TSTACKALIGN
350
729
  3
TSTACKSIZE
350
72A
  3
HYPERLINKBASE
350
72B
  3
STYLESHEET
350
72C
  3
LAYOUTDICT
350
72D
  3
PLOTSETDICT
350
72E
  3
PLOTSTYLNAMDICT
350
72F
  3
LWETCUNION
350
730
  3
INSUNITS
350
731
  3
CEPSNTYPE
350
732
  3
FINGERPRINTGUID
350
733
  3
VERSIONGUID
350
734
  3
PSVPSCALE
350
735
  3
DIMSTYLEDATA
350
736
  3
PUCSORTHOREF
350
737
  3
PUCSORTHOVIEW
350
738
  3
PUCSBASE
350
739
  3
PUCSORGTOP
350
73A
  3
PUCSORGBOTTOM
350
73B
  3
PUCSORGLEFT
350
73C
  3
PUCSORGRIGHT
350
73D
  3
PUCSORGFRONT
350
73E
  3
PUCSORGBACK
350
73F
  3
UCSORTHOREF
350
740
  3
UCSORTHOVIEW
350
741
  3
UCSBASE
350
742
  3
UCSORGTOP
350
743
  3
UCSORGBOTTOM
350
744
  3
UCSORGLEFT
350
745
  3
UCSORGRIGHT
350
746
  3
UCSORGFRONT
350
747
  3
UCSORGBACK
350
748
  0
XRECORD
  5
74A
102
{ACAD_REACTORS
330
520
102
}
330
520
100
AcDbXrecord
340
1A
  0
XRECORD
  5
749
102
{ACAD_REACTORS
330
51E
102
}
330
51E
100
AcDbXrecord
340
17
  0
MLINESTYLE
  5
13
102
{ACAD_REACTORS
330
E
102
}
330
E
100
AcDbMlineStyle
  2
STANDARD
 70
     0
  3

 62
     0
 51
90.0
 52
90.0
 71
     2
 49
0.5
 62
   256
  6
BYLAYER
 49
-0.5
 62
   256
  6
BYLAYER
  0
ACDBPLACEHOLDER
  5
4B0
102
{ACAD_REACTORS
330
4AF
102
}
330
4AF
100
AcDbPlaceHolder
280
     0
  0
XRECORD
  5
729
102
{ACAD_REACTORS
330
728
102
}
330
728
100
AcDbXrecord
 90
        1
  0
XRECORD
  5
72A
102
{ACAD_REACTORS
330
728
102
}
330
728
100
AcDbXrecord
 90
       70
  0
XRECORD
  5
72B
102
{ACAD_REACTORS
330
728
102
}
330
728
100
AcDbXrecord
  1

  0
XRECORD
  5
72C
102
{ACAD_REACTORS
330
728
102
}
330
728
100
AcDbXrecord
  1
systemprinter.ctb
  0
XRECORD
  5
72D
102
{ACAD_REACTORS
330
728
102
}
330
728
100
AcDbXrecord
340
4B1
  0
XRECORD
  5
72E
102
{ACAD_REACTORS
330
728
102
}
330
728
100
AcDbXrecord
340
4B2
  0
XRECORD
  5
72F
102
{ACAD_REACTORS
330
728
102
}
330
728
100
AcDbXrecord
340
4AF
  0
XRECORD
  5
730
102
{ACAD_REACTORS
330
728
102
}
330
728
100
AcDbXrecord
 90
    10781
  0
XRECORD
  5
731
102
{ACAD_REACTORS
330
728
102
}
330
728
100
AcDbXrecord
 90
        0
  0
XRECORD
  5
732
102
{ACAD_REACTORS
330
728
102
}
330
728
100
AcDbXrecord
 90
        0
  0
XRECORD
  5
733
102
{ACAD_REACTORS
330
728
102
}
330
728
100
AcDbXrecord
  1
{5A2975E0-A988-11D4-932C-0050DA99388B}
  0
XRECORD
  5
734
102
{ACAD_REACTORS
330
728
102
}
330
728
100
AcDbXrecord
  1
{A64D45F3-33EB-417E-B657-874C31C16E59}
  0
XRECORD
  5
735
102
{ACAD_REACTORS
330
728
102
}
330
728
100
AcDbXrecord
 40
0.0
  0
XRECORD
  5
736
102
{ACAD_REACTORS
330
728
102
}
330
728
100
AcDbXrecord
1000
DSTYLE
1002
{
1070
   341
340
B2
1070
   343
340
B2
1070
   344
340
B2
1070
   371
 70
    -1
1070
   372
 70
    -1
1002
}
  0
XRECORD
  5
737
102
{ACAD_REACTORS
330
728
102
}
330
728
100
AcDbXrecord
340
0
  0
XRECORD
  5
738
102
{ACAD_REACTORS
330
728
102
}
330
728
100
AcDbXrecord
 70
     0
  0
XRECORD
  5
739
102
{ACAD_REACTORS
330
728
102
}
330
728
100
AcDbXrecord
340
0
  0
XRECORD
  5
73A
102
{ACAD_REACTORS
330
728
102
}
330
728
100
AcDbXrecord
 10
0.0
 20
0.0
 30
0.0
  0
XRECORD
  5
73B
102
{ACAD_REACTORS
330
728
102
}
330
728
100
AcDbXrecord
 10
0.0
 20
0.0
 30
0.0
  0
XRECORD
  5
73C
102
{ACAD_REACTORS
330
728
102
}
330
728
100
AcDbXrecord
 10
0.0
 20
0.0
 30
0.0
  0
XRECORD
  5
73D
102
{ACAD_REACTORS
330
728
102
}
330
728
100
AcDbXrecord
 10
0.0
 20
0.0
 30
0.0
  0
XRECORD
  5
73E
102
{ACAD_REACTORS
330
728
102
}
330
728
100
AcDbXrecord
 10
0.0
 20
0.0
 30
0.0
  0
XRECORD
  5
73F
102
{ACAD_REACTORS
330
728
102
}
330
728
100
AcDbXrecord
 10
0.0
 20
0.0
 30
0.0
  0
XRECORD
  5
740
102
{ACAD_REACTORS
330
728
102
}
330
728
100
AcDbXrecord
340
0
  0
XRECORD
  5
741
102
{ACAD_REACTORS
330
728
102
}
330
728
100
AcDbXrecord
 70
     0
  0
XRECORD
  5
742
102
{ACAD_REACTORS
330
728
102
}
330
728
100
AcDbXrecord
340
0
  0
XRECORD
  5
743
102
{ACAD_REACTORS
330
728
102
}
330
728
100
AcDbXrecord
 10
0.0
 20
0.0
 30
0.0
  0
XRECORD
  5
744
102
{ACAD_REACTORS
330
728
102
}
330
728
100
AcDbXrecord
 10
0.0
 20
0.0
 30
0.0
  0
XRECORD
  5
745
102
{ACAD_REACTORS
330
728
102
}
330
728
100
AcDbXrecord
 10
0.0
 20
0.0
 30
0.0
  0
XRECORD
  5
746
102
{ACAD_REACTORS
330
728
102
}
330
728
100
AcDbXrecord
 10
0.0
 20
0.0
 30
0.0
  0
XRECORD
  5
747
102
{ACAD_REACTORS
330
728
102
}
330
728
100
AcDbXrecord
 10
0.0
 20
0.0
 30
0.0
  0
XRECORD
  5
748
102
{ACAD_REACTORS
330
728
102
}
330
728
100
AcDbXrecord
 10
0.0
 20
0.0
 30
0.0
  0
ENDSEC
  0
EOF
