  0
SECTION
  2
HEADER
  9
$ACADVER
  1
AC1014
  9
$ACADMAINTVER
 70
     9
  9
$DWGCODEPAGE
  3
ANSI_932
  9
$INSBASE
 10
0.0
 20
0.0
 30
0.0
  9
$EXTMIN
 10
-0.012816887852523
 20
-0.0090630678515709
 30
-0.0015258207003583
  9
$EXTMAX
 10
398.8000497569588
 20
275.8226172412462
 30
0.0000000349246037
  9
$LIMMIN
 10
0.0
 20
0.0
  9
$LIMMAX
 10
420.0
 20
297.0
  9
$ORTHOMODE
 70
     0
  9
$REGENMODE
 70
     1
  9
$FILLMODE
 70
     1
  9
$QTEXTMODE
 70
     0
  9
$MIRRTEXT
 70
     1
  9
$DRAGMODE
 70
     2
  9
$LTSCALE
 40
1.0
  9
$OSMODE
 70
    37
  9
$ATTMODE
 70
     1
  9
$TEXTSIZE
 40
2.5
  9
$TRACEWID
 40
1.0
  9
$TEXTSTYLE
  7
STANDARD
  9
$CLAYER
  8
SEIHIN
  9
$CELTYPE
  6
BYLAYER
  9
$CECOLOR
 62
   256
  9
$CELTSCALE
 40
1.0
  9
$DELOBJ
 70
     1
  9
$DISPSILH
 70
     0
  9
$DIMSCALE
 40
1.0
  9
$DIMASZ
 40
3.0
  9
$DIMEXO
 40
3.0
  9
$DIMDLI
 40
7.0
  9
$DIMRND
 40
0.0
  9
$DIMDLE
 40
0.0
  9
$DIMEXE
 40
1.5
  9
$DIMTP
 40
0.0
  9
$DIMTM
 40
0.0
  9
$DIMTXT
 40
3.0
  9
$DIMCEN
 40
150.0
  9
$DIMTSZ
 40
0.0
  9
$DIMTOL
 70
     0
  9
$DIMLIM
 70
     0
  9
$DIMTIH
 70
     0
  9
$DIMTOH
 70
     0
  9
$DIMSE1
 70
     0
  9
$DIMSE2
 70
     0
  9
$DIMTAD
 70
     3
  9
$DIMZIN
 70
     0
  9
$DIMBLK
  1

  9
$DIMASO
 70
     1
  9
$DIMSHO
 70
     1
  9
$DIMPOST
  1

  9
$DIMAPOST
  1

  9
$DIMALT
 70
     0
  9
$DIMALTD
 70
     2
  9
$DIMALTF
 40
25.4
  9
$DIMLFAC
 40
1.0
  9
$DIMTOFL
 70
     1
  9
$DIMTVP
 40
0.0
  9
$DIMTIX
 70
     0
  9
$DIMSOXD
 70
     0
  9
$DIMSAH
 70
     1
  9
$DIMBLK1
  1
OPEN
  9
$DIMBLK2
  1
OPEN
  9
$DIMSTYLE
  2
STANDARD
  9
$DIMCLRD
 70
   256
  9
$DIMCLRE
 70
   256
  9
$DIMCLRT
 70
   256
  9
$DIMTFAC
 40
1.0
  9
$DIMGAP
 40
1.0
  9
$DIMJUST
 70
     0
  9
$DIMSD1
 70
     0
  9
$DIMSD2
 70
     0
  9
$DIMTOLJ
 70
     1
  9
$DIMTZIN
 70
     0
  9
$DIMALTZ
 70
     0
  9
$DIMALTTZ
 70
     0
  9
$DIMFIT
 70
     3
  9
$DIMUPT
 70
     1
  9
$DIMUNIT
 70
     2
  9
$DIMDEC
 70
     0
  9
$DIMTDEC
 70
     0
  9
$DIMALTU
 70
     2
  9
$DIMALTTD
 70
     2
  9
$DIMTXSTY
  7
STANDARD
  9
$DIMAUNIT
 70
     0
  9
$LUNITS
 70
     2
  9
$LUPREC
 70
     4
  9
$SKETCHINC
 40
1.0
  9
$FILLETRAD
 40
0.5
  9
$AUNITS
 70
     0
  9
$AUPREC
 70
     0
  9
$MENU
  1
.
  9
$ELEVATION
 40
0.0
  9
$PELEVATION
 40
0.0
  9
$THICKNESS
 40
0.0
  9
$LIMCHECK
 70
     0
  9
$BLIPMODE
 70
     0
  9
$CHAMFERA
 40
10.0
  9
$CHAMFERB
 40
10.0
  9
$CHAMFERC
 40
20.0
  9
$CHAMFERD
 40
0.0
  9
$SKPOLY
 70
     0
  9
$TDCREATE
 40
2451100.394552546
  9
$TDUPDATE
 40
2454484.381258889
  9
$TDINDWG
 40
0.1054102315
  9
$TDUSRTIMER
 40
0.1054102315
  9
$USRTIMER
 70
     1
  9
$ANGBASE
 50
0.0
  9
$ANGDIR
 70
     0
  9
$PDMODE
 70
     0
  9
$PDSIZE
 40
0.0
  9
$PLINEWID
 40
0.0
  9
$COORDS
 70
     1
  9
$SPLFRAME
 70
     0
  9
$SPLINETYPE
 70
     6
  9
$SPLINESEGS
 70
     8
  9
$ATTDIA
 70
     0
  9
$ATTREQ
 70
     1
  9
$HANDLING
 70
 10241
  9
$HANDSEED
  5
105D
  9
$SURFTAB1
 70
     6
  9
$SURFTAB2
 70
     6
  9
$SURFTYPE
 70
     6
  9
$SURFU
 70
     6
  9
$SURFV
 70
     6
  9
$UCSNAME
  2

  9
$UCSORG
 10
0.0
 20
0.0
 30
0.0
  9
$UCSXDIR
 10
1.0
 20
0.0
 30
0.0
  9
$UCSYDIR
 10
0.0
 20
1.0
 30
0.0
  9
$PUCSNAME
  2

  9
$PUCSORG
 10
0.0
 20
0.0
 30
0.0
  9
$PUCSXDIR
 10
1.0
 20
0.0
 30
0.0
  9
$PUCSYDIR
 10
0.0
 20
1.0
 30
0.0
  9
$USERI1
 70
     0
  9
$USERI2
 70
     0
  9
$USERI3
 70
     0
  9
$USERI4
 70
     0
  9
$USERI5
 70
     0
  9
$USERR1
 40
0.0
  9
$USERR2
 40
0.0
  9
$USERR3
 40
0.0
  9
$USERR4
 40
0.0
  9
$USERR5
 40
0.0
  9
$WORLDVIEW
 70
     1
  9
$SHADEDGE
 70
     3
  9
$SHADEDIF
 70
    70
  9
$TILEMODE
 70
     1
  9
$MAXACTVP
 70
    16
  9
$PINSBASE
 10
0.0
 20
0.0
 30
0.0
  9
$PLIMCHECK
 70
     0
  9
$PEXTMIN
 10
0.0
 20
0.0
 30
0.0
  9
$PEXTMAX
 10
420.0
 20
297.0
 30
0.0
  9
$PLIMMIN
 10
0.0
 20
0.0
  9
$PLIMMAX
 10
420.0
 20
297.0
  9
$UNITMODE
 70
     0
  9
$VISRETAIN
 70
     0
  9
$PLINEGEN
 70
     0
  9
$PSLTSCALE
 70
     1
  9
$TREEDEPTH
 70
  3020
  9
$PICKSTYLE
 70
     1
  9
$CMLSTYLE
  2
STANDARD
  9
$CMLJUST
 70
     0
  9
$CMLSCALE
 40
1.0
  9
$PROXYGRAPHICS
 70
     1
  9
$MEASUREMENT
 70
     1
  0
ENDSEC
  0
SECTION
  2
CLASSES
  0
CLASS
  1
ACDBDICTIONARYWDFLT
  2
AcDbDictionaryWithDefault
  3
AutoCAD 2000
 90
        0
280
     0
281
     0
  0
CLASS
  1
ACDBPLACEHOLDER
  2
AcDbPlaceHolder
  3
AutoCAD 2000
 90
        0
280
     0
281
     0
  0
CLASS
  1
LAYOUT
  2
AcDbLayout
  3
AutoCAD 2000
 90
        0
280
     0
281
     0
  0
CLASS
  1
LONG_TRANSACTION
  2
AcDbLongTransaction
  3
AutoCAD 2000
 90
        0
280
     0
281
     0
  0
CLASS
  1
LWPOLYLINE
  2
AcDbPolyline
  3
AutoCAD 2000
 90
        0
280
     0
281
     1
  0
CLASS
  1
HATCH
  2
AcDbHatch
  3
AutoCAD 2000
 90
        0
280
     0
281
     1
  0
CLASS
  1
XRECORD
  2
AcDbXrecord
  3
AutoCAD 2000
 90
        0
280
     0
281
     0
  0
CLASS
  1
LONG_TRANSACTION
  2
AcDbLongTransaction
  3
AutoCAD 2000
 90
        0
280
     0
281
     0
  0
CLASS
  1
LWPOLYLINE
  2
AcDbPolyline
  3
AutoCAD 2000
 90
        0
280
     0
281
     1
  0
CLASS
  1
HATCH
  2
AcDbHatch
  3
AutoCAD 2000
 90
        0
280
     0
281
     1
  0
CLASS
  1
XRECORD
  2
AcDbXrecord
  3
AutoCAD 2000
 90
        0
280
     0
281
     0
  0
CLASS
  1
LONG_TRANSACTION
  2
AcDbLongTransaction
  3
AutoCAD 2000
 90
        0
280
     0
281
     0
  0
CLASS
  1
LWPOLYLINE
  2
AcDbPolyline
  3
AutoCAD 2000
 90
        0
280
     0
281
     1
  0
CLASS
  1
HATCH
  2
AcDbHatch
  3
AutoCAD 2000
 90
        0
280
     0
281
     1
  0
CLASS
  1
XRECORD
  2
AcDbXrecord
  3
AutoCAD 2000
 90
        0
280
     0
281
     0
  0
CLASS
  1
LONG_TRANSACTION
  2
AcDbLongTransaction
  3
AutoCAD 2000
 90
        0
280
     0
281
     0
  0
CLASS
  1
LWPOLYLINE
  2
AcDbPolyline
  3
AutoCAD 2000
 90
        0
280
     0
281
     1
  0
CLASS
  1
HATCH
  2
AcDbHatch
  3
AutoCAD 2000
 90
        0
280
     0
281
     1
  0
CLASS
  1
XRECORD
  2
AcDbXrecord
  3
AutoCAD 2000
 90
        0
280
     0
281
     0
  0
CLASS
  1
LONG_TRANSACTION
  2
AcDbLongTransaction
  3
AutoCAD 2000
 90
        0
280
     0
281
     0
  0
CLASS
  1
LWPOLYLINE
  2
AcDbPolyline
  3
AutoCAD 2000
 90
        0
280
     0
281
     1
  0
CLASS
  1
HATCH
  2
AcDbHatch
  3
AutoCAD 2000
 90
        0
280
     0
281
     1
  0
CLASS
  1
XRECORD
  2
AcDbXrecord
  3
AutoCAD 2000
 90
        0
280
     0
281
     0
  0
ENDSEC
  0
SECTION
  2
TABLES
  0
TABLE
  2
VPORT
  5
8
330
0
100
AcDbSymbolTable
 70
     2
  0
VPORT
  5
FD0
330
8
100
AcDbSymbolTableRecord
100
AcDbViewportTableRecord
  2
*ACTIVE
 70
     0
 10
0.0
 20
0.0
 11
1.0
 21
1.0
 12
225.1054600428539
 22
142.4385982431036
 13
0.0
 23
0.0
 14
5.0
 24
5.0
 15
0.0
 25
0.0
 16
0.0
 26
0.0
 36
1.0
 17
0.0
 27
0.0
 37
0.0
 40
351.5802716005516
 41
1.570153061224489
 42
50.0
 43
0.0
 44
0.0
 50
0.0
 51
0.0
 71
     0
 72
   100
 73
     1
 74
     0
 75
     0
 76
     0
 77
     0
 78
     0
  0
ENDTAB
  0
TABLE
  2
LTYPE
  5
5
330
0
100
AcDbSymbolTable
 70
     2
  0
LTYPE
  5
14
330
5
100
AcDbSymbolTableRecord
100
AcDbLinetypeTableRecord
  2
BYBLOCK
 70
     0
  3

 72
    65
 73
     0
 40
0.0
  0
LTYPE
  5
15
330
5
100
AcDbSymbolTableRecord
100
AcDbLinetypeTableRecord
  2
BYLAYER
 70
     0
  3

 72
    65
 73
     0
 40
0.0
  0
LTYPE
  5
16
330
5
100
AcDbSymbolTableRecord
100
AcDbLinetypeTableRecord
  2
CONTINUOUS
 70
     0
  3
Solid line
 72
    65
 73
     0
 40
0.0
  0
LTYPE
  5
120
330
5
100
AcDbSymbolTableRecord
100
AcDbLinetypeTableRecord
  2
CENTER
 70
     0
  3
____ _ ____ _ ____ _ ____ _ ____ _ ____ _ ____ 
 72
    65
 73
     4
 40
2.0
 49
1.25
 74
     0
 49
-0.25
 74
     0
 49
0.25
 74
     0
 49
-0.25
 74
     0
  0
ENDTAB
  0
TABLE
  2
LAYER
  5
2
102
{ACAD_XDICTIONARY
360
F94
102
}
330
0
100
AcDbSymbolTable
 70
     9
  0
LAYER
  5
F
330
2
100
AcDbSymbolTableRecord
100
AcDbLayerTableRecord
  2
0
 70
     0
 62
     7
  6
CONTINUOUS
  0
LAYER
  5
62
330
2
100
AcDbSymbolTableRecord
100
AcDbLayerTableRecord
  2
VIEWPORT
 70
     0
 62
     7
  6
CONTINUOUS
  0
LAYER
  5
6B
330
2
100
AcDbSymbolTableRecord
100
AcDbLayerTableRecord
  2
ZUWAKU
 70
     0
 62
     7
  6
CONTINUOUS
  0
LAYER
  5
1F2
330
2
100
AcDbSymbolTableRecord
100
AcDbLayerTableRecord
  2
SEIHIN
 70
     0
 62
     3
  6
CONTINUOUS
  0
LAYER
  5
1F3
330
2
100
AcDbSymbolTableRecord
100
AcDbLayerTableRecord
  2
SUNPOU
 70
     0
 62
     4
  6
CONTINUOUS
  0
LAYER
  5
1F4
330
2
100
AcDbSymbolTableRecord
100
AcDbLayerTableRecord
  2
CENTER_L
 70
     0
 62
     1
  6
CENTER
  0
LAYER
  5
1F5
330
2
100
AcDbSymbolTableRecord
100
AcDbLayerTableRecord
  2
DEFPOINTS
 70
     0
 62
     7
  6
CONTINUOUS
  0
LAYER
  5
A03
330
2
100
AcDbSymbolTableRecord
100
AcDbLayerTableRecord
  2
MOJI
 70
     0
 62
     2
  6
CONTINUOUS
  0
LAYER
  5
E90
330
2
100
AcDbSymbolTableRecord
100
AcDbLayerTableRecord
  2
KEIJYO
 70
     0
 62
    -7
  6
CONTINUOUS
  0
ENDTAB
  0
TABLE
  2
STYLE
  5
3
330
0
100
AcDbSymbolTable
 70
     2
  0
STYLE
  5
10
330
3
100
AcDbSymbolTableRecord
100
AcDbTextStyleTableRecord
  2
STANDARD
 70
     0
 40
0.0
 41
1.0
 50
0.0
 71
     0
 42
2.5
  3
TXT
  4
bigfont.shx
  0
STYLE
  5
A04
330
3
100
AcDbSymbolTableRecord
100
AcDbTextStyleTableRecord
  2
ｽﾀｲﾙ1
 70
     0
 40
0.0
 41
1.0
 50
0.0
 71
     0
 42
2.5
  3
MS PGothic.ttf
  4

1001
ACAD
1000
MS PGothic
1071
    32818
  0
ENDTAB
  0
TABLE
  2
VIEW
  5
6
330
0
100
AcDbSymbolTable
 70
     0
  0
ENDTAB
  0
TABLE
  2
UCS
  5
7
330
0
100
AcDbSymbolTable
 70
     0
  0
ENDTAB
  0
TABLE
  2
APPID
  5
9
330
0
100
AcDbSymbolTable
 70
     1
  0
APPID
  5
11
330
9
100
AcDbSymbolTableRecord
100
AcDbRegAppTableRecord
  2
ACAD
 70
     0
  0
ENDTAB
  0
TABLE
  2
DIMSTYLE
  5
A
330
0
100
AcDbSymbolTable
 70
     1
  0
DIMSTYLE
105
1D
102
{ACAD_REACTORS
330
C88
330
C89
330
C8A
330
C90
330
C91
330
C96
330
C9F
330
CC1
330
CDB
330
CDC
330
CEE
102
}
330
A
100
AcDbSymbolTableRecord
100
AcDbDimStyleTableRecord
  2
STANDARD
 70
     0
  3

  4

  5

  6

  7

 40
1.0
 41
0.18
 42
0.0625
 43
0.38
 44
0.18
 45
0.0
 46
0.0
 47
0.0
 48
0.0
140
0.18
141
0.09
142
0.0
143
25.4
144
1.0
145
0.0
146
1.0
147
0.09
 71
     0
 72
     0
 73
     1
 74
     1
 75
     0
 76
     0
 77
     0
 78
     0
170
     0
171
     2
172
     0
173
     0
174
     0
175
     0
176
     0
177
     0
178
     0
270
     2
271
     4
272
     4
273
     2
274
     2
340
10
275
     0
280
     0
281
     0
282
     0
283
     1
284
     0
285
     0
286
     0
287
     3
288
     0
  0
ENDTAB
  0
TABLE
  2
BLOCK_RECORD
  5
1
330
0
100
AcDbSymbolTable
 70
    13
  0
BLOCK_RECORD
  5
1A
102
{ACAD_XDICTIONARY
360
651
102
}
330
1
100
AcDbSymbolTableRecord
100
AcDbBlockTableRecord
  2
*MODEL_SPACE
  0
BLOCK_RECORD
  5
17
102
{ACAD_XDICTIONARY
360
64F
102
}
330
1
100
AcDbSymbolTableRecord
100
AcDbBlockTableRecord
  2
*PAPER_SPACE
  0
BLOCK_RECORD
  5
B2
330
1
100
AcDbSymbolTableRecord
100
AcDbBlockTableRecord
  2
_OPEN
  0
BLOCK_RECORD
  5
CF4
330
1
100
AcDbSymbolTableRecord
100
AcDbBlockTableRecord
  2
*D1
  0
BLOCK_RECORD
  5
D00
330
1
100
AcDbSymbolTableRecord
100
AcDbBlockTableRecord
  2
*D2
  0
BLOCK_RECORD
  5
D0C
330
1
100
AcDbSymbolTableRecord
100
AcDbBlockTableRecord
  2
*D3
  0
BLOCK_RECORD
  5
D18
330
1
100
AcDbSymbolTableRecord
100
AcDbBlockTableRecord
  2
*D4
  0
BLOCK_RECORD
  5
D26
330
1
100
AcDbSymbolTableRecord
100
AcDbBlockTableRecord
  2
*D5
  0
BLOCK_RECORD
  5
D32
330
1
100
AcDbSymbolTableRecord
100
AcDbBlockTableRecord
  2
*D6
  0
BLOCK_RECORD
  5
D3E
330
1
100
AcDbSymbolTableRecord
100
AcDbBlockTableRecord
  2
*D7
  0
BLOCK_RECORD
  5
D56
330
1
100
AcDbSymbolTableRecord
100
AcDbBlockTableRecord
  2
*D9
  0
BLOCK_RECORD
  5
D64
330
1
100
AcDbSymbolTableRecord
100
AcDbBlockTableRecord
  2
*D10
  0
BLOCK_RECORD
  5
D70
330
1
100
AcDbSymbolTableRecord
100
AcDbBlockTableRecord
  2
*D11
  0
BLOCK_RECORD
  5
D7C
330
1
100
AcDbSymbolTableRecord
100
AcDbBlockTableRecord
  2
*D12
  0
ENDTAB
  0
ENDSEC
  0
SECTION
  2
BLOCKS
  0
BLOCK
  5
1B
330
1A
100
AcDbEntity
  8
0
100
AcDbBlockBegin
  2
*MODEL_SPACE
 70
     0
 10
0.0
 20
0.0
 30
0.0
  3
*MODEL_SPACE
  1

  0
ENDBLK
  5
1C
330
1A
100
AcDbEntity
  8
0
100
AcDbBlockEnd
  0
BLOCK
  5
18
330
17
100
AcDbEntity
 67
     1
  8
0
100
AcDbBlockBegin
  2
*PAPER_SPACE
 70
     0
 10
0.0
 20
0.0
 30
0.0
  3
*PAPER_SPACE
  1

  0
ENDBLK
  5
19
330
17
100
AcDbEntity
 67
     1
  8
0
100
AcDbBlockEnd
  0
BLOCK
  5
B3
330
B2
100
AcDbEntity
  8
0
100
AcDbBlockBegin
  2
_OPEN
 70
     0
 10
0.0
 20
0.0
 30
0.0
  3
_OPEN
  1

  0
LINE
  5
B4
330
B2
100
AcDbEntity
  8
0
  6
BYBLOCK
 62
     0
100
AcDbLine
 10
-1.0
 20
0.1666666666666666
 30
0.0
 11
0.0
 21
0.0
 31
0.0
  0
LINE
  5
B5
330
B2
100
AcDbEntity
  8
0
  6
BYBLOCK
 62
     0
100
AcDbLine
 10
0.0
 20
0.0
 30
0.0
 11
-1.0
 21
-0.1666666666666666
 31
0.0
  0
LINE
  5
B6
330
B2
100
AcDbEntity
  8
0
  6
BYBLOCK
 62
     0
100
AcDbLine
 10
0.0
 20
0.0
 30
0.0
 11
-1.0
 21
0.0
 31
0.0
  0
ENDBLK
  5
B7
330
B2
100
AcDbEntity
  8
0
100
AcDbBlockEnd
  0
BLOCK
  5
CFE
330
CF4
100
AcDbEntity
  8
0
100
AcDbBlockBegin
  2
*D1
 70
     1
 10
0.0
 20
0.0
 30
0.0
  3
*D1
  1

  0
LINE
  5
FF4
330
CF4
100
AcDbEntity
  8
SUNPOU
100
AcDbLine
 10
122.5099012519736
 20
210.3985329750672
 30
0.0
 11
93.56735150804095
 21
210.3985329750672
 31
0.0
  0
LINE
  5
FF5
330
CF4
100
AcDbEntity
  8
SUNPOU
100
AcDbLine
 10
221.7554989448694
 20
74.73533356341978
 30
0.0
 11
93.56735150804091
 21
74.73533356341983
 31
0.0
  0
LINE
  5
FF6
330
CF4
100
AcDbEntity
  8
SUNPOU
100
AcDbLine
 10
95.06735150804095
 20
207.3985329750672
 30
0.0
 11
95.06735150804091
 21
77.73533356341983
 31
0.0
  0
INSERT
  5
FF7
330
CF4
100
AcDbEntity
  8
SUNPOU
100
AcDbBlockReference
  2
_OPEN
 10
95.06735150804095
 20
210.3985329750672
 30
0.0
 41
3.0
 42
3.0
 43
3.0
 50
90.0
  0
INSERT
  5
FF8
330
CF4
100
AcDbEntity
  8
SUNPOU
100
AcDbBlockReference
  2
_OPEN
 10
95.06735150804091
 20
74.73533356341983
 30
0.0
 41
3.0
 42
3.0
 43
3.0
 50
270.0
  0
MTEXT
  5
FF9
330
CF4
100
AcDbEntity
  8
SUNPOU
100
AcDbMText
 10
92.56735150804091
 20
142.5669332692435
 30
0.0
 40
3.0
 41
0.0
 71
     5
 72
     1
  1
\A1;136
 11
0.0000000000000001
 21
1.0
 31
0.0
  0
POINT
  5
FFA
330
CF4
100
AcDbEntity
  8
DEFPOINTS
 62
     0
100
AcDbPoint
 10
125.5099012519736
 20
210.3985329750672
 30
0.0
  0
POINT
  5
FFB
330
CF4
100
AcDbEntity
  8
DEFPOINTS
 62
     0
100
AcDbPoint
 10
224.7554989448694
 20
74.73533356341977
 30
0.0
  0
POINT
  5
FFC
330
CF4
100
AcDbEntity
  8
DEFPOINTS
 62
     0
100
AcDbPoint
 10
95.06735150804091
 20
74.73533356341983
 30
0.0
  0
ENDBLK
  5
CFF
330
CF4
100
AcDbEntity
  8
0
100
AcDbBlockEnd
  0
BLOCK
  5
D0A
330
D00
100
AcDbEntity
  8
0
100
AcDbBlockBegin
  2
*D2
 70
     1
 10
0.0
 20
0.0
 30
0.0
  3
*D2
  1

  0
LINE
  5
FFD
330
D00
100
AcDbEntity
  8
SUNPOU
100
AcDbLine
 10
181.5099010409515
 20
72.8745306049127
 30
0.0
 11
181.5099010409515
 21
57.70802697457543
 31
0.0
  0
LINE
  5
FFE
330
D00
100
AcDbEntity
  8
SUNPOU
100
AcDbLine
 10
268.0099010409524
 20
72.46759532055079
 30
0.0
 11
268.0099010409524
 21
57.70802697457543
 31
0.0
  0
LINE
  5
FFF
330
D00
100
AcDbEntity
  8
SUNPOU
100
AcDbLine
 10
184.5099010409514
 20
59.20802697457543
 30
0.0
 11
265.0099010409524
 21
59.20802697457543
 31
0.0
  0
INSERT
  5
1000
330
D00
100
AcDbEntity
  8
SUNPOU
100
AcDbBlockReference
  2
_OPEN
 10
181.5099010409515
 20
59.20802697457543
 30
0.0
 41
3.0
 42
3.0
 43
3.0
 50
180.0
  0
INSERT
  5
1001
330
D00
100
AcDbEntity
  8
SUNPOU
100
AcDbBlockReference
  2
_OPEN
 10
268.0099010409524
 20
59.20802697457543
 30
0.0
 41
3.0
 42
3.0
 43
3.0
  0
MTEXT
  5
1002
330
D00
100
AcDbEntity
  8
SUNPOU
100
AcDbMText
 10
224.7599010409519
 20
61.70802697457543
 30
0.0
 40
3.0
 41
0.0
 71
     5
 72
     1
  1
\A1;87
  0
POINT
  5
1003
330
D00
100
AcDbEntity
  8
DEFPOINTS
 62
     0
100
AcDbPoint
 10
181.5099010409515
 20
75.8745306049127
 30
0.0
  0
POINT
  5
1004
330
D00
100
AcDbEntity
  8
DEFPOINTS
 62
     0
100
AcDbPoint
 10
268.0099010409524
 20
75.4675953205508
 30
0.0
  0
POINT
  5
1005
330
D00
100
AcDbEntity
  8
DEFPOINTS
 62
     0
100
AcDbPoint
 10
268.0099010409524
 20
59.20802697457543
 30
0.0
  0
ENDBLK
  5
D0B
330
D00
100
AcDbEntity
  8
0
100
AcDbBlockEnd
  0
BLOCK
  5
D16
330
D0C
100
AcDbEntity
  8
0
100
AcDbBlockBegin
  2
*D3
 70
     1
 10
0.0
 20
0.0
 30
0.0
  3
*D3
  1

  0
LINE
  5
1006
330
D0C
100
AcDbEntity
  8
SUNPOU
100
AcDbLine
 10
277.7763218625044
 20
156.9255505592566
 30
0.0
 11
277.7763218625044
 21
239.3360682445251
 31
0.0
  0
LINE
  5
1007
330
D0C
100
AcDbEntity
  8
SUNPOU
100
AcDbLine
 10
124.5099012519736
 20
212.3985331644705
 30
0.0
 11
124.5099012519736
 21
239.3360682445251
 31
0.0
  0
LINE
  5
1008
330
D0C
100
AcDbEntity
  8
SUNPOU
100
AcDbLine
 10
274.7763218625044
 20
237.8360682445251
 30
0.0
 11
127.5099012519736
 21
237.8360682445251
 31
0.0
  0
INSERT
  5
1009
330
D0C
100
AcDbEntity
  8
SUNPOU
100
AcDbBlockReference
  2
_OPEN
 10
277.7763218625044
 20
237.8360682445251
 30
0.0
 41
3.0
 42
3.0
 43
3.0
  0
INSERT
  5
100A
330
D0C
100
AcDbEntity
  8
SUNPOU
100
AcDbBlockReference
  2
_OPEN
 10
124.5099012519736
 20
237.8360682445251
 30
0.0
 41
3.0
 42
3.0
 43
3.0
 50
180.0
  0
MTEXT
  5
100B
330
D0C
100
AcDbEntity
  8
SUNPOU
100
AcDbMText
 10
201.143111557239
 20
240.3360682445251
 30
0.0
 40
3.0
 41
0.0
 71
     5
 72
     1
  1
\A1;153
  0
POINT
  5
100C
330
D0C
100
AcDbEntity
  8
DEFPOINTS
 62
     0
100
AcDbPoint
 10
277.7763218625044
 20
153.9255505592566
 30
0.0
  0
POINT
  5
100D
330
D0C
100
AcDbEntity
  8
DEFPOINTS
 62
     0
100
AcDbPoint
 10
124.5099012519736
 20
209.3985331644705
 30
0.0
  0
POINT
  5
100E
330
D0C
100
AcDbEntity
  8
DEFPOINTS
 62
     0
100
AcDbPoint
 10
124.5099012519736
 20
237.8360682445251
 30
0.0
  0
ENDBLK
  5
D17
330
D0C
100
AcDbEntity
  8
0
100
AcDbBlockEnd
  0
BLOCK
  5
D24
330
D18
100
AcDbEntity
  8
0
100
AcDbBlockBegin
  2
*D4
 70
     1
 10
0.0
 20
0.0
 30
0.0
  3
*D4
  1

  0
LINE
  5
100F
330
D18
100
AcDbEntity
  8
SUNPOU
100
AcDbLine
 10
163.1623409412908
 20
113.5594007461662
 30
0.0
 11
163.7298551911227
 21
111.9614491241809
 31
0.0
  0
LINE
  5
1010
330
D18
100
AcDbEntity
  8
SUNPOU
100
AcDbLine
 10
164.6700768442434
 20
114.0948747856403
 30
0.0
 11
165.2375910940753
 21
112.496923163655
 31
0.0
  0
LINE
  5
1011
330
D18
100
AcDbEntity
  8
SUNPOU
100
AcDbLine
 10
160.4008434610816
 20
112.3709377091846
 30
0.0
 11
157.5738386430471
 21
111.3669238851711
 31
0.0
  0
LINE
  5
1012
330
D18
100
AcDbEntity
  8
SUNPOU
100
AcDbLine
 10
167.562589000103
 20
114.9144393966857
 30
0.0
 11
170.3895938181374
 21
115.9184532206992
 31
0.0
  0
MTEXT
  5
1013
330
D18
100
AcDbEntity
  8
SUNPOU
100
AcDbMText
 10
152.0358763288061
 20
111.9505452658275
 30
0.0
 40
3.0
 41
0.0
 71
     5
 72
     1
  1
\A1;t1.6
 11
0.9423349393448093
 21
0.3346712746711533
 31
0.0
  0
LINE
  5
1014
330
D18
100
AcDbEntity
  8
SUNPOU
100
AcDbLine
 10
163.227848279116
 20
113.3749515331981
 30
0.0
 11
164.7355841820686
 21
113.9104255726722
 31
0.0
  0
INSERT
  5
1015
330
D18
100
AcDbEntity
  8
SUNPOU
100
AcDbBlockReference
  2
_OPEN
 10
163.227848279116
 20
113.3749515331981
 30
0.0
 41
3.0
 42
3.0
 43
3.0
 50
19.55254957254254
  0
INSERT
  5
1016
330
D18
100
AcDbEntity
  8
SUNPOU
100
AcDbBlockReference
  2
_OPEN
 10
164.7355841820686
 20
113.9104255726722
 30
0.0
 41
3.0
 42
3.0
 43
3.0
 50
199.5525495725425
  0
POINT
  5
1017
330
D18
100
AcDbEntity
  8
DEFPOINTS
 62
     0
100
AcDbPoint
 10
162.1583271172774
 20
116.3864055642006
 30
0.0
  0
POINT
  5
1018
330
D18
100
AcDbEntity
  8
DEFPOINTS
 62
     0
100
AcDbPoint
 10
163.6660630202299
 20
116.9218796036747
 30
0.0
  0
POINT
  5
1019
330
D18
100
AcDbEntity
  8
DEFPOINTS
 62
     0
100
AcDbPoint
 10
164.7355841820686
 20
113.9104255726722
 30
0.0
  0
ENDBLK
  5
D25
330
D18
100
AcDbEntity
  8
0
100
AcDbBlockEnd
  0
BLOCK
  5
D30
330
D26
100
AcDbEntity
  8
0
100
AcDbBlockBegin
  2
*D5
 70
     1
 10
0.0
 20
0.0
 30
0.0
  3
*D5
  1

  0
LINE
  5
101A
330
D26
100
AcDbEntity
  8
SUNPOU
100
AcDbLine
 10
168.9099010409764
 20
84.72426780265436
 30
0.0
 11
145.6106727809269
 21
84.72426780265438
 31
0.0
  0
LINE
  5
101B
330
D26
100
AcDbEntity
  8
SUNPOU
100
AcDbLine
 10
178.5099010409514
 20
75.8745306049127
 30
0.0
 11
145.6106727809269
 21
75.87453060491272
 31
0.0
  0
LINE
  5
101C
330
D26
100
AcDbEntity
  8
SUNPOU
100
AcDbLine
 10
147.1106727809269
 20
81.72426780265437
 30
0.0
 11
147.1106727809269
 21
78.87453060491272
 31
0.0
  0
INSERT
  5
101D
330
D26
100
AcDbEntity
  8
SUNPOU
100
AcDbBlockReference
  2
_OPEN
 10
147.1106727809269
 20
84.72426780265438
 30
0.0
 41
3.0
 42
3.0
 43
3.0
 50
90.0
  0
INSERT
  5
101E
330
D26
100
AcDbEntity
  8
SUNPOU
100
AcDbBlockReference
  2
_OPEN
 10
147.1106727809269
 20
75.87453060491272
 30
0.0
 41
3.0
 42
3.0
 43
3.0
 50
270.0
  0
MTEXT
  5
101F
330
D26
100
AcDbEntity
  8
SUNPOU
100
AcDbMText
 10
144.6106727809269
 20
80.29939920378357
 30
0.0
 40
3.0
 41
0.0
 71
     5
 72
     1
  1
\A1;9
 11
0.0000000000000001
 21
1.0
 31
0.0
  0
POINT
  5
1020
330
D26
100
AcDbEntity
  8
DEFPOINTS
 62
     0
100
AcDbPoint
 10
171.9099010409764
 20
84.72426780265436
 30
0.0
  0
POINT
  5
1021
330
D26
100
AcDbEntity
  8
DEFPOINTS
 62
     0
100
AcDbPoint
 10
181.5099010409515
 20
75.8745306049127
 30
0.0
  0
POINT
  5
1022
330
D26
100
AcDbEntity
  8
DEFPOINTS
 62
     0
100
AcDbPoint
 10
147.1106727809269
 20
75.87453060491272
 30
0.0
  0
ENDBLK
  5
D31
330
D26
100
AcDbEntity
  8
0
100
AcDbBlockEnd
  0
BLOCK
  5
D3C
330
D32
100
AcDbEntity
  8
0
100
AcDbBlockBegin
  2
*D6
 70
     1
 10
0.0
 20
0.0
 30
0.0
  3
*D6
  1

  0
LINE
  5
1023
330
D32
100
AcDbEntity
  8
SUNPOU
100
AcDbLine
 10
171.9099010409764
 20
81.72426780265437
 30
0.0
 11
171.9099010409764
 21
57.70802697457543
 31
0.0
  0
LINE
  5
1024
330
D32
100
AcDbEntity
  8
SUNPOU
100
AcDbLine
 10
181.5099010409515
 20
72.8745306049127
 30
0.0
 11
181.5099010409515
 21
57.70802697457543
 31
0.0
  0
LINE
  5
1025
330
D32
100
AcDbEntity
  8
SUNPOU
100
AcDbLine
 10
174.9099010409764
 20
59.20802697457543
 30
0.0
 11
178.5099010409514
 21
59.20802697457543
 31
0.0
  0
INSERT
  5
1026
330
D32
100
AcDbEntity
  8
SUNPOU
100
AcDbBlockReference
  2
_OPEN
 10
171.9099010409764
 20
59.20802697457543
 30
0.0
 41
3.0
 42
3.0
 43
3.0
 50
180.0
  0
INSERT
  5
1027
330
D32
100
AcDbEntity
  8
SUNPOU
100
AcDbBlockReference
  2
_OPEN
 10
181.5099010409515
 20
59.20802697457543
 30
0.0
 41
3.0
 42
3.0
 43
3.0
  0
MTEXT
  5
1028
330
D32
100
AcDbEntity
  8
SUNPOU
100
AcDbMText
 10
176.7099010409639
 20
61.70802697457543
 30
0.0
 40
3.0
 41
0.0
 71
     5
 72
     1
  1
\A1;10
  0
POINT
  5
1029
330
D32
100
AcDbEntity
  8
DEFPOINTS
 62
     0
100
AcDbPoint
 10
171.9099010409764
 20
84.72426780265436
 30
0.0
  0
POINT
  5
102A
330
D32
100
AcDbEntity
  8
DEFPOINTS
 62
     0
100
AcDbPoint
 10
181.5099010409515
 20
75.8745306049127
 30
0.0
  0
POINT
  5
102B
330
D32
100
AcDbEntity
  8
DEFPOINTS
 62
     0
100
AcDbPoint
 10
181.5099010409515
 20
59.20802697457543
 30
0.0
  0
ENDBLK
  5
D3D
330
D32
100
AcDbEntity
  8
0
100
AcDbBlockEnd
  0
BLOCK
  5
D48
330
D3E
100
AcDbEntity
  8
0
100
AcDbBlockBegin
  2
*D7
 70
     1
 10
0.0
 20
0.0
 30
0.0
  3
*D7
  1

  0
LINE
  5
102C
330
D3E
100
AcDbEntity
  8
SUNPOU
100
AcDbLine
 10
124.5099012519736
 20
212.3985331644706
 30
0.0
 11
124.5099012519736
 21
231.5933271386697
 31
0.0
  0
LINE
  5
102D
330
D3E
100
AcDbEntity
  8
SUNPOU
100
AcDbLine
 10
150.5098995431076
 20
203.3761667154933
 30
0.0
 11
150.5098995431076
 21
231.5933271386697
 31
0.0
  0
LINE
  5
102E
330
D3E
100
AcDbEntity
  8
SUNPOU
100
AcDbLine
 10
127.5099012519736
 20
230.0933271386698
 30
0.0
 11
147.5098995431076
 21
230.0933271386698
 31
0.0
  0
INSERT
  5
102F
330
D3E
100
AcDbEntity
  8
SUNPOU
100
AcDbBlockReference
  2
_OPEN
 10
124.5099012519736
 20
230.0933271386698
 30
0.0
 41
3.0
 42
3.0
 43
3.0
 50
180.0
  0
INSERT
  5
1030
330
D3E
100
AcDbEntity
  8
SUNPOU
100
AcDbBlockReference
  2
_OPEN
 10
150.5098995431076
 20
230.0933271386698
 30
0.0
 41
3.0
 42
3.0
 43
3.0
  0
MTEXT
  5
1031
330
D3E
100
AcDbEntity
  8
SUNPOU
100
AcDbMText
 10
137.5099003975406
 20
232.5933271386698
 30
0.0
 40
3.0
 41
0.0
 71
     5
 72
     1
  1
\A1;26
  0
POINT
  5
1032
330
D3E
100
AcDbEntity
  8
DEFPOINTS
 62
     0
100
AcDbPoint
 10
124.5099012519736
 20
209.3985331644706
 30
0.0
  0
POINT
  5
1033
330
D3E
100
AcDbEntity
  8
DEFPOINTS
 62
     0
100
AcDbPoint
 10
150.5098995431076
 20
200.3761667154933
 30
0.0
  0
POINT
  5
1034
330
D3E
100
AcDbEntity
  8
DEFPOINTS
 62
     0
100
AcDbPoint
 10
150.5098995431076
 20
230.0933271386698
 30
0.0
  0
ENDBLK
  5
D49
330
D3E
100
AcDbEntity
  8
0
100
AcDbBlockEnd
  0
BLOCK
  5
D62
330
D56
100
AcDbEntity
  8
0
100
AcDbBlockBegin
  2
*D9
 70
     1
 10
0.0
 20
0.0
 30
0.0
  3
*D9
  1

  0
LINE
  5
1035
330
D56
100
AcDbEntity
  8
SUNPOU
100
AcDbLine
 10
124.5099012519736
 20
212.3985331644706
 30
0.0
 11
124.5099012519736
 21
222.7427815005562
 31
0.0
  0
LINE
  5
1036
330
D56
100
AcDbEntity
  8
SUNPOU
100
AcDbLine
 10
131.5099011242628
 20
211.72426290722
 30
0.0
 11
131.5099011242628
 21
222.7427815005562
 31
0.0
  0
LINE
  5
1037
330
D56
100
AcDbEntity
  8
SUNPOU
100
AcDbLine
 10
121.5099012519736
 20
221.2427815005562
 30
0.0
 11
118.5099012519736
 21
221.2427815005562
 31
0.0
  0
LINE
  5
1038
330
D56
100
AcDbEntity
  8
SUNPOU
100
AcDbLine
 10
134.5099011242628
 20
221.2427815005562
 30
0.0
 11
137.5099011242628
 21
221.2427815005562
 31
0.0
  0
LINE
  5
1039
330
D56
100
AcDbEntity
  8
SUNPOU
100
AcDbLine
 10
124.5099012519736
 20
221.2427815005562
 30
0.0
 11
131.5099011242628
 21
221.2427815005562
 31
0.0
  0
INSERT
  5
103A
330
D56
100
AcDbEntity
  8
SUNPOU
100
AcDbBlockReference
  2
_OPEN
 10
124.5099012519736
 20
221.2427815005562
 30
0.0
 41
3.0
 42
3.0
 43
3.0
  0
INSERT
  5
103B
330
D56
100
AcDbEntity
  8
SUNPOU
100
AcDbBlockReference
  2
_OPEN
 10
131.5099011242628
 20
221.2427815005562
 30
0.0
 41
3.0
 42
3.0
 43
3.0
 50
180.0
  0
MTEXT
  5
103C
330
D56
100
AcDbEntity
  8
SUNPOU
100
AcDbMText
 10
128.0099011881182
 20
223.7427815005562
 30
0.0
 40
3.0
 41
0.0
 71
     5
 72
     1
  1
\A1;7
  0
POINT
  5
103D
330
D56
100
AcDbEntity
  8
DEFPOINTS
 62
     0
100
AcDbPoint
 10
124.5099012519736
 20
209.3985331644706
 30
0.0
  0
POINT
  5
103E
330
D56
100
AcDbEntity
  8
DEFPOINTS
 62
     0
100
AcDbPoint
 10
131.5099011242628
 20
208.7242629072199
 30
0.0
  0
POINT
  5
103F
330
D56
100
AcDbEntity
  8
DEFPOINTS
 62
     0
100
AcDbPoint
 10
131.5099011242628
 20
221.2427815005562
 30
0.0
  0
ENDBLK
  5
D63
330
D56
100
AcDbEntity
  8
0
100
AcDbBlockEnd
  0
BLOCK
  5
D6E
330
D64
100
AcDbEntity
  8
0
100
AcDbBlockBegin
  2
*D10
 70
     1
 10
0.0
 20
0.0
 30
0.0
  3
*D10
  1

  0
LINE
  5
1040
330
D64
100
AcDbEntity
  8
SUNPOU
100
AcDbLine
 10
267.7065227079343
 20
158.9255505592566
 30
0.0
 11
246.8346187212237
 21
158.9255505592566
 31
0.0
  0
LINE
  5
1041
330
D64
100
AcDbEntity
  8
SUNPOU
100
AcDbLine
 10
259.6099010409521
 20
138.9255505592561
 30
0.0
 11
246.8346187212237
 21
138.9255505592561
 31
0.0
  0
LINE
  5
1042
330
D64
100
AcDbEntity
  8
SUNPOU
100
AcDbLine
 10
248.3346187212237
 20
155.9255505592566
 30
0.0
 11
248.3346187212237
 21
141.9255505592561
 31
0.0
  0
INSERT
  5
1043
330
D64
100
AcDbEntity
  8
SUNPOU
100
AcDbBlockReference
  2
_OPEN
 10
248.3346187212237
 20
158.9255505592566
 30
0.0
 41
3.0
 42
3.0
 43
3.0
 50
90.0
  0
INSERT
  5
1044
330
D64
100
AcDbEntity
  8
SUNPOU
100
AcDbBlockReference
  2
_OPEN
 10
248.3346187212237
 20
138.9255505592561
 30
0.0
 41
3.0
 42
3.0
 43
3.0
 50
270.0
  0
MTEXT
  5
1045
330
D64
100
AcDbEntity
  8
SUNPOU
100
AcDbMText
 10
245.8346187212236
 20
148.9255505592564
 30
0.0
 40
3.0
 41
0.0
 71
     5
 72
     1
  1
\A1;20
 11
0.0000000000000001
 21
1.0
 31
0.0
  0
POINT
  5
1046
330
D64
100
AcDbEntity
  8
DEFPOINTS
 62
     0
100
AcDbPoint
 10
270.7065227079343
 20
158.9255505592566
 30
0.0
  0
POINT
  5
1047
330
D64
100
AcDbEntity
  8
DEFPOINTS
 62
     0
100
AcDbPoint
 10
262.6099010409521
 20
138.9255505592561
 30
0.0
  0
POINT
  5
1048
330
D64
100
AcDbEntity
  8
DEFPOINTS
 62
     0
100
AcDbPoint
 10
248.3346187212237
 20
138.9255505592561
 30
0.0
  0
ENDBLK
  5
D6F
330
D64
100
AcDbEntity
  8
0
100
AcDbBlockEnd
  0
BLOCK
  5
D7A
330
D70
100
AcDbEntity
  8
0
100
AcDbBlockBegin
  2
*D11
 70
     1
 10
0.0
 20
0.0
 30
0.0
  3
*D11
  1

  0
LINE
  5
1049
330
D70
100
AcDbEntity
  8
SUNPOU
100
AcDbLine
 10
275.7763218625046
 20
158.9255505592566
 30
0.0
 11
300.6102383820221
 21
158.9255505592566
 31
0.0
  0
LINE
  5
104A
330
D70
100
AcDbEntity
  8
SUNPOU
100
AcDbLine
 10
227.7554989448694
 20
74.73533356341977
 30
0.0
 11
300.610238382022
 21
74.73533356341976
 31
0.0
  0
LINE
  5
104B
330
D70
100
AcDbEntity
  8
SUNPOU
100
AcDbLine
 10
299.1102383820221
 20
155.9255505592566
 30
0.0
 11
299.1102383820221
 21
77.73533356341975
 31
0.0
  0
INSERT
  5
104C
330
D70
100
AcDbEntity
  8
SUNPOU
100
AcDbBlockReference
  2
_OPEN
 10
299.1102383820221
 20
158.9255505592566
 30
0.0
 41
3.0
 42
3.0
 43
3.0
 50
90.0
  0
INSERT
  5
104D
330
D70
100
AcDbEntity
  8
SUNPOU
100
AcDbBlockReference
  2
_OPEN
 10
299.1102383820221
 20
74.73533356341976
 30
0.0
 41
3.0
 42
3.0
 43
3.0
 50
270.0
  0
MTEXT
  5
104E
330
D70
100
AcDbEntity
  8
SUNPOU
100
AcDbMText
 10
296.610238382022
 20
116.8304420613382
 30
0.0
 40
3.0
 41
0.0
 71
     5
 72
     1
  1
\A1;84
 11
0.0000000000000001
 21
1.0
 31
0.0
  0
POINT
  5
104F
330
D70
100
AcDbEntity
  8
DEFPOINTS
 62
     0
100
AcDbPoint
 10
272.7763218625046
 20
158.9255505592566
 30
0.0
  0
POINT
  5
1050
330
D70
100
AcDbEntity
  8
DEFPOINTS
 62
     0
100
AcDbPoint
 10
224.7554989448694
 20
74.73533356341977
 30
0.0
  0
POINT
  5
1051
330
D70
100
AcDbEntity
  8
DEFPOINTS
 62
     0
100
AcDbPoint
 10
299.1102383820221
 20
74.73533356341976
 30
0.0
  0
ENDBLK
  5
D7B
330
D70
100
AcDbEntity
  8
0
100
AcDbBlockEnd
  0
BLOCK
  5
D88
330
D7C
100
AcDbEntity
  8
0
100
AcDbBlockBegin
  2
*D12
 70
     1
 10
0.0
 20
0.0
 30
0.0
  3
*D12
  1

  0
LINE
  5
1052
330
D7C
100
AcDbEntity
  8
SUNPOU
100
AcDbLine
 10
277.7763218625044
 20
156.9255505592566
 30
0.0
 11
277.7763218625044
 21
179.3818029708986
 31
0.0
  0
LINE
  5
1053
330
D7C
100
AcDbEntity
  8
SUNPOU
100
AcDbLine
 10
270.0102800935807
 20
161.9255505592566
 30
0.0
 11
270.0102800935807
 21
179.3818029708986
 31
0.0
  0
LINE
  5
1054
330
D7C
100
AcDbEntity
  8
SUNPOU
100
AcDbLine
 10
280.7763218625044
 20
177.8818029708986
 30
0.0
 11
283.7763218625044
 21
177.8818029708986
 31
0.0
  0
LINE
  5
1055
330
D7C
100
AcDbEntity
  8
SUNPOU
100
AcDbLine
 10
267.0102800935807
 20
177.8818029708986
 30
0.0
 11
264.0102800935807
 21
177.8818029708986
 31
0.0
  0
LINE
  5
1056
330
D7C
100
AcDbEntity
  8
SUNPOU
100
AcDbLine
 10
277.7763218625044
 20
177.8818029708986
 30
0.0
 11
270.0102800935807
 21
177.8818029708986
 31
0.0
  0
INSERT
  5
1057
330
D7C
100
AcDbEntity
  8
SUNPOU
100
AcDbBlockReference
  2
_OPEN
 10
277.7763218625044
 20
177.8818029708986
 30
0.0
 41
3.0
 42
3.0
 43
3.0
 50
180.0
  0
INSERT
  5
1058
330
D7C
100
AcDbEntity
  8
SUNPOU
100
AcDbBlockReference
  2
_OPEN
 10
270.0102800935807
 20
177.8818029708986
 30
0.0
 41
3.0
 42
3.0
 43
3.0
  0
MTEXT
  5
1059
330
D7C
100
AcDbEntity
  8
SUNPOU
100
AcDbMText
 10
273.8933009780426
 20
180.3818029708986
 30
0.0
 40
3.0
 41
0.0
 71
     5
 72
     1
  1
\A1;8
  0
POINT
  5
105A
330
D7C
100
AcDbEntity
  8
DEFPOINTS
 62
     0
100
AcDbPoint
 10
277.7763218625044
 20
153.9255505592566
 30
0.0
  0
POINT
  5
105B
330
D7C
100
AcDbEntity
  8
DEFPOINTS
 62
     0
100
AcDbPoint
 10
270.0102800935807
 20
158.9255505592566
 30
0.0
  0
POINT
  5
105C
330
D7C
100
AcDbEntity
  8
DEFPOINTS
 62
     0
100
AcDbPoint
 10
270.0102800935807
 20
177.8818029708986
 30
0.0
  0
ENDBLK
  5
D89
330
D7C
100
AcDbEntity
  8
0
100
AcDbBlockEnd
  0
ENDSEC
  0
SECTION
  2
ENTITIES
  0
LWPOLYLINE
  5
ABF
330
1A
100
AcDbEntity
  8
ZUWAKU
100
AcDbPolyline
 90
        4
 70
     1
 43
0.0
 10
0.3999995171010369
 20
275.3999999613564
 10
0.3999995171010369
 20
0.3999999613564
 10
398.399999517101
 20
0.3999999613564
 10
398.399999517101
 20
275.3999999613564
  0
LWPOLYLINE
  5
AC0
330
1A
100
AcDbEntity
  8
ZUWAKU
100
AcDbPolyline
 90
        4
 70
     1
 43
0.0
 10
0.1999995171010482
 20
275.5999999613564
 10
0.1999995171010482
 20
0.1999999613564114
 10
398.5999995171011
 20
0.1999999613563998
 10
398.5999995171011
 20
275.5999999613564
  0
LWPOLYLINE
  5
AC1
330
1A
100
AcDbEntity
  8
ZUWAKU
100
AcDbPolyline
 90
        4
 70
     1
 43
0.0
 10
-0.0000004828989404
 20
275.7999999613563
 10
-0.0000004828989404
 20
-0.0000000386436341
 10
398.7999995171011
 20
-0.0000000386436003
 10
398.7999995171011
 20
275.7999999613564
  0
LWPOLYLINE
  5
AC2
330
1A
100
AcDbEntity
  8
ZUWAKU
100
AcDbPolyline
 90
        4
 70
     1
 43
0.0
 10
0.2999995171010141
 20
275.4999999613564
 10
0.2999995171010141
 20
0.2999999613563773
 10
398.4999995171012
 20
0.2999999613564004
 10
398.499999517101
 20
275.4999999613564
  0
LWPOLYLINE
  5
AC3
330
1A
100
AcDbEntity
  8
ZUWAKU
100
AcDbPolyline
 90
        4
 70
     1
 43
0.0
 10
0.0999995171010255
 20
275.6999999613564
 10
0.0999995171010255
 20
0.0999999613563887
 10
398.6999995171009
 20
0.0999999613564002
 10
398.6999995171011
 20
275.6999999613564
  0
LINE
  5
AC4
330
1A
100
AcDbEntity
  8
ZUWAKU
100
AcDbLine
 10
-0.0000004828990541
 20
29.59999996135633
 30
0.0
 11
398.6999995171008
 21
29.59999996135633
 31
0.0
  0
LINE
  5
AC5
330
1A
100
AcDbEntity
  8
ZUWAKU
100
AcDbLine
 10
-0.0000004828990541
 20
29.69999996135633
 30
0.0
 11
398.6999995171008
 21
29.69999996135633
 31
0.0
  0
LINE
  5
AC6
330
1A
100
AcDbEntity
  8
ZUWAKU
100
AcDbLine
 10
-0.0000004828990541
 20
29.79999996135633
 30
0.0
 11
398.6999995171008
 21
29.79999996135633
 31
0.0
  0
LINE
  5
AC7
330
1A
100
AcDbEntity
  8
ZUWAKU
100
AcDbLine
 10
-0.0000004828990541
 20
29.89999996135633
 30
0.0
 11
398.6999995171008
 21
29.89999996135633
 31
0.0
  0
LINE
  5
AC8
330
1A
100
AcDbEntity
  8
ZUWAKU
100
AcDbLine
 10
-0.0000004828990541
 20
29.99999996135633
 30
0.0
 11
398.6999995171008
 21
29.99999996135633
 31
0.0
  0
LINE
  5
AC9
330
1A
100
AcDbEntity
  8
ZUWAKU
100
AcDbLine
 10
104.323300162135
 20
22.29999996135635
 30
0.0
 11
223.7121815025967
 21
22.29999996135635
 31
0.0
  0
LINE
  5
ACA
330
1A
100
AcDbEntity
  8
ZUWAKU
100
AcDbLine
 10
104.323300162135
 20
22.39999996135634
 30
0.0
 11
223.7121815025967
 21
22.39999996135634
 31
0.0
  0
LINE
  5
ACB
330
1A
100
AcDbEntity
  8
ZUWAKU
100
AcDbLine
 10
104.323300162135
 20
22.19999996135635
 30
0.0
 11
223.7121815025967
 21
22.19999996135634
 31
0.0
  0
TEXT
  5
ACC
330
1A
100
AcDbEntity
  8
MOJI
100
AcDbText
 10
46.47889431118552
 20
13.47058902649373
 30
0.0
 40
3.0
  1
アートフェイスＶＭ１６０
 41
0.9
  7
ｽﾀｲﾙ1
100
AcDbText
  0
CIRCLE
  5
ACD
330
1A
100
AcDbEntity
  8
ZUWAKU
100
AcDbCircle
 10
12.99610559449151
 20
14.69999996135635
 30
0.0
 40
0.875
  0
LINE
  5
ACE
330
1A
100
AcDbEntity
  8
ZUWAKU
100
AcDbLine
 10
13.43360559449151
 20
10.67499996135635
 30
0.0
 11
12.47110559449153
 21
10.67499996135635
 31
0.0
  0
LINE
  5
ACF
330
1A
100
AcDbEntity
  8
ZUWAKU
100
AcDbLine
 10
12.47110559449153
 20
12.07499996135635
 30
0.0
 11
13.43360559449151
 21
12.07499996135635
 31
0.0
  0
LINE
  5
AD0
330
1A
100
AcDbEntity
  8
ZUWAKU
100
AcDbLine
 10
13.43360559449151
 20
17.32499996135635
 30
0.0
 11
12.47110559449153
 21
17.32499996135635
 31
0.0
  0
LINE
  5
AD1
330
1A
100
AcDbEntity
  8
ZUWAKU
100
AcDbLine
 10
12.47110559449153
 20
18.72499996135633
 30
0.0
 11
13.43360559449151
 21
18.72499996135635
 31
0.0
  0
HATCH
  5
AD2
330
1A
100
AcDbEntity
  8
ZUWAKU
100
AcDbHatch
 10
0.0
 20
0.0
 30
0.0
210
0.0
220
0.0
230
1.0
  2
ANSI37
 70
     0
 71
     0
 91
        8
 92
        7
 72
     1
 73
     1
 93
       24
 10
7.251130847660888
 20
15.92242420184814
 42
-0.1989123673796348
 10
7.046105594491521
 20
16.41739894867867
 42
0.0
 10
7.046105594491521
 20
17.06249996135635
 42
-0.4142135623730912
 10
7.30860559449151
 20
17.32499996135635
 42
0.0
 10
8.796105594491464
 20
17.32499996135635
 42
0.4142135623731546
 10
9.05860559449151
 20
17.58749996135635
 42
0.0
 10
9.05860559449151
 20
18.46249996135635
 42
0.4142135623731586
 10
8.796105594491464
 20
18.72499996135635
 42
0.0
 10
7.046105594491521
 20
18.72499996135635
 42
0.4142135623730928
 10
5.646105594491544
 20
17.32499996135636
 42
0.0
 10
5.646105594491544
 20
16.41739894867873
 42
0.1989123673796619
 10
6.261181353999759
 20
14.93247470818693
 42
0.0
 10
7.716080341322097
 20
13.4775757208646
 42
-0.1989123673796613
 10
7.921105594491521
 20
12.982600974034
 42
0.0
 10
7.921105594491521
 20
12.33749996135635
 42
-0.4142135623730911
 10
7.658605594491532
 20
12.07499996135635
 42
0.0
 10
6.171105594491578
 20
12.07499996135635
 42
0.4142135623731526
 10
5.908605594491532
 20
11.81249996135636
 42
0.0
 10
5.908605594491532
 20
10.93749996135634
 42
0.4142135623731526
 10
6.171105594491578
 20
10.67499996135635
 42
0.0
 10
7.921105594491521
 20
10.67499996135635
 42
0.4142135623731044
 10
9.321105594491555
 20
12.07499996135634
 42
0.0
 10
9.321105594491555
 20
12.98260097403398
 42
0.1989123673796604
 10
8.706029834983283
 20
14.46752521452575
 42
0.0
 97
        0
 92
        7
 72
     1
 73
     1
 93
       16
 10
11.77110559449154
 20
16.62499996135635
 42
-0.4142135623730935
 10
12.47110559449153
 20
17.32499996135635
 42
0.0
 10
13.43360559449151
 20
17.32499996135635
 42
0.4142135623731546
 10
13.69610559449155
 20
17.58749996135635
 42
0.0
 10
13.69610559449155
 20
18.46249996135635
 42
0.4142135623730951
 10
13.43360559449156
 20
18.72499996135635
 42
0.0
 10
12.47110559449147
 20
18.72499996135633
 42
0.4142135623730892
 10
10.3711055944915
 20
16.62499996135632
 42
0.0
 10
10.3711055944915
 20
12.77499996135636
 42
0.4142135623730969
 10
12.47110559449153
 20
10.67499996135635
 42
0.0
 10
13.43360559449151
 20
10.67499996135635
 42
0.4142135623731526
 10
13.69610559449155
 20
10.93749996135634
 42
0.0
 10
13.69610559449155
 20
11.81249996135636
 42
0.4142135623730891
 10
13.43360559449156
 20
12.07499996135635
 42
0.0
 10
12.47110559449153
 20
12.07499996135635
 42
-0.4142135623730928
 10
11.77110559449154
 20
12.77499996135635
 42
0.0
 97
        0
 92
        7
 72
     1
 73
     1
 93
        2
 10
12.12110559449151
 20
14.69999996135635
 42
1.0
 10
13.87110559449151
 20
14.69999996135635
 42
1.0
 97
        0
 92
        7
 72
     1
 73
     1
 93
       26
 10
18.65742883558051
 20
16.70252355813806
 42
0.0
 10
19.18824865214942
 20
18.38345297727286
 42
0.5069206636600134
 10
18.93793320255174
 20
18.72499996135635
 42
0.0
 10
18.08848851274713
 20
18.72499996135635
 42
0.3272098845218764
 10
17.83817306314945
 20
18.54154694543984
 42
0.0
 10
16.90403812583356
 20
15.58345297727289
 42
-0.3272098845219541
 10
16.65372267623583
 20
15.39999996135635
 42
0.0
 10
16.5836055944916
 20
15.39999996135635
 42
-0.4142135623731526
 10
16.32110559449155
 20
15.66249996135634
 42
0.0
 10
16.32110559449155
 20
18.46249996135635
 42
0.4142135623730951
 10
16.05860559449156
 20
18.72499996135635
 42
0.0
 10
15.18360559449151
 20
18.72499996135635
 42
0.4142135623730871
 10
14.92110559449152
 20
18.46249996135636
 42
0.0
 10
14.92110559449152
 20
10.93749996135634
 42
0.4142135623730891
 10
15.18360559449151
 20
10.67499996135635
 42
0.0
 10
16.05860559449151
 20
10.67499996135635
 42
0.4142135623731526
 10
16.32110559449155
 20
10.93749996135634
 42
0.0
 10
16.32110559449155
 20
13.73749996135636
 42
-0.4142135623731526
 10
16.5836055944916
 20
13.99999996135635
 42
0.0
 10
16.65372267623588
 20
13.99999996135635
 42
-0.3272098845218915
 10
16.90403812583356
 20
13.81654694543981
 42
0.0
 10
17.83817306314945
 20
10.85845297727289
 42
0.3272098845218902
 10
18.08848851274713
 20
10.67499996135635
 42
0.0
 10
18.93793320255174
 20
10.67499996135635
 42
0.5069206636600335
 10
19.18824865214942
 20
11.01654694543986
 42
0.0
 10
18.02505296291259
 20
14.69999996135642
 42
0.0
 97
        0
 92
        7
 72
     1
 73
     1
 93
        8
 10
21.7461055944915
 20
18.46249996135636
 42
0.4142135623731546
 10
21.48360559449146
 20
18.72499996135635
 42
0.0
 10
20.60860559449158
 20
18.72499996135635
 42
0.4142135623731507
 10
20.34610559449153
 20
18.46249996135636
 42
0.0
 10
20.34610559449153
 20
10.93749996135634
 42
0.4142135623731526
 10
20.60860559449158
 20
10.67499996135635
 42
0.0
 10
21.48360559449146
 20
10.67499996135635
 42
0.4142135623731526
 10
21.7461055944915
 20
10.93749996135634
 42
0.0
 97
        0
 92
        7
 72
     1
 73
     1
 93
       24
 10
24.19610559449155
 20
17.06249996135635
 42
-0.4142135623731546
 10
24.4586055944916
 20
17.32499996135635
 42
0.0
 10
25.94610559449155
 20
17.32499996135635
 42
0.4142135623730911
 10
26.20860559449154
 20
17.58749996135635
 42
0.0
 10
26.20860559449154
 20
18.46249996135635
 42
0.4142135623730952
 10
25.94610559449155
 20
18.72499996135635
 42
0.0
 10
24.19610559449155
 20
18.72499996135635
 42
0.4142135623731048
 10
22.79610559449152
 20
17.32499996135636
 42
0.0
 10
22.79610559449152
 20
16.41739894867873
 42
0.1989123673796613
 10
23.41118135399979
 20
14.93247470818696
 42
0.0
 10
24.86608034132213
 20
13.47757572086462
 42
-0.1989123673796402
 10
25.07110559449155
 20
12.98260097403408
 42
0.0
 10
25.07110559449155
 20
12.33749996135635
 42
-0.4142135623730911
 10
24.80860559449157
 20
12.07499996135635
 42
0.0
 10
23.32110559449155
 20
12.07499996135635
 42
0.4142135623731526
 10
23.05860559449151
 20
11.81249996135636
 42
0.0
 10
23.05860559449151
 20
10.93749996135634
 42
0.4142135623730891
 10
23.32110559449149
 20
10.67499996135635
 42
0.0
 10
25.07110559449155
 20
10.67499996135635
 42
0.4142135623730925
 10
26.47110559449153
 20
12.07499996135634
 42
0.0
 10
26.47110559449153
 20
12.98260097403398
 42
0.1989123673796675
 10
25.85602983498326
 20
14.4675252145258
 42
0.0
 10
24.40113084766098
 20
15.92242420184806
 42
-0.1989123673796652
 10
24.19610559449155
 20
16.41739894867864
 42
0.0
 97
        0
 92
        7
 72
     1
 73
     1
 93
       16
 10
28.92110559449152
 20
18.46249996135635
 42
0.414213562373103
 10
28.65860559449153
 20
18.72499996135635
 42
0.0
 10
27.78360559449153
 20
18.72499996135635
 42
0.4142135623730871
 10
27.52110559449154
 20
18.46249996135636
 42
0.0
 10
27.52110559449154
 20
12.07499996135634
 42
0.4142135623730926
 10
28.92110559449152
 20
10.67499996135635
 42
0.0
 10
30.67110559449152
 20
10.67499996135635
 42
0.4142135623731044
 10
32.07110559449155
 20
12.07499996135634
 42
0.0
 10
32.07110559449155
 20
18.46249996135635
 42
0.4142135623730951
 10
31.80860559449156
 20
18.72499996135635
 42
0.0
 10
30.93360559449151
 20
18.72499996135635
 42
0.4142135623730871
 10
30.67110559449152
 20
18.46249996135636
 42
0.0
 10
30.67110559449152
 20
12.59999996135634
 42
-0.414213562373088
 10
30.14610559449154
 20
12.07499996135635
 42
0.0
 10
29.44610559449155
 20
12.07499996135635
 42
-0.4142135623731197
 10
28.92110559449152
 20
12.59999996135634
 42
0.0
 97
        0
 92
        7
 72
     1
 73
     1
 93
        8
 10
34.52110559449154
 20
18.46249996135636
 42
0.4142135623730871
 10
34.25860559449155
 20
18.72499996135635
 42
0.0
 10
33.38360559449155
 20
18.72499996135635
 42
0.4142135623731507
 10
33.12110559449151
 20
18.46249996135636
 42
0.0
 10
33.12110559449151
 20
10.93749996135634
 42
0.4142135623730891
 10
33.38360559449149
 20
10.67499996135635
 42
0.0
 10
34.25860559449155
 20
10.67499996135635
 42
0.4142135623730891
 10
34.52110559449154
 20
10.93749996135634
 42
0.0
 97
        0
 75
     0
 76
     1
 52
0.0
 41
0.1
 77
     0
 78
     2
 53
45.0
 43
-450.4711526502385
 44
0.4999999613563873
 45
-0.2245064030267288
 46
0.2245064030267288
 79
     0
 53
135.0
 43
-450.4711526502385
 44
0.4999999613563873
 45
-0.2245064030267288
 46
-0.2245064030267288
 79
     0
 47
0.057451373970553
 98
        8
 10
8.039926998612614
 20
14.68358678429913
 10
11.20225702032054
 20
16.52203105258186
 10
12.58218345993078
 20
14.85594078439171
 10
15.45702950791953
 20
15.2006487845771
 10
20.91923552657932
 20
15.43045491834791
 10
23.44909996466573
 20
16.80928811955995
 10
28.27884250330113
 20
16.46457891890386
 10
33.91353932691233
 20
16.69438505267466
  0
ARC
  5
AD3
330
1A
100
AcDbEntity
  8
ZUWAKU
100
AcDbCircle
 10
7.74610559449151
 20
16.4173989486787
 30
0.0
 40
2.099999999999999
100
AcDbArc
 50
180.0
 51
225.0
  0
LINE
  5
AD4
330
1A
100
AcDbEntity
  8
ZUWAKU
100
AcDbLine
 10
10.3711055944915
 20
12.77499996135635
 30
0.0
 11
10.3711055944915
 21
16.62499996135633
 31
0.0
  0
LINE
  5
AD5
330
1A
100
AcDbEntity
  8
ZUWAKU
100
AcDbLine
 10
11.77110559449154
 20
16.62499996135635
 30
0.0
 11
11.77110559449154
 21
12.77499996135635
 31
0.0
  0
ARC
  5
AD6
330
1A
100
AcDbEntity
  8
ZUWAKU
100
AcDbCircle
 10
7.74610559449151
 20
16.4173989486787
 30
0.0
 40
0.7
100
AcDbArc
 50
180.0000000000016
 51
224.9999999999988
  0
ARC
  5
AD7
330
1A
100
AcDbEntity
  8
ZUWAKU
100
AcDbCircle
 10
12.47110559449153
 20
12.77499996135635
 30
0.0
 40
2.099999999999999
100
AcDbArc
 50
180.0
 51
270.0
  0
ARC
  5
AD8
330
1A
100
AcDbEntity
  8
ZUWAKU
100
AcDbCircle
 10
7.921105594491521
 20
12.07499996135635
 30
0.0
 40
1.399999999999999
100
AcDbArc
 50
270.0
 51
0.0
  0
ARC
  5
AD9
330
1A
100
AcDbEntity
  8
ZUWAKU
100
AcDbCircle
 10
7.221105594491532
 20
12.982600974034
 30
0.0
 40
2.099999999999999
100
AcDbArc
 50
0.0
 51
45.0
  0
LINE
  5
ADA
330
1A
100
AcDbEntity
  8
ZUWAKU
100
AcDbLine
 10
6.261181353999759
 20
14.93247470818694
 30
0.0
 11
7.716080341322097
 21
13.47757572086461
 31
0.0
  0
LINE
  5
ADB
330
1A
100
AcDbEntity
  8
ZUWAKU
100
AcDbLine
 10
6.171105594491521
 20
12.07499996135635
 30
0.0
 11
7.658605594491532
 21
12.07499996135635
 31
0.0
  0
LINE
  5
ADC
330
1A
100
AcDbEntity
  8
ZUWAKU
100
AcDbLine
 10
6.171105594491521
 20
10.67499996135635
 30
0.0
 11
7.921105594491521
 21
10.67499996135635
 31
0.0
  0
ARC
  5
ADD
330
1A
100
AcDbEntity
  8
ZUWAKU
100
AcDbCircle
 10
6.171105594491521
 20
11.81249996135635
 30
0.0
 40
0.2625
100
AcDbArc
 50
90.0
 51
180.0
  0
ARC
  5
ADE
330
1A
100
AcDbEntity
  8
ZUWAKU
100
AcDbCircle
 10
6.171105594491521
 20
10.93749996135635
 30
0.0
 40
0.2625
100
AcDbArc
 50
180.0
 51
270.0
  0
LINE
  5
ADF
330
1A
100
AcDbEntity
  8
ZUWAKU
100
AcDbLine
 10
5.908605594491532
 20
10.93749996135635
 30
0.0
 11
5.908605594491532
 21
11.81249996135635
 31
0.0
  0
ARC
  5
AE0
330
1A
100
AcDbEntity
  8
ZUWAKU
100
AcDbCircle
 10
7.221105594491532
 20
12.98260097403402
 30
0.0
 40
0.7
100
AcDbArc
 50
0.0
 51
45.0
  0
ARC
  5
AE1
330
1A
100
AcDbEntity
  8
ZUWAKU
100
AcDbCircle
 10
7.658605594491532
 20
12.33749996135635
 30
0.0
 40
0.2625
100
AcDbArc
 50
270.0
 51
0.0
  0
LINE
  5
AE2
330
1A
100
AcDbEntity
  8
ZUWAKU
100
AcDbLine
 10
7.921105594491521
 20
12.33749996135635
 30
0.0
 11
7.921105594491521
 21
12.98260097403402
 31
0.0
  0
LINE
  5
AE3
330
1A
100
AcDbEntity
  8
ZUWAKU
100
AcDbLine
 10
8.706029834983283
 20
14.46752521452576
 30
0.0
 11
7.251130847660945
 21
15.9224242018481
 31
0.0
  0
ARC
  5
AE4
330
1A
100
AcDbEntity
  8
ZUWAKU
100
AcDbCircle
 10
12.47110559449153
 20
12.77499996135635
 30
0.0
 40
0.7
100
AcDbArc
 50
180.0
 51
270.0
  0
LINE
  5
AE5
330
1A
100
AcDbEntity
  8
ZUWAKU
100
AcDbLine
 10
9.321105594491555
 20
12.07499996135635
 30
0.0
 11
9.321105594491555
 21
12.98260097403402
 31
0.0
  0
ARC
  5
AE6
330
1A
100
AcDbEntity
  8
ZUWAKU
100
AcDbCircle
 10
8.796105594491521
 20
17.58749996135635
 30
0.0
 40
0.2625
100
AcDbArc
 50
270.0
 51
0.0
  0
ARC
  5
AE7
330
1A
100
AcDbEntity
  8
ZUWAKU
100
AcDbCircle
 10
8.796105594491521
 20
18.46249996135635
 30
0.0
 40
0.2625
100
AcDbArc
 50
0.0
 51
90.0
  0
ARC
  5
AE8
330
1A
100
AcDbEntity
  8
ZUWAKU
100
AcDbCircle
 10
7.046105594491521
 20
17.32499996135635
 30
0.0
 40
1.399999999999999
100
AcDbArc
 50
90.0
 51
180.0
  0
LINE
  5
AE9
330
1A
100
AcDbEntity
  8
ZUWAKU
100
AcDbLine
 10
5.646105594491544
 20
17.32499996135635
 30
0.0
 11
5.646105594491544
 21
16.41739894867868
 31
0.0
  0
LINE
  5
AEA
330
1A
100
AcDbEntity
  8
ZUWAKU
100
AcDbLine
 10
8.796105594491521
 20
17.32499996135635
 30
0.0
 11
7.30860559449151
 21
17.32499996135635
 31
0.0
  0
LINE
  5
AEB
330
1A
100
AcDbEntity
  8
ZUWAKU
100
AcDbLine
 10
7.046105594491521
 20
17.06249996135635
 30
0.0
 11
7.046105594491521
 21
16.41739894867868
 31
0.0
  0
ARC
  5
AEC
330
1A
100
AcDbEntity
  8
ZUWAKU
100
AcDbCircle
 10
7.30860559449151
 20
17.06249996135635
 30
0.0
 40
0.2625
100
AcDbArc
 50
90.0
 51
180.0
  0
LINE
  5
AED
330
1A
100
AcDbEntity
  8
ZUWAKU
100
AcDbLine
 10
7.046105594491521
 20
18.72499996135635
 30
0.0
 11
8.796105594491521
 21
18.72499996135635
 31
0.0
  0
ARC
  5
AEE
330
1A
100
AcDbEntity
  8
ZUWAKU
100
AcDbCircle
 10
12.47110559449153
 20
16.62499996135633
 30
0.0
 40
2.099999999999999
100
AcDbArc
 50
90.0
 51
180.0
  0
ARC
  5
AEF
330
1A
100
AcDbEntity
  8
ZUWAKU
100
AcDbCircle
 10
12.47110559449153
 20
16.62499996135635
 30
0.0
 40
0.7
100
AcDbArc
 50
90.0
 51
180.0
  0
LINE
  5
AF0
330
1A
100
AcDbEntity
  8
ZUWAKU
100
AcDbLine
 10
9.05860559449151
 20
18.46249996135635
 30
0.0
 11
9.05860559449151
 21
17.58749996135635
 31
0.0
  0
LINE
  5
AF1
330
1A
100
AcDbEntity
  8
ZUWAKU
100
AcDbLine
 10
17.83817306314945
 20
18.54154694543984
 30
0.0
 11
16.90403812583356
 21
15.58345297727287
 31
0.0
  0
LINE
  5
AF2
330
1A
100
AcDbEntity
  8
ZUWAKU
100
AcDbLine
 10
14.92110559449152
 20
18.46249996135635
 30
0.0
 11
14.92110559449152
 21
10.93749996135635
 31
0.0
  0
LINE
  5
AF3
330
1A
100
AcDbEntity
  8
ZUWAKU
100
AcDbLine
 10
16.32110559449155
 20
15.66249996135635
 30
0.0
 11
16.32110559449155
 21
18.46249996135635
 31
0.0
  0
LINE
  5
AF4
330
1A
100
AcDbEntity
  8
ZUWAKU
100
AcDbLine
 10
28.92110559449152
 20
12.59999996135635
 30
0.0
 11
28.92110559449152
 21
18.46249996135635
 31
0.0
  0
LINE
  5
AF5
330
1A
100
AcDbEntity
  8
ZUWAKU
100
AcDbLine
 10
27.52110559449154
 20
18.46249996135635
 30
0.0
 11
27.52110559449154
 21
12.07499996135635
 31
0.0
  0
LINE
  5
AF6
330
1A
100
AcDbEntity
  8
ZUWAKU
100
AcDbLine
 10
21.7461055944915
 20
10.93749996135635
 30
0.0
 11
21.7461055944915
 21
18.46249996135635
 31
0.0
  0
LINE
  5
AF7
330
1A
100
AcDbEntity
  8
ZUWAKU
100
AcDbLine
 10
20.34610559449153
 20
18.46249996135635
 30
0.0
 11
20.34610559449153
 21
10.93749996135635
 31
0.0
  0
LINE
  5
AF8
330
1A
100
AcDbEntity
  8
ZUWAKU
100
AcDbLine
 10
18.65742883558051
 20
16.70252355813806
 30
0.0
 11
18.02505296291259
 21
14.69999996135636
 31
0.0
  0
ARC
  5
AF9
330
1A
100
AcDbEntity
  8
ZUWAKU
100
AcDbCircle
 10
24.89610559449154
 20
16.4173989486787
 30
0.0
 40
2.099999999999999
100
AcDbArc
 50
180.0
 51
225.0
  0
ARC
  5
AFA
330
1A
100
AcDbEntity
  8
ZUWAKU
100
AcDbCircle
 10
24.89610559449154
 20
16.4173989486787
 30
0.0
 40
0.7
100
AcDbArc
 50
180.0000000000016
 51
224.9999999999988
  0
LINE
  5
AFB
330
1A
100
AcDbEntity
  8
ZUWAKU
100
AcDbLine
 10
33.12110559449151
 20
18.46249996135635
 30
0.0
 11
33.12110559449151
 21
10.93749996135635
 31
0.0
  0
LINE
  5
AFC
330
1A
100
AcDbEntity
  8
ZUWAKU
100
AcDbLine
 10
34.52110559449154
 20
10.93749996135635
 30
0.0
 11
34.52110559449154
 21
18.46249996135635
 31
0.0
  0
LINE
  5
AFD
330
1A
100
AcDbEntity
  8
ZUWAKU
100
AcDbLine
 10
30.67110559449152
 20
18.46249996135635
 30
0.0
 11
30.67110559449152
 21
12.59999996135635
 31
0.0
  0
LINE
  5
AFE
330
1A
100
AcDbEntity
  8
ZUWAKU
100
AcDbLine
 10
32.07110559449155
 20
12.07499996135635
 30
0.0
 11
32.07110559449155
 21
18.46249996135635
 31
0.0
  0
LINE
  5
AFF
330
1A
100
AcDbEntity
  8
ZUWAKU
100
AcDbLine
 10
39.56331429109525
 20
29.59999996135633
 30
0.0
 11
39.56331429109525
 21
0.3999999613564
 31
0.0
  0
LINE
  5
B00
330
1A
100
AcDbEntity
  8
ZUWAKU
100
AcDbLine
 10
39.76331429109507
 20
29.59999996135633
 30
0.0
 11
39.7633142910953
 21
0.3999999613564
 31
0.0
  0
LINE
  5
B01
330
1A
100
AcDbEntity
  8
ZUWAKU
100
AcDbLine
 10
39.66331429109505
 20
29.59999996135633
 30
0.0
 11
39.66331429109527
 21
0.3999999613564
 31
0.0
  0
LINE
  5
B02
330
1A
100
AcDbEntity
  8
ZUWAKU
100
AcDbLine
 10
28.92110559449152
 20
10.67499996135635
 30
0.0
 11
30.67110559449152
 21
10.67499996135635
 31
0.0
  0
LINE
  5
B03
330
1A
100
AcDbEntity
  8
ZUWAKU
100
AcDbLine
 10
30.14610559449154
 20
12.07499996135635
 30
0.0
 11
29.44610559449155
 21
12.07499996135635
 31
0.0
  0
LINE
  5
B04
330
1A
100
AcDbEntity
  8
ZUWAKU
100
AcDbLine
 10
20.60860559449152
 20
10.67499996135635
 30
0.0
 11
21.48360559449152
 21
10.67499996135635
 31
0.0
  0
LINE
  5
B05
330
1A
100
AcDbEntity
  8
ZUWAKU
100
AcDbLine
 10
17.83817306314945
 20
10.85845297727287
 30
0.0
 11
16.90403812583356
 21
13.81654694543984
 31
0.0
  0
ARC
  5
B06
330
1A
100
AcDbEntity
  8
ZUWAKU
100
AcDbCircle
 10
16.58360559449154
 20
13.73749996135635
 30
0.0
 40
0.2625
100
AcDbArc
 50
90.0
 51
180.0
  0
ARC
  5
B07
330
1A
100
AcDbEntity
  8
ZUWAKU
100
AcDbCircle
 10
16.65372267623588
 20
13.73749996135635
 30
0.0
 40
0.2625
100
AcDbArc
 50
17.52556837372303
 51
90.0
  0
ARC
  5
B08
330
1A
100
AcDbEntity
  8
ZUWAKU
100
AcDbCircle
 10
15.18360559449151
 20
10.93749996135635
 30
0.0
 40
0.2625
100
AcDbArc
 50
180.0
 51
270.0
  0
ARC
  5
B09
330
1A
100
AcDbEntity
  8
ZUWAKU
100
AcDbCircle
 10
13.43360559449151
 20
11.81249996135635
 30
0.0
 40
0.2625
100
AcDbArc
 50
0.0
 51
90.0
  0
ARC
  5
B0A
330
1A
100
AcDbEntity
  8
ZUWAKU
100
AcDbCircle
 10
13.43360559449151
 20
10.93749996135635
 30
0.0
 40
0.2625
100
AcDbArc
 50
270.0
 51
0.0
  0
LINE
  5
B0B
330
1A
100
AcDbEntity
  8
ZUWAKU
100
AcDbLine
 10
13.69610559449155
 20
11.81249996135635
 30
0.0
 11
13.69610559449155
 21
10.93749996135635
 31
0.0
  0
LINE
  5
B0C
330
1A
100
AcDbEntity
  8
ZUWAKU
100
AcDbLine
 10
16.32110559449155
 20
10.93749996135635
 30
0.0
 11
16.32110559449155
 21
13.73749996135635
 31
0.0
  0
ARC
  5
B0D
330
1A
100
AcDbEntity
  8
ZUWAKU
100
AcDbCircle
 10
16.05860559449151
 20
10.93749996135635
 30
0.0
 40
0.2625
100
AcDbArc
 50
270.0
 51
0.0
  0
LINE
  5
B0E
330
1A
100
AcDbEntity
  8
ZUWAKU
100
AcDbLine
 10
15.18360559449151
 20
10.67499996135635
 30
0.0
 11
16.05860559449151
 21
10.67499996135635
 31
0.0
  0
ARC
  5
B0F
330
1A
100
AcDbEntity
  8
ZUWAKU
100
AcDbCircle
 10
16.58360559449154
 20
15.66249996135635
 30
0.0
 40
0.2625
100
AcDbArc
 50
180.0
 51
270.0
  0
LINE
  5
B10
330
1A
100
AcDbEntity
  8
ZUWAKU
100
AcDbLine
 10
16.58360559449154
 20
13.99999996135635
 30
0.0
 11
16.65372267623588
 21
13.99999996135635
 31
0.0
  0
LINE
  5
B11
330
1A
100
AcDbEntity
  8
ZUWAKU
100
AcDbLine
 10
16.65372267623588
 20
15.39999996135635
 30
0.0
 11
16.58360559449154
 21
15.39999996135635
 31
0.0
  0
ARC
  5
B12
330
1A
100
AcDbEntity
  8
ZUWAKU
100
AcDbCircle
 10
16.65372267623588
 20
15.66249996135635
 30
0.0
 40
0.2625
100
AcDbArc
 50
270.0
 51
342.4744316262769
  0
ARC
  5
B13
330
1A
100
AcDbEntity
  8
ZUWAKU
100
AcDbCircle
 10
18.08848851274719
 20
10.93749996135635
 30
0.0
 40
0.2625
100
AcDbArc
 50
197.525568373723
 51
270.0
  0
LINE
  5
B14
330
1A
100
AcDbEntity
  8
ZUWAKU
100
AcDbLine
 10
19.18824865214942
 20
11.01654694543984
 30
0.0
 11
18.02505296291259
 21
14.69999996135636
 31
0.0
  0
ARC
  5
B15
330
1A
100
AcDbEntity
  8
ZUWAKU
100
AcDbCircle
 10
18.93793320255169
 20
10.93749996135635
 30
0.0
 40
0.2625
100
AcDbArc
 50
270.0
 51
17.52556837372303
  0
LINE
  5
B16
330
1A
100
AcDbEntity
  8
ZUWAKU
100
AcDbLine
 10
18.08848851274719
 20
10.67499996135635
 30
0.0
 11
18.93793320255169
 21
10.67499996135635
 31
0.0
  0
ARC
  5
B17
330
1A
100
AcDbEntity
  8
ZUWAKU
100
AcDbCircle
 10
20.60860559449152
 20
10.93749996135635
 30
0.0
 40
0.2625
100
AcDbArc
 50
180.0
 51
270.0
  0
ARC
  5
B18
330
1A
100
AcDbEntity
  8
ZUWAKU
100
AcDbCircle
 10
25.07110559449155
 20
12.07499996135635
 30
0.0
 40
1.399999999999999
100
AcDbArc
 50
270.0
 51
0.0
  0
ARC
  5
B19
330
1A
100
AcDbEntity
  8
ZUWAKU
100
AcDbCircle
 10
28.92110559449152
 20
12.07499996135635
 30
0.0
 40
1.399999999999999
100
AcDbArc
 50
180.0
 51
270.0
  0
LINE
  5
B1A
330
1A
100
AcDbEntity
  8
ZUWAKU
100
AcDbLine
 10
25.85602983498331
 20
14.46752521452576
 30
0.0
 11
24.40113084766092
 21
15.9224242018481
 31
0.0
  0
LINE
  5
B1B
330
1A
100
AcDbEntity
  8
ZUWAKU
100
AcDbLine
 10
23.41118135399979
 20
14.93247470818694
 30
0.0
 11
24.86608034132213
 21
13.47757572086461
 31
0.0
  0
LINE
  5
B1C
330
1A
100
AcDbEntity
  8
ZUWAKU
100
AcDbLine
 10
23.32110559449155
 20
10.67499996135635
 30
0.0
 11
25.07110559449155
 21
10.67499996135635
 31
0.0
  0
LINE
  5
B1D
330
1A
100
AcDbEntity
  8
ZUWAKU
100
AcDbLine
 10
23.32110559449155
 20
12.07499996135635
 30
0.0
 11
24.80860559449151
 21
12.07499996135635
 31
0.0
  0
ARC
  5
B1E
330
1A
100
AcDbEntity
  8
ZUWAKU
100
AcDbCircle
 10
23.32110559449155
 20
11.81249996135635
 30
0.0
 40
0.2625
100
AcDbArc
 50
90.0
 51
180.0
  0
ARC
  5
B1F
330
1A
100
AcDbEntity
  8
ZUWAKU
100
AcDbCircle
 10
21.48360559449152
 20
10.93749996135635
 30
0.0
 40
0.2625
100
AcDbArc
 50
270.0
 51
0.0
  0
ARC
  5
B20
330
1A
100
AcDbEntity
  8
ZUWAKU
100
AcDbCircle
 10
23.32110559449155
 20
10.93749996135635
 30
0.0
 40
0.2625
100
AcDbArc
 50
180.0
 51
270.0
  0
LINE
  5
B21
330
1A
100
AcDbEntity
  8
ZUWAKU
100
AcDbLine
 10
23.05860559449151
 20
10.93749996135635
 30
0.0
 11
23.05860559449151
 21
11.81249996135635
 31
0.0
  0
ARC
  5
B22
330
1A
100
AcDbEntity
  8
ZUWAKU
100
AcDbCircle
 10
24.80860559449151
 20
12.33749996135635
 30
0.0
 40
0.2625
100
AcDbArc
 50
270.0
 51
0.0
  0
ARC
  5
B23
330
1A
100
AcDbEntity
  8
ZUWAKU
100
AcDbCircle
 10
24.37110559449151
 20
12.98260097403402
 30
0.0
 40
0.7
100
AcDbArc
 50
0.0
 51
45.0
  0
LINE
  5
B24
330
1A
100
AcDbEntity
  8
ZUWAKU
100
AcDbLine
 10
25.07110559449155
 20
12.33749996135635
 30
0.0
 11
25.07110559449155
 21
12.98260097403402
 31
0.0
  0
ARC
  5
B25
330
1A
100
AcDbEntity
  8
ZUWAKU
100
AcDbCircle
 10
29.44610559449155
 20
12.59999996135635
 30
0.0
 40
0.525
100
AcDbArc
 50
180.0
 51
270.0
  0
ARC
  5
B26
330
1A
100
AcDbEntity
  8
ZUWAKU
100
AcDbCircle
 10
24.37110559449151
 20
12.982600974034
 30
0.0
 40
2.099999999999999
100
AcDbArc
 50
0.0
 51
45.0
  0
LINE
  5
B27
330
1A
100
AcDbEntity
  8
ZUWAKU
100
AcDbLine
 10
26.47110559449153
 20
12.07499996135635
 30
0.0
 11
26.47110559449153
 21
12.98260097403402
 31
0.0
  0
ARC
  5
B28
330
1A
100
AcDbEntity
  8
ZUWAKU
100
AcDbCircle
 10
30.67110559449152
 20
12.07499996135635
 30
0.0
 40
1.399999999999999
100
AcDbArc
 50
270.0
 51
0.0
  0
LINE
  5
B29
330
1A
100
AcDbEntity
  8
ZUWAKU
100
AcDbLine
 10
33.38360559449155
 20
10.67499996135635
 30
0.0
 11
34.25860559449155
 21
10.67499996135635
 31
0.0
  0
ARC
  5
B2A
330
1A
100
AcDbEntity
  8
ZUWAKU
100
AcDbCircle
 10
30.14610559449154
 20
12.59999996135635
 30
0.0
 40
0.525
100
AcDbArc
 50
270.0
 51
0.0
  0
ARC
  5
B2B
330
1A
100
AcDbEntity
  8
ZUWAKU
100
AcDbCircle
 10
33.38360559449155
 20
10.93749996135635
 30
0.0
 40
0.2625
100
AcDbArc
 50
180.0
 51
270.0
  0
ARC
  5
B2C
330
1A
100
AcDbEntity
  8
ZUWAKU
100
AcDbCircle
 10
34.25860559449155
 20
10.93749996135635
 30
0.0
 40
0.2625
100
AcDbArc
 50
270.0
 51
0.0
  0
LINE
  5
B2D
330
1A
100
AcDbEntity
  8
ZUWAKU
100
AcDbLine
 10
21.48360559449152
 20
18.72499996135635
 30
0.0
 11
20.60860559449152
 21
18.72499996135635
 31
0.0
  0
LINE
  5
B2E
330
1A
100
AcDbEntity
  8
ZUWAKU
100
AcDbLine
 10
13.69610559449155
 20
18.46249996135635
 30
0.0
 11
13.69610559449155
 21
17.58749996135635
 31
0.0
  0
ARC
  5
B2F
330
1A
100
AcDbEntity
  8
ZUWAKU
100
AcDbCircle
 10
13.43360559449151
 20
17.58749996135635
 30
0.0
 40
0.2625
100
AcDbArc
 50
270.0
 51
0.0
  0
ARC
  5
B30
330
1A
100
AcDbEntity
  8
ZUWAKU
100
AcDbCircle
 10
15.18360559449151
 20
18.46249996135635
 30
0.0
 40
0.2625
100
AcDbArc
 50
90.0
 51
180.0
  0
ARC
  5
B31
330
1A
100
AcDbEntity
  8
ZUWAKU
100
AcDbCircle
 10
13.43360559449151
 20
18.46249996135635
 30
0.0
 40
0.2625
100
AcDbArc
 50
0.0
 51
90.0
  0
LINE
  5
B32
330
1A
100
AcDbEntity
  8
ZUWAKU
100
AcDbLine
 10
16.05860559449151
 20
18.72499996135635
 30
0.0
 11
15.18360559449151
 21
18.72499996135635
 31
0.0
  0
ARC
  5
B33
330
1A
100
AcDbEntity
  8
ZUWAKU
100
AcDbCircle
 10
16.05860559449151
 20
18.46249996135635
 30
0.0
 40
0.2625
100
AcDbArc
 50
0.0
 51
90.0
  0
ARC
  5
B34
330
1A
100
AcDbEntity
  8
ZUWAKU
100
AcDbCircle
 10
18.08848851274719
 20
18.46249996135635
 30
0.0
 40
0.2625
100
AcDbArc
 50
90.0
 51
162.4744316262769
  0
LINE
  5
B35
330
1A
100
AcDbEntity
  8
ZUWAKU
100
AcDbLine
 10
19.18824865214942
 20
18.38345297727287
 30
0.0
 11
18.65742883558051
 21
16.70252355813806
 31
0.0
  0
ARC
  5
B36
330
1A
100
AcDbEntity
  8
ZUWAKU
100
AcDbCircle
 10
18.93793320255169
 20
18.46249996135635
 30
0.0
 40
0.2625
100
AcDbArc
 50
342.4744316262769
 51
90.0
  0
LINE
  5
B37
330
1A
100
AcDbEntity
  8
ZUWAKU
100
AcDbLine
 10
18.08848851274719
 20
18.72499996135635
 30
0.0
 11
18.93793320255169
 21
18.72499996135635
 31
0.0
  0
ARC
  5
B38
330
1A
100
AcDbEntity
  8
ZUWAKU
100
AcDbCircle
 10
20.60860559449152
 20
18.46249996135635
 30
0.0
 40
0.2625
100
AcDbArc
 50
90.0
 51
180.0
  0
LINE
  5
B39
330
1A
100
AcDbEntity
  8
ZUWAKU
100
AcDbLine
 10
25.94610559449155
 20
17.32499996135635
 30
0.0
 11
24.45860559449154
 21
17.32499996135635
 31
0.0
  0
LINE
  5
B3A
330
1A
100
AcDbEntity
  8
ZUWAKU
100
AcDbLine
 10
24.19610559449155
 20
18.72499996135635
 30
0.0
 11
25.94610559449155
 21
18.72499996135635
 31
0.0
  0
ARC
  5
B3B
330
1A
100
AcDbEntity
  8
ZUWAKU
100
AcDbCircle
 10
24.19610559449155
 20
17.32499996135635
 30
0.0
 40
1.399999999999999
100
AcDbArc
 50
90.0
 51
180.0
  0
LINE
  5
B3C
330
1A
100
AcDbEntity
  8
ZUWAKU
100
AcDbLine
 10
22.79610559449152
 20
17.32499996135635
 30
0.0
 11
22.79610559449152
 21
16.41739894867868
 31
0.0
  0
ARC
  5
B3D
330
1A
100
AcDbEntity
  8
ZUWAKU
100
AcDbCircle
 10
21.48360559449152
 20
18.46249996135635
 30
0.0
 40
0.2625
100
AcDbArc
 50
0.0
 51
90.0
  0
LINE
  5
B3E
330
1A
100
AcDbEntity
  8
ZUWAKU
100
AcDbLine
 10
24.19610559449155
 20
17.06249996135635
 30
0.0
 11
24.19610559449155
 21
16.41739894867868
 31
0.0
  0
ARC
  5
B3F
330
1A
100
AcDbEntity
  8
ZUWAKU
100
AcDbCircle
 10
24.45860559449154
 20
17.06249996135635
 30
0.0
 40
0.2625
100
AcDbArc
 50
90.0
 51
180.0
  0
LINE
  5
B40
330
1A
100
AcDbEntity
  8
ZUWAKU
100
AcDbLine
 10
26.20860559449154
 20
18.46249996135635
 30
0.0
 11
26.20860559449154
 21
17.58749996135635
 31
0.0
  0
ARC
  5
B41
330
1A
100
AcDbEntity
  8
ZUWAKU
100
AcDbCircle
 10
25.94610559449155
 20
17.58749996135635
 30
0.0
 40
0.2625
100
AcDbArc
 50
270.0
 51
0.0
  0
ARC
  5
B42
330
1A
100
AcDbEntity
  8
ZUWAKU
100
AcDbCircle
 10
25.94610559449155
 20
18.46249996135635
 30
0.0
 40
0.2625
100
AcDbArc
 50
0.0
 51
90.0
  0
LINE
  5
B43
330
1A
100
AcDbEntity
  8
ZUWAKU
100
AcDbLine
 10
28.65860559449153
 20
18.72499996135635
 30
0.0
 11
27.78360559449153
 21
18.72499996135635
 31
0.0
  0
ARC
  5
B44
330
1A
100
AcDbEntity
  8
ZUWAKU
100
AcDbCircle
 10
27.78360559449153
 20
18.46249996135635
 30
0.0
 40
0.2625
100
AcDbArc
 50
90.0
 51
180.0
  0
ARC
  5
B45
330
1A
100
AcDbEntity
  8
ZUWAKU
100
AcDbCircle
 10
28.65860559449153
 20
18.46249996135635
 30
0.0
 40
0.2625
100
AcDbArc
 50
0.0
 51
90.0
  0
LINE
  5
B46
330
1A
100
AcDbEntity
  8
ZUWAKU
100
AcDbLine
 10
34.25860559449155
 20
18.72499996135635
 30
0.0
 11
33.38360559449155
 21
18.72499996135635
 31
0.0
  0
ARC
  5
B47
330
1A
100
AcDbEntity
  8
ZUWAKU
100
AcDbCircle
 10
30.93360559449151
 20
18.46249996135635
 30
0.0
 40
0.2625
100
AcDbArc
 50
90.0
 51
180.0
  0
LINE
  5
B48
330
1A
100
AcDbEntity
  8
ZUWAKU
100
AcDbLine
 10
31.80860559449151
 20
18.72499996135635
 30
0.0
 11
30.93360559449151
 21
18.72499996135635
 31
0.0
  0
ARC
  5
B49
330
1A
100
AcDbEntity
  8
ZUWAKU
100
AcDbCircle
 10
31.80860559449151
 20
18.46249996135635
 30
0.0
 40
0.2625
100
AcDbArc
 50
0.0
 51
90.0
  0
ARC
  5
B4A
330
1A
100
AcDbEntity
  8
ZUWAKU
100
AcDbCircle
 10
33.38360559449155
 20
18.46249996135635
 30
0.0
 40
0.2625
100
AcDbArc
 50
90.0
 51
180.0
  0
ARC
  5
B4B
330
1A
100
AcDbEntity
  8
ZUWAKU
100
AcDbCircle
 10
34.25860559449155
 20
18.46249996135635
 30
0.0
 40
0.2625
100
AcDbArc
 50
0.0
 51
90.0
  0
LINE
  5
B4C
330
1A
100
AcDbEntity
  8
ZUWAKU
100
AcDbLine
 10
104.2233001621348
 20
29.59999996135633
 30
0.0
 11
104.223300162135
 21
0.3999999613564
 31
0.0
  0
LINE
  5
B4D
330
1A
100
AcDbEntity
  8
ZUWAKU
100
AcDbLine
 10
104.3233001621348
 20
29.59999996135633
 30
0.0
 11
104.323300162135
 21
0.3999999613564
 31
0.0
  0
LINE
  5
B4E
330
1A
100
AcDbEntity
  8
ZUWAKU
100
AcDbLine
 10
104.123300162135
 20
29.59999996135633
 30
0.0
 11
104.123300162135
 21
0.3999999613564
 31
0.0
  0
TEXT
  5
B4F
330
1A
100
AcDbEntity
  8
MOJI
100
AcDbText
 10
119.9136008575266
 20
23.60246049006002
 30
0.0
 40
2.799999999999999
  1
のきとい
 41
0.9
  7
ｽﾀｲﾙ1
100
AcDbText
  0
TEXT
  5
B50
330
1A
100
AcDbEntity
  8
ZUWAKU
100
AcDbText
 10
104.8620226732398
 20
19.12767823054914
 30
0.0
 40
2.0
  1
サイズ
 41
0.9
  7
ｽﾀｲﾙ1
100
AcDbText
  0
TEXT
  5
B51
330
1A
100
AcDbEntity
  8
MOJI
100
AcDbText
 10
119.9136008575266
 20
1.602460490060076
 30
0.0
 40
2.799999999999999
  1
ＶＭ１６０－２,０００
 41
0.9
  7
ｽﾀｲﾙ1
100
AcDbText
  0
TEXT
  5
B52
330
1A
100
AcDbEntity
  8
ZUWAKU
100
AcDbText
 10
104.8620226732397
 20
26.62767823054912
 30
0.0
 40
2.0
  1
品名
 41
0.9
  7
ｽﾀｲﾙ1
100
AcDbText
  0
TEXT
  5
B53
330
1A
100
AcDbEntity
  8
ZUWAKU
100
AcDbText
 10
329.1019683607522
 20
16.10246049006004
 30
0.0
 40
2.799999999999999
  1
　　．　　．　　
 41
0.9
  7
ｽﾀｲﾙ1
100
AcDbText
  0
LINE
  5
B54
330
1A
100
AcDbEntity
  8
ZUWAKU
100
AcDbLine
 10
324.4086007722031
 20
14.89999996135636
 30
0.0
 11
348.6245047913716
 21
14.89999996135636
 31
0.0
  0
LINE
  5
B55
330
1A
100
AcDbEntity
  8
ZUWAKU
100
AcDbLine
 10
324.4086007722032
 20
14.79999996135637
 30
0.0
 11
348.6245047913716
 21
14.79999996135636
 31
0.0
  0
LINE
  5
B56
330
1A
100
AcDbEntity
  8
ZUWAKU
100
AcDbLine
 10
324.4086007722031
 20
14.69999996135636
 30
0.0
 11
348.6245047913716
 21
14.69999996135636
 31
0.0
  0
LINE
  5
B57
330
1A
100
AcDbEntity
  8
ZUWAKU
100
AcDbLine
 10
252.5995892661715
 20
15.09999996135636
 30
0.0
 11
276.4634774001572
 21
15.09999996135636
 31
0.0
  0
LINE
  5
B58
330
1A
100
AcDbEntity
  8
ZUWAKU
100
AcDbLine
 10
252.5995892661715
 20
14.99999996135636
 30
0.0
 11
276.4634774001572
 21
14.99999996135636
 31
0.0
  0
LINE
  5
B59
330
1A
100
AcDbEntity
  8
ZUWAKU
100
AcDbLine
 10
252.5995892661715
 20
14.89999996135636
 30
0.0
 11
276.4634774001572
 21
14.89999996135636
 31
0.0
  0
LINE
  5
B5A
330
1A
100
AcDbEntity
  8
ZUWAKU
100
AcDbLine
 10
252.3995892661715
 20
29.59999996135633
 30
0.0
 11
252.3995892661715
 21
0.3999999613564
 31
0.0
  0
LINE
  5
B5B
330
1A
100
AcDbEntity
  8
ZUWAKU
100
AcDbLine
 10
252.5995892661714
 20
29.59999996135633
 30
0.0
 11
252.5995892661716
 21
0.3999999613564
 31
0.0
  0
LINE
  5
B5C
330
1A
100
AcDbEntity
  8
ZUWAKU
100
AcDbLine
 10
252.4995892661713
 20
29.59999996135633
 30
0.0
 11
252.4995892661716
 21
0.3999999613564
 31
0.0
  0
TEXT
  5
B5D
330
1A
100
AcDbEntity
  8
MOJI
100
AcDbText
 10
264.2204535032574
 20
16.30246049006004
 30
0.0
 40
2.799999999999999
  1
Ａ３
 41
0.9
  7
ｽﾀｲﾙ1
100
AcDbText
  0
LINE
  5
B5E
330
1A
100
AcDbEntity
  8
ZUWAKU
100
AcDbLine
 10
223.7121815025968
 20
29.59999996135633
 30
0.0
 11
223.7121815025967
 21
0.3999999613564
 31
0.0
  0
LINE
  5
B5F
330
1A
100
AcDbEntity
  8
ZUWAKU
100
AcDbLine
 10
223.9121815025966
 20
29.59999996135633
 30
0.0
 11
223.9121815025967
 21
0.3999999613564
 31
0.0
  0
LINE
  5
B60
330
1A
100
AcDbEntity
  8
ZUWAKU
100
AcDbLine
 10
223.8121815025965
 20
29.59999996135633
 30
0.0
 11
223.8121815025968
 21
0.3999999613564
 31
0.0
  0
TEXT
  5
B61
330
1A
100
AcDbEntity
  8
MOJI
100
AcDbText
 10
230.3890005988668
 20
3.713768430648599
 30
0.0
 40
2.799999999999999
  1
ＣＶ２２□
 41
0.9
  7
ｽﾀｲﾙ1
100
AcDbText
  0
TEXT
  5
B62
330
1A
100
AcDbEntity
  8
ZUWAKU
100
AcDbText
 10
231.3468803448546
 20
26.65305942404933
 30
0.0
 40
1.5
  1
□には色品番が入ります
 41
0.9
  7
ｽﾀｲﾙ1
100
AcDbText
  0
TEXT
  5
B63
330
1A
100
AcDbEntity
  8
ZUWAKU
100
AcDbText
 10
253.3383117772764
 20
6.60044396444028
 30
0.0
 40
2.0
  1
縮尺
 41
0.9
  7
ｽﾀｲﾙ1
100
AcDbText
  0
TEXT
  5
B64
330
1A
100
AcDbEntity
  8
MOJI
100
AcDbText
 10
264.0204535032574
 20
1.602460490060076
 30
0.0
 40
2.799999999999999
  1
１/１
 41
0.9
  7
ｽﾀｲﾙ1
100
AcDbText
  0
TEXT
  5
B65
330
1A
100
AcDbEntity
  8
ZUWAKU
100
AcDbText
 10
224.8509040137013
 20
26.42767823054912
 30
0.0
 40
2.0
  1
品番
 41
0.9
  7
ｽﾀｲﾙ1
100
AcDbText
  0
TEXT
  5
B66
330
1A
100
AcDbEntity
  8
ZUWAKU
100
AcDbText
 10
253.5383117772762
 20
21.10044396444024
 30
0.0
 40
2.0
  1
用紙
 41
0.9
  7
ｽﾀｲﾙ1
100
AcDbText
  0
LINE
  5
B67
330
1A
100
AcDbEntity
  8
ZUWAKU
100
AcDbLine
 10
276.2634774001572
 20
29.59999996135633
 30
0.0
 11
276.2634774001572
 21
0.3999999613564
 31
0.0
  0
LINE
  5
B68
330
1A
100
AcDbEntity
  8
ZUWAKU
100
AcDbLine
 10
276.4634774001571
 20
29.59999996135633
 30
0.0
 11
276.4634774001573
 21
0.3999999613564
 31
0.0
  0
LINE
  5
B69
330
1A
100
AcDbEntity
  8
ZUWAKU
100
AcDbLine
 10
276.363477400157
 20
29.59999996135633
 30
0.0
 11
276.3634774001573
 21
0.3999999613564
 31
0.0
  0
LINE
  5
B6A
330
1A
100
AcDbEntity
  8
ZUWAKU
100
AcDbLine
 10
324.2086007722033
 20
29.59999996135633
 30
0.0
 11
324.2086007722033
 21
0.3999999613564
 31
0.0
  0
LINE
  5
B6B
330
1A
100
AcDbEntity
  8
ZUWAKU
100
AcDbLine
 10
324.4086007722031
 20
29.59999996135633
 30
0.0
 11
324.4086007722033
 21
0.3999999613564
 31
0.0
  0
LINE
  5
B6C
330
1A
100
AcDbEntity
  8
ZUWAKU
100
AcDbLine
 10
324.3086007722031
 20
29.59999996135633
 30
0.0
 11
324.3086007722033
 21
0.3999999613564
 31
0.0
  0
TEXT
  5
B6D
330
1A
100
AcDbEntity
  8
ZUWAKU
100
AcDbText
 10
325.1473232833081
 20
19.12767823054914
 30
0.0
 40
2.0
  1
DATE
 41
0.9
  7
ｽﾀｲﾙ1
100
AcDbText
  0
TEXT
  5
B6E
330
1A
100
AcDbEntity
  8
ZUWAKU
100
AcDbText
 10
354.4640416132228
 20
16.07691962919975
 30
0.0
 40
3.0
  1
積水化学工業株式会社
 41
0.9
  7
ｽﾀｲﾙ1
100
AcDbText
  0
LINE
  5
B6F
330
1A
100
AcDbEntity
  8
ZUWAKU
100
AcDbLine
 10
348.9245047913716
 20
29.59999996135633
 30
0.0
 11
348.9245047913717
 21
0.3999999613564
 31
0.0
  0
LINE
  5
B70
330
1A
100
AcDbEntity
  8
ZUWAKU
100
AcDbLine
 10
348.8245047913715
 20
29.59999996135633
 30
0.0
 11
348.8245047913717
 21
0.3999999613564
 31
0.0
  0
LINE
  5
B71
330
1A
100
AcDbEntity
  8
ZUWAKU
100
AcDbLine
 10
348.7245047913717
 20
29.59999996135633
 30
0.0
 11
348.7245047913717
 21
0.3999999613564
 31
0.0
  0
LINE
  5
B72
330
1A
100
AcDbEntity
  8
ZUWAKU
100
AcDbLine
 10
348.6245047913717
 20
29.59999996135633
 30
0.0
 11
348.6245047913716
 21
0.3999999613564
 31
0.0
  0
TEXT
  5
B73
330
1A
100
AcDbEntity
  8
ZUWAKU
100
AcDbText
 10
354.4640416132228
 20
10.62442011828338
 30
0.0
 40
3.0
  1
建材事業部
 41
0.9
  7
ｽﾀｲﾙ1
100
AcDbText
  0
DIMENSION
  5
C88
330
1A
100
AcDbEntity
  8
SUNPOU
100
AcDbDimension
  2
*D1
 10
95.06735150804091
 20
74.73533356341983
 30
0.0
 11
92.56735150804091
 21
142.5669332692435
 31
0.0
 70
    32
  3
STANDARD
100
AcDbAlignedDimension
 13
125.5099012519736
 23
210.3985329750672
 33
0.0
 14
224.7554989448694
 24
74.73533356341977
 34
0.0
 50
90.0
100
AcDbRotatedDimension
1001
ACAD
1000
DSTYLE
1002
{
1070
    41
1040
3.0
1070
    42
1040
3.0
1070
    43
1040
7.0
1070
    44
1040
1.5
1070
    73
1070
     0
1070
    74
1070
     0
1070
    77
1070
     3
1070
   140
1040
3.0
1070
   141
1040
15.0
1070
   147
1040
1.0
1070
   172
1070
     1
1070
   176
1070
   256
1070
   177
1070
   256
1070
   178
1070
   256
1070
   271
1070
     0
1070
   272
1070
     0
1070
   341
1005
B2
1070
     5
1000
OPEN
1070
   371
1070
    -1
1070
   372
1070
    -1
1002
}
  0
DIMENSION
  5
C89
330
1A
100
AcDbEntity
  8
SUNPOU
100
AcDbDimension
  2
*D2
 10
268.0099010409524
 20
59.20802697457543
 30
0.0
 11
224.7599010409519
 21
61.70802697457543
 31
0.0
 70
    32
  3
STANDARD
100
AcDbAlignedDimension
 13
181.5099010409515
 23
75.8745306049127
 33
0.0
 14
268.0099010409524
 24
75.4675953205508
 34
0.0
100
AcDbRotatedDimension
1001
ACAD
1000
DSTYLE
1002
{
1070
    41
1040
3.0
1070
    42
1040
3.0
1070
    43
1040
7.0
1070
    44
1040
1.5
1070
    73
1070
     0
1070
    74
1070
     0
1070
    77
1070
     3
1070
   140
1040
3.0
1070
   141
1040
15.0
1070
   147
1040
1.0
1070
   172
1070
     1
1070
   176
1070
   256
1070
   177
1070
   256
1070
   178
1070
   256
1070
   271
1070
     0
1070
   272
1070
     0
1070
   341
1005
B2
1070
     5
1000
OPEN
1070
   371
1070
    -1
1070
   372
1070
    -1
1002
}
  0
DIMENSION
  5
C8A
330
1A
100
AcDbEntity
  8
SUNPOU
100
AcDbDimension
  2
*D3
 10
124.5099012519736
 20
237.8360682445251
 30
0.0
 11
201.143111557239
 21
240.3360682445251
 31
0.0
 70
    32
  3
STANDARD
100
AcDbAlignedDimension
 13
277.7763218625044
 23
153.9255505592566
 33
0.0
 14
124.5099012519736
 24
209.3985331644705
 34
0.0
100
AcDbRotatedDimension
1001
ACAD
1000
DSTYLE
1002
{
1070
    41
1040
3.0
1070
    42
1040
3.0
1070
    43
1040
7.0
1070
    44
1040
1.5
1070
    73
1070
     0
1070
    74
1070
     0
1070
    77
1070
     3
1070
   140
1040
3.0
1070
   141
1040
15.0
1070
   147
1040
1.0
1070
   172
1070
     1
1070
   176
1070
   256
1070
   177
1070
   256
1070
   178
1070
   256
1070
   271
1070
     0
1070
   272
1070
     0
1070
   341
1005
B2
1070
     5
1000
OPEN
1070
   371
1070
    -1
1070
   372
1070
    -1
1002
}
  0
ARC
  5
C8B
330
1A
100
AcDbEntity
  8
SEIHIN
100
AcDbCircle
 10
229.4599010410006
 20
1074.724267802652
 30
0.0
 40
999.9999999999994
100
AcDbArc
 50
267.3333119235708
 51
271.9779273652199
  0
ARC
  5
C8C
330
1A
100
AcDbEntity
  8
SEIHIN
100
AcDbCircle
 10
229.4599010410006
 20
1074.724267802652
 30
0.0
 40
998.3999999999994
100
AcDbArc
 50
267.3988777093053
 51
271.9779273652207
  0
ARC
  5
C8D
330
1A
100
AcDbEntity
  8
SEIHIN
100
AcDbCircle
 10
-205.3522992272077
 20
-14.1353915575487
 30
0.0
 40
390.0000000000088
100
AcDbArc
 50
14.7970244987881
 51
31.6871739360961
  0
ARC
  5
C8E
330
1A
100
AcDbEntity
  8
SEIHIN
100
AcDbCircle
 10
-205.3522992271986
 20
-14.13539155754597
 30
0.0
 40
391.6000000000002
100
AcDbArc
 50
15.08870500059643
 51
27.6312195127365
  0
INSERT
  5
C8F
330
1A
100
AcDbEntity
  8
SUNPOU
100
AcDbBlockReference
  2
_OPEN
 10
150.1813003260752
 20
146.1638897530447
 30
0.0
 41
2.999999999999995
 42
3.0
 43
3.0
 50
24.26916444512834
  0
DIMENSION
  5
C90
330
1A
100
AcDbEntity
  8
SUNPOU
100
AcDbDimension
  2
*D4
 10
164.7355841820686
 20
113.9104255726722
 30
0.0
 11
152.0358763288061
 21
111.9505452658275
 31
0.0
 70
   161
  1
t<>
  3
STANDARD
100
AcDbAlignedDimension
 13
162.1583271172774
 23
116.3864055642006
 33
0.0
 14
163.6660630202299
 24
116.9218796036747
 34
0.0
1001
ACAD
1000
DSTYLE
1002
{
1070
   287
1070
     5
1070
    41
1040
3.0
1070
    42
1040
3.0
1070
    43
1040
7.0
1070
    44
1040
1.5
1070
    73
1070
     0
1070
    74
1070
     0
1070
    77
1070
     3
1070
   140
1040
3.0
1070
   141
1040
15.0
1070
   147
1040
1.0
1070
   172
1070
     1
1070
   176
1070
   256
1070
   177
1070
   256
1070
   178
1070
   256
1070
   271
1070
     1
1070
   272
1070
     0
1070
   279
1070
     2
1070
   341
1005
B2
1070
     5
1000
OPEN
1070
   371
1070
    -1
1070
   372
1070
    -1
1002
}
  0
DIMENSION
  5
C91
330
1A
100
AcDbEntity
  8
SUNPOU
100
AcDbDimension
  2
*D5
 10
147.1106727809269
 20
75.87453060491272
 30
0.0
 11
144.6106727809269
 21
80.29939920378357
 31
0.0
 70
    32
  3
STANDARD
100
AcDbAlignedDimension
 13
171.9099010409764
 23
84.72426780265436
 33
0.0
 14
181.5099010409515
 24
75.8745306049127
 34
0.0
 50
90.0
100
AcDbRotatedDimension
1001
ACAD
1000
DSTYLE
1002
{
1070
    41
1040
3.0
1070
    42
1040
3.0
1070
    43
1040
7.0
1070
    44
1040
1.5
1070
    73
1070
     0
1070
    74
1070
     0
1070
    77
1070
     3
1070
   140
1040
3.0
1070
   141
1040
15.0
1070
   147
1040
1.0
1070
   172
1070
     1
1070
   176
1070
   256
1070
   177
1070
   256
1070
   178
1070
   256
1070
   271
1070
     0
1070
   272
1070
     0
1070
   341
1005
B2
1070
     5
1000
OPEN
1070
   371
1070
    -1
1070
   372
1070
    -1
1002
}
  0
MTEXT
  5
C92
330
1A
100
AcDbEntity
  8
SUNPOU
100
AcDbMText
 10
122.202188047332
 20
136.2913162623783
 30
0.0
 40
3.0
 41
0.0
 71
     5
 72
     1
  1
\A1;R390
 11
0.9116246142391657
 21
0.4110237982322828
 31
0.0
1001
ACAD
1000
MTEXTBEGIN
1070
    73
1070
     1
1070
    44
1040
1.0
1070
    74
1070
     0
1000
MTEXTEND
  0
LINE
  5
C93
330
1A
100
AcDbEntity
  8
SUNPOU
100
AcDbLine
 10
117.5320937039179
 20
131.4433559878286
 30
0.0
 11
147.4464264833577
 21
144.9308183583478
 31
0.0
  0
ARC
  5
C94
330
1A
100
AcDbEntity
  8
SEIHIN
100
AcDbCircle
 10
183.0272669479864
 20
77.80500803725726
 30
0.0
 40
2.000000000000095
100
AcDbArc
 50
196.3724734765231
 51
267.3333119235504
  0
ARC
  5
C95
330
1A
100
AcDbEntity
  8
SEIHIN
100
AcDbCircle
 10
184.2407226176006
 20
79.35087761045384
 30
0.0
 40
2.000000000000056
100
AcDbArc
 50
196.372473476611
 51
267.3988776934213
  0
DIMENSION
  5
C96
330
1A
100
AcDbEntity
  8
SUNPOU
100
AcDbDimension
  2
*D6
 10
181.5099010409515
 20
59.20802697457543
 30
0.0
 11
176.7099010409639
 21
61.70802697457543
 31
0.0
 70
    32
  3
STANDARD
100
AcDbAlignedDimension
 13
171.9099010409764
 23
84.72426780265436
 33
0.0
 14
181.5099010409515
 24
75.8745306049127
 34
0.0
100
AcDbRotatedDimension
1001
ACAD
1000
DSTYLE
1002
{
1070
    41
1040
3.0
1070
    42
1040
3.0
1070
    43
1040
7.0
1070
    44
1040
1.5
1070
    73
1070
     0
1070
    74
1070
     0
1070
    77
1070
     3
1070
   140
1040
3.0
1070
   141
1040
15.0
1070
   147
1040
1.0
1070
   172
1070
     1
1070
   176
1070
   256
1070
   177
1070
   256
1070
   178
1070
   256
1070
   271
1070
     0
1070
   272
1070
     0
1070
   341
1005
B2
1070
     5
1000
OPEN
1070
   371
1070
    -1
1070
   372
1070
    -1
1002
}
  0
LINE
  5
C97
330
1A
100
AcDbEntity
  8
SEIHIN
100
AcDbLine
 10
182.3218236002063
 20
78.78711652538027
 30
0.0
 11
180.3184318721564
 21
85.60614832935812
 31
0.0
  0
LINE
  5
C98
330
1A
100
AcDbEntity
  8
SEIHIN
100
AcDbLine
 10
179.1208802539913
 20
84.00614834518947
 30
0.0
 11
181.108367930591
 21
77.24124695218698
 31
0.0
  0
LINE
  5
C99
330
1A
100
AcDbEntity
  8
SEIHIN
100
AcDbLine
 10
172.6808321680069
 20
84.72426780265436
 30
0.0
 11
178.1614307452937
 21
84.72426780265436
 31
0.0
  0
ARC
  5
C9A
330
1A
100
AcDbEntity
  8
SEIHIN
100
AcDbCircle
 10
174.6779340488006
 20
88.32426780265382
 30
0.0
 40
1.999999999999926
100
AcDbArc
 50
195.0887049995152
 51
270.0
  0
ARC
  5
C9B
330
1A
100
AcDbEntity
  8
SEIHIN
100
AcDbCircle
 10
172.6808321680069
 20
85.72426780265436
 30
0.0
 40
0.9999999999999346
100
AcDbArc
 50
194.797024498789
 51
270.0
  0
ARC
  5
C9C
330
1A
100
AcDbEntity
  8
SEIHIN
100
AcDbCircle
 10
178.1614307452937
 20
83.72426780265437
 30
0.0
 40
1.000000000000015
100
AcDbArc
 50
16.3724734765168
 51
90.0
  0
LINE
  5
C9D
330
1A
100
AcDbEntity
  8
SEIHIN
100
AcDbLine
 10
179.3589824233354
 20
86.32426767548645
 30
0.0
 11
174.6779340488006
 21
86.32426780265381
 31
0.0
  0
ARC
  5
C9E
330
1A
100
AcDbEntity
  8
SEIHIN
100
AcDbCircle
 10
179.3589823961688
 20
85.32426767548646
 30
0.0
 40
1.000000000000037
100
AcDbArc
 50
16.37248012523601
 51
89.99999844346808
  0
DIMENSION
  5
C9F
330
1A
100
AcDbEntity
  8
SUNPOU
100
AcDbDimension
  2
*D7
 10
150.5098995431076
 20
230.0933271386698
 30
0.0
 11
137.5099003975406
 21
232.5933271386698
 31
0.0
 70
    32
  3
STANDARD
100
AcDbAlignedDimension
 13
124.5099012519736
 23
209.3985331644706
 33
0.0
 14
150.5098995431076
 24
200.3761667154933
 34
0.0
100
AcDbRotatedDimension
1001
ACAD
1000
DSTYLE
1002
{
1070
    41
1040
3.0
1070
    42
1040
3.0
1070
    43
1040
7.0
1070
    44
1040
1.5
1070
    73
1070
     0
1070
    74
1070
     0
1070
    77
1070
     3
1070
   140
1040
3.0
1070
   141
1040
15.0
1070
   147
1040
1.0
1070
   172
1070
     1
1070
   176
1070
   256
1070
   177
1070
   256
1070
   178
1070
   256
1070
   271
1070
     0
1070
   272
1070
     0
1070
   341
1005
B2
1070
     5
1000
OPEN
1070
   371
1070
    -1
1070
   372
1070
    -1
1002
}
  0
ARC
  5
CA0
330
1A
100
AcDbEntity
  8
SEIHIN
100
AcDbCircle
 10
148.5098995431076
 20
200.3761670943006
 30
0.0
 40
2.000000000000035
100
AcDbArc
 50
359.999989147971
 51
78.98029157818554
  0
ARC
  5
CA1
330
1A
100
AcDbEntity
  8
SEIHIN
100
AcDbCircle
 10
144.5098993249344
 20
199.2242678026543
 30
0.0
 40
6.0
100
AcDbArc
 50
270.0
 51
359.9999891479971
  0
ARC
  5
CA2
330
1A
100
AcDbEntity
  8
SEIHIN
100
AcDbCircle
 10
144.5098993249344
 20
199.2242678026543
 30
0.0
 40
4.5
100
AcDbArc
 50
270.0
 51
359.9999891479971
  0
ARC
  5
CA4
330
1A
100
AcDbEntity
  8
SEIHIN
100
AcDbCircle
 10
143.5797610263835
 20
195.024267802654
 30
0.0
 40
0.300000000000118
100
AcDbArc
 50
160.0168934780961
 51
270.0
  0
LINE
  5
CA5
330
1A
100
AcDbEntity
  8
SEIHIN
100
AcDbLine
 10
142.5219944725981
 20
197.3825247395677
 30
0.0
 11
141.2538543251907
 21
193.8951393341966
 31
0.0
  0
LINE
  5
CA6
330
1A
100
AcDbEntity
  8
SEIHIN
100
AcDbLine
 10
124.5099012519736
 20
209.3985331644706
 30
0.0
 11
124.5098977150019
 21
190.7242644647544
 31
0.0
  0
ARC
  5
CA7
330
1A
100
AcDbEntity
  8
SEIHIN
100
AcDbCircle
 10
135.9741730073797
 20
191.7242678026543
 30
0.0
 40
7.0
100
AcDbArc
 50
90.0
 51
211.0948757823079
  0
LINE
  5
CA8
330
1A
100
AcDbEntity
  8
SEIHIN
100
AcDbLine
 10
126.1099010259854
 20
208.2053760929539
 30
0.0
 11
126.1098980748693
 21
192.6242676925785
 31
0.0
  0
ARC
  5
CA9
330
1A
100
AcDbEntity
  8
SEIHIN
100
AcDbCircle
 10
135.9741730073797
 20
191.7242678026543
 30
0.0
 40
8.500000000000364
100
AcDbArc
 50
136.3203885738158
 51
174.1299329295389
  0
ARC
  5
CAA
330
1A
100
AcDbEntity
  8
SEIHIN
100
AcDbCircle
 10
146.9018205281013
 20
170.263076753388
 30
0.0
 40
5.999999999999833
100
AcDbArc
 50
137.0608680432702
 51
207.6312195127943
  0
ARC
  5
CAB
330
1A
100
AcDbEntity
  8
SEIHIN
100
AcDbCircle
 10
146.9018205281013
 20
170.263076753388
 30
0.0
 40
7.499999999999871
100
AcDbArc
 50
137.0608680432702
 51
171.0867903269343
  0
ARC
  5
CAC
330
1A
100
AcDbEntity
  8
SEIHIN
100
AcDbCircle
 10
-205.3522992272077
 20
-14.1353915575487
 30
0.0
 40
391.6000000000092
100
AcDbArc
 50
28.28464033564975
 51
30.14414153245739
  0
ARC
  5
CAD
330
1A
100
AcDbEntity
  8
SEIHIN
100
AcDbCircle
 10
136.8743648803525
 20
190.2242678026543
 30
0.0
 40
7.000000000000143
100
AcDbArc
 50
210.843414625734
 51
270.0
  0
ARC
  5
CAE
330
1A
100
AcDbEntity
  8
SEIHIN
100
AcDbCircle
 10
136.8743648803525
 20
190.2242678026543
 30
0.0
 40
8.499999999999944
100
AcDbArc
 50
245.0556485248561
 51
270.0
  0
LINE
  5
CAF
330
1A
100
AcDbEntity
  8
SEIHIN
100
AcDbLine
 10
126.509901040959
 20
190.7242678026543
 30
0.0
 11
124.5098977150019
 21
190.7242644647544
 31
0.0
  0
ARC
  5
CB0
330
1A
100
AcDbEntity
  8
SEIHIN
100
AcDbCircle
 10
-205.3522992275824
 20
-14.13539155778062
 30
0.0
 40
391.6000000004494
100
AcDbArc
 50
30.84341462564496
 51
31.0948757827996
  0
ARC
  5
CB1
330
1A
100
AcDbEntity
  8
SEIHIN
100
AcDbCircle
 10
127.2203168361921
 20
192.6242689883035
 30
0.0
 40
0.2999999999999176
100
AcDbArc
 50
270.0000956236221
 51
354.1299329295545
  0
ARC
  5
CB2
330
1A
100
AcDbEntity
  8
SEIHIN
100
AcDbCircle
 10
126.4098980748695
 20
192.6242676357574
 30
0.0
 40
0.2999999999999176
100
AcDbArc
 50
179.999989147962
 51
270.0000956236221
  0
LINE
  5
CB3
330
1A
100
AcDbEntity
  8
SEIHIN
100
AcDbLine
 10
127.2203173368762
 20
192.324268988304
 30
0.0
 11
126.4098985755536
 21
192.3242676357579
 31
0.0
  0
ARC
  5
CB4
330
1A
100
AcDbEntity
  8
SEIHIN
100
AcDbCircle
 10
144.3492559700512
 20
181.2242678026534
 30
0.0
 40
2.000000000000133
100
AcDbArc
 50
29.74488129690849
 51
90.0
  0
LINE
  5
CB5
330
1A
100
AcDbEntity
  8
SEIHIN
100
AcDbLine
 10
141.4112369664558
 20
175.3722344288355
 30
0.0
 11
145.5096676350267
 21
179.7766348186569
 31
0.0
  0
LINE
  5
CB6
330
1A
100
AcDbEntity
  8
SEIHIN
100
AcDbLine
 10
136.8743648803525
 20
181.7242678026543
 30
0.0
 11
144.3492559700512
 21
181.7242678026534
 31
0.0
  0
LINE
  5
CB7
330
1A
100
AcDbEntity
  8
SEIHIN
100
AcDbLine
 10
136.8743648803525
 20
183.2242678026543
 30
0.0
 11
144.3492559700515
 21
183.2242678026533
 31
0.0
  0
LINE
  5
CB8
330
1A
100
AcDbEntity
  8
SEIHIN
100
AcDbLine
 10
142.5093536787848
 20
174.350402893746
 30
0.0
 11
147.2593130705377
 21
179.4549721029081
 31
0.0
  0
LINE
  5
CB9
330
1A
100
AcDbEntity
  8
SEIHIN
100
AcDbLine
 10
145.5505172351982
 20
180.129842807182
 30
0.0
 11
144.7833775411136
 21
181.4723372718317
 31
0.0
  0
ARC
  5
CBA
330
1A
100
AcDbEntity
  8
SEIHIN
100
AcDbCircle
 10
145.2900442925607
 20
179.9810011256749
 30
0.0
 40
0.300000000000178
100
AcDbArc
 50
317.0608680432838
 51
29.74488129692672
  0
ARC
  5
CBB
330
1A
100
AcDbEntity
  8
SEIHIN
100
AcDbCircle
 10
144.3492559700512
 20
181.2242678026534
 30
0.0
 40
0.5000000000000898
100
AcDbArc
 50
29.74488129692016
 51
90.0
  0
ARC
  5
CBC
330
1A
100
AcDbEntity
  8
SEIHIN
100
AcDbCircle
 10
146.893274166428
 20
179.7955826146046
 30
0.0
 40
0.4999999999999604
100
AcDbArc
 50
317.060868043274
 51
29.74488129696792
  0
LINE
  5
CBD
330
1A
100
AcDbEntity
  8
SEIHIN
100
AcDbLine
 10
147.3273957374903
 20
180.0436520837829
 30
0.0
 11
146.0857422543007
 21
182.2165456793666
 31
0.0
  0
ARC
  5
CBE
330
1A
100
AcDbEntity
  8
SEIHIN
100
AcDbCircle
 10
141.7237510369346
 20
193.7242678026534
 30
0.0
 40
0.5000000000000025
100
AcDbArc
 50
160.0168934781066
 51
270.0
  0
LINE
  5
CBF
330
1A
100
AcDbEntity
  8
SEIHIN
100
AcDbLine
 10
144.5098993249344
 20
194.7242678026543
 30
0.0
 11
143.5797610263835
 21
194.7242678026541
 31
0.0
  0
LINE
  5
CC0
330
1A
100
AcDbEntity
  8
SEIHIN
100
AcDbLine
 10
144.5098993249364
 20
193.2242678026543
 30
0.0
 11
141.7237510369347
 21
193.2242678026534
 31
0.0
  0
DIMENSION
  5
CC1
330
1A
100
AcDbEntity
  8
SUNPOU
100
AcDbDimension
  2
*D9
 10
131.5099011242628
 20
221.2427815005562
 30
0.0
 11
128.0099011881182
 21
223.7427815005562
 31
0.0
 70
    32
  3
STANDARD
100
AcDbAlignedDimension
 13
124.5099012519736
 23
209.3985331644706
 33
0.0
 14
131.5099011242628
 24
208.7242629072199
 34
0.0
100
AcDbRotatedDimension
1001
ACAD
1000
DSTYLE
1002
{
1070
    41
1040
3.0
1070
    42
1040
3.0
1070
    43
1040
7.0
1070
    44
1040
1.5
1070
    73
1070
     0
1070
    74
1070
     0
1070
    77
1070
     3
1070
   140
1040
3.0
1070
   141
1040
15.0
1070
   147
1040
1.0
1070
   172
1070
     1
1070
   176
1070
   256
1070
   177
1070
   256
1070
   178
1070
   256
1070
   271
1070
     0
1070
   272
1070
     0
1070
   341
1005
B2
1070
     5
1000
OPEN
1070
   371
1070
    -1
1070
   372
1070
    -1
1002
}
  0
ARC
  5
CC2
330
1A
100
AcDbEntity
  8
SEIHIN
100
AcDbCircle
 10
135.9741730073797
 20
191.7242678026543
 30
0.0
 40
8.5
100
AcDbArc
 50
90.0
 51
122.4778405323753
  0
LINE
  5
CC3
330
1A
100
AcDbEntity
  8
SEIHIN
100
AcDbLine
 10
131.5099005560537
 20
205.7242629072181
 30
0.0
 11
148.8921919603821
 21
202.3392902457341
 31
0.0
  0
LINE
  5
CC4
330
1A
100
AcDbEntity
  8
SEIHIN
100
AcDbLine
 10
131.409900251002
 20
204.1136809937277
 30
0.0
 11
146.6509026158997
 21
201.1456962131969
 31
0.0
  0
LINE
  5
CC5
330
1A
100
AcDbEntity
  8
SEIHIN
100
AcDbLine
 10
131.5099010814027
 20
208.4979724421825
 30
0.0
 11
131.5099005560537
 21
205.7242629072181
 31
0.0
  0
LINE
  5
CC6
330
1A
100
AcDbEntity
  8
SEIHIN
100
AcDbLine
 10
129.9099008528156
 20
207.2910902650278
 30
0.0
 11
129.9098990555012
 21
197.8017686356265
 31
0.0
  0
LINE
  5
CC7
330
1A
100
AcDbEntity
  8
SEIHIN
100
AcDbLine
 10
131.409900251002
 20
204.1136809937277
 30
0.0
 11
131.4098992625372
 21
198.8948608870607
 31
0.0
  0
ARC
  5
CC8
330
1A
100
AcDbEntity
  8
SEIHIN
100
AcDbCircle
 10
129.6098990555011
 20
197.8017686924476
 30
0.0
 40
0.2999999999999576
100
AcDbArc
 50
316.3203885738115
 51
359.999989147962
  0
ARC
  5
CC9
330
1A
100
AcDbEntity
  8
SEIHIN
100
AcDbCircle
 10
125.5099012519736
 20
209.3985329750671
 30
0.0
 40
1.000000000000065
100
AcDbArc
 50
74.05460328007052
 51
179.999989147984
  0
LINE
  5
CCA
330
1A
100
AcDbEntity
  8
SEIHIN
100
AcDbLine
 10
126.4923173684783
 20
208.4938332192468
 30
0.0
 11
129.6923171953076
 21
207.5795475049631
 31
0.0
  0
LINE
  5
CCB
330
1A
100
AcDbEntity
  8
SEIHIN
100
AcDbLine
 10
125.7846223936152
 20
210.360056918781
 30
0.0
 11
131.2923174238952
 21
208.7864296821177
 31
0.0
  0
ARC
  5
CCC
330
1A
100
AcDbEntity
  8
SEIHIN
100
AcDbCircle
 10
126.4099010259856
 20
208.2053760361327
 30
0.0
 40
0.3000000000001873
100
AcDbArc
 50
74.05460328003677
 51
179.999989147962
  0
ARC
  5
CCD
330
1A
100
AcDbEntity
  8
SEIHIN
100
AcDbCircle
 10
131.2099010814027
 20
208.4979724990034
 30
0.0
 40
0.3000000000000258
100
AcDbArc
 50
359.999989148006
 51
74.05460328003677
  0
ARC
  5
CCE
330
1A
100
AcDbEntity
  8
SEIHIN
100
AcDbCircle
 10
129.6099008528154
 20
207.2910903218489
 30
0.0
 40
0.299999999999901
100
AcDbArc
 50
359.999989147962
 51
74.05460328012141
  0
ARC
  5
CCF
330
1A
100
AcDbEntity
  8
SEIHIN
100
AcDbCircle
 10
141.5822010491097
 20
197.7242678026543
 30
0.0
 40
1.000000000000004
100
AcDbArc
 50
340.0168934781067
 51
90.0
  0
LINE
  5
CD0
330
1A
100
AcDbEntity
  8
SEIHIN
100
AcDbLine
 10
135.9741730073797
 20
200.2242678026543
 30
0.0
 11
142.3191521795902
 21
200.2242678026543
 31
0.0
  0
LINE
  5
CD1
330
1A
100
AcDbEntity
  8
SEIHIN
100
AcDbLine
 10
135.9741730073797
 20
198.7242678026543
 30
0.0
 11
141.5822010491097
 21
198.7242678026543
 31
0.0
  0
LINE
  5
CD2
330
1A
100
AcDbEntity
  8
SEIHIN
100
AcDbLine
 10
143.5657534695051
 20
199.7882323879259
 30
0.0
 11
146.6509026158997
 21
201.1456962131969
 31
0.0
  0
LINE
  5
CD3
330
1A
100
AcDbEntity
  8
SEIHIN
100
AcDbLine
 10
144.2263897041703
 20
198.4401322641633
 30
0.0
 11
148.5890780378622
 21
200.3597125868325
 31
0.0
  0
ARC
  5
CD4
330
1A
100
AcDbEntity
  8
SEIHIN
100
AcDbCircle
 10
144.3472111542901
 20
198.165537695406
 30
0.0
 40
0.2999999999999199
100
AcDbArc
 50
113.7494664995853
 51
189.0674095538221
  0
ARC
  5
CD5
330
1A
100
AcDbEntity
  8
SEIHIN
100
AcDbCircle
 10
141.5822010491097
 20
197.7242678026543
 30
0.0
 40
2.500000000000012
100
AcDbArc
 50
340.0168934781067
 51
9.067409553813417
  0
ARC
  5
CD6
330
1A
100
AcDbEntity
  8
SEIHIN
100
AcDbCircle
 10
142.3191521795902
 20
198.2242678026543
 30
0.0
 40
2.000000000000145
100
AcDbArc
 50
51.44243227598437
 51
90.0
  0
LINE
  5
CD7
330
1A
100
AcDbEntity
  8
SEIHIN
100
AcDbLine
 10
143.9316846078305
 20
196.8699101449376
 30
0.0
 11
143.2978229993369
 21
195.1267907215801
 31
0.0
  0
LINE
  5
CD8
330
1A
100
AcDbEntity
  8
SEIHIN
100
AcDbLine
 10
149.0098993249344
 20
199.2242669503398
 30
0.0
 11
149.0098994879822
 21
200.0851179612543
 31
0.0
  0
ARC
  5
CD9
330
1A
100
AcDbEntity
  8
SEIHIN
100
AcDbCircle
 10
148.7098994879821
 20
200.0851180180752
 30
0.0
 40
0.3000000000000748
100
AcDbArc
 50
359.999989148006
 51
113.7494664995853
  0
LINE
  5
CDA
330
1A
100
AcDbEntity
  8
SEIHIN
100
AcDbLine
 10
150.5098993249343
 20
199.224266666237
 30
0.0
 11
150.5098995431075
 21
200.3761667154948
 31
0.0
  0
DIMENSION
  5
CDB
330
1A
100
AcDbEntity
  8
SUNPOU
100
AcDbDimension
  2
*D10
 10
248.3346187212237
 20
138.9255505592561
 30
0.0
 11
245.8346187212236
 21
148.9255505592564
 31
0.0
 70
    32
  3
STANDARD
100
AcDbAlignedDimension
 13
270.7065227079343
 23
158.9255505592566
 33
0.0
 14
262.6099010409521
 24
138.9255505592561
 34
0.0
 50
90.0
100
AcDbRotatedDimension
1001
ACAD
1000
DSTYLE
1002
{
1070
    41
1040
3.0
1070
    42
1040
3.0
1070
    43
1040
7.0
1070
    44
1040
1.5
1070
    73
1070
     0
1070
    74
1070
     0
1070
    77
1070
     3
1070
   140
1040
3.0
1070
   141
1040
15.0
1070
   147
1040
1.0
1070
   172
1070
     1
1070
   176
1070
   256
1070
   177
1070
   256
1070
   178
1070
   256
1070
   271
1070
     0
1070
   272
1070
     0
1070
   341
1005
B2
1070
     5
1000
OPEN
1070
   371
1070
    -1
1070
   372
1070
    -1
1002
}
  0
DIMENSION
  5
CDC
330
1A
100
AcDbEntity
  8
SUNPOU
100
AcDbDimension
  2
*D11
 10
299.1102383820221
 20
74.73533356341976
 30
0.0
 11
296.610238382022
 21
116.8304420613382
 31
0.0
 70
    32
  3
STANDARD
100
AcDbAlignedDimension
 13
272.7763218625046
 23
158.9255505592566
 33
0.0
 14
224.7554989448694
 24
74.73533356341977
 34
0.0
 50
90.0
100
AcDbRotatedDimension
1001
ACAD
1000
DSTYLE
1002
{
1070
    41
1040
3.0
1070
    42
1040
3.0
1070
    43
1040
7.0
1070
    44
1040
1.5
1070
    73
1070
     0
1070
    74
1070
     0
1070
    77
1070
     3
1070
   140
1040
3.0
1070
   141
1040
15.0
1070
   147
1040
1.0
1070
   172
1070
     1
1070
   176
1070
   256
1070
   177
1070
   256
1070
   178
1070
   256
1070
   271
1070
     0
1070
   272
1070
     0
1070
   341
1005
B2
1070
     5
1000
OPEN
1070
   371
1070
    -1
1070
   372
1070
    -1
1002
}
  0
LINE
  5
CDD
330
1A
100
AcDbEntity
  8
SEIHIN
100
AcDbLine
 10
269.768843864192
 20
158.2730536326217
 30
0.0
 11
262.8812280585043
 21
139.6588292619351
 31
0.0
  0
LINE
  5
CDE
330
1A
100
AcDbEntity
  8
SEIHIN
100
AcDbLine
 10
275.7481271172815
 20
144.472791421125
 30
0.0
 11
276.1727811076289
 21
153.7704228821114
 31
0.0
  0
LINE
  5
CDF
330
1A
100
AcDbEntity
  8
SEIHIN
100
AcDbLine
 10
271.0176423281069
 20
157.3255505592567
 30
0.0
 11
265.1019931978507
 21
141.3381285956363
 31
0.0
  0
LINE
  5
CE0
330
1A
100
AcDbEntity
  8
SEIHIN
100
AcDbLine
 10
276.8680672520786
 20
133.9255505592604
 30
0.0
 11
277.7711148700386
 21
153.6974216222794
 31
0.0
  0
ARC
  5
CE1
330
1A
100
AcDbEntity
  8
SEIHIN
100
AcDbCircle
 10
-715.8421273434242
 20
254.4513550417809
 30
0.0
 40
998.3999999999999
100
AcDbArc
 50
349.9208000871293
 51
353.0740991196986
  0
ARC
  5
CE2
330
1A
100
AcDbEntity
  8
SEIHIN
100
AcDbCircle
 10
-715.8421273434242
 20
254.4513550417809
 30
0.0
 40
999.9999999999998
100
AcDbArc
 50
349.9208000871293
 51
353.0775507891171
  0
LINE
  5
CE3
330
1A
100
AcDbEntity
  8
CENTER_L
100
AcDbLine
 10
224.7554989448694
 20
69.81270842417348
 30
0.0
 11
224.7554989448694
 21
81.72670725467742
 31
0.0
  0
ARC
  5
CE4
330
1A
100
AcDbEntity
  8
SEIHIN
100
AcDbCircle
 10
263.801817246449
 20
80.31709124400732
 30
0.0
 40
5.00000000000004
100
AcDbArc
 50
271.9779273652109
 51
349.9208000871218
  0
ARC
  5
CE5
330
1A
100
AcDbEntity
  8
SEIHIN
100
AcDbCircle
 10
263.801817246449
 20
80.31709124400732
 30
0.0
 40
3.39999999999992
100
AcDbArc
 50
271.9779273652077
 51
349.920800087121
  0
LINE
  5
CE6
330
1A
100
AcDbEntity
  8
SEIHIN
100
AcDbLine
 10
263.3893608549906
 20
138.9868563873266
 30
0.0
 11
271.1919531457884
 21
139.6005434214346
 31
0.0
  0
LINE
  5
CE7
330
1A
100
AcDbEntity
  8
SEIHIN
100
AcDbLine
 10
275.272479924005
 20
134.0586839146317
 30
0.0
 11
275.679157754455
 21
142.9627344518687
 31
0.0
  0
LINE
  5
CE8
330
1A
100
AcDbEntity
  8
SEIHIN
100
AcDbLine
 10
271.5937453272222
 20
144.1460422915699
 30
0.0
 11
275.7481271172815
 21
144.472791421125
 31
0.0
  0
LINE
  5
CE9
330
1A
100
AcDbEntity
  8
SEIHIN
100
AcDbLine
 10
272.6652033154828
 20
142.7256818555454
 30
0.0
 11
275.679157754455
 21
142.9627344518687
 31
0.0
  0
LINE
  5
CEA
330
1A
100
AcDbEntity
  8
SEIHIN
100
AcDbLine
 10
270.438443052693
 20
141.0459109952805
 30
0.0
 11
271.5937453272222
 21
144.1460422915699
 31
0.0
  0
LINE
  5
CEB
330
1A
100
AcDbEntity
  8
SEIHIN
100
AcDbLine
 10
265.610125994337
 20
140.6661557210278
 30
0.0
 11
270.438443052693
 21
141.0459109952805
 31
0.0
  0
ARC
  5
CEC
330
1A
100
AcDbEntity
  8
SEIHIN
100
AcDbCircle
 10
271.1527483781988
 20
140.0990040379313
 30
0.0
 40
0.5000000000000096
100
AcDbArc
 50
274.4971516146625
 51
339.5614685906791
  0
LINE
  5
CED
330
1A
100
AcDbEntity
  8
SEIHIN
100
AcDbLine
 10
271.6212720596373
 20
139.9244028926557
 30
0.0
 11
272.6652033154828
 21
142.7256818555454
 31
0.0
  0
DIMENSION
  5
CEE
330
1A
100
AcDbEntity
  8
SUNPOU
100
AcDbDimension
  2
*D12
 10
270.0102800935807
 20
177.8818029708986
 30
0.0
 11
273.8933009780426
 21
180.3818029708986
 31
0.0
 70
    32
  3
STANDARD
100
AcDbAlignedDimension
 13
277.7763218625044
 23
153.9255505592566
 33
0.0
 14
270.0102800935807
 24
158.9255505592566
 34
0.0
100
AcDbRotatedDimension
1001
ACAD
1000
DSTYLE
1002
{
1070
    41
1040
3.0
1070
    42
1040
3.0
1070
    43
1040
7.0
1070
    44
1040
1.5
1070
    73
1070
     0
1070
    74
1070
     0
1070
    77
1070
     3
1070
   140
1040
3.0
1070
   141
1040
15.0
1070
   147
1040
1.0
1070
   172
1070
     1
1070
   176
1070
   256
1070
   177
1070
   256
1070
   178
1070
   256
1070
   271
1070
     0
1070
   272
1070
     0
1070
   341
1005
B2
1070
     5
1000
OPEN
1070
   371
1070
    -1
1070
   372
1070
    -1
1002
}
  0
ARC
  5
CEF
330
1A
100
AcDbEntity
  8
SEIHIN
100
AcDbCircle
 10
272.7763218625046
 20
153.9255505592566
 30
0.0
 40
4.999999999999845
100
AcDbArc
 50
357.3849271045685
 51
90.0
  0
ARC
  5
CF0
330
1A
100
AcDbEntity
  8
SEIHIN
100
AcDbCircle
 10
272.7763218625055
 20
153.9255505592564
 30
0.0
 40
3.400000000000112
100
AcDbArc
 50
357.3849271045758
 51
90.0
  0
ARC
  5
CF1
330
1A
100
AcDbEntity
  8
SEIHIN
100
AcDbCircle
 10
270.7065227079343
 20
157.9255505592566
 30
0.0
 40
1.0
100
AcDbArc
 50
90.00000000005213
 51
159.7238100727603
  0
LINE
  5
CF2
330
1A
100
AcDbEntity
  8
SEIHIN
100
AcDbLine
 10
271.0176423281069
 20
157.3255505592567
 30
0.0
 11
272.7763218625055
 21
157.3255505592564
 31
0.0
  0
LINE
  5
CF3
330
1A
100
AcDbEntity
  8
SEIHIN
100
AcDbLine
 10
270.7065227079343
 20
158.9255505592566
 30
0.0
 11
272.7763218625046
 21
158.9255505592566
 31
0.0
  0
LINE
  5
DFC
330
1A
100
AcDbEntity
  8
ZUWAKU
100
AcDbLine
 10
104.3233001621349
 20
15.09999996135636
 30
0.0
 11
223.9121815025967
 21
15.09999996135636
 31
0.0
  0
LINE
  5
DFD
330
1A
100
AcDbEntity
  8
ZUWAKU
100
AcDbLine
 10
104.3233001621349
 20
15.19999996135636
 30
0.0
 11
223.9121815025967
 21
15.19999996135636
 31
0.0
  0
LINE
  5
DFE
330
1A
100
AcDbEntity
  8
ZUWAKU
100
AcDbLine
 10
104.3233001621349
 20
14.99999996135637
 30
0.0
 11
223.9121815025967
 21
14.99999996135636
 31
0.0
  0
LINE
  5
DFF
330
1A
100
AcDbEntity
  8
ZUWAKU
100
AcDbLine
 10
104.323300162135
 20
7.699999961356384
 30
0.0
 11
223.7121815025967
 21
7.699999961356381
 31
0.0
  0
LINE
  5
E00
330
1A
100
AcDbEntity
  8
ZUWAKU
100
AcDbLine
 10
104.323300162135
 20
7.899999961356384
 30
0.0
 11
223.7121815025967
 21
7.899999961356384
 31
0.0
  0
LINE
  5
E01
330
1A
100
AcDbEntity
  8
ZUWAKU
100
AcDbLine
 10
104.323300162135
 20
7.799999961356382
 30
0.0
 11
223.7121815025967
 21
7.799999961356382
 31
0.0
  0
TEXT
  5
E02
330
1A
100
AcDbEntity
  8
MOJI
100
AcDbText
 10
119.9136008575265
 20
8.902460490060063
 30
0.0
 40
2.799999999999999
  1
ＶＭ１６０－３,０００
 41
0.9
  7
ｽﾀｲﾙ1
100
AcDbText
  0
TEXT
  5
E03
330
1A
100
AcDbEntity
  8
MOJI
100
AcDbText
 10
119.9136008575266
 20
16.30246049006004
 30
0.0
 40
2.799999999999999
  1
ＶＭ１６０－４,０００
 41
0.9
  7
ｽﾀｲﾙ1
100
AcDbText
  0
TEXT
  5
E06
330
1A
100
AcDbEntity
  8
MOJI
100
AcDbText
 10
230.4890005988666
 20
10.81376843064858
 30
0.0
 40
2.799999999999999
  1
ＣＶ２１□
 41
0.9
  7
ｽﾀｲﾙ1
100
AcDbText
  0
TEXT
  5
E07
330
1A
100
AcDbEntity
  8
MOJI
100
AcDbText
 10
230.5890005988665
 20
17.91376843064855
 30
0.0
 40
2.799999999999999
  1
ＣＶ２０□
 41
0.9
  7
ｽﾀｲﾙ1
100
AcDbText
  0
ARC
  5
E82
330
1A
100
AcDbEntity
  8
SEIHIN
100
AcDbCircle
 10
263.350156087401
 20
139.4853170038233
 30
0.0
 40
0.5
100
AcDbArc
 50
159.6945711496639
 51
274.4971516146697
  0
ARC
  5
E83
330
1A
100
AcDbEntity
  8
SEIHIN
100
AcDbCircle
 10
265.5709212267474
 20
141.1646163375245
 30
0.0
 40
0.5
100
AcDbArc
 50
159.6945711496617
 51
274.4971516146676
  0
LINE
  5
F9E
102
{ACAD_REACTORS
330
FA1
102
}
330
1A
100
AcDbEntity
  8
KEIJYO
 62
   251
100
AcDbLine
 10
141.7431770782695
 20
197.3825247395677
 30
0.0
 11
143.3008118669271
 21
197.3825247395677
 31
0.0
  0
LINE
  5
F9F
102
{ACAD_REACTORS
330
FA1
102
}
330
1A
100
AcDbEntity
  8
KEIJYO
 62
   251
100
AcDbLine
 10
142.5219944725981
 20
198.1613421338965
 30
0.0
 11
142.5219944725981
 21
196.603707345239
 31
0.0
  0
CIRCLE
  5
FA0
102
{ACAD_REACTORS
330
FA1
102
}
330
1A
100
AcDbEntity
  8
KEIJYO
 62
   251
100
AcDbCircle
 10
142.5219944725981
 20
197.3825247395677
 30
0.0
 40
0.7788173943287319
  0
LINE
  5
FBC
102
{ACAD_REACTORS
330
FBF
102
}
330
1A
100
AcDbEntity
  8
KEIJYO
 62
   251
100
AcDbLine
 10
123.7310838576449
 20
210.3985329750671
 30
0.0
 11
125.2887186463026
 21
210.3985329750671
 31
0.0
  0
CIRCLE
  5
FBD
102
{ACAD_REACTORS
330
FBF
102
}
330
1A
100
AcDbEntity
  8
KEIJYO
 62
   251
100
AcDbCircle
 10
124.5099012519735
 20
210.3985329750671
 30
0.0
 40
0.7788173943287319
  0
LINE
  5
FBE
102
{ACAD_REACTORS
330
FBF
102
}
330
1A
100
AcDbEntity
  8
KEIJYO
 62
   251
100
AcDbLine
 10
124.5099012519735
 20
211.1773503693959
 30
0.0
 11
124.5099012519735
 21
209.6197155807384
 31
0.0
  0
VIEWPORT
  5
22
330
17
100
AcDbEntity
 67
     1
  8
0
100
AcDbViewport
 10
313.6808219178082
 20
148.5
 30
0.0
 40
627.3616438356165
 41
297.0
 68
     2
 69
     1
1001
ACAD
1000
MVIEW
1002
{
1070
    16
1010
0.0
1020
0.0
1030
0.0
1010
0.0
1020
0.0
1030
1.0
1040
0.0
1040
297.0
1040
313.6808219178082
1040
148.5
1040
50.0
1040
0.0
1040
0.0
1070
     0
1070
   100
1070
     1
1070
     0
1070
     0
1070
     0
1070
     0
1070
     0
1040
0.0
1040
0.0
1040
0.0
1040
1.0
1040
1.0
1040
10.0
1040
10.0
1070
     0
1002
{
1002
}
1002
}
  0
VIEWPORT
  5
64
330
17
100
AcDbEntity
 67
     1
  8
VIEWPORT
100
AcDbViewport
 10
210.0
 20
148.5
 30
0.0
 40
420.0
 41
297.0
 68
     1
 69
     2
1001
ACAD
1000
MVIEW
1002
{
1070
    16
1010
0.0
1020
0.0
1030
0.0
1010
0.0
1020
0.0
1030
1.0
1040
0.0
1040
302.9399999999998
1040
210.0
1040
148.5
1040
50.0
1040
0.0
1040
0.0
1070
     0
1070
   100
1070
     1
1070
     0
1070
     0
1070
     0
1070
     0
1070
     0
1040
0.0
1040
0.0
1040
0.0
1040
5.0
1040
5.0
1040
0.0
1040
0.0
1070
     0
1002
{
1002
}
1002
}
  0
ENDSEC
  0
SECTION
  2
OBJECTS
  0
DICTIONARY
  5
C
330
0
100
AcDbDictionary
  3
ACAD_GROUP
350
D
  3
ACAD_LAYOUT
350
624
  3
ACAD_MLINESTYLE
350
E
  3
ACAD_PLOTSETTINGS
350
625
  3
ACAD_PLOTSTYLENAME
350
622
  3
ACDBHEADERROUNDTRIPXREC
350
FD1
  0
DICTIONARY
  5
F94
330
2
100
AcDbDictionary
280
     1
  3
ACAD_LAYERFILTERS
360
F95
  0
DICTIONARY
  5
651
330
1A
100
AcDbDictionary
280
     1
  3
ACAD_LAYOUTSELFREF
360
FF3
  0
DICTIONARY
  5
64F
330
17
100
AcDbDictionary
280
     1
  3
ACAD_LAYOUTSELFREF
360
FF2
  0
DICTIONARY
  5
D
102
{ACAD_REACTORS
330
C
102
}
330
C
100
AcDbDictionary
  3
*A1
350
F5D
  3
*A2
350
FA1
  3
*A3
350
FBF
  0
DICTIONARY
  5
624
102
{ACAD_REACTORS
330
C
102
}
330
C
100
AcDbDictionary
  0
DICTIONARY
  5
E
102
{ACAD_REACTORS
330
C
102
}
330
C
100
AcDbDictionary
  3
STANDARD
350
13
  0
DICTIONARY
  5
625
102
{ACAD_REACTORS
330
C
102
}
330
C
100
AcDbDictionary
  0
ACDBDICTIONARYWDFLT
  5
622
102
{ACAD_REACTORS
330
C
102
}
330
C
100
AcDbDictionary
281
     1
  3
Normal
350
623
100
AcDbDictionaryWithDefault
340
623
1001
ACAD
1000
TREAT_AS_HARD
1070
     0
1000
TREAT_AS_HARD
1070
     0
1000
TREAT_AS_HARD
1070
     0
1000
TREAT_AS_HARD
1070
     0
  0
DICTIONARY
  5
FD1
102
{ACAD_REACTORS
330
C
102
}
330
C
100
AcDbDictionary
  3
TSTACKALIGN
350
FD2
  3
TSTACKSIZE
350
FD3
  3
HYPERLINKBASE
350
FD4
  3
STYLESHEET
350
FD5
  3
LAYOUTDICT
350
FD6
  3
PLOTSETDICT
350
FD7
  3
PLOTSTYLNAMDICT
350
FD8
  3
LWETCUNION
350
FD9
  3
INSUNITS
350
FDA
  3
CEPSNTYPE
350
FDB
  3
FINGERPRINTGUID
350
FDC
  3
VERSIONGUID
350
FDD
  3
PSVPSCALE
350
FDE
  3
DIMSTYLEDATA
350
FDF
  3
PUCSORTHOREF
350
FE0
  3
PUCSORTHOVIEW
350
FE1
  3
PUCSBASE
350
FE2
  3
PUCSORGTOP
350
FE3
  3
PUCSORGBOTTOM
350
FE4
  3
PUCSORGLEFT
350
FE5
  3
PUCSORGRIGHT
350
FE6
  3
PUCSORGFRONT
350
FE7
  3
PUCSORGBACK
350
FE8
  3
UCSORTHOREF
350
FE9
  3
UCSORTHOVIEW
350
FEA
  3
UCSBASE
350
FEB
  3
UCSORGTOP
350
FEC
  3
UCSORGBOTTOM
350
FED
  3
UCSORGLEFT
350
FEE
  3
UCSORGRIGHT
350
FEF
  3
UCSORGFRONT
350
FF0
  3
UCSORGBACK
350
FF1
  0
DICTIONARY
  5
F95
102
{ACAD_REACTORS
330
F94
102
}
330
F94
100
AcDbDictionary
280
     1
  3
50
360
F96
  0
XRECORD
  5
FF3
102
{ACAD_REACTORS
330
651
102
}
330
651
100
AcDbXrecord
340
1A
  0
XRECORD
  5
FF2
102
{ACAD_REACTORS
330
64F
102
}
330
64F
100
AcDbXrecord
340
17
  0
GROUP
  5
F5D
102
{ACAD_REACTORS
330
D
102
}
330
D
100
AcDbGroup
300

 70
     1
 71
     1
  0
GROUP
  5
FA1
102
{ACAD_REACTORS
330
D
102
}
330
D
100
AcDbGroup
300

 70
     1
 71
     1
340
FA0
340
F9F
340
F9E
  0
GROUP
  5
FBF
102
{ACAD_REACTORS
330
D
102
}
330
D
100
AcDbGroup
300

 70
     1
 71
     1
340
FBD
340
FBE
340
FBC
  0
MLINESTYLE
  5
13
102
{ACAD_REACTORS
330
E
102
}
330
E
100
AcDbMlineStyle
  2
STANDARD
 70
     0
  3

 62
     0
 51
90.0
 52
90.0
 71
     2
 49
0.5
 62
   256
  6
BYLAYER
 49
-0.5
 62
   256
  6
BYLAYER
  0
ACDBPLACEHOLDER
  5
623
102
{ACAD_REACTORS
330
622
102
}
330
622
100
AcDbPlaceHolder
280
     0
  0
XRECORD
  5
FD2
102
{ACAD_REACTORS
330
FD1
102
}
330
FD1
100
AcDbXrecord
 90
        1
  0
XRECORD
  5
FD3
102
{ACAD_REACTORS
330
FD1
102
}
330
FD1
100
AcDbXrecord
 90
       70
  0
XRECORD
  5
FD4
102
{ACAD_REACTORS
330
FD1
102
}
330
FD1
100
AcDbXrecord
  1

  0
XRECORD
  5
FD5
102
{ACAD_REACTORS
330
FD1
102
}
330
FD1
100
AcDbXrecord
  1
systemprinter.ctb
  0
XRECORD
  5
FD6
102
{ACAD_REACTORS
330
FD1
102
}
330
FD1
100
AcDbXrecord
340
624
  0
XRECORD
  5
FD7
102
{ACAD_REACTORS
330
FD1
102
}
330
FD1
100
AcDbXrecord
340
625
  0
XRECORD
  5
FD8
102
{ACAD_REACTORS
330
FD1
102
}
330
FD1
100
AcDbXrecord
340
622
  0
XRECORD
  5
FD9
102
{ACAD_REACTORS
330
FD1
102
}
330
FD1
100
AcDbXrecord
 90
    10781
  0
XRECORD
  5
FDA
102
{ACAD_REACTORS
330
FD1
102
}
330
FD1
100
AcDbXrecord
 90
        0
  0
XRECORD
  5
FDB
102
{ACAD_REACTORS
330
FD1
102
}
330
FD1
100
AcDbXrecord
 90
        0
  0
XRECORD
  5
FDC
102
{ACAD_REACTORS
330
FD1
102
}
330
FD1
100
AcDbXrecord
  1
{137E7082-72B8-11D5-AA3E-50A453C10000}
  0
XRECORD
  5
FDD
102
{ACAD_REACTORS
330
FD1
102
}
330
FD1
100
AcDbXrecord
  1
{DAF66DFC-1336-4EFB-9789-7F6D53858F0C}
  0
XRECORD
  5
FDE
102
{ACAD_REACTORS
330
FD1
102
}
330
FD1
100
AcDbXrecord
 40
0.0
  0
XRECORD
  5
FDF
102
{ACAD_REACTORS
330
FD1
102
}
330
FD1
100
AcDbXrecord
1000
DSTYLE
1002
{
1070
   341
340
B2
1070
   343
340
B2
1070
   344
340
B2
1070
   371
 70
    -1
1070
   372
 70
    -1
1002
}
  0
XRECORD
  5
FE0
102
{ACAD_REACTORS
330
FD1
102
}
330
FD1
100
AcDbXrecord
340
0
  0
XRECORD
  5
FE1
102
{ACAD_REACTORS
330
FD1
102
}
330
FD1
100
AcDbXrecord
 70
     0
  0
XRECORD
  5
FE2
102
{ACAD_REACTORS
330
FD1
102
}
330
FD1
100
AcDbXrecord
340
0
  0
XRECORD
  5
FE3
102
{ACAD_REACTORS
330
FD1
102
}
330
FD1
100
AcDbXrecord
 10
0.0
 20
0.0
 30
0.0
  0
XRECORD
  5
FE4
102
{ACAD_REACTORS
330
FD1
102
}
330
FD1
100
AcDbXrecord
 10
0.0
 20
0.0
 30
0.0
  0
XRECORD
  5
FE5
102
{ACAD_REACTORS
330
FD1
102
}
330
FD1
100
AcDbXrecord
 10
0.0
 20
0.0
 30
0.0
  0
XRECORD
  5
FE6
102
{ACAD_REACTORS
330
FD1
102
}
330
FD1
100
AcDbXrecord
 10
0.0
 20
0.0
 30
0.0
  0
XRECORD
  5
FE7
102
{ACAD_REACTORS
330
FD1
102
}
330
FD1
100
AcDbXrecord
 10
0.0
 20
0.0
 30
0.0
  0
XRECORD
  5
FE8
102
{ACAD_REACTORS
330
FD1
102
}
330
FD1
100
AcDbXrecord
 10
0.0
 20
0.0
 30
0.0
  0
XRECORD
  5
FE9
102
{ACAD_REACTORS
330
FD1
102
}
330
FD1
100
AcDbXrecord
340
0
  0
XRECORD
  5
FEA
102
{ACAD_REACTORS
330
FD1
102
}
330
FD1
100
AcDbXrecord
 70
     0
  0
XRECORD
  5
FEB
102
{ACAD_REACTORS
330
FD1
102
}
330
FD1
100
AcDbXrecord
340
0
  0
XRECORD
  5
FEC
102
{ACAD_REACTORS
330
FD1
102
}
330
FD1
100
AcDbXrecord
 10
0.0
 20
0.0
 30
0.0
  0
XRECORD
  5
FED
102
{ACAD_REACTORS
330
FD1
102
}
330
FD1
100
AcDbXrecord
 10
0.0
 20
0.0
 30
0.0
  0
XRECORD
  5
FEE
102
{ACAD_REACTORS
330
FD1
102
}
330
FD1
100
AcDbXrecord
 10
0.0
 20
0.0
 30
0.0
  0
XRECORD
  5
FEF
102
{ACAD_REACTORS
330
FD1
102
}
330
FD1
100
AcDbXrecord
 10
0.0
 20
0.0
 30
0.0
  0
XRECORD
  5
FF0
102
{ACAD_REACTORS
330
FD1
102
}
330
FD1
100
AcDbXrecord
 10
0.0
 20
0.0
 30
0.0
  0
XRECORD
  5
FF1
102
{ACAD_REACTORS
330
FD1
102
}
330
FD1
100
AcDbXrecord
 10
0.0
 20
0.0
 30
0.0
  0
XRECORD
  5
F96
102
{ACAD_REACTORS
330
F95
102
}
330
F95
100
AcDbXrecord
  1
50
  1
*-50
  1
*
  1
*
 70
     0
  1
*
  1
*
  0
ENDSEC
  0
EOF
