  0
SECTION
  2
HEADER
  9
$ACADVER
  1
AC1012
  9
$DWGCODEPAGE
  3
dos932
  9
$INSBASE
 10
0.0
 20
0.0
 30
0.0
  9
$EXTMIN
 10
10.05047808566086
 20
4.949376903717846
 30
-0.00000001
  9
$EXTMAX
 10
806.2246110975902
 20
563.7825862828226
 30
0.00000001
  9
$LIMMIN
 10
0.0
 20
0.0
  9
$LIMMAX
 10
840.0
 20
594.0
  9
$ORTHOMODE
 70
     0
  9
$REGENMODE
 70
     1
  9
$FILLMODE
 70
     1
  9
$QTEXTMODE
 70
     0
  9
$MIRRTEXT
 70
     1
  9
$DRAGMODE
 70
     2
  9
$LTSCALE
 40
2.0
  9
$OSMODE
 70
   319
  9
$ATTMODE
 70
     1
  9
$TEXTSIZE
 40
5.0
  9
$TRACEWID
 40
1.0
  9
$TEXTSTYLE
  7
STANDARD
  9
$CLAYER
  8
CENTER_L
  9
$CELTYPE
  6
BYLAYER
  9
$CECOLOR
 62
   256
  9
$CELTSCALE
 40
1.0
  9
$DELOBJ
 70
     1
  9
$DISPSILH
 70
     0
  9
$DIMSCALE
 40
1.0
  9
$DIMASZ
 40
7.0
  9
$DIMEXO
 40
6.0
  9
$DIMDLI
 40
14.0
  9
$DIMRND
 40
0.0
  9
$DIMDLE
 40
0.0
  9
$DIMEXE
 40
3.0
  9
$DIMTP
 40
0.0
  9
$DIMTM
 40
0.0
  9
$DIMTXT
 40
6.0
  9
$DIMCEN
 40
150.0
  9
$DIMTSZ
 40
0.0
  9
$DIMTOL
 70
     0
  9
$DIMLIM
 70
     0
  9
$DIMTIH
 70
     0
  9
$DIMTOH
 70
     0
  9
$DIMSE1
 70
     0
  9
$DIMSE2
 70
     0
  9
$DIMTAD
 70
     3
  9
$DIMZIN
 70
     0
  9
$DIMBLK
  1

  9
$DIMASO
 70
     1
  9
$DIMSHO
 70
     1
  9
$DIMPOST
  1

  9
$DIMAPOST
  1

  9
$DIMALT
 70
     0
  9
$DIMALTD
 70
     2
  9
$DIMALTF
 40
25.4
  9
$DIMLFAC
 40
1.0
  9
$DIMTOFL
 70
     1
  9
$DIMTVP
 40
0.0
  9
$DIMTIX
 70
     0
  9
$DIMSOXD
 70
     0
  9
$DIMSAH
 70
     1
  9
$DIMBLK1
  1
OPEN
  9
$DIMBLK2
  1
OPEN
  9
$DIMSTYLE
  2
STANDARD
  9
$DIMCLRD
 70
   256
  9
$DIMCLRE
 70
   256
  9
$DIMCLRT
 70
   256
  9
$DIMTFAC
 40
1.0
  9
$DIMGAP
 40
2.0
  9
$DIMJUST
 70
     0
  9
$DIMSD1
 70
     0
  9
$DIMSD2
 70
     0
  9
$DIMTOLJ
 70
     1
  9
$DIMTZIN
 70
     0
  9
$DIMALTZ
 70
     0
  9
$DIMALTTZ
 70
     0
  9
$DIMFIT
 70
     3
  9
$DIMUPT
 70
     0
  9
$DIMUNIT
 70
     2
  9
$DIMDEC
 70
     0
  9
$DIMTDEC
 70
     0
  9
$DIMALTU
 70
     2
  9
$DIMALTTD
 70
     2
  9
$DIMTXSTY
  7
STANDARD
  9
$DIMAUNIT
 70
     0
  9
$LUNITS
 70
     2
  9
$LUPREC
 70
     4
  9
$SKETCHINC
 40
1.0
  9
$FILLETRAD
 40
1.0
  9
$AUNITS
 70
     0
  9
$AUPREC
 70
     0
  9
$MENU
  1
.
  9
$ELEVATION
 40
0.0
  9
$PELEVATION
 40
0.0
  9
$THICKNESS
 40
0.0
  9
$LIMCHECK
 70
     0
  9
$BLIPMODE
 70
     0
  9
$CHAMFERA
 40
20.0
  9
$CHAMFERB
 40
20.0
  9
$CHAMFERC
 40
40.0
  9
$CHAMFERD
 40
0.0
  9
$SKPOLY
 70
     0
  9
$TDCREATE
 40
2451187.423277546
  9
$TDUPDATE
 40
2452423.334698958
  9
$TDINDWG
 40
0.0271314815
  9
$TDUSRTIMER
 40
0.0271314815
  9
$USRTIMER
 70
     1
  9
$ANGBASE
 50
0.0
  9
$ANGDIR
 70
     0
  9
$PDMODE
 70
     0
  9
$PDSIZE
 40
0.0
  9
$PLINEWID
 40
0.0
  9
$COORDS
 70
     1
  9
$SPLFRAME
 70
     0
  9
$SPLINETYPE
 70
     6
  9
$SPLINESEGS
 70
     8
  9
$ATTDIA
 70
     0
  9
$ATTREQ
 70
     1
  9
$HANDLING
 70
 10241
  9
$HANDSEED
  5
48D
  9
$SURFTAB1
 70
     6
  9
$SURFTAB2
 70
     6
  9
$SURFTYPE
 70
     6
  9
$SURFU
 70
     6
  9
$SURFV
 70
     6
  9
$UCSNAME
  2

  9
$UCSORG
 10
0.0
 20
0.0
 30
0.0
  9
$UCSXDIR
 10
1.0
 20
0.0
 30
0.0
  9
$UCSYDIR
 10
0.0
 20
1.0
 30
0.0
  9
$PUCSNAME
  2

  9
$PUCSORG
 10
0.0
 20
0.0
 30
0.0
  9
$PUCSXDIR
 10
1.0
 20
0.0
 30
0.0
  9
$PUCSYDIR
 10
0.0
 20
1.0
 30
0.0
  9
$USERI1
 70
     0
  9
$USERI2
 70
     0
  9
$USERI3
 70
     0
  9
$USERI4
 70
     0
  9
$USERI5
 70
     0
  9
$USERR1
 40
0.0
  9
$USERR2
 40
0.0
  9
$USERR3
 40
0.0
  9
$USERR4
 40
0.0
  9
$USERR5
 40
0.0
  9
$WORLDVIEW
 70
     1
  9
$SHADEDGE
 70
     3
  9
$SHADEDIF
 70
    70
  9
$TILEMODE
 70
     1
  9
$MAXACTVP
 70
    16
  9
$PINSBASE
 10
0.0
 20
0.0
 30
0.0
  9
$PLIMCHECK
 70
     0
  9
$PEXTMIN
 10
0.0
 20
0.0
 30
0.0
  9
$PEXTMAX
 10
420.0
 20
297.0
 30
0.0
  9
$PLIMMIN
 10
0.0
 20
0.0
  9
$PLIMMAX
 10
420.0
 20
297.0
  9
$UNITMODE
 70
     0
  9
$VISRETAIN
 70
     0
  9
$PLINEGEN
 70
     0
  9
$PSLTSCALE
 70
     1
  9
$TREEDEPTH
 70
  3020
  9
$PICKSTYLE
 70
     1
  9
$CMLSTYLE
  2
STANDARD
  9
$CMLJUST
 70
     0
  9
$CMLSCALE
 40
1.0
  9
$SAVEIMAGES
 70
     1
  0
ENDSEC
  0
SECTION
  2
CLASSES
  0
CLASS
  1
ACDBDICTIONARYWDFLT
  2
AcDbDictionaryWithDefault
  3
AutoCAD 2000
 90
    32768
280
     0
281
     0
  0
CLASS
  1
ACDBPLACEHOLDER
  2
AcDbPlaceHolder
  3
AutoCAD 2000
 90
    32768
280
     0
281
     0
  0
CLASS
  1
LAYOUT
  2
AcDbLayout
  3
AutoCAD 2000
 90
    32768
280
     0
281
     0
  0
CLASS
  1
LONG_TRANSACTION
  2
AcDbLongTransaction
  3
AutoCAD 2000
 90
    32768
280
     0
281
     0
  0
CLASS
  1
LWPOLYLINE
  2
AcDbPolyline
  3
AutoCAD 2000
 90
    32768
280
     0
281
     1
  0
CLASS
  1
HATCH
  2
AcDbHatch
  3
AutoCAD 2000
 90
    32768
280
     0
281
     1
  0
CLASS
  1
XRECORD
  2
AcDbXrecord
  3
AutoCAD 2000
 90
    32768
280
     0
281
     0
  0
CLASS
  1
LONG_TRANSACTION
  2
AcDbLongTransaction
  3
AutoCAD 2000
 90
    32768
280
     0
281
     0
  0
CLASS
  1
LWPOLYLINE
  2
AcDbPolyline
  3
AutoCAD 2000
 90
    32768
280
     0
281
     1
  0
CLASS
  1
HATCH
  2
AcDbHatch
  3
AutoCAD 2000
 90
    32768
280
     0
281
     1
  0
CLASS
  1
XRECORD
  2
AcDbXrecord
  3
AutoCAD 2000
 90
    32768
280
     0
281
     0
  0
ENDSEC
  0
SECTION
  2
TABLES
  0
TABLE
  2
VPORT
  5
8
330
0
100
AcDbSymbolTable
 70
     2
  0
VPORT
  5
481
330
8
100
AcDbSymbolTableRecord
100
AcDbViewportTableRecord
  2
*ACTIVE
 70
     0
 10
0.0
 20
0.0
 11
1.0
 21
1.0
 12
414.3407517665698
 22
294.7810839580875
 13
0.0
 23
0.0
 14
5.0
 24
5.0
 15
0.0
 25
0.0
 16
0.0
 26
0.0
 36
1.0
 17
0.0
 27
0.0
 37
0.0
 40
594.9013067564675
 41
1.709909909909909
 42
50.0
 43
0.0
 44
0.0
 50
0.0
 51
0.0
 71
     0
 72
   100
 73
     1
 74
     0
 75
     0
 76
     0
 77
     0
 78
     0
  0
ENDTAB
  0
TABLE
  2
LTYPE
  5
5
330
0
100
AcDbSymbolTable
 70
     3
  0
LTYPE
  5
14
330
5
100
AcDbSymbolTableRecord
100
AcDbLinetypeTableRecord
  2
BYBLOCK
 70
     0
  3

 72
    65
 73
     0
 40
0.0
  0
LTYPE
  5
15
330
5
100
AcDbSymbolTableRecord
100
AcDbLinetypeTableRecord
  2
BYLAYER
 70
     0
  3

 72
    65
 73
     0
 40
0.0
  0
LTYPE
  5
16
330
5
100
AcDbSymbolTableRecord
100
AcDbLinetypeTableRecord
  2
CONTINUOUS
 70
     0
  3
Solid line
 72
    65
 73
     0
 40
0.0
  0
LTYPE
  5
115
330
5
100
AcDbSymbolTableRecord
100
AcDbLinetypeTableRecord
  2
PHANTOM
 70
     0
  3
______  __  __  ______  __  __  ______  __  __ 
 72
    65
 73
     6
 40
2.5
 49
1.25
 74
     0
 49
-0.25
 74
     0
 49
0.25
 74
     0
 49
-0.25
 74
     0
 49
0.25
 74
     0
 49
-0.25
 74
     0
  0
LTYPE
  5
135
330
5
100
AcDbSymbolTableRecord
100
AcDbLinetypeTableRecord
  2
CENTER
 70
     0
  3
____ _ ____ _ ____ _ ____ _ ____ _ ____ _ ____ 
 72
    65
 73
     4
 40
2.0
 49
1.25
 74
     0
 49
-0.25
 74
     0
 49
0.25
 74
     0
 49
-0.25
 74
     0
  0
ENDTAB
  0
TABLE
  2
LAYER
  5
2
330
0
100
AcDbSymbolTable
 70
     8
  0
LAYER
  5
F
330
2
100
AcDbSymbolTableRecord
100
AcDbLayerTableRecord
  2
0
 70
     0
 62
     7
  6
CONTINUOUS
  0
LAYER
  5
62
330
2
100
AcDbSymbolTableRecord
100
AcDbLayerTableRecord
  2
VIEWPORT
 70
     0
 62
     7
  6
CONTINUOUS
  0
LAYER
  5
65
330
2
100
AcDbSymbolTableRecord
100
AcDbLayerTableRecord
  2
ZUWAKU
 70
     0
 62
     7
  6
CONTINUOUS
  0
LAYER
  5
143
330
2
100
AcDbSymbolTableRecord
100
AcDbLayerTableRecord
  2
SEIHIN
 70
     0
 62
     3
  6
CONTINUOUS
  0
LAYER
  5
144
330
2
100
AcDbSymbolTableRecord
100
AcDbLayerTableRecord
  2
SUNPOU
 70
     0
 62
     4
  6
CONTINUOUS
  0
LAYER
  5
145
330
2
100
AcDbSymbolTableRecord
100
AcDbLayerTableRecord
  2
CENTER_L
 70
     0
 62
     1
  6
CENTER
  0
LAYER
  5
21F
330
2
100
AcDbSymbolTableRecord
100
AcDbLayerTableRecord
  2
NOKITOI
 70
     0
 62
     7
  6
PHANTOM
  0
LAYER
  5
3FB
330
2
100
AcDbSymbolTableRecord
100
AcDbLayerTableRecord
  2
DEFPOINTS
 70
     0
 62
     7
  6
CONTINUOUS
  0
ENDTAB
  0
TABLE
  2
STYLE
  5
3
330
0
100
AcDbSymbolTable
 70
     1
  0
STYLE
  5
10
330
3
100
AcDbSymbolTableRecord
100
AcDbTextStyleTableRecord
  2
STANDARD
 70
     0
 40
0.0
 41
1.0
 50
0.0
 71
     0
 42
5.0
  3
TXT
  4
bigfont.shx
  0
ENDTAB
  0
TABLE
  2
VIEW
  5
6
330
0
100
AcDbSymbolTable
 70
     0
  0
ENDTAB
  0
TABLE
  2
UCS
  5
7
330
0
100
AcDbSymbolTable
 70
     0
  0
ENDTAB
  0
TABLE
  2
APPID
  5
9
330
0
100
AcDbSymbolTable
 70
     1
  0
APPID
  5
11
330
9
100
AcDbSymbolTableRecord
100
AcDbRegAppTableRecord
  2
ACAD
 70
     0
  0
ENDTAB
  0
TABLE
  2
DIMSTYLE
  5
A
330
0
100
AcDbSymbolTable
 70
     1
  0
DIMSTYLE
105
1D
102
{ACAD_REACTORS
330
400
330
40D
330
41A
330
427
102
}
330
A
100
AcDbSymbolTableRecord
100
AcDbDimStyleTableRecord
  2
STANDARD
 70
     0
  3

  4

  5

  6

  7

 40
1.0
 41
0.18
 42
0.0625
 43
0.38
 44
0.18
 45
0.0
 46
0.0
 47
0.0
 48
0.0
140
0.18
141
0.09
142
0.0
143
25.4
144
1.0
145
0.0
146
1.0
147
0.09
 71
     0
 72
     0
 73
     1
 74
     1
 75
     0
 76
     0
 77
     0
 78
     0
170
     0
171
     2
172
     0
173
     0
174
     0
175
     0
176
     0
177
     0
178
     0
270
     2
271
     4
272
     4
273
     2
274
     2
340
10
275
     0
280
     0
281
     0
282
     0
283
     1
284
     0
285
     0
286
     0
287
     3
288
     0
  0
ENDTAB
  0
TABLE
  2
BLOCK_RECORD
  5
1
330
0
100
AcDbSymbolTable
 70
     6
  0
BLOCK_RECORD
  5
1A
102
{ACAD_XDICTIONARY
360
46A
102
}
330
1
100
AcDbSymbolTableRecord
100
AcDbBlockTableRecord
  2
*MODEL_SPACE
  0
BLOCK_RECORD
  5
17
102
{ACAD_XDICTIONARY
360
468
102
}
330
1
100
AcDbSymbolTableRecord
100
AcDbBlockTableRecord
  2
*PAPER_SPACE
  0
BLOCK_RECORD
  5
6D
330
1
100
AcDbSymbolTableRecord
100
AcDbBlockTableRecord
  2
_OPEN
  0
BLOCK_RECORD
  5
220
330
1
100
AcDbSymbolTableRecord
100
AcDbBlockTableRecord
  2
A$C93A1
  0
BLOCK_RECORD
  5
3F3
330
1
100
AcDbSymbolTableRecord
100
AcDbBlockTableRecord
  2
*D2
  0
BLOCK_RECORD
  5
401
330
1
100
AcDbSymbolTableRecord
100
AcDbBlockTableRecord
  2
*D3
  0
BLOCK_RECORD
  5
40E
330
1
100
AcDbSymbolTableRecord
100
AcDbBlockTableRecord
  2
*D4
  0
BLOCK_RECORD
  5
41B
330
1
100
AcDbSymbolTableRecord
100
AcDbBlockTableRecord
  2
*D5
  0
ENDTAB
  0
ENDSEC
  0
SECTION
  2
BLOCKS
  0
BLOCK
  5
1B
330
1A
100
AcDbEntity
  8
0
100
AcDbBlockBegin
  2
*MODEL_SPACE
 70
     0
 10
0.0
 20
0.0
 30
0.0
  3
*MODEL_SPACE
  1

  0
ENDBLK
  5
1C
330
1A
100
AcDbEntity
  8
0
100
AcDbBlockEnd
  0
BLOCK
  5
18
330
17
100
AcDbEntity
 67
     1
  8
0
100
AcDbBlockBegin
  2
*PAPER_SPACE
 70
     0
 10
0.0
 20
0.0
 30
0.0
  3
*PAPER_SPACE
  1

  0
ENDBLK
  5
19
330
17
100
AcDbEntity
 67
     1
  8
0
100
AcDbBlockEnd
  0
BLOCK
  5
6E
330
6D
100
AcDbEntity
  8
0
100
AcDbBlockBegin
  2
_OPEN
 70
     0
 10
0.0
 20
0.0
 30
0.0
  3
_OPEN
  1

  0
LINE
  5
6F
330
6D
100
AcDbEntity
  8
0
  6
BYBLOCK
 62
     0
100
AcDbLine
 10
-1.0
 20
0.1666666666666666
 30
0.0
 11
0.0
 21
0.0
 31
0.0
  0
LINE
  5
70
330
6D
100
AcDbEntity
  8
0
  6
BYBLOCK
 62
     0
100
AcDbLine
 10
0.0
 20
0.0
 30
0.0
 11
-1.0
 21
-0.1666666666666666
 31
0.0
  0
LINE
  5
71
330
6D
100
AcDbEntity
  8
0
  6
BYBLOCK
 62
     0
100
AcDbLine
 10
0.0
 20
0.0
 30
0.0
 11
-1.0
 21
0.0
 31
0.0
  0
ENDBLK
  5
72
330
6D
100
AcDbEntity
  8
0
100
AcDbBlockEnd
  0
BLOCK
  5
228
330
220
100
AcDbEntity
  8
0
100
AcDbBlockBegin
  2
A$C93A1
 70
     0
 10
0.0
 20
0.0
 30
0.0
  3
A$C93A1
  1

  0
ARC
  5
221
330
220
100
AcDbEntity
  8
NOKITOI
  6
PHANTOM
 62
     8
 48
5.0
100
AcDbCircle
 10
63.62407878461798
 20
56.947127907935
 30
0.0
 40
55.69997777445496
100
AcDbArc
 50
183.4893828011791
 51
356.5101019184219
  0
ARC
  5
222
330
220
100
AcDbEntity
  8
NOKITOI
  6
PHANTOM
 62
     8
 48
5.0
100
AcDbCircle
 10
4.074059239144105
 20
52.94731375702781
 30
0.0
 40
4.000015298737716
100
AcDbArc
 50
8.764757762685649
 51
317.4315014146491
  0
ARC
  5
223
330
220
100
AcDbEntity
  8
NOKITOI
  6
PHANTOM
 62
     8
 48
5.0
100
AcDbCircle
 10
123.1740635393336
 20
52.94712790800327
 30
0.0
 40
2.699999999999903
100
AcDbArc
 50
180.0
 51
0.0
  0
ARC
  5
224
330
220
100
AcDbEntity
  8
NOKITOI
  6
PHANTOM
 62
     8
 48
5.0
100
AcDbCircle
 10
123.1740451349912
 20
52.94718847463906
 30
0.0
 40
3.999981474645155
100
AcDbArc
 50
222.570219189405
 51
171.2362504387284
  0
CIRCLE
  5
225
330
220
100
AcDbEntity
  8
NOKITOI
  6
PHANTOM
 62
     8
 48
5.0
100
AcDbCircle
 10
4.074063539333593
 20
52.9473279080031
 30
0.0
 40
2.7
  0
CIRCLE
  5
226
330
220
100
AcDbEntity
  8
NOKITOI
  6
PHANTOM
 62
     8
 48
5.0
100
AcDbCircle
 10
123.1740635393336
 20
52.94712790800327
 30
0.0
 40
2.7
  0
ARC
  5
227
330
220
100
AcDbEntity
  8
NOKITOI
  6
PHANTOM
 62
     8
 48
5.0
100
AcDbCircle
 10
63.62412842479705
 20
56.94712609518632
 30
0.0
 40
56.99999881544602
100
AcDbArc
 50
186.7561500022945
 51
353.2434543568847
  0
ENDBLK
  5
229
330
220
100
AcDbEntity
  8
0
100
AcDbBlockEnd
  0
BLOCK
  5
3F4
330
3F3
100
AcDbEntity
  8
0
100
AcDbBlockBegin
  2
*D2
 70
     1
 10
0.0
 20
0.0
 30
0.0
  3
*D2
  1

  0
LINE
  5
3F5
330
3F3
100
AcDbEntity
  8
0
  6
BYBLOCK
 62
     4
100
AcDbLine
 10
236.1217845282408
 20
218.4190027642649
 30
0.0
 11
236.1217845282408
 21
249.8992857340951
 31
0.0
  0
LINE
  5
3F6
330
3F3
100
AcDbEntity
  8
0
  6
BYBLOCK
 62
     4
100
AcDbLine
 10
367.1217845282408
 20
216.0190527642648
 30
0.0
 11
367.1217845282408
 21
249.8992857340951
 31
0.0
  0
LINE
  5
3F7
330
3F3
100
AcDbEntity
  8
0
  6
BYBLOCK
 62
     4
100
AcDbLine
 10
243.1217845282408
 20
246.8992857340952
 30
0.0
 11
360.1217845282408
 21
246.8992857340952
 31
0.0
  0
INSERT
  5
3F8
330
3F3
100
AcDbEntity
  8
0
  6
BYBLOCK
 62
     4
100
AcDbBlockReference
  2
_OPEN
 10
236.1217845282408
 20
246.8992857340952
 30
0.0
 41
7.0
 42
7.0
 43
7.0
 50
180.0
  0
INSERT
  5
3F9
330
3F3
100
AcDbEntity
  8
0
  6
BYBLOCK
 62
     4
100
AcDbBlockReference
  2
_OPEN
 10
367.1217845282408
 20
246.8992857340952
 30
0.0
 41
7.0
 42
7.0
 43
7.0
  0
MTEXT
  5
3FA
330
3F3
100
AcDbEntity
  8
0
  6
BYBLOCK
 62
     4
100
AcDbMText
 10
301.6217845282408
 20
251.8992857340951
 30
0.0
 40
6.0
 41
0.0
 71
     5
 72
     1
  1
\A1;131
1001
ACAD
1000
MTEXTBEGIN
1070
    73
1070
     1
1070
    44
1040
1.0
1070
    74
1070
     0
1000
MTEXTEND
1000
MTEXTBEGIN
1070
    73
1070
     1
1070
    44
1040
1.0
1070
    74
1070
     0
1000
MTEXTEND
  0
POINT
  5
3FC
330
3F3
100
AcDbEntity
  8
DEFPOINTS
  6
BYBLOCK
 62
     0
100
AcDbPoint
 10
236.1217845282408
 20
212.4190027642649
 30
0.0
  0
POINT
  5
3FD
330
3F3
100
AcDbEntity
  8
DEFPOINTS
  6
BYBLOCK
 62
     0
100
AcDbPoint
 10
367.1217845282408
 20
210.0190527642648
 30
0.0
  0
POINT
  5
3FE
330
3F3
100
AcDbEntity
  8
DEFPOINTS
  6
BYBLOCK
 62
     0
100
AcDbPoint
 10
367.1217845282408
 20
246.8992857340952
 30
0.0
  0
ENDBLK
  5
3FF
330
3F3
100
AcDbEntity
  8
0
100
AcDbBlockEnd
  0
BLOCK
  5
402
330
401
100
AcDbEntity
  8
0
100
AcDbBlockBegin
  2
*D3
 70
     1
 10
0.0
 20
0.0
 30
0.0
  3
*D3
  1

  0
LINE
  5
403
330
401
100
AcDbEntity
  8
0
  6
BYBLOCK
 62
     4
100
AcDbLine
 10
371.9218769194283
 20
486.0301027642649
 30
0.0
 11
417.0981971997166
 21
486.0301027642649
 31
0.0
  0
LINE
  5
404
330
401
100
AcDbEntity
  8
0
  6
BYBLOCK
 62
     4
100
AcDbLine
 10
372.3217769194284
 20
294.7301027642648
 30
0.0
 11
417.0981971997166
 21
294.7301027642648
 31
0.0
  0
LINE
  5
405
330
401
100
AcDbEntity
  8
0
  6
BYBLOCK
 62
     4
100
AcDbLine
 10
414.0981971997166
 20
479.0301027642649
 30
0.0
 11
414.0981971997166
 21
301.7301027642648
 31
0.0
  0
INSERT
  5
406
330
401
100
AcDbEntity
  8
0
  6
BYBLOCK
 62
     4
100
AcDbBlockReference
  2
_OPEN
 10
414.0981971997166
 20
486.0301027642649
 30
0.0
 41
7.0
 42
7.0
 43
7.0
 50
90.0
  0
INSERT
  5
407
330
401
100
AcDbEntity
  8
0
  6
BYBLOCK
 62
     4
100
AcDbBlockReference
  2
_OPEN
 10
414.0981971997166
 20
294.7301027642648
 30
0.0
 41
7.0
 42
7.0
 43
7.0
 50
270.0
  0
MTEXT
  5
408
330
401
100
AcDbEntity
  8
0
  6
BYBLOCK
 62
     4
100
AcDbMText
 10
409.0981971997166
 20
390.3801027642649
 30
0.0
 40
6.0
 41
0.0
 71
     5
 72
     1
  1
\A1;191
 11
0.0
 21
1.0
 31
0.0
1001
ACAD
1000
MTEXTBEGIN
1070
    73
1070
     1
1070
    44
1040
1.0
1070
    74
1070
     0
1000
MTEXTEND
1000
MTEXTBEGIN
1070
    73
1070
     1
1070
    44
1040
1.0
1070
    74
1070
     0
1000
MTEXTEND
  0
POINT
  5
409
330
401
100
AcDbEntity
  8
DEFPOINTS
  6
BYBLOCK
 62
     0
100
AcDbPoint
 10
365.9218769194283
 20
486.0301027642649
 30
0.0
  0
POINT
  5
40A
330
401
100
AcDbEntity
  8
DEFPOINTS
  6
BYBLOCK
 62
     0
100
AcDbPoint
 10
366.3217769194284
 20
294.7301027642648
 30
0.0
  0
POINT
  5
40B
330
401
100
AcDbEntity
  8
DEFPOINTS
  6
BYBLOCK
 62
     0
100
AcDbPoint
 10
414.0981971997166
 20
294.7301027642648
 30
0.0
  0
ENDBLK
  5
40C
330
401
100
AcDbEntity
  8
0
100
AcDbBlockEnd
  0
BLOCK
  5
40F
330
40E
100
AcDbEntity
  8
0
100
AcDbBlockBegin
  2
*D4
 70
     1
 10
0.0
 20
0.0
 30
0.0
  3
*D4
  1

  0
LINE
  5
410
330
40E
100
AcDbEntity
  8
0
  6
BYBLOCK
 62
     4
100
AcDbLine
 10
373.1217845282408
 20
212.4190027642649
 30
0.0
 11
417.0981971997166
 21
212.4190027642649
 31
0.0
  0
LINE
  5
411
330
40E
100
AcDbEntity
  8
0
  6
BYBLOCK
 62
     4
100
AcDbLine
 10
307.6217845282407
 20
153.41900276412
 30
0.0
 11
417.0981971997166
 21
153.41900276412
 31
0.0
  0
LINE
  5
412
330
40E
100
AcDbEntity
  8
0
  6
BYBLOCK
 62
     4
100
AcDbLine
 10
414.0981971997166
 20
205.4190027642648
 30
0.0
 11
414.0981971997166
 21
160.41900276412
 31
0.0
  0
INSERT
  5
413
330
40E
100
AcDbEntity
  8
0
  6
BYBLOCK
 62
     4
100
AcDbBlockReference
  2
_OPEN
 10
414.0981971997166
 20
212.4190027642649
 30
0.0
 41
7.0
 42
7.0
 43
7.0
 50
90.0
  0
INSERT
  5
414
330
40E
100
AcDbEntity
  8
0
  6
BYBLOCK
 62
     4
100
AcDbBlockReference
  2
_OPEN
 10
414.0981971997166
 20
153.41900276412
 30
0.0
 41
7.0
 42
7.0
 43
7.0
 50
270.0
  0
MTEXT
  5
415
330
40E
100
AcDbEntity
  8
0
  6
BYBLOCK
 62
     4
100
AcDbMText
 10
409.0981971997166
 20
182.9190027641924
 30
0.0
 40
6.0
 41
0.0
 71
     5
 72
     1
  1
\A1;59
 11
0.0
 21
1.0
 31
0.0
1001
ACAD
1000
MTEXTBEGIN
1070
    73
1070
     1
1070
    44
1040
1.0
1070
    74
1070
     0
1000
MTEXTEND
1000
MTEXTBEGIN
1070
    73
1070
     1
1070
    44
1040
1.0
1070
    74
1070
     0
1000
MTEXTEND
  0
POINT
  5
416
330
40E
100
AcDbEntity
  8
DEFPOINTS
  6
BYBLOCK
 62
     0
100
AcDbPoint
 10
367.1217845282408
 20
212.4190027642649
 30
0.0
  0
POINT
  5
417
330
40E
100
AcDbEntity
  8
DEFPOINTS
  6
BYBLOCK
 62
     0
100
AcDbPoint
 10
301.6217845282407
 20
153.41900276412
 30
0.0
  0
POINT
  5
418
330
40E
100
AcDbEntity
  8
DEFPOINTS
  6
BYBLOCK
 62
     0
100
AcDbPoint
 10
414.0981971997166
 20
153.41900276412
 30
0.0
  0
ENDBLK
  5
419
330
40E
100
AcDbEntity
  8
0
100
AcDbBlockEnd
  0
BLOCK
  5
41C
330
41B
100
AcDbEntity
  8
0
100
AcDbBlockBegin
  2
*D5
 70
     1
 10
0.0
 20
0.0
 30
0.0
  3
*D5
  1

  0
ARC
  5
484
330
41B
100
AcDbEntity
  8
SUNPOU
 62
     4
100
AcDbCircle
 10
310.3299988363703
 20
374.3631700469502
 30
0.0
 40
34.99371554843576
100
AcDbArc
 50
205.4803251086777
 51
258.5195444485566
  0
INSERT
  5
485
330
41B
100
AcDbEntity
  8
SUNPOU
 62
     4
100
AcDbBlockReference
  2
_OPEN
 10
276.3757337608086
 20
365.897473911172
 30
0.0
 41
7.0
 42
7.0
 43
7.0
 50
109.7401204832711
  0
INSERT
  5
486
330
41B
100
AcDbEntity
  8
SUNPOU
 62
     4
100
AcDbBlockReference
  2
_OPEN
 10
310.3299705580034
 20
339.3694544985259
 30
0.0
 41
7.0
 42
7.0
 43
7.0
 50
354.2597490739633
  0
MTEXT
  5
487
330
41B
100
AcDbEntity
  8
SUNPOU
 62
     4
100
AcDbMText
 10
291.8639967665332
 20
350.7278206745112
 30
0.0
 40
6.0
 41
0.0
 71
     5
 72
     1
  1
\A1;76°
 11
0.7880100527815941
 21
-0.6156623723398641
 31
0.0
  0
POINT
  5
488
330
41B
100
AcDbEntity
  8
DEFPOINTS
 62
     0
100
AcDbPoint
 10
283.2633262457294
 20
352.1831032581443
 30
0.0
  0
POINT
  5
489
330
41B
100
AcDbEntity
  8
DEFPOINTS
 62
     0
100
AcDbPoint
 10
195.4318031448616
 20
345.7160116087137
 30
0.0
  0
POINT
  5
48A
330
41B
100
AcDbEntity
  8
DEFPOINTS
 62
     0
100
AcDbPoint
 10
310.3299031448616
 20
255.9475116087139
 30
0.0
  0
POINT
  5
48B
330
41B
100
AcDbEntity
  8
DEFPOINTS
 62
     0
100
AcDbPoint
 10
310.3300031448615
 20
379.6948116087139
 30
0.0
  0
POINT
  5
48C
330
41B
100
AcDbEntity
  8
DEFPOINTS
 62
     0
100
AcDbPoint
 10
315.5033031448615
 20
375.6530116087138
 30
0.0
  0
ENDBLK
  5
426
330
41B
100
AcDbEntity
  8
0
100
AcDbBlockEnd
  0
ENDSEC
  0
SECTION
  2
ENTITIES
  0
TEXT
  5
11A
330
1A
100
AcDbEntity
  8
ZUWAKU
 62
     7
 48
10.0
100
AcDbText
 10
795.5579444309237
 20
4.974918402528146
 30
0.0
 40
8.0
  1
A1
100
AcDbText
  0
LINE
  5
11B
330
1A
100
AcDbEntity
  8
ZUWAKU
 62
     7
 48
10.0
100
AcDbLine
 10
10.05047808566086
 20
25.78258628282265
 30
0.0
 11
806.0504780856609
 21
25.78258628282253
 31
0.0
  0
LINE
  5
11C
330
1A
100
AcDbEntity
  8
ZUWAKU
  6
CONTINUOUS
 62
     7
100
AcDbLine
 10
806.0504780856609
 20
563.7825862828226
 30
0.0
 11
10.05047808566086
 21
563.7825862828226
 31
0.0
  0
LINE
  5
11D
330
1A
100
AcDbEntity
  8
ZUWAKU
  6
CONTINUOUS
 62
     7
100
AcDbLine
 10
806.0504780856609
 20
13.78258628282265
 30
0.0
 11
10.05047808566086
 21
13.78258628282265
 31
0.0
  0
LINE
  5
11E
330
1A
100
AcDbEntity
  8
ZUWAKU
  6
CONTINUOUS
 62
     7
100
AcDbLine
 10
10.05047808566086
 20
563.7825862828226
 30
0.0
 11
10.05047808566086
 21
13.78258628282265
 31
0.0
  0
LINE
  5
11F
330
1A
100
AcDbEntity
  8
ZUWAKU
 62
     7
 48
10.0
100
AcDbLine
 10
44.55797523147839
 20
13.78258628282265
 30
0.0
 11
44.5579752314784
 21
25.78258628282265
 31
0.0
  0
TEXT
  5
120
330
1A
100
AcDbEntity
  8
ZUWAKU
 62
     7
100
AcDbText
 10
16.05676551180931
 20
15.52294263804401
 30
0.0
 40
8.0
  1
品 種
100
AcDbText
  0
LINE
  5
121
330
1A
100
AcDbEntity
  8
ZUWAKU
 62
     7
 48
10.0
100
AcDbLine
 10
276.1028387068254
 20
13.78258628282265
 30
0.0
 11
276.1028387068254
 21
25.78258628282261
 31
0.0
  0
LINE
  5
122
330
1A
100
AcDbEntity
  8
ZUWAKU
 62
     7
 48
10.0
100
AcDbLine
 10
209.5138526425484
 20
13.78258628282265
 30
0.0
 11
209.5138526425485
 21
25.78258628282263
 31
0.0
  0
TEXT
  5
124
330
1A
100
AcDbEntity
  8
ZUWAKU
 62
     7
100
AcDbText
 10
215.4560837190756
 20
16.18358115302453
 30
0.0
 40
8.0
  1
品名・ｻ ｲ ｽﾞ
100
AcDbText
  0
LINE
  5
126
330
1A
100
AcDbEntity
  8
ZUWAKU
 62
     7
 48
10.0
100
AcDbLine
 10
768.7231079932794
 20
13.78258628282237
 30
0.0
 11
768.7231079932794
 21
25.78258628282254
 31
0.0
  0
LINE
  5
127
330
1A
100
AcDbEntity
  8
ZUWAKU
 62
     7
 48
10.0
100
AcDbLine
 10
733.8119002376948
 20
13.78258628282242
 30
0.0
 11
733.8119002376946
 21
25.78258628282254
 31
0.0
  0
TEXT
  5
128
330
1A
100
AcDbEntity
  8
ZUWAKU
 62
     7
100
AcDbText
 10
739.6955629973526
 20
15.24227755810852
 30
0.0
 40
8.0
  1
尺 度
100
AcDbText
  0
TEXT
  5
129
330
1A
100
AcDbEntity
  8
ZUWAKU
 62
     7
100
AcDbText
 10
779.7374630323229
 20
15.55488920081529
 30
0.0
 40
8.0
  1
1/2
100
AcDbText
  0
TEXT
  5
12B
330
1A
100
AcDbEntity
  8
ZUWAKU
 62
     7
100
AcDbText
 10
620.3363288383084
 20
15.6519090944263
 30
0.0
 40
8.0
  1
品 番
100
AcDbText
  0
LINE
  5
12C
330
1A
100
AcDbEntity
  8
ZUWAKU
 62
     7
 48
10.0
100
AcDbLine
 10
614.3351028194128
 20
13.78258628282232
 30
0.0
 11
614.3351028194128
 21
25.78258628282256
 31
0.0
  0
LINE
  5
12D
330
1A
100
AcDbEntity
  8
ZUWAKU
 62
     7
 48
10.0
100
AcDbLine
 10
648.7607587371021
 20
13.78258628282232
 30
0.0
 11
648.7607587371021
 21
25.78258628282255
 31
0.0
  0
TEXT
  5
12E
330
1A
100
AcDbEntity
  8
ZUWAKU
 62
     7
 48
10.0
100
AcDbText
 10
646.2758615931216
 20
4.949376903717848
 30
0.0
 40
8.0
  1
積水化学工業株式会社  建材
100
AcDbText
  0
LINE
  5
12F
330
1A
100
AcDbEntity
  8
ZUWAKU
  6
CONTINUOUS
 62
     7
100
AcDbLine
 10
806.0504780856609
 20
563.7825862828226
 30
0.0
 11
806.0504780856609
 21
13.78258628282265
 31
0.0
  0
INSERT
  5
22A
330
1A
100
AcDbEntity
  8
ZUWAKU
100
AcDbBlockReference
  2
A$C93A1
 10
246.7059791280697
 20
126.1048843284853
 30
0.0
  0
LINE
  5
22B
330
1A
100
AcDbEntity
  8
SEIHIN
  6
CONTINUOUS
 62
     3
100
AcDbLine
 10
246.8299031448616
 20
265.3632116087138
 30
0.0
 11
246.8299031448616
 21
293.0870116087139
 31
0.0
  0
LINE
  5
22C
330
1A
100
AcDbEntity
  8
SEIHIN
  6
CONTINUOUS
 62
     3
100
AcDbLine
 10
219.9296031448615
 20
286.3800116087138
 30
0.0
 11
246.8299031448616
 21
293.0870116087139
 31
0.0
  0
LINE
  5
22D
330
1A
100
AcDbEntity
  8
SEIHIN
  6
CONTINUOUS
 62
     3
100
AcDbLine
 10
220.2200031448615
 20
285.2157116087139
 30
0.0
 11
204.5678031448616
 21
347.9939116087139
 31
0.0
  0
LINE
  5
22E
330
1A
100
AcDbEntity
  8
SEIHIN
  6
CONTINUOUS
 62
     3
100
AcDbLine
 10
254.1495031448615
 20
295.3632116087137
 30
0.0
 11
256.3812031448615
 21
291.3632116087137
 31
0.0
  0
LINE
  5
22F
330
1A
100
AcDbEntity
  8
SEIHIN
  6
CONTINUOUS
 62
     3
100
AcDbLine
 10
295.3300031448616
 20
290.3632116087137
 30
0.0
 11
295.3300031448616
 21
295.3631116087139
 31
0.0
  0
LINE
  5
231
330
1A
100
AcDbEntity
  8
SEIHIN
  6
CONTINUOUS
 62
     3
100
AcDbLine
 10
325.3299031448616
 20
290.3632116087137
 30
0.0
 11
325.3299031448616
 21
295.3631116087139
 31
0.0
  0
LINE
  5
232
330
1A
100
AcDbEntity
  8
SEIHIN
  6
CONTINUOUS
 62
     3
100
AcDbLine
 10
373.8299031448616
 20
290.3631116087138
 30
0.0
 11
372.6299031448613
 21
295.3631116087139
 31
0.0
  0
LINE
  5
233
330
1A
100
AcDbEntity
  8
SEIHIN
  6
CONTINUOUS
 62
     3
100
AcDbLine
 10
375.8299031448616
 20
290.3631116087138
 30
0.0
 11
374.6299031448616
 21
295.3631116087139
 31
0.0
  0
LINE
  5
234
330
1A
100
AcDbEntity
  8
SEIHIN
  6
CONTINUOUS
 62
     3
100
AcDbLine
 10
366.5104031448616
 20
295.3631116087139
 30
0.0
 11
364.2786031448615
 21
291.3631116087139
 31
0.0
  0
LINE
  5
235
330
1A
100
AcDbEntity
  8
CENTER_L
  6
CENTER
 62
     1
 48
5.0
100
AcDbLine
 10
310.3299031448616
 20
255.9475116087138
 30
0.0
 11
310.3300031448615
 21
379.6948116087139
 31
0.0
  0
TEXT
  5
237
330
1A
100
AcDbEntity
  8
ZUWAKU
 62
     7
100
AcDbText
 10
50.3519382305086
 20
16.10306189639755
 30
0.0
 40
8.0
  1
丸トップ　のきとい
100
AcDbText
  0
TEXT
  5
23A
330
1A
100
AcDbEntity
  8
ZUWAKU
 62
     7
100
AcDbText
 10
282.3131429914078
 20
15.64241700452384
 30
0.0
 40
8.0
  1
テリ曲り　１２０－７６°
100
AcDbText
  0
ARC
  5
23D
330
1A
100
AcDbEntity
  8
SEIHIN
  6
CONTINUOUS
 62
     3
100
AcDbCircle
 10
310.329899298197
 20
183.0520209946217
 30
0.0
 40
59.00000938597425
100
AcDbArc
 50
191.3419774991482
 51
269.9999140131076
  0
ARC
  5
23E
330
1A
100
AcDbEntity
  8
SEIHIN
  6
CONTINUOUS
 62
     3
100
AcDbCircle
 10
310.3298961102871
 20
183.0520239554474
 30
0.0
 40
57.00001234679748
100
AcDbArc
 50
189.727550810665
 51
269.9999142004804
  0
LINE
  5
23F
330
1A
100
AcDbEntity
  8
SEIHIN
  6
CONTINUOUS
 62
     3
100
AcDbLine
 10
256.3987031448616
 20
290.3632116087137
 30
0.0
 11
310.3299031448616
 21
290.3632116087137
 31
0.0
  0
LINE
  5
240
330
1A
100
AcDbEntity
  8
SEIHIN
  6
CONTINUOUS
 62
     3
100
AcDbLine
 10
245.6299031448616
 20
265.3632116087138
 30
0.0
 11
310.3299031448616
 21
265.3632116087138
 31
0.0
  0
LINE
  5
241
330
1A
100
AcDbEntity
  8
SEIHIN
  6
CONTINUOUS
 62
     3
100
AcDbLine
 10
310.3299107536741
 20
174.2521116087138
 30
0.0
 11
250.829910753674
 21
174.2521116087138
 31
0.0
  0
LINE
  5
242
330
1A
100
AcDbEntity
  8
SEIHIN
  6
CONTINUOUS
 62
     3
100
AcDbLine
 10
244.829910753674
 20
183.0520116087139
 30
0.0
 11
310.3299107536741
 21
183.0520116087139
 31
0.0
  0
ARC
  5
243
330
1A
100
AcDbEntity
  8
SEIHIN
  6
CONTINUOUS
 62
     3
100
AcDbCircle
 10
310.3299697589732
 20
183.0519791573826
 30
0.0
 40
55.79998486813583
100
AcDbArc
 50
229.9998390024749
 51
252.38079876503
  0
ARC
  5
244
330
1A
100
AcDbEntity
  8
SEIHIN
  6
CONTINUOUS
 62
     3
100
AcDbCircle
 10
310.3298840428931
 20
183.0520414352307
 30
0.0
 40
54.29998416938719
100
AcDbArc
 50
189.3265658065171
 51
253.9638065914664
  0
LINE
  5
245
330
1A
100
AcDbEntity
  8
SEIHIN
  6
CONTINUOUS
 62
     3
100
AcDbLine
 10
295.0983107536739
 20
126.0520116087139
 30
0.0
 11
241.3996107536739
 21
126.0521116087138
 31
0.0
  0
LINE
  5
246
330
1A
100
AcDbEntity
  8
SEIHIN
  6
CONTINUOUS
 62
     3
100
AcDbLine
 10
256.3812031448615
 20
291.3632116087137
 30
0.0
 11
295.3300031448616
 21
291.3632116087137
 31
0.0
  0
ARC
  5
247
330
1A
100
AcDbEntity
  8
SEIHIN
  6
CONTINUOUS
 62
     3
100
AcDbCircle
 10
283.3300292933317
 20
290.3632461902077
 30
0.0
 40
11.9999738522845
100
AcDbArc
 50
285.8115025957307
 51
359.9993574193002
  0
ELLIPSE
  5
249
330
1A
100
AcDbEntity
  8
SEIHIN
  6
CONTINUOUS
 62
     3
100
AcDbEllipse
 10
204.5676107536739
 20
174.2521116087138
 30
0.0
 11
-0.1983394894951947
 21
-50.19977801297042
 31
0.0
210
0.0
220
0.0
230
0.9999999999999998
 40
0.2858956850484685
 41
-1.532314014914081
 42
1.53207456556454
  0
ELLIPSE
  5
24A
330
1A
100
AcDbEntity
  8
SEIHIN
  6
CONTINUOUS
 62
     3
100
AcDbEllipse
 10
204.5676107536739
 20
174.2521116087138
 30
0.0
 11
-0.0003530599688459
 21
-48.20009999932421
 31
0.0
210
0.0
220
0.0
230
1.0
 40
0.2819694231598412
 41
-1.570794261402588
 42
1.570798392187203
  0
LINE
  5
24C
330
1A
100
AcDbEntity
  8
SEIHIN
  6
CONTINUOUS
 62
     3
100
AcDbLine
 10
204.5676107536739
 20
174.2521116087138
 30
0.0
 11
190.1701892398443
 21
174.2522170681047
 31
0.0
  0
LINE
  5
24D
330
1A
100
AcDbEntity
  8
SEIHIN
  6
CONTINUOUS
 62
     3
100
AcDbLine
 10
244.829910753674
 20
183.0520116087139
 30
0.0
 11
188.915310753674
 21
183.0521116087139
 31
0.0
  0
LINE
  5
252
330
1A
100
AcDbEntity
  8
SEIHIN
  6
CONTINUOUS
 62
     3
100
AcDbLine
 10
189.2157108293747
 20
183.1086160129353
 30
0.0
 11
189.2157108293747
 21
175.3088160129352
 31
0.0
  0
LINE
  5
253
330
1A
100
AcDbEntity
  8
SEIHIN
  6
CONTINUOUS
 62
     3
100
AcDbLine
 10
188.915310753674
 20
183.0521116087139
 30
0.0
 11
188.915310753674
 21
174.2522116087138
 31
0.0
  0
ARC
  5
254
330
1A
100
AcDbEntity
  8
SEIHIN
  6
CONTINUOUS
 62
     3
100
AcDbCircle
 10
190.2157108293747
 20
175.3088160129352
 30
0.0
 40
1.0
100
AcDbArc
 50
180.0
 51
270.0
  0
ARC
  5
255
330
1A
100
AcDbEntity
  8
SEIHIN
  6
CONTINUOUS
 62
     3
100
AcDbCircle
 10
190.915310753674
 20
174.2522116087138
 30
0.0
 40
2.0
100
AcDbArc
 50
180.0
 51
249.6164723890916
  0
ELLIPSE
  5
259
330
1A
100
AcDbEntity
  8
SEIHIN
  6
CONTINUOUS
 62
     3
100
AcDbEllipse
 10
210.9888101283645
 20
174.2221730828904
 30
0.0
 11
-0.0003530599688459
 21
-48.20009999932421
 31
0.0
210
0.0
220
0.0
230
1.0
 40
0.2819694231598412
 41
-1.570794261402588
 42
-0.8992289629851809
  0
ELLIPSE
  5
25A
330
1A
100
AcDbEntity
  8
SEIHIN
  6
CONTINUOUS
 62
     3
100
AcDbEllipse
 10
231.4044407187764
 20
173.9910773678853
 30
0.0
 11
0.0
 21
52.62646019963586
 31
0.0
210
0.0
220
0.0
230
1.0
 40
0.251254561942544
 41
3.137719537594712
 42
4.679339401061088
  0
ELLIPSE
  5
25B
330
1A
100
AcDbEntity
  8
SEIHIN
  6
CONTINUOUS
 62
     3
100
AcDbEllipse
 10
209.5645162370644
 20
173.9910773678853
 30
0.0
 11
0.0
 21
52.62646019963586
 31
0.0
210
0.0
220
0.0
230
1.0
 40
0.251254561942544
 41
3.137719537594712
 42
4.679339401061074
  0
ELLIPSE
  5
25C
330
1A
100
AcDbEntity
  8
SEIHIN
  6
CONTINUOUS
 62
     3
100
AcDbEllipse
 10
235.2444277710749
 20
171.1158846668602
 30
0.0
 11
0.0
 21
52.62646019963586
 31
0.0
210
0.0
220
0.0
230
1.0
 40
0.251254561942544
 41
-2.598849286827957
 42
-1.549204237365943
  0
ARC
  5
25D
330
1A
100
AcDbEntity
  8
SEIHIN
  6
CONTINUOUS
 62
     3
100
AcDbCircle
 10
310.3298506808062
 20
183.0521137768642
 30
0.0
 40
55.800011450455
100
AcDbArc
 50
190.9095934386858
 51
230.0000215182227
  0
LINE
  5
25E
330
1A
100
AcDbEntity
  8
SEIHIN
  6
CONTINUOUS
 62
     3
100
AcDbLine
 10
241.3996107536738
 20
126.0518116087138
 30
0.0
 11
231.7632076662643
 21
121.3110116087139
 31
0.0
  0
ELLIPSE
  5
25F
330
1A
100
AcDbEntity
  8
SEIHIN
  6
CONTINUOUS
 62
     3
100
AcDbEllipse
 10
211.1233505756406
 20
174.2521116087138
 30
0.0
 11
-0.0003530599688459
 21
-48.20009999932421
 31
0.0
210
0.0
220
0.0
230
1.0
 40
0.2819694231598412
 41
-0.7373590518131249
 42
-0.2435797626181545
  0
LINE
  5
260
330
1A
100
AcDbEntity
  8
SEIHIN
  6
CONTINUOUS
 62
     3
100
AcDbLine
 10
209.6125107536741
 20
121.3111116087138
 30
0.0
 11
231.1775107536741
 21
121.3110116087139
 31
0.0
  0
LINE
  5
261
330
1A
100
AcDbEntity
  8
SEIHIN
  6
CONTINUOUS
 62
     3
100
AcDbLine
 10
204.567510753674
 20
124.0521116087138
 30
0.0
 11
209.6125107536741
 21
121.3111116087138
 31
0.0
  0
LINE
  5
262
330
1A
100
AcDbEntity
  8
SEIHIN
  6
CONTINUOUS
 62
     3
100
AcDbLine
 10
208.049910753674
 20
138.5721116087139
 30
0.0
 11
204.3032107536741
 21
144.6563116087138
 31
0.0
  0
LINE
  5
263
330
1A
100
AcDbEntity
  8
SEIHIN
  6
CONTINUOUS
 62
     3
100
AcDbLine
 10
208.049910753674
 20
138.5721116087139
 30
0.0
 11
201.985410753674
 21
138.5722116087139
 31
0.0
  0
LINE
  5
264
330
1A
100
AcDbEntity
  8
SEIHIN
  6
CONTINUOUS
 62
     3
100
AcDbLine
 10
204.3032107536741
 20
144.6563116087138
 30
0.0
 11
200.2548107536739
 21
144.6564116087138
 31
0.0
  0
ARC
  5
265
330
1A
100
AcDbEntity
  8
SEIHIN
  6
CONTINUOUS
 62
     3
100
AcDbCircle
 10
270.887953997485
 20
145.7315110102877
 30
0.0
 40
1.500025324769109
100
AcDbArc
 50
223.4131827513714
 51
314.9988481893697
  0
LINE
  5
266
330
1A
100
AcDbEntity
  8
SEIHIN
  6
CONTINUOUS
 62
     3
100
AcDbLine
 10
250.829910753674
 20
172.2521116087138
 30
0.0
 11
218.9010744485023
 21
172.2521116087138
 31
0.0
  0
LINE
  5
267
330
1A
100
AcDbEntity
  8
SEIHIN
  6
CONTINUOUS
 62
     3
100
AcDbLine
 10
225.2648107536739
 20
183.0520116087139
 30
0.0
 11
225.2648107536739
 21
174.2521116087138
 31
0.0
  0
LINE
  5
269
330
1A
100
AcDbEntity
  8
SEIHIN
  6
CONTINUOUS
 62
     3
100
AcDbLine
 10
219.9198107536739
 20
183.0520116087139
 30
0.0
 11
219.9198107536738
 21
176.2521116087138
 31
0.0
  0
LINE
  5
26A
330
1A
100
AcDbEntity
  8
SEIHIN
  6
CONTINUOUS
 62
     3
100
AcDbLine
 10
217.9198107536738
 20
174.2521116087138
 30
0.0
 11
204.5676107536739
 21
174.2521116087138
 31
0.0
  0
ARC
  5
26B
330
1A
100
AcDbEntity
  8
SEIHIN
  6
CONTINUOUS
 62
     3
100
AcDbCircle
 10
218.218044998921
 20
174.1318644570969
 30
0.0
 40
2.000000000000002
100
AcDbArc
 50
289.969186183053
 51
0.0
  0
ARC
  5
26D
330
1A
100
AcDbEntity
  8
SEIHIN
  6
CONTINUOUS
 62
     3
100
AcDbCircle
 10
223.2648107536739
 20
174.2521116087138
 30
0.0
 40
2.0
100
AcDbArc
 50
270.0
 51
0.0
  0
ARC
  5
26E
330
1A
100
AcDbEntity
  8
SEIHIN
  6
CONTINUOUS
 62
     3
100
AcDbCircle
 10
250.829910753674
 20
178.2521116087138
 30
0.0
 40
6.000000000000042
100
AcDbArc
 50
179.9999999999996
 51
269.9999999999996
  0
ARC
  5
26F
330
1A
100
AcDbEntity
  8
SEIHIN
  6
CONTINUOUS
 62
     3
100
AcDbCircle
 10
250.829910753674
 20
178.2521116087138
 30
0.0
 40
4.000000000000042
100
AcDbArc
 50
179.9999999999993
 51
269.9999999999993
  0
ARC
  5
270
330
1A
100
AcDbEntity
  8
SEIHIN
  6
CONTINUOUS
 62
     3
100
AcDbCircle
 10
251.5016606282081
 20
171.2521526804006
 30
0.0
 40
0.9999589295694963
100
AcDbArc
 50
11.33627800950677
 51
89.9971279044063
  0
LINE
  5
271
330
1A
100
AcDbEntity
  8
SEIHIN
  6
CONTINUOUS
 62
     3
100
AcDbLine
 10
251.5017107536739
 20
172.2521116087138
 30
0.0
 11
250.829910753674
 21
172.2521116087138
 31
0.0
  0
ARC
  5
272
330
1A
100
AcDbEntity
  8
SEIHIN
  6
CONTINUOUS
 62
     3
100
AcDbCircle
 10
257.0111788403546
 20
172.7752658303692
 30
0.0
 40
1.499971206361682
100
AcDbArc
 50
99.3258186334914
 51
190.9084219832836
  0
ARC
  5
273
330
1A
100
AcDbEntity
  8
SEIHIN
  6
CONTINUOUS
 62
     3
100
AcDbCircle
 10
253.1638497989549
 20
173.2520786847979
 30
0.0
 40
1.000032924678153
100
AcDbArc
 50
9.72545948331833
 51
90.00223705615251
  0
LINE
  5
274
330
1A
100
AcDbEntity
  8
SEIHIN
  6
CONTINUOUS
 62
     3
100
AcDbLine
 10
244.829910753674
 20
178.2521116087139
 30
0.0
 11
244.829910753674
 21
183.0520116087139
 31
0.0
  0
LINE
  5
275
330
1A
100
AcDbEntity
  8
SEIHIN
  6
CONTINUOUS
 62
     3
100
AcDbLine
 10
246.829910753674
 20
178.2521116087139
 30
0.0
 11
246.829910753674
 21
183.0520116087139
 31
0.0
  0
LINE
  5
278
330
1A
100
AcDbEntity
  8
SEIHIN
  6
CONTINUOUS
 62
     3
100
AcDbLine
 10
225.2649031448616
 20
285.6491116087139
 30
0.0
 11
242.9671031448616
 21
290.0626116087139
 31
0.0
  0
LINE
  5
279
330
1A
100
AcDbEntity
  8
SEIHIN
  6
CONTINUOUS
 62
     3
100
AcDbLine
 10
220.2200031448615
 20
285.2157116087139
 30
0.0
 11
225.2649031448616
 21
285.6491116087139
 31
0.0
  0
LINE
  5
27A
330
1A
100
AcDbEntity
  8
SEIHIN
  6
CONTINUOUS
 62
     3
100
AcDbLine
 10
245.6299031448616
 20
265.3632116087138
 30
0.0
 11
244.8299031448616
 21
270.3632116087138
 31
0.0
  0
LINE
  5
27B
330
1A
100
AcDbEntity
  8
SEIHIN
  6
CONTINUOUS
 62
     3
100
AcDbLine
 10
254.1495031448615
 20
265.3632116087138
 30
0.0
 11
254.1495031448615
 21
290.3632116087137
 31
0.0
  0
LINE
  5
27C
330
1A
100
AcDbEntity
  8
SEIHIN
  6
CONTINUOUS
 62
     3
100
AcDbLine
 10
256.7478031448615
 20
270.3632116087138
 30
0.0
 11
271.9340031448615
 21
274.6639116087138
 31
0.0
  0
LINE
  5
27D
330
1A
100
AcDbEntity
  8
SEIHIN
  6
CONTINUOUS
 62
     3
100
AcDbLine
 10
256.7392031448615
 20
270.8544116087137
 30
0.0
 11
256.3812031448615
 21
291.3632116087137
 31
0.0
  0
LINE
  5
27E
330
1A
100
AcDbEntity
  8
SEIHIN
  6
CONTINUOUS
 62
     3
100
AcDbLine
 10
244.8299031448616
 20
270.3632116087138
 30
0.0
 11
244.8299031448616
 21
288.6072116087138
 31
0.0
  0
LINE
  5
27F
330
1A
100
AcDbEntity
  8
SEIHIN
  6
CONTINUOUS
 62
     3
100
AcDbLine
 10
255.5212031448614
 20
271.3457116087139
 30
0.0
 11
255.1893031448617
 21
290.3632116087137
 31
0.0
  0
ARC
  5
280
330
1A
100
AcDbEntity
  8
SEIHIN
  6
CONTINUOUS
 62
     3
100
AcDbCircle
 10
256.5210761115774
 20
271.3632381730083
 30
0.0
 40
1.000026564659824
100
AcDbArc
 50
181.0042229026428
 51
270.0015488519456
  0
ARC
  5
281
330
1A
100
AcDbEntity
  8
SEIHIN
  6
CONTINUOUS
 62
     3
100
AcDbCircle
 10
257.2391146203468
 20
270.8632003334596
 30
0.0
 40
0.4999887248774954
100
AcDbArc
 50
181.0071882531375
 51
269.9986849766017
  0
ARC
  5
282
330
1A
100
AcDbEntity
  8
SEIHIN
  6
CONTINUOUS
 62
     3
100
AcDbCircle
 10
243.3299222167708
 20
288.6071967083838
 30
0.0
 40
1.499980928164857
100
AcDbArc
 50
0.0005691579220044
 51
104.0016078502407
  0
LINE
  5
283
330
1A
100
AcDbEntity
  8
SEIHIN
  6
CONTINUOUS
 62
     3
100
AcDbLine
 10
254.1495031448615
 20
290.3632116087137
 30
0.0
 11
255.1893031448617
 21
290.3632116087137
 31
0.0
  0
LINE
  5
284
330
1A
100
AcDbEntity
  8
SEIHIN
  6
CONTINUOUS
 62
     3
100
AcDbLine
 10
279.5993031448615
 20
276.8347116087138
 30
0.0
 11
279.5993031448615
 21
284.3632116087139
 31
0.0
  0
LINE
  5
285
330
1A
100
AcDbEntity
  8
SEIHIN
  6
CONTINUOUS
 62
     3
100
AcDbLine
 10
279.1848031448616
 20
276.7174116087138
 30
0.0
 11
279.1848031448616
 21
284.3632116087139
 31
0.0
  0
LINE
  5
286
330
1A
100
AcDbEntity
  8
SEIHIN
  6
CONTINUOUS
 62
     3
100
AcDbLine
 10
271.9340031448615
 20
274.6639116087138
 30
0.0
 11
271.9340031448615
 21
284.3632116087139
 31
0.0
  0
LINE
  5
287
330
1A
100
AcDbEntity
  8
SEIHIN
  6
CONTINUOUS
 62
     3
100
AcDbLine
 10
279.1848031448616
 20
276.7174116087138
 30
0.0
 11
286.5998031448616
 21
278.8173116087139
 31
0.0
  0
LINE
  5
288
330
1A
100
AcDbEntity
  8
SEIHIN
  6
CONTINUOUS
 62
     3
100
AcDbLine
 10
271.9340031448615
 20
284.3632116087139
 30
0.0
 11
279.5993031448615
 21
284.3632116087139
 31
0.0
  0
ARC
  5
28A
330
1A
100
AcDbEntity
  8
SEIHIN
  6
CONTINUOUS
 62
     3
100
AcDbCircle
 10
310.3299330306686
 20
183.0520364840638
 30
0.0
 40
54.30002149594866
100
AcDbArc
 50
286.0359673773629
 51
350.6734459562338
  0
ARC
  5
28B
330
1A
100
AcDbEntity
  8
SEIHIN
  6
CONTINUOUS
 62
     3
100
AcDbCircle
 10
310.3298577506419
 20
183.0519214652717
 30
0.0
 40
55.80002574514152
100
AcDbArc
 50
309.9999836925206
 51
349.0904013505709
  0
ARC
  5
28C
330
1A
100
AcDbEntity
  8
SEIHIN
  6
CONTINUOUS
 62
     3
100
AcDbCircle
 10
310.3299454366481
 20
183.0520408518396
 30
0.0
 40
57.0000292432849
100
AcDbArc
 50
269.9998646182101
 51
350.2722308986743
  0
ARC
  5
28D
330
1A
100
AcDbEntity
  8
SEIHIN
  6
CONTINUOUS
 62
     3
100
AcDbCircle
 10
310.3299462123304
 20
183.0520406611394
 30
0.0
 40
59.00002905258104
100
AcDbArc
 50
269.9998684541442
 51
348.6578087612962
  0
LINE
  5
28E
330
1A
100
AcDbEntity
  8
CENTER_L
  6
CENTER
 62
     1
 48
5.0
100
AcDbLine
 10
310.3299107536741
 20
117.0520116085679
 30
0.0
 11
310.3299107536741
 21
190.0520116087139
 31
0.0
  0
ARC
  5
28F
330
1A
100
AcDbEntity
  8
SEIHIN
  6
CONTINUOUS
 62
     3
100
AcDbCircle
 10
310.329905679372
 20
183.0520088180037
 30
0.0
 40
55.80006185332641
100
AcDbArc
 50
287.6190102935381
 51
309.9998883385044
  0
ARC
  5
290
330
1A
100
AcDbEntity
  8
SEIHIN
  6
CONTINUOUS
 62
     3
100
AcDbCircle
 10
293.8940242329191
 20
131.299218827728
 30
0.0
 40
1.499968346330504
100
AcDbArc
 50
252.3812358913981
 51
343.9618520671964
  0
ARC
  5
291
330
1A
100
AcDbEntity
  8
SEIHIN
  6
CONTINUOUS
 62
     3
100
AcDbCircle
 10
296.7773531136095
 20
130.4704375134346
 30
0.0
 40
1.50001286154447
100
AcDbArc
 50
163.9636573114898
 51
255.5446122046906
  0
ARC
  5
292
330
1A
100
AcDbEntity
  8
SEIHIN
  6
CONTINUOUS
 62
     3
100
AcDbCircle
 10
326.7658158882086
 20
131.2992088590459
 30
0.0
 40
1.499983481575374
100
AcDbArc
 50
196.0375855400538
 51
287.6218422957437
  0
ARC
  5
293
330
1A
100
AcDbEntity
  8
SEIHIN
  6
CONTINUOUS
 62
     3
100
AcDbCircle
 10
323.8825770326228
 20
130.4704526288425
 30
0.0
 40
1.500000383290704
100
AcDbArc
 50
284.4512253409772
 51
16.03587894610603
  0
ARC
  5
294
330
1A
100
AcDbEntity
  8
SEIHIN
  6
CONTINUOUS
 62
     3
100
AcDbCircle
 10
310.3300071996127
 20
183.0519993791481
 30
0.0
 40
55.79998777078004
100
AcDbArc
 50
255.5466659911148
 51
269.9997982880708
  0
ARC
  5
295
330
1A
100
AcDbEntity
  8
SEIHIN
  6
CONTINUOUS
 62
     3
100
AcDbCircle
 10
310.3300977296613
 20
183.0520353171499
 30
0.0
 40
55.800023709174
100
AcDbArc
 50
269.9997053314354
 51
284.4529179307511
  0
ARC
  5
296
330
1A
100
AcDbEntity
  8
SEIHIN
  6
CONTINUOUS
 62
     3
100
AcDbCircle
 10
340.234512783893
 20
137.7286222613524
 30
0.0
 40
1.499989509962272
100
AcDbArc
 50
303.4175087297074
 51
35.00143201935794
  0
ARC
  5
297
330
1A
100
AcDbEntity
  8
SEIHIN
  6
CONTINUOUS
 62
     3
100
AcDbCircle
 10
349.7719647639069
 20
145.7315123560957
 30
0.0
 40
1.500024334775801
100
AcDbArc
 50
225.001262326058
 51
316.5814522517162
  0
LINE
  5
298
330
1A
100
AcDbEntity
  8
SEIHIN
  6
CONTINUOUS
 62
     3
100
AcDbLine
 10
310.3299107536741
 20
174.2521116087138
 30
0.0
 11
369.8299107536739
 21
174.2521116087138
 31
0.0
  0
LINE
  5
299
330
1A
100
AcDbEntity
  8
SEIHIN
  6
CONTINUOUS
 62
     3
100
AcDbLine
 10
375.829910753674
 20
183.0520116087139
 30
0.0
 11
310.3299107536741
 21
183.0520116087139
 31
0.0
  0
ARC
  5
29A
330
1A
100
AcDbEntity
  8
SEIHIN
  6
CONTINUOUS
 62
     3
100
AcDbCircle
 10
369.8299107536739
 20
178.2521116087139
 30
0.0
 40
6.000000000000127
100
AcDbArc
 50
269.9999999999994
 51
359.9999999999996
  0
ARC
  5
29B
330
1A
100
AcDbEntity
  8
SEIHIN
  6
CONTINUOUS
 62
     3
100
AcDbCircle
 10
369.8299107536739
 20
178.2521116087139
 30
0.0
 40
4.000000000000127
100
AcDbArc
 50
269.9999999999992
 51
359.9999999999993
  0
ARC
  5
29C
330
1A
100
AcDbEntity
  8
SEIHIN
  6
CONTINUOUS
 62
     3
100
AcDbCircle
 10
369.158201048409
 20
171.2521036562772
 30
0.0
 40
1.000007952483714
100
AcDbArc
 50
89.99944393370176
 51
168.661420338246
  0
ARC
  5
29D
330
1A
100
AcDbEntity
  8
SEIHIN
  6
CONTINUOUS
 62
     3
100
AcDbCircle
 10
363.6486426669934
 20
172.7752658303693
 30
0.0
 40
1.499971206361639
100
AcDbArc
 50
349.0915780167135
 51
80.67418136650394
  0
ARC
  5
29E
330
1A
100
AcDbEntity
  8
SEIHIN
  6
CONTINUOUS
 62
     3
100
AcDbCircle
 10
367.4960301530848
 20
173.2521279664813
 30
0.0
 40
0.9999836424206435
100
AcDbArc
 50
90.00111152254268
 51
170.276921401721
  0
LINE
  5
29F
330
1A
100
AcDbEntity
  8
SEIHIN
  6
CONTINUOUS
 62
     3
100
AcDbLine
 10
369.1582107536739
 20
172.2521116087138
 30
0.0
 11
369.8299107536739
 21
172.2521116087138
 31
0.0
  0
LINE
  5
2A0
330
1A
100
AcDbEntity
  8
SEIHIN
  6
CONTINUOUS
 62
     3
100
AcDbLine
 10
373.829910753674
 20
178.2521116087139
 30
0.0
 11
373.829910753674
 21
183.0520116087139
 31
0.0
  0
LINE
  5
2A1
330
1A
100
AcDbEntity
  8
SEIHIN
  6
CONTINUOUS
 62
     3
100
AcDbLine
 10
375.829910753674
 20
178.2521116087139
 30
0.0
 11
375.829910753674
 21
183.0520116087139
 31
0.0
  0
LINE
  5
2A6
330
1A
100
AcDbEntity
  8
SEIHIN
  6
CONTINUOUS
 62
     3
100
AcDbLine
 10
375.0299031448617
 20
265.3631116087138
 30
0.0
 11
310.3299031448616
 21
265.3632116087138
 31
0.0
  0
LINE
  5
2A7
330
1A
100
AcDbEntity
  8
SEIHIN
  6
CONTINUOUS
 62
     3
100
AcDbLine
 10
364.2611031448616
 20
290.3631116087138
 30
0.0
 11
310.3299031448616
 21
290.3632116087137
 31
0.0
  0
LINE
  5
2A8
330
1A
100
AcDbEntity
  8
SEIHIN
  6
CONTINUOUS
 62
     3
100
AcDbLine
 10
364.2786031448615
 20
291.3631116087139
 30
0.0
 11
325.3299031448616
 21
291.3632116087137
 31
0.0
  0
ARC
  5
2A9
330
1A
100
AcDbEntity
  8
SEIHIN
  6
CONTINUOUS
 62
     3
100
AcDbCircle
 10
337.3299042452779
 20
290.36321015337
 30
0.0
 40
12.00000110041648
100
AcDbArc
 50
179.9999930512459
 51
254.1874065422802
  0
LINE
  5
2AA
330
1A
100
AcDbEntity
  8
SEIHIN
  6
CONTINUOUS
 62
     3
100
AcDbLine
 10
366.5104031448616
 20
265.3631116087138
 30
0.0
 11
366.5104031448616
 21
290.3631116087138
 31
0.0
  0
LINE
  5
2AB
330
1A
100
AcDbEntity
  8
SEIHIN
  6
CONTINUOUS
 62
     3
100
AcDbLine
 10
373.8299031448616
 20
265.3631116087138
 30
0.0
 11
373.8299031448616
 21
290.3631116087138
 31
0.0
  0
LINE
  5
2AC
330
1A
100
AcDbEntity
  8
SEIHIN
  6
CONTINUOUS
 62
     3
100
AcDbLine
 10
375.0299031448617
 20
265.3631116087138
 30
0.0
 11
375.8299031448616
 21
270.3631116087139
 31
0.0
  0
LINE
  5
2AD
330
1A
100
AcDbEntity
  8
SEIHIN
  6
CONTINUOUS
 62
     3
100
AcDbLine
 10
363.9121031448617
 20
270.3631116087139
 30
0.0
 11
348.7258031448616
 21
274.6639116087138
 31
0.0
  0
LINE
  5
2AE
330
1A
100
AcDbEntity
  8
SEIHIN
  6
CONTINUOUS
 62
     3
100
AcDbLine
 10
341.0606031448617
 20
276.8347116087138
 30
0.0
 11
341.0606031448617
 21
284.3632116087139
 31
0.0
  0
LINE
  5
2AF
330
1A
100
AcDbEntity
  8
SEIHIN
  6
CONTINUOUS
 62
     3
100
AcDbLine
 10
341.4751031448616
 20
276.7174116087138
 30
0.0
 11
341.4751031448616
 21
284.3632116087139
 31
0.0
  0
LINE
  5
2B0
330
1A
100
AcDbEntity
  8
SEIHIN
  6
CONTINUOUS
 62
     3
100
AcDbLine
 10
348.7258031448616
 20
274.6639116087138
 30
0.0
 11
348.7258031448616
 21
284.3631116087138
 31
0.0
  0
LINE
  5
2B1
330
1A
100
AcDbEntity
  8
SEIHIN
  6
CONTINUOUS
 62
     3
100
AcDbLine
 10
341.4751031448616
 20
276.7174116087138
 30
0.0
 11
334.0600031448614
 21
278.8173116087139
 31
0.0
  0
LINE
  5
2B2
330
1A
100
AcDbEntity
  8
SEIHIN
  6
CONTINUOUS
 62
     3
100
AcDbLine
 10
348.7258031448616
 20
284.3631116087138
 30
0.0
 11
341.0606031448617
 21
284.3632116087139
 31
0.0
  0
LINE
  5
2B3
330
1A
100
AcDbEntity
  8
SEIHIN
  6
CONTINUOUS
 62
     3
100
AcDbLine
 10
363.9206031448616
 20
270.8544116087137
 30
0.0
 11
364.2786031448615
 21
291.3631116087139
 31
0.0
  0
LINE
  5
2B4
330
1A
100
AcDbEntity
  8
SEIHIN
  6
CONTINUOUS
 62
     3
100
AcDbLine
 10
365.1386031448617
 20
271.3457116087139
 30
0.0
 11
365.4705031448618
 21
290.3631116087138
 31
0.0
  0
LINE
  5
2B5
330
1A
100
AcDbEntity
  8
SEIHIN
  6
CONTINUOUS
 62
     3
100
AcDbLine
 10
375.8299031448616
 20
270.3631116087139
 30
0.0
 11
375.8299031448616
 21
290.3631116087138
 31
0.0
  0
ARC
  5
2B6
330
1A
100
AcDbEntity
  8
SEIHIN
  6
CONTINUOUS
 62
     3
100
AcDbCircle
 10
364.1387784176765
 20
271.3630873081234
 30
0.0
 40
0.999975699715228
100
AcDbArc
 50
270.0014167977786
 51
359.0043714589989
  0
ARC
  5
2B7
330
1A
100
AcDbEntity
  8
SEIHIN
  6
CONTINUOUS
 62
     3
100
AcDbCircle
 10
363.420690781269
 20
270.8630994584186
 30
0.0
 40
0.4999878498575572
100
AcDbArc
 50
270.0014167977786
 51
359.0043714589956
  0
LINE
  5
2B8
330
1A
100
AcDbEntity
  8
SEIHIN
  6
CONTINUOUS
 62
     3
100
AcDbLine
 10
366.5104031448616
 20
290.3631116087138
 30
0.0
 11
365.4705031448618
 21
290.3631116087138
 31
0.0
  0
LINE
  5
2BC
330
1A
100
AcDbEntity
  8
SEIHIN
  6
CONTINUOUS
 62
     3
100
AcDbLine
 10
366.5105031448617
 20
446.2706116087139
 30
0.0
 11
254.1494031448617
 21
302.4555116087138
 31
0.0
  0
LINE
  5
2BD
330
1A
100
AcDbEntity
  8
SEIHIN
  6
CONTINUOUS
 62
     3
100
AcDbLine
 10
218.6051031448615
 20
415.7009116087139
 30
0.0
 11
370.1460031448616
 21
453.4838116087136
 31
0.0
  0
LINE
  5
2BE
330
1A
100
AcDbEntity
  8
SEIHIN
  6
CONTINUOUS
 62
     3
100
AcDbLine
 10
218.1212031448615
 20
417.6415116087138
 30
0.0
 11
374.6300031448615
 21
456.663111608714
 31
0.0
  0
LINE
  5
2BF
330
1A
100
AcDbEntity
  8
SEIHIN
  6
CONTINUOUS
 62
     3
100
AcDbLine
 10
220.0855031448615
 20
409.7631116087137
 30
0.0
 11
366.5105031448617
 21
446.2706116087139
 31
0.0
  0
LINE
  5
2C0
330
1A
100
AcDbEntity
  8
SEIHIN
  6
CONTINUOUS
 62
     3
100
AcDbLine
 10
254.1495031448615
 20
295.3632116087137
 30
0.0
 11
295.3300031448616
 21
295.3632116087137
 31
0.0
  0
LINE
  5
2C2
330
1A
100
AcDbEntity
  8
CENTER_L
  6
CENTER
 62
     1
 48
5.0
100
AcDbLine
 10
195.4318031448616
 20
345.7160116087137
 30
0.0
 11
315.5033031448615
 21
375.6530116087137
 31
0.0
  0
LINE
  5
2C3
330
1A
100
AcDbEntity
  8
SEIHIN
  6
CONTINUOUS
 62
     3
100
AcDbLine
 10
188.9156031448616
 20
410.7721116087137
 30
0.0
 11
204.5678031448616
 21
347.9939116087139
 31
0.0
  0
LINE
  5
2C4
330
1A
100
AcDbEntity
  8
SEIHIN
  6
CONTINUOUS
 62
     3
100
AcDbLine
 10
215.7782031448615
 20
406.3711116087138
 30
0.0
 11
228.8252031448615
 21
354.0419116087138
 31
0.0
  0
LINE
  5
2C5
330
1A
100
AcDbEntity
  8
SEIHIN
  6
CONTINUOUS
 62
     3
100
AcDbLine
 10
220.0855031448615
 20
409.7631116087137
 30
0.0
 11
230.0479031448614
 21
369.8059116087138
 31
0.0
  0
LINE
  5
2C6
330
1A
100
AcDbEntity
  8
SEIHIN
  6
CONTINUOUS
 62
     3
100
AcDbLine
 10
216.7442031448615
 20
406.6300116087139
 30
0.0
 11
226.1667031448616
 21
368.8382116087137
 31
0.0
  0
LINE
  5
2C7
330
1A
100
AcDbEntity
  8
SEIHIN
  6
CONTINUOUS
 62
     3
100
AcDbLine
 10
213.7146031448617
 20
389.8457116087139
 30
0.0
 11
215.5691031448616
 21
382.4082116087136
 31
0.0
  0
LINE
  5
2C8
330
1A
100
AcDbEntity
  8
SEIHIN
  6
CONTINUOUS
 62
     3
100
AcDbLine
 10
241.8722031448615
 20
301.7126116087138
 30
0.0
 11
228.8252031448615
 21
354.0419116087138
 31
0.0
  0
LINE
  5
2C9
330
1A
100
AcDbEntity
  8
SEIHIN
  6
CONTINUOUS
 62
     3
100
AcDbLine
 10
247.2678031448615
 20
300.7397116087139
 30
0.0
 11
237.3054031448615
 21
340.6971116087139
 31
0.0
  0
LINE
  5
2CA
330
1A
100
AcDbEntity
  8
SEIHIN
  6
CONTINUOUS
 62
     3
100
AcDbLine
 10
242.8467031448615
 20
301.9375116087137
 30
0.0
 11
233.4242031448616
 21
339.7294116087138
 31
0.0
  0
ARC
  5
2CB
330
1A
100
AcDbEntity
  8
SEIHIN
  6
CONTINUOUS
 62
     3
100
AcDbCircle
 10
235.3570703240044
 20
327.8439948452311
 30
0.0
 40
11.99997006946769
100
AcDbArc
 50
104.0000574398594
 51
178.1876341961861
  0
LINE
  5
2CC
330
1A
100
AcDbEntity
  8
SEIHIN
  6
CONTINUOUS
 62
     3
100
AcDbLine
 10
222.8605031448616
 20
297.3234116087139
 30
0.0
 11
242.8467031448615
 21
301.9375116087137
 31
0.0
  0
LINE
  5
2CD
330
1A
100
AcDbEntity
  8
SEIHIN
  6
CONTINUOUS
 62
     3
100
AcDbLine
 10
223.6319031448615
 20
296.2605116087139
 30
0.0
 11
242.1648031448617
 21
300.5391116087139
 31
0.0
  0
LINE
  5
2CE
330
1A
100
AcDbEntity
  8
SEIHIN
  6
CONTINUOUS
 62
     3
100
AcDbLine
 10
218.1589031448617
 20
293.4822116087138
 30
0.0
 11
242.4162031448616
 21
299.5302116087139
 31
0.0
  0
LINE
  5
2CF
330
1A
100
AcDbEntity
  8
SEIHIN
  6
CONTINUOUS
 62
     3
100
AcDbLine
 10
232.2921031448617
 20
315.3349116087138
 30
0.0
 11
230.4377031448616
 21
322.7725116087138
 31
0.0
  0
LINE
  5
2D0
330
1A
100
AcDbEntity
  8
SEIHIN
  6
CONTINUOUS
 62
     3
100
AcDbLine
 10
222.3818031448617
 20
297.2129116087139
 30
0.0
 11
222.8810031448615
 21
312.9885116087139
 31
0.0
  0
ARC
  5
2D1
330
1A
100
AcDbEntity
  8
SEIHIN
  6
CONTINUOUS
 62
     3
100
AcDbCircle
 10
223.4069146008641
 20
297.2349045878459
 30
0.0
 40
1.000008267467407
100
AcDbArc
 50
193.9981744059606
 51
282.996214910707
  0
ARC
  5
2D2
330
1A
100
AcDbEntity
  8
SEIHIN
  6
CONTINUOUS
 62
     3
100
AcDbCircle
 10
222.7480378662214
 20
297.8105903347781
 30
0.0
 40
0.4999915499576792
100
AcDbArc
 50
194.002341082977
 51
282.9990182491829
  0
LINE
  5
2D3
330
1A
100
AcDbEntity
  8
SEIHIN
  6
CONTINUOUS
 62
     3
100
AcDbLine
 10
222.8810031448615
 20
312.9885116087139
 30
0.0
 11
232.2921031448617
 21
315.3349116087138
 31
0.0
  0
LINE
  5
2D4
330
1A
100
AcDbEntity
  8
SEIHIN
  6
CONTINUOUS
 62
     3
100
AcDbLine
 10
223.1193031448616
 20
320.5206116087138
 30
0.0
 11
223.3630031448616
 21
328.2235116087138
 31
0.0
  0
LINE
  5
2D5
330
1A
100
AcDbEntity
  8
SEIHIN
  6
CONTINUOUS
 62
     3
100
AcDbLine
 10
223.1329031448616
 20
320.9512116087139
 30
0.0
 11
230.4377031448616
 21
322.7725116087138
 31
0.0
  0
LINE
  5
2D6
330
1A
100
AcDbEntity
  8
SEIHIN
  6
CONTINUOUS
 62
     3
100
AcDbLine
 10
223.1193031448616
 20
320.5206116087138
 30
0.0
 11
230.5380031448617
 21
322.3703116087138
 31
0.0
  0
LINE
  5
2D7
330
1A
100
AcDbEntity
  8
SEIHIN
  6
CONTINUOUS
 62
     3
100
AcDbLine
 10
247.2678031448615
 20
300.7397116087139
 30
0.0
 11
254.1495031448615
 21
302.4555116087138
 31
0.0
  0
LINE
  5
2D8
330
1A
100
AcDbEntity
  8
SEIHIN
  6
CONTINUOUS
 62
     3
100
AcDbLine
 10
247.2678031448615
 20
300.7397116087139
 30
0.0
 11
242.8467031448615
 21
301.9375116087137
 31
0.0
  0
LINE
  5
2D9
330
1A
100
AcDbEntity
  8
SEIHIN
  6
CONTINUOUS
 62
     3
100
AcDbLine
 10
242.4162031448616
 20
299.5302116087139
 30
0.0
 11
242.1648031448617
 21
300.5391116087139
 31
0.0
  0
LINE
  5
2DA
330
1A
100
AcDbEntity
  8
SEIHIN
  6
CONTINUOUS
 62
     3
100
AcDbLine
 10
254.1495031448615
 20
295.3632116087137
 30
0.0
 11
254.1495031448615
 21
302.4555116087138
 31
0.0
  0
LINE
  5
2DB
330
1A
100
AcDbEntity
  8
SEIHIN
  6
CONTINUOUS
 62
     3
100
AcDbLine
 10
232.4540031448616
 20
339.4875116087139
 30
0.0
 11
237.3054031448615
 21
340.6971116087139
 31
0.0
  0
ARC
  5
2DC
330
1A
100
AcDbEntity
  8
SEIHIN
  6
CONTINUOUS
 62
     3
100
AcDbCircle
 10
222.2934053690655
 20
380.2398106602757
 30
0.0
 40
11.99993609357983
100
AcDbArc
 50
209.8117935802149
 51
283.9997563640461
  0
LINE
  5
2DD
330
1A
100
AcDbEntity
  8
SEIHIN
  6
CONTINUOUS
 62
     3
100
AcDbLine
 10
208.0502031448617
 20
380.9607116087137
 30
0.0
 11
211.8815031448616
 21
374.2740116087137
 31
0.0
  0
LINE
  5
2DE
330
1A
100
AcDbEntity
  8
SEIHIN
  6
CONTINUOUS
 62
     3
100
AcDbLine
 10
208.2643031448615
 20
380.5870116087139
 30
0.0
 11
215.5691031448616
 21
382.4082116087136
 31
0.0
  0
LINE
  5
2DF
330
1A
100
AcDbEntity
  8
SEIHIN
  6
CONTINUOUS
 62
     3
100
AcDbLine
 10
208.0502031448617
 20
380.9607116087137
 30
0.0
 11
215.4688031448616
 21
382.8104116087136
 31
0.0
  0
LINE
  5
2E0
330
1A
100
AcDbEntity
  8
SEIHIN
  6
CONTINUOUS
 62
     3
100
AcDbLine
 10
225.1965031448617
 20
368.5963116087139
 30
0.0
 11
230.0479031448614
 21
369.8058116087139
 31
0.0
  0
LINE
  5
2E3
330
1A
100
AcDbEntity
  8
SEIHIN
  6
CONTINUOUS
 62
     3
100
AcDbLine
 10
193.5735031448615
 20
412.7579116087138
 30
0.0
 11
212.9794031448615
 21
417.5963116087139
 31
0.0
  0
LINE
  5
2E4
330
1A
100
AcDbEntity
  8
SEIHIN
  6
CONTINUOUS
 62
     3
100
AcDbLine
 10
189.2059031448616
 20
409.6077116087139
 30
0.0
 11
213.4633031448615
 21
415.6556116087139
 31
0.0
  0
LINE
  5
2E5
330
1A
100
AcDbEntity
  8
SEIHIN
  6
CONTINUOUS
 62
     3
100
AcDbLine
 10
190.9766031448616
 20
402.5056116087138
 30
0.0
 11
215.2340031448616
 21
408.553511608714
 31
0.0
  0
LINE
  5
2E6
330
1A
100
AcDbEntity
  8
SEIHIN
  6
CONTINUOUS
 62
     3
100
AcDbLine
 10
188.9156031448616
 20
410.7721116087137
 30
0.0
 11
193.5735031448615
 21
412.7579116087138
 31
0.0
  0
LINE
  5
2E7
330
1A
100
AcDbEntity
  8
SEIHIN
  6
CONTINUOUS
 62
     3
100
AcDbLine
 10
220.0855031448615
 20
409.7631116087137
 30
0.0
 11
216.7442031448615
 21
406.6300116087139
 31
0.0
  0
LINE
  5
2E8
330
1A
100
AcDbEntity
  8
SEIHIN
  6
CONTINUOUS
 62
     3
100
AcDbLine
 10
215.2340031448616
 20
408.553511608714
 30
0.0
 11
215.4856031448616
 21
407.5446116087138
 31
0.0
  0
LINE
  5
2E9
330
1A
100
AcDbEntity
  8
SEIHIN
  6
CONTINUOUS
 62
     3
100
AcDbLine
 10
196.4566031448616
 20
401.1940116087137
 30
0.0
 11
204.3035031448616
 21
387.4994116087139
 31
0.0
  0
LINE
  5
2EA
330
1A
100
AcDbEntity
  8
SEIHIN
  6
CONTINUOUS
 62
     3
100
AcDbLine
 10
204.3035031448616
 20
387.4994116087139
 30
0.0
 11
213.7146031448617
 21
389.8457116087139
 31
0.0
  0
LINE
  5
2EB
330
1A
100
AcDbEntity
  8
SEIHIN
  6
CONTINUOUS
 62
     3
100
AcDbLine
 10
196.9313031448615
 20
401.3212116087137
 30
0.0
 11
216.7442031448615
 21
406.6300116087139
 31
0.0
  0
LINE
  5
2EC
330
1A
100
AcDbEntity
  8
SEIHIN
  6
CONTINUOUS
 62
     3
100
AcDbLine
 10
197.1133031448616
 20
402.6219116087139
 30
0.0
 11
215.4856031448616
 21
407.5446116087138
 31
0.0
  0
ARC
  5
2ED
330
1A
100
AcDbEntity
  8
SEIHIN
  6
CONTINUOUS
 62
     3
100
AcDbCircle
 10
197.3721370883196
 20
401.6559692356895
 30
0.0
 40
1.000045726493799
100
AcDbArc
 50
105.0061132190327
 51
194.0014566458316
  0
ARC
  5
2EE
330
1A
100
AcDbEntity
  8
SEIHIN
  6
CONTINUOUS
 62
     3
100
AcDbCircle
 10
197.0607022432145
 20
400.8382100783378
 30
0.0
 40
0.5000346038025516
100
AcDbArc
 50
104.9977010081318
 51
193.9916334210854
  0
LINE
  5
2EF
330
1A
100
AcDbEntity
  8
SEIHIN
  6
CONTINUOUS
 62
     3
100
AcDbLine
 10
213.4633031448615
 20
415.6557116087139
 30
0.0
 11
218.6051031448615
 21
415.7009116087139
 31
0.0
  0
LINE
  5
2F0
330
1A
100
AcDbEntity
  8
SEIHIN
  6
CONTINUOUS
 62
     3
100
AcDbLine
 10
212.9794031448615
 20
417.5963116087139
 30
0.0
 11
218.1212031448615
 21
417.6415116087138
 31
0.0
  0
LINE
  5
2F1
330
1A
100
AcDbEntity
  8
SEIHIN
  6
CONTINUOUS
 62
     3
100
AcDbLine
 10
372.6299031448613
 20
295.3631116087139
 30
0.0
 11
372.6299031448613
 21
451.5431116087139
 31
0.0
  0
LINE
  5
2F2
330
1A
100
AcDbEntity
  8
SEIHIN
  6
CONTINUOUS
 62
     3
100
AcDbLine
 10
374.6299031448616
 20
295.3631116087139
 30
0.0
 11
374.6300031448615
 21
456.663111608714
 31
0.0
  0
LINE
  5
2F3
330
1A
100
AcDbEntity
  8
SEIHIN
  6
CONTINUOUS
 62
     3
100
AcDbLine
 10
366.5104031448616
 20
295.3631116087139
 30
0.0
 11
366.5105031448617
 21
446.2706116087139
 31
0.0
  0
LINE
  5
2F4
330
1A
100
AcDbEntity
  8
SEIHIN
  6
CONTINUOUS
 62
     3
100
AcDbLine
 10
366.5104031448616
 20
295.3631116087139
 30
0.0
 11
325.3299031448616
 21
295.3632116087137
 31
0.0
  0
ARC
  5
2F9
330
1A
100
AcDbEntity
  8
SEIHIN
  6
CONTINUOUS
 62
     3
100
AcDbCircle
 10
370.6298436841295
 20
451.5431580638524
 30
0.0
 40
2.000059461271578
100
AcDbArc
 50
359.9986691978811
 51
103.9994792878166
  0
TEXT
  5
2FF
330
1A
100
AcDbEntity
  8
ZUWAKU
 62
     7
100
AcDbText
 10
654.2531733678779
 20
15.90287984531518
 30
0.0
 40
8.0
  1
ＧＡ４９
100
AcDbText
  0
ARC
  5
300
330
1A
100
AcDbEntity
  8
SEIHIN
  6
CONTINUOUS
 62
     3
100
AcDbCircle
 10
310.3299462123304
 20
183.0520406611394
 30
0.0
 40
58.30002905258104
100
AcDbArc
 50
269.9998684541442
 51
348.6578087612962
  0
ARC
  5
301
330
1A
100
AcDbEntity
  8
SEIHIN
  6
CONTINUOUS
 62
     3
100
AcDbCircle
 10
310.329899298197
 20
183.0520209946217
 30
0.0
 40
58.30000938597425
100
AcDbArc
 50
191.3419774991482
 51
269.9999140131076
  0
LINE
  5
302
330
1A
100
AcDbEntity
  8
SEIHIN
  6
CONTINUOUS
 62
     3
100
AcDbLine
 10
375.1299107536741
 20
178.2521116087139
 30
0.0
 11
375.1299107536741
 21
183.0520116087139
 31
0.0
  0
ARC
  5
303
330
1A
100
AcDbEntity
  8
SEIHIN
  6
CONTINUOUS
 62
     3
100
AcDbCircle
 10
369.8299107536739
 20
178.2521116087139
 30
0.0
 40
5.300000000000127
100
AcDbArc
 50
269.9999999999994
 51
359.9999999999996
  0
LINE
  5
304
330
1A
100
AcDbEntity
  8
SEIHIN
  6
CONTINUOUS
 62
     3
100
AcDbLine
 10
369.1582107536739
 20
172.9521116087138
 30
0.0
 11
369.8299107536739
 21
172.9521116087138
 31
0.0
  0
ARC
  5
305
330
1A
100
AcDbEntity
  8
SEIHIN
  6
CONTINUOUS
 62
     3
100
AcDbCircle
 10
369.158201048409
 20
171.2521036562772
 30
0.0
 40
1.700007952483714
100
AcDbArc
 50
89.99944393370176
 51
168.661420338246
  0
LINE
  5
306
330
1A
100
AcDbEntity
  8
SEIHIN
  6
CONTINUOUS
 62
     3
100
AcDbLine
 10
245.529910753674
 20
178.2521116087139
 30
0.0
 11
245.529910753674
 21
183.0520116087139
 31
0.0
  0
ARC
  5
307
330
1A
100
AcDbEntity
  8
SEIHIN
  6
CONTINUOUS
 62
     3
100
AcDbCircle
 10
250.829910753674
 20
178.2521116087138
 30
0.0
 40
5.300000000000042
100
AcDbArc
 50
179.9999999999996
 51
269.9999999999996
  0
ARC
  5
308
330
1A
100
AcDbEntity
  8
SEIHIN
  6
CONTINUOUS
 62
     3
100
AcDbCircle
 10
250.829910753674
 20
178.2521116087138
 30
0.0
 40
5.300000000000042
100
AcDbArc
 50
179.9999999999996
 51
269.9999999999996
  0
ARC
  5
309
330
1A
100
AcDbEntity
  8
SEIHIN
  6
CONTINUOUS
 62
     3
100
AcDbCircle
 10
251.5016606282081
 20
171.2521526804006
 30
0.0
 40
1.699958929569496
100
AcDbArc
 50
11.33627800950677
 51
89.9971279044063
  0
LINE
  5
30B
330
1A
100
AcDbEntity
  8
SEIHIN
  6
CONTINUOUS
 62
     3
100
AcDbLine
 10
251.5017107536739
 20
172.9521116087138
 30
0.0
 11
250.829910753674
 21
172.9521116087138
 31
0.0
  0
LINE
  5
30C
330
1A
100
AcDbEntity
  8
SEIHIN
100
AcDbLine
 10
204.5648220232633
 20
144.2314856855186
 30
0.0
 11
200.3489472408946
 21
144.2314856855186
 31
0.0
  0
ARC
  5
311
330
1A
100
AcDbEntity
  8
SEIHIN
  6
CONTINUOUS
 62
     3
100
AcDbCircle
 10
217.9198107536738
 20
176.2521116087138
 30
0.0
 40
2.0
100
AcDbArc
 50
270.0
 51
0.0
  0
LINE
  5
313
330
1A
100
AcDbEntity
  8
SEIHIN
100
AcDbLine
 10
220.218044998921
 20
174.1318644570969
 30
0.0
 11
220.218044998921
 21
183.0520556255999
 31
0.0
  0
LINE
  5
381
330
1A
100
AcDbEntity
  8
SEIHIN
  6
CONTINUOUS
 62
     3
100
AcDbLine
 10
592.0418631897223
 20
126.0519063623451
 30
0.0
 11
513.0418047514861
 21
126.0520534796089
 31
0.0
  0
LINE
  5
396
330
1A
100
AcDbEntity
  8
SEIHIN
  6
CONTINUOUS
 62
     3
100
AcDbLine
 10
503.7388313374499
 20
121.3110116087136
 30
0.0
 11
508.0418047514863
 21
121.3109916552084
 31
0.0
  0
LINE
  5
39A
330
1A
100
AcDbEntity
  8
SEIHIN
  6
CONTINUOUS
 62
     3
100
AcDbLine
 10
673.3418047514861
 20
172.2520116087137
 30
0.0
 11
483.0416313374498
 21
172.2520116087137
 31
0.0
  0
LINE
  5
3AA
330
1A
100
AcDbEntity
  8
SEIHIN
  6
CONTINUOUS
 62
     3
100
AcDbLine
 10
674.3418047514861
 20
183.0516694795137
 30
0.0
 11
483.0416313374498
 21
183.0520116087138
 31
0.0
  0
LINE
  5
3D8
330
1A
100
AcDbEntity
  8
SEIHIN
100
AcDbLine
 10
483.0416313374498
 20
183.0520116087138
 30
0.0
 11
483.0416313374498
 21
124.0520116087136
 31
0.0
  0
LINE
  5
3D9
330
1A
100
AcDbEntity
  8
SEIHIN
100
AcDbLine
 10
488.0418047514861
 20
183.0520026661954
 30
0.0
 11
488.0418047514861
 21
121.3110116087138
 31
0.0
  0
LINE
  5
3DB
330
1A
100
AcDbEntity
  8
SEIHIN
100
AcDbLine
 10
503.7388313374499
 20
121.3110116087136
 30
0.0
 11
488.0418047514861
 21
121.3110116087136
 31
0.0
  0
LINE
  5
3DC
330
1A
100
AcDbEntity
  8
SEIHIN
100
AcDbLine
 10
488.0418047514861
 20
121.3110116087136
 30
0.0
 11
483.0416313374498
 21
124.0520116087136
 31
0.0
  0
LINE
  5
3DD
330
1A
100
AcDbEntity
  8
SEIHIN
100
AcDbLine
 10
508.0418047514861
 20
183.051966897362
 30
0.0
 11
508.0418047514861
 21
121.3109916552084
 31
0.0
  0
LINE
  5
3DE
330
1A
100
AcDbEntity
  8
SEIHIN
100
AcDbLine
 10
513.0418047514861
 20
183.0519579551537
 30
0.0
 11
513.0418047514861
 21
126.0520534796089
 31
0.0
  0
LINE
  5
3DF
330
1A
100
AcDbEntity
  8
SEIHIN
100
AcDbLine
 10
513.0418047514861
 20
126.0520534796089
 30
0.0
 11
508.0418047514861
 21
121.3109916552084
 31
0.0
  0
LINE
  5
3E0
330
1A
100
AcDbEntity
  8
SEIHIN
100
AcDbLine
 10
674.341804751486
 20
183.0516694795139
 30
0.0
 11
674.3418047514861
 21
173.2520116087137
 31
0.0
  0
LINE
  5
3E1
330
1A
100
AcDbEntity
  8
SEIHIN
  6
CONTINUOUS
 62
     3
100
AcDbLine
 10
368.310403144861
 20
295.3631104159302
 30
0.0
 11
368.3105031448612
 21
446.2706104159302
 31
0.0
  0
LINE
  5
3E2
330
1A
100
AcDbEntity
  8
SEIHIN
  6
CONTINUOUS
 62
     3
100
AcDbLine
 10
219.6500476948202
 20
411.5096449038528
 30
0.0
 11
366.0750476948205
 21
448.017144903853
 31
0.0
  0
ELLIPSE
  5
3E7
330
1A
100
AcDbEntity
  8
SEIHIN
100
AcDbEllipse
 10
592.0418631897223
 20
172.2520116087137
 30
0.0
 11
74.21133149393916
 21
0.0
 31
0.0
210
0.0
220
0.0
230
1.0
 40
0.6225478551094553
 41
-1.570796326794896
 42
0.0000000000000148
  0
ARC
  5
3E8
330
1A
100
AcDbEntity
  8
SEIHIN
100
AcDbCircle
 10
673.341804751486
 20
173.2520116087139
 30
0.0
 40
1.0
100
AcDbArc
 50
270.0000000000097
 51
359.9999999999869
  0
ELLIPSE
  5
3EE
330
1A
100
AcDbEntity
  8
SEIHIN
100
AcDbEllipse
 10
571.7205648720187
 20
172.2520116087137
 30
0.0
 11
56.25817470660871
 21
0.0
 31
0.0
210
0.0
220
0.0
230
1.0
 40
0.9054861851750752
 41
-2.005649267009554
 42
-1.135947499823491
  0
DIMENSION
  5
400
330
1A
100
AcDbEntity
  8
SUNPOU
100
AcDbDimension
  2
*D2
 10
375.829910753674
 20
217.5322945785442
 30
0.0
 11
310.3299107536741
 21
222.5322945785442
 31
0.0
 12
8.708126225433261
 22
-29.36699115555097
 32
0.0
 70
    32
  3
STANDARD
100
AcDbAlignedDimension
 13
244.829910753674
 23
183.0520116087139
 33
0.0
 14
375.829910753674
 24
180.6520616087139
 34
0.0
100
AcDbRotatedDimension
1001
ACAD
1000
DSTYLE
1002
{
1070
   140
1040
6.0
1070
    74
1070
     0
1070
   172
1070
     1
1070
    73
1070
     0
1070
   272
1070
     2
1070
    77
1070
     3
1070
   173
1070
     1
1070
   147
1040
2.0
1070
    42
1040
6.0
1070
    44
1040
3.0
1070
    43
1040
14.0
1070
   271
1070
     0
1070
   178
1070
     4
1070
   177
1070
     4
1070
   176
1070
     4
1070
   141
1040
150.0
1070
     7
1000
_OPEN
1070
     6
1000
_OPEN
1070
    41
1040
7.0
1002
}
  0
DIMENSION
  5
40D
330
1A
100
AcDbEntity
  8
SUNPOU
100
AcDbDimension
  2
*D3
 10
422.8063234251498
 20
265.3631116087138
 30
0.0
 11
417.8063234251498
 21
361.0131116087139
 31
0.0
 12
8.708126225433261
 22
-29.36699115555097
 32
0.0
 70
    32
  3
STANDARD
100
AcDbAlignedDimension
 13
374.6300031448615
 23
456.663111608714
 33
0.0
 14
375.0299031448617
 24
265.3631116087138
 34
0.0
 50
90.0
100
AcDbRotatedDimension
1001
ACAD
1000
DSTYLE
1002
{
1070
   140
1040
6.0
1070
    74
1070
     0
1070
   172
1070
     1
1070
    73
1070
     0
1070
   272
1070
     2
1070
    77
1070
     3
1070
   173
1070
     1
1070
   147
1040
2.0
1070
    42
1040
6.0
1070
    44
1040
3.0
1070
    43
1040
14.0
1070
   271
1070
     0
1070
   178
1070
     4
1070
   177
1070
     4
1070
   176
1070
     4
1070
   141
1040
150.0
1070
     7
1000
_OPEN
1070
     6
1000
_OPEN
1070
    41
1040
7.0
1002
}
  0
DIMENSION
  5
41A
330
1A
100
AcDbEntity
  8
SUNPOU
100
AcDbDimension
  2
*D4
 10
422.8063234251498
 20
124.052011608569
 30
0.0
 11
417.8063234251498
 21
153.5520116086414
 31
0.0
 12
8.708126225433261
 22
-29.36699115555097
 32
0.0
 70
    32
  3
STANDARD
100
AcDbAlignedDimension
 13
375.829910753674
 23
183.0520116087139
 33
0.0
 14
310.329910753674
 24
124.052011608569
 34
0.0
 50
90.0
100
AcDbRotatedDimension
1001
ACAD
1000
DSTYLE
1002
{
1070
   140
1040
6.0
1070
    74
1070
     0
1070
   172
1070
     1
1070
    73
1070
     0
1070
   272
1070
     2
1070
    77
1070
     3
1070
   173
1070
     1
1070
   147
1040
2.0
1070
    42
1040
6.0
1070
    44
1040
3.0
1070
    43
1040
14.0
1070
   271
1070
     0
1070
   178
1070
     4
1070
   177
1070
     4
1070
   176
1070
     4
1070
   141
1040
150.0
1070
     7
1000
_OPEN
1070
     6
1000
_OPEN
1070
    41
1040
7.0
1002
}
  0
DIMENSION
  5
427
330
1A
100
AcDbEntity
  8
SUNPOU
100
AcDbDimension
  2
*D5
 10
315.5033031448615
 20
375.6530116087138
 30
0.0
 11
291.8639967665332
 21
350.7278206745112
 31
0.0
 70
    34
  3
STANDARD
100
AcDb2LineAngularDimension
 13
310.3299031448616
 23
255.9475116087138
 33
0.0
 14
310.3300031448615
 24
379.6948116087139
 34
0.0
 15
195.4318031448616
 25
345.7160116087137
 35
0.0
 16
283.2633262457294
 26
352.1831032581443
 36
0.0
1001
ACAD
1000
DSTYLE
1002
{
1070
   271
1070
     0
1070
   271
1070
     0
1070
   140
1040
6.0
1070
    74
1070
     0
1070
   172
1070
     1
1070
    73
1070
     0
1070
   272
1070
     2
1070
    77
1070
     3
1070
   173
1070
     1
1070
   147
1040
2.0
1070
    42
1040
6.0
1070
    44
1040
3.0
1070
    43
1040
14.0
1070
   271
1070
     0
1070
   178
1070
     4
1070
   177
1070
     4
1070
   176
1070
     4
1070
   141
1040
150.0
1070
     7
1000
_OPEN
1070
     6
1000
_OPEN
1070
    41
1040
7.0
1002
}
  0
LINE
  5
428
330
1A
100
AcDbEntity
  8
CENTER_L
 48
5.0
100
AcDbLine
 10
381.6300054740972
 20
465.6226799226722
 30
0.0
 11
237.8299512907767
 21
281.5675398800202
 31
0.0
  0
VIEWPORT
  5
22
330
17
100
AcDbEntity
 67
     1
  8
0
100
AcDbViewport
 10
313.6808219178082
 20
148.5
 30
0.0
 40
627.3616438356165
 41
297.0
 68
     2
 69
     1
1001
ACAD
1000
MVIEW
1002
{
1070
    16
1010
0.0
1020
0.0
1030
0.0
1010
0.0
1020
0.0
1030
1.0
1040
0.0
1040
297.0
1040
313.6808219178082
1040
148.5
1040
50.0
1040
0.0
1040
0.0
1070
     0
1070
   100
1070
     1
1070
     0
1070
     0
1070
     0
1070
     0
1070
     0
1040
0.0
1040
0.0
1040
0.0
1040
1.0
1040
1.0
1040
10.0
1040
10.0
1070
     0
1002
{
1002
}
1002
}
  0
VIEWPORT
  5
64
330
17
100
AcDbEntity
 67
     1
  8
VIEWPORT
100
AcDbViewport
 10
210.0
 20
148.5
 30
0.0
 40
420.0
 41
297.0
 68
     1
 69
     2
1001
ACAD
1000
MVIEW
1002
{
1070
    16
1010
0.0
1020
0.0
1030
0.0
1010
0.0
1020
0.0
1030
1.0
1040
0.0
1040
605.8799999999998
1040
420.0
1040
297.0
1040
50.0
1040
0.0
1040
0.0
1070
     0
1070
   100
1070
     1
1070
     0
1070
     0
1070
     0
1070
     0
1070
     0
1040
0.0
1040
0.0
1040
0.0
1040
10.0
1040
10.0
1040
0.0
1040
0.0
1070
     0
1002
{
1002
}
1002
}
  0
ENDSEC
  0
SECTION
  2
OBJECTS
  0
DICTIONARY
  5
C
330
0
100
AcDbDictionary
  3
ACAD_GROUP
350
D
  3
ACAD_LAYOUT
350
43B
  3
ACAD_MLINESTYLE
350
E
  3
ACAD_PLOTSETTINGS
350
43C
1001
ACAD
1000
TREAT_AS_HARD
1070
     0
  0
DICTIONARY
  5
46A
330
1A
100
AcDbDictionary
  3
ACAD_LAYOUTSELFREF
350
483
1001
ACAD
1000
TREAT_AS_HARD
1070
     1
  0
DICTIONARY
  5
468
330
17
100
AcDbDictionary
  3
ACAD_LAYOUTSELFREF
350
482
1001
ACAD
1000
TREAT_AS_HARD
1070
     1
  0
DICTIONARY
  5
D
102
{ACAD_REACTORS
330
C
102
}
330
C
100
AcDbDictionary
1001
ACAD
1000
TREAT_AS_HARD
1070
     0
  0
DICTIONARY
  5
43B
102
{ACAD_REACTORS
330
C
102
}
330
C
100
AcDbDictionary
1001
ACAD
1000
TREAT_AS_HARD
1070
     0
  0
DICTIONARY
  5
E
102
{ACAD_REACTORS
330
C
102
}
330
C
100
AcDbDictionary
  3
STANDARD
350
13
1001
ACAD
1000
TREAT_AS_HARD
1070
     0
  0
DICTIONARY
  5
43C
102
{ACAD_REACTORS
330
C
102
}
330
C
100
AcDbDictionary
1001
ACAD
1000
TREAT_AS_HARD
1070
     0
  0
XRECORD
  5
483
102
{ACAD_REACTORS
330
46A
102
}
330
46A
100
AcDbXrecord
340
1A
  0
XRECORD
  5
482
102
{ACAD_REACTORS
330
468
102
}
330
468
100
AcDbXrecord
340
17
  0
MLINESTYLE
  5
13
102
{ACAD_REACTORS
330
E
102
}
330
E
100
AcDbMlineStyle
  2
STANDARD
 70
     0
  3

 62
     0
 51
90.0
 52
90.0
 71
     2
 49
0.5
 62
   256
  6
BYLAYER
 49
-0.5
 62
   256
  6
BYLAYER
  0
ENDSEC
  0
EOF
