  0
SECTION
  2
HEADER
  9
$ACADVER
  1
AC1012
  9
$DWGCODEPAGE
  3
dos932
  9
$INSBASE
 10
0.0
 20
0.0
 30
0.0
  9
$EXTMIN
 10
10.05047808566086
 20
4.949376903717846
 30
-0.00000001
  9
$EXTMAX
 10
806.2246110975902
 20
563.7825862828226
 30
0.00000001
  9
$LIMMIN
 10
0.0
 20
0.0
  9
$LIMMAX
 10
840.0
 20
594.0
  9
$ORTHOMODE
 70
     0
  9
$REGENMODE
 70
     1
  9
$FILLMODE
 70
     1
  9
$QTEXTMODE
 70
     0
  9
$MIRRTEXT
 70
     1
  9
$DRAGMODE
 70
     2
  9
$LTSCALE
 40
2.0
  9
$OSMODE
 70
   319
  9
$ATTMODE
 70
     1
  9
$TEXTSIZE
 40
5.0
  9
$TRACEWID
 40
1.0
  9
$TEXTSTYLE
  7
STANDARD
  9
$CLAYER
  8
SUNPOU
  9
$CELTYPE
  6
BYLAYER
  9
$CECOLOR
 62
   256
  9
$CELTSCALE
 40
1.0
  9
$DELOBJ
 70
     1
  9
$DISPSILH
 70
     0
  9
$DIMSCALE
 40
1.0
  9
$DIMASZ
 40
7.0
  9
$DIMEXO
 40
6.0
  9
$DIMDLI
 40
14.0
  9
$DIMRND
 40
0.0
  9
$DIMDLE
 40
0.0
  9
$DIMEXE
 40
3.0
  9
$DIMTP
 40
0.0
  9
$DIMTM
 40
0.0
  9
$DIMTXT
 40
6.0
  9
$DIMCEN
 40
150.0
  9
$DIMTSZ
 40
0.0
  9
$DIMTOL
 70
     0
  9
$DIMLIM
 70
     0
  9
$DIMTIH
 70
     0
  9
$DIMTOH
 70
     0
  9
$DIMSE1
 70
     0
  9
$DIMSE2
 70
     0
  9
$DIMTAD
 70
     3
  9
$DIMZIN
 70
     0
  9
$DIMBLK
  1

  9
$DIMASO
 70
     1
  9
$DIMSHO
 70
     1
  9
$DIMPOST
  1

  9
$DIMAPOST
  1

  9
$DIMALT
 70
     0
  9
$DIMALTD
 70
     2
  9
$DIMALTF
 40
25.4
  9
$DIMLFAC
 40
1.0
  9
$DIMTOFL
 70
     1
  9
$DIMTVP
 40
0.0
  9
$DIMTIX
 70
     0
  9
$DIMSOXD
 70
     0
  9
$DIMSAH
 70
     1
  9
$DIMBLK1
  1
OPEN
  9
$DIMBLK2
  1
OPEN
  9
$DIMSTYLE
  2
STANDARD
  9
$DIMCLRD
 70
     4
  9
$DIMCLRE
 70
     4
  9
$DIMCLRT
 70
     4
  9
$DIMTFAC
 40
1.0
  9
$DIMGAP
 40
2.0
  9
$DIMJUST
 70
     0
  9
$DIMSD1
 70
     0
  9
$DIMSD2
 70
     0
  9
$DIMTOLJ
 70
     1
  9
$DIMTZIN
 70
     0
  9
$DIMALTZ
 70
     0
  9
$DIMALTTZ
 70
     0
  9
$DIMFIT
 70
     3
  9
$DIMUPT
 70
     0
  9
$DIMUNIT
 70
     2
  9
$DIMDEC
 70
     0
  9
$DIMTDEC
 70
     2
  9
$DIMALTU
 70
     2
  9
$DIMALTTD
 70
     2
  9
$DIMTXSTY
  7
STANDARD
  9
$DIMAUNIT
 70
     0
  9
$LUNITS
 70
     2
  9
$LUPREC
 70
     4
  9
$SKETCHINC
 40
1.0
  9
$FILLETRAD
 40
20.0
  9
$AUNITS
 70
     0
  9
$AUPREC
 70
     0
  9
$MENU
  1
.
  9
$ELEVATION
 40
0.0
  9
$PELEVATION
 40
0.0
  9
$THICKNESS
 40
0.0
  9
$LIMCHECK
 70
     0
  9
$BLIPMODE
 70
     0
  9
$CHAMFERA
 40
20.0
  9
$CHAMFERB
 40
20.0
  9
$CHAMFERC
 40
40.0
  9
$CHAMFERD
 40
0.0
  9
$SKPOLY
 70
     0
  9
$TDCREATE
 40
2451187.471785648
  9
$TDUPDATE
 40
2452423.335033333
  9
$TDINDWG
 40
0.0086706019
  9
$TDUSRTIMER
 40
0.0086706019
  9
$USRTIMER
 70
     1
  9
$ANGBASE
 50
0.0
  9
$ANGDIR
 70
     0
  9
$PDMODE
 70
     0
  9
$PDSIZE
 40
0.0
  9
$PLINEWID
 40
0.0
  9
$COORDS
 70
     1
  9
$SPLFRAME
 70
     0
  9
$SPLINETYPE
 70
     6
  9
$SPLINESEGS
 70
     8
  9
$ATTDIA
 70
     0
  9
$ATTREQ
 70
     1
  9
$HANDLING
 70
 10241
  9
$HANDSEED
  5
3EC
  9
$SURFTAB1
 70
     6
  9
$SURFTAB2
 70
     6
  9
$SURFTYPE
 70
     6
  9
$SURFU
 70
     6
  9
$SURFV
 70
     6
  9
$UCSNAME
  2

  9
$UCSORG
 10
0.0
 20
0.0
 30
0.0
  9
$UCSXDIR
 10
1.0
 20
0.0
 30
0.0
  9
$UCSYDIR
 10
0.0
 20
1.0
 30
0.0
  9
$PUCSNAME
  2

  9
$PUCSORG
 10
0.0
 20
0.0
 30
0.0
  9
$PUCSXDIR
 10
1.0
 20
0.0
 30
0.0
  9
$PUCSYDIR
 10
0.0
 20
1.0
 30
0.0
  9
$USERI1
 70
     0
  9
$USERI2
 70
     0
  9
$USERI3
 70
     0
  9
$USERI4
 70
     0
  9
$USERI5
 70
     0
  9
$USERR1
 40
0.0
  9
$USERR2
 40
0.0
  9
$USERR3
 40
0.0
  9
$USERR4
 40
0.0
  9
$USERR5
 40
0.0
  9
$WORLDVIEW
 70
     1
  9
$SHADEDGE
 70
     3
  9
$SHADEDIF
 70
    70
  9
$TILEMODE
 70
     1
  9
$MAXACTVP
 70
    16
  9
$PINSBASE
 10
0.0
 20
0.0
 30
0.0
  9
$PLIMCHECK
 70
     0
  9
$PEXTMIN
 10
0.0
 20
0.0
 30
0.0
  9
$PEXTMAX
 10
420.0
 20
297.0
 30
0.0
  9
$PLIMMIN
 10
0.0
 20
0.0
  9
$PLIMMAX
 10
420.0
 20
297.0
  9
$UNITMODE
 70
     0
  9
$VISRETAIN
 70
     0
  9
$PLINEGEN
 70
     0
  9
$PSLTSCALE
 70
     1
  9
$TREEDEPTH
 70
  3020
  9
$PICKSTYLE
 70
     1
  9
$CMLSTYLE
  2
STANDARD
  9
$CMLJUST
 70
     0
  9
$CMLSCALE
 40
1.0
  9
$SAVEIMAGES
 70
     1
  0
ENDSEC
  0
SECTION
  2
CLASSES
  0
CLASS
  1
ACDBDICTIONARYWDFLT
  2
AcDbDictionaryWithDefault
  3
AutoCAD 2000
 90
    32768
280
     0
281
     0
  0
CLASS
  1
ACDBPLACEHOLDER
  2
AcDbPlaceHolder
  3
AutoCAD 2000
 90
    32768
280
     0
281
     0
  0
CLASS
  1
LAYOUT
  2
AcDbLayout
  3
AutoCAD 2000
 90
    32768
280
     0
281
     0
  0
CLASS
  1
LONG_TRANSACTION
  2
AcDbLongTransaction
  3
AutoCAD 2000
 90
    32768
280
     0
281
     0
  0
CLASS
  1
LWPOLYLINE
  2
AcDbPolyline
  3
AutoCAD 2000
 90
    32768
280
     0
281
     1
  0
CLASS
  1
HATCH
  2
AcDbHatch
  3
AutoCAD 2000
 90
    32768
280
     0
281
     1
  0
CLASS
  1
XRECORD
  2
AcDbXrecord
  3
AutoCAD 2000
 90
    32768
280
     0
281
     0
  0
CLASS
  1
LONG_TRANSACTION
  2
AcDbLongTransaction
  3
AutoCAD 2000
 90
    32768
280
     0
281
     0
  0
CLASS
  1
LWPOLYLINE
  2
AcDbPolyline
  3
AutoCAD 2000
 90
    32768
280
     0
281
     1
  0
CLASS
  1
HATCH
  2
AcDbHatch
  3
AutoCAD 2000
 90
    32768
280
     0
281
     1
  0
CLASS
  1
XRECORD
  2
AcDbXrecord
  3
AutoCAD 2000
 90
    32768
280
     0
281
     0
  0
ENDSEC
  0
SECTION
  2
TABLES
  0
TABLE
  2
VPORT
  5
8
330
0
100
AcDbSymbolTable
 70
     2
  0
VPORT
  5
3E9
330
8
100
AcDbSymbolTableRecord
100
AcDbViewportTableRecord
  2
*ACTIVE
 70
     0
 10
0.0
 20
0.0
 11
1.0
 21
1.0
 12
401.4383949759702
 22
295.1274971369234
 13
0.0
 23
0.0
 14
5.0
 24
5.0
 15
0.0
 25
0.0
 16
0.0
 26
0.0
 36
1.0
 17
0.0
 27
0.0
 37
0.0
 40
608.1379700907308
 41
1.709909909909909
 42
50.0
 43
0.0
 44
0.0
 50
0.0
 51
0.0
 71
     0
 72
   100
 73
     1
 74
     0
 75
     0
 76
     0
 77
     0
 78
     0
  0
ENDTAB
  0
TABLE
  2
LTYPE
  5
5
330
0
100
AcDbSymbolTable
 70
     3
  0
LTYPE
  5
14
330
5
100
AcDbSymbolTableRecord
100
AcDbLinetypeTableRecord
  2
BYBLOCK
 70
     0
  3

 72
    65
 73
     0
 40
0.0
  0
LTYPE
  5
15
330
5
100
AcDbSymbolTableRecord
100
AcDbLinetypeTableRecord
  2
BYLAYER
 70
     0
  3

 72
    65
 73
     0
 40
0.0
  0
LTYPE
  5
16
330
5
100
AcDbSymbolTableRecord
100
AcDbLinetypeTableRecord
  2
CONTINUOUS
 70
     0
  3
Solid line
 72
    65
 73
     0
 40
0.0
  0
LTYPE
  5
115
330
5
100
AcDbSymbolTableRecord
100
AcDbLinetypeTableRecord
  2
PHANTOM
 70
     0
  3
______  __  __  ______  __  __  ______  __  __ 
 72
    65
 73
     6
 40
2.5
 49
1.25
 74
     0
 49
-0.25
 74
     0
 49
0.25
 74
     0
 49
-0.25
 74
     0
 49
0.25
 74
     0
 49
-0.25
 74
     0
  0
LTYPE
  5
135
330
5
100
AcDbSymbolTableRecord
100
AcDbLinetypeTableRecord
  2
CENTER
 70
     0
  3
____ _ ____ _ ____ _ ____ _ ____ _ ____ _ ____ 
 72
    65
 73
     4
 40
2.0
 49
1.25
 74
     0
 49
-0.25
 74
     0
 49
0.25
 74
     0
 49
-0.25
 74
     0
  0
ENDTAB
  0
TABLE
  2
LAYER
  5
2
330
0
100
AcDbSymbolTable
 70
     8
  0
LAYER
  5
F
330
2
100
AcDbSymbolTableRecord
100
AcDbLayerTableRecord
  2
0
 70
     0
 62
     7
  6
CONTINUOUS
  0
LAYER
  5
62
330
2
100
AcDbSymbolTableRecord
100
AcDbLayerTableRecord
  2
VIEWPORT
 70
     0
 62
     7
  6
CONTINUOUS
  0
LAYER
  5
65
330
2
100
AcDbSymbolTableRecord
100
AcDbLayerTableRecord
  2
ZUWAKU
 70
     0
 62
     7
  6
CONTINUOUS
  0
LAYER
  5
143
330
2
100
AcDbSymbolTableRecord
100
AcDbLayerTableRecord
  2
SEIHIN
 70
     0
 62
     3
  6
CONTINUOUS
  0
LAYER
  5
144
330
2
100
AcDbSymbolTableRecord
100
AcDbLayerTableRecord
  2
SUNPOU
 70
     0
 62
     4
  6
CONTINUOUS
  0
LAYER
  5
145
330
2
100
AcDbSymbolTableRecord
100
AcDbLayerTableRecord
  2
CENTER_L
 70
     0
 62
     1
  6
CENTER
  0
LAYER
  5
146
330
2
100
AcDbSymbolTableRecord
100
AcDbLayerTableRecord
  2
NOKITOI
 70
     0
 62
     8
  6
PHANTOM
  0
LAYER
  5
31F
330
2
100
AcDbSymbolTableRecord
100
AcDbLayerTableRecord
  2
DEFPOINTS
 70
     0
 62
     7
  6
CONTINUOUS
  0
ENDTAB
  0
TABLE
  2
STYLE
  5
3
330
0
100
AcDbSymbolTable
 70
     1
  0
STYLE
  5
10
330
3
100
AcDbSymbolTableRecord
100
AcDbTextStyleTableRecord
  2
STANDARD
 70
     0
 40
0.0
 41
1.0
 50
0.0
 71
     0
 42
5.0
  3
TXT
  4
bigfont.shx
  0
ENDTAB
  0
TABLE
  2
VIEW
  5
6
330
0
100
AcDbSymbolTable
 70
     0
  0
ENDTAB
  0
TABLE
  2
UCS
  5
7
330
0
100
AcDbSymbolTable
 70
     0
  0
ENDTAB
  0
TABLE
  2
APPID
  5
9
330
0
100
AcDbSymbolTable
 70
     1
  0
APPID
  5
11
330
9
100
AcDbSymbolTableRecord
100
AcDbRegAppTableRecord
  2
ACAD
 70
     0
  0
ENDTAB
  0
TABLE
  2
DIMSTYLE
  5
A
330
0
100
AcDbSymbolTable
 70
     1
  0
DIMSTYLE
105
1D
102
{ACAD_REACTORS
330
324
330
331
330
33E
330
34D
102
}
330
A
100
AcDbSymbolTableRecord
100
AcDbDimStyleTableRecord
  2
STANDARD
 70
     0
  3

  4

  5

  6

  7

 40
1.0
 41
0.18
 42
0.0625
 43
0.38
 44
0.18
 45
0.0
 46
0.0
 47
0.0
 48
0.0
140
0.18
141
0.09
142
0.0
143
25.4
144
1.0
145
0.0
146
1.0
147
0.09
 71
     0
 72
     0
 73
     1
 74
     1
 75
     0
 76
     0
 77
     0
 78
     0
170
     0
171
     2
172
     0
173
     0
174
     0
175
     0
176
     0
177
     0
178
     0
270
     2
271
     4
272
     4
273
     2
274
     2
340
10
275
     0
280
     0
281
     0
282
     0
283
     1
284
     0
285
     0
286
     0
287
     3
288
     0
  0
ENDTAB
  0
TABLE
  2
BLOCK_RECORD
  5
1
330
0
100
AcDbSymbolTable
 70
     5
  0
BLOCK_RECORD
  5
1A
102
{ACAD_XDICTIONARY
360
3DB
102
}
330
1
100
AcDbSymbolTableRecord
100
AcDbBlockTableRecord
  2
*MODEL_SPACE
  0
BLOCK_RECORD
  5
17
102
{ACAD_XDICTIONARY
360
3D9
102
}
330
1
100
AcDbSymbolTableRecord
100
AcDbBlockTableRecord
  2
*PAPER_SPACE
  0
BLOCK_RECORD
  5
6D
330
1
100
AcDbSymbolTableRecord
100
AcDbBlockTableRecord
  2
_OPEN
  0
BLOCK_RECORD
  5
317
330
1
100
AcDbSymbolTableRecord
100
AcDbBlockTableRecord
  2
*D1
  0
BLOCK_RECORD
  5
325
330
1
100
AcDbSymbolTableRecord
100
AcDbBlockTableRecord
  2
*D2
  0
BLOCK_RECORD
  5
332
330
1
100
AcDbSymbolTableRecord
100
AcDbBlockTableRecord
  2
*D3
  0
BLOCK_RECORD
  5
33F
330
1
100
AcDbSymbolTableRecord
100
AcDbBlockTableRecord
  2
*D4
  0
ENDTAB
  0
ENDSEC
  0
SECTION
  2
BLOCKS
  0
BLOCK
  5
1B
330
1A
100
AcDbEntity
  8
0
100
AcDbBlockBegin
  2
*MODEL_SPACE
 70
     0
 10
0.0
 20
0.0
 30
0.0
  3
*MODEL_SPACE
  1

  0
ENDBLK
  5
1C
330
1A
100
AcDbEntity
  8
0
100
AcDbBlockEnd
  0
BLOCK
  5
18
330
17
100
AcDbEntity
 67
     1
  8
0
100
AcDbBlockBegin
  2
*PAPER_SPACE
 70
     0
 10
0.0
 20
0.0
 30
0.0
  3
*PAPER_SPACE
  1

  0
ENDBLK
  5
19
330
17
100
AcDbEntity
 67
     1
  8
0
100
AcDbBlockEnd
  0
BLOCK
  5
6E
330
6D
100
AcDbEntity
  8
0
100
AcDbBlockBegin
  2
_OPEN
 70
     0
 10
0.0
 20
0.0
 30
0.0
  3
_OPEN
  1

  0
LINE
  5
6F
330
6D
100
AcDbEntity
  8
0
  6
BYBLOCK
 62
     0
100
AcDbLine
 10
-1.0
 20
0.1666666666666666
 30
0.0
 11
0.0
 21
0.0
 31
0.0
  0
LINE
  5
70
330
6D
100
AcDbEntity
  8
0
  6
BYBLOCK
 62
     0
100
AcDbLine
 10
0.0
 20
0.0
 30
0.0
 11
-1.0
 21
-0.1666666666666666
 31
0.0
  0
LINE
  5
71
330
6D
100
AcDbEntity
  8
0
  6
BYBLOCK
 62
     0
100
AcDbLine
 10
0.0
 20
0.0
 30
0.0
 11
-1.0
 21
0.0
 31
0.0
  0
ENDBLK
  5
72
330
6D
100
AcDbEntity
  8
0
100
AcDbBlockEnd
  0
BLOCK
  5
318
330
317
100
AcDbEntity
  8
0
100
AcDbBlockBegin
  2
*D1
 70
     1
 10
0.0
 20
0.0
 30
0.0
  3
*D1
  1

  0
LINE
  5
319
330
317
100
AcDbEntity
  8
0
  6
BYBLOCK
 62
     4
100
AcDbLine
 10
465.1419902894599
 20
208.152014056804
 30
0.0
 11
465.1419902894599
 21
234.5318809663492
 31
0.0
  0
LINE
  5
31A
330
317
100
AcDbEntity
  8
0
  6
BYBLOCK
 62
     4
100
AcDbLine
 10
596.14189028946
 20
208.152014056804
 30
0.0
 11
596.14189028946
 21
234.5318809663492
 31
0.0
  0
LINE
  5
31B
330
317
100
AcDbEntity
  8
0
  6
BYBLOCK
 62
     4
100
AcDbLine
 10
472.14199028946
 20
231.5318809663492
 30
0.0
 11
589.1418902894599
 21
231.5318809663492
 31
0.0
  0
INSERT
  5
31C
330
317
100
AcDbEntity
  8
0
  6
BYBLOCK
 62
     4
100
AcDbBlockReference
  2
_OPEN
 10
465.1419902894599
 20
231.5318809663492
 30
0.0
 41
7.0
 42
7.0
 43
7.0
 50
180.0
  0
INSERT
  5
31D
330
317
100
AcDbEntity
  8
0
  6
BYBLOCK
 62
     4
100
AcDbBlockReference
  2
_OPEN
 10
596.14189028946
 20
231.5318809663492
 30
0.0
 41
7.0
 42
7.0
 43
7.0
  0
MTEXT
  5
31E
330
317
100
AcDbEntity
  8
0
  6
BYBLOCK
 62
     4
100
AcDbMText
 10
530.6419402894599
 20
236.5318809663492
 30
0.0
 40
6.0
 41
0.0
 71
     5
 72
     1
  1
\A1;131
1001
ACAD
1000
MTEXTBEGIN
1070
    73
1070
     1
1070
    44
1040
1.0
1070
    74
1070
     0
1000
MTEXTEND
1000
MTEXTBEGIN
1070
    73
1070
     1
1070
    44
1040
1.0
1070
    74
1070
     0
1000
MTEXTEND
  0
POINT
  5
320
330
317
100
AcDbEntity
  8
DEFPOINTS
  6
BYBLOCK
 62
     0
100
AcDbPoint
 10
465.1419902894599
 20
202.152014056804
 30
0.0
  0
POINT
  5
321
330
317
100
AcDbEntity
  8
DEFPOINTS
  6
BYBLOCK
 62
     0
100
AcDbPoint
 10
596.14189028946
 20
202.152014056804
 30
0.0
  0
POINT
  5
322
330
317
100
AcDbEntity
  8
DEFPOINTS
  6
BYBLOCK
 62
     0
100
AcDbPoint
 10
596.14189028946
 20
231.5318809663492
 30
0.0
  0
ENDBLK
  5
323
330
317
100
AcDbEntity
  8
0
100
AcDbBlockEnd
  0
BLOCK
  5
359
330
325
100
AcDbEntity
  8
0
100
AcDbBlockBegin
  2
*D2
 70
     1
 10
0.0
 20
0.0
 30
0.0
  3
*D2
  1

  0
LINE
  5
35A
330
325
100
AcDbEntity
  8
0
  6
BYBLOCK
 62
     4
100
AcDbLine
 10
459.1419902894599
 20
202.152114056804
 30
0.0
 11
405.915193830463
 21
202.152114056804
 31
0.0
  0
LINE
  5
35B
330
325
100
AcDbEntity
  8
0
  6
BYBLOCK
 62
     4
100
AcDbLine
 10
524.64189028946
 20
142.3521140568041
 30
0.0
 11
405.915193830463
 21
142.3521140568041
 31
0.0
  0
LINE
  5
35C
330
325
100
AcDbEntity
  8
0
  6
BYBLOCK
 62
     4
100
AcDbLine
 10
408.915193830463
 20
195.152114056804
 30
0.0
 11
408.915193830463
 21
149.3521140568041
 31
0.0
  0
INSERT
  5
35D
330
325
100
AcDbEntity
  8
0
  6
BYBLOCK
 62
     4
100
AcDbBlockReference
  2
_OPEN
 10
408.915193830463
 20
202.152114056804
 30
0.0
 41
7.0
 42
7.0
 43
7.0
 50
90.0
  0
INSERT
  5
35E
330
325
100
AcDbEntity
  8
0
  6
BYBLOCK
 62
     4
100
AcDbBlockReference
  2
_OPEN
 10
408.915193830463
 20
142.3521140568041
 30
0.0
 41
7.0
 42
7.0
 43
7.0
 50
270.0
  0
MTEXT
  5
35F
330
325
100
AcDbEntity
  8
0
  6
BYBLOCK
 62
     4
100
AcDbMText
 10
403.915193830463
 20
172.252114056804
 30
0.0
 40
6.0
 41
0.0
 71
     5
 72
     1
  1
\A1;60
 11
0.0
 21
1.0
 31
0.0
1001
ACAD
1000
MTEXTBEGIN
1070
    73
1070
     1
1070
    44
1040
1.0
1070
    74
1070
     0
1000
MTEXTEND
1000
MTEXTBEGIN
1070
    73
1070
     1
1070
    44
1040
1.0
1070
    74
1070
     0
1000
MTEXTEND
  0
POINT
  5
360
330
325
100
AcDbEntity
  8
DEFPOINTS
  6
BYBLOCK
 62
     0
100
AcDbPoint
 10
465.1419902894599
 20
202.152114056804
 30
0.0
  0
POINT
  5
361
330
325
100
AcDbEntity
  8
DEFPOINTS
  6
BYBLOCK
 62
     0
100
AcDbPoint
 10
530.6418902894599
 20
142.3521140568041
 30
0.0
  0
POINT
  5
362
330
325
100
AcDbEntity
  8
DEFPOINTS
  6
BYBLOCK
 62
     0
100
AcDbPoint
 10
408.915193830463
 20
142.3521140568041
 30
0.0
  0
ENDBLK
  5
363
330
325
100
AcDbEntity
  8
0
100
AcDbBlockEnd
  0
BLOCK
  5
34E
330
332
100
AcDbEntity
  8
0
100
AcDbBlockBegin
  2
*D3
 70
     1
 10
0.0
 20
0.0
 30
0.0
  3
*D3
  1

  0
LINE
  5
34F
330
332
100
AcDbEntity
  8
0
  6
BYBLOCK
 62
     4
100
AcDbLine
 10
463.3420112601466
 20
442.8031437135567
 30
0.0
 11
405.915193830463
 21
442.8031437135567
 31
0.0
  0
LINE
  5
350
330
332
100
AcDbEntity
  8
0
  6
BYBLOCK
 62
     4
100
AcDbLine
 10
459.1420902894598
 20
292.824214056804
 30
0.0
 11
405.915193830463
 21
292.824214056804
 31
0.0
  0
LINE
  5
351
330
332
100
AcDbEntity
  8
0
  6
BYBLOCK
 62
     4
100
AcDbLine
 10
408.915193830463
 20
435.8031437135567
 30
0.0
 11
408.915193830463
 21
299.824214056804
 31
0.0
  0
INSERT
  5
352
330
332
100
AcDbEntity
  8
0
  6
BYBLOCK
 62
     4
100
AcDbBlockReference
  2
_OPEN
 10
408.915193830463
 20
442.8031437135567
 30
0.0
 41
7.0
 42
7.0
 43
7.0
 50
90.0
  0
INSERT
  5
353
330
332
100
AcDbEntity
  8
0
  6
BYBLOCK
 62
     4
100
AcDbBlockReference
  2
_OPEN
 10
408.915193830463
 20
292.824214056804
 30
0.0
 41
7.0
 42
7.0
 43
7.0
 50
270.0
  0
MTEXT
  5
354
330
332
100
AcDbEntity
  8
0
  6
BYBLOCK
 62
     4
100
AcDbMText
 10
403.915193830463
 20
367.8136788851803
 30
0.0
 40
6.0
 41
0.0
 71
     5
 72
     1
  1
\A1;150
 11
0.0
 21
1.0
 31
0.0
1001
ACAD
1000
MTEXTBEGIN
1070
    73
1070
     1
1070
    44
1040
1.0
1070
    74
1070
     0
1000
MTEXTEND
1000
MTEXTBEGIN
1070
    73
1070
     1
1070
    44
1040
1.0
1070
    74
1070
     0
1000
MTEXTEND
  0
POINT
  5
355
330
332
100
AcDbEntity
  8
DEFPOINTS
  6
BYBLOCK
 62
     0
100
AcDbPoint
 10
469.3420112601467
 20
442.8031437135567
 30
0.0
  0
POINT
  5
356
330
332
100
AcDbEntity
  8
DEFPOINTS
  6
BYBLOCK
 62
     0
100
AcDbPoint
 10
465.1420902894598
 20
292.824214056804
 30
0.0
  0
POINT
  5
357
330
332
100
AcDbEntity
  8
DEFPOINTS
  6
BYBLOCK
 62
     0
100
AcDbPoint
 10
408.915193830463
 20
292.824214056804
 30
0.0
  0
ENDBLK
  5
358
330
332
100
AcDbEntity
  8
0
100
AcDbBlockEnd
  0
BLOCK
  5
38B
330
33F
100
AcDbEntity
  8
0
100
AcDbBlockBegin
  2
*D4
 70
     1
 10
0.0
 20
0.0
 30
0.0
  3
*D4
  1

  0
LINE
  5
38C
330
33F
100
AcDbEntity
  8
0
  6
BYBLOCK
 62
     4
100
AcDbLine
 10
468.4117902894599
 20
312.824214056804
 30
0.0
 11
422.8950088174679
 21
312.824214056804
 31
0.0
  0
LINE
  5
38D
330
33F
100
AcDbEntity
  8
0
  6
BYBLOCK
 62
     4
100
AcDbLine
 10
459.1420902894598
 20
292.824214056804
 30
0.0
 11
422.8950088174679
 21
292.824214056804
 31
0.0
  0
LINE
  5
38E
330
33F
100
AcDbEntity
  8
0
  6
BYBLOCK
 62
     4
100
AcDbLine
 10
425.8950088174678
 20
305.824214056804
 30
0.0
 11
425.8950088174678
 21
299.824214056804
 31
0.0
  0
LINE
  5
38F
330
33F
100
AcDbEntity
  8
0
  6
BYBLOCK
 62
     4
100
AcDbLine
 10
425.8950088174678
 20
292.824214056804
 30
0.0
 11
425.8950088174678
 21
265.624214056804
 31
0.0
  0
INSERT
  5
390
330
33F
100
AcDbEntity
  8
0
  6
BYBLOCK
 62
     4
100
AcDbBlockReference
  2
_OPEN
 10
425.8950088174678
 20
312.824214056804
 30
0.0
 41
7.0
 42
7.0
 43
7.0
 50
90.0
  0
INSERT
  5
391
330
33F
100
AcDbEntity
  8
0
  6
BYBLOCK
 62
     4
100
AcDbBlockReference
  2
_OPEN
 10
425.8950088174678
 20
292.824214056804
 30
0.0
 41
7.0
 42
7.0
 43
7.0
 50
270.0
  0
MTEXT
  5
392
330
33F
100
AcDbEntity
  8
0
  6
BYBLOCK
 62
     4
100
AcDbMText
 10
420.8950088174678
 20
275.724214056804
 30
0.0
 40
6.0
 41
0.0
 71
     5
 72
     1
  1
\A1;※20
 11
0.0
 21
1.0
 31
0.0
1001
ACAD
1000
MTEXTBEGIN
1070
    73
1070
     1
1070
    44
1040
1.0
1070
    74
1070
     0
1000
MTEXTEND
1000
MTEXTBEGIN
1070
    73
1070
     1
1070
    44
1040
1.0
1070
    74
1070
     0
1000
MTEXTEND
  0
POINT
  5
393
330
33F
100
AcDbEntity
  8
DEFPOINTS
  6
BYBLOCK
 62
     0
100
AcDbPoint
 10
474.41179028946
 20
312.824214056804
 30
0.0
  0
POINT
  5
394
330
33F
100
AcDbEntity
  8
DEFPOINTS
  6
BYBLOCK
 62
     0
100
AcDbPoint
 10
465.1420902894598
 20
292.824214056804
 30
0.0
  0
POINT
  5
395
330
33F
100
AcDbEntity
  8
DEFPOINTS
  6
BYBLOCK
 62
     0
100
AcDbPoint
 10
425.8950088174678
 20
292.824214056804
 30
0.0
  0
ENDBLK
  5
396
330
33F
100
AcDbEntity
  8
0
100
AcDbBlockEnd
  0
ENDSEC
  0
SECTION
  2
ENTITIES
  0
TEXT
  5
11A
330
1A
100
AcDbEntity
  8
ZUWAKU
 62
     7
 48
10.0
100
AcDbText
 10
795.5579444309237
 20
4.974918402528146
 30
0.0
 40
8.0
  1
A1
100
AcDbText
  0
LINE
  5
11B
330
1A
100
AcDbEntity
  8
ZUWAKU
 62
     7
 48
10.0
100
AcDbLine
 10
10.05047808566086
 20
25.78258628282265
 30
0.0
 11
806.0504780856609
 21
25.78258628282253
 31
0.0
  0
LINE
  5
11C
330
1A
100
AcDbEntity
  8
ZUWAKU
  6
CONTINUOUS
 62
     7
100
AcDbLine
 10
806.0504780856609
 20
563.7825862828226
 30
0.0
 11
10.05047808566086
 21
563.7825862828226
 31
0.0
  0
LINE
  5
11D
330
1A
100
AcDbEntity
  8
ZUWAKU
  6
CONTINUOUS
 62
     7
100
AcDbLine
 10
806.0504780856609
 20
13.78258628282265
 30
0.0
 11
10.05047808566086
 21
13.78258628282265
 31
0.0
  0
LINE
  5
11E
330
1A
100
AcDbEntity
  8
ZUWAKU
  6
CONTINUOUS
 62
     7
100
AcDbLine
 10
10.05047808566086
 20
563.7825862828226
 30
0.0
 11
10.05047808566086
 21
13.78258628282265
 31
0.0
  0
LINE
  5
11F
330
1A
100
AcDbEntity
  8
ZUWAKU
 62
     7
 48
10.0
100
AcDbLine
 10
44.55797523147839
 20
13.78258628282265
 30
0.0
 11
44.5579752314784
 21
25.78258628282265
 31
0.0
  0
TEXT
  5
120
330
1A
100
AcDbEntity
  8
ZUWAKU
 62
     7
100
AcDbText
 10
16.05676551180931
 20
15.52294263804401
 30
0.0
 40
8.0
  1
品 種
100
AcDbText
  0
LINE
  5
121
330
1A
100
AcDbEntity
  8
ZUWAKU
 62
     7
 48
10.0
100
AcDbLine
 10
276.1028387068254
 20
13.78258628282265
 30
0.0
 11
276.1028387068254
 21
25.78258628282261
 31
0.0
  0
LINE
  5
122
330
1A
100
AcDbEntity
  8
ZUWAKU
 62
     7
 48
10.0
100
AcDbLine
 10
209.5138526425484
 20
13.78258628282265
 30
0.0
 11
209.5138526425485
 21
25.78258628282263
 31
0.0
  0
TEXT
  5
124
330
1A
100
AcDbEntity
  8
ZUWAKU
 62
     7
100
AcDbText
 10
215.4560837190756
 20
16.18358115302453
 30
0.0
 40
8.0
  1
品名・ｻ ｲ ｽﾞ
100
AcDbText
  0
LINE
  5
126
330
1A
100
AcDbEntity
  8
ZUWAKU
 62
     7
 48
10.0
100
AcDbLine
 10
768.7231079932794
 20
13.78258628282237
 30
0.0
 11
768.7231079932794
 21
25.78258628282254
 31
0.0
  0
LINE
  5
127
330
1A
100
AcDbEntity
  8
ZUWAKU
 62
     7
 48
10.0
100
AcDbLine
 10
733.8119002376948
 20
13.78258628282242
 30
0.0
 11
733.8119002376946
 21
25.78258628282254
 31
0.0
  0
TEXT
  5
128
330
1A
100
AcDbEntity
  8
ZUWAKU
 62
     7
100
AcDbText
 10
739.6955629973526
 20
15.24227755810852
 30
0.0
 40
8.0
  1
尺 度
100
AcDbText
  0
TEXT
  5
129
330
1A
100
AcDbEntity
  8
ZUWAKU
 62
     7
100
AcDbText
 10
779.7374630323229
 20
15.55488920081529
 30
0.0
 40
8.0
  1
1/2
100
AcDbText
  0
TEXT
  5
12B
330
1A
100
AcDbEntity
  8
ZUWAKU
 62
     7
100
AcDbText
 10
620.3363288383084
 20
15.6519090944263
 30
0.0
 40
8.0
  1
品 番
100
AcDbText
  0
LINE
  5
12C
330
1A
100
AcDbEntity
  8
ZUWAKU
 62
     7
 48
10.0
100
AcDbLine
 10
614.3351028194128
 20
13.78258628282232
 30
0.0
 11
614.3351028194128
 21
25.78258628282256
 31
0.0
  0
LINE
  5
12D
330
1A
100
AcDbEntity
  8
ZUWAKU
 62
     7
 48
10.0
100
AcDbLine
 10
648.7607587371021
 20
13.78258628282232
 30
0.0
 11
648.7607587371021
 21
25.78258628282255
 31
0.0
  0
TEXT
  5
12E
330
1A
100
AcDbEntity
  8
ZUWAKU
 62
     7
 48
10.0
100
AcDbText
 10
646.2758615931216
 20
4.949376903717848
 30
0.0
 40
8.0
  1
積水化学工業株式会社  建材
100
AcDbText
  0
LINE
  5
12F
330
1A
100
AcDbEntity
  8
ZUWAKU
  6
CONTINUOUS
 62
     7
100
AcDbLine
 10
806.0504780856609
 20
563.7825862828226
 30
0.0
 11
806.0504780856609
 21
13.78258628282265
 31
0.0
  0
TEXT
  5
233
330
1A
100
AcDbEntity
  8
ZUWAKU
 62
     7
100
AcDbText
 10
50.3519382305086
 20
16.10306189639755
 30
0.0
 40
8.0
  1
丸トップ　のきとい
100
AcDbText
  0
TEXT
  5
235
330
1A
100
AcDbEntity
  8
ZUWAKU
 62
     7
100
AcDbText
 10
282.3131429914078
 20
15.64241700452384
 30
0.0
 40
8.0
  1
４５°止り　１２０
100
AcDbText
  0
ELLIPSE
  5
23F
330
1A
100
AcDbEntity
  8
SEIHIN
100
AcDbEllipse
 10
243.2015009902987
 20
190.8521140568041
 30
0.0
 11
-50.77136910686476
 21
0.0
 31
0.0
210
0.0
220
0.0
230
1.0
 40
0.9316284746168042
 41
0.0206739878477884
 42
1.570796326794896
  0
LINE
  5
240
330
1A
100
AcDbEntity
  8
SEIHIN
100
AcDbLine
 10
312.9453217130343
 20
202.152114056804
 30
0.0
 11
312.9453217130343
 21
191.852114056804
 31
0.0
  0
LINE
  5
241
330
1A
100
AcDbEntity
  8
SEIHIN
100
AcDbLine
 10
307.9453217130343
 20
202.152114056804
 30
0.0
 11
307.9453217130343
 21
191.852114056804
 31
0.0
  0
LINE
  5
242
330
1A
100
AcDbEntity
  8
SEIHIN
100
AcDbLine
 10
328.1228217130341
 20
190.8521140568041
 30
0.0
 11
328.1228217130342
 21
142.3521140568041
 31
0.0
  0
LINE
  5
243
330
1A
100
AcDbEntity
  8
SEIHIN
100
AcDbLine
 10
333.1228217130342
 20
202.152114056804
 30
0.0
 11
333.1228217130342
 21
143.0521140568028
 31
0.0
  0
LINE
  5
244
330
1A
100
AcDbEntity
  8
SEIHIN
  6
CONTINUOUS
 62
     3
 48
16.0
100
AcDbLine
 10
307.9453217130343
 20
143.5521140568042
 30
0.0
 11
243.2015010120459
 21
143.5520609015689
 31
0.0
  0
LINE
  5
245
330
1A
100
AcDbEntity
  8
SEIHIN
100
AcDbLine
 10
328.1228217130344
 20
142.3521140568041
 30
0.0
 11
312.9453217130342
 21
142.3521140568041
 31
0.0
  0
LINE
  5
246
330
1A
100
AcDbEntity
  8
SEIHIN
100
AcDbLine
 10
328.1228217130342
 20
142.3521140568041
 30
0.0
 11
333.1228217130342
 21
143.0521140568029
 31
0.0
  0
LINE
  5
247
330
1A
100
AcDbEntity
  8
SEIHIN
100
AcDbLine
 10
307.9453217130343
 20
143.5521140568042
 30
0.0
 11
312.9453217130343
 21
142.3521140568041
 31
0.0
  0
LINE
  5
248
330
1A
100
AcDbEntity
  8
SEIHIN
100
AcDbLine
 10
333.1228217130342
 20
202.152114056804
 30
0.0
 11
183.1438920562816
 21
202.152114056804
 31
0.0
  0
LINE
  5
249
330
1A
100
AcDbEntity
  8
SEIHIN
100
AcDbLine
 10
333.1228217130342
 20
190.852114056804
 30
0.0
 11
184.1438920562815
 21
190.8521140568041
 31
0.0
  0
LINE
  5
24E
330
1A
100
AcDbEntity
  8
SEIHIN
100
AcDbLine
 10
183.1438920562816
 20
202.152114056804
 30
0.0
 11
183.1438920562815
 21
191.8521140568041
 31
0.0
  0
ARC
  5
24F
330
1A
100
AcDbEntity
  8
SEIHIN
100
AcDbCircle
 10
191.4412278929196
 20
189.852114056804
 30
0.0
 40
1.0
100
AcDbArc
 50
1.271436635204086
 51
89.99999999999024
  0
ARC
  5
250
330
1A
100
AcDbEntity
  8
SEIHIN
100
AcDbCircle
 10
184.1438920562815
 20
191.8521140568041
 30
0.0
 40
1.0
100
AcDbArc
 50
180.0
 51
270.0
  0
TEXT
  5
253
330
1A
100
AcDbEntity
  8
ZUWAKU
 62
     7
100
AcDbText
 10
654.2531733678779
 20
15.90287984531518
 30
0.0
 40
8.0
  1
ＧＤ４３
100
AcDbText
  0
ARC
  5
257
330
1A
100
AcDbEntity
  8
NOKITOI
  6
PHANTOM
 62
     8
 48
5.0
100
AcDbCircle
 10
530.641940649281
 20
200.8521146849644
 30
0.0
 40
55.69997777445496
100
AcDbArc
 50
183.4893828011791
 51
356.5101019184219
  0
ARC
  5
258
330
1A
100
AcDbEntity
  8
NOKITOI
  6
PHANTOM
 62
     8
 48
5.0
100
AcDbCircle
 10
530.6419902894599
 20
200.8521128722157
 30
0.0
 40
56.99999881544602
100
AcDbArc
 50
186.7561500022947
 51
353.2434543568847
  0
ARC
  5
259
330
1A
100
AcDbEntity
  8
SEIHIN
  6
CONTINUOUS
 62
     3
 48
16.0
100
AcDbCircle
 10
530.6419149417963
 20
200.8521345039341
 30
0.0
 40
57.80002044726288
100
AcDbArc
 50
269.9998779136703
 51
349.3460265581836
  0
ARC
  5
25A
330
1A
100
AcDbEntity
  8
SEIHIN
  6
CONTINUOUS
 62
     3
 48
16.0
100
AcDbCircle
 10
530.6419073610104
 20
200.8521284761244
 30
0.0
 40
55.80001441944323
100
AcDbArc
 50
269.9998797902507
 51
350.3716564135476
  0
ARC
  5
25B
330
1A
100
AcDbEntity
  8
SEIHIN
  6
CONTINUOUS
 62
     3
 48
16.0
100
AcDbCircle
 10
530.6419000673274
 20
200.8521223450313
 30
0.0
 40
57.00000828833299
100
AcDbArc
 50
269.9998896524986
 51
350.5727674955575
  0
ARC
  5
25C
330
1A
100
AcDbEntity
  8
SEIHIN
  6
CONTINUOUS
 62
     3
 48
16.0
100
AcDbCircle
 10
530.6419149417963
 20
200.8521345039341
 30
0.0
 40
58.50002044726288
100
AcDbArc
 50
269.9998779136703
 51
349.3460265581836
  0
LINE
  5
25D
330
1A
100
AcDbEntity
  8
SEIHIN
  6
CONTINUOUS
 62
     3
 48
16.0
100
AcDbLine
 10
530.6418902894598
 20
192.352114056804
 30
0.0
 11
590.6418902894599
 21
192.352014056804
 31
0.0
  0
LINE
  5
25E
330
1A
100
AcDbEntity
  8
SEIHIN
  6
CONTINUOUS
 62
     3
 48
16.0
100
AcDbLine
 10
530.6418902894598
 20
202.152114056804
 30
0.0
 11
596.14189028946
 21
202.152014056804
 31
0.0
  0
ARC
  5
260
330
1A
100
AcDbEntity
  8
SEIHIN
  6
CONTINUOUS
 62
     3
 48
16.0
100
AcDbCircle
 10
530.6419990714178
 20
200.8521067728137
 30
0.0
 40
57.79999271611076
100
AcDbArc
 50
190.7821177314517
 51
269.9998934573017
  0
LINE
  5
261
330
1A
100
AcDbEntity
  8
CENTER_L
  6
CENTER
 62
     1
 48
5.0
100
AcDbLine
 10
530.6419902894599
 20
136.546114056804
 30
0.0
 11
530.6419902894599
 21
210.772314056804
 31
0.0
  0
LINE
  5
262
330
1A
100
AcDbEntity
  8
SEIHIN
  6
CONTINUOUS
 62
     3
 48
16.0
100
AcDbLine
 10
477.1051902894599
 20
185.121714056804
 30
0.0
 11
479.86879028946
 21
186.182514056804
 31
0.0
  0
LINE
  5
263
330
1A
100
AcDbEntity
  8
SEIHIN
  6
CONTINUOUS
 62
     3
 48
16.0
100
AcDbLine
 10
478.9453902894599
 20
185.144414056804
 30
0.0
 11
479.86879028946
 21
186.182514056804
 31
0.0
  0
ARC
  5
264
330
1A
100
AcDbEntity
  8
SEIHIN
  6
CONTINUOUS
 62
     3
 48
16.0
100
AcDbCircle
 10
530.642215548981
 20
200.8514430696608
 30
0.0
 40
52.84998698925296
100
AcDbArc
 50
196.1146166227053
 51
200.9990565355405
  0
ARC
  5
265
330
1A
100
AcDbEntity
  8
SEIHIN
  6
CONTINUOUS
 62
     3
 48
16.0
100
AcDbCircle
 10
530.6419930197125
 20
200.8521117507057
 30
0.0
 40
55.79999769399628
100
AcDbArc
 50
189.6281207854606
 51
269.9998945159471
  0
ARC
  5
266
330
1A
100
AcDbEntity
  8
SEIHIN
  6
CONTINUOUS
 62
     3
 48
16.0
100
AcDbCircle
 10
530.6419990714178
 20
200.8521067728137
 30
0.0
 40
58.49999271611077
100
AcDbArc
 50
190.6536519362464
 51
269.9998934573017
  0
ARC
  5
267
330
1A
100
AcDbEntity
  8
SEIHIN
  6
CONTINUOUS
 62
     3
 48
16.0
100
AcDbCircle
 10
530.6419998346682
 20
200.8521059657334
 30
0.0
 40
56.99999190903464
100
AcDbArc
 50
189.4270147583445
 51
269.9998898863332
  0
LINE
  5
268
330
1A
100
AcDbEntity
  8
SEIHIN
  6
CONTINUOUS
 62
     3
 48
16.0
100
AcDbLine
 10
483.0940902894599
 20
177.780214056804
 30
0.0
 11
483.0940902894599
 21
171.648814056804
 31
0.0
  0
ARC
  5
269
330
1A
100
AcDbEntity
  8
SEIHIN
  6
CONTINUOUS
 62
     3
 48
16.0
100
AcDbCircle
 10
478.7528949581998
 20
184.68301179492
 30
0.0
 40
0.5000186646498339
100
AcDbArc
 50
17.30111309230874
 51
111.001718996918
  0
ARC
  5
26A
330
1A
100
AcDbEntity
  8
SEIHIN
  6
CONTINUOUS
 62
     3
 48
16.0
100
AcDbCircle
 10
478.2851898404707
 20
184.503413129301
 30
0.0
 40
0.5000155847572266
100
AcDbArc
 50
111.0012263235713
 51
197.3368491735068
  0
LINE
  5
26B
330
1A
100
AcDbEntity
  8
SEIHIN
  6
CONTINUOUS
 62
     3
 48
16.0
100
AcDbLine
 10
478.1059902894599
 20
184.9702140568041
 30
0.0
 11
478.5736902894599
 21
185.149814056804
 31
0.0
  0
LINE
  5
26C
330
1A
100
AcDbEntity
  8
SEIHIN
  6
CONTINUOUS
 62
     3
 48
16.0
100
AcDbLine
 10
477.85379028946
 20
184.756214056804
 30
0.0
 11
477.1051902894599
 21
185.121714056804
 31
0.0
  0
LINE
  5
26D
330
1A
100
AcDbEntity
  8
SEIHIN
  6
CONTINUOUS
 62
     3
 48
16.0
100
AcDbLine
 10
480.64179028946
 20
177.492814056804
 30
0.0
 11
480.33019028946
 21
176.720314056804
 31
0.0
  0
ARC
  5
26E
330
1A
100
AcDbEntity
  8
SEIHIN
  6
CONTINUOUS
 62
     3
 48
16.0
100
AcDbCircle
 10
530.6416792915752
 20
200.8530619097895
 30
0.0
 40
52.85006648965619
100
AcDbArc
 50
201.0009033287634
 51
205.8853512275701
  0
LINE
  5
26F
330
1A
100
AcDbEntity
  8
SEIHIN
  6
CONTINUOUS
 62
     3
 48
16.0
100
AcDbLine
 10
481.71289028946
 20
177.9348140568039
 30
0.0
 11
483.0936902894598
 21
177.781214056804
 31
0.0
  0
ARC
  5
270
330
1A
100
AcDbEntity
  8
SEIHIN
  6
CONTINUOUS
 62
     3
 48
16.0
100
AcDbCircle
 10
530.6419083229743
 20
200.8523961028425
 30
0.0
 40
55.34993030410245
100
AcDbArc
 50
200.9988258009651
 51
204.6574718493076
  0
ARC
  5
271
330
1A
100
AcDbEntity
  8
SEIHIN
  6
CONTINUOUS
 62
     3
 48
16.0
100
AcDbCircle
 10
480.7933048804353
 20
177.9693081111883
 30
0.0
 40
0.5000040999990164
100
AcDbArc
 50
204.6569722231272
 51
290.9999956970789
  0
ARC
  5
272
330
1A
100
AcDbEntity
  8
SEIHIN
  6
CONTINUOUS
 62
     3
 48
16.0
100
AcDbCircle
 10
530.6419047054292
 20
200.8524051140822
 30
0.0
 40
53.84997887690501
100
AcDbArc
 50
200.9987287355237
 51
204.6911675394459
  0
ARC
  5
273
330
1A
100
AcDbEntity
  8
SEIHIN
  6
CONTINUOUS
 62
     3
 48
16.0
100
AcDbCircle
 10
481.2610920683506
 20
178.1489184239581
 30
0.0
 40
0.4999824896920195
100
AcDbArc
 50
290.9902444504925
 51
24.68352935973409
  0
LINE
  5
274
330
1A
100
AcDbEntity
  8
SEIHIN
  6
CONTINUOUS
 62
     3
 48
16.0
100
AcDbLine
 10
480.97249028946
 20
177.502514056804
 30
0.0
 11
481.4401902894598
 21
177.682114056804
 31
0.0
  0
ARC
  5
275
330
1A
100
AcDbEntity
  8
SEIHIN
  6
CONTINUOUS
 62
     3
 48
16.0
100
AcDbCircle
 10
530.6422413411519
 20
200.8513919367241
 30
0.0
 40
55.34993794791848
100
AcDbArc
 50
197.3403336096861
 51
200.9990399031358
  0
ARC
  5
276
330
1A
100
AcDbEntity
  8
SEIHIN
  6
CONTINUOUS
 62
     3
 48
16.0
100
AcDbCircle
 10
530.6426826005847
 20
200.8501208200074
 30
0.0
 40
53.84997896669142
100
AcDbArc
 50
197.3052110796385
 51
200.9976069260769
  0
ARC
  5
277
330
1A
100
AcDbEntity
  8
SEIHIN
  6
CONTINUOUS
 62
     3
 48
16.0
100
AcDbCircle
 10
530.6416544187008
 20
200.85231540644
 30
0.0
 40
55.35000474493747
100
AcDbArc
 50
244.9989248325655
 51
248.6575442619512
  0
ARC
  5
278
330
1A
100
AcDbEntity
  8
SEIHIN
  6
CONTINUOUS
 62
     3
 48
16.0
100
AcDbCircle
 10
530.6418726820197
 20
200.8522044513015
 30
0.0
 40
52.85002468311212
100
AcDbArc
 50
245.0000037942923
 51
249.8843462184066
  0
ARC
  5
279
330
1A
100
AcDbEntity
  8
SEIHIN
  6
CONTINUOUS
 62
     3
 48
16.0
100
AcDbCircle
 10
530.6422604227162
 20
200.8520564044407
 30
0.0
 40
53.85000298349159
100
AcDbArc
 50
244.9981504047462
 51
248.690532211839
  0
ARC
  5
27A
330
1A
100
AcDbEntity
  8
SEIHIN
  6
CONTINUOUS
 62
     3
 48
16.0
100
AcDbCircle
 10
530.6423686999266
 20
200.8519175519187
 30
0.0
 40
52.84997429323756
100
AcDbArc
 50
240.1148630274152
 51
244.9993849846044
  0
ARC
  5
27B
330
1A
100
AcDbEntity
  8
SEIHIN
  6
CONTINUOUS
 62
     3
 48
16.0
100
AcDbCircle
 10
530.6415096608787
 20
200.8523571509362
 30
0.0
 40
55.34996966597647
100
AcDbArc
 50
241.3416938620349
 51
245.0003296245764
  0
ARC
  5
27C
330
1A
100
AcDbEntity
  8
SEIHIN
  6
CONTINUOUS
 62
     3
 48
16.0
100
AcDbCircle
 10
530.6414310385503
 20
200.852397122749
 30
0.0
 40
53.8499978832597
100
AcDbArc
 50
241.3081190655882
 51
245.0005303462302
  0
ARC
  5
27D
330
1A
100
AcDbEntity
  8
SEIHIN
  6
CONTINUOUS
 62
     3
 48
16.0
100
AcDbCircle
 10
504.3363729222781
 20
152.7217669704092
 30
0.0
 40
0.4999998301981784
100
AcDbArc
 50
155.0078354462526
 51
241.3429766873312
  0
ARC
  5
27E
330
1A
100
AcDbEntity
  8
SEIHIN
  6
CONTINUOUS
 62
     3
 48
16.0
100
AcDbCircle
 10
504.5480460236113
 20
153.1757995389259
 30
0.0
 40
0.5000039448447154
100
AcDbArc
 50
61.30906307762042
 51
154.999529673892
  0
LINE
  5
27F
330
1A
100
AcDbEntity
  8
SEIHIN
  6
CONTINUOUS
 62
     3
 48
16.0
100
AcDbLine
 10
503.0580902894599
 20
152.346814056804
 30
0.0
 11
504.30919028946
 21
155.0296140568039
 31
0.0
  0
LINE
  5
280
330
1A
100
AcDbEntity
  8
SEIHIN
  6
CONTINUOUS
 62
     3
 48
16.0
100
AcDbLine
 10
503.88319028946
 20
152.9330140568039
 30
0.0
 11
504.09499028946
 21
153.387114056804
 31
0.0
  0
LINE
  5
281
330
1A
100
AcDbEntity
  8
SEIHIN
  6
CONTINUOUS
 62
     3
 48
16.0
100
AcDbLine
 10
503.8504902894598
 20
152.603914056804
 30
0.0
 11
503.0580902894599
 21
152.346814056804
 31
0.0
  0
LINE
  5
282
330
1A
100
AcDbEntity
  8
SEIHIN
  6
CONTINUOUS
 62
     3
 48
16.0
100
AcDbLine
 10
504.36609028946
 20
153.641514056804
 30
0.0
 11
504.30919028946
 21
155.0296140568039
 31
0.0
  0
ARC
  5
283
330
1A
100
AcDbEntity
  8
SEIHIN
  6
CONTINUOUS
 62
     3
 48
16.0
100
AcDbCircle
 10
510.8913039092696
 20
150.2178800851282
 30
0.0
 40
0.5000112297878215
100
AcDbArc
 50
335.0060495689742
 51
68.69302804082926
  0
LINE
  5
284
330
1A
100
AcDbEntity
  8
SEIHIN
  6
CONTINUOUS
 62
     3
 48
16.0
100
AcDbLine
 10
511.3649902894598
 20
150.377714056804
 30
0.0
 11
512.46499028946
 21
151.2264140568039
 31
0.0
  0
LINE
  5
285
330
1A
100
AcDbEntity
  8
SEIHIN
  6
CONTINUOUS
 62
     3
 48
16.0
100
AcDbLine
 10
512.4658902894601
 20
151.226014056804
 30
0.0
 11
512.4658902894601
 21
148.0954140568039
 31
0.0
  0
ARC
  5
286
330
1A
100
AcDbEntity
  8
SEIHIN
  6
CONTINUOUS
 62
     3
 48
16.0
100
AcDbCircle
 10
510.6795542033644
 20
149.7637996042852
 30
0.0
 40
0.4999738944147275
100
AcDbArc
 50
248.657216815858
 51
335.0015869544666
  0
LINE
  5
287
330
1A
100
AcDbEntity
  8
SEIHIN
  6
CONTINUOUS
 62
     3
 48
16.0
100
AcDbLine
 10
510.9015902894598
 20
149.315814056804
 30
0.0
 11
511.2139902894598
 21
148.543614056804
 31
0.0
  0
LINE
  5
288
330
1A
100
AcDbEntity
  8
SEIHIN
  6
CONTINUOUS
 62
     3
 48
16.0
100
AcDbLine
 10
511.1326902894598
 20
149.552514056804
 30
0.0
 11
511.3443902894598
 21
150.0066140568039
 31
0.0
  0
ARC
  5
289
330
1A
100
AcDbEntity
  8
SEIHIN
  6
CONTINUOUS
 62
     3
 48
16.0
100
AcDbCircle
 10
530.6421054679158
 20
200.8522637509787
 30
0.0
 40
55.35005730488308
100
AcDbArc
 50
291.3424574757374
 51
295.001073429748
  0
ARC
  5
28A
330
1A
100
AcDbEntity
  8
SEIHIN
  6
CONTINUOUS
 62
     3
 48
16.0
100
AcDbCircle
 10
550.3924997845522
 20
150.2179377431605
 30
0.0
 40
0.499965913796248
100
AcDbArc
 50
111.3118408071535
 51
205.0036620614347
  0
LINE
  5
28B
330
1A
100
AcDbEntity
  8
SEIHIN
  6
CONTINUOUS
 62
     3
 48
16.0
100
AcDbLine
 10
549.91879028946
 20
150.377714056804
 30
0.0
 11
548.81889028946
 21
151.2264140568039
 31
0.0
  0
LINE
  5
28C
330
1A
100
AcDbEntity
  8
SEIHIN
  6
CONTINUOUS
 62
     3
 48
16.0
100
AcDbLine
 10
548.8178902894599
 20
151.226014056804
 30
0.0
 11
548.8178902894599
 21
148.0954140568039
 31
0.0
  0
ARC
  5
28D
330
1A
100
AcDbEntity
  8
SEIHIN
  6
CONTINUOUS
 62
     3
 48
16.0
100
AcDbCircle
 10
550.6042648926325
 20
149.7638242295053
 30
0.0
 40
0.5000192096786346
100
AcDbArc
 50
204.9991052967636
 51
291.3483182177951
  0
LINE
  5
28E
330
1A
100
AcDbEntity
  8
SEIHIN
  6
CONTINUOUS
 62
     3
 48
16.0
100
AcDbLine
 10
550.3822902894601
 20
149.315814056804
 30
0.0
 11
550.0698902894598
 21
148.543614056804
 31
0.0
  0
LINE
  5
28F
330
1A
100
AcDbEntity
  8
SEIHIN
  6
CONTINUOUS
 62
     3
 48
16.0
100
AcDbLine
 10
550.1511902894598
 20
149.552414056804
 30
0.0
 11
549.9393902894601
 21
150.006514056804
 31
0.0
  0
ARC
  5
290
330
1A
100
AcDbEntity
  8
SEIHIN
  6
CONTINUOUS
 62
     3
 48
16.0
100
AcDbCircle
 10
530.6428288992164
 20
200.8525733342044
 30
0.0
 40
53.85000898577389
100
AcDbArc
 50
291.3079706281302
 51
295.0003101638222
  0
ARC
  5
291
330
1A
100
AcDbEntity
  8
SEIHIN
  6
CONTINUOUS
 62
     3
 48
16.0
100
AcDbCircle
 10
530.6412924951664
 20
200.8518657353505
 30
0.0
 40
52.84997778682019
100
AcDbArc
 50
290.1162674599694
 51
295.0007560563957
  0
ARC
  5
292
330
1A
100
AcDbEntity
  8
SEIHIN
  6
CONTINUOUS
 62
     3
 48
16.0
100
AcDbCircle
 10
530.6413922170625
 20
200.8518554142555
 30
0.0
 40
52.85001691767891
100
AcDbArc
 50
295.0006169863136
 51
299.8851350016651
  0
ARC
  5
293
330
1A
100
AcDbEntity
  8
SEIHIN
  6
CONTINUOUS
 62
     3
 48
16.0
100
AcDbCircle
 10
556.7357442632592
 20
153.1758291453992
 30
0.0
 40
0.4999826345472808
100
AcDbArc
 50
24.99786561016394
 51
118.6935416383309
  0
ARC
  5
294
330
1A
100
AcDbEntity
  8
SEIHIN
  6
CONTINUOUS
 62
     3
 48
16.0
100
AcDbCircle
 10
530.6423296429461
 20
200.8523364350554
 30
0.0
 40
53.8500419213104
100
AcDbArc
 50
294.999471164099
 51
298.6918794240766
  0
ARC
  5
295
330
1A
100
AcDbEntity
  8
SEIHIN
  6
CONTINUOUS
 62
     3
 48
16.0
100
AcDbCircle
 10
556.9475076566418
 20
152.7217669704091
 30
0.0
 40
0.4999998301981203
100
AcDbArc
 50
298.6570233126792
 51
24.99216455376166
  0
ARC
  5
296
330
1A
100
AcDbEntity
  8
SEIHIN
  6
CONTINUOUS
 62
     3
 48
16.0
100
AcDbCircle
 10
530.6422510141763
 20
200.8522965044087
 30
0.0
 40
55.35001374406375
100
AcDbArc
 50
294.9996718326978
 51
298.6583046806875
  0
LINE
  5
297
330
1A
100
AcDbEntity
  8
SEIHIN
  6
CONTINUOUS
 62
     3
 48
16.0
100
AcDbLine
 10
556.9177902894598
 20
153.641514056804
 30
0.0
 11
556.9746902894601
 21
155.0296140568039
 31
0.0
  0
LINE
  5
298
330
1A
100
AcDbEntity
  8
SEIHIN
  6
CONTINUOUS
 62
     3
 48
16.0
100
AcDbLine
 10
557.4006902894597
 20
152.9330140568039
 30
0.0
 11
557.18889028946
 21
153.387114056804
 31
0.0
  0
LINE
  5
299
330
1A
100
AcDbEntity
  8
SEIHIN
  6
CONTINUOUS
 62
     3
 48
16.0
100
AcDbLine
 10
557.43339028946
 20
152.603814056804
 30
0.0
 11
558.22569028946
 21
152.346714056804
 31
0.0
  0
LINE
  5
29A
330
1A
100
AcDbEntity
  8
SEIHIN
  6
CONTINUOUS
 62
     3
 48
16.0
100
AcDbLine
 10
558.22569028946
 20
152.346714056804
 30
0.0
 11
556.9746902894601
 21
155.0296140568039
 31
0.0
  0
LINE
  5
29B
330
1A
100
AcDbEntity
  8
SEIHIN
  6
CONTINUOUS
 62
     3
 48
16.0
100
AcDbLine
 10
530.6419902894599
 20
192.352114056804
 30
0.0
 11
470.6419902894599
 21
192.352114056804
 31
0.0
  0
LINE
  5
29C
330
1A
100
AcDbEntity
  8
SEIHIN
  6
CONTINUOUS
 62
     3
 48
16.0
100
AcDbLine
 10
530.6419902894599
 20
202.152114056804
 30
0.0
 11
465.1419902894599
 21
202.152114056804
 31
0.0
  0
ARC
  5
29E
330
1A
100
AcDbEntity
  8
NOKITOI
  6
PHANTOM
 62
     8
 48
5.0
100
AcDbCircle
 10
471.0919211038071
 20
196.8523005340572
 30
0.0
 40
4.000015298737716
100
AcDbArc
 50
8.764757762685649
 51
317.4315014146472
  0
CIRCLE
  5
29F
330
1A
100
AcDbEntity
  8
NOKITOI
  6
PHANTOM
 62
     8
 48
5.0
100
AcDbCircle
 10
471.0919254039965
 20
196.8523146850325
 30
0.0
 40
2.7
  0
LINE
  5
2A0
330
1A
100
AcDbEntity
  8
SEIHIN
  6
CONTINUOUS
 62
     3
 48
16.0
100
AcDbLine
 10
467.8419902894599
 20
202.152014056804
 30
0.0
 11
467.8419902894599
 21
196.352114056804
 31
0.0
  0
LINE
  5
2A1
330
1A
100
AcDbEntity
  8
SEIHIN
  6
CONTINUOUS
 62
     3
 48
16.0
100
AcDbLine
 10
465.1419902894599
 20
196.352114056804
 30
0.0
 11
465.1419902894599
 21
202.152014056804
 31
0.0
  0
LINE
  5
2A2
330
1A
100
AcDbEntity
  8
SEIHIN
  6
CONTINUOUS
 62
     3
 48
16.0
100
AcDbLine
 10
466.6419902894599
 20
196.352114056804
 30
0.0
 11
466.6419902894599
 21
202.152014056804
 31
0.0
  0
ARC
  5
2A3
330
1A
100
AcDbEntity
  8
SEIHIN
  6
CONTINUOUS
 62
     3
 48
16.0
100
AcDbCircle
 10
471.8419902894599
 20
196.352114056804
 30
0.0
 40
4.0
100
AcDbArc
 50
180.0
 51
270.0
  0
ARC
  5
2A4
330
1A
100
AcDbEntity
  8
SEIHIN
  6
CONTINUOUS
 62
     3
 48
16.0
100
AcDbCircle
 10
470.6419902894599
 20
196.352114056804
 30
0.0
 40
5.5
100
AcDbArc
 50
180.0
 51
270.0
  0
ARC
  5
2A5
330
1A
100
AcDbEntity
  8
SEIHIN
  6
CONTINUOUS
 62
     3
 48
16.0
100
AcDbCircle
 10
470.6419902894599
 20
196.352114056804
 30
0.0
 40
4.0
100
AcDbArc
 50
180.0
 51
270.0
  0
ARC
  5
2A6
330
1A
100
AcDbEntity
  8
SEIHIN
  6
CONTINUOUS
 62
     3
 48
16.0
100
AcDbCircle
 10
472.8800799233977
 20
189.852114056804
 30
0.0
 40
1.0
100
AcDbArc
 50
10.78211773145079
 51
90.0
  0
LINE
  5
2A7
330
1A
100
AcDbEntity
  8
SEIHIN
  6
CONTINUOUS
 62
     3
 48
16.0
100
AcDbLine
 10
470.6419902894599
 20
190.852114056804
 30
0.0
 11
472.8800799233977
 21
190.852114056804
 31
0.0
  0
ARC
  5
2A8
330
1A
100
AcDbEntity
  8
SEIHIN
  6
CONTINUOUS
 62
     3
 48
16.0
100
AcDbCircle
 10
473.4252940321502
 20
191.3521108843141
 30
0.0
 40
1.000003172496959
100
AcDbArc
 50
9.427685204602147
 51
90.00021443967119
  0
ARC
  5
2A9
330
1A
100
AcDbEntity
  8
SEIHIN
  6
CONTINUOUS
 62
     3
 48
16.0
100
AcDbCircle
 10
472.1676563178405
 20
189.8521422325979
 30
0.0
 40
0.9999718247831996
100
AcDbArc
 50
10.65396324940774
 51
89.99805351474039
  0
ARC
  5
2AA
330
1A
100
AcDbEntity
  8
SEIHIN
  6
CONTINUOUS
 62
     3
 48
16.0
100
AcDbCircle
 10
474.6420768671829
 20
191.3521253944326
 30
0.0
 40
0.9999886624615667
100
AcDbArc
 50
9.624512142941535
 51
89.99923095145282
  0
LINE
  5
2AE
330
1A
100
AcDbEntity
  8
SEIHIN
  6
CONTINUOUS
 62
     3
 48
16.0
100
AcDbLine
 10
582.3384902894599
 20
185.144414056804
 30
0.0
 11
581.4151902894598
 21
186.182414056804
 31
0.0
  0
LINE
  5
2AF
330
1A
100
AcDbEntity
  8
SEIHIN
  6
CONTINUOUS
 62
     3
 48
16.0
100
AcDbLine
 10
584.17869028946
 20
185.121614056804
 30
0.0
 11
581.4151902894598
 21
186.182414056804
 31
0.0
  0
ARC
  5
2B0
330
1A
100
AcDbEntity
  8
SEIHIN
  6
CONTINUOUS
 62
     3
 48
16.0
100
AcDbCircle
 10
530.6419533227197
 20
200.8523018133861
 30
0.0
 40
52.85000389999228
100
AcDbArc
 50
338.9997210378073
 51
343.8841939208614
  0
LINE
  5
2B1
330
1A
100
AcDbEntity
  8
SEIHIN
  6
CONTINUOUS
 62
     3
 48
16.0
100
AcDbLine
 10
578.1897902894598
 20
177.780214056804
 30
0.0
 11
578.1897902894598
 21
171.648814056804
 31
0.0
  0
LINE
  5
2B2
330
1A
100
AcDbEntity
  8
SEIHIN
  6
CONTINUOUS
 62
     3
 48
16.0
100
AcDbLine
 10
583.4301902894599
 20
184.756114056804
 30
0.0
 11
584.17869028946
 21
185.121614056804
 31
0.0
  0
ARC
  5
2B3
330
1A
100
AcDbEntity
  8
SEIHIN
  6
CONTINUOUS
 62
     3
 48
16.0
100
AcDbCircle
 10
582.9987717510951
 20
184.5034523463679
 30
0.0
 40
0.4999499426094869
100
AcDbArc
 50
342.6560939985435
 51
69.0058305043526
  0
LINE
  5
2B4
330
1A
100
AcDbEntity
  8
SEIHIN
  6
CONTINUOUS
 62
     3
 48
16.0
100
AcDbLine
 10
583.17799028946
 20
184.9702140568041
 30
0.0
 11
582.7101902894598
 21
185.1497140568039
 31
0.0
  0
ARC
  5
2B5
330
1A
100
AcDbEntity
  8
SEIHIN
  6
CONTINUOUS
 62
     3
 48
16.0
100
AcDbCircle
 10
582.5310261617748
 20
184.6829314304685
 30
0.0
 40
0.4999858046962255
100
AcDbArc
 50
69.00181173779095
 51
162.6880678895864
  0
LINE
  5
2B6
330
1A
100
AcDbEntity
  8
SEIHIN
  6
CONTINUOUS
 62
     3
 48
16.0
100
AcDbLine
 10
580.6420902894599
 20
177.492814056804
 30
0.0
 11
580.9537902894598
 21
176.720314056804
 31
0.0
  0
ARC
  5
2B7
330
1A
100
AcDbEntity
  8
SEIHIN
  6
CONTINUOUS
 62
     3
 48
16.0
100
AcDbCircle
 10
580.022886976473
 20
178.1488221944351
 30
0.0
 40
0.5000212895418428
100
AcDbArc
 50
155.306378130528
 51
248.9993761471799
  0
ARC
  5
2B8
330
1A
100
AcDbEntity
  8
SEIHIN
  6
CONTINUOUS
 62
     3
 48
16.0
100
AcDbCircle
 10
530.642703493897
 20
200.8541322009738
 30
0.0
 40
53.84999018460642
100
AcDbArc
 50
335.3066983541459
 51
338.9990796109372
  0
ARC
  5
2B9
330
1A
100
AcDbEntity
  8
SEIHIN
  6
CONTINUOUS
 62
     3
 48
16.0
100
AcDbCircle
 10
580.4905756984844
 20
177.9693081111882
 30
0.0
 40
0.5000040999989134
100
AcDbArc
 50
249.0000043029263
 51
335.3430277768782
  0
ARC
  5
2BA
330
1A
100
AcDbEntity
  8
SEIHIN
  6
CONTINUOUS
 62
     3
 48
16.0
100
AcDbCircle
 10
530.6416093905416
 20
200.851466247948
 30
0.0
 40
52.84998971621941
100
AcDbArc
 50
334.1162901745784
 51
339.0008015592092
  0
LINE
  5
2BB
330
1A
100
AcDbEntity
  8
SEIHIN
  6
CONTINUOUS
 62
     3
 48
16.0
100
AcDbLine
 10
579.57099028946
 20
177.934714056804
 30
0.0
 11
578.1901902894599
 21
177.781114056804
 31
0.0
  0
LINE
  5
2BC
330
1A
100
AcDbEntity
  8
SEIHIN
  6
CONTINUOUS
 62
     3
 48
16.0
100
AcDbLine
 10
580.3114902894598
 20
177.502514056804
 30
0.0
 11
579.8436902894597
 21
177.682014056804
 31
0.0
  0
ARC
  5
2BD
330
1A
100
AcDbEntity
  8
SEIHIN
  6
CONTINUOUS
 62
     3
 48
16.0
100
AcDbCircle
 10
530.6421542686694
 20
200.852828487555
 30
0.0
 40
55.34998699744602
100
AcDbArc
 50
335.3419486969391
 51
339.0004955407931
  0
ARC
  5
2BE
330
1A
100
AcDbEntity
  8
SEIHIN
  6
CONTINUOUS
 62
     3
 48
16.0
100
AcDbCircle
 10
530.6417938645936
 20
200.8518364421033
 30
0.0
 40
53.84997991556111
100
AcDbArc
 50
339.0003242405254
 51
342.6926543858762
  0
ARC
  5
2BF
330
1A
100
AcDbEntity
  8
SEIHIN
  6
CONTINUOUS
 62
     3
 48
16.0
100
AcDbCircle
 10
530.6417615201196
 20
200.8517436703075
 30
0.0
 40
55.34998566850311
100
AcDbArc
 50
339.0004781781525
 51
342.6590834909085
  0
ARC
  5
2C1
330
1A
100
AcDbEntity
  8
NOKITOI
  6
PHANTOM
 62
     8
 48
5.0
100
AcDbCircle
 10
590.1919069996543
 20
196.8521752516685
 30
0.0
 40
3.999981474645155
100
AcDbArc
 50
222.570219189405
 51
171.2362504387284
  0
CIRCLE
  5
2C2
330
1A
100
AcDbEntity
  8
NOKITOI
  6
PHANTOM
 62
     8
 48
5.0
100
AcDbCircle
 10
590.1919254039967
 20
196.8521146850326
 30
0.0
 40
2.7
  0
ARC
  5
2C3
330
1A
100
AcDbEntity
  8
SEIHIN
  6
CONTINUOUS
 62
     3
 48
16.0
100
AcDbCircle
 10
589.4418902894599
 20
196.352014056804
 30
0.0
 40
4.0
100
AcDbArc
 50
270.0
 51
0.0
  0
ARC
  5
2C4
330
1A
100
AcDbEntity
  8
SEIHIN
  6
CONTINUOUS
 62
     3
 48
16.0
100
AcDbCircle
 10
590.6418902894599
 20
196.352014056804
 30
0.0
 40
5.5
100
AcDbArc
 50
270.0
 51
0.0
  0
ARC
  5
2C5
330
1A
100
AcDbEntity
  8
SEIHIN
  6
CONTINUOUS
 62
     3
 48
16.0
100
AcDbCircle
 10
590.6418902894599
 20
196.3520140568039
 30
0.0
 40
3.999999999999914
100
AcDbArc
 50
270.0000000000012
 51
0.0000000000012213
  0
ARC
  5
2C6
330
1A
100
AcDbEntity
  8
SEIHIN
  6
CONTINUOUS
 62
     3
 48
16.0
100
AcDbCircle
 10
586.641803711737
 20
191.3521253944324
 30
0.0
 40
0.9999886624616721
100
AcDbArc
 50
90.00076904854228
 51
170.3754878570536
  0
ARC
  5
2C7
330
1A
100
AcDbEntity
  8
SEIHIN
  6
CONTINUOUS
 62
     3
 48
16.0
100
AcDbCircle
 10
587.8585962052577
 20
191.3521190718292
 30
0.0
 40
0.9999949849923318
100
AcDbArc
 50
90.00033895194464
 51
170.5785204365008
  0
ARC
  5
2C8
330
1A
100
AcDbEntity
  8
SEIHIN
  6
CONTINUOUS
 62
     3
 48
16.0
100
AcDbCircle
 10
589.1162761604732
 20
189.8521023369413
 30
0.0
 40
1.000011719962496
100
AcDbArc
 50
89.99919047819272
 51
169.3499708189483
  0
LINE
  5
2C9
330
1A
100
AcDbEntity
  8
SEIHIN
  6
CONTINUOUS
 62
     3
 48
16.0
100
AcDbLine
 10
590.6418902894599
 20
190.852014056804
 30
0.0
 11
589.1162902894598
 21
190.852114056804
 31
0.0
  0
LINE
  5
2CA
330
1A
100
AcDbEntity
  8
SEIHIN
  6
CONTINUOUS
 62
     3
 48
16.0
100
AcDbLine
 10
593.4418902894599
 20
202.152014056804
 30
0.0
 11
593.4418902894599
 21
196.352014056804
 31
0.0
  0
LINE
  5
2CB
330
1A
100
AcDbEntity
  8
SEIHIN
  6
CONTINUOUS
 62
     3
 48
16.0
100
AcDbLine
 10
594.6418902894597
 20
196.352014056804
 30
0.0
 11
594.6418902894597
 21
202.152014056804
 31
0.0
  0
LINE
  5
2CC
330
1A
100
AcDbEntity
  8
SEIHIN
  6
CONTINUOUS
 62
     3
 48
16.0
100
AcDbLine
 10
596.14189028946
 20
196.352014056804
 30
0.0
 11
596.14189028946
 21
202.152014056804
 31
0.0
  0
LINE
  5
2CF
330
1A
100
AcDbEntity
  8
SEIHIN
  6
CONTINUOUS
 62
     3
 48
16.0
100
AcDbLine
 10
578.1898902894599
 20
312.8240140568041
 30
0.0
 11
557.3963902894599
 21
312.824214056804
 31
0.0
  0
LINE
  5
2D0
330
1A
100
AcDbEntity
  8
SEIHIN
  6
CONTINUOUS
 62
     3
 48
16.0
100
AcDbLine
 10
596.14189028946
 20
292.824114056804
 30
0.0
 11
530.6419902894599
 21
292.824214056804
 31
0.0
  0
LINE
  5
2D1
330
1A
100
AcDbEntity
  8
SEIHIN
  6
CONTINUOUS
 62
     3
 48
16.0
100
AcDbLine
 10
594.80179028946
 20
318.585614056804
 30
0.0
 11
471.46339028946
 21
441.9244140568041
 31
0.0
  0
LINE
  5
2D2
330
1A
100
AcDbEntity
  8
SEIHIN
  6
CONTINUOUS
 62
     3
 48
16.0
100
AcDbLine
 10
593.4419902894599
 20
317.8241140568041
 30
0.0
 11
470.4027902894599
 21
440.863514056804
 31
0.0
  0
LINE
  5
2D3
330
1A
100
AcDbEntity
  8
SEIHIN
  6
CONTINUOUS
 62
     3
 48
16.0
100
AcDbLine
 10
466.3420902894599
 20
318.0017140568039
 30
0.0
 11
466.3419902894599
 21
439.803114056804
 31
0.0
  0
LINE
  5
2D4
330
1A
100
AcDbEntity
  8
SEIHIN
  6
CONTINUOUS
 62
     3
 48
16.0
100
AcDbLine
 10
475.62799028946
 20
312.824214056804
 30
0.0
 11
475.6280902894598
 21
432.0169140568041
 31
0.0
  0
LINE
  5
2D5
330
1A
100
AcDbEntity
  8
SEIHIN
  6
CONTINUOUS
 62
     3
 48
16.0
100
AcDbLine
 10
467.8420902894599
 20
317.824214056804
 30
0.0
 11
467.8420902894599
 21
439.8029140568041
 31
0.0
  0
LINE
  5
2D6
330
1A
100
AcDbEntity
  8
SEIHIN
  6
CONTINUOUS
 62
     3
 48
16.0
100
AcDbLine
 10
483.0940902894599
 20
312.824214056804
 30
0.0
 11
503.8875902894599
 21
312.824214056804
 31
0.0
  0
LINE
  5
2D7
330
1A
100
AcDbEntity
  8
SEIHIN
  6
CONTINUOUS
 62
     3
 48
16.0
100
AcDbLine
 10
465.1420902894598
 20
292.824214056804
 30
0.0
 11
530.6419902894599
 21
292.824214056804
 31
0.0
  0
LINE
  5
2D8
330
1A
100
AcDbEntity
  8
SEIHIN
  6
CONTINUOUS
 62
     3
 48
16.0
100
AcDbLine
 10
474.41179028946
 20
292.824214056804
 30
0.0
 11
474.41179028946
 21
312.824214056804
 31
0.0
  0
LINE
  5
2D9
330
1A
100
AcDbEntity
  8
SEIHIN
  6
CONTINUOUS
 62
     3
 48
16.0
100
AcDbLine
 10
466.6420902894599
 20
292.824214056804
 30
0.0
 11
466.6420902894599
 21
312.824214056804
 31
0.0
  0
LINE
  5
2DA
330
1A
100
AcDbEntity
  8
SEIHIN
  6
CONTINUOUS
 62
     3
 48
16.0
100
AcDbLine
 10
465.1420902894598
 20
292.824214056804
 30
0.0
 11
465.1420902894598
 21
313.0017140568039
 31
0.0
  0
LINE
  5
2DB
330
1A
100
AcDbEntity
  8
SEIHIN
  6
CONTINUOUS
 62
     3
 48
16.0
100
AcDbLine
 10
477.85379028946
 20
312.824214056804
 30
0.0
 11
478.94549028946
 21
299.824214056804
 31
0.0
  0
LINE
  5
2DC
330
1A
100
AcDbEntity
  8
SEIHIN
  6
CONTINUOUS
 62
     3
 48
16.0
100
AcDbLine
 10
481.7603902894598
 20
300.271314056804
 30
0.0
 11
483.0940902894599
 21
312.824214056804
 31
0.0
  0
LINE
  5
2DD
330
1A
100
AcDbEntity
  8
SEIHIN
  6
CONTINUOUS
 62
     3
 48
16.0
100
AcDbLine
 10
479.86879028946
 20
312.824214056804
 30
0.0
 11
478.9834902894599
 21
300.359614056804
 31
0.0
  0
ARC
  5
2DE
330
1A
100
AcDbEntity
  8
SEIHIN
  6
CONTINUOUS
 62
     3
 48
16.0
100
AcDbCircle
 10
481.263193764563
 20
300.3242171817845
 30
0.0
 40
0.5000031249924645
100
AcDbArc
 50
269.9996017850215
 51
353.9264180555678
  0
ARC
  5
2DF
330
1A
100
AcDbEntity
  8
SEIHIN
  6
CONTINUOUS
 62
     3
 48
16.0
100
AcDbCircle
 10
479.4822648596725
 20
300.3242413553136
 30
0.0
 40
0.500027299156211
100
AcDbArc
 50
175.9434200420654
 51
270.0029138798921
  0
LINE
  5
2E0
330
1A
100
AcDbEntity
  8
SEIHIN
  6
CONTINUOUS
 62
     3
 48
16.0
100
AcDbLine
 10
478.94549028946
 20
299.824214056804
 30
0.0
 11
481.26319028946
 21
299.824214056804
 31
0.0
  0
LINE
  5
2E1
330
1A
100
AcDbEntity
  8
SEIHIN
  6
CONTINUOUS
 62
     3
 48
16.0
100
AcDbLine
 10
474.41179028946
 20
312.824214056804
 30
0.0
 11
477.85379028946
 21
312.824214056804
 31
0.0
  0
LINE
  5
2E2
330
1A
100
AcDbEntity
  8
SEIHIN
  6
CONTINUOUS
 62
     3
 48
16.0
100
AcDbLine
 10
466.6420902894599
 20
312.824214056804
 30
0.0
 11
467.8420902894599
 21
317.824214056804
 31
0.0
  0
LINE
  5
2E3
330
1A
100
AcDbEntity
  8
SEIHIN
  6
CONTINUOUS
 62
     3
 48
16.0
100
AcDbLine
 10
466.3420902894599
 20
318.0017140568039
 30
0.0
 11
465.1420902894598
 21
313.0017140568039
 31
0.0
  0
LINE
  5
2E4
330
1A
100
AcDbEntity
  8
SEIHIN
  6
CONTINUOUS
 62
     3
 48
16.0
100
AcDbLine
 10
479.86879028946
 20
317.824214056804
 30
0.0
 11
483.0940902894599
 21
312.824214056804
 31
0.0
  0
LINE
  5
2E5
330
1A
100
AcDbEntity
  8
SEIHIN
  6
CONTINUOUS
 62
     3
 48
16.0
100
AcDbLine
 10
477.1051902894599
 20
317.824214056804
 30
0.0
 11
479.86879028946
 21
312.824214056804
 31
0.0
  0
LINE
  5
2E6
330
1A
100
AcDbEntity
  8
SEIHIN
  6
CONTINUOUS
 62
     3
 48
16.0
100
AcDbLine
 10
477.1051902894599
 20
312.824214056804
 30
0.0
 11
477.1051902894599
 21
317.824214056804
 31
0.0
  0
LINE
  5
2E7
330
1A
100
AcDbEntity
  8
SEIHIN
  6
CONTINUOUS
 62
     3
 48
16.0
100
AcDbLine
 10
477.1051902894599
 20
317.824214056804
 30
0.0
 11
479.86879028946
 21
317.824214056804
 31
0.0
  0
LINE
  5
2E8
330
1A
100
AcDbEntity
  8
CENTER_L
  6
CENTER
 62
     1
 48
5.0
100
AcDbLine
 10
530.6419902894599
 20
278.3597140568039
 30
0.0
 11
530.6420442359573
 21
342.8242140568041
 31
0.0
  0
LINE
  5
2E9
330
1A
100
AcDbEntity
  8
SEIHIN
  6
CONTINUOUS
 62
     3
 48
16.0
100
AcDbLine
 10
512.8875902894598
 20
312.824214056804
 30
0.0
 11
530.6419902894599
 21
312.824214056804
 31
0.0
  0
LINE
  5
2EA
330
1A
100
AcDbEntity
  8
SEIHIN
  6
CONTINUOUS
 62
     3
 48
16.0
100
AcDbLine
 10
512.8875902894598
 20
312.8241140568039
 30
0.0
 11
512.4245902894598
 21
300.785714056804
 31
0.0
  0
LINE
  5
2EB
330
1A
100
AcDbEntity
  8
SEIHIN
  6
CONTINUOUS
 62
     3
 48
16.0
100
AcDbLine
 10
503.8875902894599
 20
312.824214056804
 30
0.0
 11
504.35059028946
 21
300.785714056804
 31
0.0
  0
LINE
  5
2EC
330
1A
100
AcDbEntity
  8
SEIHIN
  6
CONTINUOUS
 62
     3
 48
16.0
100
AcDbLine
 10
511.4253902894599
 20
299.824114056804
 30
0.0
 11
508.3875902894599
 21
299.824114056804
 31
0.0
  0
LINE
  5
2ED
330
1A
100
AcDbEntity
  8
SEIHIN
  6
CONTINUOUS
 62
     3
 48
16.0
100
AcDbLine
 10
505.34989028946
 20
299.824214056804
 30
0.0
 11
508.3875902894599
 21
299.824214056804
 31
0.0
  0
ARC
  5
2EE
330
1A
100
AcDbEntity
  8
SEIHIN
  6
CONTINUOUS
 62
     3
 48
16.0
100
AcDbCircle
 10
505.3498687926283
 20
300.8242347413762
 30
0.0
 40
1.000020684803202
100
AcDbArc
 50
182.2075731538332
 51
270.0012316522508
  0
ARC
  5
2EF
330
1A
100
AcDbEntity
  8
SEIHIN
  6
CONTINUOUS
 62
     3
 48
16.0
100
AcDbCircle
 10
511.4253578663775
 20
300.8240828558303
 30
0.0
 40
0.9999687995521277
100
AcDbArc
 50
270.0018577637479
 51
357.8010213564733
  0
LINE
  5
2F0
330
1A
100
AcDbEntity
  8
SEIHIN
  6
CONTINUOUS
 62
     3
 48
16.0
100
AcDbLine
 10
508.3875902894599
 20
317.8241140568041
 30
0.0
 11
512.8875902894598
 21
317.8241140568041
 31
0.0
  0
LINE
  5
2F1
330
1A
100
AcDbEntity
  8
SEIHIN
  6
CONTINUOUS
 62
     3
 48
16.0
100
AcDbLine
 10
503.8875902894599
 20
312.824214056804
 30
0.0
 11
503.8875902894599
 21
317.824214056804
 31
0.0
  0
LINE
  5
2F2
330
1A
100
AcDbEntity
  8
SEIHIN
  6
CONTINUOUS
 62
     3
 48
16.0
100
AcDbLine
 10
508.3875902894599
 20
317.824214056804
 30
0.0
 11
503.8875902894599
 21
317.824214056804
 31
0.0
  0
LINE
  5
2F3
330
1A
100
AcDbEntity
  8
SEIHIN
  6
CONTINUOUS
 62
     3
 48
16.0
100
AcDbLine
 10
512.8875902894598
 20
312.8241140568039
 30
0.0
 11
512.8875902894598
 21
317.8241140568041
 31
0.0
  0
LINE
  5
2F4
330
1A
100
AcDbEntity
  8
SEIHIN
  6
CONTINUOUS
 62
     3
 48
16.0
100
AcDbLine
 10
548.39639028946
 20
312.8241140568039
 30
0.0
 11
548.8593902894599
 21
300.785714056804
 31
0.0
  0
LINE
  5
2F5
330
1A
100
AcDbEntity
  8
SEIHIN
  6
CONTINUOUS
 62
     3
 48
16.0
100
AcDbLine
 10
557.3963902894599
 20
312.824214056804
 30
0.0
 11
556.93329028946
 21
300.785714056804
 31
0.0
  0
LINE
  5
2F6
330
1A
100
AcDbEntity
  8
SEIHIN
  6
CONTINUOUS
 62
     3
 48
16.0
100
AcDbLine
 10
549.8585902894599
 20
299.824114056804
 30
0.0
 11
552.89639028946
 21
299.824114056804
 31
0.0
  0
ARC
  5
2F7
330
1A
100
AcDbEntity
  8
SEIHIN
  6
CONTINUOUS
 62
     3
 48
16.0
100
AcDbCircle
 10
549.8586227125424
 20
300.8240828558306
 30
0.0
 40
0.9999687995522705
100
AcDbArc
 50
182.1989786435349
 51
269.9981422362602
  0
LINE
  5
2F8
330
1A
100
AcDbEntity
  8
SEIHIN
  6
CONTINUOUS
 62
     3
 48
16.0
100
AcDbLine
 10
555.9340902894598
 20
299.824114056804
 30
0.0
 11
552.89639028946
 21
299.824114056804
 31
0.0
  0
ARC
  5
2F9
330
1A
100
AcDbEntity
  8
SEIHIN
  6
CONTINUOUS
 62
     3
 48
16.0
100
AcDbCircle
 10
555.9340598612577
 20
300.8241847784469
 30
0.0
 40
0.9999707221058045
100
AcDbArc
 50
270.0017434585991
 51
357.7951813644733
  0
LINE
  5
2FA
330
1A
100
AcDbEntity
  8
SEIHIN
  6
CONTINUOUS
 62
     3
 48
16.0
100
AcDbLine
 10
548.39639028946
 20
312.824214056804
 30
0.0
 11
530.6419902894599
 21
312.824214056804
 31
0.0
  0
LINE
  5
2FB
330
1A
100
AcDbEntity
  8
SEIHIN
  6
CONTINUOUS
 62
     3
 48
16.0
100
AcDbLine
 10
557.3963902894599
 20
312.824214056804
 30
0.0
 11
557.3963902894599
 21
317.824214056804
 31
0.0
  0
LINE
  5
2FC
330
1A
100
AcDbEntity
  8
SEIHIN
  6
CONTINUOUS
 62
     3
 48
16.0
100
AcDbLine
 10
548.39639028946
 20
312.8241140568039
 30
0.0
 11
548.39639028946
 21
317.8241140568041
 31
0.0
  0
LINE
  5
2FD
330
1A
100
AcDbEntity
  8
SEIHIN
  6
CONTINUOUS
 62
     3
 48
16.0
100
AcDbLine
 10
552.89639028946
 20
317.8241140568041
 30
0.0
 11
548.39639028946
 21
317.8241140568041
 31
0.0
  0
LINE
  5
2FE
330
1A
100
AcDbEntity
  8
SEIHIN
  6
CONTINUOUS
 62
     3
 48
16.0
100
AcDbLine
 10
552.89639028946
 20
317.824214056804
 30
0.0
 11
557.3963902894599
 21
317.824214056804
 31
0.0
  0
ARC
  5
2FF
330
1A
100
AcDbEntity
  8
SEIHIN
  6
CONTINUOUS
 62
     3
 48
16.0
100
AcDbCircle
 10
469.3420830977587
 20
439.8029110781025
 30
0.0
 40
1.499992808301762
100
AcDbArc
 50
44.99718524658248
 51
179.9998862214327
  0
ARC
  5
300
330
1A
100
AcDbEntity
  8
SEIHIN
  6
CONTINUOUS
 62
     3
 48
16.0
100
AcDbCircle
 10
469.3420112601467
 20
439.8031227428573
 30
0.0
 40
3.000020970699376
100
AcDbArc
 50
44.99881543464567
 51
180.00016589024
  0
ARC
  5
301
330
1A
100
AcDbEntity
  8
SEIHIN
  6
CONTINUOUS
 62
     3
 48
16.0
100
AcDbCircle
 10
477.1280830977587
 20
432.0169110781026
 30
0.0
 40
1.499992808301762
100
AcDbArc
 50
44.99718524658708
 51
179.9998862214381
  0
LINE
  5
302
330
1A
100
AcDbEntity
  8
SEIHIN
  6
CONTINUOUS
 62
     3
 48
16.0
100
AcDbLine
 10
585.6558902894598
 20
312.8240140568041
 30
0.0
 11
585.6558902894598
 21
325.6101140568039
 31
0.0
  0
LINE
  5
303
330
1A
100
AcDbEntity
  8
SEIHIN
  6
CONTINUOUS
 62
     3
 48
16.0
100
AcDbLine
 10
586.8721902894598
 20
292.824114056804
 30
0.0
 11
586.8721902894598
 21
312.8240140568041
 31
0.0
  0
LINE
  5
304
330
1A
100
AcDbEntity
  8
SEIHIN
  6
CONTINUOUS
 62
     3
 48
16.0
100
AcDbLine
 10
583.4301902894599
 20
312.8240140568041
 30
0.0
 11
582.3384902894599
 21
299.824114056804
 31
0.0
  0
LINE
  5
305
330
1A
100
AcDbEntity
  8
SEIHIN
  6
CONTINUOUS
 62
     3
 48
16.0
100
AcDbLine
 10
579.5235902894601
 20
300.271314056804
 30
0.0
 11
578.1898902894599
 21
312.8240140568041
 31
0.0
  0
LINE
  5
306
330
1A
100
AcDbEntity
  8
SEIHIN
  6
CONTINUOUS
 62
     3
 48
16.0
100
AcDbLine
 10
581.4151902894598
 20
312.8240140568041
 30
0.0
 11
582.30049028946
 21
300.3595140568039
 31
0.0
  0
ARC
  5
307
330
1A
100
AcDbEntity
  8
SEIHIN
  6
CONTINUOUS
 62
     3
 48
16.0
100
AcDbCircle
 10
580.0207479722053
 20
300.3240621764208
 30
0.0
 40
0.4999481229445501
100
AcDbArc
 50
186.0563884956105
 51
269.9933893583904
  0
ARC
  5
308
330
1A
100
AcDbEntity
  8
SEIHIN
  6
CONTINUOUS
 62
     3
 48
16.0
100
AcDbCircle
 10
581.8017157192473
 20
300.3241413553134
 30
0.0
 40
0.5000272991562036
100
AcDbArc
 50
269.9970861201078
 51
4.056579957934594
  0
LINE
  5
309
330
1A
100
AcDbEntity
  8
SEIHIN
  6
CONTINUOUS
 62
     3
 48
16.0
100
AcDbLine
 10
582.3384902894599
 20
299.824114056804
 30
0.0
 11
580.0206902894599
 21
299.824114056804
 31
0.0
  0
LINE
  5
30A
330
1A
100
AcDbEntity
  8
SEIHIN
  6
CONTINUOUS
 62
     3
 48
16.0
100
AcDbLine
 10
584.17879028946
 20
312.8240140568041
 30
0.0
 11
584.17879028946
 21
317.8241140568041
 31
0.0
  0
LINE
  5
30B
330
1A
100
AcDbEntity
  8
SEIHIN
  6
CONTINUOUS
 62
     3
 48
16.0
100
AcDbLine
 10
581.4151902894598
 20
317.8241140568041
 30
0.0
 11
578.1898902894599
 21
312.8240140568041
 31
0.0
  0
LINE
  5
30C
330
1A
100
AcDbEntity
  8
SEIHIN
  6
CONTINUOUS
 62
     3
 48
16.0
100
AcDbLine
 10
584.17879028946
 20
317.8241140568041
 30
0.0
 11
581.4151902894598
 21
312.8240140568041
 31
0.0
  0
LINE
  5
30D
330
1A
100
AcDbEntity
  8
SEIHIN
  6
CONTINUOUS
 62
     3
 48
16.0
100
AcDbLine
 10
586.8721902894598
 20
312.8240140568041
 30
0.0
 11
583.4301902894599
 21
312.8240140568041
 31
0.0
  0
LINE
  5
30E
330
1A
100
AcDbEntity
  8
SEIHIN
  6
CONTINUOUS
 62
     3
 48
16.0
100
AcDbLine
 10
584.17879028946
 20
317.8241140568041
 30
0.0
 11
581.4151902894598
 21
317.8241140568041
 31
0.0
  0
LINE
  5
30F
330
1A
100
AcDbEntity
  8
SEIHIN
  6
CONTINUOUS
 62
     3
 48
16.0
100
AcDbLine
 10
596.14189028946
 20
292.824114056804
 30
0.0
 11
596.14189028946
 21
313.0016140568041
 31
0.0
  0
LINE
  5
310
330
1A
100
AcDbEntity
  8
SEIHIN
  6
CONTINUOUS
 62
     3
 48
16.0
100
AcDbLine
 10
594.6418902894597
 20
292.824114056804
 30
0.0
 11
594.6418902894597
 21
312.8240140568041
 31
0.0
  0
LINE
  5
311
330
1A
100
AcDbEntity
  8
SEIHIN
  6
CONTINUOUS
 62
     3
 48
16.0
100
AcDbLine
 10
594.6418902894597
 20
312.8240140568041
 30
0.0
 11
593.4418902894599
 21
317.8241140568041
 31
0.0
  0
LINE
  5
312
330
1A
100
AcDbEntity
  8
SEIHIN
  6
CONTINUOUS
 62
     3
 48
16.0
100
AcDbLine
 10
594.80179028946
 20
318.585614056804
 30
0.0
 11
596.14189028946
 21
313.0016140568041
 31
0.0
  0
LINE
  5
315
330
1A
100
AcDbEntity
  8
SEIHIN
100
AcDbLine
 10
312.9453217130343
 20
190.852114056804
 30
0.0
 11
312.9453217130343
 21
142.3521140568041
 31
0.0
  0
LINE
  5
316
330
1A
100
AcDbEntity
  8
SEIHIN
100
AcDbLine
 10
307.9453217130343
 20
190.852114056804
 30
0.0
 11
307.9453217130343
 21
143.5521140568042
 31
0.0
  0
DIMENSION
  5
324
330
1A
100
AcDbEntity
  8
SUNPOU
100
AcDbDimension
  2
*D1
 10
596.14189028946
 20
231.5318809663492
 30
0.0
 11
530.6419402894599
 21
236.5318809663492
 31
0.0
 70
    32
  3
STANDARD
100
AcDbAlignedDimension
 13
465.1419902894599
 23
202.152014056804
 33
0.0
 14
596.14189028946
 24
202.152014056804
 34
0.0
100
AcDbRotatedDimension
1001
ACAD
1000
DSTYLE
1002
{
1070
   140
1040
6.0
1070
    74
1070
     0
1070
   172
1070
     1
1070
    73
1070
     0
1070
   272
1070
     2
1070
    77
1070
     3
1070
   173
1070
     1
1070
   147
1040
2.0
1070
    42
1040
6.0
1070
    44
1040
3.0
1070
    43
1040
14.0
1070
   271
1070
     0
1070
   178
1070
     4
1070
   177
1070
     4
1070
   176
1070
     4
1070
   141
1040
150.0
1070
     7
1000
_OPEN
1070
     6
1000
_OPEN
1070
    41
1040
7.0
1002
}
  0
DIMENSION
  5
331
330
1A
100
AcDbEntity
  8
SUNPOU
100
AcDbDimension
  2
*D2
 10
408.915193830463
 20
142.3521140568041
 30
0.0
 11
403.915193830463
 21
172.252114056804
 31
0.0
 70
    32
  3
STANDARD
100
AcDbAlignedDimension
 13
465.1419902894599
 23
202.152114056804
 33
0.0
 14
530.6418902894599
 24
142.3521140568041
 34
0.0
 50
90.0
100
AcDbRotatedDimension
1001
ACAD
1000
DSTYLE
1002
{
1070
   140
1040
6.0
1070
    74
1070
     0
1070
   172
1070
     1
1070
    73
1070
     0
1070
   272
1070
     2
1070
    77
1070
     3
1070
   173
1070
     1
1070
   147
1040
2.0
1070
    42
1040
6.0
1070
    44
1040
3.0
1070
    43
1040
14.0
1070
   271
1070
     0
1070
   178
1070
     4
1070
   177
1070
     4
1070
   176
1070
     4
1070
   141
1040
150.0
1070
     7
1000
_OPEN
1070
     6
1000
_OPEN
1070
    41
1040
7.0
1002
}
  0
DIMENSION
  5
33E
330
1A
100
AcDbEntity
  8
SUNPOU
100
AcDbDimension
  2
*D3
 10
408.915193830463
 20
292.824214056804
 30
0.0
 11
403.915193830463
 21
367.8136788851803
 31
0.0
 70
    32
  3
STANDARD
100
AcDbAlignedDimension
 13
469.3420112601467
 23
442.8031437135567
 33
0.0
 14
465.1420902894598
 24
292.824214056804
 34
0.0
 50
90.0
100
AcDbRotatedDimension
1001
ACAD
1000
DSTYLE
1002
{
1070
   140
1040
6.0
1070
    74
1070
     0
1070
   172
1070
     1
1070
    73
1070
     0
1070
   272
1070
     2
1070
    77
1070
     3
1070
   173
1070
     1
1070
   147
1040
2.0
1070
    42
1040
6.0
1070
    44
1040
3.0
1070
    43
1040
14.0
1070
   271
1070
     0
1070
   178
1070
     4
1070
   177
1070
     4
1070
   176
1070
     4
1070
   141
1040
150.0
1070
     7
1000
_OPEN
1070
     6
1000
_OPEN
1070
    41
1040
7.0
1002
}
  0
DIMENSION
  5
34D
330
1A
100
AcDbEntity
  8
SUNPOU
100
AcDbDimension
  2
*D4
 10
425.8950088174678
 20
292.824214056804
 30
0.0
 11
420.8950088174678
 21
275.724214056804
 31
0.0
 70
    32
  1
※<>
  3
STANDARD
100
AcDbAlignedDimension
 13
474.41179028946
 23
312.824214056804
 33
0.0
 14
465.1420902894598
 24
292.824214056804
 34
0.0
 50
90.0
100
AcDbRotatedDimension
1001
ACAD
1000
DSTYLE
1002
{
1070
   140
1040
6.0
1070
    74
1070
     0
1070
   172
1070
     1
1070
    73
1070
     0
1070
   272
1070
     2
1070
    77
1070
     3
1070
   173
1070
     1
1070
   147
1040
2.0
1070
    42
1040
6.0
1070
    44
1040
3.0
1070
    43
1040
14.0
1070
   271
1070
     0
1070
   178
1070
     4
1070
   177
1070
     4
1070
   176
1070
     4
1070
   141
1040
150.0
1070
     7
1000
_OPEN
1070
     6
1000
_OPEN
1070
    41
1040
7.0
1002
}
  0
TEXT
  5
397
330
1A
100
AcDbEntity
  8
SUNPOU
 62
     4
100
AcDbText
 10
601.6089350742313
 20
55.51348049360389
 30
0.0
 40
8.0
  1
※　のきといの差込み寸法を示す。
100
AcDbText
  0
VIEWPORT
  5
22
330
17
100
AcDbEntity
 67
     1
  8
0
100
AcDbViewport
 10
313.6808219178082
 20
148.5
 30
0.0
 40
627.3616438356165
 41
297.0
 68
     2
 69
     1
1001
ACAD
1000
MVIEW
1002
{
1070
    16
1010
0.0
1020
0.0
1030
0.0
1010
0.0
1020
0.0
1030
1.0
1040
0.0
1040
297.0
1040
313.6808219178082
1040
148.5
1040
50.0
1040
0.0
1040
0.0
1070
     0
1070
   100
1070
     1
1070
     0
1070
     0
1070
     0
1070
     0
1070
     0
1040
0.0
1040
0.0
1040
0.0
1040
1.0
1040
1.0
1040
10.0
1040
10.0
1070
     0
1002
{
1002
}
1002
}
  0
VIEWPORT
  5
64
330
17
100
AcDbEntity
 67
     1
  8
VIEWPORT
100
AcDbViewport
 10
210.0
 20
148.5
 30
0.0
 40
420.0
 41
297.0
 68
     1
 69
     2
1001
ACAD
1000
MVIEW
1002
{
1070
    16
1010
0.0
1020
0.0
1030
0.0
1010
0.0
1020
0.0
1030
1.0
1040
0.0
1040
605.8799999999998
1040
420.0
1040
297.0
1040
50.0
1040
0.0
1040
0.0
1070
     0
1070
   100
1070
     1
1070
     0
1070
     0
1070
     0
1070
     0
1070
     0
1040
0.0
1040
0.0
1040
0.0
1040
10.0
1040
10.0
1040
0.0
1040
0.0
1070
     0
1002
{
1002
}
1002
}
  0
ENDSEC
  0
SECTION
  2
OBJECTS
  0
DICTIONARY
  5
C
330
0
100
AcDbDictionary
  3
ACAD_GROUP
350
D
  3
ACAD_LAYOUT
350
3AC
  3
ACAD_MLINESTYLE
350
E
  3
ACAD_PLOTSETTINGS
350
3AD
1001
ACAD
1000
TREAT_AS_HARD
1070
     0
  0
DICTIONARY
  5
3DB
330
1A
100
AcDbDictionary
  3
ACAD_LAYOUTSELFREF
350
3EB
1001
ACAD
1000
TREAT_AS_HARD
1070
     1
  0
DICTIONARY
  5
3D9
330
17
100
AcDbDictionary
  3
ACAD_LAYOUTSELFREF
350
3EA
1001
ACAD
1000
TREAT_AS_HARD
1070
     1
  0
DICTIONARY
  5
D
102
{ACAD_REACTORS
330
C
102
}
330
C
100
AcDbDictionary
1001
ACAD
1000
TREAT_AS_HARD
1070
     0
  0
DICTIONARY
  5
3AC
102
{ACAD_REACTORS
330
C
102
}
330
C
100
AcDbDictionary
1001
ACAD
1000
TREAT_AS_HARD
1070
     0
  0
DICTIONARY
  5
E
102
{ACAD_REACTORS
330
C
102
}
330
C
100
AcDbDictionary
  3
STANDARD
350
13
1001
ACAD
1000
TREAT_AS_HARD
1070
     0
  0
DICTIONARY
  5
3AD
102
{ACAD_REACTORS
330
C
102
}
330
C
100
AcDbDictionary
1001
ACAD
1000
TREAT_AS_HARD
1070
     0
  0
XRECORD
  5
3EB
102
{ACAD_REACTORS
330
3DB
102
}
330
3DB
100
AcDbXrecord
340
1A
  0
XRECORD
  5
3EA
102
{ACAD_REACTORS
330
3D9
102
}
330
3D9
100
AcDbXrecord
340
17
  0
MLINESTYLE
  5
13
102
{ACAD_REACTORS
330
E
102
}
330
E
100
AcDbMlineStyle
  2
STANDARD
 70
     0
  3

 62
     0
 51
90.0
 52
90.0
 71
     2
 49
0.5
 62
   256
  6
BYLAYER
 49
-0.5
 62
   256
  6
BYLAYER
  0
ENDSEC
  0
EOF
