  0
SECTION
  2
HEADER
  9
$ACADVER
  1
AC1012
  9
$DWGCODEPAGE
  3
dos932
  9
$INSBASE
 10
0.0
 20
0.0
 30
0.0
  9
$EXTMIN
 10
10.05047808566086
 20
4.949376903717846
 30
0.0
  9
$EXTMAX
 10
806.2246110975902
 20
563.7825862828226
 30
0.0
  9
$LIMMIN
 10
0.0
 20
0.0
  9
$LIMMAX
 10
840.0
 20
594.0
  9
$ORTHOMODE
 70
     0
  9
$REGENMODE
 70
     1
  9
$FILLMODE
 70
     1
  9
$QTEXTMODE
 70
     0
  9
$MIRRTEXT
 70
     1
  9
$DRAGMODE
 70
     2
  9
$LTSCALE
 40
2.0
  9
$OSMODE
 70
    37
  9
$ATTMODE
 70
     1
  9
$TEXTSIZE
 40
5.0
  9
$TRACEWID
 40
1.0
  9
$TEXTSTYLE
  7
STANDARD
  9
$CLAYER
  8
SUNPOU
  9
$CELTYPE
  6
BYLAYER
  9
$CECOLOR
 62
   256
  9
$CELTSCALE
 40
1.0
  9
$DELOBJ
 70
     1
  9
$DISPSILH
 70
     0
  9
$DIMSCALE
 40
1.0
  9
$DIMASZ
 40
7.0
  9
$DIMEXO
 40
6.0
  9
$DIMDLI
 40
14.0
  9
$DIMRND
 40
0.0
  9
$DIMDLE
 40
0.0
  9
$DIMEXE
 40
3.0
  9
$DIMTP
 40
0.0
  9
$DIMTM
 40
0.0
  9
$DIMTXT
 40
6.0
  9
$DIMCEN
 40
150.0
  9
$DIMTSZ
 40
0.0
  9
$DIMTOL
 70
     0
  9
$DIMLIM
 70
     0
  9
$DIMTIH
 70
     0
  9
$DIMTOH
 70
     0
  9
$DIMSE1
 70
     0
  9
$DIMSE2
 70
     0
  9
$DIMTAD
 70
     3
  9
$DIMZIN
 70
     0
  9
$DIMBLK
  1

  9
$DIMASO
 70
     1
  9
$DIMSHO
 70
     1
  9
$DIMPOST
  1

  9
$DIMAPOST
  1

  9
$DIMALT
 70
     0
  9
$DIMALTD
 70
     2
  9
$DIMALTF
 40
25.4
  9
$DIMLFAC
 40
1.0
  9
$DIMTOFL
 70
     1
  9
$DIMTVP
 40
0.0
  9
$DIMTIX
 70
     0
  9
$DIMSOXD
 70
     0
  9
$DIMSAH
 70
     1
  9
$DIMBLK1
  1
OPEN
  9
$DIMBLK2
  1
OPEN
  9
$DIMSTYLE
  2
STANDARD
  9
$DIMCLRD
 70
   256
  9
$DIMCLRE
 70
   256
  9
$DIMCLRT
 70
   256
  9
$DIMTFAC
 40
1.0
  9
$DIMGAP
 40
2.0
  9
$DIMJUST
 70
     0
  9
$DIMSD1
 70
     0
  9
$DIMSD2
 70
     0
  9
$DIMTOLJ
 70
     1
  9
$DIMTZIN
 70
     0
  9
$DIMALTZ
 70
     0
  9
$DIMALTTZ
 70
     0
  9
$DIMFIT
 70
     3
  9
$DIMUPT
 70
     0
  9
$DIMUNIT
 70
     2
  9
$DIMDEC
 70
     0
  9
$DIMTDEC
 70
     0
  9
$DIMALTU
 70
     2
  9
$DIMALTTD
 70
     2
  9
$DIMTXSTY
  7
STANDARD
  9
$DIMAUNIT
 70
     0
  9
$LUNITS
 70
     2
  9
$LUPREC
 70
     4
  9
$SKETCHINC
 40
1.0
  9
$FILLETRAD
 40
20.0
  9
$AUNITS
 70
     0
  9
$AUPREC
 70
     0
  9
$MENU
  1
.
  9
$ELEVATION
 40
0.0
  9
$PELEVATION
 40
0.0
  9
$THICKNESS
 40
0.0
  9
$LIMCHECK
 70
     0
  9
$BLIPMODE
 70
     0
  9
$CHAMFERA
 40
20.0
  9
$CHAMFERB
 40
20.0
  9
$CHAMFERC
 40
40.0
  9
$CHAMFERD
 40
0.0
  9
$SKPOLY
 70
     0
  9
$TDCREATE
 40
2451275.567798727
  9
$TDUPDATE
 40
2452393.718442939
  9
$TDINDWG
 40
0.0297961574
  9
$TDUSRTIMER
 40
0.0297961574
  9
$USRTIMER
 70
     1
  9
$ANGBASE
 50
0.0
  9
$ANGDIR
 70
     0
  9
$PDMODE
 70
     0
  9
$PDSIZE
 40
0.0
  9
$PLINEWID
 40
0.0
  9
$COORDS
 70
     1
  9
$SPLFRAME
 70
     0
  9
$SPLINETYPE
 70
     6
  9
$SPLINESEGS
 70
     8
  9
$ATTDIA
 70
     0
  9
$ATTREQ
 70
     1
  9
$HANDLING
 70
 10241
  9
$HANDSEED
  5
B1B
  9
$SURFTAB1
 70
     6
  9
$SURFTAB2
 70
     6
  9
$SURFTYPE
 70
     6
  9
$SURFU
 70
     6
  9
$SURFV
 70
     6
  9
$UCSNAME
  2

  9
$UCSORG
 10
0.0
 20
0.0
 30
0.0
  9
$UCSXDIR
 10
1.0
 20
0.0
 30
0.0
  9
$UCSYDIR
 10
0.0
 20
1.0
 30
0.0
  9
$PUCSNAME
  2

  9
$PUCSORG
 10
0.0
 20
0.0
 30
0.0
  9
$PUCSXDIR
 10
1.0
 20
0.0
 30
0.0
  9
$PUCSYDIR
 10
0.0
 20
1.0
 30
0.0
  9
$USERI1
 70
     0
  9
$USERI2
 70
     0
  9
$USERI3
 70
     0
  9
$USERI4
 70
     0
  9
$USERI5
 70
     0
  9
$USERR1
 40
0.0
  9
$USERR2
 40
0.0
  9
$USERR3
 40
0.0
  9
$USERR4
 40
0.0
  9
$USERR5
 40
0.0
  9
$WORLDVIEW
 70
     1
  9
$SHADEDGE
 70
     3
  9
$SHADEDIF
 70
    70
  9
$TILEMODE
 70
     1
  9
$MAXACTVP
 70
    16
  9
$PINSBASE
 10
0.0
 20
0.0
 30
0.0
  9
$PLIMCHECK
 70
     0
  9
$PEXTMIN
 10
0.0
 20
0.0
 30
0.0
  9
$PEXTMAX
 10
420.0
 20
297.0
 30
0.0
  9
$PLIMMIN
 10
0.0
 20
0.0
  9
$PLIMMAX
 10
420.0
 20
297.0
  9
$UNITMODE
 70
     0
  9
$VISRETAIN
 70
     0
  9
$PLINEGEN
 70
     0
  9
$PSLTSCALE
 70
     1
  9
$TREEDEPTH
 70
  3020
  9
$PICKSTYLE
 70
     1
  9
$CMLSTYLE
  2
STANDARD
  9
$CMLJUST
 70
     0
  9
$CMLSCALE
 40
1.0
  9
$SAVEIMAGES
 70
     1
  0
ENDSEC
  0
SECTION
  2
CLASSES
  0
CLASS
  1
ACDBDICTIONARYWDFLT
  2
AcDbDictionaryWithDefault
  3
AutoCAD 2000
 90
    32768
280
     0
281
     0
  0
CLASS
  1
ACDBPLACEHOLDER
  2
AcDbPlaceHolder
  3
AutoCAD 2000
 90
    32768
280
     0
281
     0
  0
CLASS
  1
LAYOUT
  2
AcDbLayout
  3
AutoCAD 2000
 90
    32768
280
     0
281
     0
  0
CLASS
  1
LONG_TRANSACTION
  2
AcDbLongTransaction
  3
AutoCAD 2000
 90
    32768
280
     0
281
     0
  0
CLASS
  1
LWPOLYLINE
  2
AcDbPolyline
  3
AutoCAD 2000
 90
    32768
280
     0
281
     1
  0
CLASS
  1
HATCH
  2
AcDbHatch
  3
AutoCAD 2000
 90
    32768
280
     0
281
     1
  0
CLASS
  1
XRECORD
  2
AcDbXrecord
  3
AutoCAD 2000
 90
    32768
280
     0
281
     0
  0
CLASS
  1
LONG_TRANSACTION
  2
AcDbLongTransaction
  3
AutoCAD 2000
 90
    32768
280
     0
281
     0
  0
CLASS
  1
LWPOLYLINE
  2
AcDbPolyline
  3
AutoCAD 2000
 90
    32768
280
     0
281
     1
  0
CLASS
  1
HATCH
  2
AcDbHatch
  3
AutoCAD 2000
 90
    32768
280
     0
281
     1
  0
CLASS
  1
XRECORD
  2
AcDbXrecord
  3
AutoCAD 2000
 90
    32768
280
     0
281
     0
  0
CLASS
  1
LONG_TRANSACTION
  2
AcDbLongTransaction
  3
AutoCAD 2000
 90
    32768
280
     0
281
     0
  0
CLASS
  1
LWPOLYLINE
  2
AcDbPolyline
  3
AutoCAD 2000
 90
    32768
280
     0
281
     1
  0
CLASS
  1
HATCH
  2
AcDbHatch
  3
AutoCAD 2000
 90
    32768
280
     0
281
     1
  0
CLASS
  1
XRECORD
  2
AcDbXrecord
  3
AutoCAD 2000
 90
    32768
280
     0
281
     0
  0
ENDSEC
  0
SECTION
  2
TABLES
  0
TABLE
  2
VPORT
  5
8
330
0
100
AcDbSymbolTable
 70
     2
  0
VPORT
  5
B10
330
8
100
AcDbSymbolTableRecord
100
AcDbViewportTableRecord
  2
*ACTIVE
 70
     0
 10
0.0
 20
0.0
 11
1.0
 21
1.0
 12
524.8682981736902
 22
283.7011940200892
 13
0.0
 23
0.0
 14
5.0
 24
5.0
 15
0.0
 25
0.0
 16
0.0
 26
0.0
 36
1.0
 17
0.0
 27
0.0
 37
0.0
 40
581.03024051254
 41
2.169459962756052
 42
50.0
 43
0.0
 44
0.0
 50
0.0
 51
0.0
 71
     0
 72
   100
 73
     1
 74
     0
 75
     0
 76
     0
 77
     0
 78
     0
  0
ENDTAB
  0
TABLE
  2
LTYPE
  5
5
330
0
100
AcDbSymbolTable
 70
     2
  0
LTYPE
  5
14
330
5
100
AcDbSymbolTableRecord
100
AcDbLinetypeTableRecord
  2
BYBLOCK
 70
     0
  3

 72
    65
 73
     0
 40
0.0
  0
LTYPE
  5
15
330
5
100
AcDbSymbolTableRecord
100
AcDbLinetypeTableRecord
  2
BYLAYER
 70
     0
  3

 72
    65
 73
     0
 40
0.0
  0
LTYPE
  5
16
330
5
100
AcDbSymbolTableRecord
100
AcDbLinetypeTableRecord
  2
CONTINUOUS
 70
     0
  3
Solid line
 72
    65
 73
     0
 40
0.0
  0
LTYPE
  5
135
330
5
100
AcDbSymbolTableRecord
100
AcDbLinetypeTableRecord
  2
CENTER
 70
     0
  3
____ _ ____ _ ____ _ ____ _ ____ _ ____ _ ____ 
 72
    65
 73
     4
 40
2.0
 49
1.25
 74
     0
 49
-0.25
 74
     0
 49
0.25
 74
     0
 49
-0.25
 74
     0
  0
ENDTAB
  0
TABLE
  2
LAYER
  5
2
330
0
100
AcDbSymbolTable
 70
     8
  0
LAYER
  5
F
330
2
100
AcDbSymbolTableRecord
100
AcDbLayerTableRecord
  2
0
 70
     0
 62
     7
  6
CONTINUOUS
  0
LAYER
  5
62
330
2
100
AcDbSymbolTableRecord
100
AcDbLayerTableRecord
  2
VIEWPORT
 70
     0
 62
     7
  6
CONTINUOUS
  0
LAYER
  5
65
330
2
100
AcDbSymbolTableRecord
100
AcDbLayerTableRecord
  2
ZUWAKU
 70
     0
 62
     7
  6
CONTINUOUS
  0
LAYER
  5
143
330
2
100
AcDbSymbolTableRecord
100
AcDbLayerTableRecord
  2
SEIHIN
 70
     0
 62
     3
  6
CONTINUOUS
  0
LAYER
  5
144
330
2
100
AcDbSymbolTableRecord
100
AcDbLayerTableRecord
  2
SUNPOU
 70
     0
 62
     4
  6
CONTINUOUS
  0
LAYER
  5
145
330
2
100
AcDbSymbolTableRecord
100
AcDbLayerTableRecord
  2
CENTER_L
 70
     0
 62
     1
  6
CENTER
  0
LAYER
  5
8EC
330
2
100
AcDbSymbolTableRecord
100
AcDbLayerTableRecord
  2
NOKITOI
 70
     0
 62
     6
  6
CONTINUOUS
  0
LAYER
  5
8F5
330
2
100
AcDbSymbolTableRecord
100
AcDbLayerTableRecord
  2
DEFPOINTS
 70
     0
 62
     7
  6
CONTINUOUS
  0
ENDTAB
  0
TABLE
  2
STYLE
  5
3
330
0
100
AcDbSymbolTable
 70
     1
  0
STYLE
  5
10
330
3
100
AcDbSymbolTableRecord
100
AcDbTextStyleTableRecord
  2
STANDARD
 70
     0
 40
0.0
 41
1.0
 50
0.0
 71
     0
 42
5.0
  3
TXT
  4
bigfont.shx
  0
ENDTAB
  0
TABLE
  2
VIEW
  5
6
330
0
100
AcDbSymbolTable
 70
     0
  0
ENDTAB
  0
TABLE
  2
UCS
  5
7
330
0
100
AcDbSymbolTable
 70
     0
  0
ENDTAB
  0
TABLE
  2
APPID
  5
9
330
0
100
AcDbSymbolTable
 70
     1
  0
APPID
  5
11
330
9
100
AcDbSymbolTableRecord
100
AcDbRegAppTableRecord
  2
ACAD
 70
     0
  0
ENDTAB
  0
TABLE
  2
DIMSTYLE
  5
A
330
0
100
AcDbSymbolTable
 70
     1
  0
DIMSTYLE
105
1D
102
{ACAD_REACTORS
330
8FA
330
907
330
914
330
921
330
92D
330
93A
330
9AA
330
9B9
330
9C6
330
9D3
330
9E0
330
A31
330
A66
102
}
330
A
100
AcDbSymbolTableRecord
100
AcDbDimStyleTableRecord
  2
STANDARD
 70
     0
  3

  4

  5

  6

  7

 40
1.0
 41
0.18
 42
0.0625
 43
0.38
 44
0.18
 45
0.0
 46
0.0
 47
0.0
 48
0.0
140
0.18
141
0.09
142
0.0
143
25.4
144
1.0
145
0.0
146
1.0
147
0.09
 71
     0
 72
     0
 73
     1
 74
     1
 75
     0
 76
     0
 77
     0
 78
     0
170
     0
171
     2
172
     0
173
     0
174
     0
175
     0
176
     0
177
     0
178
     0
270
     2
271
     4
272
     4
273
     2
274
     2
340
10
275
     0
280
     0
281
     0
282
     0
283
     1
284
     0
285
     0
286
     0
287
     3
288
     0
  0
ENDTAB
  0
TABLE
  2
BLOCK_RECORD
  5
1
330
0
100
AcDbSymbolTable
 70
    14
  0
BLOCK_RECORD
  5
1A
102
{ACAD_XDICTIONARY
360
ABE
102
}
330
1
100
AcDbSymbolTableRecord
100
AcDbBlockTableRecord
  2
*MODEL_SPACE
  0
BLOCK_RECORD
  5
17
102
{ACAD_XDICTIONARY
360
ABC
102
}
330
1
100
AcDbSymbolTableRecord
100
AcDbBlockTableRecord
  2
*PAPER_SPACE
  0
BLOCK_RECORD
  5
6D
330
1
100
AcDbSymbolTableRecord
100
AcDbBlockTableRecord
  2
_OPEN
  0
BLOCK_RECORD
  5
8ED
330
1
100
AcDbSymbolTableRecord
100
AcDbBlockTableRecord
  2
*D1
  0
BLOCK_RECORD
  5
8FB
330
1
100
AcDbSymbolTableRecord
100
AcDbBlockTableRecord
  2
*D2
  0
BLOCK_RECORD
  5
908
330
1
100
AcDbSymbolTableRecord
100
AcDbBlockTableRecord
  2
*D3
  0
BLOCK_RECORD
  5
915
330
1
100
AcDbSymbolTableRecord
100
AcDbBlockTableRecord
  2
*D4
  0
BLOCK_RECORD
  5
922
330
1
100
AcDbSymbolTableRecord
100
AcDbBlockTableRecord
  2
*D5
  0
BLOCK_RECORD
  5
92E
330
1
100
AcDbSymbolTableRecord
100
AcDbBlockTableRecord
  2
*D6
  0
BLOCK_RECORD
  5
99E
330
1
100
AcDbSymbolTableRecord
100
AcDbBlockTableRecord
  2
*D7
  0
BLOCK_RECORD
  5
9AB
330
1
100
AcDbSymbolTableRecord
100
AcDbBlockTableRecord
  2
*D8
  0
BLOCK_RECORD
  5
9BA
330
1
100
AcDbSymbolTableRecord
100
AcDbBlockTableRecord
  2
*D9
  0
BLOCK_RECORD
  5
9C7
330
1
100
AcDbSymbolTableRecord
100
AcDbBlockTableRecord
  2
*D10
  0
BLOCK_RECORD
  5
9D4
330
1
100
AcDbSymbolTableRecord
100
AcDbBlockTableRecord
  2
*D11
  0
BLOCK_RECORD
  5
A25
330
1
100
AcDbSymbolTableRecord
100
AcDbBlockTableRecord
  2
*D12
  0
BLOCK_RECORD
  5
A5A
330
1
100
AcDbSymbolTableRecord
100
AcDbBlockTableRecord
  2
*D13
  0
ENDTAB
  0
ENDSEC
  0
SECTION
  2
BLOCKS
  0
BLOCK
  5
1B
330
1A
100
AcDbEntity
  8
0
100
AcDbBlockBegin
  2
*MODEL_SPACE
 70
     0
 10
0.0
 20
0.0
 30
0.0
  3
*MODEL_SPACE
  1

  0
ENDBLK
  5
1C
330
1A
100
AcDbEntity
  8
0
100
AcDbBlockEnd
  0
BLOCK
  5
18
330
17
100
AcDbEntity
 67
     1
  8
0
100
AcDbBlockBegin
  2
*PAPER_SPACE
 70
     0
 10
0.0
 20
0.0
 30
0.0
  3
*PAPER_SPACE
  1

  0
ENDBLK
  5
19
330
17
100
AcDbEntity
 67
     1
  8
0
100
AcDbBlockEnd
  0
BLOCK
  5
6E
330
6D
100
AcDbEntity
  8
0
100
AcDbBlockBegin
  2
_OPEN
 70
     0
 10
0.0
 20
0.0
 30
0.0
  3
_OPEN
  1

  0
LINE
  5
6F
330
6D
100
AcDbEntity
  8
0
  6
BYBLOCK
 62
     0
100
AcDbLine
 10
-1.0
 20
0.1666666666666666
 30
0.0
 11
0.0
 21
0.0
 31
0.0
  0
LINE
  5
70
330
6D
100
AcDbEntity
  8
0
  6
BYBLOCK
 62
     0
100
AcDbLine
 10
0.0
 20
0.0
 30
0.0
 11
-1.0
 21
-0.1666666666666666
 31
0.0
  0
LINE
  5
71
330
6D
100
AcDbEntity
  8
0
  6
BYBLOCK
 62
     0
100
AcDbLine
 10
0.0
 20
0.0
 30
0.0
 11
-1.0
 21
0.0
 31
0.0
  0
ENDBLK
  5
72
330
6D
100
AcDbEntity
  8
0
100
AcDbBlockEnd
  0
BLOCK
  5
951
330
8ED
100
AcDbEntity
  8
0
100
AcDbBlockBegin
  2
*D1
 70
     1
 10
0.0
 20
0.0
 30
0.0
  3
*D1
  1

  0
LINE
  5
952
330
8ED
100
AcDbEntity
  8
0
  6
BYBLOCK
 62
     4
100
AcDbLine
 10
217.9140874199229
 20
215.2057263314785
 30
0.0
 11
217.9140874199229
 21
232.1258855567664
 31
0.0
  0
LINE
  5
953
330
8ED
100
AcDbEntity
  8
0
  6
BYBLOCK
 62
     4
100
AcDbLine
 10
77.91408741992302
 20
215.2059263314784
 30
0.0
 11
77.91408741992302
 21
232.1258855567664
 31
0.0
  0
LINE
  5
954
330
8ED
100
AcDbEntity
  8
0
  6
BYBLOCK
 62
     4
100
AcDbLine
 10
210.9140874199229
 20
229.1258855567664
 30
0.0
 11
84.91408741992302
 21
229.1258855567664
 31
0.0
  0
INSERT
  5
955
330
8ED
100
AcDbEntity
  8
0
  6
BYBLOCK
 62
     4
100
AcDbBlockReference
  2
_OPEN
 10
217.9140874199229
 20
229.1258855567664
 30
0.0
 41
7.0
 42
7.0
 43
7.0
  0
INSERT
  5
956
330
8ED
100
AcDbEntity
  8
0
  6
BYBLOCK
 62
     4
100
AcDbBlockReference
  2
_OPEN
 10
77.91408741992302
 20
229.1258855567664
 30
0.0
 41
7.0
 42
7.0
 43
7.0
 50
180.0
  0
MTEXT
  5
957
330
8ED
100
AcDbEntity
  8
0
  6
BYBLOCK
 62
     4
100
AcDbMText
 10
147.9140874199229
 20
234.1258855567664
 30
0.0
 40
6.0
 41
0.0
 71
     5
 72
     1
  1
\A1;φ140
1001
ACAD
1000
MTEXTBEGIN
1070
    73
1070
     1
1070
    44
1040
1.0
1070
    74
1070
     0
1000
MTEXTEND
1000
MTEXTBEGIN
1070
    73
1070
     1
1070
    44
1040
1.0
1070
    74
1070
     0
1000
MTEXTEND
1000
MTEXTBEGIN
1070
    73
1070
     1
1070
    44
1040
1.0
1070
    74
1070
     0
1000
MTEXTEND
  0
POINT
  5
958
330
8ED
100
AcDbEntity
  8
DEFPOINTS
  6
BYBLOCK
 62
     0
100
AcDbPoint
 10
217.9140874199229
 20
209.2057263314785
 30
0.0
  0
POINT
  5
959
330
8ED
100
AcDbEntity
  8
DEFPOINTS
  6
BYBLOCK
 62
     0
100
AcDbPoint
 10
77.91408741992302
 20
209.2059263314784
 30
0.0
  0
POINT
  5
95A
330
8ED
100
AcDbEntity
  8
DEFPOINTS
  6
BYBLOCK
 62
     0
100
AcDbPoint
 10
77.91408741992302
 20
229.1258855567664
 30
0.0
  0
ENDBLK
  5
95B
330
8ED
100
AcDbEntity
  8
0
100
AcDbBlockEnd
  0
BLOCK
  5
972
330
8FB
100
AcDbEntity
  8
0
100
AcDbBlockBegin
  2
*D2
 70
     1
 10
0.0
 20
0.0
 30
0.0
  3
*D2
  1

  0
LINE
  5
973
330
8FB
100
AcDbEntity
  8
0
  6
BYBLOCK
 62
     4
100
AcDbLine
 10
192.513787419923
 20
121.7058263314784
 30
0.0
 11
192.513787419923
 21
97.36579389670669
 31
0.0
  0
LINE
  5
974
330
8FB
100
AcDbEntity
  8
0
  6
BYBLOCK
 62
     4
100
AcDbLine
 10
103.313787419923
 20
121.7060263314784
 30
0.0
 11
103.313787419923
 21
97.36579389670669
 31
0.0
  0
LINE
  5
975
330
8FB
100
AcDbEntity
  8
0
  6
BYBLOCK
 62
     4
100
AcDbLine
 10
185.513787419923
 20
100.3657938967067
 30
0.0
 11
110.313787419923
 21
100.3657938967067
 31
0.0
  0
INSERT
  5
976
330
8FB
100
AcDbEntity
  8
0
  6
BYBLOCK
 62
     4
100
AcDbBlockReference
  2
_OPEN
 10
192.513787419923
 20
100.3657938967067
 30
0.0
 41
7.0
 42
7.0
 43
7.0
  0
INSERT
  5
977
330
8FB
100
AcDbEntity
  8
0
  6
BYBLOCK
 62
     4
100
AcDbBlockReference
  2
_OPEN
 10
103.313787419923
 20
100.3657938967067
 30
0.0
 41
7.0
 42
7.0
 43
7.0
 50
180.0
  0
MTEXT
  5
978
330
8FB
100
AcDbEntity
  8
0
  6
BYBLOCK
 62
     4
100
AcDbMText
 10
147.913787419923
 20
105.3657938967066
 30
0.0
 40
6.0
 41
0.0
 71
     5
 72
     1
  1
\A1;φ89
1001
ACAD
1000
MTEXTBEGIN
1070
    73
1070
     1
1070
    44
1040
1.0
1070
    74
1070
     0
1000
MTEXTEND
1000
MTEXTBEGIN
1070
    73
1070
     1
1070
    44
1040
1.0
1070
    74
1070
     0
1000
MTEXTEND
1000
MTEXTBEGIN
1070
    73
1070
     1
1070
    44
1040
1.0
1070
    74
1070
     0
1000
MTEXTEND
  0
POINT
  5
979
330
8FB
100
AcDbEntity
  8
DEFPOINTS
  6
BYBLOCK
 62
     0
100
AcDbPoint
 10
192.513787419923
 20
127.7058263314784
 30
0.0
  0
POINT
  5
97A
330
8FB
100
AcDbEntity
  8
DEFPOINTS
  6
BYBLOCK
 62
     0
100
AcDbPoint
 10
103.313787419923
 20
127.7060263314784
 30
0.0
  0
POINT
  5
97B
330
8FB
100
AcDbEntity
  8
DEFPOINTS
  6
BYBLOCK
 62
     0
100
AcDbPoint
 10
103.313787419923
 20
100.3657938967067
 30
0.0
  0
ENDBLK
  5
97C
330
8FB
100
AcDbEntity
  8
0
100
AcDbBlockEnd
  0
BLOCK
  5
993
330
908
100
AcDbEntity
  8
0
100
AcDbBlockBegin
  2
*D3
 70
     1
 10
0.0
 20
0.0
 30
0.0
  3
*D3
  1

  0
LINE
  5
994
330
908
100
AcDbEntity
  8
0
  6
BYBLOCK
 62
     4
100
AcDbLine
 10
204.913887419923
 20
156.7057263314785
 30
0.0
 11
204.913887419923
 21
74.61953195429328
 31
0.0
  0
LINE
  5
995
330
908
100
AcDbEntity
  8
0
  6
BYBLOCK
 62
     4
100
AcDbLine
 10
90.91388741992307
 20
156.7061263314785
 30
0.0
 11
90.91388741992307
 21
74.61953195429328
 31
0.0
  0
LINE
  5
996
330
908
100
AcDbEntity
  8
0
  6
BYBLOCK
 62
     4
100
AcDbLine
 10
197.913887419923
 20
77.61953195429327
 30
0.0
 11
97.91388741992307
 21
77.61953195429327
 31
0.0
  0
INSERT
  5
997
330
908
100
AcDbEntity
  8
0
  6
BYBLOCK
 62
     4
100
AcDbBlockReference
  2
_OPEN
 10
204.913887419923
 20
77.61953195429327
 30
0.0
 41
7.0
 42
7.0
 43
7.0
  0
INSERT
  5
998
330
908
100
AcDbEntity
  8
0
  6
BYBLOCK
 62
     4
100
AcDbBlockReference
  2
_OPEN
 10
90.91388741992307
 20
77.61953195429327
 30
0.0
 41
7.0
 42
7.0
 43
7.0
 50
180.0
  0
MTEXT
  5
999
330
908
100
AcDbEntity
  8
0
  6
BYBLOCK
 62
     4
100
AcDbMText
 10
147.913887419923
 20
82.61953195429327
 30
0.0
 40
6.0
 41
0.0
 71
     5
 72
     1
  1
\A1;φ114
1001
ACAD
1000
MTEXTBEGIN
1070
    73
1070
     1
1070
    44
1040
1.0
1070
    74
1070
     0
1000
MTEXTEND
1000
MTEXTBEGIN
1070
    73
1070
     1
1070
    44
1040
1.0
1070
    74
1070
     0
1000
MTEXTEND
1000
MTEXTBEGIN
1070
    73
1070
     1
1070
    44
1040
1.0
1070
    74
1070
     0
1000
MTEXTEND
  0
POINT
  5
99A
330
908
100
AcDbEntity
  8
DEFPOINTS
  6
BYBLOCK
 62
     0
100
AcDbPoint
 10
204.913887419923
 20
162.7057263314785
 30
0.0
  0
POINT
  5
99B
330
908
100
AcDbEntity
  8
DEFPOINTS
  6
BYBLOCK
 62
     0
100
AcDbPoint
 10
90.91388741992307
 20
162.7061263314785
 30
0.0
  0
POINT
  5
99C
330
908
100
AcDbEntity
  8
DEFPOINTS
  6
BYBLOCK
 62
     0
100
AcDbPoint
 10
90.91388741992307
 20
77.61953195429327
 30
0.0
  0
ENDBLK
  5
99D
330
908
100
AcDbEntity
  8
0
100
AcDbBlockEnd
  0
BLOCK
  5
916
330
915
100
AcDbEntity
  8
0
100
AcDbBlockBegin
  2
*D4
 70
     1
 10
0.0
 20
0.0
 30
0.0
  3
*D4
  1

  0
LINE
  5
917
330
915
100
AcDbEntity
  8
0
  6
BYBLOCK
 62
     4
100
AcDbLine
 10
219.9140874199229
 20
205.7057263314785
 30
0.0
 11
239.4914060458181
 21
205.7057263314785
 31
0.0
  0
LINE
  5
918
330
915
100
AcDbEntity
  8
0
  6
BYBLOCK
 62
     4
100
AcDbLine
 10
210.913887419923
 20
162.7057263314785
 30
0.0
 11
239.4914060458181
 21
162.7057263314785
 31
0.0
  0
LINE
  5
919
330
915
100
AcDbEntity
  8
0
  6
BYBLOCK
 62
     4
100
AcDbLine
 10
236.4914060458181
 20
198.7057263314785
 30
0.0
 11
236.4914060458181
 21
169.7057263314785
 31
0.0
  0
INSERT
  5
91A
330
915
100
AcDbEntity
  8
0
  6
BYBLOCK
 62
     4
100
AcDbBlockReference
  2
_OPEN
 10
236.4914060458181
 20
205.7057263314785
 30
0.0
 41
7.0
 42
7.0
 43
7.0
 50
90.0
  0
INSERT
  5
91B
330
915
100
AcDbEntity
  8
0
  6
BYBLOCK
 62
     4
100
AcDbBlockReference
  2
_OPEN
 10
236.4914060458181
 20
162.7057263314785
 30
0.0
 41
7.0
 42
7.0
 43
7.0
 50
270.0
  0
MTEXT
  5
91C
330
915
100
AcDbEntity
  8
0
  6
BYBLOCK
 62
     4
100
AcDbMText
 10
231.4914060458181
 20
184.2057263314785
 30
0.0
 40
6.0
 41
0.0
 71
     5
 72
     1
  1
\A1;43
 11
0.0
 21
1.0
 31
0.0
1001
ACAD
1000
MTEXTBEGIN
1070
    73
1070
     1
1070
    44
1040
1.0
1070
    74
1070
     0
1000
MTEXTEND
1000
MTEXTBEGIN
1070
    73
1070
     1
1070
    44
1040
1.0
1070
    74
1070
     0
1000
MTEXTEND
1000
MTEXTBEGIN
1070
    73
1070
     1
1070
    44
1040
1.0
1070
    74
1070
     0
1000
MTEXTEND
  0
POINT
  5
91D
330
915
100
AcDbEntity
  8
DEFPOINTS
  6
BYBLOCK
 62
     0
100
AcDbPoint
 10
213.9140874199229
 20
205.7057263314785
 30
0.0
  0
POINT
  5
91E
330
915
100
AcDbEntity
  8
DEFPOINTS
  6
BYBLOCK
 62
     0
100
AcDbPoint
 10
204.913887419923
 20
162.7057263314785
 30
0.0
  0
POINT
  5
91F
330
915
100
AcDbEntity
  8
DEFPOINTS
  6
BYBLOCK
 62
     0
100
AcDbPoint
 10
236.4914060458181
 20
162.7057263314785
 30
0.0
  0
ENDBLK
  5
920
330
915
100
AcDbEntity
  8
0
100
AcDbBlockEnd
  0
BLOCK
  5
923
330
922
100
AcDbEntity
  8
0
100
AcDbBlockBegin
  2
*D5
 70
     1
 10
0.0
 20
0.0
 30
0.0
  3
*D5
  1

  0
LINE
  5
B13
330
922
100
AcDbEntity
  8
SUNPOU
  6
CONTINUOUS
 62
     4
100
AcDbLine
 10
229.7022915578003
 20
157.7058263314784
 30
0.0
 11
270.6799101836955
 21
157.7058263314784
 31
0.0
  0
LINE
  5
B14
330
922
100
AcDbEntity
  8
SUNPOU
  6
CONTINUOUS
 62
     4
100
AcDbLine
 10
267.6799101836954
 20
185.7057263314785
 30
0.0
 11
267.6799101836954
 21
164.7058263314784
 31
0.0
  0
INSERT
  5
B15
330
922
100
AcDbEntity
  8
SUNPOU
  6
CONTINUOUS
 62
     4
100
AcDbBlockReference
  2
_OPEN
 10
267.6799101836954
 20
192.7057263314785
 30
0.0
 41
7.0
 42
7.0
 43
7.0
 50
90.0
  0
INSERT
  5
B16
330
922
100
AcDbEntity
  8
SUNPOU
  6
CONTINUOUS
 62
     4
100
AcDbBlockReference
  2
_OPEN
 10
267.6799101836954
 20
157.7058263314784
 30
0.0
 41
7.0
 42
7.0
 43
7.0
 50
270.0
  0
MTEXT
  5
B17
330
922
100
AcDbEntity
  8
SUNPOU
  6
CONTINUOUS
 62
     4
100
AcDbMText
 10
262.6799101836954
 20
175.2057763314785
 30
0.0
 40
6.0
 41
0.0
 71
     5
 72
     1
  1
\A1;35
 11
0.0000000000000001
 21
1.0
 31
0.0
  0
POINT
  5
B18
330
922
100
AcDbEntity
  8
DEFPOINTS
  6
CONTINUOUS
 62
     0
100
AcDbPoint
 10
236.1023915578003
 20
192.7057263314785
 30
0.0
  0
POINT
  5
B19
330
922
100
AcDbEntity
  8
DEFPOINTS
  6
CONTINUOUS
 62
     0
100
AcDbPoint
 10
223.7022915578003
 20
157.7058263314784
 30
0.0
  0
POINT
  5
B1A
330
922
100
AcDbEntity
  8
DEFPOINTS
  6
CONTINUOUS
 62
     0
100
AcDbPoint
 10
267.6799101836954
 20
157.7058263314784
 30
0.0
  0
ENDBLK
  5
92C
330
922
100
AcDbEntity
  8
0
100
AcDbBlockEnd
  0
BLOCK
  5
92F
330
92E
100
AcDbEntity
  8
0
100
AcDbBlockBegin
  2
*D6
 70
     1
 10
0.0
 20
0.0
 30
0.0
  3
*D6
  1

  0
LINE
  5
930
330
92E
100
AcDbEntity
  8
0
  6
BYBLOCK
 62
     4
100
AcDbLine
 10
223.9140874199228
 20
209.2057263314785
 30
0.0
 11
262.2554320638023
 21
209.2057263314785
 31
0.0
  0
LINE
  5
931
330
92E
100
AcDbEntity
  8
0
  6
BYBLOCK
 62
     4
100
AcDbLine
 10
198.513787419923
 20
127.7058263314784
 30
0.0
 11
262.2554320638023
 21
127.7058263314784
 31
0.0
  0
LINE
  5
932
330
92E
100
AcDbEntity
  8
0
  6
BYBLOCK
 62
     4
100
AcDbLine
 10
259.2554320638023
 20
202.2057263314785
 30
0.0
 11
259.2554320638023
 21
134.7058263314784
 31
0.0
  0
INSERT
  5
933
330
92E
100
AcDbEntity
  8
0
  6
BYBLOCK
 62
     4
100
AcDbBlockReference
  2
_OPEN
 10
259.2554320638023
 20
209.2057263314785
 30
0.0
 41
7.0
 42
7.0
 43
7.0
 50
90.0
  0
INSERT
  5
934
330
92E
100
AcDbEntity
  8
0
  6
BYBLOCK
 62
     4
100
AcDbBlockReference
  2
_OPEN
 10
259.2554320638023
 20
127.7058263314784
 30
0.0
 41
7.0
 42
7.0
 43
7.0
 50
270.0
  0
MTEXT
  5
935
330
92E
100
AcDbEntity
  8
0
  6
BYBLOCK
 62
     4
100
AcDbMText
 10
254.2554320638023
 20
168.4557763314785
 30
0.0
 40
6.0
 41
0.0
 71
     5
 72
     1
  1
\A1;81
 11
0.0
 21
1.0
 31
0.0
1001
ACAD
1000
MTEXTBEGIN
1070
    73
1070
     1
1070
    44
1040
1.0
1070
    74
1070
     0
1000
MTEXTEND
1000
MTEXTBEGIN
1070
    73
1070
     1
1070
    44
1040
1.0
1070
    74
1070
     0
1000
MTEXTEND
1000
MTEXTBEGIN
1070
    73
1070
     1
1070
    44
1040
1.0
1070
    74
1070
     0
1000
MTEXTEND
  0
POINT
  5
936
330
92E
100
AcDbEntity
  8
DEFPOINTS
  6
BYBLOCK
 62
     0
100
AcDbPoint
 10
217.9140874199229
 20
209.2057263314785
 30
0.0
  0
POINT
  5
937
330
92E
100
AcDbEntity
  8
DEFPOINTS
  6
BYBLOCK
 62
     0
100
AcDbPoint
 10
192.513787419923
 20
127.7058263314784
 30
0.0
  0
POINT
  5
938
330
92E
100
AcDbEntity
  8
DEFPOINTS
  6
BYBLOCK
 62
     0
100
AcDbPoint
 10
259.2554320638023
 20
127.7058263314784
 30
0.0
  0
ENDBLK
  5
939
330
92E
100
AcDbEntity
  8
0
100
AcDbBlockEnd
  0
BLOCK
  5
A18
330
99E
100
AcDbEntity
  8
0
100
AcDbBlockBegin
  2
*D7
 70
     1
 10
0.0
 20
0.0
 30
0.0
  3
*D7
  1

  0
LINE
  5
A19
330
99E
100
AcDbEntity
  8
0
  6
BYBLOCK
 62
     4
100
AcDbLine
 10
483.64131926406
 20
147.5057056286836
 30
0.0
 11
483.64131926406
 21
122.457362512247
 31
0.0
  0
LINE
  5
A1A
330
99E
100
AcDbEntity
  8
0
  6
BYBLOCK
 62
     4
100
AcDbLine
 10
373.6412371895242
 20
147.5060263314364
 30
0.0
 11
373.6412371895242
 21
122.457362512247
 31
0.0
  0
LINE
  5
A1B
330
99E
100
AcDbEntity
  8
0
  6
BYBLOCK
 62
     4
100
AcDbLine
 10
476.64131926406
 20
125.457362512247
 30
0.0
 11
380.6412371895242
 21
125.457362512247
 31
0.0
  0
INSERT
  5
A1C
330
99E
100
AcDbEntity
  8
0
  6
BYBLOCK
 62
     4
100
AcDbBlockReference
  2
_OPEN
 10
483.64131926406
 20
125.457362512247
 30
0.0
 41
7.0
 42
7.0
 43
7.0
  0
INSERT
  5
A1D
330
99E
100
AcDbEntity
  8
0
  6
BYBLOCK
 62
     4
100
AcDbBlockReference
  2
_OPEN
 10
373.6412371895242
 20
125.457362512247
 30
0.0
 41
7.0
 42
7.0
 43
7.0
 50
180.0
  0
MTEXT
  5
A1E
330
99E
100
AcDbEntity
  8
0
  6
BYBLOCK
 62
     4
100
AcDbMText
 10
428.641278226792
 20
130.457362512247
 30
0.0
 40
6.0
 41
0.0
 71
     5
 72
     1
  1
\A1;φ110
1001
ACAD
1000
MTEXTBEGIN
1070
    73
1070
     1
1070
    44
1040
1.0
1070
    74
1070
     0
1000
MTEXTEND
1000
MTEXTBEGIN
1070
    73
1070
     1
1070
    44
1040
1.0
1070
    74
1070
     0
1000
MTEXTEND
1000
MTEXTBEGIN
1070
    73
1070
     1
1070
    44
1040
1.0
1070
    74
1070
     0
1000
MTEXTEND
  0
POINT
  5
A1F
330
99E
100
AcDbEntity
  8
DEFPOINTS
  6
BYBLOCK
 62
     0
100
AcDbPoint
 10
483.64131926406
 20
153.5057056286836
 30
0.0
  0
POINT
  5
A20
330
99E
100
AcDbEntity
  8
DEFPOINTS
  6
BYBLOCK
 62
     0
100
AcDbPoint
 10
373.6412371895242
 20
153.5060263314363
 30
0.0
  0
POINT
  5
A21
330
99E
100
AcDbEntity
  8
DEFPOINTS
  6
BYBLOCK
 62
     0
100
AcDbPoint
 10
373.6412371895242
 20
125.457362512247
 30
0.0
  0
ENDBLK
  5
A22
330
99E
100
AcDbEntity
  8
0
100
AcDbBlockEnd
  0
BLOCK
  5
9AC
330
9AB
100
AcDbEntity
  8
0
100
AcDbBlockBegin
  2
*D8
 70
     1
 10
0.0
 20
0.0
 30
0.0
  3
*D8
  1

  0
LINE
  5
9AD
330
9AB
100
AcDbEntity
  8
0
  6
BYBLOCK
 62
     4
100
AcDbLine
 10
499.6414280387739
 20
191.5057263314785
 30
0.0
 11
517.1976143346268
 21
191.5057263314785
 31
0.0
  0
LINE
  5
9AE
330
9AB
100
AcDbEntity
  8
0
  6
BYBLOCK
 62
     4
100
AcDbLine
 10
495.6414280387739
 20
193.5057263314785
 30
0.0
 11
517.1976143346268
 21
193.5057263314785
 31
0.0
  0
LINE
  5
9AF
330
9AB
100
AcDbEntity
  8
0
  6
BYBLOCK
 62
     4
100
AcDbLine
 10
514.1976143346268
 20
184.5057263314785
 30
0.0
 11
514.1976143346268
 21
177.5057263314785
 31
0.0
  0
LINE
  5
9B0
330
9AB
100
AcDbEntity
  8
0
  6
BYBLOCK
 62
     4
100
AcDbLine
 10
514.1976143346268
 20
200.5057263314784
 30
0.0
 11
514.1976143346268
 21
215.5057263314785
 31
0.0
  0
LINE
  5
9B1
330
9AB
100
AcDbEntity
  8
0
  6
BYBLOCK
 62
     4
100
AcDbLine
 10
514.1976143346268
 20
191.5057263314785
 30
0.0
 11
514.1976143346268
 21
193.5057263314785
 31
0.0
  0
INSERT
  5
9B2
330
9AB
100
AcDbEntity
  8
0
  6
BYBLOCK
 62
     4
100
AcDbBlockReference
  2
_OPEN
 10
514.1976143346268
 20
191.5057263314785
 30
0.0
 41
7.0
 42
7.0
 43
7.0
 50
90.0
  0
INSERT
  5
9B3
330
9AB
100
AcDbEntity
  8
0
  6
BYBLOCK
 62
     4
100
AcDbBlockReference
  2
_OPEN
 10
514.1976143346268
 20
193.5057263314785
 30
0.0
 41
7.0
 42
7.0
 43
7.0
 50
270.0
  0
MTEXT
  5
9B4
330
9AB
100
AcDbEntity
  8
0
  6
BYBLOCK
 62
     4
100
AcDbMText
 10
509.1976143346268
 20
211.5057263314785
 30
0.0
 40
6.0
 41
0.0
 71
     5
 72
     1
  1
\A1;2
 11
0.0
 21
1.0
 31
0.0
1001
ACAD
1000
MTEXTBEGIN
1070
    73
1070
     1
1070
    44
1040
1.0
1070
    74
1070
     0
1000
MTEXTEND
1000
MTEXTBEGIN
1070
    73
1070
     1
1070
    44
1040
1.0
1070
    74
1070
     0
1000
MTEXTEND
1000
MTEXTBEGIN
1070
    73
1070
     1
1070
    44
1040
1.0
1070
    74
1070
     0
1000
MTEXTEND
  0
POINT
  5
9B5
330
9AB
100
AcDbEntity
  8
DEFPOINTS
  6
BYBLOCK
 62
     0
100
AcDbPoint
 10
493.6414280387739
 20
191.5057263314785
 30
0.0
  0
POINT
  5
9B6
330
9AB
100
AcDbEntity
  8
DEFPOINTS
  6
BYBLOCK
 62
     0
100
AcDbPoint
 10
489.6414280387739
 20
193.5057263314785
 30
0.0
  0
POINT
  5
9B7
330
9AB
100
AcDbEntity
  8
DEFPOINTS
  6
BYBLOCK
 62
     0
100
AcDbPoint
 10
514.1976143346268
 20
193.5057263314785
 30
0.0
  0
ENDBLK
  5
9B8
330
9AB
100
AcDbEntity
  8
0
100
AcDbBlockEnd
  0
BLOCK
  5
9BB
330
9BA
100
AcDbEntity
  8
0
100
AcDbBlockBegin
  2
*D9
 70
     1
 10
0.0
 20
0.0
 30
0.0
  3
*D9
  1

  0
LINE
  5
9BC
330
9BA
100
AcDbEntity
  8
0
  6
BYBLOCK
 62
     4
100
AcDbLine
 10
499.6414280387739
 20
191.5057263314785
 30
0.0
 11
536.1982587684797
 21
191.5057263314785
 31
0.0
  0
LINE
  5
9BD
330
9BA
100
AcDbEntity
  8
0
  6
BYBLOCK
 62
     4
100
AcDbLine
 10
487.475737189524
 20
151.5058263314364
 30
0.0
 11
536.1982587684797
 21
151.5058263314364
 31
0.0
  0
LINE
  5
9BE
330
9BA
100
AcDbEntity
  8
0
  6
BYBLOCK
 62
     4
100
AcDbLine
 10
533.1982587684797
 20
184.5057263314785
 30
0.0
 11
533.1982587684797
 21
158.5058263314364
 31
0.0
  0
INSERT
  5
9BF
330
9BA
100
AcDbEntity
  8
0
  6
BYBLOCK
 62
     4
100
AcDbBlockReference
  2
_OPEN
 10
533.1982587684797
 20
191.5057263314785
 30
0.0
 41
7.0
 42
7.0
 43
7.0
 50
90.0
  0
INSERT
  5
9C0
330
9BA
100
AcDbEntity
  8
0
  6
BYBLOCK
 62
     4
100
AcDbBlockReference
  2
_OPEN
 10
533.1982587684797
 20
151.5058263314364
 30
0.0
 41
7.0
 42
7.0
 43
7.0
 50
270.0
  0
MTEXT
  5
9C1
330
9BA
100
AcDbEntity
  8
0
  6
BYBLOCK
 62
     4
100
AcDbMText
 10
528.1982587684797
 20
171.5057763314574
 30
0.0
 40
6.0
 41
0.0
 71
     5
 72
     1
  1
\A1;40
 11
0.0
 21
1.0
 31
0.0
1001
ACAD
1000
MTEXTBEGIN
1070
    73
1070
     1
1070
    44
1040
1.0
1070
    74
1070
     0
1000
MTEXTEND
1000
MTEXTBEGIN
1070
    73
1070
     1
1070
    44
1040
1.0
1070
    74
1070
     0
1000
MTEXTEND
1000
MTEXTBEGIN
1070
    73
1070
     1
1070
    44
1040
1.0
1070
    74
1070
     0
1000
MTEXTEND
  0
POINT
  5
9C2
330
9BA
100
AcDbEntity
  8
DEFPOINTS
  6
BYBLOCK
 62
     0
100
AcDbPoint
 10
493.6414280387739
 20
191.5057263314785
 30
0.0
  0
POINT
  5
9C3
330
9BA
100
AcDbEntity
  8
DEFPOINTS
  6
BYBLOCK
 62
     0
100
AcDbPoint
 10
481.4757371895241
 20
151.5058263314364
 30
0.0
  0
POINT
  5
9C4
330
9BA
100
AcDbEntity
  8
DEFPOINTS
  6
BYBLOCK
 62
     0
100
AcDbPoint
 10
533.1982587684797
 20
151.5058263314364
 30
0.0
  0
ENDBLK
  5
9C5
330
9BA
100
AcDbEntity
  8
0
100
AcDbBlockEnd
  0
BLOCK
  5
9C8
330
9C7
100
AcDbEntity
  8
0
100
AcDbBlockBegin
  2
*D10
 70
     1
 10
0.0
 20
0.0
 30
0.0
  3
*D10
  1

  0
LINE
  5
9C9
330
9C7
100
AcDbEntity
  8
0
  6
BYBLOCK
 62
     4
100
AcDbLine
 10
454.6415280387741
 20
228.5878965162952
 30
0.0
 11
557.0467669538024
 21
228.5878965162952
 31
0.0
  0
LINE
  5
9CA
330
9C7
100
AcDbEntity
  8
0
  6
BYBLOCK
 62
     4
100
AcDbLine
 10
487.475737189524
 20
151.5058263314364
 30
0.0
 11
557.0467669538024
 21
151.5058263314364
 31
0.0
  0
LINE
  5
9CB
330
9C7
100
AcDbEntity
  8
0
  6
BYBLOCK
 62
     4
100
AcDbLine
 10
554.0467669538024
 20
221.5878965162951
 30
0.0
 11
554.0467669538024
 21
158.5058263314364
 31
0.0
  0
INSERT
  5
9CC
330
9C7
100
AcDbEntity
  8
0
  6
BYBLOCK
 62
     4
100
AcDbBlockReference
  2
_OPEN
 10
554.0467669538024
 20
228.5878965162952
 30
0.0
 41
7.0
 42
7.0
 43
7.0
 50
90.0
  0
INSERT
  5
9CD
330
9C7
100
AcDbEntity
  8
0
  6
BYBLOCK
 62
     4
100
AcDbBlockReference
  2
_OPEN
 10
554.0467669538024
 20
151.5058263314364
 30
0.0
 41
7.0
 42
7.0
 43
7.0
 50
270.0
  0
MTEXT
  5
9CE
330
9C7
100
AcDbEntity
  8
0
  6
BYBLOCK
 62
     4
100
AcDbMText
 10
549.0467669538024
 20
190.0468614238658
 30
0.0
 40
6.0
 41
0.0
 71
     5
 72
     1
  1
\A1;77
 11
0.0
 21
1.0
 31
0.0
1001
ACAD
1000
MTEXTBEGIN
1070
    73
1070
     1
1070
    44
1040
1.0
1070
    74
1070
     0
1000
MTEXTEND
1000
MTEXTBEGIN
1070
    73
1070
     1
1070
    44
1040
1.0
1070
    74
1070
     0
1000
MTEXTEND
1000
MTEXTBEGIN
1070
    73
1070
     1
1070
    44
1040
1.0
1070
    74
1070
     0
1000
MTEXTEND
  0
POINT
  5
9CF
330
9C7
100
AcDbEntity
  8
DEFPOINTS
  6
BYBLOCK
 62
     0
100
AcDbPoint
 10
448.641528038774
 20
228.5878965162952
 30
0.0
  0
POINT
  5
9D0
330
9C7
100
AcDbEntity
  8
DEFPOINTS
  6
BYBLOCK
 62
     0
100
AcDbPoint
 10
481.4757371895241
 20
151.5058263314364
 30
0.0
  0
POINT
  5
9D1
330
9C7
100
AcDbEntity
  8
DEFPOINTS
  6
BYBLOCK
 62
     0
100
AcDbPoint
 10
554.0467669538024
 20
151.5058263314364
 30
0.0
  0
ENDBLK
  5
9D2
330
9C7
100
AcDbEntity
  8
0
100
AcDbBlockEnd
  0
BLOCK
  5
9F7
330
9D4
100
AcDbEntity
  8
0
100
AcDbBlockBegin
  2
*D11
 70
     1
 10
0.0
 20
0.0
 30
0.0
  3
*D11
  1

  0
LINE
  5
9F8
330
9D4
100
AcDbEntity
  8
0
  6
BYBLOCK
 62
     4
100
AcDbLine
 10
477.8913280387739
 20
217.2495263314784
 30
0.0
 11
477.8913280387739
 21
253.841773833285
 31
0.0
  0
LINE
  5
9F9
330
9D4
100
AcDbEntity
  8
0
  6
BYBLOCK
 62
     4
100
AcDbLine
 10
379.3912280387739
 20
217.2495263314784
 30
0.0
 11
379.3912280387739
 21
253.841773833285
 31
0.0
  0
LINE
  5
9FA
330
9D4
100
AcDbEntity
  8
0
  6
BYBLOCK
 62
     4
100
AcDbLine
 10
470.8913280387739
 20
250.841773833285
 30
0.0
 11
386.391228038774
 21
250.841773833285
 31
0.0
  0
INSERT
  5
9FB
330
9D4
100
AcDbEntity
  8
0
  6
BYBLOCK
 62
     4
100
AcDbBlockReference
  2
_OPEN
 10
477.8913280387739
 20
250.841773833285
 30
0.0
 41
7.0
 42
7.0
 43
7.0
  0
INSERT
  5
9FC
330
9D4
100
AcDbEntity
  8
0
  6
BYBLOCK
 62
     4
100
AcDbBlockReference
  2
_OPEN
 10
379.3912280387739
 20
250.841773833285
 30
0.0
 41
7.0
 42
7.0
 43
7.0
 50
180.0
  0
MTEXT
  5
9FD
330
9D4
100
AcDbEntity
  8
0
  6
BYBLOCK
 62
     4
100
AcDbMText
 10
428.6412780387739
 20
255.841773833285
 30
0.0
 40
6.0
 41
0.0
 71
     5
 72
     1
  1
\A1;φ99
1001
ACAD
1000
MTEXTBEGIN
1070
    73
1070
     1
1070
    44
1040
1.0
1070
    74
1070
     0
1000
MTEXTEND
1000
MTEXTBEGIN
1070
    73
1070
     1
1070
    44
1040
1.0
1070
    74
1070
     0
1000
MTEXTEND
1000
MTEXTBEGIN
1070
    73
1070
     1
1070
    44
1040
1.0
1070
    74
1070
     0
1000
MTEXTEND
  0
POINT
  5
9FE
330
9D4
100
AcDbEntity
  8
DEFPOINTS
  6
BYBLOCK
 62
     0
100
AcDbPoint
 10
477.8913280387739
 20
211.2495263314784
 30
0.0
  0
POINT
  5
9FF
330
9D4
100
AcDbEntity
  8
DEFPOINTS
  6
BYBLOCK
 62
     0
100
AcDbPoint
 10
379.3912280387739
 20
211.2495263314784
 30
0.0
  0
POINT
  5
A00
330
9D4
100
AcDbEntity
  8
DEFPOINTS
  6
BYBLOCK
 62
     0
100
AcDbPoint
 10
379.3912280387739
 20
250.841773833285
 30
0.0
  0
ENDBLK
  5
A01
330
9D4
100
AcDbEntity
  8
0
100
AcDbBlockEnd
  0
BLOCK
  5
A48
330
A25
100
AcDbEntity
  8
0
100
AcDbBlockBegin
  2
*D12
 70
     1
 10
0.0
 20
0.0
 30
0.0
  3
*D12
  1

  0
LINE
  5
A49
330
A25
100
AcDbEntity
  8
0
  6
BYBLOCK
 62
     4
100
AcDbLine
 10
732.6176069351816
 20
370.1807155191129
 30
0.0
 11
732.6176069351816
 21
314.9322129812208
 31
0.0
  0
LINE
  5
A4A
330
A25
100
AcDbEntity
  8
0
  6
BYBLOCK
 62
     4
100
AcDbLine
 10
622.1174844629664
 20
366.1262466547587
 30
0.0
 11
622.1174844629664
 21
314.9322129812208
 31
0.0
  0
LINE
  5
A4B
330
A25
100
AcDbEntity
  8
0
  6
BYBLOCK
 62
     4
100
AcDbLine
 10
725.6176069351815
 20
317.9322129812208
 30
0.0
 11
629.1174844629664
 21
317.9322129812208
 31
0.0
  0
INSERT
  5
A4C
330
A25
100
AcDbEntity
  8
0
  6
BYBLOCK
 62
     4
100
AcDbBlockReference
  2
_OPEN
 10
732.6176069351816
 20
317.9322129812208
 30
0.0
 41
7.0
 42
7.0
 43
7.0
  0
INSERT
  5
A4D
330
A25
100
AcDbEntity
  8
0
  6
BYBLOCK
 62
     4
100
AcDbBlockReference
  2
_OPEN
 10
622.1174844629664
 20
317.9322129812208
 30
0.0
 41
7.0
 42
7.0
 43
7.0
 50
180.0
  0
MTEXT
  5
A4E
330
A25
100
AcDbEntity
  8
0
  6
BYBLOCK
 62
     4
100
AcDbMText
 10
677.3675456990741
 20
322.9322129812207
 30
0.0
 40
6.0
 41
0.0
 71
     5
 72
     1
  1
\A1;穴径 φ111
1001
ACAD
1000
MTEXTBEGIN
1070
    73
1070
     1
1070
    44
1040
1.0
1070
    74
1070
     0
1000
MTEXTEND
1000
MTEXTBEGIN
1070
    73
1070
     1
1070
    44
1040
1.0
1070
    74
1070
     0
1000
MTEXTEND
1000
MTEXTBEGIN
1070
    73
1070
     1
1070
    44
1040
1.0
1070
    74
1070
     0
1000
MTEXTEND
  0
POINT
  5
A4F
330
A25
100
AcDbEntity
  8
DEFPOINTS
  6
BYBLOCK
 62
     0
100
AcDbPoint
 10
732.6176069351816
 20
376.1807155191129
 30
0.0
  0
POINT
  5
A50
330
A25
100
AcDbEntity
  8
DEFPOINTS
  6
BYBLOCK
 62
     0
100
AcDbPoint
 10
622.1174844629664
 20
372.1262466547587
 30
0.0
  0
POINT
  5
A51
330
A25
100
AcDbEntity
  8
DEFPOINTS
  6
BYBLOCK
 62
     0
100
AcDbPoint
 10
622.1174844629664
 20
317.9322129812208
 30
0.0
  0
ENDBLK
  5
A52
330
A25
100
AcDbEntity
  8
0
100
AcDbBlockEnd
  0
BLOCK
  5
A7D
330
A5A
100
AcDbEntity
  8
0
100
AcDbBlockBegin
  2
*D13
 70
     1
 10
0.0
 20
0.0
 30
0.0
  3
*D13
  1

  0
LINE
  5
A7E
330
A5A
100
AcDbEntity
  8
0
  6
BYBLOCK
 62
     4
100
AcDbLine
 10
464.8299321766512
 20
203.5057263314784
 30
0.0
 11
464.8299321766512
 21
277.6225967724869
 31
0.0
  0
LINE
  5
A7F
330
A5A
100
AcDbEntity
  8
0
  6
BYBLOCK
 62
     4
100
AcDbLine
 10
334.8298321766514
 20
203.5062263314785
 30
0.0
 11
334.8298321766514
 21
277.6225967724869
 31
0.0
  0
LINE
  5
A80
330
A5A
100
AcDbEntity
  8
0
  6
BYBLOCK
 62
     4
100
AcDbLine
 10
457.8299321766512
 20
274.6225967724869
 30
0.0
 11
341.8298321766513
 21
274.6225967724869
 31
0.0
  0
INSERT
  5
A81
330
A5A
100
AcDbEntity
  8
0
  6
BYBLOCK
 62
     4
100
AcDbBlockReference
  2
_OPEN
 10
464.8299321766512
 20
274.6225967724869
 30
0.0
 41
7.0
 42
7.0
 43
7.0
  0
INSERT
  5
A82
330
A5A
100
AcDbEntity
  8
0
  6
BYBLOCK
 62
     4
100
AcDbBlockReference
  2
_OPEN
 10
334.8298321766514
 20
274.6225967724869
 30
0.0
 41
7.0
 42
7.0
 43
7.0
 50
180.0
  0
MTEXT
  5
A83
330
A5A
100
AcDbEntity
  8
0
  6
BYBLOCK
 62
     4
100
AcDbMText
 10
399.8298821766513
 20
279.6225967724869
 30
0.0
 40
6.0
 41
0.0
 71
     5
 72
     1
  1
\A1;φ130
1001
ACAD
1000
MTEXTBEGIN
1070
    73
1070
     1
1070
    44
1040
1.0
1070
    74
1070
     0
1000
MTEXTEND
1000
MTEXTBEGIN
1070
    73
1070
     1
1070
    44
1040
1.0
1070
    74
1070
     0
1000
MTEXTEND
1000
MTEXTBEGIN
1070
    73
1070
     1
1070
    44
1040
1.0
1070
    74
1070
     0
1000
MTEXTEND
  0
POINT
  5
A84
330
A5A
100
AcDbEntity
  8
DEFPOINTS
  6
BYBLOCK
 62
     0
100
AcDbPoint
 10
464.8299321766512
 20
197.5057263314784
 30
0.0
  0
POINT
  5
A85
330
A5A
100
AcDbEntity
  8
DEFPOINTS
  6
BYBLOCK
 62
     0
100
AcDbPoint
 10
334.8298321766514
 20
197.5062263314785
 30
0.0
  0
POINT
  5
A86
330
A5A
100
AcDbEntity
  8
DEFPOINTS
  6
BYBLOCK
 62
     0
100
AcDbPoint
 10
334.8298321766514
 20
274.6225967724869
 30
0.0
  0
ENDBLK
  5
A87
330
A5A
100
AcDbEntity
  8
0
100
AcDbBlockEnd
  0
ENDSEC
  0
SECTION
  2
ENTITIES
  0
TEXT
  5
11A
330
1A
100
AcDbEntity
  8
ZUWAKU
 62
     7
 48
10.0
100
AcDbText
 10
795.5579444309237
 20
4.974918402528146
 30
0.0
 40
8.0
  1
A1
100
AcDbText
  0
LINE
  5
11B
330
1A
100
AcDbEntity
  8
ZUWAKU
 62
     7
 48
10.0
100
AcDbLine
 10
10.05047808566086
 20
25.78258628282265
 30
0.0
 11
806.0504780856609
 21
25.78258628282253
 31
0.0
  0
LINE
  5
11C
330
1A
100
AcDbEntity
  8
ZUWAKU
  6
CONTINUOUS
 62
     7
100
AcDbLine
 10
806.0504780856609
 20
563.7825862828226
 30
0.0
 11
10.05047808566086
 21
563.7825862828226
 31
0.0
  0
LINE
  5
11D
330
1A
100
AcDbEntity
  8
ZUWAKU
  6
CONTINUOUS
 62
     7
100
AcDbLine
 10
806.0504780856609
 20
13.78258628282265
 30
0.0
 11
10.05047808566086
 21
13.78258628282265
 31
0.0
  0
LINE
  5
11E
330
1A
100
AcDbEntity
  8
ZUWAKU
  6
CONTINUOUS
 62
     7
100
AcDbLine
 10
10.05047808566086
 20
563.7825862828226
 30
0.0
 11
10.05047808566086
 21
13.78258628282265
 31
0.0
  0
LINE
  5
11F
330
1A
100
AcDbEntity
  8
ZUWAKU
 62
     7
 48
10.0
100
AcDbLine
 10
44.55797523147839
 20
13.78258628282265
 30
0.0
 11
44.5579752314784
 21
25.78258628282265
 31
0.0
  0
TEXT
  5
120
330
1A
100
AcDbEntity
  8
ZUWAKU
 62
     7
100
AcDbText
 10
16.05676551180931
 20
15.52294263804401
 30
0.0
 40
8.0
  1
品 種
100
AcDbText
  0
LINE
  5
121
330
1A
100
AcDbEntity
  8
ZUWAKU
 62
     7
 48
10.0
100
AcDbLine
 10
276.1028387068254
 20
13.78258628282265
 30
0.0
 11
276.1028387068254
 21
25.78258628282261
 31
0.0
  0
LINE
  5
122
330
1A
100
AcDbEntity
  8
ZUWAKU
 62
     7
 48
10.0
100
AcDbLine
 10
209.5138526425484
 20
13.78258628282265
 30
0.0
 11
209.5138526425485
 21
25.78258628282263
 31
0.0
  0
TEXT
  5
124
330
1A
100
AcDbEntity
  8
ZUWAKU
 62
     7
100
AcDbText
 10
215.4560837190756
 20
16.18358115302453
 30
0.0
 40
8.0
  1
品名・ｻ ｲ ｽﾞ
100
AcDbText
  0
LINE
  5
126
330
1A
100
AcDbEntity
  8
ZUWAKU
 62
     7
 48
10.0
100
AcDbLine
 10
768.7231079932794
 20
13.78258628282237
 30
0.0
 11
768.7231079932794
 21
25.78258628282254
 31
0.0
  0
LINE
  5
127
330
1A
100
AcDbEntity
  8
ZUWAKU
 62
     7
 48
10.0
100
AcDbLine
 10
733.8119002376948
 20
13.78258628282242
 30
0.0
 11
733.8119002376946
 21
25.78258628282254
 31
0.0
  0
TEXT
  5
128
330
1A
100
AcDbEntity
  8
ZUWAKU
 62
     7
100
AcDbText
 10
739.6955629973526
 20
15.24227755810852
 30
0.0
 40
8.0
  1
尺 度
100
AcDbText
  0
TEXT
  5
129
330
1A
100
AcDbEntity
  8
ZUWAKU
 62
     7
100
AcDbText
 10
779.7374630323229
 20
15.55488920081529
 30
0.0
 40
8.0
  1
1/2
100
AcDbText
  0
TEXT
  5
12B
330
1A
100
AcDbEntity
  8
ZUWAKU
 62
     7
100
AcDbText
 10
620.3363288383084
 20
15.6519090944263
 30
0.0
 40
8.0
  1
品 番
100
AcDbText
  0
LINE
  5
12C
330
1A
100
AcDbEntity
  8
ZUWAKU
 62
     7
 48
10.0
100
AcDbLine
 10
614.3351028194128
 20
13.78258628282232
 30
0.0
 11
614.3351028194128
 21
25.78258628282256
 31
0.0
  0
LINE
  5
12D
330
1A
100
AcDbEntity
  8
ZUWAKU
 62
     7
 48
10.0
100
AcDbLine
 10
648.7607587371021
 20
13.78258628282232
 30
0.0
 11
648.7607587371021
 21
25.78258628282255
 31
0.0
  0
TEXT
  5
12E
330
1A
100
AcDbEntity
  8
ZUWAKU
 62
     7
 48
10.0
100
AcDbText
 10
646.2758615931216
 20
4.949376903717848
 30
0.0
 40
8.0
  1
積水化学工業株式会社  建材
100
AcDbText
  0
LINE
  5
12F
330
1A
100
AcDbEntity
  8
ZUWAKU
  6
CONTINUOUS
 62
     7
100
AcDbLine
 10
806.0504780856609
 20
563.7825862828226
 30
0.0
 11
806.0504780856609
 21
13.78258628282265
 31
0.0
  0
TEXT
  5
3EE
330
1A
100
AcDbEntity
  8
ZUWAKU
 62
     7
100
AcDbText
 10
50.3519382305086
 20
16.10306189639755
 30
0.0
 40
8.0
  1
自在ドレン
100
AcDbText
  0
TEXT
  5
3FB
330
1A
100
AcDbEntity
  8
ZUWAKU
 62
     7
100
AcDbText
 10
282.3131429914078
 20
15.64241700452384
 30
0.0
 40
8.0
  1
ＶＵＴ１００－７５
100
AcDbText
  0
LINE
  5
410
330
1A
100
AcDbEntity
  8
SEIHIN
  6
CONTINUOUS
100
AcDbLine
 10
236.1024915578003
 20
232.7058263314784
 30
0.0
 11
122.1025915588003
 21
232.7064263330575
 31
0.0
  0
LINE
  5
411
330
1A
100
AcDbEntity
  8
SEIHIN
  6
CONTINUOUS
100
AcDbLine
 10
249.1025915578002
 20
237.2057263314785
 30
0.0
 11
109.1025915578003
 21
237.2065263326214
 31
0.0
  0
LINE
  5
412
330
1A
100
AcDbEntity
  8
SEIHIN
  6
CONTINUOUS
100
AcDbLine
 10
113.102858229854
 20
235.7061263294583
 30
0.0
 11
245.1025915578002
 21
235.7057263314785
 31
0.0
  0
LINE
  5
415
330
1A
100
AcDbEntity
  8
SEIHIN
  6
CONTINUOUS
100
AcDbLine
 10
109.1025915578003
 20
239.2059263314784
 30
0.0
 11
249.1025915578002
 21
239.2057263314785
 31
0.0
  0
LINE
  5
417
330
1A
100
AcDbEntity
  8
SEIHIN
  6
CONTINUOUS
100
AcDbLine
 10
134.5022915578004
 20
157.7060263314784
 30
0.0
 11
223.7022915578003
 21
157.7058263314784
 31
0.0
  0
LINE
  5
418
330
1A
100
AcDbEntity
  8
SEIHIN
  6
CONTINUOUS
100
AcDbLine
 10
122.1023915578003
 20
192.7061263307768
 30
0.0
 11
236.1023915578003
 21
192.7057263314785
 31
0.0
  0
LINE
  5
41C
330
1A
100
AcDbEntity
  8
SEIHIN
  6
CONTINUOUS
100
AcDbLine
 10
122.1023915578003
 20
192.7061263314785
 30
0.0
 11
122.1025915578003
 21
232.7062263314784
 31
0.0
  0
LINE
  5
41D
330
1A
100
AcDbEntity
  8
CENTER_L
 48
5.0
100
AcDbLine
 10
179.1022915578003
 20
151.9918263314784
 30
0.0
 11
179.1025662365876
 21
246.2058263315217
 31
0.0
  0
LINE
  5
41F
330
1A
100
AcDbEntity
  8
SEIHIN
  6
CONTINUOUS
100
AcDbLine
 10
134.5022915578004
 20
157.7060263314784
 30
0.0
 11
134.5024915578003
 21
192.7061263314785
 31
0.0
  0
LINE
  5
429
330
1A
100
AcDbEntity
  8
SEIHIN
  6
CONTINUOUS
100
AcDbLine
 10
109.1025915578003
 20
237.2062263314784
 30
0.0
 11
109.1025915578003
 21
239.2062263314784
 31
0.0
  0
LINE
  5
42A
330
1A
100
AcDbEntity
  8
SEIHIN
  6
CONTINUOUS
100
AcDbLine
 10
113.1025915578003
 20
235.7062263314785
 30
0.0
 11
109.1025915578003
 21
237.2062263314784
 31
0.0
  0
LINE
  5
42B
330
1A
100
AcDbEntity
  8
SEIHIN
  6
CONTINUOUS
100
AcDbLine
 10
122.1025915578003
 20
232.7062263314784
 30
0.0
 11
119.1025915578003
 21
235.7062263314785
 31
0.0
  0
LINE
  5
44B
330
1A
100
AcDbEntity
  8
SEIHIN
  6
CONTINUOUS
100
AcDbLine
 10
236.1023915578003
 20
192.7057263314785
 30
0.0
 11
236.1025915578002
 21
232.7058263314784
 31
0.0
  0
LINE
  5
452
330
1A
100
AcDbEntity
  8
SEIHIN
  6
CONTINUOUS
100
AcDbLine
 10
223.7022915578003
 20
157.7058263314784
 30
0.0
 11
223.7023915578002
 21
192.7058263314784
 31
0.0
  0
LINE
  5
477
330
1A
100
AcDbEntity
  8
SEIHIN
  6
CONTINUOUS
100
AcDbLine
 10
236.1024915578003
 20
232.7058263314784
 30
0.0
 11
239.1024915578002
 21
235.7057263314785
 31
0.0
  0
LINE
  5
479
330
1A
100
AcDbEntity
  8
SEIHIN
  6
CONTINUOUS
100
AcDbLine
 10
249.1025915578002
 20
237.2057263314785
 30
0.0
 11
249.1025915578002
 21
239.2057263314785
 31
0.0
  0
LINE
  5
47A
330
1A
100
AcDbEntity
  8
SEIHIN
  6
CONTINUOUS
100
AcDbLine
 10
245.1025915578002
 20
235.7057263314785
 30
0.0
 11
249.1025915578002
 21
237.2057263314785
 31
0.0
  0
ARC
  5
4A7
330
1A
100
AcDbEntity
  8
SEIHIN
  6
CONTINUOUS
100
AcDbCircle
 10
179.1029916398798
 20
397.2915662221527
 30
0.0
 40
69.99999991793825
100
AcDbArc
 50
0.0000409255567862
 51
359.9999590744431
  0
LINE
  5
4A9
330
1A
100
AcDbEntity
  8
CENTER_L
 48
5.0
100
AcDbLine
 10
101.1965915578003
 20
397.2918162221525
 30
0.0
 11
256.8808915578002
 21
397.2915162221527
 31
0.0
  0
LINE
  5
4AF
330
1A
100
AcDbEntity
  8
CENTER_L
 48
5.0
100
AcDbLine
 10
179.1031915578002
 20
471.9667162221528
 30
0.0
 11
179.1028915578003
 21
318.9553162221528
 31
0.0
  0
TEXT
  5
4F5
330
1A
100
AcDbEntity
  8
ZUWAKU
 62
     7
100
AcDbText
 10
654.2531733678779
 20
15.90287984531518
 30
0.0
 40
8.0
  1
ＧＦ０３
100
AcDbText
  0
LINE
  5
4F9
330
1A
100
AcDbEntity
  8
SEIHIN
  6
CONTINUOUS
100
AcDbLine
 10
722.2044513216412
 20
240.1408092206795
 30
0.0
 11
667.2045513216412
 21
240.1408092206795
 31
0.0
  0
LINE
  5
4FA
330
1A
100
AcDbEntity
  8
SEIHIN
  6
CONTINUOUS
100
AcDbLine
 10
734.2047513216412
 20
244.8125092206795
 30
0.0
 11
667.2047513216412
 21
244.8126092206794
 31
0.0
  0
LINE
  5
4FB
330
1A
100
AcDbEntity
  8
SEIHIN
  6
CONTINUOUS
100
AcDbLine
 10
667.2047513216412
 20
245.8126092206794
 30
0.0
 11
737.2047513216411
 21
245.8125092206795
 31
0.0
  0
LINE
  5
4FC
330
1A
100
AcDbEntity
  8
SEIHIN
  6
CONTINUOUS
100
AcDbLine
 10
667.204451321641
 20
164.3127092206794
 30
0.0
 11
711.8045513216413
 21
164.3126092206794
 31
0.0
  0
LINE
  5
4FD
330
1A
100
AcDbEntity
  8
SEIHIN
  6
CONTINUOUS
100
AcDbLine
 10
667.204451321641
 20
201.3127092206795
 30
0.0
 11
722.2044513216412
 21
201.3125092206795
 31
0.0
  0
LINE
  5
4FE
330
1A
100
AcDbEntity
  8
SEIHIN
  6
CONTINUOUS
100
AcDbLine
 10
612.2048513216411
 20
201.3130092206795
 30
0.0
 11
612.2048513216411
 21
240.1412092206795
 31
0.0
  0
LINE
  5
4FF
330
1A
100
AcDbEntity
  8
SEIHIN
  6
CONTINUOUS
100
AcDbLine
 10
610.2046513216412
 20
199.3129092206795
 30
0.0
 11
610.2047513216413
 21
239.3130092206794
 31
0.0
  0
LINE
  5
500
330
1A
100
AcDbEntity
  8
CENTER_L
 48
5.0
100
AcDbLine
 10
667.204451321641
 20
158.5986092206794
 30
0.0
 11
667.2047513216412
 21
255.2742092206794
 31
0.0
  0
LINE
  5
501
330
1A
100
AcDbEntity
  8
SEIHIN
  6
CONTINUOUS
100
AcDbLine
 10
630.6776513216414
 20
227.3128092206794
 30
0.0
 11
621.0592513216413
 21
226.2635092206795
 31
0.0
  0
LINE
  5
502
330
1A
100
AcDbEntity
  8
SEIHIN
  6
CONTINUOUS
100
AcDbLine
 10
644.3004513216412
 20
227.3127092206794
 30
0.0
 11
622.2810513216414
 21
224.9107092206795
 31
0.0
  0
LINE
  5
503
330
1A
100
AcDbEntity
  8
SEIHIN
  6
CONTINUOUS
100
AcDbLine
 10
648.8732513216413
 20
227.3127092206794
 30
0.0
 11
622.2810513216414
 21
224.4118092206795
 31
0.0
  0
LINE
  5
504
330
1A
100
AcDbEntity
  8
SEIHIN
  6
CONTINUOUS
100
AcDbLine
 10
625.1332513216412
 20
201.3129092206795
 30
0.0
 11
612.2048513216411
 21
201.3129092206795
 31
0.0
  0
LINE
  5
505
330
1A
100
AcDbEntity
  8
SEIHIN
  6
CONTINUOUS
100
AcDbLine
 10
625.1332513216412
 20
201.3129092206795
 30
0.0
 11
624.6046513216413
 21
164.3129092206795
 31
0.0
  0
LINE
  5
506
330
1A
100
AcDbEntity
  8
SEIHIN
  6
CONTINUOUS
100
AcDbLine
 10
665.5823513216412
 20
223.1207092206795
 30
0.0
 11
621.0592513216413
 21
218.2637092206795
 31
0.0
  0
LINE
  5
507
330
1A
100
AcDbEntity
  8
SEIHIN
  6
CONTINUOUS
100
AcDbLine
 10
665.5823513216412
 20
224.1218092206794
 30
0.0
 11
621.0592513216413
 21
219.2648092206794
 31
0.0
  0
LINE
  5
508
330
1A
100
AcDbEntity
  8
SEIHIN
  6
CONTINUOUS
100
AcDbLine
 10
664.3604513216412
 20
221.5013092206795
 30
0.0
 11
622.2810513216414
 21
216.9109092206795
 31
0.0
  0
LINE
  5
509
330
1A
100
AcDbEntity
  8
SEIHIN
  6
CONTINUOUS
100
AcDbLine
 10
664.3604513216412
 20
221.0024092206795
 30
0.0
 11
622.2810513216414
 21
216.4120092206794
 31
0.0
  0
LINE
  5
50A
330
1A
100
AcDbEntity
  8
SEIHIN
  6
CONTINUOUS
100
AcDbLine
 10
665.5823513216412
 20
220.1219092206795
 30
0.0
 11
621.0592513216413
 21
215.2649092206794
 31
0.0
  0
LINE
  5
50B
330
1A
100
AcDbEntity
  8
SEIHIN
  6
CONTINUOUS
100
AcDbLine
 10
667.2045513216412
 20
164.3127092206794
 30
0.0
 11
622.6044513216414
 21
164.3129092206795
 31
0.0
  0
LINE
  5
50C
330
1A
100
AcDbEntity
  8
SEIHIN
  6
CONTINUOUS
100
AcDbLine
 10
665.5823513216412
 20
227.1206092206795
 30
0.0
 11
621.0592513216413
 21
222.2636092206795
 31
0.0
  0
LINE
  5
50D
330
1A
100
AcDbEntity
  8
SEIHIN
  6
CONTINUOUS
100
AcDbLine
 10
658.1662513216413
 20
227.3127092206794
 30
0.0
 11
621.0592513216413
 21
223.2647092206795
 31
0.0
  0
LINE
  5
50E
330
1A
100
AcDbEntity
  8
SEIHIN
  6
CONTINUOUS
100
AcDbLine
 10
664.3604513216412
 20
225.5012092206794
 30
0.0
 11
622.2810513216414
 21
220.9108092206794
 31
0.0
  0
LINE
  5
50F
330
1A
100
AcDbEntity
  8
SEIHIN
  6
CONTINUOUS
100
AcDbLine
 10
664.3604513216412
 20
225.0023092206795
 30
0.0
 11
622.2810513216414
 21
220.4119092206794
 31
0.0
  0
LINE
  5
510
330
1A
100
AcDbEntity
  8
SEIHIN
  6
CONTINUOUS
100
AcDbLine
 10
665.5823513216412
 20
227.3127092206794
 30
0.0
 11
621.0592513216413
 21
227.3128092206794
 31
0.0
  0
LINE
  5
511
330
1A
100
AcDbEntity
  8
SEIHIN
  6
CONTINUOUS
100
AcDbLine
 10
665.5823513216412
 20
203.3127092206794
 30
0.0
 11
621.0592513216413
 21
203.3128092206794
 31
0.0
  0
LINE
  5
512
330
1A
100
AcDbEntity
  8
SEIHIN
  6
CONTINUOUS
100
AcDbLine
 10
665.5823513216412
 20
208.1222092206794
 30
0.0
 11
621.4949513216413
 21
203.3128092206794
 31
0.0
  0
LINE
  5
513
330
1A
100
AcDbEntity
  8
SEIHIN
  6
CONTINUOUS
100
AcDbLine
 10
665.5823513216412
 20
212.1221092206794
 30
0.0
 11
621.0592513216413
 21
207.2651092206794
 31
0.0
  0
LINE
  5
514
330
1A
100
AcDbEntity
  8
SEIHIN
  6
CONTINUOUS
100
AcDbLine
 10
665.5823513216412
 20
216.1220092206795
 30
0.0
 11
621.0592513216413
 21
211.2650092206794
 31
0.0
  0
LINE
  5
515
330
1A
100
AcDbEntity
  8
SEIHIN
  6
CONTINUOUS
100
AcDbLine
 10
665.5823513216412
 20
219.1208092206794
 30
0.0
 11
621.0592513216413
 21
214.2638092206794
 31
0.0
  0
LINE
  5
516
330
1A
100
AcDbEntity
  8
SEIHIN
  6
CONTINUOUS
100
AcDbLine
 10
664.3604513216412
 20
217.5014092206795
 30
0.0
 11
622.2810513216414
 21
212.9110092206795
 31
0.0
  0
LINE
  5
517
330
1A
100
AcDbEntity
  8
SEIHIN
  6
CONTINUOUS
100
AcDbLine
 10
664.3604513216412
 20
217.0025092206795
 30
0.0
 11
622.2810513216414
 21
212.4121092206794
 31
0.0
  0
LINE
  5
518
330
1A
100
AcDbEntity
  8
SEIHIN
  6
CONTINUOUS
100
AcDbLine
 10
665.5823513216412
 20
215.1209092206794
 30
0.0
 11
621.0592513216413
 21
210.2639092206794
 31
0.0
  0
LINE
  5
519
330
1A
100
AcDbEntity
  8
SEIHIN
  6
CONTINUOUS
100
AcDbLine
 10
664.3604513216412
 20
213.5015092206795
 30
0.0
 11
622.2810513216414
 21
208.9111092206794
 31
0.0
  0
LINE
  5
51A
330
1A
100
AcDbEntity
  8
SEIHIN
  6
CONTINUOUS
100
AcDbLine
 10
664.3604513216412
 20
213.0026092206794
 30
0.0
 11
622.2810513216414
 21
208.4122092206794
 31
0.0
  0
LINE
  5
51B
330
1A
100
AcDbEntity
  8
SEIHIN
  6
CONTINUOUS
100
AcDbLine
 10
665.5823513216412
 20
211.1210092206794
 30
0.0
 11
621.0592513216413
 21
206.2640092206795
 31
0.0
  0
LINE
  5
51C
330
1A
100
AcDbEntity
  8
SEIHIN
  6
CONTINUOUS
100
AcDbLine
 10
664.3604513216412
 20
209.5016092206795
 30
0.0
 11
622.2810513216414
 21
204.9112092206795
 31
0.0
  0
LINE
  5
51D
330
1A
100
AcDbEntity
  8
SEIHIN
  6
CONTINUOUS
100
AcDbLine
 10
664.3604513216412
 20
209.0027092206795
 30
0.0
 11
622.2810513216414
 21
204.4123092206795
 31
0.0
  0
LINE
  5
51E
330
1A
100
AcDbEntity
  8
SEIHIN
  6
CONTINUOUS
100
AcDbLine
 10
622.6044513216414
 20
164.3129092206795
 30
0.0
 11
622.6046513216411
 21
199.3129092206795
 31
0.0
  0
LINE
  5
51F
330
1A
100
AcDbEntity
  8
SEIHIN
  6
CONTINUOUS
100
AcDbLine
 10
621.0592513216413
 20
210.2639092206794
 30
0.0
 11
622.2810513216414
 21
208.9111092206794
 31
0.0
  0
LINE
  5
520
330
1A
100
AcDbEntity
  8
SEIHIN
  6
CONTINUOUS
100
AcDbLine
 10
622.6046513216411
 20
199.3129092206795
 30
0.0
 11
610.2046513216412
 21
199.3129092206795
 31
0.0
  0
LINE
  5
521
330
1A
100
AcDbEntity
  8
SEIHIN
  6
CONTINUOUS
100
AcDbLine
 10
622.2810513216414
 20
208.4122092206794
 30
0.0
 11
622.2810513216414
 21
208.9111092206794
 31
0.0
  0
LINE
  5
522
330
1A
100
AcDbEntity
  8
SEIHIN
  6
CONTINUOUS
100
AcDbLine
 10
622.2810513216414
 20
208.4122092206794
 30
0.0
 11
621.0592513216413
 21
207.2651092206794
 31
0.0
  0
LINE
  5
523
330
1A
100
AcDbEntity
  8
SEIHIN
  6
CONTINUOUS
100
AcDbLine
 10
621.0592513216413
 20
206.2640092206795
 30
0.0
 11
621.0592513216413
 21
207.2651092206794
 31
0.0
  0
LINE
  5
524
330
1A
100
AcDbEntity
  8
SEIHIN
  6
CONTINUOUS
100
AcDbLine
 10
621.0592513216413
 20
206.2640092206795
 30
0.0
 11
622.2810513216414
 21
204.9112092206795
 31
0.0
  0
LINE
  5
525
330
1A
100
AcDbEntity
  8
SEIHIN
  6
CONTINUOUS
100
AcDbLine
 10
622.2810513216414
 20
204.4123092206795
 30
0.0
 11
622.2810513216414
 21
204.9112092206795
 31
0.0
  0
LINE
  5
526
330
1A
100
AcDbEntity
  8
SEIHIN
  6
CONTINUOUS
100
AcDbLine
 10
622.2810513216414
 20
204.4123092206795
 30
0.0
 11
621.1098513216414
 21
203.3128092206794
 31
0.0
  0
LINE
  5
527
330
1A
100
AcDbEntity
  8
SEIHIN
  6
CONTINUOUS
100
AcDbLine
 10
621.0592513216413
 20
222.2636092206795
 30
0.0
 11
622.2810513216414
 21
220.9108092206794
 31
0.0
  0
LINE
  5
528
330
1A
100
AcDbEntity
  8
SEIHIN
  6
CONTINUOUS
100
AcDbLine
 10
622.2810513216414
 20
216.4120092206794
 30
0.0
 11
622.2810513216414
 21
216.9109092206795
 31
0.0
  0
LINE
  5
529
330
1A
100
AcDbEntity
  8
SEIHIN
  6
CONTINUOUS
100
AcDbLine
 10
622.2810513216414
 20
216.4120092206794
 30
0.0
 11
621.0592513216413
 21
215.2649092206794
 31
0.0
  0
LINE
  5
52A
330
1A
100
AcDbEntity
  8
SEIHIN
  6
CONTINUOUS
100
AcDbLine
 10
621.0592513216413
 20
218.2637092206795
 30
0.0
 11
622.2810513216414
 21
216.9109092206795
 31
0.0
  0
LINE
  5
52B
330
1A
100
AcDbEntity
  8
SEIHIN
  6
CONTINUOUS
100
AcDbLine
 10
621.0592513216413
 20
218.2637092206795
 30
0.0
 11
621.0592513216413
 21
219.2648092206794
 31
0.0
  0
LINE
  5
52C
330
1A
100
AcDbEntity
  8
SEIHIN
  6
CONTINUOUS
100
AcDbLine
 10
622.2810513216414
 20
220.4119092206794
 30
0.0
 11
622.2810513216414
 21
220.9108092206794
 31
0.0
  0
LINE
  5
52D
330
1A
100
AcDbEntity
  8
SEIHIN
  6
CONTINUOUS
100
AcDbLine
 10
622.2810513216414
 20
220.4119092206794
 30
0.0
 11
621.0592513216413
 21
219.2648092206794
 31
0.0
  0
LINE
  5
52E
330
1A
100
AcDbEntity
  8
SEIHIN
  6
CONTINUOUS
100
AcDbLine
 10
621.0592513216413
 20
214.2638092206794
 30
0.0
 11
621.0592513216413
 21
215.2649092206794
 31
0.0
  0
LINE
  5
52F
330
1A
100
AcDbEntity
  8
SEIHIN
  6
CONTINUOUS
100
AcDbLine
 10
621.0592513216413
 20
214.2638092206794
 30
0.0
 11
622.2810513216414
 21
212.9110092206795
 31
0.0
  0
LINE
  5
530
330
1A
100
AcDbEntity
  8
SEIHIN
  6
CONTINUOUS
100
AcDbLine
 10
622.2810513216414
 20
212.4121092206794
 30
0.0
 11
622.2810513216414
 21
212.9110092206795
 31
0.0
  0
LINE
  5
531
330
1A
100
AcDbEntity
  8
SEIHIN
  6
CONTINUOUS
100
AcDbLine
 10
622.2810513216414
 20
212.4121092206794
 30
0.0
 11
621.0592513216413
 21
211.2650092206794
 31
0.0
  0
LINE
  5
532
330
1A
100
AcDbEntity
  8
SEIHIN
  6
CONTINUOUS
100
AcDbLine
 10
621.0592513216413
 20
210.2639092206794
 30
0.0
 11
621.0592513216413
 21
211.2650092206794
 31
0.0
  0
LINE
  5
533
330
1A
100
AcDbEntity
  8
SEIHIN
  6
CONTINUOUS
100
AcDbLine
 10
621.5006513216413
 20
227.3128092206794
 30
0.0
 11
621.0592513216413
 21
227.2646092206795
 31
0.0
  0
LINE
  5
534
330
1A
100
AcDbEntity
  8
SEIHIN
  6
CONTINUOUS
100
AcDbLine
 10
621.0592513216413
 20
222.2636092206795
 30
0.0
 11
621.0592513216413
 21
223.2647092206795
 31
0.0
  0
LINE
  5
535
330
1A
100
AcDbEntity
  8
SEIHIN
  6
CONTINUOUS
100
AcDbLine
 10
621.0592513216413
 20
226.2635092206795
 30
0.0
 11
622.2810513216414
 21
224.9107092206795
 31
0.0
  0
LINE
  5
536
330
1A
100
AcDbEntity
  8
SEIHIN
  6
CONTINUOUS
100
AcDbLine
 10
622.2810513216414
 20
224.4118092206795
 30
0.0
 11
622.2810513216414
 21
224.9107092206795
 31
0.0
  0
LINE
  5
537
330
1A
100
AcDbEntity
  8
SEIHIN
  6
CONTINUOUS
100
AcDbLine
 10
622.2810513216414
 20
224.4118092206795
 30
0.0
 11
621.0592513216413
 21
223.2647092206795
 31
0.0
  0
LINE
  5
538
330
1A
100
AcDbEntity
  8
SEIHIN
  6
CONTINUOUS
100
AcDbLine
 10
621.0592513216413
 20
226.2635092206795
 30
0.0
 11
621.0592513216413
 21
227.2646092206795
 31
0.0
  0
LINE
  5
539
330
1A
100
AcDbEntity
  8
SEIHIN
  6
CONTINUOUS
100
AcDbLine
 10
621.1105513216413
 20
227.3128092206794
 30
0.0
 11
621.0592513216413
 21
227.2646092206795
 31
0.0
  0
LINE
  5
53A
330
1A
100
AcDbEntity
  8
SEIHIN
  6
CONTINUOUS
100
AcDbLine
 10
625.1332513216412
 20
201.3128092206795
 30
0.0
 11
667.204451321641
 21
201.3127092206795
 31
0.0
  0
LINE
  5
53B
330
1A
100
AcDbEntity
  8
SEIHIN
  6
CONTINUOUS
100
AcDbLine
 10
665.5823513216412
 20
207.1211092206795
 30
0.0
 11
630.6719513216412
 21
203.3128092206794
 31
0.0
  0
LINE
  5
53C
330
1A
100
AcDbEntity
  8
SEIHIN
  6
CONTINUOUS
100
AcDbLine
 10
664.3604513216412
 20
205.5017092206795
 30
0.0
 11
644.2946513216411
 21
203.3127092206794
 31
0.0
  0
LINE
  5
53D
330
1A
100
AcDbEntity
  8
SEIHIN
  6
CONTINUOUS
100
AcDbLine
 10
664.3604513216412
 20
205.0028092206794
 30
0.0
 11
648.867451321641
 21
203.3127092206794
 31
0.0
  0
LINE
  5
53E
330
1A
100
AcDbEntity
  8
SEIHIN
  6
CONTINUOUS
100
AcDbLine
 10
665.5823513216412
 20
211.1210092206794
 30
0.0
 11
664.3604513216412
 21
209.5016092206795
 31
0.0
  0
LINE
  5
53F
330
1A
100
AcDbEntity
  8
SEIHIN
  6
CONTINUOUS
100
AcDbLine
 10
665.5823513216412
 20
207.1211092206795
 30
0.0
 11
665.5823513216412
 21
208.1222092206794
 31
0.0
  0
LINE
  5
540
330
1A
100
AcDbEntity
  8
SEIHIN
  6
CONTINUOUS
100
AcDbLine
 10
665.5823513216412
 20
203.3125092206795
 30
0.0
 11
665.5823513216412
 21
204.1223092206795
 31
0.0
  0
LINE
  5
541
330
1A
100
AcDbEntity
  8
SEIHIN
  6
CONTINUOUS
100
AcDbLine
 10
664.3604513216412
 20
209.5016092206795
 30
0.0
 11
664.3604513216412
 21
209.0027092206795
 31
0.0
  0
LINE
  5
542
330
1A
100
AcDbEntity
  8
SEIHIN
  6
CONTINUOUS
100
AcDbLine
 10
664.3604513216412
 20
205.5017092206795
 30
0.0
 11
664.3604513216412
 21
205.0028092206794
 31
0.0
  0
LINE
  5
543
330
1A
100
AcDbEntity
  8
SEIHIN
  6
CONTINUOUS
100
AcDbLine
 10
665.5823513216412
 20
204.1223092206795
 30
0.0
 11
658.1604513216412
 21
203.3127092206794
 31
0.0
  0
LINE
  5
544
330
1A
100
AcDbEntity
  8
SEIHIN
  6
CONTINUOUS
100
AcDbLine
 10
664.3604513216412
 20
209.0027092206795
 30
0.0
 11
665.5823513216412
 21
208.1222092206794
 31
0.0
  0
LINE
  5
545
330
1A
100
AcDbEntity
  8
SEIHIN
  6
CONTINUOUS
100
AcDbLine
 10
665.5823513216412
 20
207.1211092206795
 30
0.0
 11
664.3604513216412
 21
205.5017092206795
 31
0.0
  0
LINE
  5
546
330
1A
100
AcDbEntity
  8
SEIHIN
  6
CONTINUOUS
100
AcDbLine
 10
664.3604513216412
 20
205.0028092206794
 30
0.0
 11
665.5823513216412
 21
204.1223092206795
 31
0.0
  0
LINE
  5
547
330
1A
100
AcDbEntity
  8
SEIHIN
  6
CONTINUOUS
100
AcDbLine
 10
664.3604513216412
 20
221.5013092206795
 30
0.0
 11
664.3604513216412
 21
221.0024092206795
 31
0.0
  0
LINE
  5
548
330
1A
100
AcDbEntity
  8
SEIHIN
  6
CONTINUOUS
100
AcDbLine
 10
665.5823513216412
 20
219.1208092206794
 30
0.0
 11
665.5823513216412
 21
220.1219092206795
 31
0.0
  0
LINE
  5
549
330
1A
100
AcDbEntity
  8
SEIHIN
  6
CONTINUOUS
100
AcDbLine
 10
665.5823513216412
 20
215.1209092206794
 30
0.0
 11
665.5823513216412
 21
216.1220092206795
 31
0.0
  0
LINE
  5
54A
330
1A
100
AcDbEntity
  8
SEIHIN
  6
CONTINUOUS
100
AcDbLine
 10
665.5823513216412
 20
211.1210092206794
 30
0.0
 11
665.5823513216412
 21
212.1221092206794
 31
0.0
  0
LINE
  5
54B
330
1A
100
AcDbEntity
  8
SEIHIN
  6
CONTINUOUS
100
AcDbLine
 10
664.3604513216412
 20
217.5014092206795
 30
0.0
 11
664.3604513216412
 21
217.0025092206795
 31
0.0
  0
LINE
  5
54C
330
1A
100
AcDbEntity
  8
SEIHIN
  6
CONTINUOUS
100
AcDbLine
 10
664.3604513216412
 20
213.5015092206795
 30
0.0
 11
664.3604513216412
 21
213.0026092206794
 31
0.0
  0
LINE
  5
54D
330
1A
100
AcDbEntity
  8
SEIHIN
  6
CONTINUOUS
100
AcDbLine
 10
664.3604513216412
 20
221.0024092206795
 30
0.0
 11
665.5823513216412
 21
220.1219092206795
 31
0.0
  0
LINE
  5
54E
330
1A
100
AcDbEntity
  8
SEIHIN
  6
CONTINUOUS
100
AcDbLine
 10
665.5823513216412
 20
219.1208092206794
 30
0.0
 11
664.3604513216412
 21
217.5014092206795
 31
0.0
  0
LINE
  5
54F
330
1A
100
AcDbEntity
  8
SEIHIN
  6
CONTINUOUS
100
AcDbLine
 10
664.3604513216412
 20
217.0025092206795
 30
0.0
 11
665.5823513216412
 21
216.1220092206795
 31
0.0
  0
LINE
  5
550
330
1A
100
AcDbEntity
  8
SEIHIN
  6
CONTINUOUS
100
AcDbLine
 10
665.5823513216412
 20
215.1209092206794
 30
0.0
 11
664.3604513216412
 21
213.5015092206795
 31
0.0
  0
LINE
  5
551
330
1A
100
AcDbEntity
  8
SEIHIN
  6
CONTINUOUS
100
AcDbLine
 10
664.3604513216412
 20
213.0026092206794
 30
0.0
 11
665.5823513216412
 21
212.1221092206794
 31
0.0
  0
LINE
  5
552
330
1A
100
AcDbEntity
  8
SEIHIN
  6
CONTINUOUS
100
AcDbLine
 10
665.5823513216412
 20
223.1207092206795
 30
0.0
 11
665.5823513216412
 21
224.1218092206794
 31
0.0
  0
LINE
  5
553
330
1A
100
AcDbEntity
  8
SEIHIN
  6
CONTINUOUS
100
AcDbLine
 10
665.5823513216412
 20
227.1206092206795
 30
0.0
 11
665.5823513216412
 21
227.3125092206795
 31
0.0
  0
LINE
  5
554
330
1A
100
AcDbEntity
  8
SEIHIN
  6
CONTINUOUS
100
AcDbLine
 10
664.3604513216412
 20
225.5012092206794
 30
0.0
 11
664.3604513216412
 21
225.0023092206795
 31
0.0
  0
LINE
  5
555
330
1A
100
AcDbEntity
  8
SEIHIN
  6
CONTINUOUS
100
AcDbLine
 10
665.5823513216412
 20
227.1206092206795
 30
0.0
 11
664.3604513216412
 21
225.5012092206794
 31
0.0
  0
LINE
  5
556
330
1A
100
AcDbEntity
  8
SEIHIN
  6
CONTINUOUS
100
AcDbLine
 10
665.5823513216412
 20
223.1207092206795
 30
0.0
 11
664.3604513216412
 21
221.5013092206795
 31
0.0
  0
LINE
  5
557
330
1A
100
AcDbEntity
  8
SEIHIN
  6
CONTINUOUS
100
AcDbLine
 10
664.3604513216412
 20
225.0023092206795
 30
0.0
 11
665.5823513216412
 21
224.1218092206794
 31
0.0
  0
LINE
  5
558
330
1A
100
AcDbEntity
  8
SEIHIN
  6
CONTINUOUS
100
AcDbLine
 10
612.2050513216414
 20
240.1412092206795
 30
0.0
 11
667.2049513216411
 21
240.1408092206795
 31
0.0
  0
LINE
  5
559
330
1A
100
AcDbEntity
  8
SEIHIN
  6
CONTINUOUS
100
AcDbLine
 10
667.2048513216414
 20
245.8126092206794
 30
0.0
 11
597.2047513216413
 21
245.8130092206794
 31
0.0
  0
LINE
  5
55A
330
1A
100
AcDbEntity
  8
SEIHIN
  6
CONTINUOUS
100
AcDbLine
 10
600.2047513216411
 20
244.8130092206795
 30
0.0
 11
667.2048513216414
 21
244.8126092206794
 31
0.0
  0
LINE
  5
55B
330
1A
100
AcDbEntity
  8
SEIHIN
  6
CONTINUOUS
100
AcDbLine
 10
610.2048513216414
 20
239.3130092206794
 30
0.0
 11
607.2048513216412
 21
242.3130092206795
 31
0.0
  0
LINE
  5
55C
330
1A
100
AcDbEntity
  8
SEIHIN
  6
CONTINUOUS
100
AcDbLine
 10
607.5332513216411
 20
244.8130092206795
 30
0.0
 11
612.2050513216414
 21
240.1412092206795
 31
0.0
  0
LINE
  5
55D
330
1A
100
AcDbEntity
  8
SEIHIN
  6
CONTINUOUS
100
AcDbLine
 10
597.2047513216413
 20
243.8130092206794
 30
0.0
 11
597.2047513216413
 21
245.8130092206794
 31
0.0
  0
LINE
  5
55E
330
1A
100
AcDbEntity
  8
SEIHIN
  6
CONTINUOUS
100
AcDbLine
 10
601.2047513216413
 20
242.3130092206795
 30
0.0
 11
597.2047513216413
 21
243.8130092206794
 31
0.0
  0
LINE
  5
55F
330
1A
100
AcDbEntity
  8
SEIHIN
  6
CONTINUOUS
100
AcDbLine
 10
607.2048513216412
 20
242.3130092206795
 30
0.0
 11
601.2047513216413
 21
242.3130092206795
 31
0.0
  0
LINE
  5
560
330
1A
100
AcDbEntity
  8
SEIHIN
  6
CONTINUOUS
100
AcDbLine
 10
600.2047513216411
 20
244.8130092206795
 30
0.0
 11
600.2047513216411
 21
245.8130092206794
 31
0.0
  0
LINE
  5
561
330
1A
100
AcDbEntity
  8
SEIHIN
  6
CONTINUOUS
100
AcDbLine
 10
722.2044513216412
 20
227.3125092206795
 30
0.0
 11
722.2044513216412
 21
240.1408092206795
 31
0.0
  0
LINE
  5
562
330
1A
100
AcDbEntity
  8
SEIHIN
  6
CONTINUOUS
100
AcDbLine
 10
724.2045513216412
 20
199.3125092206795
 30
0.0
 11
724.2047513216411
 21
239.3126092206794
 31
0.0
  0
LINE
  5
564
330
1A
100
AcDbEntity
  8
SEIHIN
  6
CONTINUOUS
100
AcDbLine
 10
709.275951321641
 20
201.3126092206794
 30
0.0
 11
709.8043513216412
 21
164.3126092206794
 31
0.0
  0
LINE
  5
565
330
1A
100
AcDbEntity
  8
SEIHIN
  6
CONTINUOUS
100
AcDbLine
 10
711.8045513216413
 20
164.3126092206794
 30
0.0
 11
711.8045513216413
 21
199.3126092206794
 31
0.0
  0
LINE
  5
566
330
1A
100
AcDbEntity
  8
SEIHIN
  6
CONTINUOUS
100
AcDbLine
 10
711.8045513216413
 20
199.3126092206794
 30
0.0
 11
724.2045513216412
 21
199.3125092206795
 31
0.0
  0
LINE
  5
567
330
1A
100
AcDbEntity
  8
SEIHIN
  6
CONTINUOUS
100
AcDbLine
 10
720.039451321641
 20
209.0618092206795
 30
0.0
 11
720.039451321641
 21
210.0630092206794
 31
0.0
  0
LINE
  5
568
330
1A
100
AcDbEntity
  8
SEIHIN
  6
CONTINUOUS
100
AcDbLine
 10
720.039451321641
 20
210.0630092206794
 30
0.0
 11
713.7507513216412
 21
209.3769092206794
 31
0.0
  0
LINE
  5
569
330
1A
100
AcDbEntity
  8
SEIHIN
  6
CONTINUOUS
100
AcDbLine
 10
716.1945513216412
 20
210.6573092206795
 30
0.0
 11
713.7507513216412
 21
209.3769092206794
 31
0.0
  0
LINE
  5
56A
330
1A
100
AcDbEntity
  8
SEIHIN
  6
CONTINUOUS
100
AcDbLine
 10
720.039451321641
 20
209.0618092206795
 30
0.0
 11
713.7507513216412
 21
208.3758092206795
 31
0.0
  0
LINE
  5
56B
330
1A
100
AcDbEntity
  8
SEIHIN
  6
CONTINUOUS
100
AcDbLine
 10
713.7507513216412
 20
208.3758092206795
 30
0.0
 11
716.1945513216412
 21
207.1563092206795
 31
0.0
  0
LINE
  5
56C
330
1A
100
AcDbEntity
  8
SEIHIN
  6
CONTINUOUS
100
AcDbLine
 10
716.1945513216412
 20
206.6574092206795
 30
0.0
 11
713.7507513216412
 21
205.3771092206795
 31
0.0
  0
LINE
  5
56D
330
1A
100
AcDbEntity
  8
SEIHIN
  6
CONTINUOUS
100
AcDbLine
 10
720.039451321641
 20
206.0631092206795
 30
0.0
 11
713.7507513216412
 21
205.3771092206795
 31
0.0
  0
LINE
  5
56E
330
1A
100
AcDbEntity
  8
SEIHIN
  6
CONTINUOUS
100
AcDbLine
 10
720.039451321641
 20
205.0619092206794
 30
0.0
 11
713.7507513216412
 21
204.3759092206794
 31
0.0
  0
LINE
  5
56F
330
1A
100
AcDbEntity
  8
SEIHIN
  6
CONTINUOUS
100
AcDbLine
 10
713.7507513216412
 20
204.3759092206794
 30
0.0
 11
715.8815513216413
 21
203.3125092206795
 31
0.0
  0
LINE
  5
570
330
1A
100
AcDbEntity
  8
SEIHIN
  6
CONTINUOUS
100
AcDbLine
 10
713.7507513216412
 20
209.3769092206794
 30
0.0
 11
713.7507513216412
 21
208.3758092206795
 31
0.0
  0
LINE
  5
571
330
1A
100
AcDbEntity
  8
SEIHIN
  6
CONTINUOUS
100
AcDbLine
 10
713.7507513216412
 20
205.3771092206795
 30
0.0
 11
713.7507513216412
 21
204.3759092206794
 31
0.0
  0
LINE
  5
572
330
1A
100
AcDbEntity
  8
SEIHIN
  6
CONTINUOUS
100
AcDbLine
 10
722.2044513216412
 20
207.3130092206795
 30
0.0
 11
722.2044513216412
 21
207.8119092206795
 31
0.0
  0
LINE
  5
573
330
1A
100
AcDbEntity
  8
SEIHIN
  6
CONTINUOUS
100
AcDbLine
 10
722.2044513216412
 20
201.3126092206794
 30
0.0
 11
722.2044513216412
 21
203.8120092206795
 31
0.0
  0
LINE
  5
574
330
1A
100
AcDbEntity
  8
SEIHIN
  6
CONTINUOUS
100
AcDbLine
 10
720.039451321641
 20
205.0619092206794
 30
0.0
 11
720.039451321641
 21
206.0631092206795
 31
0.0
  0
LINE
  5
575
330
1A
100
AcDbEntity
  8
SEIHIN
  6
CONTINUOUS
100
AcDbLine
 10
716.1945513216412
 20
207.1563092206795
 30
0.0
 11
716.1945513216412
 21
206.6574092206795
 31
0.0
  0
LINE
  5
576
330
1A
100
AcDbEntity
  8
SEIHIN
  6
CONTINUOUS
100
AcDbLine
 10
722.2044513216412
 20
203.3125092206795
 30
0.0
 11
715.8815513216413
 21
203.3125092206795
 31
0.0
  0
LINE
  5
577
330
1A
100
AcDbEntity
  8
SEIHIN
  6
CONTINUOUS
100
AcDbLine
 10
720.039451321641
 20
209.0618092206795
 30
0.0
 11
722.2044513216412
 21
207.8119092206795
 31
0.0
  0
LINE
  5
578
330
1A
100
AcDbEntity
  8
SEIHIN
  6
CONTINUOUS
100
AcDbLine
 10
722.2044513216412
 20
207.3130092206795
 30
0.0
 11
720.039451321641
 21
206.0631092206795
 31
0.0
  0
LINE
  5
579
330
1A
100
AcDbEntity
  8
SEIHIN
  6
CONTINUOUS
100
AcDbLine
 10
720.039451321641
 20
205.0619092206794
 30
0.0
 11
722.2044513216412
 21
203.8120092206795
 31
0.0
  0
LINE
  5
57A
330
1A
100
AcDbEntity
  8
SEIHIN
  6
CONTINUOUS
100
AcDbLine
 10
716.1945513216412
 20
207.1563092206795
 30
0.0
 11
722.2044513216412
 21
207.8119092206795
 31
0.0
  0
LINE
  5
57B
330
1A
100
AcDbEntity
  8
SEIHIN
  6
CONTINUOUS
100
AcDbLine
 10
717.6259513216412
 20
203.3125092206795
 30
0.0
 11
722.2044513216412
 21
203.8120092206795
 31
0.0
  0
LINE
  5
57C
330
1A
100
AcDbEntity
  8
SEIHIN
  6
CONTINUOUS
100
AcDbLine
 10
722.2044513216412
 20
207.3130092206795
 30
0.0
 11
716.1945513216412
 21
206.6574092206795
 31
0.0
  0
LINE
  5
57D
330
1A
100
AcDbEntity
  8
SEIHIN
  6
CONTINUOUS
100
AcDbLine
 10
720.039451321641
 20
221.0615092206795
 30
0.0
 11
720.039451321641
 21
222.0626092206795
 31
0.0
  0
LINE
  5
57E
330
1A
100
AcDbEntity
  8
SEIHIN
  6
CONTINUOUS
100
AcDbLine
 10
713.7507513216412
 20
221.3766092206795
 30
0.0
 11
713.7507513216412
 21
220.3755092206795
 31
0.0
  0
LINE
  5
57F
330
1A
100
AcDbEntity
  8
SEIHIN
  6
CONTINUOUS
100
AcDbLine
 10
713.7507513216412
 20
216.3756092206795
 30
0.0
 11
716.1945513216412
 21
215.1561092206795
 31
0.0
  0
LINE
  5
580
330
1A
100
AcDbEntity
  8
SEIHIN
  6
CONTINUOUS
100
AcDbLine
 10
720.039451321641
 20
217.0616092206795
 30
0.0
 11
713.7507513216412
 21
216.3756092206795
 31
0.0
  0
LINE
  5
581
330
1A
100
AcDbEntity
  8
SEIHIN
  6
CONTINUOUS
100
AcDbLine
 10
720.039451321641
 20
218.0628092206794
 30
0.0
 11
713.7507513216412
 21
217.3767092206795
 31
0.0
  0
LINE
  5
582
330
1A
100
AcDbEntity
  8
SEIHIN
  6
CONTINUOUS
100
AcDbLine
 10
716.1945513216412
 20
218.6571092206794
 30
0.0
 11
713.7507513216412
 21
217.3767092206795
 31
0.0
  0
LINE
  5
583
330
1A
100
AcDbEntity
  8
SEIHIN
  6
CONTINUOUS
100
AcDbLine
 10
713.7507513216412
 20
220.3755092206795
 30
0.0
 11
716.1945513216412
 21
219.1560092206794
 31
0.0
  0
LINE
  5
584
330
1A
100
AcDbEntity
  8
SEIHIN
  6
CONTINUOUS
100
AcDbLine
 10
720.039451321641
 20
221.0615092206795
 30
0.0
 11
713.7507513216412
 21
220.3755092206795
 31
0.0
  0
LINE
  5
585
330
1A
100
AcDbEntity
  8
SEIHIN
  6
CONTINUOUS
100
AcDbLine
 10
720.039451321641
 20
213.0617092206794
 30
0.0
 11
713.7507513216412
 21
212.3757092206795
 31
0.0
  0
LINE
  5
586
330
1A
100
AcDbEntity
  8
SEIHIN
  6
CONTINUOUS
100
AcDbLine
 10
720.039451321641
 20
214.0629092206795
 30
0.0
 11
713.7507513216412
 21
213.3768092206794
 31
0.0
  0
LINE
  5
587
330
1A
100
AcDbEntity
  8
SEIHIN
  6
CONTINUOUS
100
AcDbLine
 10
716.1945513216412
 20
214.6572092206795
 30
0.0
 11
713.7507513216412
 21
213.3768092206794
 31
0.0
  0
LINE
  5
588
330
1A
100
AcDbEntity
  8
SEIHIN
  6
CONTINUOUS
100
AcDbLine
 10
713.7507513216412
 20
212.3757092206795
 30
0.0
 11
716.1945513216412
 21
211.1562092206795
 31
0.0
  0
LINE
  5
589
330
1A
100
AcDbEntity
  8
SEIHIN
  6
CONTINUOUS
100
AcDbLine
 10
713.7507513216412
 20
217.3767092206795
 30
0.0
 11
713.7507513216412
 21
216.3756092206795
 31
0.0
  0
LINE
  5
58A
330
1A
100
AcDbEntity
  8
SEIHIN
  6
CONTINUOUS
100
AcDbLine
 10
713.7507513216412
 20
213.3768092206794
 30
0.0
 11
713.7507513216412
 21
212.3757092206795
 31
0.0
  0
LINE
  5
58B
330
1A
100
AcDbEntity
  8
SEIHIN
  6
CONTINUOUS
100
AcDbLine
 10
722.2044513216412
 20
219.3127092206794
 30
0.0
 11
722.2044513216412
 21
219.8116092206795
 31
0.0
  0
LINE
  5
58C
330
1A
100
AcDbEntity
  8
SEIHIN
  6
CONTINUOUS
100
AcDbLine
 10
722.2044513216412
 20
215.3128092206794
 30
0.0
 11
722.2044513216412
 21
215.8117092206795
 31
0.0
  0
LINE
  5
58D
330
1A
100
AcDbEntity
  8
SEIHIN
  6
CONTINUOUS
100
AcDbLine
 10
722.2044513216412
 20
211.3129092206794
 30
0.0
 11
722.2044513216412
 21
211.8118092206794
 31
0.0
  0
LINE
  5
58E
330
1A
100
AcDbEntity
  8
SEIHIN
  6
CONTINUOUS
100
AcDbLine
 10
716.1945513216412
 20
219.1560092206794
 30
0.0
 11
716.1945513216412
 21
218.6571092206794
 31
0.0
  0
LINE
  5
58F
330
1A
100
AcDbEntity
  8
SEIHIN
  6
CONTINUOUS
100
AcDbLine
 10
720.039451321641
 20
217.0616092206795
 30
0.0
 11
720.039451321641
 21
218.0627092206795
 31
0.0
  0
LINE
  5
590
330
1A
100
AcDbEntity
  8
SEIHIN
  6
CONTINUOUS
100
AcDbLine
 10
720.039451321641
 20
213.0617092206794
 30
0.0
 11
720.039451321641
 21
214.0628092206794
 31
0.0
  0
LINE
  5
591
330
1A
100
AcDbEntity
  8
SEIHIN
  6
CONTINUOUS
100
AcDbLine
 10
716.1945513216412
 20
215.1561092206795
 30
0.0
 11
716.1945513216412
 21
214.6572092206795
 31
0.0
  0
LINE
  5
592
330
1A
100
AcDbEntity
  8
SEIHIN
  6
CONTINUOUS
100
AcDbLine
 10
716.1945513216412
 20
211.1562092206795
 30
0.0
 11
716.1945513216412
 21
210.6573092206795
 31
0.0
  0
LINE
  5
593
330
1A
100
AcDbEntity
  8
SEIHIN
  6
CONTINUOUS
100
AcDbLine
 10
720.039451321641
 20
221.0615092206795
 30
0.0
 11
722.2044513216412
 21
219.8116092206795
 31
0.0
  0
LINE
  5
594
330
1A
100
AcDbEntity
  8
SEIHIN
  6
CONTINUOUS
100
AcDbLine
 10
722.2044513216412
 20
219.3127092206794
 30
0.0
 11
720.039451321641
 21
218.0628092206794
 31
0.0
  0
LINE
  5
595
330
1A
100
AcDbEntity
  8
SEIHIN
  6
CONTINUOUS
100
AcDbLine
 10
720.039451321641
 20
217.0616092206795
 30
0.0
 11
722.2044513216412
 21
215.8117092206795
 31
0.0
  0
LINE
  5
596
330
1A
100
AcDbEntity
  8
SEIHIN
  6
CONTINUOUS
100
AcDbLine
 10
716.1945513216412
 20
219.1560092206794
 30
0.0
 11
722.2044513216412
 21
219.8116092206795
 31
0.0
  0
LINE
  5
597
330
1A
100
AcDbEntity
  8
SEIHIN
  6
CONTINUOUS
100
AcDbLine
 10
722.2044513216412
 20
215.3128092206794
 30
0.0
 11
720.039451321641
 21
214.0629092206795
 31
0.0
  0
LINE
  5
598
330
1A
100
AcDbEntity
  8
SEIHIN
  6
CONTINUOUS
100
AcDbLine
 10
720.039451321641
 20
213.0617092206794
 30
0.0
 11
722.2044513216412
 21
211.8118092206794
 31
0.0
  0
LINE
  5
599
330
1A
100
AcDbEntity
  8
SEIHIN
  6
CONTINUOUS
100
AcDbLine
 10
722.2044513216412
 20
219.3127092206794
 30
0.0
 11
716.1945513216412
 21
218.6571092206794
 31
0.0
  0
LINE
  5
59A
330
1A
100
AcDbEntity
  8
SEIHIN
  6
CONTINUOUS
100
AcDbLine
 10
716.1945513216412
 20
215.1561092206795
 30
0.0
 11
722.2044513216412
 21
215.8117092206795
 31
0.0
  0
LINE
  5
59B
330
1A
100
AcDbEntity
  8
SEIHIN
  6
CONTINUOUS
100
AcDbLine
 10
716.1945513216412
 20
211.1562092206795
 30
0.0
 11
722.2044513216412
 21
211.8118092206794
 31
0.0
  0
LINE
  5
59C
330
1A
100
AcDbEntity
  8
SEIHIN
  6
CONTINUOUS
100
AcDbLine
 10
722.2044513216412
 20
215.3128092206794
 30
0.0
 11
716.1945513216412
 21
214.6572092206795
 31
0.0
  0
LINE
  5
59D
330
1A
100
AcDbEntity
  8
SEIHIN
  6
CONTINUOUS
100
AcDbLine
 10
722.2044513216412
 20
211.3129092206794
 30
0.0
 11
716.1945513216412
 21
210.6573092206795
 31
0.0
  0
LINE
  5
59E
330
1A
100
AcDbEntity
  8
SEIHIN
  6
CONTINUOUS
100
AcDbLine
 10
722.2044513216412
 20
211.3129092206794
 30
0.0
 11
720.039451321641
 21
210.0630092206794
 31
0.0
  0
LINE
  5
59F
330
1A
100
AcDbEntity
  8
SEIHIN
  6
CONTINUOUS
100
AcDbLine
 10
720.039451321641
 20
225.0614092206795
 30
0.0
 11
713.7507513216412
 21
224.3754092206795
 31
0.0
  0
LINE
  5
5A0
330
1A
100
AcDbEntity
  8
SEIHIN
  6
CONTINUOUS
100
AcDbLine
 10
720.039451321641
 20
226.0626092206794
 30
0.0
 11
713.7507513216412
 21
225.3765092206795
 31
0.0
  0
LINE
  5
5A1
330
1A
100
AcDbEntity
  8
SEIHIN
  6
CONTINUOUS
100
AcDbLine
 10
720.039451321641
 20
222.0627092206794
 30
0.0
 11
713.7507513216412
 21
221.3766092206795
 31
0.0
  0
LINE
  5
5A2
330
1A
100
AcDbEntity
  8
SEIHIN
  6
CONTINUOUS
100
AcDbLine
 10
716.1945513216412
 20
222.6570092206795
 30
0.0
 11
713.7507513216412
 21
221.3766092206795
 31
0.0
  0
LINE
  5
5A3
330
1A
100
AcDbEntity
  8
SEIHIN
  6
CONTINUOUS
100
AcDbLine
 10
716.1945513216412
 20
226.6569092206794
 30
0.0
 11
713.7507513216412
 21
225.3765092206795
 31
0.0
  0
LINE
  5
5A4
330
1A
100
AcDbEntity
  8
SEIHIN
  6
CONTINUOUS
100
AcDbLine
 10
713.7507513216412
 20
224.3754092206795
 30
0.0
 11
716.1945513216412
 21
223.1559092206795
 31
0.0
  0
LINE
  5
5A5
330
1A
100
AcDbEntity
  8
SEIHIN
  6
CONTINUOUS
100
AcDbLine
 10
713.7507513216412
 20
225.3765092206795
 30
0.0
 11
713.7507513216412
 21
224.3754092206795
 31
0.0
  0
LINE
  5
5A6
330
1A
100
AcDbEntity
  8
SEIHIN
  6
CONTINUOUS
100
AcDbLine
 10
722.2044513216412
 20
223.3126092206794
 30
0.0
 11
722.2044513216412
 21
223.8115092206794
 31
0.0
  0
LINE
  5
5A7
330
1A
100
AcDbEntity
  8
SEIHIN
  6
CONTINUOUS
100
AcDbLine
 10
720.039451321641
 20
225.0614092206795
 30
0.0
 11
720.039451321641
 21
226.0625092206795
 31
0.0
  0
LINE
  5
5A8
330
1A
100
AcDbEntity
  8
SEIHIN
  6
CONTINUOUS
100
AcDbLine
 10
716.1945513216412
 20
223.1559092206795
 30
0.0
 11
716.1945513216412
 21
222.6570092206795
 31
0.0
  0
LINE
  5
5A9
330
1A
100
AcDbEntity
  8
SEIHIN
  6
CONTINUOUS
100
AcDbLine
 10
717.631851321641
 20
227.3126092206794
 30
0.0
 11
716.1945513216412
 21
227.1558092206795
 31
0.0
  0
LINE
  5
5AA
330
1A
100
AcDbEntity
  8
SEIHIN
  6
CONTINUOUS
100
AcDbLine
 10
716.1945513216412
 20
227.1558092206795
 30
0.0
 11
716.1945513216412
 21
226.6569092206794
 31
0.0
  0
LINE
  5
5AB
330
1A
100
AcDbEntity
  8
SEIHIN
  6
CONTINUOUS
100
AcDbLine
 10
715.8803513216412
 20
227.3126092206794
 30
0.0
 11
716.1945513216412
 21
227.1558092206795
 31
0.0
  0
LINE
  5
5AC
330
1A
100
AcDbEntity
  8
SEIHIN
  6
CONTINUOUS
100
AcDbLine
 10
722.2044513216412
 20
227.3125092206795
 30
0.0
 11
716.1945513216412
 21
226.6569092206794
 31
0.0
  0
LINE
  5
5AD
330
1A
100
AcDbEntity
  8
SEIHIN
  6
CONTINUOUS
100
AcDbLine
 10
722.2044513216412
 20
227.3125092206795
 30
0.0
 11
715.8803513216412
 21
227.3126092206794
 31
0.0
  0
LINE
  5
5AE
330
1A
100
AcDbEntity
  8
SEIHIN
  6
CONTINUOUS
100
AcDbLine
 10
716.1945513216412
 20
223.1559092206795
 30
0.0
 11
722.2044513216412
 21
223.8115092206794
 31
0.0
  0
LINE
  5
5AF
330
1A
100
AcDbEntity
  8
SEIHIN
  6
CONTINUOUS
100
AcDbLine
 10
722.2044513216412
 20
227.3125092206795
 30
0.0
 11
720.039451321641
 21
226.0626092206794
 31
0.0
  0
LINE
  5
5B0
330
1A
100
AcDbEntity
  8
SEIHIN
  6
CONTINUOUS
100
AcDbLine
 10
720.039451321641
 20
225.0614092206795
 30
0.0
 11
722.2044513216412
 21
223.8115092206794
 31
0.0
  0
LINE
  5
5B1
330
1A
100
AcDbEntity
  8
SEIHIN
  6
CONTINUOUS
100
AcDbLine
 10
722.2044513216412
 20
223.3126092206794
 30
0.0
 11
720.039451321641
 21
222.0627092206794
 31
0.0
  0
LINE
  5
5B2
330
1A
100
AcDbEntity
  8
SEIHIN
  6
CONTINUOUS
100
AcDbLine
 10
722.2044513216412
 20
223.3126092206794
 30
0.0
 11
716.1945513216412
 21
222.6570092206795
 31
0.0
  0
LINE
  5
5B3
330
1A
100
AcDbEntity
  8
SEIHIN
  6
CONTINUOUS
100
AcDbLine
 10
722.2044513216412
 20
227.3125092206795
 30
0.0
 11
716.1945513216412
 21
226.6569092206794
 31
0.0
  0
LINE
  5
5B8
330
1A
100
AcDbEntity
  8
SEIHIN
  6
CONTINUOUS
100
AcDbLine
 10
726.8762513216413
 20
244.8125092206795
 30
0.0
 11
722.2044513216412
 21
240.1408092206795
 31
0.0
  0
LINE
  5
5B9
330
1A
100
AcDbEntity
  8
SEIHIN
  6
CONTINUOUS
100
AcDbLine
 10
737.2047513216411
 20
243.8125092206795
 30
0.0
 11
737.2047513216411
 21
245.8125092206795
 31
0.0
  0
LINE
  5
5BA
330
1A
100
AcDbEntity
  8
SEIHIN
  6
CONTINUOUS
100
AcDbLine
 10
727.2046513216412
 20
242.3125092206795
 30
0.0
 11
733.2047513216411
 21
242.3125092206795
 31
0.0
  0
LINE
  5
5BB
330
1A
100
AcDbEntity
  8
SEIHIN
  6
CONTINUOUS
100
AcDbLine
 10
724.2046513216412
 20
239.3126092206794
 30
0.0
 11
727.2046513216412
 21
242.3125092206795
 31
0.0
  0
LINE
  5
5BC
330
1A
100
AcDbEntity
  8
SEIHIN
  6
CONTINUOUS
100
AcDbLine
 10
733.2047513216411
 20
242.3125092206795
 30
0.0
 11
737.2047513216411
 21
243.8125092206795
 31
0.0
  0
LINE
  5
5BD
330
1A
100
AcDbEntity
  8
SEIHIN
  6
CONTINUOUS
100
AcDbLine
 10
734.2047513216412
 20
244.8125092206795
 30
0.0
 11
734.2047513216412
 21
245.8125092206795
 31
0.0
  0
ARC
  5
5C1
330
1A
100
AcDbEntity
  8
SEIHIN
  6
CONTINUOUS
100
AcDbCircle
 10
667.2042274011435
 20
328.1128532319288
 30
0.0
 40
69.99997399992297
100
AcDbArc
 50
69.07470032093719
 51
73.3979965670187
  0
LINE
  5
5C2
330
1A
100
AcDbEntity
  8
SEIHIN
  6
CONTINUOUS
100
AcDbLine
 10
667.2047513216412
 20
360.1127092206794
 30
0.0
 11
728.2047513216411
 21
360.1125092206795
 31
0.0
  0
LINE
  5
5C3
330
1A
100
AcDbEntity
  8
SEIHIN
  6
CONTINUOUS
100
AcDbLine
 10
667.2047513216412
 20
359.1127092206793
 30
0.0
 11
732.2047513216412
 21
359.1125092206795
 31
0.0
  0
LINE
  5
5C4
330
1A
100
AcDbEntity
  8
SEIHIN
  6
CONTINUOUS
100
AcDbLine
 10
667.2047513216412
 20
358.1127092206794
 30
0.0
 11
732.2047513216412
 21
358.1125092206795
 31
0.0
  0
LINE
  5
5C5
330
1A
100
AcDbEntity
  8
SEIHIN
  6
CONTINUOUS
100
AcDbLine
 10
720.0391513216414
 20
325.8622092206794
 30
0.0
 11
667.3351513216411
 21
320.1127092206793
 31
0.0
  0
LINE
  5
5C6
330
1A
100
AcDbEntity
  8
SEIHIN
  6
CONTINUOUS
100
AcDbLine
 10
680.9568513216411
 20
320.1126092206795
 30
0.0
 11
722.2041513216413
 21
324.6122092206793
 31
0.0
  0
LINE
  5
5C7
330
1A
100
AcDbEntity
  8
SEIHIN
  6
CONTINUOUS
100
AcDbLine
 10
722.2041513216413
 20
324.1134092206795
 30
0.0
 11
685.5296513216412
 21
320.1126092206795
 31
0.0
  0
LINE
  5
5C8
330
1A
100
AcDbEntity
  8
SEIHIN
  6
CONTINUOUS
100
AcDbLine
 10
720.0391513216414
 20
326.8633092206794
 30
0.0
 11
658.1583513216412
 21
320.1127092206793
 31
0.0
  0
LINE
  5
5C9
330
1A
100
AcDbEntity
  8
SEIHIN
  6
CONTINUOUS
100
AcDbLine
 10
612.2045513216413
 20
320.1128092206794
 30
0.0
 11
722.204551321641
 21
320.1126092206795
 31
0.0
  0
LINE
  5
5CA
330
1A
100
AcDbEntity
  8
SEIHIN
  6
CONTINUOUS
100
AcDbLine
 10
614.3696513216414
 20
318.1128092206793
 30
0.0
 11
720.0390513216412
 21
318.1126092206795
 31
0.0
  0
LINE
  5
5CB
330
1A
100
AcDbEntity
  8
SEIHIN
  6
CONTINUOUS
100
AcDbLine
 10
612.2046513216413
 20
356.1128092206794
 30
0.0
 11
722.2046513216412
 21
356.1126092206795
 31
0.0
  0
LINE
  5
5CC
330
1A
100
AcDbEntity
  8
SEIHIN
  6
CONTINUOUS
100
AcDbLine
 10
722.204551321641
 20
356.1127092206794
 30
0.0
 11
612.2045513216413
 21
344.1131092206794
 31
0.0
  0
LINE
  5
5CD
330
1A
100
AcDbEntity
  8
SEIHIN
  6
CONTINUOUS
100
AcDbLine
 10
720.0395513216411
 20
354.8627092206795
 30
0.0
 11
614.3696513216414
 21
343.3350092206795
 31
0.0
  0
LINE
  5
5CE
330
1A
100
AcDbEntity
  8
SEIHIN
  6
CONTINUOUS
100
AcDbLine
 10
720.0395513216411
 20
353.8616092206794
 30
0.0
 11
614.3696513216414
 21
342.3339092206793
 31
0.0
  0
LINE
  5
5CF
330
1A
100
AcDbEntity
  8
SEIHIN
  6
CONTINUOUS
100
AcDbLine
 10
612.2045513216413
 20
340.6119092206794
 30
0.0
 11
722.204551321641
 21
352.6116092206794
 31
0.0
  0
LINE
  5
5D0
330
1A
100
AcDbEntity
  8
SEIHIN
  6
CONTINUOUS
100
AcDbLine
 10
722.204551321641
 20
352.1128092206794
 30
0.0
 11
612.2045513216413
 21
340.1130092206795
 31
0.0
  0
LINE
  5
5D1
330
1A
100
AcDbEntity
  8
SEIHIN
  6
CONTINUOUS
100
AcDbLine
 10
722.2044513216412
 20
344.1129092206793
 30
0.0
 11
612.2045513216413
 21
332.1132092206795
 31
0.0
  0
LINE
  5
5D2
330
1A
100
AcDbEntity
  8
SEIHIN
  6
CONTINUOUS
100
AcDbLine
 10
612.2045513216413
 20
332.6121092206795
 30
0.0
 11
722.2044513216412
 21
344.6118092206793
 31
0.0
  0
LINE
  5
5D3
330
1A
100
AcDbEntity
  8
SEIHIN
  6
CONTINUOUS
100
AcDbLine
 10
720.039451321641
 20
350.8628092206794
 30
0.0
 11
614.3696513216414
 21
339.3351092206795
 31
0.0
  0
LINE
  5
5D4
330
1A
100
AcDbEntity
  8
SEIHIN
  6
CONTINUOUS
100
AcDbLine
 10
720.039451321641
 20
349.8617092206795
 30
0.0
 11
614.3696513216414
 21
338.3340092206795
 31
0.0
  0
LINE
  5
5D5
330
1A
100
AcDbEntity
  8
SEIHIN
  6
CONTINUOUS
100
AcDbLine
 10
722.2044513216412
 20
348.1129092206793
 30
0.0
 11
612.2045513216413
 21
336.1132092206795
 31
0.0
  0
LINE
  5
5D6
330
1A
100
AcDbEntity
  8
SEIHIN
  6
CONTINUOUS
100
AcDbLine
 10
612.2045513216413
 20
336.6119092206794
 30
0.0
 11
722.2044513216412
 21
348.6117092206793
 31
0.0
  0
LINE
  5
5D7
330
1A
100
AcDbEntity
  8
SEIHIN
  6
CONTINUOUS
100
AcDbLine
 10
720.039451321641
 20
346.8629092206793
 30
0.0
 11
614.3696513216414
 21
335.3352092206793
 31
0.0
  0
LINE
  5
5D8
330
1A
100
AcDbEntity
  8
SEIHIN
  6
CONTINUOUS
100
AcDbLine
 10
720.0392513216414
 20
333.8620092206793
 30
0.0
 11
614.3696513216414
 21
322.3344092206793
 31
0.0
  0
LINE
  5
5D9
330
1A
100
AcDbEntity
  8
SEIHIN
  6
CONTINUOUS
100
AcDbLine
 10
722.2042513216413
 20
332.1132092206795
 30
0.0
 11
612.1976513216414
 21
320.1128092206794
 31
0.0
  0
LINE
  5
5DA
330
1A
100
AcDbEntity
  8
SEIHIN
  6
CONTINUOUS
100
AcDbLine
 10
612.2045513216413
 20
320.6124092206793
 30
0.0
 11
722.2042513216413
 21
332.6121092206795
 31
0.0
  0
LINE
  5
5DB
330
1A
100
AcDbEntity
  8
SEIHIN
  6
CONTINUOUS
100
AcDbLine
 10
720.0392513216414
 20
334.8632092206794
 30
0.0
 11
614.3696513216414
 21
323.3355092206794
 31
0.0
  0
LINE
  5
5DC
330
1A
100
AcDbEntity
  8
SEIHIN
  6
CONTINUOUS
100
AcDbLine
 10
720.0393513216413
 20
337.8619092206794
 30
0.0
 11
614.3696513216414
 21
326.3343092206794
 31
0.0
  0
LINE
  5
5DD
330
1A
100
AcDbEntity
  8
SEIHIN
  6
CONTINUOUS
100
AcDbLine
 10
722.2042513216413
 20
336.1131092206795
 30
0.0
 11
612.2045513216413
 21
324.1134092206795
 31
0.0
  0
LINE
  5
5DE
330
1A
100
AcDbEntity
  8
SEIHIN
  6
CONTINUOUS
100
AcDbLine
 10
720.0391513216414
 20
329.8621092206795
 30
0.0
 11
630.6701513216412
 21
320.1127092206793
 31
0.0
  0
LINE
  5
5DF
330
1A
100
AcDbEntity
  8
SEIHIN
  6
CONTINUOUS
100
AcDbLine
 10
722.2041513216413
 20
328.1133092206793
 30
0.0
 11
648.8635513216413
 21
320.1127092206793
 31
0.0
  0
LINE
  5
5E0
330
1A
100
AcDbEntity
  8
SEIHIN
  6
CONTINUOUS
100
AcDbLine
 10
612.2045513216413
 20
324.6123092206794
 30
0.0
 11
722.2042513216413
 21
336.6120092206793
 31
0.0
  0
LINE
  5
5E1
330
1A
100
AcDbEntity
  8
SEIHIN
  6
CONTINUOUS
100
AcDbLine
 10
644.2908513216414
 20
320.1127092206793
 30
0.0
 11
722.2041513216413
 21
328.6121092206795
 31
0.0
  0
LINE
  5
5E2
330
1A
100
AcDbEntity
  8
SEIHIN
  6
CONTINUOUS
100
AcDbLine
 10
720.0391513216414
 20
330.8632092206794
 30
0.0
 11
621.4933513216412
 21
320.1128092206794
 31
0.0
  0
LINE
  5
5E3
330
1A
100
AcDbEntity
  8
SEIHIN
  6
CONTINUOUS
100
AcDbLine
 10
720.0393513216413
 20
341.8618092206794
 30
0.0
 11
614.3696513216414
 21
330.3342092206794
 31
0.0
  0
LINE
  5
5E4
330
1A
100
AcDbEntity
  8
SEIHIN
  6
CONTINUOUS
100
AcDbLine
 10
722.204351321641
 20
340.1130092206795
 30
0.0
 11
612.2045513216413
 21
328.1133092206793
 31
0.0
  0
LINE
  5
5E5
330
1A
100
AcDbEntity
  8
SEIHIN
  6
CONTINUOUS
100
AcDbLine
 10
612.2045513216413
 20
328.6122092206795
 30
0.0
 11
722.204351321641
 21
340.6119092206794
 31
0.0
  0
LINE
  5
5E6
330
1A
100
AcDbEntity
  8
SEIHIN
  6
CONTINUOUS
100
AcDbLine
 10
720.0393513216413
 20
342.8630092206795
 30
0.0
 11
614.3696513216414
 21
331.3353092206794
 31
0.0
  0
LINE
  5
5E7
330
1A
100
AcDbEntity
  8
SEIHIN
  6
CONTINUOUS
100
AcDbLine
 10
720.039451321641
 20
345.8618092206794
 30
0.0
 11
614.3696513216414
 21
334.3341092206792
 31
0.0
  0
LINE
  5
5E8
330
1A
100
AcDbEntity
  8
SEIHIN
  6
CONTINUOUS
100
AcDbLine
 10
720.0393513216413
 20
338.8631092206793
 30
0.0
 11
614.3696513216414
 21
327.3354092206795
 31
0.0
  0
LINE
  5
5E9
330
1A
100
AcDbEntity
  8
SEIHIN
  6
CONTINUOUS
100
AcDbLine
 10
694.8313513216412
 20
356.1126092206795
 30
0.0
 11
614.3696513216414
 21
347.3350092206795
 31
0.0
  0
LINE
  5
5EA
330
1A
100
AcDbEntity
  8
SEIHIN
  6
CONTINUOUS
100
AcDbLine
 10
704.0081513216412
 20
356.1126092206795
 30
0.0
 11
614.3696513216414
 21
346.3338092206794
 31
0.0
  0
LINE
  5
5EB
330
1A
100
AcDbEntity
  8
SEIHIN
  6
CONTINUOUS
100
AcDbLine
 10
612.2045513216413
 20
344.6118092206793
 30
0.0
 11
717.6308513216413
 21
356.1126092206795
 31
0.0
  0
LINE
  5
5ED
330
1A
100
AcDbEntity
  8
SEIHIN
  6
CONTINUOUS
100
AcDbLine
 10
602.2046513216412
 20
359.1130092206795
 30
0.0
 11
602.2046513216412
 21
358.1130092206795
 31
0.0
  0
LINE
  5
5EE
330
1A
100
AcDbEntity
  8
CENTER_L
 48
5.0
100
AcDbLine
 10
667.2045513216412
 20
309.2530092206795
 30
0.0
 11
667.2048513216414
 21
405.7974092206795
 31
0.0
  0
LINE
  5
5EF
330
1A
100
AcDbEntity
  8
SEIHIN
  6
CONTINUOUS
100
AcDbLine
 10
648.8707513216414
 20
356.1127092206794
 30
0.0
 11
612.2045513216413
 21
352.1129092206793
 31
0.0
  0
LINE
  5
5F0
330
1A
100
AcDbEntity
  8
SEIHIN
  6
CONTINUOUS
100
AcDbLine
 10
630.6778513216411
 20
356.1127092206794
 30
0.0
 11
614.3696513216414
 21
354.3336092206795
 31
0.0
  0
LINE
  5
5F1
330
1A
100
AcDbEntity
  8
SEIHIN
  6
CONTINUOUS
100
AcDbLine
 10
612.2045513216413
 20
352.6116092206794
 30
0.0
 11
644.2987513216412
 21
356.1127092206794
 31
0.0
  0
LINE
  5
5F2
330
1A
100
AcDbEntity
  8
SEIHIN
  6
CONTINUOUS
100
AcDbLine
 10
667.2046513216412
 20
358.1127092206794
 30
0.0
 11
602.2046513216412
 21
358.1130092206795
 31
0.0
  0
LINE
  5
5F3
330
1A
100
AcDbEntity
  8
SEIHIN
  6
CONTINUOUS
100
AcDbLine
 10
685.5372513216411
 20
356.1126092206795
 30
0.0
 11
612.2045513216413
 21
348.1130092206795
 31
0.0
  0
LINE
  5
5F4
330
1A
100
AcDbEntity
  8
SEIHIN
  6
CONTINUOUS
100
AcDbLine
 10
658.1661513216411
 20
356.1127092206794
 30
0.0
 11
614.3696513216414
 21
351.3349092206795
 31
0.0
  0
LINE
  5
5F5
330
1A
100
AcDbEntity
  8
SEIHIN
  6
CONTINUOUS
100
AcDbLine
 10
667.3430513216413
 20
356.1127092206794
 30
0.0
 11
614.3696513216414
 21
350.3337092206793
 31
0.0
  0
LINE
  5
5F6
330
1A
100
AcDbEntity
  8
SEIHIN
  6
CONTINUOUS
100
AcDbLine
 10
612.2045513216413
 20
348.6117092206793
 30
0.0
 11
680.9647513216411
 21
356.1126092206795
 31
0.0
  0
LINE
  5
5FA
330
1A
100
AcDbEntity
  8
SEIHIN
  6
CONTINUOUS
100
AcDbLine
 10
612.2045513216413
 20
336.1131092206795
 30
0.0
 11
614.3696513216414
 21
335.3352092206793
 31
0.0
  0
LINE
  5
5FB
330
1A
100
AcDbEntity
  8
SEIHIN
  6
CONTINUOUS
100
AcDbLine
 10
612.2045513216413
 20
324.1134092206795
 30
0.0
 11
614.3696513216414
 21
323.3355092206794
 31
0.0
  0
LINE
  5
5FC
330
1A
100
AcDbEntity
  8
SEIHIN
  6
CONTINUOUS
100
AcDbLine
 10
614.3696513216414
 20
323.3355092206794
 30
0.0
 11
614.3696513216414
 21
322.3344092206793
 31
0.0
  0
LINE
  5
5FD
330
1A
100
AcDbEntity
  8
SEIHIN
  6
CONTINUOUS
100
AcDbLine
 10
614.3696513216414
 20
322.3344092206793
 30
0.0
 11
612.2045513216413
 21
320.6123092206794
 31
0.0
  0
LINE
  5
5FE
330
1A
100
AcDbEntity
  8
SEIHIN
  6
CONTINUOUS
100
AcDbLine
 10
612.2045513216413
 20
320.6123092206794
 30
0.0
 11
612.2045513216413
 21
320.1135092206795
 31
0.0
  0
LINE
  5
5FF
330
1A
100
AcDbEntity
  8
SEIHIN
  6
CONTINUOUS
100
AcDbLine
 10
614.3696513216414
 20
320.1128092206794
 30
0.0
 11
614.3696513216414
 21
318.1128092206793
 31
0.0
  0
LINE
  5
600
330
1A
100
AcDbEntity
  8
SEIHIN
  6
CONTINUOUS
100
AcDbLine
 10
614.3696513216414
 20
335.3352092206793
 30
0.0
 11
614.3696513216414
 21
334.3341092206792
 31
0.0
  0
LINE
  5
601
330
1A
100
AcDbEntity
  8
SEIHIN
  6
CONTINUOUS
100
AcDbLine
 10
614.3696513216414
 20
334.3341092206792
 30
0.0
 11
612.2045513216413
 21
332.6121092206795
 31
0.0
  0
LINE
  5
602
330
1A
100
AcDbEntity
  8
SEIHIN
  6
CONTINUOUS
100
AcDbLine
 10
612.2045513216413
 20
332.6121092206795
 30
0.0
 11
612.2045513216413
 21
332.1132092206795
 31
0.0
  0
LINE
  5
603
330
1A
100
AcDbEntity
  8
SEIHIN
  6
CONTINUOUS
100
AcDbLine
 10
612.2045513216413
 20
332.1132092206795
 30
0.0
 11
614.3696513216414
 21
331.3353092206794
 31
0.0
  0
LINE
  5
604
330
1A
100
AcDbEntity
  8
SEIHIN
  6
CONTINUOUS
100
AcDbLine
 10
614.3696513216414
 20
331.3353092206794
 30
0.0
 11
614.3696513216414
 21
330.3342092206794
 31
0.0
  0
LINE
  5
605
330
1A
100
AcDbEntity
  8
SEIHIN
  6
CONTINUOUS
100
AcDbLine
 10
614.3696513216414
 20
330.3342092206794
 30
0.0
 11
612.2045513216413
 21
328.6121092206795
 31
0.0
  0
LINE
  5
606
330
1A
100
AcDbEntity
  8
SEIHIN
  6
CONTINUOUS
100
AcDbLine
 10
612.2045513216413
 20
328.6121092206795
 30
0.0
 11
612.2045513216413
 21
328.1133092206793
 31
0.0
  0
LINE
  5
607
330
1A
100
AcDbEntity
  8
SEIHIN
  6
CONTINUOUS
100
AcDbLine
 10
612.2045513216413
 20
328.1133092206793
 30
0.0
 11
614.3696513216414
 21
327.3354092206795
 31
0.0
  0
LINE
  5
608
330
1A
100
AcDbEntity
  8
SEIHIN
  6
CONTINUOUS
100
AcDbLine
 10
614.3696513216414
 20
326.3343092206794
 30
0.0
 11
612.2045513216413
 21
324.6122092206793
 31
0.0
  0
LINE
  5
609
330
1A
100
AcDbEntity
  8
SEIHIN
  6
CONTINUOUS
100
AcDbLine
 10
612.2045513216413
 20
324.6122092206793
 30
0.0
 11
612.2045513216413
 21
324.1134092206795
 31
0.0
  0
LINE
  5
60A
330
1A
100
AcDbEntity
  8
SEIHIN
  6
CONTINUOUS
100
AcDbLine
 10
614.3696513216414
 20
327.3354092206795
 30
0.0
 11
614.3696513216414
 21
326.3343092206794
 31
0.0
  0
LINE
  5
60B
330
1A
100
AcDbEntity
  8
SEIHIN
  6
CONTINUOUS
100
AcDbLine
 10
614.3696513216414
 20
347.3350092206795
 30
0.0
 11
614.3696513216414
 21
346.3338092206794
 31
0.0
  0
LINE
  5
60C
330
1A
100
AcDbEntity
  8
SEIHIN
  6
CONTINUOUS
100
AcDbLine
 10
614.3696513216414
 20
343.3350092206795
 30
0.0
 11
614.3696513216414
 21
342.3339092206793
 31
0.0
  0
LINE
  5
60D
330
1A
100
AcDbEntity
  8
SEIHIN
  6
CONTINUOUS
100
AcDbLine
 10
614.3696513216414
 20
342.3339092206793
 30
0.0
 11
612.2045513216413
 21
340.6119092206794
 31
0.0
  0
LINE
  5
60E
330
1A
100
AcDbEntity
  8
SEIHIN
  6
CONTINUOUS
100
AcDbLine
 10
612.2045513216413
 20
340.6119092206794
 30
0.0
 11
612.2045513216413
 21
340.1130092206795
 31
0.0
  0
LINE
  5
60F
330
1A
100
AcDbEntity
  8
SEIHIN
  6
CONTINUOUS
100
AcDbLine
 10
612.2045513216413
 20
340.1130092206795
 30
0.0
 11
614.3696513216414
 21
339.3351092206795
 31
0.0
  0
LINE
  5
610
330
1A
100
AcDbEntity
  8
SEIHIN
  6
CONTINUOUS
100
AcDbLine
 10
614.3696513216414
 20
339.3351092206795
 30
0.0
 11
614.3696513216414
 21
338.3340092206795
 31
0.0
  0
LINE
  5
611
330
1A
100
AcDbEntity
  8
SEIHIN
  6
CONTINUOUS
100
AcDbLine
 10
612.2045513216413
 20
344.1129092206793
 30
0.0
 11
614.3696513216414
 21
343.3350092206795
 31
0.0
  0
LINE
  5
612
330
1A
100
AcDbEntity
  8
SEIHIN
  6
CONTINUOUS
100
AcDbLine
 10
612.2045513216413
 20
344.6118092206793
 30
0.0
 11
612.2045513216413
 21
344.1129092206793
 31
0.0
  0
LINE
  5
613
330
1A
100
AcDbEntity
  8
SEIHIN
  6
CONTINUOUS
100
AcDbLine
 10
614.3696513216414
 20
346.3338092206794
 30
0.0
 11
612.2045513216413
 21
344.6118092206793
 31
0.0
  0
LINE
  5
614
330
1A
100
AcDbEntity
  8
SEIHIN
  6
CONTINUOUS
100
AcDbLine
 10
612.2045513216413
 20
336.6120092206793
 30
0.0
 11
612.2045513216413
 21
336.1131092206795
 31
0.0
  0
LINE
  5
615
330
1A
100
AcDbEntity
  8
SEIHIN
  6
CONTINUOUS
100
AcDbLine
 10
614.3696513216414
 20
338.3340092206795
 30
0.0
 11
612.2045513216413
 21
336.6120092206793
 31
0.0
  0
LINE
  5
616
330
1A
100
AcDbEntity
  8
SEIHIN
  6
CONTINUOUS
100
AcDbLine
 10
621.5010513216411
 20
356.1127092206794
 30
0.0
 11
614.3696513216414
 21
355.3348092206794
 31
0.0
  0
LINE
  5
617
330
1A
100
AcDbEntity
  8
SEIHIN
  6
CONTINUOUS
100
AcDbLine
 10
614.3696513216414
 20
350.3337092206793
 30
0.0
 11
612.2045513216413
 21
348.6117092206793
 31
0.0
  0
LINE
  5
618
330
1A
100
AcDbEntity
  8
SEIHIN
  6
CONTINUOUS
100
AcDbLine
 10
614.3696513216414
 20
351.3349092206795
 30
0.0
 11
614.3696513216414
 21
350.3337092206793
 31
0.0
  0
LINE
  5
619
330
1A
100
AcDbEntity
  8
SEIHIN
  6
CONTINUOUS
100
AcDbLine
 10
612.2045513216413
 20
352.1128092206794
 30
0.0
 11
614.3696513216414
 21
351.3349092206795
 31
0.0
  0
LINE
  5
61A
330
1A
100
AcDbEntity
  8
SEIHIN
  6
CONTINUOUS
100
AcDbLine
 10
612.2045513216413
 20
352.6116092206794
 30
0.0
 11
612.2045513216413
 21
352.1128092206794
 31
0.0
  0
LINE
  5
61B
330
1A
100
AcDbEntity
  8
SEIHIN
  6
CONTINUOUS
100
AcDbLine
 10
614.3696513216414
 20
354.3336092206795
 30
0.0
 11
612.2045513216413
 21
352.6116092206794
 31
0.0
  0
LINE
  5
61C
330
1A
100
AcDbEntity
  8
SEIHIN
  6
CONTINUOUS
100
AcDbLine
 10
614.3696513216414
 20
355.3348092206794
 30
0.0
 11
614.3696513216414
 21
354.3336092206795
 31
0.0
  0
LINE
  5
61D
330
1A
100
AcDbEntity
  8
SEIHIN
  6
CONTINUOUS
100
AcDbLine
 10
612.2045513216413
 20
356.1127092206794
 30
0.0
 11
614.3696513216414
 21
355.3348092206794
 31
0.0
  0
LINE
  5
61E
330
1A
100
AcDbEntity
  8
SEIHIN
  6
CONTINUOUS
100
AcDbLine
 10
614.3696513216414
 20
358.1127092206794
 30
0.0
 11
614.3696513216414
 21
356.1128092206794
 31
0.0
  0
LINE
  5
61F
330
1A
100
AcDbEntity
  8
SEIHIN
  6
CONTINUOUS
100
AcDbLine
 10
612.2045513216413
 20
348.1129092206793
 30
0.0
 11
614.3696513216414
 21
347.3350092206795
 31
0.0
  0
LINE
  5
620
330
1A
100
AcDbEntity
  8
SEIHIN
  6
CONTINUOUS
100
AcDbLine
 10
612.2045513216413
 20
348.6117092206793
 30
0.0
 11
612.2045513216413
 21
348.1129092206793
 31
0.0
  0
LINE
  5
622
330
1A
100
AcDbEntity
  8
SEIHIN
  6
CONTINUOUS
100
AcDbLine
 10
624.9555513216413
 20
380.1129092206794
 30
0.0
 11
620.4547513216413
 21
380.1129092206794
 31
0.0
  0
LINE
  5
623
330
1A
100
AcDbEntity
  8
SEIHIN
  6
CONTINUOUS
100
AcDbLine
 10
642.2047513216412
 20
374.1129092206793
 30
0.0
 11
623.8901513216411
 21
374.1129092206793
 31
0.0
  0
ARC
  5
624
330
1A
100
AcDbEntity
  8
SEIHIN
  6
CONTINUOUS
100
AcDbCircle
 10
667.2046517599945
 20
328.1127094789019
 30
0.0
 40
66.99996202107119
100
AcDbArc
 50
111.9091554273403
 51
129.0933283542432
  0
LINE
  5
625
330
1A
100
AcDbEntity
  8
SEIHIN
  6
CONTINUOUS
100
AcDbLine
 10
667.2046513216412
 20
360.1127092206794
 30
0.0
 11
606.2046513216412
 21
360.1130092206795
 31
0.0
  0
LINE
  5
626
330
1A
100
AcDbEntity
  8
SEIHIN
  6
CONTINUOUS
100
AcDbLine
 10
667.2046513216412
 20
359.1127092206793
 30
0.0
 11
602.2046513216412
 21
359.1130092206795
 31
0.0
  0
LINE
  5
627
330
1A
100
AcDbEntity
  8
SEIHIN
  6
CONTINUOUS
100
AcDbLine
 10
606.2046513216412
 20
360.1130092206795
 30
0.0
 11
602.2046513216412
 21
359.1130092206795
 31
0.0
  0
LINE
  5
628
330
1A
100
AcDbEntity
  8
SEIHIN
  6
CONTINUOUS
100
AcDbLine
 10
621.5101513216414
 20
374.1129092206793
 30
0.0
 11
621.5101513216414
 21
360.1129092206794
 31
0.0
  0
LINE
  5
629
330
1A
100
AcDbEntity
  8
SEIHIN
  6
CONTINUOUS
100
AcDbLine
 10
623.8901513216411
 20
374.1129092206793
 30
0.0
 11
623.8900513216413
 21
360.1129092206794
 31
0.0
  0
LINE
  5
62A
330
1A
100
AcDbEntity
  8
SEIHIN
  6
CONTINUOUS
100
AcDbLine
 10
617.9547513216411
 20
377.8566092206794
 30
0.0
 11
617.9547513216411
 21
374.1129092206793
 31
0.0
  0
LINE
  5
62B
330
1A
100
AcDbEntity
  8
SEIHIN
  6
CONTINUOUS
100
AcDbLine
 10
621.5101513216414
 20
374.1129092206793
 30
0.0
 11
617.9547513216411
 21
374.1129092206793
 31
0.0
  0
ARC
  5
62C
330
1A
100
AcDbEntity
  8
SEIHIN
  6
CONTINUOUS
100
AcDbCircle
 10
667.2040095649052
 20
328.1121029913407
 30
0.0
 40
70.00003671065619
100
AcDbArc
 50
132.0236751679458
 51
134.7135934258074
  0
LINE
  5
62D
330
1A
100
AcDbEntity
  8
SEIHIN
  6
CONTINUOUS
100
AcDbLine
 10
667.2047513216412
 20
374.1127092206793
 30
0.0
 11
647.2047513216412
 21
374.1128092206794
 31
0.0
  0
LINE
  5
62E
330
1A
100
AcDbEntity
  8
SEIHIN
  6
CONTINUOUS
100
AcDbLine
 10
647.2047513216412
 20
380.1128092206795
 30
0.0
 11
667.2047513216412
 21
380.1127092206793
 31
0.0
  0
ARC
  5
62F
330
1A
100
AcDbEntity
  8
SEIHIN
  6
CONTINUOUS
100
AcDbCircle
 10
667.2047222886805
 20
328.1127208428103
 30
0.0
 40
62.69998837790942
100
AcDbArc
 50
90.00006485028057
 51
108.6013748915504
  0
ARC
  5
630
330
1A
100
AcDbEntity
  8
SEIHIN
  6
CONTINUOUS
100
AcDbCircle
 10
667.2048320287765
 20
328.1127368212499
 30
0.0
 40
66.99997239967314
100
AcDbArc
 50
90.00015453373785
 51
107.368238811441
  0
ARC
  5
631
330
1A
100
AcDbEntity
  8
SEIHIN
  6
CONTINUOUS
100
AcDbCircle
 10
667.2046907963991
 20
328.1127154047391
 30
0.0
 40
65.39999381595221
100
AcDbArc
 50
90.00003458313802
 51
107.8070560795029
  0
LINE
  5
632
330
1A
100
AcDbEntity
  8
SEIHIN
  6
CONTINUOUS
100
AcDbLine
 10
642.2048513216414
 20
388.5459092206793
 30
0.0
 11
642.2047513216412
 21
380.1129092206794
 31
0.0
  0
LINE
  5
633
330
1A
100
AcDbEntity
  8
SEIHIN
  6
CONTINUOUS
100
AcDbLine
 10
647.2048513216414
 20
390.3796092206793
 30
0.0
 11
647.2047513216412
 21
380.1128092206795
 31
0.0
  0
ARC
  5
634
330
1A
100
AcDbEntity
  8
SEIHIN
  6
CONTINUOUS
100
AcDbCircle
 10
667.2046295104244
 20
328.1126972628269
 30
0.0
 40
62.69999828305937
100
AcDbArc
 50
113.4985175354796
 51
123.9683537369313
  0
ARC
  5
635
330
1A
100
AcDbEntity
  8
SEIHIN
  6
CONTINUOUS
100
AcDbCircle
 10
667.2044203837802
 20
328.1125764022121
 30
0.0
 40
65.39997702888439
100
AcDbArc
 50
112.4738127054293
 51
127.3344153402566
  0
LINE
  5
636
330
1A
100
AcDbEntity
  8
SEIHIN
  6
CONTINUOUS
100
AcDbLine
 10
642.2047513216412
 20
380.1129092206794
 30
0.0
 11
627.5417513216414
 21
380.1129092206794
 31
0.0
  0
LINE
  5
637
330
1A
100
AcDbEntity
  8
SEIHIN
  6
CONTINUOUS
100
AcDbLine
 10
628.0858513216412
 20
374.1129092206793
 30
0.0
 11
628.0858513216412
 21
360.1128092206794
 31
0.0
  0
LINE
  5
638
330
1A
100
AcDbEntity
  8
SEIHIN
  6
CONTINUOUS
100
AcDbLine
 10
647.2047513216412
 20
374.1128092206794
 30
0.0
 11
647.2046513216412
 21
360.1128092206794
 31
0.0
  0
LINE
  5
639
330
1A
100
AcDbEntity
  8
SEIHIN
  6
CONTINUOUS
100
AcDbLine
 10
642.2047513216412
 20
374.1129092206793
 30
0.0
 11
642.2046513216412
 21
360.1128092206794
 31
0.0
  0
LINE
  5
63A
330
1A
100
AcDbEntity
  8
SEIHIN
  6
CONTINUOUS
100
AcDbLine
 10
642.2048513216414
 20
393.4963092206793
 30
0.0
 11
642.2048513216414
 21
390.2739092206795
 31
0.0
  0
LINE
  5
63B
330
1A
100
AcDbEntity
  8
SEIHIN
  6
CONTINUOUS
100
AcDbLine
 10
647.2048513216414
 20
395.1948092206794
 30
0.0
 11
647.2048513216414
 21
392.0581092206794
 31
0.0
  0
ARC
  5
63C
330
1A
100
AcDbEntity
  8
SEIHIN
  6
CONTINUOUS
100
AcDbCircle
 10
667.2050752421389
 20
328.112853231931
 30
0.0
 40
69.99997399992082
100
AcDbArc
 50
106.6020034329818
 51
110.9252996790633
  0
LINE
  5
63D
330
1A
100
AcDbEntity
  8
SEIHIN
  6
CONTINUOUS
100
AcDbLine
 10
687.2048513216411
 20
387.5373092206793
 30
0.0
 11
687.2048513216411
 21
380.1126092206793
 31
0.0
  0
LINE
  5
63E
330
1A
100
AcDbEntity
  8
SEIHIN
  6
CONTINUOUS
100
AcDbLine
 10
687.2048513216411
 20
380.1126092206793
 30
0.0
 11
667.2047513216412
 21
380.1127092206793
 31
0.0
  0
LINE
  5
63F
330
1A
100
AcDbEntity
  8
SEIHIN
  6
CONTINUOUS
100
AcDbLine
 10
667.2047513216412
 20
374.1127092206793
 30
0.0
 11
687.2048513216411
 21
374.1126092206795
 31
0.0
  0
LINE
  5
640
330
1A
100
AcDbEntity
  8
SEIHIN
  6
CONTINUOUS
100
AcDbLine
 10
687.2048513216411
 20
374.1126092206795
 30
0.0
 11
687.2047513216411
 21
360.1126092206793
 31
0.0
  0
ARC
  5
641
330
1A
100
AcDbEntity
  8
SEIHIN
  6
CONTINUOUS
100
AcDbCircle
 10
667.2045803546018
 20
328.1127208428111
 30
0.0
 40
62.69998837790855
100
AcDbArc
 50
71.39862510844945
 51
89.99993514971931
  0
ARC
  5
642
330
1A
100
AcDbEntity
  8
SEIHIN
  6
CONTINUOUS
100
AcDbCircle
 10
667.2044706145059
 20
328.1127368212508
 30
0.0
 40
66.99997239967221
100
AcDbArc
 50
72.63176118855881
 51
89.99984546626199
  0
ARC
  5
643
330
1A
100
AcDbEntity
  8
SEIHIN
  6
CONTINUOUS
100
AcDbCircle
 10
667.2046118468836
 20
328.11271540474
 30
0.0
 40
65.3999938159513
100
AcDbArc
 50
72.19294392049691
 51
89.9999654168619
  0
LINE
  5
644
330
1A
100
AcDbEntity
  8
SEIHIN
  6
CONTINUOUS
100
AcDbLine
 10
687.2048513216411
 20
395.1947092206795
 30
0.0
 11
687.2048513216411
 21
390.3795092206795
 31
0.0
  0
LINE
  5
645
330
1A
100
AcDbEntity
  8
SEIHIN
  6
CONTINUOUS
100
AcDbLine
 10
732.2047513216412
 20
358.1125092206795
 30
0.0
 11
732.2047513216412
 21
359.1125092206795
 31
0.0
  0
LINE
  5
649
330
1A
100
AcDbEntity
  8
SEIHIN
  6
CONTINUOUS
100
AcDbLine
 10
722.2042513216413
 20
336.1131092206795
 30
0.0
 11
720.0392513216414
 21
334.8632092206794
 31
0.0
  0
LINE
  5
64A
330
1A
100
AcDbEntity
  8
SEIHIN
  6
CONTINUOUS
100
AcDbLine
 10
720.0390513216412
 20
322.8634092206795
 30
0.0
 11
694.8233513216412
 21
320.1126092206795
 31
0.0
  0
LINE
  5
64B
330
1A
100
AcDbEntity
  8
SEIHIN
  6
CONTINUOUS
100
AcDbLine
 10
720.0390513216412
 20
321.8623092206795
 30
0.0
 11
704.0001513216411
 21
320.1126092206795
 31
0.0
  0
LINE
  5
64C
330
1A
100
AcDbEntity
  8
SEIHIN
  6
CONTINUOUS
100
AcDbLine
 10
722.2041513216413
 20
324.1134092206795
 30
0.0
 11
720.0390513216412
 21
322.8634092206795
 31
0.0
  0
LINE
  5
64D
330
1A
100
AcDbEntity
  8
SEIHIN
  6
CONTINUOUS
100
AcDbLine
 10
722.2040513216414
 20
320.1135092206795
 30
0.0
 11
722.2040513216414
 21
320.6123092206794
 31
0.0
  0
LINE
  5
64E
330
1A
100
AcDbEntity
  8
SEIHIN
  6
CONTINUOUS
100
AcDbLine
 10
720.0390513216412
 20
321.8623092206795
 30
0.0
 11
720.0390513216412
 21
322.8634092206795
 31
0.0
  0
LINE
  5
64F
330
1A
100
AcDbEntity
  8
SEIHIN
  6
CONTINUOUS
100
AcDbLine
 10
720.0390513216412
 20
318.1128092206793
 30
0.0
 11
720.0390513216412
 21
320.1128092206794
 31
0.0
  0
LINE
  5
650
330
1A
100
AcDbEntity
  8
SEIHIN
  6
CONTINUOUS
100
AcDbLine
 10
720.0390513216412
 20
321.8623092206795
 30
0.0
 11
722.2040513216414
 21
320.6123092206794
 31
0.0
  0
LINE
  5
651
330
1A
100
AcDbEntity
  8
SEIHIN
  6
CONTINUOUS
100
AcDbLine
 10
717.6229513216412
 20
320.1126092206795
 30
0.0
 11
722.2040513216414
 21
320.6123092206794
 31
0.0
  0
LINE
  5
652
330
1A
100
AcDbEntity
  8
SEIHIN
  6
CONTINUOUS
100
AcDbLine
 10
722.2041513216413
 20
328.1133092206793
 30
0.0
 11
722.2041513216413
 21
328.6121092206795
 31
0.0
  0
LINE
  5
653
330
1A
100
AcDbEntity
  8
SEIHIN
  6
CONTINUOUS
100
AcDbLine
 10
722.2042513216413
 20
332.1132092206795
 30
0.0
 11
722.2042513216413
 21
332.6121092206795
 31
0.0
  0
LINE
  5
654
330
1A
100
AcDbEntity
  8
SEIHIN
  6
CONTINUOUS
100
AcDbLine
 10
720.0392513216414
 20
333.8620092206793
 30
0.0
 11
720.0392513216414
 21
334.8631092206794
 31
0.0
  0
LINE
  5
655
330
1A
100
AcDbEntity
  8
SEIHIN
  6
CONTINUOUS
100
AcDbLine
 10
720.0391513216414
 20
329.8621092206795
 30
0.0
 11
720.0391513216414
 21
330.8632092206794
 31
0.0
  0
LINE
  5
656
330
1A
100
AcDbEntity
  8
SEIHIN
  6
CONTINUOUS
100
AcDbLine
 10
720.0392513216414
 20
333.8620092206793
 30
0.0
 11
722.2042513216413
 21
332.6121092206795
 31
0.0
  0
LINE
  5
657
330
1A
100
AcDbEntity
  8
SEIHIN
  6
CONTINUOUS
100
AcDbLine
 10
720.0391513216414
 20
329.8621092206795
 30
0.0
 11
722.2041513216413
 21
328.6121092206795
 31
0.0
  0
LINE
  5
658
330
1A
100
AcDbEntity
  8
SEIHIN
  6
CONTINUOUS
100
AcDbLine
 10
722.2042513216413
 20
332.1132092206795
 30
0.0
 11
720.0391513216414
 21
330.8632092206794
 31
0.0
  0
LINE
  5
659
330
1A
100
AcDbEntity
  8
SEIHIN
  6
CONTINUOUS
100
AcDbLine
 10
722.2041513216413
 20
328.1133092206793
 30
0.0
 11
720.0391513216414
 21
326.8633092206794
 31
0.0
  0
LINE
  5
65A
330
1A
100
AcDbEntity
  8
SEIHIN
  6
CONTINUOUS
100
AcDbLine
 10
722.2041513216413
 20
324.1134092206795
 30
0.0
 11
722.2041513216413
 21
324.6122092206793
 31
0.0
  0
LINE
  5
65B
330
1A
100
AcDbEntity
  8
SEIHIN
  6
CONTINUOUS
100
AcDbLine
 10
720.0391513216414
 20
325.8622092206794
 30
0.0
 11
722.2041513216413
 21
324.6122092206793
 31
0.0
  0
LINE
  5
65C
330
1A
100
AcDbEntity
  8
SEIHIN
  6
CONTINUOUS
100
AcDbLine
 10
720.0391513216414
 20
325.8622092206794
 30
0.0
 11
720.0391513216414
 21
326.8633092206794
 31
0.0
  0
LINE
  5
65D
330
1A
100
AcDbEntity
  8
SEIHIN
  6
CONTINUOUS
100
AcDbLine
 10
722.2044513216412
 20
348.1129092206793
 30
0.0
 11
720.039451321641
 21
346.8629092206793
 31
0.0
  0
LINE
  5
65E
330
1A
100
AcDbEntity
  8
SEIHIN
  6
CONTINUOUS
100
AcDbLine
 10
722.204351321641
 20
340.1130092206795
 30
0.0
 11
722.204351321641
 21
340.6119092206794
 31
0.0
  0
LINE
  5
65F
330
1A
100
AcDbEntity
  8
SEIHIN
  6
CONTINUOUS
100
AcDbLine
 10
722.2044513216412
 20
344.1129092206793
 30
0.0
 11
722.2044513216412
 21
344.6118092206793
 31
0.0
  0
LINE
  5
660
330
1A
100
AcDbEntity
  8
SEIHIN
  6
CONTINUOUS
100
AcDbLine
 10
722.2042513216413
 20
336.1131092206795
 30
0.0
 11
722.2042513216413
 21
336.6120092206793
 31
0.0
  0
LINE
  5
661
330
1A
100
AcDbEntity
  8
SEIHIN
  6
CONTINUOUS
100
AcDbLine
 10
720.039451321641
 20
345.8618092206794
 30
0.0
 11
720.039451321641
 21
346.8629092206793
 31
0.0
  0
LINE
  5
662
330
1A
100
AcDbEntity
  8
SEIHIN
  6
CONTINUOUS
100
AcDbLine
 10
720.0393513216413
 20
341.8618092206794
 30
0.0
 11
720.0393513216413
 21
342.8629092206793
 31
0.0
  0
LINE
  5
663
330
1A
100
AcDbEntity
  8
SEIHIN
  6
CONTINUOUS
100
AcDbLine
 10
720.0393513216413
 20
337.8619092206794
 30
0.0
 11
720.0393513216413
 21
338.8630092206795
 31
0.0
  0
LINE
  5
664
330
1A
100
AcDbEntity
  8
SEIHIN
  6
CONTINUOUS
100
AcDbLine
 10
720.039451321641
 20
345.8618092206794
 30
0.0
 11
722.2044513216412
 21
344.6118092206793
 31
0.0
  0
LINE
  5
665
330
1A
100
AcDbEntity
  8
SEIHIN
  6
CONTINUOUS
100
AcDbLine
 10
720.0393513216413
 20
341.8618092206794
 30
0.0
 11
722.204351321641
 21
340.6119092206794
 31
0.0
  0
LINE
  5
666
330
1A
100
AcDbEntity
  8
SEIHIN
  6
CONTINUOUS
100
AcDbLine
 10
722.2044513216412
 20
344.1129092206793
 30
0.0
 11
720.0393513216413
 21
342.8630092206795
 31
0.0
  0
LINE
  5
667
330
1A
100
AcDbEntity
  8
SEIHIN
  6
CONTINUOUS
100
AcDbLine
 10
720.0393513216413
 20
337.8619092206794
 30
0.0
 11
722.2042513216413
 21
336.6120092206793
 31
0.0
  0
LINE
  5
668
330
1A
100
AcDbEntity
  8
SEIHIN
  6
CONTINUOUS
100
AcDbLine
 10
722.204351321641
 20
340.1130092206795
 30
0.0
 11
720.0393513216413
 21
338.8631092206793
 31
0.0
  0
LINE
  5
669
330
1A
100
AcDbEntity
  8
SEIHIN
  6
CONTINUOUS
100
AcDbLine
 10
722.204551321641
 20
352.1128092206794
 30
0.0
 11
722.204551321641
 21
352.6116092206794
 31
0.0
  0
LINE
  5
66A
330
1A
100
AcDbEntity
  8
SEIHIN
  6
CONTINUOUS
100
AcDbLine
 10
722.2044513216412
 20
348.1129092206793
 30
0.0
 11
722.2044513216412
 21
348.6117092206793
 31
0.0
  0
LINE
  5
66B
330
1A
100
AcDbEntity
  8
SEIHIN
  6
CONTINUOUS
100
AcDbLine
 10
720.0395513216411
 20
353.8616092206794
 30
0.0
 11
720.0395513216411
 21
354.8627092206795
 31
0.0
  0
LINE
  5
66C
330
1A
100
AcDbEntity
  8
SEIHIN
  6
CONTINUOUS
100
AcDbLine
 10
720.0395513216411
 20
356.1128092206794
 30
0.0
 11
720.0395513216411
 21
358.1126092206795
 31
0.0
  0
LINE
  5
66D
330
1A
100
AcDbEntity
  8
SEIHIN
  6
CONTINUOUS
100
AcDbLine
 10
720.039451321641
 20
349.8617092206795
 30
0.0
 11
720.039451321641
 21
350.8628092206794
 31
0.0
  0
LINE
  5
66E
330
1A
100
AcDbEntity
  8
SEIHIN
  6
CONTINUOUS
100
AcDbLine
 10
722.204551321641
 20
356.1127092206794
 30
0.0
 11
720.0395513216411
 21
354.8627092206795
 31
0.0
  0
LINE
  5
66F
330
1A
100
AcDbEntity
  8
SEIHIN
  6
CONTINUOUS
100
AcDbLine
 10
722.204551321641
 20
352.1128092206794
 30
0.0
 11
720.039451321641
 21
350.8628092206794
 31
0.0
  0
LINE
  5
670
330
1A
100
AcDbEntity
  8
SEIHIN
  6
CONTINUOUS
100
AcDbLine
 10
720.0395513216411
 20
353.8616092206794
 30
0.0
 11
722.204551321641
 21
352.6116092206794
 31
0.0
  0
LINE
  5
671
330
1A
100
AcDbEntity
  8
SEIHIN
  6
CONTINUOUS
100
AcDbLine
 10
720.039451321641
 20
349.8617092206795
 30
0.0
 11
722.2044513216412
 21
348.6117092206793
 31
0.0
  0
LINE
  5
67A
330
1A
100
AcDbEntity
  8
SEIHIN
  6
CONTINUOUS
100
AcDbLine
 10
692.2048513216411
 20
385.6129092206793
 30
0.0
 11
692.2048513216411
 21
380.1126092206793
 31
0.0
  0
ARC
  5
67B
330
1A
100
AcDbEntity
  8
SEIHIN
  6
CONTINUOUS
100
AcDbCircle
 10
667.2046731328582
 20
328.1126972628263
 30
0.0
 40
62.69999828305975
100
AcDbArc
 50
56.03164626306894
 51
66.50148246452075
  0
ARC
  5
67C
330
1A
100
AcDbEntity
  8
SEIHIN
  6
CONTINUOUS
100
AcDbCircle
 10
667.2046508832882
 20
328.1127094789021
 30
0.0
 40
66.99996202107111
100
AcDbArc
 50
50.90667164575677
 51
68.09084457265962
  0
ARC
  5
67D
330
1A
100
AcDbEntity
  8
SEIHIN
  6
CONTINUOUS
100
AcDbCircle
 10
667.2048822595025
 20
328.1125764022121
 30
0.0
 40
65.39997702888439
100
AcDbArc
 50
52.66558465974331
 51
67.52618729457066
  0
LINE
  5
67E
330
1A
100
AcDbEntity
  8
SEIHIN
  6
CONTINUOUS
100
AcDbLine
 10
706.3236513216414
 20
374.1126092206795
 30
0.0
 11
706.3236513216414
 21
360.1125092206795
 31
0.0
  0
LINE
  5
67F
330
1A
100
AcDbEntity
  8
SEIHIN
  6
CONTINUOUS
100
AcDbLine
 10
692.2048513216411
 20
374.1126092206795
 30
0.0
 11
692.2047513216412
 21
360.1126092206793
 31
0.0
  0
LINE
  5
680
330
1A
100
AcDbEntity
  8
SEIHIN
  6
CONTINUOUS
100
AcDbLine
 10
692.2048513216411
 20
380.1126092206793
 30
0.0
 11
702.2374513216411
 21
380.1126092206793
 31
0.0
  0
LINE
  5
681
330
1A
100
AcDbEntity
  8
SEIHIN
  6
CONTINUOUS
100
AcDbLine
 10
692.2048513216411
 20
374.1126092206795
 30
0.0
 11
706.3236513216414
 21
374.1126092206795
 31
0.0
  0
LINE
  5
682
330
1A
100
AcDbEntity
  8
SEIHIN
  6
CONTINUOUS
100
AcDbLine
 10
710.5194513216413
 20
374.1126092206795
 30
0.0
 11
710.5193513216413
 21
360.1125092206795
 31
0.0
  0
LINE
  5
683
330
1A
100
AcDbEntity
  8
SEIHIN
  6
CONTINUOUS
100
AcDbLine
 10
712.8993513216412
 20
374.1126092206795
 30
0.0
 11
712.8993513216412
 21
360.1125092206795
 31
0.0
  0
ARC
  5
684
330
1A
100
AcDbEntity
  8
SEIHIN
  6
CONTINUOUS
100
AcDbCircle
 10
667.205570425727
 20
328.111840992613
 30
0.0
 40
69.99995670149802
100
AcDbArc
 50
45.28666118731861
 51
47.97635104031432
  0
LINE
  5
685
330
1A
100
AcDbEntity
  8
SEIHIN
  6
CONTINUOUS
100
AcDbLine
 10
710.5194513216413
 20
374.1126092206795
 30
0.0
 11
716.4547513216412
 21
374.1126092206795
 31
0.0
  0
LINE
  5
686
330
1A
100
AcDbEntity
  8
SEIHIN
  6
CONTINUOUS
100
AcDbLine
 10
706.8677513216412
 20
380.1126092206793
 30
0.0
 11
713.9548513216412
 21
380.1126092206793
 31
0.0
  0
LINE
  5
687
330
1A
100
AcDbEntity
  8
SEIHIN
  6
CONTINUOUS
100
AcDbLine
 10
716.4547513216412
 20
377.8562092206793
 30
0.0
 11
716.4547513216412
 21
374.1126092206795
 31
0.0
  0
LINE
  5
688
330
1A
100
AcDbEntity
  8
SEIHIN
  6
CONTINUOUS
100
AcDbLine
 10
692.2048513216411
 20
393.4961092206795
 30
0.0
 11
692.2048513216411
 21
388.5457092206795
 31
0.0
  0
LINE
  5
689
330
1A
100
AcDbEntity
  8
SEIHIN
  6
CONTINUOUS
100
AcDbLine
 10
728.2047513216411
 20
360.1125092206795
 30
0.0
 11
732.2047513216412
 21
359.1125092206795
 31
0.0
  0
ARC
  5
68F
330
1A
100
AcDbEntity
  8
SEIHIN
  6
CONTINUOUS
100
AcDbCircle
 10
399.8296616751952
 20
166.5060873948476
 30
0.0
 40
69.99992151184748
100
AcDbArc
 50
45.28549282890856
 51
47.97512451655096
  0
LINE
  5
690
330
1A
100
AcDbEntity
  8
SEIHIN
  6
CONTINUOUS
100
AcDbLine
 10
443.1445321766513
 20
212.5058263314785
 30
0.0
 11
449.0799321766512
 21
212.5058263314785
 31
0.0
  0
LINE
  5
697
330
1A
100
AcDbEntity
  8
SEIHIN
  6
CONTINUOUS
100
AcDbLine
 10
334.8298321766514
 20
197.5061263317863
 30
0.0
 11
464.8299321766512
 21
197.5057263314784
 31
0.0
  0
LINE
  5
698
330
1A
100
AcDbEntity
  8
SEIHIN
  6
CONTINUOUS
100
AcDbLine
 10
338.8294321832087
 20
198.5061263331179
 30
0.0
 11
460.8299321766512
 21
198.5057263314785
 31
0.0
  0
LINE
  5
69A
330
1A
100
AcDbEntity
  8
SEIHIN
  6
CONTINUOUS
100
AcDbLine
 10
334.8298321766514
 20
196.5061263317863
 30
0.0
 11
464.8299321766512
 21
196.5057263314785
 31
0.0
  0
LINE
  5
6A4
330
1A
100
AcDbEntity
  8
CENTER_L
 48
5.0
100
AcDbLine
 10
399.8297561255489
 20
149.5059263310173
 30
0.0
 11
399.8300321766514
 21
244.1906263314784
 31
0.0
  0
LINE
  5
6C2
330
1A
100
AcDbEntity
  8
SEIHIN
  6
CONTINUOUS
100
AcDbLine
 10
360.7110321766513
 20
212.5061263314785
 30
0.0
 11
360.7110321766513
 21
198.5060263314785
 31
0.0
  0
LINE
  5
6C3
330
1A
100
AcDbEntity
  8
SEIHIN
  6
CONTINUOUS
100
AcDbLine
 10
374.8299321766513
 20
212.5060263314785
 30
0.0
 11
374.8298321766514
 21
198.5060263314785
 31
0.0
  0
LINE
  5
6C4
330
1A
100
AcDbEntity
  8
SEIHIN
  6
CONTINUOUS
100
AcDbLine
 10
354.1353321766513
 20
212.5061263314785
 30
0.0
 11
354.1353321766513
 21
198.5061263314785
 31
0.0
  0
LINE
  5
6C5
330
1A
100
AcDbEntity
  8
SEIHIN
  6
CONTINUOUS
100
AcDbLine
 10
356.5153321766513
 20
212.5061263314785
 30
0.0
 11
356.5152321766512
 21
198.5061263314785
 31
0.0
  0
LINE
  5
6C6
330
1A
100
AcDbEntity
  8
SEIHIN
  6
CONTINUOUS
100
AcDbLine
 10
379.8299321766514
 20
212.5060263314785
 30
0.0
 11
379.8298321766513
 21
198.5060263314785
 31
0.0
  0
LINE
  5
6CA
330
1A
100
AcDbEntity
  8
SEIHIN
  6
CONTINUOUS
100
AcDbLine
 10
334.8298321766514
 20
197.5062263314785
 30
0.0
 11
334.8298321766514
 21
196.5062263314785
 31
0.0
  0
LINE
  5
6CB
330
1A
100
AcDbEntity
  8
SEIHIN
  6
CONTINUOUS
100
AcDbLine
 10
338.8298321766512
 20
198.5062263314785
 30
0.0
 11
334.8298321766514
 21
197.5062263314785
 31
0.0
  0
LINE
  5
6CD
330
1A
100
AcDbEntity
  8
SEIHIN
  6
CONTINUOUS
100
AcDbLine
 10
379.8300321766512
 20
228.7728263314784
 30
0.0
 11
379.8299321766514
 21
218.5060263314784
 31
0.0
  0
ARC
  5
6CE
330
1A
100
AcDbEntity
  8
SEIHIN
  6
CONTINUOUS
100
AcDbCircle
 10
399.8298326150047
 20
166.5059265897011
 30
0.0
 40
66.99996202107129
100
AcDbArc
 50
111.9091554273405
 51
129.0933283542433
  0
ARC
  5
6CF
330
1A
100
AcDbEntity
  8
SEIHIN
  6
CONTINUOUS
100
AcDbCircle
 10
399.8294731207828
 20
166.5057198292968
 30
0.0
 40
65.39995791642997
100
AcDbArc
 50
112.4736033568056
 51
127.3342869463773
  0
LINE
  5
6D0
330
1A
100
AcDbEntity
  8
SEIHIN
  6
CONTINUOUS
100
AcDbLine
 10
374.8300321766514
 20
226.9391263314785
 30
0.0
 11
374.8299321766513
 21
218.5060263314784
 31
0.0
  0
ARC
  5
6D1
330
1A
100
AcDbEntity
  8
SEIHIN
  6
CONTINUOUS
100
AcDbCircle
 10
399.8298103654336
 20
166.5059143736259
 30
0.0
 40
62.69999828305897
100
AcDbArc
 50
113.4985175354789
 51
123.9683537369307
  0
LINE
  5
6D2
330
1A
100
AcDbEntity
  8
SEIHIN
  6
CONTINUOUS
100
AcDbLine
 10
374.8299321766513
 20
218.5060263314784
 30
0.0
 11
360.1669321766513
 21
218.5061263314785
 31
0.0
  0
LINE
  5
6D3
330
1A
100
AcDbEntity
  8
SEIHIN
  6
CONTINUOUS
100
AcDbLine
 10
374.8299321766513
 20
212.5060263314785
 30
0.0
 11
356.5153321766513
 21
212.5061263314785
 31
0.0
  0
LINE
  5
6D4
330
1A
100
AcDbEntity
  8
SEIHIN
  6
CONTINUOUS
100
AcDbLine
 10
350.5799321766513
 20
216.2498263314785
 30
0.0
 11
350.5799321766513
 21
212.5061263314785
 31
0.0
  0
LINE
  5
6D5
330
1A
100
AcDbEntity
  8
SEIHIN
  6
CONTINUOUS
100
AcDbLine
 10
354.1353321766513
 20
212.5061263314785
 30
0.0
 11
350.5799321766513
 21
212.5061263314785
 31
0.0
  0
ARC
  5
6D6
330
1A
100
AcDbEntity
  8
SEIHIN
  6
CONTINUOUS
100
AcDbCircle
 10
399.8291405021976
 20
166.5052729465612
 30
0.0
 40
69.99996403741389
100
AcDbArc
 50
132.0236737713648
 51
134.7135948223851
  0
LINE
  5
6D7
330
1A
100
AcDbEntity
  8
SEIHIN
  6
CONTINUOUS
100
AcDbLine
 10
357.5807321766513
 20
218.5061263314785
 30
0.0
 11
353.0799321766513
 21
218.5061263314785
 31
0.0
  0
ARC
  5
6D8
330
1A
100
AcDbEntity
  8
SEIHIN
  6
CONTINUOUS
100
AcDbCircle
 10
399.8302560971497
 20
166.5060703427288
 30
0.0
 40
69.99997399992216
100
AcDbArc
 50
106.6020034329821
 51
110.9252996790636
  0
LINE
  5
6D9
330
1A
100
AcDbEntity
  8
SEIHIN
  6
CONTINUOUS
100
AcDbLine
 10
374.8300321766514
 20
231.8895263314784
 30
0.0
 11
374.8300321766514
 21
228.6671263314786
 31
0.0
  0
LINE
  5
6DA
330
1A
100
AcDbEntity
  8
SEIHIN
  6
CONTINUOUS
100
AcDbLine
 10
379.8300321766512
 20
233.5880263314785
 30
0.0
 11
379.8300321766512
 21
230.4513263314784
 31
0.0
  0
LINE
  5
6DB
330
1A
100
AcDbEntity
  8
SEIHIN
  6
CONTINUOUS
100
AcDbLine
 10
419.8300321766514
 20
212.5058263314785
 30
0.0
 11
419.8299321766513
 21
198.5058263314784
 31
0.0
  0
LINE
  5
6DC
330
1A
100
AcDbEntity
  8
SEIHIN
  6
CONTINUOUS
100
AcDbLine
 10
424.8300321766514
 20
212.5058263314785
 30
0.0
 11
424.8299321766513
 21
198.5058263314784
 31
0.0
  0
LINE
  5
6DD
330
1A
100
AcDbEntity
  8
SEIHIN
  6
CONTINUOUS
100
AcDbLine
 10
443.1445321766513
 20
212.5058263314785
 30
0.0
 11
443.1445321766513
 21
198.5057263314785
 31
0.0
  0
LINE
  5
6DE
330
1A
100
AcDbEntity
  8
SEIHIN
  6
CONTINUOUS
100
AcDbLine
 10
438.9488321766513
 20
212.5058263314785
 30
0.0
 11
438.9488321766513
 21
198.5057263314785
 31
0.0
  0
LINE
  5
6DF
330
1A
100
AcDbEntity
  8
SEIHIN
  6
CONTINUOUS
100
AcDbLine
 10
445.5245321766514
 20
212.5058263314785
 30
0.0
 11
445.5245321766514
 21
198.5057263314785
 31
0.0
  0
ARC
  5
6E0
330
1A
100
AcDbEntity
  8
SEIHIN
  6
CONTINUOUS
100
AcDbCircle
 10
399.8297927018933
 20
166.5059325155389
 30
0.0
 40
65.39999381595153
100
AcDbArc
 50
72.19294392049668
 51
107.8067073834269
  0
ARC
  5
6E1
330
1A
100
AcDbEntity
  8
SEIHIN
  6
CONTINUOUS
100
AcDbCircle
 10
399.8299788307411
 20
166.5059039320497
 30
0.0
 40
66.99992239958921
100
AcDbArc
 50
72.6320411352838
 51
107.367938221682
  0
ARC
  5
6E2
330
1A
100
AcDbEntity
  8
SEIHIN
  6
CONTINUOUS
100
AcDbCircle
 10
399.8300665195282
 20
166.50588795361
 30
0.0
 40
62.69993837830635
100
AcDbArc
 50
71.3989041034031
 51
108.6012585393429
  0
LINE
  5
6E3
330
1A
100
AcDbEntity
  8
SEIHIN
  6
CONTINUOUS
100
AcDbLine
 10
379.8299321766514
 20
212.5060263309786
 30
0.0
 11
419.8300321766514
 21
212.5058263314785
 31
0.0
  0
LINE
  5
6E4
330
1A
100
AcDbEntity
  8
SEIHIN
  6
CONTINUOUS
100
AcDbLine
 10
419.8300321766514
 20
218.5058263314785
 30
0.0
 11
379.8299321766514
 21
218.5060263309785
 31
0.0
  0
ARC
  5
6E5
330
1A
100
AcDbEntity
  8
SEIHIN
  6
CONTINUOUS
100
AcDbCircle
 10
399.829831738298
 20
166.5059265897014
 30
0.0
 40
66.99996202107105
100
AcDbArc
 50
50.90667164575656
 51
68.09084457265938
  0
ARC
  5
6E6
330
1A
100
AcDbEntity
  8
SEIHIN
  6
CONTINUOUS
100
AcDbCircle
 10
399.8297966264387
 20
166.5059467773673
 30
0.0
 40
65.39993727303273
100
AcDbArc
 50
52.66526446591122
 51
67.52592023249412
  0
LINE
  5
6E7
330
1A
100
AcDbEntity
  8
SEIHIN
  6
CONTINUOUS
100
AcDbLine
 10
419.8300321766514
 20
225.9305263314785
 30
0.0
 11
419.8300321766514
 21
218.5058263314785
 31
0.0
  0
LINE
  5
6E8
330
1A
100
AcDbEntity
  8
SEIHIN
  6
CONTINUOUS
100
AcDbLine
 10
424.8300321766514
 20
218.5058263314785
 30
0.0
 11
434.8626321766514
 21
218.5058263314785
 31
0.0
  0
ARC
  5
6E9
330
1A
100
AcDbEntity
  8
SEIHIN
  6
CONTINUOUS
100
AcDbCircle
 10
399.8298539878689
 20
166.5059143736262
 30
0.0
 40
62.6999982830587
100
AcDbArc
 50
56.03164626306917
 51
66.50148246452094
  0
LINE
  5
6EA
330
1A
100
AcDbEntity
  8
SEIHIN
  6
CONTINUOUS
100
AcDbLine
 10
424.8300321766514
 20
212.5058263314785
 30
0.0
 11
438.9488321766513
 21
212.5058263314785
 31
0.0
  0
LINE
  5
6EB
330
1A
100
AcDbEntity
  8
SEIHIN
  6
CONTINUOUS
100
AcDbLine
 10
424.8300321766514
 20
224.0061263314785
 30
0.0
 11
424.8300321766514
 21
218.5058263314785
 31
0.0
  0
LINE
  5
6EC
330
1A
100
AcDbEntity
  8
SEIHIN
  6
CONTINUOUS
100
AcDbLine
 10
439.4929321766514
 20
218.5058263314785
 30
0.0
 11
446.5800321766514
 21
218.5058263314785
 31
0.0
  0
ARC
  5
6ED
330
1A
100
AcDbEntity
  8
SEIHIN
  6
CONTINUOUS
100
AcDbCircle
 10
399.8294082561529
 20
166.5060703427278
 30
0.0
 40
69.99997399992321
100
AcDbArc
 50
69.0747003209366
 51
73.39799656701813
  0
LINE
  5
6EE
330
1A
100
AcDbEntity
  8
SEIHIN
  6
CONTINUOUS
100
AcDbLine
 10
419.8300321766514
 20
233.5879263314785
 30
0.0
 11
419.8300321766514
 21
228.7727263314784
 31
0.0
  0
LINE
  5
6EF
330
1A
100
AcDbEntity
  8
SEIHIN
  6
CONTINUOUS
100
AcDbLine
 10
424.8300321766514
 20
231.8893263314785
 30
0.0
 11
424.8300321766514
 21
226.9389263314784
 31
0.0
  0
LINE
  5
716
330
1A
100
AcDbEntity
  8
SEIHIN
  6
CONTINUOUS
100
AcDbLine
 10
460.8299321766512
 20
198.5057263314785
 30
0.0
 11
464.8299321766512
 21
197.5057263314784
 31
0.0
  0
LINE
  5
717
330
1A
100
AcDbEntity
  8
SEIHIN
  6
CONTINUOUS
100
AcDbLine
 10
464.8299321766512
 20
196.5057263314785
 30
0.0
 11
464.8299321766512
 21
197.5057263314784
 31
0.0
  0
LINE
  5
72B
330
1A
100
AcDbEntity
  8
SEIHIN
  6
CONTINUOUS
100
AcDbLine
 10
449.0799321766512
 20
216.2494263314785
 30
0.0
 11
449.0799321766512
 21
212.5058263314785
 31
0.0
  0
ARC
  5
735
330
1A
100
AcDbEntity
  8
SEIHIN
  6
CONTINUOUS
100
AcDbCircle
 10
399.8303322147244
 20
397.2915662221527
 30
0.0
 40
49.24999996195224
100
AcDbArc
 50
0.0000581683040384
 51
359.9999418316959
  0
LINE
  5
736
330
1A
100
AcDbEntity
  8
CENTER_L
 48
5.0
100
AcDbLine
 10
321.9239321766514
 20
397.2918162221525
 30
0.0
 11
477.6082321766512
 21
397.2915162221527
 31
0.0
  0
ARC
  5
738
330
1A
100
AcDbEntity
  8
SEIHIN
  6
CONTINUOUS
100
AcDbCircle
 10
399.8303322355503
 20
397.2915662221527
 30
0.0
 40
64.99999994112016
100
AcDbArc
 50
0.0000440736765273
 51
359.9999559263234
  0
ARC
  5
73A
330
1A
100
AcDbEntity
  8
SEIHIN
  6
CONTINUOUS
100
AcDbCircle
 10
399.8303322635452
 20
397.2915662221527
 30
0.0
 40
66.99999991312461
100
AcDbArc
 50
0.0000427580444089
 51
359.9999572419556
  0
LINE
  5
73B
330
1A
100
AcDbEntity
  8
CENTER_L
 48
5.0
100
AcDbLine
 10
399.8305321766512
 20
471.9667162221528
 30
0.0
 11
399.8302321766514
 21
318.9553162221528
 31
0.0
  0
ARC
  5
73C
330
1A
100
AcDbEntity
  8
SEIHIN
  6
CONTINUOUS
100
AcDbCircle
 10
399.830618740328
 20
397.2915582698348
 30
0.0
 40
46.74994204856052
100
AcDbArc
 50
247.1339692107237
 51
269.9996487933777
  0
ARC
  5
73D
330
1A
100
AcDbEntity
  8
SEIHIN
  6
CONTINUOUS
100
AcDbCircle
 10
399.8302734251952
 20
397.2916043407593
 30
0.0
 40
46.74998811864363
100
AcDbArc
 50
270.0000720045205
 51
292.8657039646036
  0
ARC
  5
744
330
1A
100
AcDbEntity
  8
SEIHIN
  6
CONTINUOUS
100
AcDbCircle
 10
399.8301631148324
 20
397.2915820326054
 30
0.0
 40
46.75003418985288
100
AcDbArc
 50
89.99979280167654
 51
112.8653771393764
  0
LINE
  5
745
330
1A
100
AcDbEntity
  8
SEIHIN
  6
CONTINUOUS
100
AcDbLine
 10
382.8304321766513
 20
422.2917162221528
 30
0.0
 11
399.8304321766513
 21
422.2917162221528
 31
0.0
  0
LINE
  5
746
330
1A
100
AcDbEntity
  8
SEIHIN
  6
CONTINUOUS
100
AcDbLine
 10
382.8304321766513
 20
417.2917162221525
 30
0.0
 11
399.8304321766513
 21
417.2917162221525
 31
0.0
  0
LINE
  5
747
330
1A
100
AcDbEntity
  8
SEIHIN
  6
CONTINUOUS
100
AcDbLine
 10
382.8303321766513
 20
377.2917162221526
 30
0.0
 11
399.8303321766513
 21
377.2916162221528
 31
0.0
  0
LINE
  5
748
330
1A
100
AcDbEntity
  8
SEIHIN
  6
CONTINUOUS
100
AcDbLine
 10
382.8303321766513
 20
372.2917162221528
 30
0.0
 11
399.8303321766513
 21
372.2916162221528
 31
0.0
  0
LINE
  5
749
330
1A
100
AcDbEntity
  8
SEIHIN
  6
CONTINUOUS
100
AcDbLine
 10
374.8303321766513
 20
397.2917162221528
 30
0.0
 11
374.8304321766513
 21
414.2917162221528
 31
0.0
  0
ARC
  5
74A
330
1A
100
AcDbEntity
  8
SEIHIN
  6
CONTINUOUS
100
AcDbCircle
 10
399.8303397238965
 20
397.2916535415889
 30
0.0
 40
46.75000754728722
100
AcDbArc
 50
157.1343008507944
 51
179.9999231800814
  0
LINE
  5
74B
330
1A
100
AcDbEntity
  8
SEIHIN
  6
CONTINUOUS
100
AcDbLine
 10
379.8304321766514
 20
414.2917162221528
 30
0.0
 11
379.8303321766513
 21
397.2917162221528
 31
0.0
  0
ARC
  5
74C
330
1A
100
AcDbEntity
  8
SEIHIN
  6
CONTINUOUS
100
AcDbCircle
 10
382.8303321766514
 20
380.2917162221527
 30
0.0
 40
3.000000000000142
100
AcDbArc
 50
179.9999999999983
 51
269.9999999999983
  0
ARC
  5
74D
330
1A
100
AcDbEntity
  8
SEIHIN
  6
CONTINUOUS
100
AcDbCircle
 10
371.8303321766512
 20
380.2917162221527
 30
0.0
 40
3.000000000000142
100
AcDbArc
 50
270.0000000000016
 51
0.0000000000016284
  0
ARC
  5
74E
330
1A
100
AcDbEntity
  8
SEIHIN
  6
CONTINUOUS
100
AcDbCircle
 10
359.5183056816482
 20
380.2917338037163
 30
0.0
 40
3.000017581680721
100
AcDbArc
 50
202.8655653907031
 51
270.0005060143219
  0
LINE
  5
74F
330
1A
100
AcDbEntity
  8
SEIHIN
  6
CONTINUOUS
100
AcDbLine
 10
366.2139321766513
 20
372.2917162221528
 30
0.0
 11
371.8303321766513
 21
372.2917162221528
 31
0.0
  0
ARC
  5
750
330
1A
100
AcDbEntity
  8
SEIHIN
  6
CONTINUOUS
100
AcDbCircle
 10
399.8302821767265
 20
397.291666222228
 30
0.0
 40
46.74990885675507
100
AcDbArc
 50
219.7918327889479
 51
230.2081672110523
  0
ARC
  5
751
330
1A
100
AcDbEntity
  8
SEIHIN
  6
CONTINUOUS
100
AcDbCircle
 10
366.2139366271966
 20
369.2917257213495
 30
0.0
 40
2.999990500806636
100
AcDbArc
 50
90.00008499942493
 51
219.7922067228507
  0
LINE
  5
752
330
1A
100
AcDbEntity
  8
SEIHIN
  6
CONTINUOUS
100
AcDbLine
 10
379.8303321766513
 20
356.9796162221526
 30
0.0
 11
379.8303321766513
 21
369.2917162221528
 31
0.0
  0
LINE
  5
753
330
1A
100
AcDbEntity
  8
SEIHIN
  6
CONTINUOUS
100
AcDbLine
 10
374.8303321766513
 20
369.2917162221528
 30
0.0
 11
374.8303321766513
 21
363.6753162221528
 31
0.0
  0
ARC
  5
754
330
1A
100
AcDbEntity
  8
SEIHIN
  6
CONTINUOUS
100
AcDbCircle
 10
371.8303416758481
 20
363.675320672698
 30
0.0
 40
2.999990500806586
100
AcDbArc
 50
230.2077932771525
 51
359.9999150005777
  0
ARC
  5
755
330
1A
100
AcDbEntity
  8
SEIHIN
  6
CONTINUOUS
100
AcDbCircle
 10
382.830303687214
 20
356.9796591556689
 30
0.0
 40
2.999971510869921
100
AcDbArc
 50
180.0008199775477
 51
247.1350184881003
  0
ARC
  5
756
330
1A
100
AcDbEntity
  8
SEIHIN
  6
CONTINUOUS
100
AcDbCircle
 10
371.8303321766513
 20
369.2917162221528
 30
0.0
 40
3.000000000000028
100
AcDbArc
 50
0.0000000000005428
 51
90.00000000000055
  0
ARC
  5
757
330
1A
100
AcDbEntity
  8
SEIHIN
  6
CONTINUOUS
100
AcDbCircle
 10
382.8303321766513
 20
369.2917162221528
 30
0.0
 40
3.000000000000028
100
AcDbArc
 50
89.99999999999944
 51
179.9999999999994
  0
LINE
  5
758
330
1A
100
AcDbEntity
  8
SEIHIN
  6
CONTINUOUS
100
AcDbLine
 10
359.5182321766513
 20
377.2917162221526
 30
0.0
 11
371.8303321766513
 21
377.2917162221526
 31
0.0
  0
ARC
  5
759
330
1A
100
AcDbEntity
  8
SEIHIN
  6
CONTINUOUS
100
AcDbCircle
 10
399.8303202952588
 20
397.291674973609
 30
0.0
 40
46.7499881186445
100
AcDbArc
 50
180.0000720045208
 51
202.8657039646031
  0
LINE
  5
75A
330
1A
100
AcDbEntity
  8
SEIHIN
  6
CONTINUOUS
100
AcDbLine
 10
379.8303321766513
 20
380.2917162221528
 30
0.0
 11
379.8303321766513
 21
397.2917162221528
 31
0.0
  0
LINE
  5
75B
330
1A
100
AcDbEntity
  8
SEIHIN
  6
CONTINUOUS
100
AcDbLine
 10
374.8303321766513
 20
397.2917162221528
 30
0.0
 11
374.8303321766513
 21
380.2917162221528
 31
0.0
  0
ARC
  5
75C
330
1A
100
AcDbEntity
  8
SEIHIN
  6
CONTINUOUS
100
AcDbCircle
 10
382.8304321766513
 20
425.2917162221528
 30
0.0
 40
2.999999999999971
100
AcDbArc
 50
179.9999999999994
 51
269.9999999999994
  0
ARC
  5
75D
330
1A
100
AcDbEntity
  8
SEIHIN
  6
CONTINUOUS
100
AcDbCircle
 10
366.2140216346443
 20
425.2917387236506
 30
0.0
 40
3.000022501516321
100
AcDbArc
 50
140.2066121530493
 51
270.0002013359924
  0
ARC
  5
75E
330
1A
100
AcDbEntity
  8
SEIHIN
  6
CONTINUOUS
100
AcDbCircle
 10
371.8304321766513
 20
425.2917162221528
 30
0.0
 40
3.0
100
AcDbArc
 50
270.0
 51
0.0
  0
LINE
  5
75F
330
1A
100
AcDbEntity
  8
SEIHIN
  6
CONTINUOUS
100
AcDbLine
 10
366.2140321766514
 20
422.2917162221528
 30
0.0
 11
371.8304321766513
 21
422.2917162221528
 31
0.0
  0
LINE
  5
760
330
1A
100
AcDbEntity
  8
SEIHIN
  6
CONTINUOUS
100
AcDbLine
 10
359.5183321766514
 20
417.2918162221527
 30
0.0
 11
371.8304321766513
 21
417.2917162221525
 31
0.0
  0
ARC
  5
761
330
1A
100
AcDbEntity
  8
SEIHIN
  6
CONTINUOUS
100
AcDbCircle
 10
359.5183751101675
 20
414.29184471159
 30
0.0
 40
2.999971510870047
100
AcDbArc
 50
90.00081997754394
 51
157.1350184880973
  0
ARC
  5
762
330
1A
100
AcDbEntity
  8
SEIHIN
  6
CONTINUOUS
100
AcDbCircle
 10
371.8304321766514
 20
414.2917162221527
 30
0.0
 40
2.999999999999886
100
AcDbArc
 50
0.0000000000021713
 51
90.00000000000218
  0
ARC
  5
763
330
1A
100
AcDbEntity
  8
SEIHIN
  6
CONTINUOUS
100
AcDbCircle
 10
382.8304321766512
 20
414.2917162221527
 30
0.0
 40
2.999999999999857
100
AcDbArc
 50
89.99999999999836
 51
179.9999999999983
  0
ARC
  5
764
330
1A
100
AcDbEntity
  8
SEIHIN
  6
CONTINUOUS
100
AcDbCircle
 10
399.8301329072489
 20
397.2914169536779
 30
0.0
 40
46.75001769511026
100
AcDbArc
 50
129.791324095501
 51
140.2077212214676
  0
LINE
  5
765
330
1A
100
AcDbEntity
  8
SEIHIN
  6
CONTINUOUS
100
AcDbLine
 10
379.8305321766513
 20
437.6038162221528
 30
0.0
 11
379.8304321766514
 21
425.2917162221528
 31
0.0
  0
ARC
  5
766
330
1A
100
AcDbEntity
  8
SEIHIN
  6
CONTINUOUS
100
AcDbCircle
 10
371.830441675848
 20
430.9081117716074
 30
0.0
 40
2.999990500806558
100
AcDbArc
 50
0.0000849994216779
 51
129.7922067228474
  0
LINE
  5
767
330
1A
100
AcDbEntity
  8
SEIHIN
  6
CONTINUOUS
100
AcDbLine
 10
374.8304321766513
 20
425.2917162221528
 30
0.0
 11
374.8304321766513
 21
430.9081162221525
 31
0.0
  0
ARC
  5
768
330
1A
100
AcDbEntity
  8
SEIHIN
  6
CONTINUOUS
100
AcDbCircle
 10
382.8305036872141
 20
437.6037732886367
 30
0.0
 40
2.999971510869936
100
AcDbArc
 50
112.8649815119025
 51
179.9991800224555
  0
ARC
  5
769
330
1A
100
AcDbEntity
  8
SEIHIN
  6
CONTINUOUS
100
AcDbCircle
 10
399.830324629432
 20
397.2916535416641
 30
0.0
 40
46.75000754723414
100
AcDbArc
 50
359.9999542620286
 51
22.86569914913293
  0
LINE
  5
76A
330
1A
100
AcDbEntity
  8
SEIHIN
  6
CONTINUOUS
100
AcDbLine
 10
424.8303321766513
 20
397.2916162221526
 30
0.0
 11
424.8304321766513
 21
414.2916162221526
 31
0.0
  0
LINE
  5
76B
330
1A
100
AcDbEntity
  8
SEIHIN
  6
CONTINUOUS
100
AcDbLine
 10
419.8304321766514
 20
414.2916162221526
 30
0.0
 11
419.8303321766513
 21
397.2916162221526
 31
0.0
  0
LINE
  5
76C
330
1A
100
AcDbEntity
  8
SEIHIN
  6
CONTINUOUS
100
AcDbLine
 10
416.8303321766513
 20
372.2916162221528
 30
0.0
 11
399.8303321766513
 21
372.2916162221528
 31
0.0
  0
LINE
  5
76D
330
1A
100
AcDbEntity
  8
SEIHIN
  6
CONTINUOUS
100
AcDbLine
 10
416.8303321766513
 20
377.2916162221528
 30
0.0
 11
399.8303321766513
 21
377.2916162221528
 31
0.0
  0
ARC
  5
76E
330
1A
100
AcDbEntity
  8
SEIHIN
  6
CONTINUOUS
100
AcDbCircle
 10
427.8303321766513
 20
380.2916162221528
 30
0.0
 40
2.999999999999971
100
AcDbArc
 50
179.9999999999994
 51
269.9999999999994
  0
ARC
  5
76F
330
1A
100
AcDbEntity
  8
SEIHIN
  6
CONTINUOUS
100
AcDbCircle
 10
416.8303321766513
 20
380.2916162221528
 30
0.0
 40
3.0
100
AcDbArc
 50
270.0
 51
0.0
  0
ARC
  5
770
330
1A
100
AcDbEntity
  8
SEIHIN
  6
CONTINUOUS
100
AcDbCircle
 10
440.1424185227559
 20
380.2916071621254
 30
0.0
 40
2.999990940003648
100
AcDbArc
 50
270.00026077098
 51
337.1326994931063
  0
ARC
  5
771
330
1A
100
AcDbEntity
  8
SEIHIN
  6
CONTINUOUS
100
AcDbCircle
 10
399.8302821765763
 20
397.2915662222283
 30
0.0
 40
46.75004969425092
100
AcDbArc
 50
309.791848522239
 51
320.2081514777598
  0
LINE
  5
772
330
1A
100
AcDbEntity
  8
SEIHIN
  6
CONTINUOUS
100
AcDbLine
 10
433.4467321766513
 20
372.2916162221528
 30
0.0
 11
427.8303321766513
 21
372.2916162221528
 31
0.0
  0
LINE
  5
773
330
1A
100
AcDbEntity
  8
SEIHIN
  6
CONTINUOUS
100
AcDbLine
 10
424.8303321766513
 20
369.2916162221526
 30
0.0
 11
424.8303321766513
 21
363.6752162221526
 31
0.0
  0
LINE
  5
774
330
1A
100
AcDbEntity
  8
SEIHIN
  6
CONTINUOUS
100
AcDbLine
 10
419.8303321766513
 20
356.9795162221527
 30
0.0
 11
419.8303321766513
 21
369.2916162221526
 31
0.0
  0
ARC
  5
775
330
1A
100
AcDbEntity
  8
SEIHIN
  6
CONTINUOUS
100
AcDbCircle
 10
427.8303226774545
 20
363.6752206726979
 30
0.0
 40
2.999990500806487
100
AcDbArc
 50
180.0000849994249
 51
309.7922067228509
  0
ARC
  5
776
330
1A
100
AcDbEntity
  8
SEIHIN
  6
CONTINUOUS
100
AcDbCircle
 10
416.8303606660884
 20
356.9795591556688
 30
0.0
 40
2.999971510870029
100
AcDbArc
 50
292.8649815119039
 51
359.9991800224565
  0
ARC
  5
777
330
1A
100
AcDbEntity
  8
SEIHIN
  6
CONTINUOUS
100
AcDbCircle
 10
416.8303321766511
 20
369.2916162221527
 30
0.0
 40
3.000000000000113
100
AcDbArc
 50
359.9999999999977
 51
89.99999999999783
  0
ARC
  5
778
330
1A
100
AcDbEntity
  8
SEIHIN
  6
CONTINUOUS
100
AcDbCircle
 10
427.8303321766514
 20
369.2916162221527
 30
0.0
 40
3.000000000000085
100
AcDbArc
 50
90.00000000000273
 51
180.0000000000027
  0
ARC
  5
779
330
1A
100
AcDbEntity
  8
SEIHIN
  6
CONTINUOUS
100
AcDbCircle
 10
433.4467277261059
 20
369.2916257213494
 30
0.0
 40
2.999990500806683
100
AcDbArc
 50
320.2077932771516
 51
89.99991500057696
  0
LINE
  5
77A
330
1A
100
AcDbEntity
  8
SEIHIN
  6
CONTINUOUS
100
AcDbLine
 10
440.1424321766512
 20
377.2916162221528
 30
0.0
 11
427.8303321766513
 21
377.2916162221528
 31
0.0
  0
LINE
  5
77B
330
1A
100
AcDbEntity
  8
SEIHIN
  6
CONTINUOUS
100
AcDbLine
 10
424.8303321766513
 20
397.2916162221526
 30
0.0
 11
424.8303321766513
 21
380.2916162221528
 31
0.0
  0
LINE
  5
77C
330
1A
100
AcDbEntity
  8
SEIHIN
  6
CONTINUOUS
100
AcDbLine
 10
419.8303321766513
 20
380.2916162221528
 30
0.0
 11
419.8303321766513
 21
397.2916162221526
 31
0.0
  0
ARC
  5
77D
330
1A
100
AcDbEntity
  8
SEIHIN
  6
CONTINUOUS
100
AcDbCircle
 10
399.8303246294059
 20
397.2915789027164
 30
0.0
 40
46.75000754728737
100
AcDbArc
 50
337.1343008507947
 51
359.9999231800818
  0
ARC
  5
77E
330
1A
100
AcDbEntity
  8
SEIHIN
  6
CONTINUOUS
100
AcDbCircle
 10
399.8305012384704
 20
397.2915820326054
 30
0.0
 40
46.75003418985285
100
AcDbArc
 50
67.13462286062348
 51
90.00020719832351
  0
LINE
  5
77F
330
1A
100
AcDbEntity
  8
SEIHIN
  6
CONTINUOUS
100
AcDbLine
 10
416.8304321766513
 20
422.2916162221526
 30
0.0
 11
399.8304321766513
 21
422.2917162221528
 31
0.0
  0
LINE
  5
780
330
1A
100
AcDbEntity
  8
SEIHIN
  6
CONTINUOUS
100
AcDbLine
 10
416.8304321766513
 20
417.2916162221526
 30
0.0
 11
399.8304321766513
 21
417.2917162221525
 31
0.0
  0
ARC
  5
781
330
1A
100
AcDbEntity
  8
SEIHIN
  6
CONTINUOUS
100
AcDbCircle
 10
433.4468127330152
 20
425.2915747232452
 30
0.0
 40
2.999958501155616
100
AcDbArc
 50
270.0003713512323
 51
39.79102555252685
  0
ARC
  5
782
330
1A
100
AcDbEntity
  8
SEIHIN
  6
CONTINUOUS
100
AcDbCircle
 10
427.8304321766514
 20
425.2916162221526
 30
0.0
 40
3.0
100
AcDbArc
 50
180.0
 51
270.0
  0
ARC
  5
783
330
1A
100
AcDbEntity
  8
SEIHIN
  6
CONTINUOUS
100
AcDbCircle
 10
416.8304321766513
 20
425.2916162221526
 30
0.0
 40
3.0
100
AcDbArc
 50
270.0
 51
0.0
  0
LINE
  5
784
330
1A
100
AcDbEntity
  8
SEIHIN
  6
CONTINUOUS
100
AcDbLine
 10
440.1425321766514
 20
417.2916162221526
 30
0.0
 11
427.8304321766514
 21
417.2916162221526
 31
0.0
  0
LINE
  5
785
330
1A
100
AcDbEntity
  8
SEIHIN
  6
CONTINUOUS
100
AcDbLine
 10
433.4468321766514
 20
422.2916162221526
 30
0.0
 11
427.8304321766514
 21
422.2916162221526
 31
0.0
  0
ARC
  5
786
330
1A
100
AcDbEntity
  8
SEIHIN
  6
CONTINUOUS
100
AcDbCircle
 10
416.8304321766513
 20
414.2916162221526
 30
0.0
 40
3.0
100
AcDbArc
 50
0.0
 51
90.0
  0
ARC
  5
787
330
1A
100
AcDbEntity
  8
SEIHIN
  6
CONTINUOUS
100
AcDbCircle
 10
427.8304321766514
 20
414.2916162221526
 30
0.0
 40
3.0
100
AcDbArc
 50
90.0
 51
180.0
  0
ARC
  5
788
330
1A
100
AcDbEntity
  8
SEIHIN
  6
CONTINUOUS
100
AcDbCircle
 10
440.1424892431353
 20
414.2916447115899
 30
0.0
 40
2.999971510869936
100
AcDbArc
 50
22.86498151190349
 51
89.99918002245715
  0
ARC
  5
789
330
1A
100
AcDbEntity
  8
SEIHIN
  6
CONTINUOUS
100
AcDbCircle
 10
399.8302821765757
 20
397.2916662220771
 30
0.0
 40
46.75004969425116
100
AcDbArc
 50
39.79184852223958
 51
50.20815147776043
  0
LINE
  5
78A
330
1A
100
AcDbEntity
  8
SEIHIN
  6
CONTINUOUS
100
AcDbLine
 10
419.8305321766514
 20
437.6037162221527
 30
0.0
 11
419.8304321766514
 21
425.2916162221526
 31
0.0
  0
ARC
  5
78B
330
1A
100
AcDbEntity
  8
SEIHIN
  6
CONTINUOUS
100
AcDbCircle
 10
427.8304546781493
 20
430.9080267641596
 30
0.0
 40
3.000022501516454
100
AcDbArc
 50
50.20661215305076
 51
180.0002013359929
  0
LINE
  5
78C
330
1A
100
AcDbEntity
  8
SEIHIN
  6
CONTINUOUS
100
AcDbLine
 10
424.8304321766513
 20
425.2916162221526
 30
0.0
 11
424.8304321766513
 21
430.9080162221526
 31
0.0
  0
ARC
  5
78D
330
1A
100
AcDbEntity
  8
SEIHIN
  6
CONTINUOUS
100
AcDbCircle
 10
416.8305145950877
 20
437.6037427171562
 30
0.0
 40
3.00001758168065
100
AcDbArc
 50
359.9994939856745
 51
67.13443460929271
  0
CIRCLE
  5
856
330
1A
100
AcDbEntity
  8
SEIHIN
  6
CONTINUOUS
100
AcDbCircle
 10
179.1030451470424
 20
397.2916660982411
 30
0.0
 40
66.9991728386631
  0
CIRCLE
  5
857
330
1A
100
AcDbEntity
  8
SEIHIN
  6
CONTINUOUS
100
AcDbCircle
 10
179.1030451470424
 20
397.2916660982411
 30
0.0
 40
59.67067283864965
  0
CIRCLE
  5
858
330
1A
100
AcDbEntity
  8
SEIHIN
  6
CONTINUOUS
100
AcDbCircle
 10
179.1030451470424
 20
397.2916660982411
 30
0.0
 40
54.9988728386409
  0
ARC
  5
85A
330
1A
100
AcDbEntity
  8
SEIHIN
  6
CONTINUOUS
100
AcDbCircle
 10
179.1030451470424
 20
397.2916660982411
 30
0.0
 40
52.83387283863668
100
AcDbArc
 50
332.9652711695987
 51
24.76834705016251
  0
CIRCLE
  5
85B
330
1A
100
AcDbEntity
  8
SEIHIN
  6
CONTINUOUS
100
AcDbCircle
 10
179.1030451470424
 20
397.2916660982411
 30
0.0
 40
42.07037283861668
  0
LINE
  5
85E
330
1A
100
AcDbEntity
  8
SEIHIN
  6
CONTINUOUS
100
AcDbLine
 10
176.2579179855811
 20
452.2168995065399
 30
0.0
 11
176.3699148318192
 21
450.0547982817008
 31
0.0
  0
LINE
  5
85F
330
1A
100
AcDbEntity
  8
SEIHIN
  6
CONTINUOUS
100
AcDbLine
 10
135.9469469784827
 20
427.7706639491363
 30
0.0
 11
134.1785179855813
 21
429.0196170695871
 31
0.0
  0
LINE
  5
860
330
1A
100
AcDbEntity
  8
SEIHIN
  6
CONTINUOUS
100
AcDbLine
 10
132.9589612873966
 20
367.3650969952692
 30
0.0
 11
134.7753974505416
 21
368.5431397216746
 31
0.0
  0
LINE
  5
861
330
1A
100
AcDbEntity
  8
SEIHIN
  6
CONTINUOUS
100
AcDbLine
 10
174.2855078105558
 20
344.6778898306058
 30
0.0
 11
174.0880971765603
 21
342.5219088377388
 31
0.0
  0
LINE
  5
862
330
1A
100
AcDbEntity
  8
SEIHIN
  6
CONTINUOUS
100
AcDbLine
 10
228.0922561681495
 20
372.2930017929144
 30
0.0
 11
226.1638231587664
 21
373.277060291348
 31
0.0
  0
LINE
  5
863
330
1A
100
AcDbEntity
  8
SEIHIN
  6
CONTINUOUS
100
AcDbLine
 10
227.0766806520887
 20
419.4264445149814
 30
0.0
 11
229.0425202789857
 21
420.3334723873975
 31
0.0
  0
ARC
  5
864
330
1A
100
AcDbEntity
  8
SEIHIN
  6
CONTINUOUS
100
AcDbCircle
 10
179.1030451470424
 20
397.2916660982411
 30
0.0
 40
52.83387283863668
100
AcDbArc
 50
92.96527116959861
 51
144.7683470501649
  0
ARC
  5
865
330
1A
100
AcDbEntity
  8
SEIHIN
  6
CONTINUOUS
100
AcDbCircle
 10
179.1030451470424
 20
397.2916660982411
 30
0.0
 40
52.83387283863668
100
AcDbArc
 50
212.9652711695986
 51
264.7683470501651
  0
LINE
  5
86A
330
1A
100
AcDbEntity
  8
SEIHIN
  6
CONTINUOUS
100
AcDbLine
 10
344.8297413274015
 20
158.5060263314364
 30
0.0
 11
454.8297413274012
 21
158.5058263314364
 31
0.0
  0
LINE
  5
86B
330
1A
100
AcDbEntity
  8
SEIHIN
  6
CONTINUOUS
100
AcDbLine
 10
346.9948413274016
 20
156.5060263314363
 30
0.0
 11
452.6642413274013
 21
156.5058263314364
 31
0.0
  0
LINE
  5
86C
330
1A
100
AcDbEntity
  8
SEIHIN
  6
CONTINUOUS
100
AcDbLine
 10
344.8298413274015
 20
194.5060263314364
 30
0.0
 11
454.8298413274014
 21
194.5058263314365
 31
0.0
  0
LINE
  5
890
330
1A
100
AcDbEntity
  8
SEIHIN
  6
CONTINUOUS
100
AcDbLine
 10
346.9948413274016
 20
158.5060263314364
 30
0.0
 11
346.9948413274016
 21
156.5060263314363
 31
0.0
  0
LINE
  5
8B1
330
1A
100
AcDbEntity
  8
SEIHIN
  6
CONTINUOUS
100
AcDbLine
 10
344.8297413274015
 20
194.5060263316182
 30
0.0
 11
344.8297413274015
 21
158.5060263314364
 31
0.0
  0
LINE
  5
8B3
330
1A
100
AcDbEntity
  8
SEIHIN
  6
CONTINUOUS
 62
     4
100
AcDbLine
 10
346.9948413274016
 20
194.5060223950728
 30
0.0
 11
346.9948413274016
 21
158.5060223948909
 31
0.0
  0
LINE
  5
8BF
330
1A
100
AcDbEntity
  8
SEIHIN
  6
CONTINUOUS
100
AcDbLine
 10
452.6642413274013
 20
156.5060263314363
 30
0.0
 11
452.6642413274013
 21
158.5060263314364
 31
0.0
  0
LINE
  5
8E2
330
1A
100
AcDbEntity
  8
SEIHIN
  6
CONTINUOUS
100
AcDbLine
 10
452.6647413274012
 20
194.5060263314364
 30
0.0
 11
452.6647413274012
 21
196.5058263314364
 31
0.0
  0
LINE
  5
8E3
330
1A
100
AcDbEntity
  8
SEIHIN
  6
CONTINUOUS
100
AcDbLine
 10
346.9948413274016
 20
196.5059263314363
 30
0.0
 11
346.9948413274016
 21
194.5060263314364
 31
0.0
  0
LINE
  5
8E4
330
1A
100
AcDbEntity
  8
SEIHIN
  6
CONTINUOUS
100
AcDbLine
 10
454.8300333163098
 20
194.5057056282535
 30
0.0
 11
454.8298234019373
 21
158.5057056286836
 31
0.0
  0
LINE
  5
8E5
330
1A
100
AcDbEntity
  8
SEIHIN
  6
CONTINUOUS
 62
     4
100
AcDbLine
 10
452.6649333163236
 20
194.5057143163083
 30
0.0
 11
452.664723401951
 21
158.5057143167383
 31
0.0
  0
DIMENSION
  5
8FA
330
1A
100
AcDbEntity
  8
SUNPOU
  6
CONTINUOUS
100
AcDbDimension
  2
*D1
 10
109.1025915578003
 20
259.1258855567664
 30
0.0
 11
179.1025915578002
 21
264.1258855567664
 31
0.0
 12
31.18850413787731
 22
30.0
 32
0.0
 70
    32
  1
φ<>
  3
STANDARD
100
AcDbAlignedDimension
 13
249.1025915578002
 23
239.2057263314785
 33
0.0
 14
109.1025915578003
 24
239.2059263314784
 34
0.0
100
AcDbRotatedDimension
1001
ACAD
1000
DSTYLE
1002
{
1070
   140
1040
6.0
1070
    74
1070
     0
1070
   172
1070
     1
1070
    73
1070
     0
1070
   272
1070
     2
1070
    77
1070
     3
1070
   173
1070
     1
1070
   147
1040
2.0
1070
    42
1040
6.0
1070
    44
1040
3.0
1070
    43
1040
14.0
1070
   271
1070
     0
1070
   178
1070
     4
1070
   177
1070
     4
1070
   176
1070
     4
1070
   141
1040
150.0
1070
     7
1000
_OPEN
1070
     6
1000
_OPEN
1070
    41
1040
7.0
1002
}
  0
DIMENSION
  5
907
330
1A
100
AcDbEntity
  8
SUNPOU
  6
CONTINUOUS
100
AcDbDimension
  2
*D2
 10
134.5022915578004
 20
130.3657938967066
 30
0.0
 11
179.1022915578003
 21
135.3657938967066
 31
0.0
 12
31.18850413787731
 22
30.0
 32
0.0
 70
    32
  1
φ<>
  3
STANDARD
100
AcDbAlignedDimension
 13
223.7022915578003
 23
157.7058263314784
 33
0.0
 14
134.5022915578004
 24
157.7060263314784
 34
0.0
100
AcDbRotatedDimension
1001
ACAD
1000
DSTYLE
1002
{
1070
   140
1040
6.0
1070
    74
1070
     0
1070
   172
1070
     1
1070
    73
1070
     0
1070
   272
1070
     2
1070
    77
1070
     3
1070
   173
1070
     1
1070
   147
1040
2.0
1070
    42
1040
6.0
1070
    44
1040
3.0
1070
    43
1040
14.0
1070
   271
1070
     0
1070
   178
1070
     4
1070
   177
1070
     4
1070
   176
1070
     4
1070
   141
1040
150.0
1070
     7
1000
_OPEN
1070
     6
1000
_OPEN
1070
    41
1040
7.0
1002
}
  0
DIMENSION
  5
914
330
1A
100
AcDbEntity
  8
SUNPOU
  6
CONTINUOUS
100
AcDbDimension
  2
*D3
 10
122.1023915578003
 20
107.6195319542932
 30
0.0
 11
179.1023915578003
 21
112.6195319542932
 31
0.0
 12
31.18850413787731
 22
30.0
 32
0.0
 70
    32
  1
φ<>
  3
STANDARD
100
AcDbAlignedDimension
 13
236.1023915578003
 23
192.7057263314785
 33
0.0
 14
122.1023915578003
 24
192.7061263314785
 34
0.0
100
AcDbRotatedDimension
1001
ACAD
1000
DSTYLE
1002
{
1070
   140
1040
6.0
1070
    74
1070
     0
1070
   172
1070
     1
1070
    73
1070
     0
1070
   272
1070
     2
1070
    77
1070
     3
1070
   173
1070
     1
1070
   147
1040
2.0
1070
    42
1040
6.0
1070
    44
1040
3.0
1070
    43
1040
14.0
1070
   271
1070
     0
1070
   178
1070
     4
1070
   177
1070
     4
1070
   176
1070
     4
1070
   141
1040
150.0
1070
     7
1000
_OPEN
1070
     6
1000
_OPEN
1070
    41
1040
7.0
1002
}
  0
DIMENSION
  5
921
330
1A
100
AcDbEntity
  8
SUNPOU
  6
CONTINUOUS
100
AcDbDimension
  2
*D4
 10
267.6799101836954
 20
192.7057263314785
 30
0.0
 11
262.6799101836954
 21
214.2057263314785
 31
0.0
 12
31.18850413787731
 22
30.0
 32
0.0
 70
    32
  3
STANDARD
100
AcDbAlignedDimension
 13
245.1025915578002
 23
235.7057263314785
 33
0.0
 14
236.1023915578003
 24
192.7057263314785
 34
0.0
 50
90.0
100
AcDbRotatedDimension
1001
ACAD
1000
DSTYLE
1002
{
1070
   140
1040
6.0
1070
    74
1070
     0
1070
   172
1070
     1
1070
    73
1070
     0
1070
   272
1070
     2
1070
    77
1070
     3
1070
   173
1070
     1
1070
   147
1040
2.0
1070
    42
1040
6.0
1070
    44
1040
3.0
1070
    43
1040
14.0
1070
   271
1070
     0
1070
   178
1070
     4
1070
   177
1070
     4
1070
   176
1070
     4
1070
   141
1040
150.0
1070
     7
1000
_OPEN
1070
     6
1000
_OPEN
1070
    41
1040
7.0
1002
}
  0
DIMENSION
  5
92D
330
1A
100
AcDbEntity
  8
SUNPOU
  6
CONTINUOUS
100
AcDbDimension
  2
*D5
 10
267.6799101836954
 20
157.7058263314784
 30
0.0
 11
262.6799101836954
 21
175.2057763314785
 31
0.0
 70
    32
  3
STANDARD
100
AcDbAlignedDimension
 13
236.1023915578003
 23
192.7057263314785
 33
0.0
 14
223.7022915578003
 24
157.7058263314784
 34
0.0
 50
90.0
100
AcDbRotatedDimension
1001
ACAD
1000
DSTYLE
1002
{
1070
   287
1070
     4
1070
   287
1070
     4
1070
   287
1070
     4
1070
    41
1040
7.0
1070
    42
1040
6.0
1070
    43
1040
14.0
1070
    44
1040
3.0
1070
    73
1070
     0
1070
    74
1070
     0
1070
    75
1070
     1
1070
    77
1070
     3
1070
   140
1040
6.0
1070
   141
1040
150.0
1070
   147
1040
2.0
1070
   172
1070
     1
1070
   173
1070
     1
1070
   176
1070
     4
1070
   177
1070
     4
1070
   178
1070
     4
1070
   271
1070
     0
1070
   272
1070
     2
1070
   279
1070
     1
1070
     6
1000
OPEN
1070
     7
1000
OPEN
1002
}
  0
DIMENSION
  5
93A
330
1A
100
AcDbEntity
  8
SUNPOU
  6
CONTINUOUS
100
AcDbDimension
  2
*D6
 10
290.4439362016796
 20
157.7058263314784
 30
0.0
 11
285.4439362016796
 21
198.4557763314784
 31
0.0
 12
31.18850413787731
 22
30.0
 32
0.0
 70
    32
  3
STANDARD
100
AcDbAlignedDimension
 13
249.1025915578002
 23
239.2057263314785
 33
0.0
 14
223.7022915578003
 24
157.7058263314784
 34
0.0
 50
90.0
100
AcDbRotatedDimension
1001
ACAD
1000
DSTYLE
1002
{
1070
   140
1040
6.0
1070
    74
1070
     0
1070
   172
1070
     1
1070
    73
1070
     0
1070
   272
1070
     2
1070
    77
1070
     3
1070
   173
1070
     1
1070
   147
1040
2.0
1070
    42
1040
6.0
1070
    44
1040
3.0
1070
    43
1040
14.0
1070
   271
1070
     0
1070
   178
1070
     4
1070
   177
1070
     4
1070
   176
1070
     4
1070
   141
1040
150.0
1070
     7
1000
_OPEN
1070
     6
1000
_OPEN
1070
    41
1040
7.0
1002
}
  0
DIMENSION
  5
9AA
330
1A
100
AcDbEntity
  8
SUNPOU
  6
CONTINUOUS
100
AcDbDimension
  2
*D7
 10
344.8297413274015
 20
130.457362512247
 30
0.0
 11
399.8297823646694
 21
135.457362512247
 31
0.0
 12
-28.81149586212268
 22
5.0
 32
0.0
 70
    32
  1
φ<>
  3
STANDARD
100
AcDbAlignedDimension
 13
454.8298234019373
 23
158.5057056286836
 33
0.0
 14
344.8297413274015
 24
158.5060263314364
 34
0.0
100
AcDbRotatedDimension
1001
ACAD
1000
DSTYLE
1002
{
1070
   140
1040
6.0
1070
    74
1070
     0
1070
   172
1070
     1
1070
    73
1070
     0
1070
   272
1070
     2
1070
    77
1070
     3
1070
   173
1070
     1
1070
   147
1040
2.0
1070
    42
1040
6.0
1070
    44
1040
3.0
1070
    43
1040
14.0
1070
   271
1070
     0
1070
   178
1070
     4
1070
   177
1070
     4
1070
   176
1070
     4
1070
   141
1040
150.0
1070
     7
1000
_OPEN
1070
     6
1000
_OPEN
1070
    41
1040
7.0
1002
}
  0
DIMENSION
  5
9B9
330
1A
100
AcDbEntity
  8
SUNPOU
  6
CONTINUOUS
100
AcDbDimension
  2
*D8
 10
485.3861184725042
 20
198.5057263314785
 30
0.0
 11
480.3861184725042
 21
216.5057263314785
 31
0.0
 12
-28.81149586212268
 22
5.0
 32
0.0
 70
    32
  3
STANDARD
100
AcDbAlignedDimension
 13
464.8299321766512
 23
196.5057263314785
 33
0.0
 14
460.8299321766512
 24
198.5057263314785
 34
0.0
 50
90.0
100
AcDbRotatedDimension
1001
ACAD
1000
DSTYLE
1002
{
1070
   140
1040
6.0
1070
    74
1070
     0
1070
   172
1070
     1
1070
    73
1070
     0
1070
   272
1070
     2
1070
    77
1070
     3
1070
   173
1070
     1
1070
   147
1040
2.0
1070
    42
1040
6.0
1070
    44
1040
3.0
1070
    43
1040
14.0
1070
   271
1070
     0
1070
   178
1070
     4
1070
   177
1070
     4
1070
   176
1070
     4
1070
   141
1040
150.0
1070
     7
1000
_OPEN
1070
     6
1000
_OPEN
1070
    41
1040
7.0
1002
}
  0
DIMENSION
  5
9C6
330
1A
100
AcDbEntity
  8
SUNPOU
  6
CONTINUOUS
100
AcDbDimension
  2
*D9
 10
504.386762906357
 20
156.5058263314364
 30
0.0
 11
499.386762906357
 21
176.5057763314574
 31
0.0
 12
-28.81149586212268
 22
5.0
 32
0.0
 70
    32
  3
STANDARD
100
AcDbAlignedDimension
 13
464.8299321766512
 23
196.5057263314785
 33
0.0
 14
452.6642413274013
 24
156.5058263314364
 34
0.0
 50
90.0
100
AcDbRotatedDimension
1001
ACAD
1000
DSTYLE
1002
{
1070
   140
1040
6.0
1070
    74
1070
     0
1070
   172
1070
     1
1070
    73
1070
     0
1070
   272
1070
     2
1070
    77
1070
     3
1070
   173
1070
     1
1070
   147
1040
2.0
1070
    42
1040
6.0
1070
    44
1040
3.0
1070
    43
1040
14.0
1070
   271
1070
     0
1070
   178
1070
     4
1070
   177
1070
     4
1070
   176
1070
     4
1070
   141
1040
150.0
1070
     7
1000
_OPEN
1070
     6
1000
_OPEN
1070
    41
1040
7.0
1002
}
  0
DIMENSION
  5
9D3
330
1A
100
AcDbEntity
  8
SUNPOU
  6
CONTINUOUS
100
AcDbDimension
  2
*D10
 10
525.2352710916798
 20
156.5058263314364
 30
0.0
 11
520.2352710916797
 21
195.0468614238658
 31
0.0
 12
-28.81149586212268
 22
5.0
 32
0.0
 70
    32
  3
STANDARD
100
AcDbAlignedDimension
 13
419.8300321766514
 23
233.5878965162951
 33
0.0
 14
452.6642413274013
 24
156.5058263314364
 34
0.0
 50
90.0
100
AcDbRotatedDimension
1001
ACAD
1000
DSTYLE
1002
{
1070
   140
1040
6.0
1070
    74
1070
     0
1070
   172
1070
     1
1070
    73
1070
     0
1070
   272
1070
     2
1070
    77
1070
     3
1070
   173
1070
     1
1070
   147
1040
2.0
1070
    42
1040
6.0
1070
    44
1040
3.0
1070
    43
1040
14.0
1070
   271
1070
     0
1070
   178
1070
     4
1070
   177
1070
     4
1070
   176
1070
     4
1070
   141
1040
150.0
1070
     7
1000
_OPEN
1070
     6
1000
_OPEN
1070
    41
1040
7.0
1002
}
  0
DIMENSION
  5
9E0
330
1A
100
AcDbEntity
  8
SUNPOU
  6
CONTINUOUS
100
AcDbDimension
  2
*D11
 10
350.5797321766513
 20
255.841773833285
 30
0.0
 11
399.8297821766513
 21
260.841773833285
 31
0.0
 12
-28.81149586212268
 22
5.0
 32
0.0
 70
    32
  1
φ<>
  3
STANDARD
100
AcDbAlignedDimension
 13
449.0798321766512
 23
216.2495263314784
 33
0.0
 14
350.5797321766513
 24
216.2495263314784
 34
0.0
100
AcDbRotatedDimension
1001
ACAD
1000
DSTYLE
1002
{
1070
   140
1040
6.0
1070
    74
1070
     0
1070
   172
1070
     1
1070
    73
1070
     0
1070
   272
1070
     2
1070
    77
1070
     3
1070
   173
1070
     1
1070
   147
1040
2.0
1070
    42
1040
6.0
1070
    44
1040
3.0
1070
    43
1040
14.0
1070
   271
1070
     0
1070
   178
1070
     4
1070
   177
1070
     4
1070
   176
1070
     4
1070
   141
1040
150.0
1070
     7
1000
_OPEN
1070
     6
1000
_OPEN
1070
    41
1040
7.0
1002
}
  0
DIMENSION
  5
A31
330
1A
100
AcDbEntity
  8
SUNPOU
  6
CONTINUOUS
100
AcDbDimension
  2
*D12
 10
612.2045513216413
 20
290.4177755471414
 30
0.0
 11
667.454612557749
 21
295.4177755471414
 31
0.0
 12
-9.912933141325083
 22
-27.51443743407935
 32
0.0
 70
    32
  1
穴径 φ<>
  3
STANDARD
100
AcDbAlignedDimension
 13
722.7046737938565
 23
348.6662780850335
 33
0.0
 14
612.2045513216413
 24
344.6118092206793
 34
0.0
100
AcDbRotatedDimension
1001
ACAD
1000
DSTYLE
1002
{
1070
   140
1040
6.0
1070
    74
1070
     0
1070
   172
1070
     1
1070
    73
1070
     0
1070
   272
1070
     2
1070
    77
1070
     3
1070
   173
1070
     1
1070
   147
1040
2.0
1070
    42
1040
6.0
1070
    44
1040
3.0
1070
    43
1040
14.0
1070
   271
1070
     0
1070
   178
1070
     4
1070
   177
1070
     4
1070
   176
1070
     4
1070
   141
1040
150.0
1070
     7
1000
_OPEN
1070
     6
1000
_OPEN
1070
    41
1040
7.0
1002
}
  0
LINE
  5
A53
330
1A
100
AcDbEntity
  8
NOKITOI
  6
CONTINUOUS
 62
     6
100
AcDbLine
 10
611.7045513216415
 20
357.812965374984
 30
0.0
 11
584.7045513216413
 21
357.8130899903685
 31
0.0
  0
LINE
  5
A54
330
1A
100
AcDbEntity
  8
NOKITOI
  6
CONTINUOUS
 62
     6
100
AcDbLine
 10
611.7045513216415
 20
355.3129653749573
 30
0.0
 11
584.7045513216413
 21
355.313089990342
 31
0.0
  0
LINE
  5
A55
330
1A
100
AcDbEntity
  8
NOKITOI
  6
CONTINUOUS
 62
     6
100
AcDbLine
 10
611.7045513216415
 20
357.812965374984
 30
0.0
 11
611.7045513216415
 21
355.3129653749573
 31
0.0
  0
LINE
  5
A57
330
1A
100
AcDbEntity
  8
NOKITOI
  6
CONTINUOUS
 62
     6
100
AcDbLine
 10
722.704837572011
 20
355.3126204550459
 30
0.0
 11
749.7048375722642
 21
355.3125772719876
 31
0.0
  0
LINE
  5
A58
330
1A
100
AcDbEntity
  8
NOKITOI
  6
CONTINUOUS
 62
     6
100
AcDbLine
 10
722.704853108904
 20
357.8126204550243
 30
0.0
 11
749.7048531091571
 21
357.8125772719658
 31
0.0
  0
LINE
  5
A59
330
1A
100
AcDbEntity
  8
NOKITOI
  6
CONTINUOUS
 62
     6
100
AcDbLine
 10
722.704853108904
 20
357.8126204550243
 30
0.0
 11
722.704837572011
 21
355.3126204550459
 31
0.0
  0
DIMENSION
  5
A66
330
1A
100
AcDbEntity
  8
SUNPOU
  6
CONTINUOUS
100
AcDbDimension
  2
*D13
 10
334.8298321766514
 20
274.6225967724869
 30
0.0
 11
399.8298821766513
 21
279.6225967724869
 31
0.0
 70
    32
  1
φ<>
  3
STANDARD
100
AcDbAlignedDimension
 13
464.8299321766512
 23
197.5057263314784
 33
0.0
 14
334.8298321766514
 24
197.5062263314785
 34
0.0
100
AcDbRotatedDimension
1001
ACAD
1000
DSTYLE
1002
{
1070
   140
1040
6.0
1070
    74
1070
     0
1070
   172
1070
     1
1070
    73
1070
     0
1070
   272
1070
     2
1070
    77
1070
     3
1070
   173
1070
     1
1070
   147
1040
2.0
1070
    42
1040
6.0
1070
    44
1040
3.0
1070
    43
1040
14.0
1070
   271
1070
     0
1070
   178
1070
     4
1070
   177
1070
     4
1070
   176
1070
     4
1070
   141
1040
150.0
1070
     7
1000
_OPEN
1070
     6
1000
_OPEN
1070
    41
1040
7.0
1002
}
  0
VIEWPORT
  5
22
330
17
100
AcDbEntity
 67
     1
  8
0
100
AcDbViewport
 10
313.6808219178082
 20
148.5
 30
0.0
 40
627.3616438356165
 41
297.0
 68
     2
 69
     1
1001
ACAD
1000
MVIEW
1002
{
1070
    16
1010
0.0
1020
0.0
1030
0.0
1010
0.0
1020
0.0
1030
1.0
1040
0.0
1040
297.0
1040
313.6808219178082
1040
148.5
1040
50.0
1040
0.0
1040
0.0
1070
     0
1070
   100
1070
     1
1070
     0
1070
     0
1070
     0
1070
     0
1070
     0
1040
0.0
1040
0.0
1040
0.0
1040
1.0
1040
1.0
1040
10.0
1040
10.0
1070
     0
1002
{
1002
}
1002
}
  0
VIEWPORT
  5
64
330
17
100
AcDbEntity
 67
     1
  8
VIEWPORT
100
AcDbViewport
 10
210.0
 20
148.5
 30
0.0
 40
420.0
 41
297.0
 68
     1
 69
     2
1001
ACAD
1000
MVIEW
1002
{
1070
    16
1010
0.0
1020
0.0
1030
0.0
1010
0.0
1020
0.0
1030
1.0
1040
0.0
1040
605.8799999999998
1040
420.0
1040
297.0
1040
50.0
1040
0.0
1040
0.0
1070
     0
1070
   100
1070
     1
1070
     0
1070
     0
1070
     0
1070
     0
1070
     0
1040
0.0
1040
0.0
1040
0.0
1040
10.0
1040
10.0
1040
0.0
1040
0.0
1070
     0
1002
{
1002
}
1002
}
  0
ENDSEC
  0
SECTION
  2
OBJECTS
  0
DICTIONARY
  5
C
330
0
100
AcDbDictionary
  3
ACAD_GROUP
350
D
  3
ACAD_LAYOUT
350
A91
  3
ACAD_MLINESTYLE
350
E
  3
ACAD_PLOTSETTINGS
350
A92
1001
ACAD
1000
TREAT_AS_HARD
1070
     0
  0
DICTIONARY
  5
ABE
330
1A
100
AcDbDictionary
  3
ACAD_LAYOUTSELFREF
350
B12
1001
ACAD
1000
TREAT_AS_HARD
1070
     1
  0
DICTIONARY
  5
ABC
330
17
100
AcDbDictionary
  3
ACAD_LAYOUTSELFREF
350
B11
1001
ACAD
1000
TREAT_AS_HARD
1070
     1
  0
DICTIONARY
  5
D
102
{ACAD_REACTORS
330
C
102
}
330
C
100
AcDbDictionary
1001
ACAD
1000
TREAT_AS_HARD
1070
     0
  0
DICTIONARY
  5
A91
102
{ACAD_REACTORS
330
C
102
}
330
C
100
AcDbDictionary
1001
ACAD
1000
TREAT_AS_HARD
1070
     0
  0
DICTIONARY
  5
E
102
{ACAD_REACTORS
330
C
102
}
330
C
100
AcDbDictionary
  3
STANDARD
350
13
1001
ACAD
1000
TREAT_AS_HARD
1070
     0
  0
DICTIONARY
  5
A92
102
{ACAD_REACTORS
330
C
102
}
330
C
100
AcDbDictionary
1001
ACAD
1000
TREAT_AS_HARD
1070
     0
  0
XRECORD
  5
B12
102
{ACAD_REACTORS
330
ABE
102
}
330
ABE
100
AcDbXrecord
340
1A
  0
XRECORD
  5
B11
102
{ACAD_REACTORS
330
ABC
102
}
330
ABC
100
AcDbXrecord
340
17
  0
MLINESTYLE
  5
13
102
{ACAD_REACTORS
330
E
102
}
330
E
100
AcDbMlineStyle
  2
STANDARD
 70
     0
  3

 62
     0
 51
90.0
 52
90.0
 71
     2
 49
0.5
 62
   256
  6
BYLAYER
 49
-0.5
 62
   256
  6
BYLAYER
  0
ENDSEC
  0
EOF
