  0
SECTION
  2
HEADER
  9
$ACADVER
  1
AC1012
  9
$DWGCODEPAGE
  3
dos932
  9
$INSBASE
 10
0.0
 20
0.0
 30
0.0
  9
$EXTMIN
 10
5.0
 20
2.449000558492456
 30
0.0
  9
$EXTMAX
 10
403.0
 20
282.0
 30
0.0
  9
$LIMMIN
 10
0.0
 20
0.0
  9
$LIMMAX
 10
420.0
 20
297.0
  9
$ORTHOMODE
 70
     0
  9
$REGENMODE
 70
     1
  9
$FILLMODE
 70
     1
  9
$QTEXTMODE
 70
     0
  9
$MIRRTEXT
 70
     1
  9
$DRAGMODE
 70
     2
  9
$LTSCALE
 40
1.0
  9
$OSMODE
 70
    37
  9
$ATTMODE
 70
     1
  9
$TEXTSIZE
 40
6.0
  9
$TRACEWID
 40
1.0
  9
$TEXTSTYLE
  7
STANDARD
  9
$CLAYER
  8
CENTER_L
  9
$CELTYPE
  6
BYLAYER
  9
$CECOLOR
 62
   256
  9
$CELTSCALE
 40
5.0
  9
$DELOBJ
 70
     1
  9
$DISPSILH
 70
     0
  9
$DIMSCALE
 40
1.0
  9
$DIMASZ
 40
3.0
  9
$DIMEXO
 40
3.0
  9
$DIMDLI
 40
7.0
  9
$DIMRND
 40
0.0
  9
$DIMDLE
 40
0.0
  9
$DIMEXE
 40
1.5
  9
$DIMTP
 40
0.0
  9
$DIMTM
 40
0.0
  9
$DIMTXT
 40
3.0
  9
$DIMCEN
 40
150.0
  9
$DIMTSZ
 40
0.0
  9
$DIMTOL
 70
     0
  9
$DIMLIM
 70
     0
  9
$DIMTIH
 70
     0
  9
$DIMTOH
 70
     0
  9
$DIMSE1
 70
     0
  9
$DIMSE2
 70
     0
  9
$DIMTAD
 70
     3
  9
$DIMZIN
 70
     0
  9
$DIMBLK
  1

  9
$DIMASO
 70
     1
  9
$DIMSHO
 70
     1
  9
$DIMPOST
  1

  9
$DIMAPOST
  1

  9
$DIMALT
 70
     0
  9
$DIMALTD
 70
     2
  9
$DIMALTF
 40
25.4
  9
$DIMLFAC
 40
1.0
  9
$DIMTOFL
 70
     1
  9
$DIMTVP
 40
0.0
  9
$DIMTIX
 70
     0
  9
$DIMSOXD
 70
     0
  9
$DIMSAH
 70
     1
  9
$DIMBLK1
  1
OPEN
  9
$DIMBLK2
  1
OPEN
  9
$DIMSTYLE
  2
STANDARD
  9
$DIMCLRD
 70
   256
  9
$DIMCLRE
 70
   256
  9
$DIMCLRT
 70
   256
  9
$DIMTFAC
 40
1.0
  9
$DIMGAP
 40
1.0
  9
$DIMJUST
 70
     0
  9
$DIMSD1
 70
     0
  9
$DIMSD2
 70
     0
  9
$DIMTOLJ
 70
     1
  9
$DIMTZIN
 70
     0
  9
$DIMALTZ
 70
     0
  9
$DIMALTTZ
 70
     0
  9
$DIMFIT
 70
     3
  9
$DIMUPT
 70
     0
  9
$DIMUNIT
 70
     2
  9
$DIMDEC
 70
     0
  9
$DIMTDEC
 70
     0
  9
$DIMALTU
 70
     2
  9
$DIMALTTD
 70
     2
  9
$DIMTXSTY
  7
STANDARD
  9
$DIMAUNIT
 70
     0
  9
$LUNITS
 70
     2
  9
$LUPREC
 70
     4
  9
$SKETCHINC
 40
1.0
  9
$FILLETRAD
 40
10.0
  9
$AUNITS
 70
     0
  9
$AUPREC
 70
     0
  9
$MENU
  1
.
  9
$ELEVATION
 40
0.0
  9
$PELEVATION
 40
0.0
  9
$THICKNESS
 40
0.0
  9
$LIMCHECK
 70
     0
  9
$BLIPMODE
 70
     0
  9
$CHAMFERA
 40
10.0
  9
$CHAMFERB
 40
10.0
  9
$CHAMFERC
 40
20.0
  9
$CHAMFERD
 40
0.0
  9
$SKPOLY
 70
     0
  9
$TDCREATE
 40
2451278.706181597
  9
$TDUPDATE
 40
2452396.592733414
  9
$TDINDWG
 40
0.0168681944
  9
$TDUSRTIMER
 40
0.0168681944
  9
$USRTIMER
 70
     1
  9
$ANGBASE
 50
0.0
  9
$ANGDIR
 70
     0
  9
$PDMODE
 70
     0
  9
$PDSIZE
 40
0.0
  9
$PLINEWID
 40
0.0
  9
$COORDS
 70
     1
  9
$SPLFRAME
 70
     0
  9
$SPLINETYPE
 70
     6
  9
$SPLINESEGS
 70
     8
  9
$ATTDIA
 70
     0
  9
$ATTREQ
 70
     1
  9
$HANDLING
 70
 10241
  9
$HANDSEED
  5
3BA
  9
$SURFTAB1
 70
     6
  9
$SURFTAB2
 70
     6
  9
$SURFTYPE
 70
     6
  9
$SURFU
 70
     6
  9
$SURFV
 70
     6
  9
$UCSNAME
  2

  9
$UCSORG
 10
0.0
 20
0.0
 30
0.0
  9
$UCSXDIR
 10
1.0
 20
0.0
 30
0.0
  9
$UCSYDIR
 10
0.0
 20
1.0
 30
0.0
  9
$PUCSNAME
  2

  9
$PUCSORG
 10
0.0
 20
0.0
 30
0.0
  9
$PUCSXDIR
 10
1.0
 20
0.0
 30
0.0
  9
$PUCSYDIR
 10
0.0
 20
1.0
 30
0.0
  9
$USERI1
 70
     0
  9
$USERI2
 70
     0
  9
$USERI3
 70
     0
  9
$USERI4
 70
     0
  9
$USERI5
 70
     0
  9
$USERR1
 40
0.0
  9
$USERR2
 40
0.0
  9
$USERR3
 40
0.0
  9
$USERR4
 40
0.0
  9
$USERR5
 40
0.0
  9
$WORLDVIEW
 70
     1
  9
$SHADEDGE
 70
     3
  9
$SHADEDIF
 70
    70
  9
$TILEMODE
 70
     1
  9
$MAXACTVP
 70
    16
  9
$PINSBASE
 10
0.0
 20
0.0
 30
0.0
  9
$PLIMCHECK
 70
     0
  9
$PEXTMIN
 10
0.0
 20
0.0
 30
0.0
  9
$PEXTMAX
 10
420.0
 20
297.0
 30
0.0
  9
$PLIMMIN
 10
0.0
 20
0.0
  9
$PLIMMAX
 10
420.0
 20
297.0
  9
$UNITMODE
 70
     0
  9
$VISRETAIN
 70
     0
  9
$PLINEGEN
 70
     0
  9
$PSLTSCALE
 70
     1
  9
$TREEDEPTH
 70
  3020
  9
$PICKSTYLE
 70
     1
  9
$CMLSTYLE
  2
STANDARD
  9
$CMLJUST
 70
     0
  9
$CMLSCALE
 40
1.0
  9
$SAVEIMAGES
 70
     1
  0
ENDSEC
  0
SECTION
  2
CLASSES
  0
CLASS
  1
ACDBDICTIONARYWDFLT
  2
AcDbDictionaryWithDefault
  3
AutoCAD 2000
 90
    32768
280
     0
281
     0
  0
CLASS
  1
ACDBPLACEHOLDER
  2
AcDbPlaceHolder
  3
AutoCAD 2000
 90
    32768
280
     0
281
     0
  0
CLASS
  1
LAYOUT
  2
AcDbLayout
  3
AutoCAD 2000
 90
    32768
280
     0
281
     0
  0
CLASS
  1
LONG_TRANSACTION
  2
AcDbLongTransaction
  3
AutoCAD 2000
 90
    32768
280
     0
281
     0
  0
CLASS
  1
LWPOLYLINE
  2
AcDbPolyline
  3
AutoCAD 2000
 90
    32768
280
     0
281
     1
  0
CLASS
  1
HATCH
  2
AcDbHatch
  3
AutoCAD 2000
 90
    32768
280
     0
281
     1
  0
CLASS
  1
XRECORD
  2
AcDbXrecord
  3
AutoCAD 2000
 90
    32768
280
     0
281
     0
  0
CLASS
  1
LONG_TRANSACTION
  2
AcDbLongTransaction
  3
AutoCAD 2000
 90
    32768
280
     0
281
     0
  0
CLASS
  1
LWPOLYLINE
  2
AcDbPolyline
  3
AutoCAD 2000
 90
    32768
280
     0
281
     1
  0
CLASS
  1
HATCH
  2
AcDbHatch
  3
AutoCAD 2000
 90
    32768
280
     0
281
     1
  0
CLASS
  1
XRECORD
  2
AcDbXrecord
  3
AutoCAD 2000
 90
    32768
280
     0
281
     0
  0
ENDSEC
  0
SECTION
  2
TABLES
  0
TABLE
  2
VPORT
  5
8
330
0
100
AcDbSymbolTable
 70
     3
  0
VPORT
  5
3B7
330
8
100
AcDbSymbolTableRecord
100
AcDbViewportTableRecord
  2
*ACTIVE
 70
     0
 10
0.0
 20
0.0
 11
1.0
 21
1.0
 12
299.5174200464653
 22
141.0926356863935
 13
0.0
 23
0.0
 14
5.0
 24
5.0
 15
0.0
 25
0.0
 16
0.0
 26
0.0
 36
1.0
 17
0.0
 27
0.0
 37
0.0
 40
306.9956859756477
 41
2.321212121212121
 42
50.0
 43
0.0
 44
0.0
 50
0.0
 51
0.0
 71
     0
 72
   100
 73
     1
 74
     0
 75
     0
 76
     0
 77
     0
 78
     0
  0
ENDTAB
  0
TABLE
  2
LTYPE
  5
5
330
0
100
AcDbSymbolTable
 70
     2
  0
LTYPE
  5
14
330
5
100
AcDbSymbolTableRecord
100
AcDbLinetypeTableRecord
  2
BYBLOCK
 70
     0
  3

 72
    65
 73
     0
 40
0.0
  0
LTYPE
  5
15
330
5
100
AcDbSymbolTableRecord
100
AcDbLinetypeTableRecord
  2
BYLAYER
 70
     0
  3

 72
    65
 73
     0
 40
0.0
  0
LTYPE
  5
16
330
5
100
AcDbSymbolTableRecord
100
AcDbLinetypeTableRecord
  2
CONTINUOUS
 70
     0
  3
Solid line
 72
    65
 73
     0
 40
0.0
  0
LTYPE
  5
120
330
5
100
AcDbSymbolTableRecord
100
AcDbLinetypeTableRecord
  2
CENTER
 70
     0
  3
____ _ ____ _ ____ _ ____ _ ____ _ ____ _ ____ 
 72
    65
 73
     4
 40
2.0
 49
1.25
 74
     0
 49
-0.25
 74
     0
 49
0.25
 74
     0
 49
-0.25
 74
     0
  0
ENDTAB
  0
TABLE
  2
LAYER
  5
2
330
0
100
AcDbSymbolTable
 70
     7
  0
LAYER
  5
F
330
2
100
AcDbSymbolTableRecord
100
AcDbLayerTableRecord
  2
0
 70
     0
 62
     7
  6
CONTINUOUS
  0
LAYER
  5
62
330
2
100
AcDbSymbolTableRecord
100
AcDbLayerTableRecord
  2
VIEWPORT
 70
     0
 62
     7
  6
CONTINUOUS
  0
LAYER
  5
6B
330
2
100
AcDbSymbolTableRecord
100
AcDbLayerTableRecord
  2
ZUWAKU
 70
     0
 62
     7
  6
CONTINUOUS
  0
LAYER
  5
134
330
2
100
AcDbSymbolTableRecord
100
AcDbLayerTableRecord
  2
SEIHIN
 70
     0
 62
     3
  6
CONTINUOUS
  0
LAYER
  5
135
330
2
100
AcDbSymbolTableRecord
100
AcDbLayerTableRecord
  2
SUNPOU
 70
     0
 62
     4
  6
CONTINUOUS
  0
LAYER
  5
136
330
2
100
AcDbSymbolTableRecord
100
AcDbLayerTableRecord
  2
CENTER_L
 70
     0
 62
     1
  6
CENTER
  0
LAYER
  5
2D3
330
2
100
AcDbSymbolTableRecord
100
AcDbLayerTableRecord
  2
DEFPOINTS
 70
     0
 62
     7
  6
CONTINUOUS
  0
ENDTAB
  0
TABLE
  2
STYLE
  5
3
330
0
100
AcDbSymbolTable
 70
     1
  0
STYLE
  5
10
330
3
100
AcDbSymbolTableRecord
100
AcDbTextStyleTableRecord
  2
STANDARD
 70
     0
 40
0.0
 41
1.0
 50
0.0
 71
     0
 42
6.0
  3
TXT
  4
bigfont.shx
  0
ENDTAB
  0
TABLE
  2
VIEW
  5
6
330
0
100
AcDbSymbolTable
 70
     0
  0
ENDTAB
  0
TABLE
  2
UCS
  5
7
330
0
100
AcDbSymbolTable
 70
     0
  0
ENDTAB
  0
TABLE
  2
APPID
  5
9
330
0
100
AcDbSymbolTable
 70
     1
  0
APPID
  5
11
330
9
100
AcDbSymbolTableRecord
100
AcDbRegAppTableRecord
  2
ACAD
 70
     0
  0
ENDTAB
  0
TABLE
  2
DIMSTYLE
  5
A
330
0
100
AcDbSymbolTable
 70
     1
  0
DIMSTYLE
105
1D
102
{ACAD_REACTORS
330
2D8
330
2E5
330
2F7
102
}
330
A
100
AcDbSymbolTableRecord
100
AcDbDimStyleTableRecord
  2
STANDARD
 70
     0
  3

  4

  5

  6

  7

 40
1.0
 41
0.18
 42
0.0625
 43
0.38
 44
0.18
 45
0.0
 46
0.0
 47
0.0
 48
0.0
140
0.18
141
0.09
142
0.0
143
25.4
144
1.0
145
0.0
146
1.0
147
0.09
 71
     0
 72
     0
 73
     1
 74
     1
 75
     0
 76
     0
 77
     0
 78
     0
170
     0
171
     2
172
     0
173
     0
174
     0
175
     0
176
     0
177
     0
178
     0
270
     2
271
     4
272
     4
273
     2
274
     2
340
10
275
     0
280
     0
281
     0
282
     0
283
     1
284
     0
285
     0
286
     0
287
     3
288
     0
  0
ENDTAB
  0
TABLE
  2
BLOCK_RECORD
  5
1
330
0
100
AcDbSymbolTable
 70
     5
  0
BLOCK_RECORD
  5
1A
102
{ACAD_XDICTIONARY
360
379
102
}
330
1
100
AcDbSymbolTableRecord
100
AcDbBlockTableRecord
  2
*MODEL_SPACE
  0
BLOCK_RECORD
  5
17
102
{ACAD_XDICTIONARY
360
377
102
}
330
1
100
AcDbSymbolTableRecord
100
AcDbBlockTableRecord
  2
*PAPER_SPACE
  0
BLOCK_RECORD
  5
B2
330
1
100
AcDbSymbolTableRecord
100
AcDbBlockTableRecord
  2
_OPEN
  0
BLOCK_RECORD
  5
2B1
330
1
100
AcDbSymbolTableRecord
100
AcDbBlockTableRecord
  2
*X1
  0
BLOCK_RECORD
  5
2CB
330
1
100
AcDbSymbolTableRecord
100
AcDbBlockTableRecord
  2
*D2
  0
BLOCK_RECORD
  5
2D9
330
1
100
AcDbSymbolTableRecord
100
AcDbBlockTableRecord
  2
*D3
  0
BLOCK_RECORD
  5
2EB
330
1
100
AcDbSymbolTableRecord
100
AcDbBlockTableRecord
  2
*D4
  0
ENDTAB
  0
ENDSEC
  0
SECTION
  2
BLOCKS
  0
BLOCK
  5
1B
330
1A
100
AcDbEntity
  8
0
100
AcDbBlockBegin
  2
*MODEL_SPACE
 70
     0
 10
0.0
 20
0.0
 30
0.0
  3
*MODEL_SPACE
  1

  0
ENDBLK
  5
1C
330
1A
100
AcDbEntity
  8
0
100
AcDbBlockEnd
  0
BLOCK
  5
18
330
17
100
AcDbEntity
 67
     1
  8
0
100
AcDbBlockBegin
  2
*PAPER_SPACE
 70
     0
 10
0.0
 20
0.0
 30
0.0
  3
*PAPER_SPACE
  1

  0
ENDBLK
  5
19
330
17
100
AcDbEntity
 67
     1
  8
0
100
AcDbBlockEnd
  0
BLOCK
  5
B3
330
B2
100
AcDbEntity
  8
0
100
AcDbBlockBegin
  2
_OPEN
 70
     0
 10
0.0
 20
0.0
 30
0.0
  3
_OPEN
  1

  0
LINE
  5
B4
330
B2
100
AcDbEntity
  8
0
  6
BYBLOCK
 62
     0
100
AcDbLine
 10
-1.0
 20
0.1666666666666666
 30
0.0
 11
0.0
 21
0.0
 31
0.0
  0
LINE
  5
B5
330
B2
100
AcDbEntity
  8
0
  6
BYBLOCK
 62
     0
100
AcDbLine
 10
0.0
 20
0.0
 30
0.0
 11
-1.0
 21
-0.1666666666666666
 31
0.0
  0
LINE
  5
B6
330
B2
100
AcDbEntity
  8
0
  6
BYBLOCK
 62
     0
100
AcDbLine
 10
0.0
 20
0.0
 30
0.0
 11
-1.0
 21
0.0
 31
0.0
  0
ENDBLK
  5
B7
330
B2
100
AcDbEntity
  8
0
100
AcDbBlockEnd
  0
BLOCK
  5
2B2
330
2B1
100
AcDbEntity
  8
0
100
AcDbBlockBegin
  2
*X1
 70
     1
 10
0.0
 20
0.0
 30
0.0
  3
*X1
  1

  0
LINE
  5
2B4
330
2B1
100
AcDbEntity
  8
0
 62
     0
100
AcDbLine
 10
317.0418652103799
 20
101.5157183047202
 30
0.0
 11
319.3731778365886
 21
103.8470309309289
 31
0.0
  0
LINE
  5
2B5
330
2B1
100
AcDbEntity
  8
0
 62
     0
100
AcDbLine
 10
325.6788066867646
 20
110.152659781105
 30
0.0
 11
327.3090985866055
 21
111.7829516809458
 31
0.0
  0
LINE
  5
2B6
330
2B1
100
AcDbEntity
  8
0
 62
     0
100
AcDbLine
 10
317.1537930565334
 20
103.8727101811411
 30
0.0
 11
319.2755655082089
 21
105.9944826328165
 31
0.0
  0
LINE
  5
2B7
330
2B1
100
AcDbEntity
  8
0
 62
     0
100
AcDbLine
 10
325.72117001082
 20
112.4400871354277
 30
0.0
 11
327.35146173801
 21
114.0703788626177
 31
0.0
  0
LINE
  5
2B8
330
2B1
100
AcDbEntity
  8
0
 62
     0
100
AcDbLine
 10
325.7635333348754
 20
114.7275144897503
 30
0.0
 11
327.3938248894146
 21
116.3578060442895
 31
0.0
  0
LINE
  5
2B9
330
2B1
100
AcDbEntity
  8
0
 62
     0
100
AcDbLine
 10
325.8058966589307
 20
117.0149418440729
 30
0.0
 11
327.4361880408191
 21
118.6452332259613
 31
0.0
  0
LINE
  5
2BA
330
2B1
100
AcDbEntity
  8
0
 62
     0
100
AcDbLine
 10
325.8482599829861
 20
119.3023691983956
 30
0.0
 11
326.7668606186854
 21
120.2209698340949
 31
0.0
  0
LINE
  5
2BB
330
2B1
100
AcDbEntity
  8
0
 62
     0
100
AcDbLine
 10
316.9299373642262
 20
99.15872642829938
 30
0.0
 11
319.4707901649683
 21
101.6995792290413
 31
0.0
  0
LINE
  5
2BC
330
2B1
100
AcDbEntity
  8
0
 62
     0
100
AcDbLine
 10
325.6364433627093
 20
107.8652324267823
 30
0.0
 11
327.266735435201
 21
109.495524499274
 31
0.0
  0
LINE
  5
2BD
330
2B1
100
AcDbEntity
  8
0
 62
     0
100
AcDbLine
 10
316.8180095180726
 20
96.80173455187848
 30
0.0
 11
319.5684024933479
 21
99.55212752715377
 31
0.0
  0
LINE
  5
2BE
330
2B1
100
AcDbEntity
  8
0
 62
     0
100
AcDbLine
 10
325.5940800386539
 20
105.5778050724597
 30
0.0
 11
327.2243722837964
 21
107.2080973176021
 31
0.0
  0
LINE
  5
2BF
330
2B1
100
AcDbEntity
  8
0
 62
     0
100
AcDbLine
 10
315.5761598582746
 20
93.31482086181308
 30
0.0
 11
319.6660148217276
 21
97.40467582526616
 31
0.0
  0
LINE
  5
2C0
330
2B1
100
AcDbEntity
  8
0
 62
     0
100
AcDbLine
 10
325.5517167145985
 20
103.290377718137
 30
0.0
 11
327.1820091323919
 21
104.9206701359303
 31
0.0
  0
LINE
  5
2C1
330
2B1
100
AcDbEntity
  8
0
 62
     0
100
AcDbLine
 10
313.3310225669415
 20
88.8246195402127
 30
0.0
 11
319.7636271501073
 21
95.25722412337854
 31
0.0
  0
LINE
  5
2C2
330
2B1
100
AcDbEntity
  8
0
 62
     0
100
AcDbLine
 10
325.5093533905431
 20
101.0029503638144
 30
0.0
 11
327.1396459809873
 21
102.6332429542585
 31
0.0
  0
LINE
  5
2C3
330
2B1
100
AcDbEntity
  8
0
 62
     0
100
AcDbLine
 10
311.0858852756084
 20
84.33441821861237
 30
0.0
 11
315.5581881060977
 21
88.80672104910161
 31
0.0
  0
LINE
  5
2C4
330
2B1
100
AcDbEntity
  8
0
 62
     0
100
AcDbLine
 10
325.4669900664878
 20
98.71552300949176
 30
0.0
 11
327.0972828295828
 21
100.3458157725866
 31
0.0
  0
LINE
  5
2C5
330
2B1
100
AcDbEntity
  8
0
 62
     0
100
AcDbLine
 10
319.9724346875894
 20
93.22096763059333
 30
0.0
 11
321.9724346875894
 21
95.22096763059332
 31
0.0
  0
LINE
  5
2C6
330
2B1
100
AcDbEntity
  8
0
 62
     0
100
AcDbLine
 10
312.2174441101821
 20
83.22091302291875
 30
0.0
 11
313.3130989834659
 21
84.3165678962026
 31
0.0
  0
LINE
  5
2C7
330
2B1
100
AcDbEntity
  8
0
 62
     0
100
AcDbLine
 10
325.4246267424324
 20
96.42809565516911
 30
0.0
 11
327.0549196781782
 21
98.05838859091483
 31
0.0
  0
LINE
  5
2C8
330
2B1
100
AcDbEntity
  8
0
 62
     0
100
AcDbLine
 10
322.2174987178567
 20
93.22096763059333
 30
0.0
 11
324.2174987178567
 21
95.22096763059332
 31
0.0
  0
LINE
  5
2C9
330
2B1
100
AcDbEntity
  8
0
 62
     0
100
AcDbLine
 10
324.462562748124
 20
93.22096763059333
 30
0.0
 11
327.0125565267737
 21
95.770961409243
 31
0.0
  0
ENDBLK
  5
2CA
330
2B1
100
AcDbEntity
  8
0
100
AcDbBlockEnd
  0
BLOCK
  5
326
330
2CB
100
AcDbEntity
  8
0
 48
5.0
100
AcDbBlockBegin
  2
*D2
 70
     1
 10
0.0
 20
0.0
 30
0.0
  3
*D2
  1

  0
LINE
  5
327
330
2CB
100
AcDbEntity
  8
0
  6
BYBLOCK
 62
     4
 48
5.0
100
AcDbLine
 10
177.4653706419931
 20
123.2209676305933
 30
0.0
 11
177.4653706419931
 21
137.5884975246551
 31
0.0
  0
LINE
  5
328
330
2CB
100
AcDbEntity
  8
0
  6
BYBLOCK
 62
     4
 48
5.0
100
AcDbLine
 10
114.0869995995342
 20
122.0474490182968
 30
0.0
 11
114.0869995995342
 21
137.5884975246551
 31
0.0
  0
LINE
  5
329
330
2CB
100
AcDbEntity
  8
0
  6
BYBLOCK
 62
     4
 48
5.0
100
AcDbLine
 10
174.4653706419931
 20
136.0884975246551
 30
0.0
 11
117.0869995995342
 21
136.0884975246551
 31
0.0
  0
INSERT
  5
32A
330
2CB
100
AcDbEntity
  8
0
  6
BYBLOCK
 62
     4
 48
5.0
100
AcDbBlockReference
  2
_OPEN
 10
177.4653706419931
 20
136.0884975246551
 30
0.0
 41
3.0
 42
3.0
 43
3.0
  0
INSERT
  5
32B
330
2CB
100
AcDbEntity
  8
0
  6
BYBLOCK
 62
     4
 48
5.0
100
AcDbBlockReference
  2
_OPEN
 10
114.0869995995342
 20
136.0884975246551
 30
0.0
 41
3.0
 42
3.0
 43
3.0
 50
180.0
  0
MTEXT
  5
32C
330
2CB
100
AcDbEntity
  8
0
  6
BYBLOCK
 62
     4
 48
5.0
100
AcDbMText
 10
145.7761851207636
 20
138.5884975246551
 30
0.0
 40
3.0
 41
0.0
 71
     5
 72
     1
  1
\A1;φ63
1001
ACAD
1000
MTEXTBEGIN
1070
    73
1070
     1
1070
    44
1040
1.0
1070
    74
1070
     0
1000
MTEXTEND
1000
MTEXTBEGIN
1070
    73
1070
     1
1070
    44
1040
1.0
1070
    74
1070
     0
1000
MTEXTEND
  0
POINT
  5
32D
330
2CB
100
AcDbEntity
  8
DEFPOINTS
  6
BYBLOCK
 62
     0
 48
5.0
100
AcDbPoint
 10
177.4653706419931
 20
120.2209676305933
 30
0.0
  0
POINT
  5
32E
330
2CB
100
AcDbEntity
  8
DEFPOINTS
  6
BYBLOCK
 62
     0
 48
5.0
100
AcDbPoint
 10
114.0869995995342
 20
119.0474490182968
 30
0.0
  0
POINT
  5
32F
330
2CB
100
AcDbEntity
  8
DEFPOINTS
  6
BYBLOCK
 62
     0
 48
5.0
100
AcDbPoint
 10
114.0869995995342
 20
136.0884975246551
 30
0.0
  0
ENDBLK
  5
330
330
2CB
100
AcDbEntity
  8
0
 48
5.0
100
AcDbBlockEnd
  0
BLOCK
  5
33C
330
2D9
100
AcDbEntity
  8
0
 48
5.0
100
AcDbBlockBegin
  2
*D3
 70
     1
 10
0.0
 20
0.0
 30
0.0
  3
*D3
  1

  0
LINE
  5
33D
330
2D9
100
AcDbEntity
  8
0
  6
BYBLOCK
 62
     4
 48
5.0
100
AcDbLine
 10
180.465370641993
 20
120.2209676305933
 30
0.0
 11
194.8630039174211
 21
120.2209676305933
 31
0.0
  0
LINE
  5
33E
330
2D9
100
AcDbEntity
  8
0
  6
BYBLOCK
 62
     4
 48
5.0
100
AcDbLine
 10
178.9652706419931
 20
93.22096763059333
 30
0.0
 11
194.8630039174211
 21
93.22096763059333
 31
0.0
  0
LINE
  5
33F
330
2D9
100
AcDbEntity
  8
0
  6
BYBLOCK
 62
     4
 48
5.0
100
AcDbLine
 10
193.3630039174211
 20
117.2209676305933
 30
0.0
 11
193.3630039174211
 21
96.22096763059333
 31
0.0
  0
INSERT
  5
340
330
2D9
100
AcDbEntity
  8
0
  6
BYBLOCK
 62
     4
 48
5.0
100
AcDbBlockReference
  2
_OPEN
 10
193.3630039174211
 20
120.2209676305933
 30
0.0
 41
3.0
 42
3.0
 43
3.0
 50
90.0
  0
INSERT
  5
341
330
2D9
100
AcDbEntity
  8
0
  6
BYBLOCK
 62
     4
 48
5.0
100
AcDbBlockReference
  2
_OPEN
 10
193.3630039174211
 20
93.22096763059333
 30
0.0
 41
3.0
 42
3.0
 43
3.0
 50
270.0
  0
MTEXT
  5
342
330
2D9
100
AcDbEntity
  8
0
  6
BYBLOCK
 62
     4
 48
5.0
100
AcDbMText
 10
190.8630039174211
 20
106.7209676305933
 30
0.0
 40
3.0
 41
0.0
 71
     5
 72
     1
  1
\A1;27
 11
0.0
 21
1.0
 31
0.0
1001
ACAD
1000
MTEXTBEGIN
1070
    73
1070
     1
1070
    44
1040
1.0
1070
    74
1070
     0
1000
MTEXTEND
1000
MTEXTBEGIN
1070
    73
1070
     1
1070
    44
1040
1.0
1070
    74
1070
     0
1000
MTEXTEND
  0
POINT
  5
343
330
2D9
100
AcDbEntity
  8
DEFPOINTS
  6
BYBLOCK
 62
     0
 48
5.0
100
AcDbPoint
 10
177.4653706419931
 20
120.2209676305933
 30
0.0
  0
POINT
  5
344
330
2D9
100
AcDbEntity
  8
DEFPOINTS
  6
BYBLOCK
 62
     0
 48
5.0
100
AcDbPoint
 10
175.9652706419931
 20
93.22096763059333
 30
0.0
  0
POINT
  5
345
330
2D9
100
AcDbEntity
  8
DEFPOINTS
  6
BYBLOCK
 62
     0
 48
5.0
100
AcDbPoint
 10
193.3630039174211
 20
93.22096763059333
 30
0.0
  0
ENDBLK
  5
346
330
2D9
100
AcDbEntity
  8
0
 48
5.0
100
AcDbBlockEnd
  0
BLOCK
  5
331
330
2EB
100
AcDbEntity
  8
0
 48
5.0
100
AcDbBlockBegin
  2
*D4
 70
     1
 10
0.0
 20
0.0
 30
0.0
  3
*D4
  1

  0
LINE
  5
332
330
2EB
100
AcDbEntity
  8
0
  6
BYBLOCK
 62
     4
 48
5.0
100
AcDbLine
 10
180.465370641993
 20
120.2209676305933
 30
0.0
 11
204.2118614004177
 21
120.2209676305933
 31
0.0
  0
LINE
  5
333
330
2EB
100
AcDbEntity
  8
0
  6
BYBLOCK
 62
     4
 48
5.0
100
AcDbLine
 10
161.2652706419929
 20
74.22096763059329
 30
0.0
 11
204.2118614004177
 21
74.22096763059329
 31
0.0
  0
LINE
  5
334
330
2EB
100
AcDbEntity
  8
0
  6
BYBLOCK
 62
     4
 48
5.0
100
AcDbLine
 10
202.7118614004177
 20
117.2209676305933
 30
0.0
 11
202.7118614004177
 21
77.2209676305933
 31
0.0
  0
INSERT
  5
335
330
2EB
100
AcDbEntity
  8
0
  6
BYBLOCK
 62
     4
 48
5.0
100
AcDbBlockReference
  2
_OPEN
 10
202.7118614004177
 20
120.2209676305933
 30
0.0
 41
3.0
 42
3.0
 43
3.0
 50
90.0
  0
INSERT
  5
336
330
2EB
100
AcDbEntity
  8
0
  6
BYBLOCK
 62
     4
 48
5.0
100
AcDbBlockReference
  2
_OPEN
 10
202.7118614004177
 20
74.22096763059329
 30
0.0
 41
3.0
 42
3.0
 43
3.0
 50
270.0
  0
MTEXT
  5
337
330
2EB
100
AcDbEntity
  8
0
  6
BYBLOCK
 62
     4
 48
5.0
100
AcDbMText
 10
200.2118614004177
 20
97.22096763059333
 30
0.0
 40
3.0
 41
0.0
 71
     5
 72
     1
  1
\A1;46
 11
0.0
 21
1.0
 31
0.0
1001
ACAD
1000
MTEXTBEGIN
1070
    73
1070
     1
1070
    44
1040
1.0
1070
    74
1070
     0
1000
MTEXTEND
1000
MTEXTBEGIN
1070
    73
1070
     1
1070
    44
1040
1.0
1070
    74
1070
     0
1000
MTEXTEND
  0
POINT
  5
338
330
2EB
100
AcDbEntity
  8
DEFPOINTS
  6
BYBLOCK
 62
     0
 48
5.0
100
AcDbPoint
 10
177.4653706419931
 20
120.2209676305933
 30
0.0
  0
POINT
  5
339
330
2EB
100
AcDbEntity
  8
DEFPOINTS
  6
BYBLOCK
 62
     0
 48
5.0
100
AcDbPoint
 10
158.2652706419929
 20
74.22096763059329
 30
0.0
  0
POINT
  5
33A
330
2EB
100
AcDbEntity
  8
DEFPOINTS
  6
BYBLOCK
 62
     0
 48
5.0
100
AcDbPoint
 10
202.7118614004177
 20
74.22096763059329
 30
0.0
  0
ENDBLK
  5
33B
330
2EB
100
AcDbEntity
  8
0
 48
5.0
100
AcDbBlockEnd
  0
ENDSEC
  0
SECTION
  2
ENTITIES
  0
LINE
  5
6C
330
1A
100
AcDbEntity
  8
ZUWAKU
  6
CONTINUOUS
 62
     7
100
AcDbLine
 10
403.0
 20
7.0
 30
0.0
 11
5.0
 21
7.0
 31
0.0
  0
LINE
  5
6D
330
1A
100
AcDbEntity
  8
ZUWAKU
  6
CONTINUOUS
 62
     7
100
AcDbLine
 10
5.0
 20
282.0
 30
0.0
 11
5.0
 21
7.0
 31
0.0
  0
LINE
  5
6E
330
1A
100
AcDbEntity
  8
ZUWAKU
  6
CONTINUOUS
 62
     7
100
AcDbLine
 10
403.0
 20
282.0
 30
0.0
 11
403.0
 21
7.0
 31
0.0
  0
LINE
  5
6F
330
1A
100
AcDbEntity
  8
ZUWAKU
  6
CONTINUOUS
 62
     7
100
AcDbLine
 10
403.0
 20
282.0
 30
0.0
 11
5.0
 21
282.0
 31
0.0
  0
LINE
  5
8E
330
1A
100
AcDbEntity
  8
ZUWAKU
 62
     7
 48
10.0
100
AcDbLine
 10
5.0
 20
13.0
 30
0.0
 11
403.0
 21
12.99999999999994
 31
0.0
  0
TEXT
  5
93
330
1A
100
AcDbEntity
  8
ZUWAKU
 62
     7
100
AcDbText
 10
8.003143713074223
 20
7.870178177610682
 30
0.0
 40
4.0
  1
品 種
100
AcDbText
  0
TEXT
  5
97
330
1A
100
AcDbEntity
  8
ZUWAKU
 62
     7
100
AcDbText
 10
107.7028028167073
 20
8.200497435100942
 30
0.0
 40
4.0
  1
品名・ｻ ｲ ｽﾞ
100
AcDbText
  0
LINE
  5
9A
330
1A
100
AcDbEntity
  8
ZUWAKU
 62
     7
 48
10.0
100
AcDbLine
 10
324.3551403257206
 20
6.999999999999836
 30
0.0
 11
324.3551403257206
 21
12.99999999999995
 31
0.0
  0
LINE
  5
9B
330
1A
100
AcDbEntity
  8
ZUWAKU
 62
     7
 48
10.0
100
AcDbLine
 10
307.142312366876
 20
6.999999999999836
 30
0.0
 11
307.142312366876
 21
12.99999999999995
 31
0.0
  0
TEXT
  5
9C
330
1A
100
AcDbEntity
  8
ZUWAKU
 62
     7
100
AcDbText
 10
310.1429253763237
 20
7.934661405801826
 30
0.0
 40
4.0
  1
品 番
100
AcDbText
  0
TEXT
  5
9E
330
1A
100
AcDbEntity
  8
ZUWAKU
 62
     7
 48
10.0
100
AcDbText
 10
322.9513761015196
 20
2.449000558492457
 30
0.0
 40
4.0
  1
積水化学工業株式会社  建材
100
AcDbText
  0
TEXT
  5
A1
330
1A
100
AcDbEntity
  8
ZUWAKU
 62
     7
100
AcDbText
 10
389.843492473331
 20
7.886151458996323
 30
0.0
 40
4.0
  1
1/1
100
AcDbText
  0
TEXT
  5
A2
330
1A
100
AcDbEntity
  8
ZUWAKU
 62
     7
100
AcDbText
 10
369.8225424558458
 20
7.729845637642938
 30
0.0
 40
4.0
  1
尺 度
100
AcDbText
  0
LINE
  5
A3
330
1A
100
AcDbEntity
  8
ZUWAKU
 62
     7
 48
10.0
100
AcDbLine
 10
366.8807110760169
 20
6.999999999999886
 30
0.0
 11
366.8807110760169
 21
12.99999999999994
 31
0.0
  0
TEXT
  5
A6
330
1A
100
AcDbEntity
  8
ZUWAKU
 62
     7
 48
10.0
100
AcDbText
 10
396.1622424237184
 20
2.480970960763784
 30
0.0
 40
4.0
  1
A3
100
AcDbText
  0
LINE
  5
F5
330
1A
100
AcDbEntity
  8
ZUWAKU
 62
     7
 48
10.0
100
AcDbLine
 10
22.25374857290876
 20
7.0
 30
0.0
 11
22.25374857290876
 21
13.0
 31
0.0
  0
LINE
  5
F6
330
1A
100
AcDbEntity
  8
ZUWAKU
 62
     7
 48
10.0
100
AcDbLine
 10
104.7316872784438
 20
7.0
 30
0.0
 11
104.7316872784438
 21
12.99999999999998
 31
0.0
  0
LINE
  5
F8
330
1A
100
AcDbEntity
  8
ZUWAKU
 62
     7
 48
10.0
100
AcDbLine
 10
138.0261803105822
 20
7.0
 30
0.0
 11
138.0261803105822
 21
12.99999999999998
 31
0.0
  0
LINE
  5
100
330
1A
100
AcDbEntity
  8
ZUWAKU
 62
     7
 48
10.0
100
AcDbLine
 10
384.3363149538092
 20
6.999999999999862
 30
0.0
 11
384.3363149538092
 21
12.99999999999994
 31
0.0
  0
TEXT
  5
1DB
330
1A
100
AcDbEntity
  8
ZUWAKU
 62
     7
100
AcDbText
 10
141.1313324528735
 20
7.9299153608506
 30
0.0
 40
4.0
  1
くさりといアダプター　Ｋ－６０
100
AcDbText
  0
TEXT
  5
1DD
330
1A
100
AcDbEntity
  8
ZUWAKU
 62
     7
100
AcDbText
 10
25.15073007242387
 20
8.160237806787449
 30
0.0
 40
4.0
  1
くさりとい
100
AcDbText
  0
LINE
  5
1DE
330
1A
100
AcDbEntity
  8
CENTER_L
 62
     1
 48
5.0
100
AcDbLine
 10
145.7653706419931
 20
121.0240651966739
 30
0.0
 11
145.7652706419929
 21
59.904965196674
 31
0.0
  0
LINE
  5
1E2
330
1A
100
AcDbEntity
  8
SEIHIN
 62
     3
 48
5.0
100
AcDbLine
 10
143.2653706419931
 20
108.7024651966739
 30
0.0
 11
148.2653706419931
 21
108.7024651966739
 31
0.0
  0
LINE
  5
1E3
330
1A
100
AcDbEntity
  8
SEIHIN
 62
     3
 48
5.0
100
AcDbLine
 10
128.765270641993
 20
76.70246519667397
 30
0.0
 11
145.7653706419931
 21
76.70256519667397
 31
0.0
  0
LINE
  5
1E4
330
1A
100
AcDbEntity
  8
SEIHIN
 62
     3
 48
5.0
100
AcDbLine
 10
114.528170641993
 20
88.70256519667389
 30
0.0
 11
145.7652706419929
 21
88.70256519667389
 31
0.0
  0
LINE
  5
1E5
330
1A
100
AcDbEntity
  8
SEIHIN
 62
     3
 48
5.0
100
AcDbLine
 10
115.565270641993
 20
86.70256519667388
 30
0.0
 11
145.7652706419929
 21
86.70256519667388
 31
0.0
  0
LINE
  5
1E6
330
1A
100
AcDbEntity
  8
SEIHIN
 62
     3
 48
5.0
100
AcDbLine
 10
144.2652706419929
 20
67.70256519667398
 30
0.0
 11
158.2652706419929
 21
67.70246519667392
 31
0.0
  0
LINE
  5
1E7
330
1A
100
AcDbEntity
  8
SEIHIN
 62
     3
 48
5.0
100
AcDbLine
 10
145.7652706419929
 20
113.7024651966739
 30
0.0
 11
114.0652706419931
 21
113.7024651966739
 31
0.0
  0
LINE
  5
1E8
330
1A
100
AcDbEntity
  8
SEIHIN
 62
     3
 48
5.0
100
AcDbLine
 10
114.0652706419931
 20
113.7024651966739
 30
0.0
 11
114.528170641993
 21
88.70256519667389
 31
0.0
  0
LINE
  5
1E9
330
1A
100
AcDbEntity
  8
SEIHIN
 62
     3
 48
5.0
100
AcDbLine
 10
128.765270641993
 20
76.70256519667397
 30
0.0
 11
124.3180706419931
 21
85.5969651966739
 31
0.0
  0
LINE
  5
1EA
330
1A
100
AcDbEntity
  8
SEIHIN
 62
     3
 48
5.0
100
AcDbLine
 10
136.7652706419929
 20
76.70246519667397
 30
0.0
 11
144.265170641993
 21
67.70256519667398
 31
0.0
  0
LINE
  5
1EB
330
1A
100
AcDbEntity
  8
SEIHIN
 62
     3
 48
5.0
100
AcDbLine
 10
114.528170641993
 20
88.70256519667389
 30
0.0
 11
115.565270641993
 21
86.70256519667388
 31
0.0
  0
ARC
  5
1EC
330
1A
100
AcDbEntity
  8
SEIHIN
 62
     3
 48
5.0
100
AcDbCircle
 10
122.5291938135174
 20
84.70255087552677
 30
0.0
 40
2.000014321281344
100
AcDbArc
 50
26.56443383334286
 51
90.00066381051967
  0
LINE
  5
1ED
330
1A
100
AcDbEntity
  8
SEIHIN
 62
     3
 48
5.0
100
AcDbLine
 10
144.2652706419929
 20
113.7024651966739
 30
0.0
 11
143.2653706419931
 21
108.7024651966739
 31
0.0
  0
LINE
  5
1EE
330
1A
100
AcDbEntity
  8
SEIHIN
 62
     3
 48
5.0
100
AcDbLine
 10
177.4653706419931
 20
113.7024651966739
 30
0.0
 11
177.0022706419929
 21
88.70246519667396
 31
0.0
  0
LINE
  5
1EF
330
1A
100
AcDbEntity
  8
SEIHIN
 62
     3
 48
5.0
100
AcDbLine
 10
158.2652706419929
 20
67.70246519667392
 30
0.0
 11
167.212470641993
 21
85.5969651966739
 31
0.0
  0
LINE
  5
1F0
330
1A
100
AcDbEntity
  8
SEIHIN
 62
     3
 48
5.0
100
AcDbLine
 10
162.7652706419929
 20
76.70246519667397
 30
0.0
 11
145.7652706419929
 21
76.70256519667397
 31
0.0
  0
LINE
  5
1F1
330
1A
100
AcDbEntity
  8
SEIHIN
 62
     3
 48
5.0
100
AcDbLine
 10
177.0022706419929
 20
88.70246519667396
 30
0.0
 11
145.765170641993
 21
88.70256519667389
 31
0.0
  0
LINE
  5
1F2
330
1A
100
AcDbEntity
  8
SEIHIN
 62
     3
 48
5.0
100
AcDbLine
 10
175.9652706419931
 20
86.70246519667397
 30
0.0
 11
145.7652706419929
 21
86.70256519667388
 31
0.0
  0
ARC
  5
1F3
330
1A
100
AcDbEntity
  8
SEIHIN
 62
     3
 48
5.0
100
AcDbCircle
 10
169.0013474704687
 20
84.70245087552694
 30
0.0
 40
2.000014321281263
100
AcDbArc
 50
89.99933618948196
 51
153.4355661666582
  0
LINE
  5
1F4
330
1A
100
AcDbEntity
  8
SEIHIN
 62
     3
 48
5.0
100
AcDbLine
 10
177.0022706419929
 20
88.70246519667396
 30
0.0
 11
175.9652706419931
 21
86.70246519667397
 31
0.0
  0
LINE
  5
1F5
330
1A
100
AcDbEntity
  8
SEIHIN
 62
     3
 48
5.0
100
AcDbLine
 10
145.7652706419929
 20
113.7024651966739
 30
0.0
 11
177.4653706419931
 21
113.7024651966739
 31
0.0
  0
LINE
  5
1F6
330
1A
100
AcDbEntity
  8
SEIHIN
 62
     3
 48
5.0
100
AcDbLine
 10
148.2653706419931
 20
108.7024651966739
 30
0.0
 11
147.2652706419929
 21
113.7024651966739
 31
0.0
  0
ARC
  5
1F7
330
1A
100
AcDbEntity
  8
SEIHIN
 62
     3
 48
5.0
100
AcDbCircle
 10
145.7654706521165
 20
198.743615196674
 30
0.0
 40
29.59999998991866
100
AcDbArc
 50
0.0000967834114034
 51
359.9999032165886
  0
ARC
  5
1F8
330
1A
100
AcDbEntity
  8
SEIHIN
 62
     3
 48
5.0
100
AcDbCircle
 10
145.7654706327173
 20
198.743615196674
 30
0.0
 40
30.10000000931731
100
AcDbArc
 50
0.0000951757134777
 51
359.9999048242865
  0
ARC
  5
1F9
330
1A
100
AcDbEntity
  8
SEIHIN
 62
     3
 48
5.0
100
AcDbCircle
 10
145.7654706506912
 20
198.743615196674
 30
0.0
 40
31.69999999134129
100
AcDbArc
 50
0.0000903718920299
 51
359.9999096281079
  0
LINE
  5
1FA
330
1A
100
AcDbEntity
  8
CENTER_L
 62
     1
 48
5.0
100
AcDbLine
 10
145.7654706419929
 20
238.7436651966739
 30
0.0
 11
145.7653706419931
 21
158.743665196674
 31
0.0
  0
ARC
  5
1FB
330
1A
100
AcDbEntity
  8
SEIHIN
 62
     3
 48
5.0
100
AcDbCircle
 10
145.7654535514989
 20
198.7436643498805
 30
0.0
 40
20.99998290974804
100
AcDbArc
 50
5.673370443458374
 51
179.9997248523649
  0
ARC
  5
1FC
330
1A
100
AcDbEntity
  8
SEIHIN
 62
     3
 48
5.0
100
AcDbCircle
 10
145.765470641993
 20
198.743665196674
 30
0.0
 40
23.99999999999997
100
AcDbArc
 50
0.0
 51
180.0
  0
ARC
  5
1FD
330
1A
100
AcDbEntity
  8
SEIHIN
 62
     3
 48
5.0
100
AcDbCircle
 10
145.765470641993
 20
198.743665196674
 30
0.0
 40
23.49999999999997
100
AcDbArc
 50
0.0
 51
180.0
  0
ARC
  5
1FE
330
1A
100
AcDbEntity
  8
SEIHIN
 62
     3
 48
5.0
100
AcDbCircle
 10
145.765470641993
 20
198.743665196674
 30
0.0
 40
21.49999999999997
100
AcDbArc
 50
0.0
 51
180.0
  0
ARC
  5
1FF
330
1A
100
AcDbEntity
  8
SEIHIN
 62
     3
 48
5.0
100
AcDbCircle
 10
145.7654618021485
 20
198.7436643036666
 30
0.0
 40
14.99999116049491
100
AcDbArc
 50
11.53735925524618
 51
179.9996146168731
  0
ARC
  5
200
330
1A
100
AcDbEntity
  8
SEIHIN
 62
     3
 48
5.0
100
AcDbCircle
 10
145.765451801982
 20
198.7436670999698
 30
0.0
 40
14.99998116030985
100
AcDbArc
 50
179.9996252977212
 51
348.4630188579413
  0
ARC
  5
201
330
1A
100
AcDbEntity
  8
SEIHIN
 62
     3
 48
5.0
100
AcDbCircle
 10
145.765470641993
 20
198.743665196674
 30
0.0
 40
23.99999999999997
100
AcDbArc
 50
180.0
 51
0.0
  0
ARC
  5
202
330
1A
100
AcDbEntity
  8
SEIHIN
 62
     3
 48
5.0
100
AcDbCircle
 10
145.765470641993
 20
198.743665196674
 30
0.0
 40
23.49999999999997
100
AcDbArc
 50
180.0
 51
0.0
  0
ARC
  5
203
330
1A
100
AcDbEntity
  8
SEIHIN
 62
     3
 48
5.0
100
AcDbCircle
 10
145.765453551507
 20
198.7436660435484
 30
0.0
 40
20.99998290974804
100
AcDbArc
 50
179.9997294733223
 51
354.3266295563191
  0
ARC
  5
204
330
1A
100
AcDbEntity
  8
SEIHIN
 62
     3
 48
5.0
100
AcDbCircle
 10
145.765470641993
 20
198.743665196674
 30
0.0
 40
21.49999999999997
100
AcDbArc
 50
180.0
 51
0.0
  0
LINE
  5
205
330
1A
100
AcDbEntity
  8
SEIHIN
 62
     3
 48
5.0
100
AcDbLine
 10
160.4623706419931
 20
195.7437651966739
 30
0.0
 11
136.7653706419931
 21
195.7437651966739
 31
0.0
  0
LINE
  5
206
330
1A
100
AcDbEntity
  8
SEIHIN
 62
     3
 48
5.0
100
AcDbLine
 10
167.1722706419931
 20
196.743665196674
 30
0.0
 11
142.7653706419931
 21
196.7437651966738
 31
0.0
  0
LINE
  5
207
330
1A
100
AcDbEntity
  8
SEIHIN
 62
     3
 48
5.0
100
AcDbLine
 10
143.2654706419929
 20
165.3434651966738
 30
0.0
 11
148.265470641993
 21
165.343365196674
 31
0.0
  0
LINE
  5
208
330
1A
100
AcDbEntity
  8
SEIHIN
 62
     3
 48
5.0
100
AcDbLine
 10
167.1722706419931
 20
200.743665196674
 30
0.0
 11
142.7654706419929
 21
200.7437651966738
 31
0.0
  0
LINE
  5
209
330
1A
100
AcDbEntity
  8
SEIHIN
 62
     3
 48
5.0
100
AcDbLine
 10
160.4624706419929
 20
201.7437651966739
 30
0.0
 11
136.7654706419929
 21
201.7437651966739
 31
0.0
  0
LINE
  5
20A
330
1A
100
AcDbEntity
  8
CENTER_L
 62
     1
 48
5.0
100
AcDbLine
 10
185.765470641993
 20
198.743665196674
 30
0.0
 11
105.765470641993
 21
198.7437651966738
 31
0.0
  0
LINE
  5
20B
330
1A
100
AcDbEntity
  8
SEIHIN
 62
     3
 48
5.0
100
AcDbLine
 10
144.2653706419931
 20
167.0791651966738
 30
0.0
 11
143.2654706419929
 21
165.3434651966738
 31
0.0
  0
LINE
  5
20C
330
1A
100
AcDbEntity
  8
SEIHIN
 62
     3
 48
5.0
100
AcDbLine
 10
143.2654706419929
 20
167.1498651966738
 30
0.0
 11
143.2654706419929
 21
165.343565196674
 31
0.0
  0
LINE
  5
20D
330
1A
100
AcDbEntity
  8
SEIHIN
 62
     3
 48
5.0
100
AcDbLine
 10
137.2654706419929
 20
200.7437651966738
 30
0.0
 11
137.265370641993
 21
196.7437651966738
 31
0.0
  0
LINE
  5
20E
330
1A
100
AcDbEntity
  8
SEIHIN
 62
     3
 48
5.0
100
AcDbLine
 10
136.7654706419929
 20
201.7437651966739
 30
0.0
 11
136.7653706419931
 21
195.7437651966739
 31
0.0
  0
LINE
  5
20F
330
1A
100
AcDbEntity
  8
SEIHIN
 62
     3
 48
5.0
100
AcDbLine
 10
142.7654706419929
 20
201.7437651966739
 30
0.0
 11
142.7653706419931
 21
195.7437651966739
 31
0.0
  0
LINE
  5
210
330
1A
100
AcDbEntity
  8
SEIHIN
 62
     3
 48
5.0
100
AcDbLine
 10
142.2654706419929
 20
200.7437651966738
 30
0.0
 11
142.2653706419931
 21
196.7437651966738
 31
0.0
  0
LINE
  5
211
330
1A
100
AcDbEntity
  8
SEIHIN
 62
     3
 48
5.0
100
AcDbLine
 10
142.2653706419931
 20
196.7437651966738
 30
0.0
 11
137.265370641993
 21
196.7437651966738
 31
0.0
  0
LINE
  5
212
330
1A
100
AcDbEntity
  8
SEIHIN
 62
     3
 48
5.0
100
AcDbLine
 10
142.2654706419929
 20
200.7437651966738
 30
0.0
 11
137.2654706419929
 21
200.7437651966738
 31
0.0
  0
LINE
  5
213
330
1A
100
AcDbEntity
  8
SEIHIN
 62
     3
 48
5.0
100
AcDbLine
 10
147.2653706419931
 20
167.0791651966738
 30
0.0
 11
148.265470641993
 21
165.343365196674
 31
0.0
  0
LINE
  5
214
330
1A
100
AcDbEntity
  8
SEIHIN
 62
     3
 48
5.0
100
AcDbLine
 10
148.265470641993
 20
167.1498651966738
 30
0.0
 11
148.265470641993
 21
165.343565196674
 31
0.0
  0
LINE
  5
217
330
1A
100
AcDbEntity
  8
SEIHIN
 62
     3
 48
5.0
100
AcDbLine
 10
167.1722706419931
 20
200.743665196674
 30
0.0
 11
160.4623706419931
 21
201.7437651966739
 31
0.0
  0
LINE
  5
218
330
1A
100
AcDbEntity
  8
SEIHIN
 62
     3
 48
5.0
100
AcDbLine
 10
160.4623706419931
 20
195.7437651966739
 30
0.0
 11
167.1722706419931
 21
196.743665196674
 31
0.0
  0
LINE
  5
222
330
1A
100
AcDbEntity
  8
SEIHIN
 62
     3
 48
5.0
100
AcDbLine
 10
143.2655706419931
 20
232.1439651966739
 30
0.0
 11
148.2655706419931
 21
232.1439651966739
 31
0.0
  0
LINE
  5
223
330
1A
100
AcDbEntity
  8
SEIHIN
 62
     3
 48
5.0
100
AcDbLine
 10
144.2654706419929
 20
230.4081651966739
 30
0.0
 11
143.2654706419929
 21
232.1439651966739
 31
0.0
  0
LINE
  5
224
330
1A
100
AcDbEntity
  8
SEIHIN
 62
     3
 48
5.0
100
AcDbLine
 10
143.2655706419931
 20
230.3374651966739
 30
0.0
 11
143.2655706419931
 21
232.1437651966739
 31
0.0
  0
LINE
  5
225
330
1A
100
AcDbEntity
  8
SEIHIN
 62
     3
 48
5.0
100
AcDbLine
 10
147.2654706419929
 20
230.4081651966739
 30
0.0
 11
148.265470641993
 21
232.1439651966739
 31
0.0
  0
LINE
  5
226
330
1A
100
AcDbEntity
  8
SEIHIN
 62
     3
 48
5.0
100
AcDbLine
 10
148.2655706419931
 20
230.3374651966739
 30
0.0
 11
148.2655706419931
 21
232.1437651966739
 31
0.0
  0
TEXT
  5
227
330
1A
100
AcDbEntity
  8
ZUWAKU
 62
     7
100
AcDbText
 10
327.1013476411085
 20
8.060146781246267
 30
0.0
 40
4.0
  1
ＧＦ１８
100
AcDbText
  0
LINE
  5
228
330
1A
100
AcDbEntity
  8
CENTER_L
 62
     1
 48
5.0
100
AcDbLine
 10
280.7653706419931
 20
120.1607651966738
 30
0.0
 11
280.7652706419931
 21
59.904965196674
 31
0.0
  0
LINE
  5
22C
330
1A
100
AcDbEntity
  8
SEIHIN
 62
     3
 48
5.0
100
AcDbLine
 10
280.7653706419931
 20
113.7025651966738
 30
0.0
 11
249.065270641993
 21
113.7024651966739
 31
0.0
  0
LINE
  5
22D
330
1A
100
AcDbEntity
  8
SEIHIN
 62
     3
 48
5.0
100
AcDbLine
 10
259.7652706419929
 20
89.1747651966739
 30
0.0
 11
293.0469706419929
 21
89.1747651966739
 31
0.0
  0
LINE
  5
22E
330
1A
100
AcDbEntity
  8
SEIHIN
 62
     3
 48
5.0
100
AcDbLine
 10
263.7653706419931
 20
76.70256519667397
 30
0.0
 11
259.3181706419929
 21
85.59706519667397
 31
0.0
  0
LINE
  5
22F
330
1A
100
AcDbEntity
  8
SEIHIN
 62
     3
 48
5.0
100
AcDbLine
 10
259.7652706419929
 20
89.1747651966739
 30
0.0
 11
266.0014706419931
 21
76.70246519667397
 31
0.0
  0
LINE
  5
230
330
1A
100
AcDbEntity
  8
SEIHIN
 62
     3
 48
5.0
100
AcDbLine
 10
280.7653706419931
 20
99.70246519667398
 30
0.0
 11
257.2653706419931
 21
99.70246519667398
 31
0.0
  0
LINE
  5
231
330
1A
100
AcDbEntity
  8
SEIHIN
 62
     4
 48
5.0
100
AcDbLine
 10
260.2046706419929
 20
83.82396519667397
 30
0.0
 11
261.6953706419929
 21
85.31476519667398
 31
0.0
  0
LINE
  5
232
330
1A
100
AcDbEntity
  8
SEIHIN
 62
     4
 48
5.0
100
AcDbLine
 10
259.2589706419931
 20
85.70676519667397
 30
0.0
 11
260.752570641993
 21
87.20036519667399
 31
0.0
  0
LINE
  5
233
330
1A
100
AcDbEntity
  8
SEIHIN
 62
     3
 48
5.0
100
AcDbLine
 10
249.065270641993
 20
113.7026651966738
 30
0.0
 11
249.5282706419929
 21
88.70256519667389
 31
0.0
  0
LINE
  5
234
330
1A
100
AcDbEntity
  8
SEIHIN
 62
     3
 48
5.0
100
AcDbLine
 10
250.6653706419931
 20
113.7024651966739
 30
0.0
 11
251.1282706419929
 21
88.70256519667389
 31
0.0
  0
LINE
  5
235
330
1A
100
AcDbEntity
  8
SEIHIN
 62
     4
 48
5.0
100
AcDbLine
 10
249.1939706419931
 20
106.7544651966739
 30
0.0
 11
250.7649706419931
 21
108.3254651966739
 31
0.0
  0
LINE
  5
236
330
1A
100
AcDbEntity
  8
SEIHIN
 62
     3
 48
5.0
100
AcDbLine
 10
259.2653706419931
 20
99.70246519667398
 30
0.0
 11
259.7652706419929
 21
89.1747651966739
 31
0.0
  0
LINE
  5
237
330
1A
100
AcDbEntity
  8
SEIHIN
 62
     3
 48
5.0
100
AcDbLine
 10
257.2653706419931
 20
99.70246519667398
 30
0.0
 11
256.765270641993
 21
88.70256519667389
 31
0.0
  0
LINE
  5
238
330
1A
100
AcDbEntity
  8
SEIHIN
 62
     4
 48
5.0
100
AcDbLine
 10
257.0426706419929
 20
94.80416519667391
 30
0.0
 11
259.3866706419931
 21
97.14816519667399
 31
0.0
  0
LINE
  5
239
330
1A
100
AcDbEntity
  8
SEIHIN
 62
     4
 48
5.0
100
AcDbLine
 10
249.3996706419931
 20
95.64646519667398
 30
0.0
 11
250.9706706419929
 21
97.21736519667398
 31
0.0
  0
LINE
  5
23A
330
1A
100
AcDbEntity
  8
SEIHIN
 62
     3
 48
5.0
100
AcDbLine
 10
250.5652706419929
 20
86.70256519667388
 30
0.0
 11
257.5292706419929
 21
86.70256519667388
 31
0.0
  0
LINE
  5
23B
330
1A
100
AcDbEntity
  8
SEIHIN
 62
     3
 48
5.0
100
AcDbLine
 10
256.765270641993
 20
88.70256519667389
 30
0.0
 11
251.1282706419929
 21
88.70256519667389
 31
0.0
  0
LINE
  5
23C
330
1A
100
AcDbEntity
  8
SEIHIN
 62
     4
 48
5.0
100
AcDbLine
 10
251.7694706419929
 20
86.70256519667388
 30
0.0
 11
253.7694706419931
 21
88.70256519667389
 31
0.0
  0
LINE
  5
23D
330
1A
100
AcDbEntity
  8
SEIHIN
 62
     3
 48
5.0
100
AcDbLine
 10
249.5282706419929
 20
88.70256519667389
 30
0.0
 11
250.5652706419929
 21
86.70256519667388
 31
0.0
  0
LINE
  5
23E
330
1A
100
AcDbEntity
  8
SEIHIN
 62
     4
 48
5.0
100
AcDbLine
 10
250.0106706419929
 20
87.77216519667398
 30
0.0
 11
251.1248706419929
 21
88.88646519667391
 31
0.0
  0
LINE
  5
23F
330
1A
100
AcDbEntity
  8
SEIHIN
 62
     4
 48
5.0
100
AcDbLine
 10
249.4511706419929
 20
92.86946519667397
 30
0.0
 11
251.0220706419929
 21
94.44046519667391
 31
0.0
  0
LINE
  5
240
330
1A
100
AcDbEntity
  8
SEIHIN
 62
     4
 48
5.0
100
AcDbLine
 10
249.5025706419931
 20
90.09246519667398
 30
0.0
 11
251.0734706419929
 21
91.66346519667397
 31
0.0
  0
LINE
  5
241
330
1A
100
AcDbEntity
  8
SEIHIN
 62
     4
 48
5.0
100
AcDbLine
 10
256.7732706419931
 20
88.87796519667391
 30
0.0
 11
259.6430706419931
 21
91.74776519667391
 31
0.0
  0
LINE
  5
242
330
1A
100
AcDbEntity
  8
SEIHIN
 62
     4
 48
5.0
100
AcDbLine
 10
254.597870641993
 20
86.70256519667388
 30
0.0
 11
256.5978706419929
 21
88.70256519667389
 31
0.0
  0
ARC
  5
243
330
1A
100
AcDbEntity
  8
SEIHIN
 62
     3
 48
5.0
100
AcDbCircle
 10
257.5292938135172
 20
84.70255087552683
 30
0.0
 40
2.000014321281287
100
AcDbArc
 50
26.56443383334232
 51
90.00066381051924
  0
LINE
  5
244
330
1A
100
AcDbEntity
  8
SEIHIN
 62
     4
 48
5.0
100
AcDbLine
 10
257.4262706419929
 20
86.70256519667388
 30
0.0
 11
259.8097706419931
 21
89.08596519667396
 31
0.0
  0
LINE
  5
245
330
1A
100
AcDbEntity
  8
SEIHIN
 62
     4
 48
5.0
100
AcDbLine
 10
256.9079706419931
 20
91.84106519667396
 30
0.0
 11
259.5148706419931
 21
94.44796519667399
 31
0.0
  0
LINE
  5
246
330
1A
100
AcDbEntity
  8
SEIHIN
 62
     4
 48
5.0
100
AcDbLine
 10
249.2968706419929
 20
101.2004651966739
 30
0.0
 11
250.8677706419929
 21
102.7714651966739
 31
0.0
  0
LINE
  5
247
330
1A
100
AcDbEntity
  8
SEIHIN
 62
     4
 48
5.0
100
AcDbLine
 10
249.3482706419931
 20
98.42346519667398
 30
0.0
 11
250.9191706419929
 21
99.99436519667391
 31
0.0
  0
LINE
  5
248
330
1A
100
AcDbEntity
  8
SEIHIN
 62
     4
 48
5.0
100
AcDbLine
 10
249.2453706419931
 20
103.9774651966739
 30
0.0
 11
250.8163706419929
 21
105.5483651966739
 31
0.0
  0
LINE
  5
249
330
1A
100
AcDbEntity
  8
SEIHIN
 62
     4
 48
5.0
100
AcDbLine
 10
257.1773706419929
 20
97.76736519667396
 30
0.0
 11
259.112570641993
 21
99.70246519667398
 31
0.0
  0
LINE
  5
24A
330
1A
100
AcDbEntity
  8
SEIHIN
 62
     4
 48
5.0
100
AcDbLine
 10
249.0911706419929
 20
112.3084651966739
 30
0.0
 11
250.4850706419929
 21
113.7024651966739
 31
0.0
  0
LINE
  5
24B
330
1A
100
AcDbEntity
  8
SEIHIN
 62
     4
 48
5.0
100
AcDbLine
 10
249.1425706419931
 20
109.5314651966739
 30
0.0
 11
250.7134706419929
 21
111.1024651966738
 31
0.0
  0
LINE
  5
24C
330
1A
100
AcDbEntity
  8
SEIHIN
 62
     3
 48
5.0
100
AcDbLine
 10
312.4653706419929
 20
113.7024651966739
 30
0.0
 11
312.002370641993
 21
88.70246519667396
 31
0.0
1001
ACAD
1000
ASC_BOUNDS
1002
{
1070
    19
1005
2B3
1002
}
  0
LINE
  5
24D
330
1A
100
AcDbEntity
  8
SEIHIN
 62
     3
 48
5.0
100
AcDbLine
 10
310.8652725874829
 20
113.7024702443019
 30
0.0
 11
310.4022706419929
 21
88.70246519667396
 31
0.0
1001
ACAD
1000
ASC_BOUNDS
1002
{
1070
    19
1005
2B3
1002
}
  0
LINE
  5
24F
330
1A
100
AcDbEntity
  8
SEIHIN
 62
     3
 48
5.0
100
AcDbLine
 10
302.265270641993
 20
99.70246519667398
 30
0.0
 11
283.0223706419931
 21
77.72616519667399
 31
0.0
  0
LINE
  5
250
330
1A
100
AcDbEntity
  8
SEIHIN
 62
     3
 48
5.0
100
AcDbLine
 10
293.2652706419931
 20
67.70246519667392
 30
0.0
 11
297.7652675762267
 21
76.70240877067327
 31
0.0
  0
LINE
  5
251
330
1A
100
AcDbEntity
  8
SEIHIN
 62
     3
 48
5.0
100
AcDbLine
 10
280.7652706419931
 20
99.70246519667398
 30
0.0
 11
302.2653061258659
 21
99.70246519667398
 31
0.0
  0
LINE
  5
25A
330
1A
100
AcDbEntity
  8
SEIHIN
 62
     3
 48
5.0
100
AcDbLine
 10
271.7653706419931
 20
76.70246519667397
 30
0.0
 11
279.2652706419929
 21
67.70256519667398
 31
0.0
  0
LINE
  5
25B
330
1A
100
AcDbEntity
  8
SEIHIN
 62
     3
 48
5.0
100
AcDbLine
 10
272.2653706419931
 20
83.70256519667398
 30
0.0
 11
277.2653706419931
 21
83.70256519667398
 31
0.0
  0
LINE
  5
260
330
1A
100
AcDbEntity
  8
SEIHIN
 62
     3
 48
5.0
100
AcDbLine
 10
263.7653706419931
 20
76.70246519667397
 30
0.0
 11
271.7653706419931
 21
76.70246519667397
 31
0.0
  0
LINE
  5
261
330
1A
100
AcDbEntity
  8
SEIHIN
 62
     4
 48
5.0
100
AcDbLine
 10
263.0330706419931
 20
78.16716519667396
 30
0.0
 11
264.5237706419931
 21
79.65786519667396
 31
0.0
  0
LINE
  5
262
330
1A
100
AcDbEntity
  8
SEIHIN
 62
     4
 48
5.0
100
AcDbLine
 10
264.396770641993
 20
76.70246519667397
 30
0.0
 11
265.4665706419929
 21
77.77226519667398
 31
0.0
  0
LINE
  5
263
330
1A
100
AcDbEntity
  8
SEIHIN
 62
     4
 48
5.0
100
AcDbLine
 10
261.1474706419929
 20
81.93836519667398
 30
0.0
 11
262.6381706419929
 21
83.42906519667399
 31
0.0
  0
LINE
  5
264
330
1A
100
AcDbEntity
  8
SEIHIN
 62
     4
 48
5.0
100
AcDbLine
 10
262.0902706419931
 20
80.05276519667397
 30
0.0
 11
263.5809706419931
 21
81.54346519667397
 31
0.0
  0
LINE
  5
265
330
1A
100
AcDbEntity
  8
SEIHIN
 62
     3
 48
5.0
100
AcDbLine
 10
272.2653706419931
 20
83.70256519667398
 30
0.0
 11
271.7653706419931
 21
76.70246519667397
 31
0.0
  0
LINE
  5
268
330
1A
100
AcDbEntity
  8
SEIHIN
 62
     3
 48
5.0
100
AcDbLine
 10
279.2652706419929
 20
67.70256519667398
 30
0.0
 11
293.2652706419931
 21
67.70246519667392
 31
0.0
  0
ARC
  5
269
330
1A
100
AcDbEntity
  8
SEIHIN
 62
     3
 48
5.0
100
AcDbCircle
 10
280.7653548660768
 20
79.70257112745771
 30
0.0
 40
2.999984224089569
100
AcDbArc
 50
180.0001132702231
 51
318.7937061411884
  0
LINE
  5
26A
330
1A
100
AcDbEntity
  8
SEIHIN
 62
     3
 48
5.0
100
AcDbLine
 10
277.2653706419931
 20
83.70256519667398
 30
0.0
 11
277.7865706419931
 21
79.34616519667397
 31
0.0
  0
LINE
  5
26B
330
1A
100
AcDbEntity
  8
SEIHIN
 62
     3
 48
5.0
100
AcDbLine
 10
310.9653706419931
 20
86.70246519667397
 30
0.0
 11
304.0013706419931
 21
86.70246519667397
 31
0.0
1001
ACAD
1000
ASC_BOUNDS
1002
{
1070
    19
1005
2B3
1002
}
  0
LINE
  5
26C
330
1A
100
AcDbEntity
  8
SEIHIN
 62
     3
 48
5.0
100
AcDbLine
 10
304.7652706419929
 20
88.70246519667396
 30
0.0
 11
310.4022706419929
 21
88.70246519667396
 31
0.0
1001
ACAD
1000
ASC_BOUNDS
1002
{
1070
    19
1005
2B3
1002
}
  0
LINE
  5
26E
330
1A
100
AcDbEntity
  8
SEIHIN
 62
     3
 48
5.0
100
AcDbLine
 10
304.2652706419929
 20
99.70246519667398
 30
0.0
 11
304.7652706419929
 21
88.70256519667389
 31
0.0
1001
ACAD
1000
ASC_BOUNDS
1002
{
1070
    19
1005
2B3
1002
}
  0
ARC
  5
270
330
1A
100
AcDbEntity
  8
SEIHIN
 62
     3
 48
5.0
100
AcDbCircle
 10
304.001419830974
 20
84.70249559713606
 30
0.0
 40
1.999969600142803
100
AcDbArc
 50
90.00140918192306
 51
153.4363580048562
1001
ACAD
1000
ASC_BOUNDS
1002
{
1070
    19
1005
2B3
1002
}
  0
LINE
  5
273
330
1A
100
AcDbEntity
  8
SEIHIN
 62
     3
 48
5.0
100
AcDbLine
 10
312.002370641993
 20
88.70246519667396
 30
0.0
 11
310.9653706419931
 21
86.70246519667397
 31
0.0
1001
ACAD
1000
ASC_BOUNDS
1002
{
1070
    19
1005
2B3
1002
}
  0
LINE
  5
278
330
1A
100
AcDbEntity
  8
SEIHIN
 62
     3
 48
5.0
100
AcDbLine
 10
280.7653706419931
 20
113.7025651966738
 30
0.0
 11
310.8652725874829
 21
113.7024702443019
 31
0.0
  0
LINE
  5
27F
330
1A
100
AcDbEntity
  8
SEIHIN
 62
     3
 48
5.0
100
AcDbLine
 10
302.2653027370422
 20
99.70239383436178
 30
0.0
 11
301.7653677936869
 21
89.17469549367906
 31
0.0
1001
ACAD
1000
ASC_BOUNDS
1002
{
1070
    19
1005
2B3
1002
}
  0
LINE
  5
280
330
1A
100
AcDbEntity
  8
SEIHIN
 62
     3
 48
5.0
100
AcDbLine
 10
301.7653677936869
 20
89.17469549367906
 30
0.0
 11
295.5291263958806
 21
76.70241619283406
 31
0.0
1001
ACAD
1000
ASC_BOUNDS
1002
{
1070
    19
1005
2B3
1002
}
  0
LINE
  5
281
330
1A
100
AcDbEntity
  8
SEIHIN
 62
     3
 48
5.0
100
AcDbLine
 10
297.7652675762267
 20
76.70240877067327
 30
0.0
 11
295.5291263958806
 21
76.70241619283408
 31
0.0
1001
ACAD
1000
ASC_BOUNDS
1002
{
1070
    19
1005
2B3
1002
}
  0
LINE
  5
294
330
1A
100
AcDbEntity
  8
SEIHIN
 62
     3
 48
5.0
100
AcDbLine
 10
310.8652725874829
 20
113.7024702443018
 30
0.0
 11
312.4653706419929
 21
113.7024651966739
 31
0.0
1001
ACAD
1000
ASC_BOUNDS
1002
{
1070
    19
1005
2B3
1002
}
  0
LINE
  5
295
330
1A
100
AcDbEntity
  8
SEIHIN
 62
     3
 48
5.0
100
AcDbLine
 10
297.7652675762267
 20
76.70240877067327
 30
0.0
 11
302.2125706419931
 21
85.5969651966739
 31
0.0
1001
ACAD
1000
ASC_BOUNDS
1002
{
1070
    19
1005
2B3
1002
}
  0
LINE
  5
296
330
1A
100
AcDbEntity
  8
SEIHIN
 62
     3
 48
5.0
100
AcDbLine
 10
302.2653061258659
 20
99.70246519667394
 30
0.0
 11
304.2652706419929
 21
99.70246519667398
 31
0.0
1001
ACAD
1000
ASC_BOUNDS
1002
{
1070
    19
1005
2B3
1002
}
  0
INSERT
  5
2B3
330
1A
100
AcDbEntity
  8
SEIHIN
 62
     4
 48
5.0
100
AcDbBlockReference
  2
*X1
 10
-15.0
 20
-6.518502433919366
 30
0.0
1001
ACAD
1000
HATCH
1002
{
1070
    19
1000
ANSI31
1040
0.5
1040
0.0
1000
ASC_BOUNDS
1070
     1
1070
     2
1070
    13
1005
294
1005
24D
1005
26C
1005
26E
1005
296
1005
27F
1005
280
1005
281
1005
295
1005
26B
1005
270
1005
273
1005
24C
1000
ASC_SEEDPOINT
1011
303.2075215234842
1021
96.16287218390525
1031
0.0
1002
}
  0
DIMENSION
  5
2D8
330
1A
100
AcDbEntity
  8
SUNPOU
 48
5.0
100
AcDbDimension
  2
*D2
 10
114.0869995995342
 20
129.5699950907358
 30
0.0
 11
145.7761851207636
 21
132.0699950907358
 31
0.0
 12
0.0
 22
-6.518502433919366
 32
0.0
 70
    32
  1
φ<>
  3
STANDARD
100
AcDbAlignedDimension
 13
177.4653706419931
 23
113.7024651966739
 33
0.0
 14
114.0869995995342
 24
112.5289465843775
 34
0.0
100
AcDbRotatedDimension
1001
ACAD
1000
DSTYLE
1002
{
1070
   140
1040
3.0
1070
    74
1070
     0
1070
   172
1070
     1
1070
    73
1070
     0
1070
   272
1070
     2
1070
    77
1070
     3
1070
   173
1070
     1
1070
   147
1040
1.0
1070
    42
1040
3.0
1070
    44
1040
1.5
1070
    43
1040
7.0
1070
   271
1070
     0
1070
   178
1070
     4
1070
   177
1070
     4
1070
   176
1070
     4
1070
   141
1040
150.0
1070
     7
1000
_OPEN
1070
     6
1000
_OPEN
1070
    41
1040
3.0
1002
}
  0
DIMENSION
  5
2E5
330
1A
100
AcDbEntity
  8
SUNPOU
 48
5.0
100
AcDbDimension
  2
*D3
 10
193.3630039174211
 20
86.70246519667397
 30
0.0
 11
190.8630039174211
 21
100.2024651966739
 31
0.0
 12
0.0
 22
-6.518502433919366
 32
0.0
 70
    32
  3
STANDARD
100
AcDbAlignedDimension
 13
177.4653706419931
 23
113.7024651966739
 33
0.0
 14
175.9652706419931
 24
86.70246519667397
 34
0.0
 50
90.0
100
AcDbRotatedDimension
1001
ACAD
1000
DSTYLE
1002
{
1070
   140
1040
3.0
1070
    74
1070
     0
1070
   172
1070
     1
1070
    73
1070
     0
1070
   272
1070
     2
1070
    77
1070
     3
1070
   173
1070
     1
1070
   147
1040
1.0
1070
    42
1040
3.0
1070
    44
1040
1.5
1070
    43
1040
7.0
1070
   271
1070
     0
1070
   178
1070
     4
1070
   177
1070
     4
1070
   176
1070
     4
1070
   141
1040
150.0
1070
     7
1000
_OPEN
1070
     6
1000
_OPEN
1070
    41
1040
3.0
1002
}
  0
DIMENSION
  5
2F7
330
1A
100
AcDbEntity
  8
SUNPOU
 48
5.0
100
AcDbDimension
  2
*D4
 10
202.7118614004177
 20
67.70246519667392
 30
0.0
 11
200.2118614004177
 21
90.70246519667396
 31
0.0
 12
0.0
 22
-6.518502433919366
 32
0.0
 70
    32
  3
STANDARD
100
AcDbAlignedDimension
 13
177.4653706419931
 23
113.7024651966739
 33
0.0
 14
158.2652706419929
 24
67.70246519667392
 34
0.0
 50
90.0
100
AcDbRotatedDimension
1001
ACAD
1000
DSTYLE
1002
{
1070
   140
1040
3.0
1070
    74
1070
     0
1070
   172
1070
     1
1070
    73
1070
     0
1070
   272
1070
     2
1070
    77
1070
     3
1070
   173
1070
     1
1070
   147
1040
1.0
1070
    42
1040
3.0
1070
    44
1040
1.5
1070
    43
1040
7.0
1070
   271
1070
     0
1070
   178
1070
     4
1070
   177
1070
     4
1070
   176
1070
     4
1070
   141
1040
150.0
1070
     7
1000
_OPEN
1070
     6
1000
_OPEN
1070
    41
1040
3.0
1002
}
  0
TEXT
  5
31E
330
1A
100
AcDbEntity
  8
SUNPOU
 48
5.0
100
AcDbText
 10
98.99210137240743
 20
199.7243029951083
 30
0.0
 40
6.0
  1
A
100
AcDbText
  0
TEXT
  5
31F
330
1A
100
AcDbEntity
  8
SUNPOU
 48
5.0
100
AcDbText
 10
184.922689572247
 20
200.1134648277253
 30
0.0
 40
6.0
  1
A
100
AcDbText
  0
TEXT
  5
320
330
1A
100
AcDbEntity
  8
SUNPOU
 48
5.0
100
AcDbText
 10
272.6198678597711
 20
51.32947929727402
 30
0.0
 40
6.0
  1
A-A
100
AcDbText
  0
VIEWPORT
  5
22
330
17
100
AcDbEntity
 67
     1
  8
0
100
AcDbViewport
 10
313.6808219178082
 20
148.5
 30
0.0
 40
627.3616438356165
 41
297.0
 68
     2
 69
     1
1001
ACAD
1000
MVIEW
1002
{
1070
    16
1010
0.0
1020
0.0
1030
0.0
1010
0.0
1020
0.0
1030
1.0
1040
0.0
1040
297.0
1040
313.6808219178082
1040
148.5
1040
50.0
1040
0.0
1040
0.0
1070
     0
1070
   100
1070
     1
1070
     0
1070
     0
1070
     0
1070
     0
1070
     0
1040
0.0
1040
0.0
1040
0.0
1040
1.0
1040
1.0
1040
10.0
1040
10.0
1070
     0
1002
{
1002
}
1002
}
  0
VIEWPORT
  5
64
330
17
100
AcDbEntity
 67
     1
  8
VIEWPORT
100
AcDbViewport
 10
210.0
 20
148.5
 30
0.0
 40
420.0
 41
297.0
 68
     1
 69
     2
1001
ACAD
1000
MVIEW
1002
{
1070
    16
1010
0.0
1020
0.0
1030
0.0
1010
0.0
1020
0.0
1030
1.0
1040
0.0
1040
302.9399999999998
1040
210.0
1040
148.5
1040
50.0
1040
0.0
1040
0.0
1070
     0
1070
   100
1070
     1
1070
     0
1070
     0
1070
     0
1070
     0
1070
     0
1040
0.0
1040
0.0
1040
0.0
1040
5.0
1040
5.0
1040
0.0
1040
0.0
1070
     0
1002
{
1002
}
1002
}
  0
ENDSEC
  0
SECTION
  2
OBJECTS
  0
DICTIONARY
  5
C
330
0
100
AcDbDictionary
  3
ACAD_GROUP
350
D
  3
ACAD_LAYOUT
350
34C
  3
ACAD_MLINESTYLE
350
E
  3
ACAD_PLOTSETTINGS
350
34D
1001
ACAD
1000
TREAT_AS_HARD
1070
     0
  0
DICTIONARY
  5
379
330
1A
100
AcDbDictionary
  3
ACAD_LAYOUTSELFREF
350
3B9
1001
ACAD
1000
TREAT_AS_HARD
1070
     1
  0
DICTIONARY
  5
377
330
17
100
AcDbDictionary
  3
ACAD_LAYOUTSELFREF
350
3B8
1001
ACAD
1000
TREAT_AS_HARD
1070
     1
  0
DICTIONARY
  5
D
102
{ACAD_REACTORS
330
C
102
}
330
C
100
AcDbDictionary
1001
ACAD
1000
TREAT_AS_HARD
1070
     0
  0
DICTIONARY
  5
34C
102
{ACAD_REACTORS
330
C
102
}
330
C
100
AcDbDictionary
1001
ACAD
1000
TREAT_AS_HARD
1070
     0
  0
DICTIONARY
  5
E
102
{ACAD_REACTORS
330
C
102
}
330
C
100
AcDbDictionary
  3
STANDARD
350
13
1001
ACAD
1000
TREAT_AS_HARD
1070
     0
  0
DICTIONARY
  5
34D
102
{ACAD_REACTORS
330
C
102
}
330
C
100
AcDbDictionary
1001
ACAD
1000
TREAT_AS_HARD
1070
     0
  0
XRECORD
  5
3B9
102
{ACAD_REACTORS
330
379
102
}
330
379
100
AcDbXrecord
340
1A
  0
XRECORD
  5
3B8
102
{ACAD_REACTORS
330
377
102
}
330
377
100
AcDbXrecord
340
17
  0
MLINESTYLE
  5
13
102
{ACAD_REACTORS
330
E
102
}
330
E
100
AcDbMlineStyle
  2
STANDARD
 70
     0
  3

 62
     0
 51
90.0
 52
90.0
 71
     2
 49
0.5
 62
   256
  6
BYLAYER
 49
-0.5
 62
   256
  6
BYLAYER
  0
ENDSEC
  0
EOF
