  0
SECTION
  2
HEADER
  9
$ACADVER
  1
AC1015
  9
$ACADMAINTVER
 70
    20
  9
$DWGCODEPAGE
  3
ANSI_932
  9
$INSBASE
 10
0.0
 20
0.0
 30
0.0
  9
$EXTMIN
 10
10.0360127096485
 20
13.75872942637511
 30
-0.0015258207003583
  9
$EXTMAX
 10
807.6617450821931
 20
565.4220899727918
 30
0.0000000349246037
  9
$LIMMIN
 10
0.0
 20
0.0
  9
$LIMMAX
 10
840.0
 20
594.0
  9
$ORTHOMODE
 70
     0
  9
$REGENMODE
 70
     1
  9
$FILLMODE
 70
     1
  9
$QTEXTMODE
 70
     0
  9
$MIRRTEXT
 70
     1
  9
$LTSCALE
 40
2.0
  9
$ATTMODE
 70
     1
  9
$TEXTSIZE
 40
5.0
  9
$TRACEWID
 40
1.0
  9
$TEXTSTYLE
  7
STANDARD
  9
$CLAYER
  8
SUNPOU
  9
$CELTYPE
  6
BYLAYER
  9
$CECOLOR
 62
   256
  9
$CELTSCALE
 40
1.0
  9
$DISPSILH
 70
     0
  9
$DIMSCALE
 40
1.0
  9
$DIMASZ
 40
7.0
  9
$DIMEXO
 40
6.0
  9
$DIMDLI
 40
14.0
  9
$DIMRND
 40
0.0
  9
$DIMDLE
 40
0.0
  9
$DIMEXE
 40
3.0
  9
$DIMTP
 40
0.0
  9
$DIMTM
 40
0.0
  9
$DIMTXT
 40
6.0
  9
$DIMCEN
 40
150.0
  9
$DIMTSZ
 40
0.0
  9
$DIMTOL
 70
     0
  9
$DIMLIM
 70
     0
  9
$DIMTIH
 70
     0
  9
$DIMTOH
 70
     0
  9
$DIMSE1
 70
     0
  9
$DIMSE2
 70
     0
  9
$DIMTAD
 70
     3
  9
$DIMZIN
 70
     0
  9
$DIMBLK
  1

  9
$DIMASO
 70
     1
  9
$DIMSHO
 70
     1
  9
$DIMPOST
  1

  9
$DIMAPOST
  1

  9
$DIMALT
 70
     0
  9
$DIMALTD
 70
     2
  9
$DIMALTF
 40
25.4
  9
$DIMLFAC
 40
1.0
  9
$DIMTOFL
 70
     1
  9
$DIMTVP
 40
0.0
  9
$DIMTIX
 70
     0
  9
$DIMSOXD
 70
     0
  9
$DIMSAH
 70
     1
  9
$DIMBLK1
  1
OPEN
  9
$DIMBLK2
  1
OPEN
  9
$DIMSTYLE
  2
STANDARD
  9
$DIMCLRD
 70
   256
  9
$DIMCLRE
 70
   256
  9
$DIMCLRT
 70
   256
  9
$DIMTFAC
 40
1.0
  9
$DIMGAP
 40
2.0
  9
$DIMJUST
 70
     0
  9
$DIMSD1
 70
     0
  9
$DIMSD2
 70
     0
  9
$DIMTOLJ
 70
     1
  9
$DIMTZIN
 70
     0
  9
$DIMALTZ
 70
     0
  9
$DIMALTTZ
 70
     0
  9
$DIMUPT
 70
     0
  9
$DIMDEC
 70
     0
  9
$DIMTDEC
 70
     0
  9
$DIMALTU
 70
     2
  9
$DIMALTTD
 70
     2
  9
$DIMTXSTY
  7
STANDARD
  9
$DIMAUNIT
 70
     0
  9
$DIMADEC
 70
     0
  9
$DIMALTRND
 40
0.0
  9
$DIMAZIN
 70
     0
  9
$DIMDSEP
 70
    46
  9
$DIMATFIT
 70
     3
  9
$DIMFRAC
 70
     0
  9
$DIMLDRBLK
  1
OPEN
  9
$DIMLUNIT
 70
     2
  9
$DIMLWD
 70
    -1
  9
$DIMLWE
 70
    -1
  9
$DIMTMOVE
 70
     0
  9
$LUNITS
 70
     2
  9
$LUPREC
 70
     4
  9
$SKETCHINC
 40
1.0
  9
$FILLETRAD
 40
20.0
  9
$AUNITS
 70
     0
  9
$AUPREC
 70
     0
  9
$MENU
  1
.
  9
$ELEVATION
 40
0.0
  9
$PELEVATION
 40
0.0
  9
$THICKNESS
 40
0.0
  9
$LIMCHECK
 70
     0
  9
$CHAMFERA
 40
20.0
  9
$CHAMFERB
 40
20.0
  9
$CHAMFERC
 40
40.0
  9
$CHAMFERD
 40
0.0
  9
$SKPOLY
 70
     0
  9
$TDCREATE
 40
2450994.354346065
  9
$TDUCREATE
 40
2450993.979346065
  9
$TDUPDATE
 40
2458306.586813565
  9
$TDUUPDATE
 40
2458306.211813565
  9
$TDINDWG
 40
0.0632185417
  9
$TDUSRTIMER
 40
0.0632185417
  9
$USRTIMER
 70
     1
  9
$ANGBASE
 50
0.0
  9
$ANGDIR
 70
     0
  9
$PDMODE
 70
     0
  9
$PDSIZE
 40
0.0
  9
$PLINEWID
 40
0.0
  9
$SPLFRAME
 70
     0
  9
$SPLINETYPE
 70
     6
  9
$SPLINESEGS
 70
     8
  9
$HANDSEED
  5
3C1F
  9
$SURFTAB1
 70
     6
  9
$SURFTAB2
 70
     6
  9
$SURFTYPE
 70
     6
  9
$SURFU
 70
     6
  9
$SURFV
 70
     6
  9
$UCSBASE
  2

  9
$UCSNAME
  2

  9
$UCSORG
 10
0.0
 20
0.0
 30
0.0
  9
$UCSXDIR
 10
1.0
 20
0.0
 30
0.0
  9
$UCSYDIR
 10
0.0
 20
1.0
 30
0.0
  9
$UCSORTHOREF
  2

  9
$UCSORTHOVIEW
 70
     0
  9
$UCSORGTOP
 10
0.0
 20
0.0
 30
0.0
  9
$UCSORGBOTTOM
 10
0.0
 20
0.0
 30
0.0
  9
$UCSORGLEFT
 10
0.0
 20
0.0
 30
0.0
  9
$UCSORGRIGHT
 10
0.0
 20
0.0
 30
0.0
  9
$UCSORGFRONT
 10
0.0
 20
0.0
 30
0.0
  9
$UCSORGBACK
 10
0.0
 20
0.0
 30
0.0
  9
$PUCSBASE
  2

  9
$PUCSNAME
  2

  9
$PUCSORG
 10
0.0
 20
0.0
 30
0.0
  9
$PUCSXDIR
 10
1.0
 20
0.0
 30
0.0
  9
$PUCSYDIR
 10
0.0
 20
1.0
 30
0.0
  9
$PUCSORTHOREF
  2

  9
$PUCSORTHOVIEW
 70
     0
  9
$PUCSORGTOP
 10
0.0
 20
0.0
 30
0.0
  9
$PUCSORGBOTTOM
 10
0.0
 20
0.0
 30
0.0
  9
$PUCSORGLEFT
 10
0.0
 20
0.0
 30
0.0
  9
$PUCSORGRIGHT
 10
0.0
 20
0.0
 30
0.0
  9
$PUCSORGFRONT
 10
0.0
 20
0.0
 30
0.0
  9
$PUCSORGBACK
 10
0.0
 20
0.0
 30
0.0
  9
$USERI1
 70
     0
  9
$USERI2
 70
     0
  9
$USERI3
 70
     0
  9
$USERI4
 70
     0
  9
$USERI5
 70
     0
  9
$USERR1
 40
0.0
  9
$USERR2
 40
0.0
  9
$USERR3
 40
0.0
  9
$USERR4
 40
0.0
  9
$USERR5
 40
0.0
  9
$WORLDVIEW
 70
     1
  9
$SHADEDGE
 70
     3
  9
$SHADEDIF
 70
    70
  9
$TILEMODE
 70
     1
  9
$MAXACTVP
 70
    16
  9
$PINSBASE
 10
0.0
 20
0.0
 30
0.0
  9
$PLIMCHECK
 70
     0
  9
$PEXTMIN
 10
0.0
 20
0.0
 30
0.0
  9
$PEXTMAX
 10
420.0
 20
297.0
 30
0.0
  9
$PLIMMIN
 10
0.0
 20
0.0
  9
$PLIMMAX
 10
420.0
 20
297.0
  9
$UNITMODE
 70
     0
  9
$VISRETAIN
 70
     0
  9
$PLINEGEN
 70
     0
  9
$PSLTSCALE
 70
     1
  9
$TREEDEPTH
 70
  3020
  9
$CMLSTYLE
  2
STANDARD
  9
$CMLJUST
 70
     0
  9
$CMLSCALE
 40
1.0
  9
$PROXYGRAPHICS
 70
     1
  9
$MEASUREMENT
 70
     1
  9
$CELWEIGHT
370
    -1
  9
$ENDCAPS
280
     0
  9
$JOINSTYLE
280
     0
  9
$LWDISPLAY
290
     0
  9
$INSUNITS
 70
     0
  9
$HYPERLINKBASE
  1

  9
$STYLESHEET
  1
print.ctb
  9
$XEDIT
290
     1
  9
$CEPSNTYPE
380
     0
  9
$PSTYLEMODE
290
     1
  9
$FINGERPRINTGUID
  2
{8D6CB018-5425-46D7-BA3D-129D74F567FA}
  9
$VERSIONGUID
  2
{7E116760-6369-4A57-964D-CDBD85C475BF}
  9
$EXTNAMES
290
     1
  9
$PSVPSCALE
 40
0.0
  9
$OLESTARTUP
290
     0
  0
ENDSEC
  0
SECTION
  2
CLASSES
  0
CLASS
  1
ACDBDICTIONARYWDFLT
  2
AcDbDictionaryWithDefault
  3
ObjectDBX Classes
 90
        0
280
     0
281
     0
  0
CLASS
  1
ACDBPLACEHOLDER
  2
AcDbPlaceHolder
  3
ObjectDBX Classes
 90
        0
280
     0
281
     0
  0
CLASS
  1
LAYOUT
  2
AcDbLayout
  3
ObjectDBX Classes
 90
        0
280
     0
281
     0
  0
CLASS
  1
MATERIAL
  2
AcDbMaterial
  3
ObjectDBX Classes
 90
     1153
280
     0
281
     0
  0
CLASS
  1
VISUALSTYLE
  2
AcDbVisualStyle
  3
ObjectDBX Classes
 90
     4095
280
     0
281
     0
  0
CLASS
  1
TABLESTYLE
  2
AcDbTableStyle
  3
ObjectDBX Classes
 90
     4095
280
     0
281
     0
  0
CLASS
  1
SCALE
  2
AcDbScale
  3
ObjectDBX Classes
 90
     1153
280
     0
281
     0
  0
CLASS
  1
MLEADERSTYLE
  2
AcDbMLeaderStyle
  3
ACDB_MLEADERSTYLE_CLASS
 90
     4095
280
     0
281
     0
  0
CLASS
  1
CELLSTYLEMAP
  2
AcDbCellStyleMap
  3
ObjectDBX Classes
 90
     1152
280
     0
281
     0
  0
CLASS
  1
DICTIONARYVAR
  2
AcDbDictionaryVar
  3
ObjectDBX Classes
 90
        0
280
     0
281
     0
  0
ENDSEC
  0
SECTION
  2
TABLES
  0
TABLE
  2
VPORT
  5
8
102
{ACAD_XDICTIONARY
360
3B35
102
}
330
0
100
AcDbSymbolTable
 70
     1
  0
VPORT
  5
3A0D
330
8
100
AcDbSymbolTableRecord
100
AcDbViewportTableRecord
  2
*Active
 70
     0
 10
0.0
 20
0.0
 11
1.0
 21
1.0
 12
408.8488788959208
 22
289.5904096995834
 13
0.0
 23
0.0
 14
5.0
 24
5.0
 15
0.0
 25
0.0
 16
0.0
 26
0.0
 36
1.0
 17
0.0
 27
0.0
 37
0.0
 40
555.2455901603543
 41
2.061755146262188
 42
50.0
 43
0.0
 44
0.0
 50
0.0
 51
0.0
 71
     0
 72
   100
 73
     1
 74
     0
 75
     0
 76
     0
 77
     0
 78
     0
281
     0
 65
     1
110
0.0
120
0.0
130
0.0
111
1.0
121
0.0
131
0.0
112
0.0
122
1.0
132
0.0
 79
     0
146
0.0
  0
ENDTAB
  0
TABLE
  2
LTYPE
  5
5
330
0
100
AcDbSymbolTable
 70
     3
  0
LTYPE
  5
14
330
5
100
AcDbSymbolTableRecord
100
AcDbLinetypeTableRecord
  2
BYBLOCK
 70
     0
  3

 72
    65
 73
     0
 40
0.0
  0
LTYPE
  5
15
330
5
100
AcDbSymbolTableRecord
100
AcDbLinetypeTableRecord
  2
BYLAYER
 70
     0
  3

 72
    65
 73
     0
 40
0.0
  0
LTYPE
  5
16
330
5
100
AcDbSymbolTableRecord
100
AcDbLinetypeTableRecord
  2
CONTINUOUS
 70
     0
  3
Solid line
 72
    65
 73
     0
 40
0.0
  0
LTYPE
  5
135
330
5
100
AcDbSymbolTableRecord
100
AcDbLinetypeTableRecord
  2
CENTER
 70
     0
  3
____ _ ____ _ ____ _ ____ _ ____ _ ____ _ ____ 
 72
    65
 73
     4
 40
2.0
 49
1.25
 74
     0
 49
-0.25
 74
     0
 49
0.25
 74
     0
 49
-0.25
 74
     0
  0
ENDTAB
  0
TABLE
  2
LAYER
  5
2
330
0
100
AcDbSymbolTable
 70
     8
  0
LAYER
  5
F
102
{ACAD_XDICTIONARY
360
3B88
102
}
330
2
100
AcDbSymbolTableRecord
100
AcDbLayerTableRecord
  2
0
 70
     0
 62
     7
  6
CONTINUOUS
370
    -3
390
33F
  0
LAYER
  5
62
102
{ACAD_XDICTIONARY
360
3B8A
102
}
330
2
100
AcDbSymbolTableRecord
100
AcDbLayerTableRecord
  2
VIEWPORT
 70
     0
 62
     7
  6
CONTINUOUS
370
    -3
390
33F
  0
LAYER
  5
65
102
{ACAD_XDICTIONARY
360
3B8C
102
}
330
2
100
AcDbSymbolTableRecord
100
AcDbLayerTableRecord
  2
ZUWAKU
 70
     0
 62
     7
  6
CONTINUOUS
370
    -3
390
33F
  0
LAYER
  5
153
102
{ACAD_XDICTIONARY
360
3B8E
102
}
330
2
100
AcDbSymbolTableRecord
100
AcDbLayerTableRecord
  2
SEIHIN
 70
     0
 62
     3
  6
CONTINUOUS
370
    -3
390
33F
  0
LAYER
  5
154
102
{ACAD_XDICTIONARY
360
3B90
102
}
330
2
100
AcDbSymbolTableRecord
100
AcDbLayerTableRecord
  2
SUNPOU
 70
     0
 62
     4
  6
CONTINUOUS
370
    -3
390
33F
  0
LAYER
  5
155
102
{ACAD_XDICTIONARY
360
3B92
102
}
330
2
100
AcDbSymbolTableRecord
100
AcDbLayerTableRecord
  2
CENTER L
 70
     0
 62
     1
  6
CENTER
370
    -3
390
33F
  0
LAYER
  5
24D
330
2
100
AcDbSymbolTableRecord
100
AcDbLayerTableRecord
  2
DEFPOINTS
 70
     0
 62
     7
  6
CONTINUOUS
290
     0
370
    -3
390
33F
  0
LAYER
  5
59A
102
{ACAD_XDICTIONARY
360
3B94
102
}
330
2
100
AcDbSymbolTableRecord
100
AcDbLayerTableRecord
  2
moji
 70
     0
 62
     2
  6
CONTINUOUS
370
    -3
390
33F
  0
ENDTAB
  0
TABLE
  2
STYLE
  5
3
330
0
100
AcDbSymbolTable
 70
     2
  0
STYLE
  5
10
330
3
100
AcDbSymbolTableRecord
100
AcDbTextStyleTableRecord
  2
STANDARD
 70
     0
 40
0.0
 41
1.0
 50
0.0
 71
     0
 42
5.0
  3
TXT
  4
bigfont.shx
  0
STYLE
  5
59B
330
3
100
AcDbSymbolTableRecord
100
AcDbTextStyleTableRecord
  2
ｽﾀｲﾙ1
 70
     0
 40
0.0
 41
1.0
 50
0.0
 71
     0
 42
2.5
  3

  4

1001
ACAD
1000
MS PGothic
1071
    32818
  0
ENDTAB
  0
TABLE
  2
VIEW
  5
6
330
0
100
AcDbSymbolTable
 70
     0
  0
ENDTAB
  0
TABLE
  2
UCS
  5
7
330
0
100
AcDbSymbolTable
 70
     0
  0
ENDTAB
  0
TABLE
  2
APPID
  5
9
330
0
100
AcDbSymbolTable
 70
     3
  0
APPID
  5
11
330
9
100
AcDbSymbolTableRecord
100
AcDbRegAppTableRecord
  2
ACAD
 70
     0
  0
APPID
  5
3B77
330
9
100
AcDbSymbolTableRecord
100
AcDbRegAppTableRecord
  2
ACAD_MLEADERVER
 70
     0
  0
APPID
  5
3B86
330
9
100
AcDbSymbolTableRecord
100
AcDbRegAppTableRecord
  2
ACAD_EXEMPT_FROM_CAD_STANDARDS
 70
     0
  0
ENDTAB
  0
TABLE
  2
DIMSTYLE
  5
A
330
0
100
AcDbSymbolTable
 70
     1
100
AcDbDimStyleTable
 71
     0
  0
DIMSTYLE
105
1D
102
{ACAD_REACTORS
330
3573
330
3574
330
3575
330
3643
330
3644
330
3648
330
364D
330
3650
330
366E
330
3684
330
3688
330
369D
330
369E
330
36A0
330
36A4
330
36A5
102
}
330
A
100
AcDbSymbolTableRecord
100
AcDbDimStyleTableRecord
  2
STANDARD
 70
     0
340
10
  0
ENDTAB
  0
TABLE
  2
BLOCK_RECORD
  5
1
330
0
100
AcDbSymbolTable
 70
    18
  0
BLOCK_RECORD
  5
1A
102
{ACAD_XDICTIONARY
360
385
102
}
330
1
100
AcDbSymbolTableRecord
100
AcDbBlockTableRecord
  2
*MODEL_SPACE
340
342
  0
BLOCK_RECORD
  5
17
102
{ACAD_XDICTIONARY
360
383
102
}
330
1
100
AcDbSymbolTableRecord
100
AcDbBlockTableRecord
  2
*PAPER_SPACE
340
343
  0
BLOCK_RECORD
  5
6D
330
1
100
AcDbSymbolTableRecord
100
AcDbBlockTableRecord
  2
_OPEN
340
0
102
{BLKREFS
331
3A42
331
3A43
331
3A4B
331
3A4C
331
3A54
331
3A55
331
3A74
331
3A75
331
3A7F
331
3A80
331
3A88
331
3A89
331
3A91
331
3A92
331
3A9A
331
3A9B
331
3AA3
331
3AA4
331
3AAC
331
3AAD
331
3AB6
331
3AB7
331
3ABE
331
3ABF
331
3AC6
331
3AC7
331
3ACC
331
3ACD
331
3AD3
331
3AD4
331
3ADC
331
3ADD
102
}
  0
BLOCK_RECORD
  5
322C
330
1
100
AcDbSymbolTableRecord
100
AcDbBlockTableRecord
  2
*X1
340
0
102
{BLKREFS
331
358F
102
}
  0
BLOCK_RECORD
  5
36BA
330
1
100
AcDbSymbolTableRecord
100
AcDbBlockTableRecord
  2
*D2
340
0
  0
BLOCK_RECORD
  5
36C6
330
1
100
AcDbSymbolTableRecord
100
AcDbBlockTableRecord
  2
*D3
340
0
  0
BLOCK_RECORD
  5
36D2
330
1
100
AcDbSymbolTableRecord
100
AcDbBlockTableRecord
  2
*D4
340
0
  0
BLOCK_RECORD
  5
36DE
330
1
100
AcDbSymbolTableRecord
100
AcDbBlockTableRecord
  2
*D5
340
0
  0
BLOCK_RECORD
  5
36EA
330
1
100
AcDbSymbolTableRecord
100
AcDbBlockTableRecord
  2
*D6
340
0
  0
BLOCK_RECORD
  5
36F6
330
1
100
AcDbSymbolTableRecord
100
AcDbBlockTableRecord
  2
*D7
340
0
  0
BLOCK_RECORD
  5
3702
330
1
100
AcDbSymbolTableRecord
100
AcDbBlockTableRecord
  2
*D8
340
0
  0
BLOCK_RECORD
  5
370E
330
1
100
AcDbSymbolTableRecord
100
AcDbBlockTableRecord
  2
*D9
340
0
  0
BLOCK_RECORD
  5
371A
330
1
100
AcDbSymbolTableRecord
100
AcDbBlockTableRecord
  2
*D10
340
0
  0
BLOCK_RECORD
  5
3726
330
1
100
AcDbSymbolTableRecord
100
AcDbBlockTableRecord
  2
*D11
340
0
  0
BLOCK_RECORD
  5
3732
330
1
100
AcDbSymbolTableRecord
100
AcDbBlockTableRecord
  2
*D12
340
0
  0
BLOCK_RECORD
  5
373E
330
1
100
AcDbSymbolTableRecord
100
AcDbBlockTableRecord
  2
*D13
340
0
  0
BLOCK_RECORD
  5
374A
330
1
100
AcDbSymbolTableRecord
100
AcDbBlockTableRecord
  2
*D14
340
0
  0
BLOCK_RECORD
  5
3753
330
1
100
AcDbSymbolTableRecord
100
AcDbBlockTableRecord
  2
*D15
340
0
  0
BLOCK_RECORD
  5
375C
330
1
100
AcDbSymbolTableRecord
100
AcDbBlockTableRecord
  2
*D16
340
0
  0
BLOCK_RECORD
  5
3768
330
1
100
AcDbSymbolTableRecord
100
AcDbBlockTableRecord
  2
*D17
340
0
  0
ENDTAB
  0
ENDSEC
  0
SECTION
  2
BLOCKS
  0
BLOCK
  5
1B
330
1A
100
AcDbEntity
  8
0
100
AcDbBlockBegin
  2
*MODEL_SPACE
 70
     0
 10
0.0
 20
0.0
 30
0.0
  3
*MODEL_SPACE
  1

  0
ENDBLK
  5
1C
330
1A
100
AcDbEntity
  8
0
100
AcDbBlockEnd
  0
BLOCK
  5
18
330
17
100
AcDbEntity
 67
     1
  8
0
100
AcDbBlockBegin
  2
*PAPER_SPACE
 70
     0
 10
0.0
 20
0.0
 30
0.0
  3
*PAPER_SPACE
  1

  0
ENDBLK
  5
19
330
17
100
AcDbEntity
 67
     1
  8
0
100
AcDbBlockEnd
  0
BLOCK
  5
6E
330
6D
100
AcDbEntity
  8
0
100
AcDbBlockBegin
  2
_OPEN
 70
     0
 10
0.0
 20
0.0
 30
0.0
  3
_OPEN
  1

  0
LINE
  5
6F
330
6D
100
AcDbEntity
  8
0
  6
ByBlock
 62
     0
100
AcDbLine
 10
-1.0
 20
0.1666666666666666
 30
0.0
 11
0.0
 21
0.0
 31
0.0
  0
LINE
  5
70
330
6D
100
AcDbEntity
  8
0
  6
ByBlock
 62
     0
100
AcDbLine
 10
0.0
 20
0.0
 30
0.0
 11
-1.0
 21
-0.1666666666666666
 31
0.0
  0
LINE
  5
71
330
6D
100
AcDbEntity
  8
0
  6
ByBlock
 62
     0
100
AcDbLine
 10
0.0
 20
0.0
 30
0.0
 11
-1.0
 21
0.0
 31
0.0
  0
ENDBLK
  5
72
330
6D
100
AcDbEntity
  8
0
100
AcDbBlockEnd
  0
BLOCK
  5
33C0
330
322C
100
AcDbEntity
  8
0
100
AcDbBlockBegin
  2
*X1
 70
     1
 10
0.0
 20
0.0
 30
0.0
  3
*X1
  1

  0
LINE
  5
322D
330
322C
100
AcDbEntity
  8
0
 62
     0
100
AcDbLine
 10
69.04221254812239
 20
22.60416872562149
 30
0.0
 11
68.39638161840747
 21
23.24999965533647
 31
0.0
  0
LINE
  5
322E
330
322C
100
AcDbEntity
  8
0
 62
     0
100
AcDbLine
 10
69.04221254812239
 20
21.7061431135146
 30
0.0
 11
67.49835600630053
 21
23.24999965533647
 31
0.0
  0
LINE
  5
322F
330
322C
100
AcDbEntity
  8
0
 62
     0
100
AcDbLine
 10
69.04221254812234
 20
20.80811750140765
 30
0.0
 11
66.62107860210738
 21
23.2292514474226
 31
0.0
  0
LINE
  5
3230
330
322C
100
AcDbEntity
  8
0
 62
     0
100
AcDbLine
 10
69.04221254812239
 20
19.91009188930081
 30
0.0
 11
66.24221254812233
 21
22.71009188930083
 31
0.0
  0
LINE
  5
3231
330
322C
100
AcDbEntity
  8
0
 62
     0
100
AcDbLine
 10
69.04221254812239
 20
19.01206627719387
 30
0.0
 11
66.24221254812233
 21
21.81206627719394
 31
0.0
  0
LINE
  5
3232
330
322C
100
AcDbEntity
  8
0
 62
     0
100
AcDbLine
 10
69.04221254812234
 20
18.11404066508692
 30
0.0
 11
66.24221254812226
 21
20.91404066508699
 31
0.0
  0
LINE
  5
3233
330
322C
100
AcDbEntity
  8
0
 62
     0
100
AcDbLine
 10
64.1422125481223
 20
22.11601505298012
 30
0.0
 11
63.00822794576601
 21
23.24999965533647
 31
0.0
  0
LINE
  5
3234
330
322C
100
AcDbEntity
  8
0
 62
     0
100
AcDbLine
 10
69.04221254812239
 20
17.21601505298008
 30
0.0
 11
66.24221254812233
 21
20.01601505298015
 31
0.0
  0
LINE
  5
3235
330
322C
100
AcDbEntity
  8
0
 62
     0
100
AcDbLine
 10
64.1422125481223
 20
21.21798944087323
 30
0.0
 11
62.11020233365906
 21
23.24999965533641
 31
0.0
  0
LINE
  5
3236
330
322C
100
AcDbEntity
  8
0
 62
     0
100
AcDbLine
 10
69.04221254812234
 20
16.31798944087313
 30
0.0
 11
66.24221254812233
 21
19.1179894408732
 31
0.0
  0
LINE
  5
3237
330
322C
100
AcDbEntity
  8
0
 62
     0
100
AcDbLine
 10
64.1422125481223
 20
20.31996382876628
 30
0.0
 11
61.43670158298522
 21
23.02547479390335
 31
0.0
  0
LINE
  5
3238
330
322C
100
AcDbEntity
  8
0
 62
     0
100
AcDbLine
 10
69.04221254812234
 20
15.41996382876624
 30
0.0
 11
66.24221254812226
 21
18.21996382876625
 31
0.0
  0
LINE
  5
3239
330
322C
100
AcDbEntity
  8
0
 62
     0
100
AcDbLine
 10
64.14221254812241
 20
19.42193821665927
 30
0.0
 11
61.34221254812223
 21
22.2219382166594
 31
0.0
  0
LINE
  5
323A
330
322C
100
AcDbEntity
  8
0
 62
     0
100
AcDbLine
 10
69.04221254812239
 20
14.52193821665929
 30
0.0
 11
66.24221254812233
 21
17.32193821665936
 31
0.0
  0
LINE
  5
323B
330
322C
100
AcDbEntity
  8
0
 62
     0
100
AcDbLine
 10
64.14221254812236
 20
18.52391260455238
 30
0.0
 11
61.34221254812223
 21
21.32391260455256
 31
0.0
  0
LINE
  5
323C
330
322C
100
AcDbEntity
  8
0
 62
     0
100
AcDbLine
 10
69.04221254812234
 20
13.6239126045524
 30
0.0
 11
66.24221254812226
 21
16.42391260455247
 31
0.0
  0
LINE
  5
323D
330
322C
100
AcDbEntity
  8
0
 62
     0
100
AcDbLine
 10
64.14221254812236
 20
17.62588699244548
 30
0.0
 11
61.34221254812223
 21
20.42588699244561
 31
0.0
  0
LINE
  5
323E
330
322C
100
AcDbEntity
  8
0
 62
     0
100
AcDbLine
 10
69.04221254812234
 20
12.72588699244551
 30
0.0
 11
66.24221254812226
 21
15.52588699244558
 31
0.0
  0
LINE
  5
323F
330
322C
100
AcDbEntity
  8
0
 62
     0
100
AcDbLine
 10
64.1422125481223
 20
16.72786138033854
 30
0.0
 11
61.34221254812217
 21
19.52786138033866
 31
0.0
  0
LINE
  5
3240
330
322C
100
AcDbEntity
  8
0
 62
     0
100
AcDbLine
 10
69.04221254812227
 20
11.82786138033856
 30
0.0
 11
66.24221254812226
 21
14.62786138033863
 31
0.0
  0
LINE
  5
3241
330
322C
100
AcDbEntity
  8
0
 62
     0
100
AcDbLine
 10
64.14221254812236
 20
15.8298357682317
 30
0.0
 11
61.34221254812223
 21
18.62983576823183
 31
0.0
  0
LINE
  5
3242
330
322C
100
AcDbEntity
  8
0
 62
     0
100
AcDbLine
 10
57.84221254812229
 20
22.12983576823177
 30
0.0
 11
56.72204866101765
 21
23.24999965533641
 31
0.0
  0
LINE
  5
3243
330
322C
100
AcDbEntity
  8
0
 62
     0
100
AcDbLine
 10
69.04221254812234
 20
10.92983576823172
 30
0.0
 11
66.24221254812226
 21
13.72983576823173
 31
0.0
  0
LINE
  5
3244
330
322C
100
AcDbEntity
  8
0
 62
     0
100
AcDbLine
 10
64.14221254812236
 20
14.93181015612475
 30
0.0
 11
61.34221254812217
 21
17.73181015612488
 31
0.0
  0
LINE
  5
3245
330
322C
100
AcDbEntity
  8
0
 62
     0
100
AcDbLine
 10
57.84221254812223
 20
21.23181015612482
 30
0.0
 11
55.8240230489107
 21
23.24999965533641
 31
0.0
  0
LINE
  5
3246
330
322C
100
AcDbEntity
  8
0
 62
     0
100
AcDbLine
 10
69.04221254812234
 20
10.03181015612478
 30
0.0
 11
66.24221254812226
 21
12.83181015612484
 31
0.0
  0
LINE
  5
3247
330
322C
100
AcDbEntity
  8
0
 62
     0
100
AcDbLine
 10
64.1422125481223
 20
14.03378454401786
 30
0.0
 11
61.34221254812223
 21
16.83378454401787
 31
0.0
  0
LINE
  5
3248
330
322C
100
AcDbEntity
  8
0
 62
     0
100
AcDbLine
 10
57.84221254812223
 20
20.33378454401793
 30
0.0
 11
55.14244982479823
 21
23.03354726734193
 31
0.0
  0
LINE
  5
3249
330
322C
100
AcDbEntity
  8
0
 62
     0
100
AcDbLine
 10
69.04221254812227
 20
9.133784544017885
 30
0.0
 11
66.24221254812221
 21
11.9337845440179
 31
0.0
  0
LINE
  5
324A
330
322C
100
AcDbEntity
  8
0
 62
     0
100
AcDbLine
 10
64.14221254812236
 20
13.13575893191091
 30
0.0
 11
61.34221254812229
 21
15.93575893191098
 31
0.0
  0
LINE
  5
324B
330
322C
100
AcDbEntity
  8
0
 62
     0
100
AcDbLine
 10
57.84221254812229
 20
19.43575893191098
 30
0.0
 11
55.04221254812228
 21
22.235758931911
 31
0.0
  0
LINE
  5
324C
330
322C
100
AcDbEntity
  8
0
 62
     0
100
AcDbLine
 10
69.04221254812234
 20
8.235758931910936
 30
0.0
 11
66.24221254812226
 21
11.035758931911
 31
0.0
  0
LINE
  5
324D
330
322C
100
AcDbEntity
  8
0
 62
     0
100
AcDbLine
 10
64.1422125481223
 20
12.23773331980402
 30
0.0
 11
61.34221254812229
 21
15.03773331980409
 31
0.0
  0
LINE
  5
324E
330
322C
100
AcDbEntity
  8
0
 62
     0
100
AcDbLine
 10
57.84221254812234
 20
18.53773331980403
 30
0.0
 11
55.04221254812233
 21
21.33773331980405
 31
0.0
  0
LINE
  5
324F
330
322C
100
AcDbEntity
  8
0
 62
     0
100
AcDbLine
 10
68.97024719323252
 20
7.409698674693856
 30
0.0
 11
66.24221254812226
 21
10.13773331980411
 31
0.0
  0
LINE
  5
3250
330
322C
100
AcDbEntity
  8
0
 62
     0
100
AcDbLine
 10
64.14221254812236
 20
11.33970770769701
 30
0.0
 11
61.34221254812223
 21
14.13970770769714
 31
0.0
  0
LINE
  5
3251
330
322C
100
AcDbEntity
  8
0
 62
     0
100
AcDbLine
 10
57.84221254812229
 20
17.63970770769714
 30
0.0
 11
55.04221254812233
 21
20.4397077076971
 31
0.0
  0
LINE
  5
3252
330
322C
100
AcDbEntity
  8
0
 62
     0
100
AcDbLine
 10
68.33192060048304
 20
7.149999655336387
 30
0.0
 11
66.24221254812221
 21
9.23970770769722
 31
0.0
  0
LINE
  5
3253
330
322C
100
AcDbEntity
  8
0
 62
     0
100
AcDbLine
 10
57.84221254812229
 20
16.74168209559019
 30
0.0
 11
55.04221254812228
 21
19.54168209559014
 31
0.0
  0
LINE
  5
3254
330
322C
100
AcDbEntity
  8
0
 62
     0
100
AcDbLine
 10
64.14221254812236
 20
10.44168209559012
 30
0.0
 11
61.34221254812223
 21
13.24168209559025
 31
0.0
  0
LINE
  5
3255
330
322C
100
AcDbEntity
  8
0
 62
     0
100
AcDbLine
 10
52.41721254812228
 20
22.16668209559021
 30
0.0
 11
51.33389498837596
 21
23.24999965533647
 31
0.0
  0
LINE
  5
3256
330
322C
100
AcDbEntity
  8
0
 62
     0
100
AcDbLine
 10
67.43389498837615
 20
7.149999655336273
 30
0.0
 11
66.24221254812221
 21
8.341682095590272
 31
0.0
  0
LINE
  5
3257
330
322C
100
AcDbEntity
  8
0
 62
     0
100
AcDbLine
 10
57.84221254812229
 20
15.8436564834833
 30
0.0
 11
55.04221254812233
 21
18.64365648348331
 31
0.0
  0
LINE
  5
3258
330
322C
100
AcDbEntity
  8
0
 62
     0
100
AcDbLine
 10
52.41721254812228
 20
21.26865648348331
 30
0.0
 11
50.43586937626912
 21
23.24999965533653
 31
0.0
  0
LINE
  5
3259
330
322C
100
AcDbEntity
  8
0
 62
     0
100
AcDbLine
 10
64.11625424747677
 20
9.569614784128873
 30
0.0
 11
61.34221254812223
 21
12.34365648348336
 31
0.0
  0
LINE
  5
325A
330
322C
100
AcDbEntity
  8
0
 62
     0
100
AcDbLine
 10
57.84221254812229
 20
14.94563087137641
 30
0.0
 11
55.04221254812233
 21
17.74563087137636
 31
0.0
  0
LINE
  5
325B
330
322C
100
AcDbEntity
  8
0
 62
     0
100
AcDbLine
 10
52.22163200200845
 20
20.56621141749025
 30
0.0
 11
49.53784376416229
 21
23.24999965533641
 31
0.0
  0
LINE
  5
325C
330
322C
100
AcDbEntity
  8
0
 62
     0
100
AcDbLine
 10
63.92326895221953
 20
8.864574467279112
 30
0.0
 11
61.34221254812223
 21
11.44563087137646
 31
0.0
  0
LINE
  5
325D
330
322C
100
AcDbEntity
  8
0
 62
     0
100
AcDbLine
 10
57.84221254812229
 20
14.04760525926946
 30
0.0
 11
55.04221254812228
 21
16.84760525926947
 31
0.0
  0
LINE
  5
325E
330
322C
100
AcDbEntity
  8
0
 62
     0
100
AcDbLine
 10
51.43981815205529
 20
20.4499996553364
 30
0.0
 11
48.63981815205528
 21
23.24999965533647
 31
0.0
  0
LINE
  5
325F
330
322C
100
AcDbEntity
  8
0
 62
     0
100
AcDbLine
 10
63.59823707629596
 20
8.291580731095734
 30
0.0
 11
61.27069680896273
 21
10.61912099842902
 31
0.0
  0
LINE
  5
3260
330
322C
100
AcDbEntity
  8
0
 62
     0
100
AcDbLine
 10
57.84221254812229
 20
13.14957964716262
 30
0.0
 11
55.04221254812233
 21
15.94957964716258
 31
0.0
  0
LINE
  5
3261
330
322C
100
AcDbEntity
  8
0
 62
     0
100
AcDbLine
 10
50.54179253994846
 20
20.44999965533646
 30
0.0
 11
47.80422581077107
 21
23.18756638451384
 31
0.0
  0
LINE
  5
3262
330
322C
100
AcDbEntity
  8
0
 62
     0
100
AcDbLine
 10
63.16619527897092
 20
7.825596916313941
 30
0.0
 11
60.86911117049521
 21
10.12268102478964
 31
0.0
  0
LINE
  5
3263
330
322C
100
AcDbEntity
  8
0
 62
     0
100
AcDbLine
 10
57.84221254812229
 20
12.25155403505567
 30
0.0
 11
55.04221254812228
 21
15.05155403505563
 31
0.0
  0
LINE
  5
3264
330
322C
100
AcDbEntity
  8
0
 62
     0
100
AcDbLine
 10
49.64376692784151
 20
20.44999965533646
 30
0.0
 11
47.13958538623768
 21
22.95418119694023
 31
0.0
  0
LINE
  5
3265
330
322C
100
AcDbEntity
  8
0
 62
     0
100
AcDbLine
 10
62.63003293404489
 20
7.463733649133075
 30
0.0
 11
60.14376692784151
 21
9.949999655336398
 31
0.0
  0
LINE
  5
3266
330
322C
100
AcDbEntity
  8
0
 62
     0
100
AcDbLine
 10
57.84221254812223
 20
11.35352842294873
 30
0.0
 11
55.04221254812233
 21
14.15352842294862
 31
0.0
  0
LINE
  5
3267
330
322C
100
AcDbEntity
  8
0
 62
     0
100
AcDbLine
 10
48.7675311437527
 20
20.42820982731825
 30
0.0
 11
46.5969844490275
 21
22.59875652204346
 31
0.0
  0
LINE
  5
3268
330
322C
100
AcDbEntity
  8
0
 62
     0
100
AcDbLine
 10
61.97362037413359
 20
7.222120596937429
 30
0.0
 11
59.24574131573462
 21
9.949999655336398
 31
0.0
  0
LINE
  5
3269
330
322C
100
AcDbEntity
  8
0
 62
     0
100
AcDbLine
 10
48.39221254812236
 20
19.90550281084165
 30
0.0
 11
46.15887238998294
 21
22.13884296898107
 31
0.0
  0
LINE
  5
326A
330
322C
100
AcDbEntity
  8
0
 62
     0
100
AcDbLine
 10
61.14771570362774
 20
7.14999965533633
 30
0.0
 11
55.04221254812233
 21
13.25550281084173
 31
0.0
  0
LINE
  5
326B
330
322C
100
AcDbEntity
  8
0
 62
     0
100
AcDbLine
 10
48.39221254812241
 20
19.00747719873482
 30
0.0
 11
45.82710147762992
 21
21.57258826922731
 31
0.0
  0
LINE
  5
326C
330
322C
100
AcDbEntity
  8
0
 62
     0
100
AcDbLine
 10
60.24969009152084
 20
7.14999965533633
 30
0.0
 11
55.0422125481224
 21
12.35747719873484
 31
0.0
  0
LINE
  5
326D
330
322C
100
AcDbEntity
  8
0
 62
     0
100
AcDbLine
 10
48.59875682922615
 20
17.90290730552414
 30
0.0
 11
45.62492295826581
 21
20.87674117648441
 31
0.0
  0
LINE
  5
326E
330
322C
100
AcDbEntity
  8
0
 62
     0
100
AcDbLine
 10
59.35166447941395
 20
7.14999965533633
 30
0.0
 11
55.04221254812233
 21
11.45945158662795
 31
0.0
  0
LINE
  5
326F
330
322C
100
AcDbEntity
  8
0
 62
     0
100
AcDbLine
 10
52.81581625081367
 20
12.78782227182967
 30
0.0
 11
45.59221254812229
 21
20.01142597452099
 31
0.0
  0
LINE
  5
3270
330
322C
100
AcDbEntity
  8
0
 62
     0
100
AcDbLine
 10
43.49221254812221
 20
22.11142597452107
 30
0.0
 11
42.35363886730692
 21
23.24999965533641
 31
0.0
  0
LINE
  5
3271
330
322C
100
AcDbEntity
  8
0
 62
     0
100
AcDbLine
 10
58.45363886730701
 20
7.14999965533633
 30
0.0
 11
55.04221254812233
 21
10.561425974521
 31
0.0
  0
LINE
  5
3272
330
322C
100
AcDbEntity
  8
0
 62
     0
100
AcDbLine
 10
52.94221254812237
 20
11.76340036241413
 30
0.0
 11
45.59221254812235
 21
19.11340036241415
 31
0.0
  0
LINE
  5
3273
330
322C
100
AcDbEntity
  8
0
 62
     0
100
AcDbLine
 10
43.49221254812232
 20
21.21340036241412
 30
0.0
 11
41.45561325519998
 21
23.24999965533653
 31
0.0
  0
LINE
  5
3274
330
322C
100
AcDbEntity
  8
0
 62
     0
100
AcDbLine
 10
57.53916537645523
 20
7.166447534081271
 30
0.0
 11
55.05866042686722
 21
9.646952483669281
 31
0.0
  0
LINE
  5
3275
330
322C
100
AcDbEntity
  8
0
 62
     0
100
AcDbLine
 10
43.49221254812232
 20
20.31537475030723
 30
0.0
 11
40.784822660347
 21
23.02276463808249
 31
0.0
  0
LINE
  5
3276
330
322C
100
AcDbEntity
  8
0
 62
     0
100
AcDbLine
 10
52.94221254812232
 20
10.86537475030718
 30
0.0
 11
45.61562321600468
 21
18.19196408242487
 31
0.0
  0
LINE
  5
3277
330
322C
100
AcDbEntity
  8
0
 62
     0
100
AcDbLine
 10
43.49221254812232
 20
19.41734913820028
 30
0.0
 11
40.69221254812231
 21
22.21734913820023
 31
0.0
  0
LINE
  5
3278
330
322C
100
AcDbEntity
  8
0
 62
     0
100
AcDbLine
 10
52.9422125481222
 20
9.967349138200347
 30
0.0
 11
45.9337426338447
 21
16.9758190524779
 31
0.0
  0
LINE
  5
3279
330
322C
100
AcDbEntity
  8
0
 62
     0
100
AcDbLine
 10
43.49221254812232
 20
18.51932352609338
 30
0.0
 11
40.69221254812236
 21
21.31932352609334
 31
0.0
  0
LINE
  5
327A
330
322C
100
AcDbEntity
  8
0
 62
     0
100
AcDbLine
 10
52.83365073053324
 20
9.177885343682476
 30
0.0
 11
50.13801594149493
 21
11.87352013272078
 31
0.0
  0
LINE
  5
327B
330
322C
100
AcDbEntity
  8
0
 62
     0
100
AcDbLine
 10
43.49221254812232
 20
17.62129791398649
 30
0.0
 11
40.69221254812231
 21
20.42129791398645
 31
0.0
  0
LINE
  5
327C
330
322C
100
AcDbEntity
  8
0
 62
     0
100
AcDbLine
 10
38.4007256475453
 20
22.71278481456346
 30
0.0
 11
37.8635108067723
 21
23.24999965533653
 31
0.0
  0
LINE
  5
327D
330
322C
100
AcDbEntity
  8
0
 62
     0
100
AcDbLine
 10
52.56577502277167
 20
8.547735439337145
 30
0.0
 11
50.14221254812236
 21
10.97129791398646
 31
0.0
  0
LINE
  5
327E
330
322C
100
AcDbEntity
  8
0
 62
     0
100
AcDbLine
 10
43.49221254812227
 20
16.72327230187955
 30
0.0
 11
40.69221254812231
 21
19.52327230187956
 31
0.0
  0
LINE
  5
327F
330
322C
100
AcDbEntity
  8
0
 62
     0
100
AcDbLine
 10
38.20179798329269
 20
22.01368686670912
 30
0.0
 11
36.96548519466541
 21
23.24999965533647
 31
0.0
  0
LINE
  5
3280
330
322C
100
AcDbEntity
  8
0
 62
     0
100
AcDbLine
 10
52.18278822459637
 20
8.032696625405492
 30
0.0
 11
50.04492736523587
 21
10.17055748476599
 31
0.0
  0
LINE
  5
3281
330
322C
100
AcDbEntity
  8
0
 62
     0
100
AcDbLine
 10
43.49221254812227
 20
15.82524668977265
 30
0.0
 11
40.69221254812231
 21
18.62524668977261
 31
0.0
  0
LINE
  5
3282
330
322C
100
AcDbEntity
  8
0
 62
     0
100
AcDbLine
 10
37.986271836387
 20
21.33118740150786
 30
0.0
 11
36.07705627291642
 21
23.2404029649785
 31
0.0
  0
LINE
  5
3283
330
322C
100
AcDbEntity
  8
0
 62
     0
100
AcDbLine
 10
51.69646925948075
 20
7.620989978414115
 30
0.0
 11
49.36745958255852
 21
9.949999655336398
 31
0.0
  0
LINE
  5
3284
330
322C
100
AcDbEntity
  8
0
 62
     0
100
AcDbLine
 10
43.49221254812232
 20
14.92722107766576
 30
0.0
 11
40.69221254812231
 21
17.72722107766572
 31
0.0
  0
LINE
  5
3285
330
322C
100
AcDbEntity
  8
0
 62
     0
100
AcDbLine
 10
37.77074568948149
 20
20.6486879363066
 30
0.0
 11
35.64274568948145
 21
22.77668793630664
 31
0.0
  0
LINE
  5
3286
330
322C
100
AcDbEntity
  8
0
 62
     0
100
AcDbLine
 10
51.10038531102038
 20
7.319048314767655
 30
0.0
 11
48.46943397045163
 21
9.949999655336455
 31
0.0
  0
LINE
  5
3287
330
322C
100
AcDbEntity
  8
0
 62
     0
100
AcDbLine
 10
43.49221254812227
 20
14.02919546555887
 30
0.0
 11
40.69221254812231
 21
16.82919546555882
 31
0.0
  0
LINE
  5
3288
330
322C
100
AcDbEntity
  8
0
 62
     0
100
AcDbLine
 10
37.55521954257563
 20
19.96618847110551
 30
0.0
 11
35.42721954257564
 21
22.0941884711055
 31
0.0
  0
LINE
  5
3289
330
322C
100
AcDbEntity
  8
0
 62
     0
100
AcDbLine
 10
50.36271265937291
 20
7.158695354308235
 30
0.0
 11
47.57140835834474
 21
9.949999655336398
 31
0.0
  0
LINE
  5
328A
330
322C
100
AcDbEntity
  8
0
 62
     0
100
AcDbLine
 10
43.49221254812227
 20
13.13116985345192
 30
0.0
 11
40.69221254812226
 21
15.93116985345188
 31
0.0
  0
LINE
  5
328B
330
322C
100
AcDbEntity
  8
0
 62
     0
100
AcDbLine
 10
37.33969339567006
 20
19.28368900590413
 30
0.0
 11
35.21169339566995
 21
21.41168900590418
 31
0.0
  0
LINE
  5
328C
330
322C
100
AcDbEntity
  8
0
 62
     0
100
AcDbLine
 10
49.47338274623786
 20
7.14999965533633
 30
0.0
 11
46.67338274623779
 21
9.949999655336398
 31
0.0
  0
LINE
  5
328D
330
322C
100
AcDbEntity
  8
0
 62
     0
100
AcDbLine
 10
43.49221254812227
 20
12.23314424134503
 30
0.0
 11
40.69221254812231
 21
15.03314424134504
 31
0.0
  0
LINE
  5
328E
330
322C
100
AcDbEntity
  8
0
 62
     0
100
AcDbLine
 10
37.12416724876448
 20
18.60118954070287
 30
0.0
 11
34.99616724876432
 21
20.72918954070297
 31
0.0
  0
LINE
  5
328F
330
322C
100
AcDbEntity
  8
0
 62
     0
100
AcDbLine
 10
48.57535713413096
 20
7.149999655336387
 30
0.0
 11
46.14174543683458
 21
9.583611352632772
 31
0.0
  0
LINE
  5
3290
330
322C
100
AcDbEntity
  8
0
 62
     0
100
AcDbLine
 10
36.90864110185874
 20
17.91869007550167
 30
0.0
 11
34.78064110185869
 21
20.04669007550171
 31
0.0
  0
LINE
  5
3291
330
322C
100
AcDbEntity
  8
0
 62
     0
100
AcDbLine
 10
43.49221254812227
 20
11.33511862923814
 30
0.0
 11
40.69221254812231
 21
14.13511862923809
 31
0.0
  0
LINE
  5
3292
330
322C
100
AcDbEntity
  8
0
 62
     0
100
AcDbLine
 10
32.6422125481223
 20
22.1851186292381
 30
0.0
 11
31.577331522024
 21
23.24999965533635
 31
0.0
  0
LINE
  5
3293
330
322C
100
AcDbEntity
  8
0
 62
     0
100
AcDbLine
 10
47.67733152202407
 20
7.14999965533633
 30
0.0
 11
46.11721254812232
 21
8.710118629238081
 31
0.0
  0
LINE
  5
3294
330
322C
100
AcDbEntity
  8
0
 62
     0
100
AcDbLine
 10
36.69311495495305
 20
17.23619061030041
 30
0.0
 11
34.56511495495306
 21
19.3641906103004
 31
0.0
  0
LINE
  5
3295
330
322C
100
AcDbEntity
  8
0
 62
     0
100
AcDbLine
 10
43.49221254812227
 20
10.43709301713119
 30
0.0
 11
40.69221254812226
 21
13.2370930171312
 31
0.0
  0
LINE
  5
3296
330
322C
100
AcDbEntity
  8
0
 62
     0
100
AcDbLine
 10
32.6422125481223
 20
21.28709301713116
 30
0.0
 11
30.67930590991711
 21
23.24999965533635
 31
0.0
  0
LINE
  5
3297
330
322C
100
AcDbEntity
  8
0
 62
     0
100
AcDbLine
 10
46.77930590991707
 20
7.149999655336387
 30
0.0
 11
46.11721254812226
 21
7.812093017131132
 31
0.0
  0
LINE
  5
3298
330
322C
100
AcDbEntity
  8
0
 62
     0
100
AcDbLine
 10
36.47758880804736
 20
16.55369114509915
 30
0.0
 11
34.34958880804732
 21
18.68169114509919
 31
0.0
  0
LINE
  5
3299
330
322C
100
AcDbEntity
  8
0
 62
     0
100
AcDbLine
 10
32.64221254812225
 20
20.38906740502421
 30
0.0
 11
29.96676761922464
 21
23.06451233392187
 31
0.0
  0
LINE
  5
329A
330
322C
100
AcDbEntity
  8
0
 62
     0
100
AcDbLine
 10
43.49221254812221
 20
9.539067405024297
 30
0.0
 11
40.69221254812226
 21
12.33906740502425
 31
0.0
  0
LINE
  5
329B
330
322C
100
AcDbEntity
  8
0
 62
     0
100
AcDbLine
 10
36.26206266114173
 20
15.87119167989795
 30
0.0
 11
34.13406266114174
 21
17.99919167989793
 31
0.0
  0
LINE
  5
329C
330
322C
100
AcDbEntity
  8
0
 62
     0
100
AcDbLine
 10
32.6422125481223
 20
19.49104179291737
 30
0.0
 11
29.84221254812224
 21
22.29104179291738
 31
0.0
  0
LINE
  5
329D
330
322C
100
AcDbEntity
  8
0
 62
     0
100
AcDbLine
 10
43.49221254812227
 20
8.641041792917405
 30
0.0
 11
40.69221254812226
 21
11.44104179291736
 31
0.0
  0
LINE
  5
329E
330
322C
100
AcDbEntity
  8
0
 62
     0
100
AcDbLine
 10
36.05697415174984
 20
15.17825457718288
 30
0.0
 11
33.918536514236
 21
17.31669221469673
 31
0.0
  0
LINE
  5
329F
330
322C
100
AcDbEntity
  8
0
 62
     0
100
AcDbLine
 10
32.6422125481223
 20
18.59301618081042
 30
0.0
 11
29.84221254812224
 21
21.39301618081049
 31
0.0
  0
LINE
  5
32A0
330
322C
100
AcDbEntity
  8
0
 62
     0
100
AcDbLine
 10
43.49221254812221
 20
7.743016180810457
 30
0.0
 11
40.69221254812226
 21
10.54301618081047
 31
0.0
  0
LINE
  5
32A1
330
322C
100
AcDbEntity
  8
0
 62
     0
100
AcDbLine
 10
36.47144751118384
 20
13.86575560564194
 30
0.0
 11
33.62798901855138
 21
16.7092140982744
 31
0.0
  0
LINE
  5
32A2
330
322C
100
AcDbEntity
  8
0
 62
     0
100
AcDbLine
 10
32.64221254812236
 20
17.69499056870342
 30
0.0
 11
29.84221254812218
 21
20.49499056870354
 31
0.0
  0
LINE
  5
32A3
330
322C
100
AcDbEntity
  8
0
 62
     0
100
AcDbLine
 10
43.15316755078987
 20
7.184035566035845
 30
0.0
 11
40.69221254812231
 21
9.644990568703462
 31
0.0
  0
LINE
  5
32A4
330
322C
100
AcDbEntity
  8
0
 62
     0
100
AcDbLine
 10
36.8859208706179
 20
12.55325663410104
 30
0.0
 11
29.84221254812224
 21
19.5969649565967
 31
0.0
  0
LINE
  5
32A5
330
322C
100
AcDbEntity
  8
0
 62
     0
100
AcDbLine
 10
27.39221254812236
 20
22.04696495659658
 30
0.0
 11
26.18917784938259
 21
23.24999965533635
 31
0.0
  0
LINE
  5
32A6
330
322C
100
AcDbEntity
  8
0
 62
     0
100
AcDbLine
 10
42.28917784938255
 20
7.149999655336387
 30
0.0
 11
40.69221254812236
 21
8.746964956596571
 31
0.0
  0
LINE
  5
32A7
330
322C
100
AcDbEntity
  8
0
 62
     0
100
AcDbLine
 10
37.30039423005178
 20
11.24075766256015
 30
0.0
 11
29.84221254812224
 21
18.69893934448976
 31
0.0
  0
LINE
  5
32A8
330
322C
100
AcDbEntity
  8
0
 62
     0
100
AcDbLine
 10
27.39221254812236
 20
21.14893934448963
 30
0.0
 11
25.29115223727558
 21
23.24999965533641
 31
0.0
  0
LINE
  5
32A9
330
322C
100
AcDbEntity
  8
0
 62
     0
100
AcDbLine
 10
41.39115223727555
 20
7.149999655336443
 30
0.0
 11
40.69221254812231
 21
7.848939344489679
 31
0.0
  0
LINE
  5
32AA
330
322C
100
AcDbEntity
  8
0
 62
     0
100
AcDbLine
 10
27.12530585273225
 20
20.51782042777279
 30
0.0
 11
24.42508413452083
 21
23.21804214598416
 31
0.0
  0
LINE
  5
32AB
330
322C
100
AcDbEntity
  8
0
 62
     0
100
AcDbLine
 10
37.71486758948572
 20
9.928258691019323
 30
0.0
 11
29.84221254812229
 21
17.80091373238275
 31
0.0
  0
LINE
  5
32AC
330
322C
100
AcDbEntity
  8
0
 62
     0
100
AcDbLine
 10
32.97972147046392
 20
13.76537919793423
 30
0.0
 11
29.84221254812229
 21
16.90288812027586
 31
0.0
  0
LINE
  5
32AD
330
322C
100
AcDbEntity
  8
0
 62
     0
100
AcDbLine
 10
26.29510101306181
 20
20.44999965533628
 30
0.0
 11
23.68704106493357
 21
23.05805960346459
 31
0.0
  0
LINE
  5
32AE
330
322C
100
AcDbEntity
  8
0
 62
     0
100
AcDbLine
 10
38.12934094891972
 20
8.615759719478432
 30
0.0
 11
34.03703325661183
 21
12.70806741178626
 31
0.0
  0
LINE
  5
32AF
330
322C
100
AcDbEntity
  8
0
 62
     0
100
AcDbLine
 10
32.64221254812236
 20
13.2048625081689
 30
0.0
 11
29.84221254812229
 21
16.00486250816897
 31
0.0
  0
LINE
  5
32B0
330
322C
100
AcDbEntity
  8
0
 62
     0
100
AcDbLine
 10
25.39707540095481
 20
20.4499996553364
 30
0.0
 11
23.04831964910284
 21
22.79875540718837
 31
0.0
  0
LINE
  5
32B1
330
322C
100
AcDbEntity
  8
0
 62
     0
100
AcDbLine
 10
38.36437980663033
 20
7.482695249660878
 30
0.0
 11
34.45150661604578
 21
11.39556844024548
 31
0.0
  0
LINE
  5
32B2
330
322C
100
AcDbEntity
  8
0
 62
     0
100
AcDbLine
 10
32.6422125481223
 20
12.30683689606201
 30
0.0
 11
29.84221254812224
 21
15.10683689606202
 31
0.0
  0
LINE
  5
32B3
330
322C
100
AcDbEntity
  8
0
 62
     0
100
AcDbLine
 10
24.55396189841128
 20
20.39508754577304
 30
0.0
 11
22.4895706737683
 21
22.45947877041601
 31
0.0
  0
LINE
  5
32B4
330
322C
100
AcDbEntity
  8
0
 62
     0
100
AcDbLine
 10
37.79904978884798
 20
7.14999965533633
 30
0.0
 11
34.86597997547972
 21
10.08306946870459
 31
0.0
  0
LINE
  5
32B5
330
322C
100
AcDbEntity
  8
0
 62
     0
100
AcDbLine
 10
32.6422125481223
 20
11.40881128395506
 30
0.0
 11
29.84221254812224
 21
14.20881128395513
 31
0.0
  0
LINE
  5
32B6
330
322C
100
AcDbEntity
  8
0
 62
     0
100
AcDbLine
 10
23.98210570557228
 20
20.06891812650508
 30
0.0
 11
22.00191546515652
 21
22.04910836692085
 31
0.0
  0
LINE
  5
32B7
330
322C
100
AcDbEntity
  8
0
 62
     0
100
AcDbLine
 10
36.90102417674103
 20
7.14999965533633
 30
0.0
 11
35.28045333491377
 21
8.770570497163589
 31
0.0
  0
LINE
  5
32B8
330
322C
100
AcDbEntity
  8
0
 62
     0
100
AcDbLine
 10
27.72764168092005
 20
15.42535653905048
 30
0.0
 11
26.2175694318363
 21
16.93542878813423
 31
0.0
  0
LINE
  5
32B9
330
322C
100
AcDbEntity
  8
0
 62
     0
100
AcDbLine
 10
32.64221254812242
 20
10.51078567184811
 30
0.0
 11
29.84221254812229
 21
13.31078567184823
 31
0.0
  0
LINE
  5
32BA
330
322C
100
AcDbEntity
  8
0
 62
     0
100
AcDbLine
 10
23.62598413544333
 20
19.52701408452719
 30
0.0
 11
21.58254943914528
 21
21.57044878082524
 31
0.0
  0
LINE
  5
32BB
330
322C
100
AcDbEntity
  8
0
 62
     0
100
AcDbLine
 10
35.95266556042953
 20
7.200332659541004
 30
0.0
 11
35.70231138883821
 21
7.450686831132316
 31
0.0
  0
LINE
  5
32BC
330
322C
100
AcDbEntity
  8
0
 62
     0
100
AcDbLine
 10
27.64112802077813
 20
14.61384458708545
 30
0.0
 11
25.40605747987127
 21
16.84891512799231
 31
0.0
  0
LINE
  5
32BD
330
322C
100
AcDbEntity
  8
0
 62
     0
100
AcDbLine
 10
23.54221254812239
 20
18.71276005974118
 30
0.0
 11
21.23361041818362
 21
21.02136218967996
 31
0.0
  0
LINE
  5
32BE
330
322C
100
AcDbEntity
  8
0
 62
     0
100
AcDbLine
 10
32.64221254812236
 20
9.612760059741162
 30
0.0
 11
29.84221254812224
 21
12.41276005974134
 31
0.0
  0
LINE
  5
32BF
330
322C
100
AcDbEntity
  8
0
 62
     0
100
AcDbLine
 10
27.30927246148008
 20
14.04767453427649
 30
0.0
 11
24.83988742706231
 21
16.51705956869426
 31
0.0
  0
LINE
  5
32C0
330
322C
100
AcDbEntity
  8
0
 62
     0
100
AcDbLine
 10
23.54221254812239
 20
17.81473444763423
 30
0.0
 11
20.96303071097344
 21
20.39391628478319
 31
0.0
  0
LINE
  5
32C1
330
322C
100
AcDbEntity
  8
0
 62
     0
100
AcDbLine
 10
32.64221254812236
 20
8.71473444763427
 30
0.0
 11
29.84221254812229
 21
11.51473444763434
 31
0.0
  0
LINE
  5
32C2
330
322C
100
AcDbEntity
  8
0
 62
     0
100
AcDbLine
 10
23.54221254812239
 20
16.91670883552734
 30
0.0
 11
20.78831683804759
 21
19.6706045456022
 31
0.0
  0
LINE
  5
32C3
330
322C
100
AcDbEntity
  8
0
 62
     0
100
AcDbLine
 10
26.80743901934363
 20
13.65148236430616
 30
0.0
 11
24.44369525709197
 21
16.01522612655782
 31
0.0
  0
LINE
  5
32C4
330
322C
100
AcDbEntity
  8
0
 62
     0
100
AcDbLine
 10
18.11721254812232
 20
22.34170883552747
 30
0.0
 11
17.20892172831333
 21
23.24999965533647
 31
0.0
  0
LINE
  5
32C5
330
322C
100
AcDbEntity
  8
0
 62
     0
100
AcDbLine
 10
32.64221254812242
 20
7.816708835527379
 30
0.0
 11
29.84221254812235
 21
10.61670883552745
 31
0.0
  0
LINE
  5
32C6
330
322C
100
AcDbEntity
  8
0
 62
     0
100
AcDbLine
 10
23.54221254812239
 20
16.01868322342045
 30
0.0
 11
20.74221254812233
 21
18.81868322342052
 31
0.0
  0
LINE
  5
32C7
330
322C
100
AcDbEntity
  8
0
 62
     0
100
AcDbLine
 10
26.1071195769162
 20
13.45377619462664
 30
0.0
 11
24.24598908741245
 21
15.31490668413039
 31
0.0
  0
LINE
  5
32C8
330
322C
100
AcDbEntity
  8
0
 62
     0
100
AcDbLine
 10
18.11721254812226
 20
21.44368322342052
 30
0.0
 11
16.31089611620638
 21
23.24999965533641
 31
0.0
  0
LINE
  5
32C9
330
322C
100
AcDbEntity
  8
0
 62
     0
100
AcDbLine
 10
32.3543087468517
 20
7.206587024691145
 30
0.0
 11
29.84221254812229
 21
9.718683223420498
 31
0.0
  0
LINE
  5
32CA
330
322C
100
AcDbEntity
  8
0
 62
     0
100
AcDbLine
 10
23.54221254812239
 20
15.1206576113135
 30
0.0
 11
20.74221254812233
 21
17.92065761131357
 31
0.0
  0
LINE
  5
32CB
330
322C
100
AcDbEntity
  8
0
 62
     0
100
AcDbLine
 10
18.00817857785193
 20
20.65469158158396
 30
0.0
 11
15.41287050409937
 21
23.24999965533647
 31
0.0
  0
LINE
  5
32CC
330
322C
100
AcDbEntity
  8
0
 62
     0
100
AcDbLine
 10
31.51287050409951
 20
7.149999655336387
 30
0.0
 11
29.84221254812229
 21
8.820657611313606
 31
0.0
  0
LINE
  5
32CD
330
322C
100
AcDbEntity
  8
0
 62
     0
100
AcDbLine
 10
23.54221254812234
 20
14.22263199920661
 30
0.0
 11
20.74221254812227
 21
17.02263199920662
 31
0.0
  0
LINE
  5
32CE
330
322C
100
AcDbEntity
  8
0
 62
     0
100
AcDbLine
 10
17.31484489199255
 20
20.4499996553364
 30
0.0
 11
14.51484489199248
 21
23.24999965533647
 31
0.0
  0
LINE
  5
32CF
330
322C
100
AcDbEntity
  8
0
 62
     0
100
AcDbLine
 10
30.61484489199256
 20
7.14999965533633
 30
0.0
 11
29.84221254812229
 21
7.922631999206657
 31
0.0
  0
LINE
  5
32D0
330
322C
100
AcDbEntity
  8
0
 62
     0
100
AcDbLine
 10
23.54221254812245
 20
13.32460638709966
 30
0.0
 11
20.74221254812233
 21
16.12460638709979
 31
0.0
  0
LINE
  5
32D1
330
322C
100
AcDbEntity
  8
0
 62
     0
100
AcDbLine
 10
16.41681927988566
 20
20.44999965533646
 30
0.0
 11
13.65169000778081
 21
23.2151289274413
 31
0.0
  0
LINE
  5
32D2
330
322C
100
AcDbEntity
  8
0
 62
     0
100
AcDbLine
 10
27.38961009928539
 20
9.477208835936664
 30
0.0
 11
26.91942172872269
 21
9.947397206499431
 31
0.0
  0
LINE
  5
32D3
330
322C
100
AcDbEntity
  8
0
 62
     0
100
AcDbLine
 10
23.54221254812245
 20
12.42658077499271
 30
0.0
 11
20.74221254812233
 21
15.22658077499284
 31
0.0
  0
LINE
  5
32D4
330
322C
100
AcDbEntity
  8
0
 62
     0
100
AcDbLine
 10
15.51879366777871
 20
20.4499996553364
 30
0.0
 11
12.95855519930234
 21
23.01023812381282
 31
0.0
  0
LINE
  5
32D5
330
322C
100
AcDbEntity
  8
0
 62
     0
100
AcDbLine
 10
27.39221254812242
 20
8.576580774992748
 30
0.0
 11
26.01879366777877
 21
9.949999655336398
 31
0.0
  0
LINE
  5
32D6
330
322C
100
AcDbEntity
  8
0
 62
     0
100
AcDbLine
 10
23.54221254812239
 20
11.52855516288576
 30
0.0
 11
20.74221254812238
 21
14.32855516288583
 31
0.0
  0
LINE
  5
32D7
330
322C
100
AcDbEntity
  8
0
 62
     0
100
AcDbLine
 10
14.62076805567187
 20
20.44999965533628
 30
0.0
 11
12.39430853945509
 21
22.67645917155306
 31
0.0
  0
LINE
  5
32D8
330
322C
100
AcDbEntity
  8
0
 62
     0
100
AcDbLine
 10
27.39221254812236
 20
7.6785551628858
 30
0.0
 11
25.12076805567188
 21
9.949999655336284
 31
0.0
  0
LINE
  5
32D9
330
322C
100
AcDbEntity
  8
0
 62
     0
100
AcDbLine
 10
14.11047522805728
 20
20.0622668708441
 30
0.0
 11
11.93621572721434
 21
22.23652637168703
 31
0.0
  0
LINE
  5
32DA
330
322C
100
AcDbEntity
  8
0
 62
     0
100
AcDbLine
 10
27.00447976363
 20
7.168262335271379
 30
0.0
 11
20.74221254812238
 21
13.430529550779
 31
0.0
  0
LINE
  5
32DB
330
322C
100
AcDbEntity
  8
0
 62
     0
100
AcDbLine
 10
14.09221254812235
 20
19.18250393867208
 30
0.0
 11
11.58273452474526
 21
21.69198196204917
 31
0.0
  0
LINE
  5
32DC
330
322C
100
AcDbEntity
  8
0
 62
     0
100
AcDbLine
 10
26.1247168314581
 20
7.14999965533633
 30
0.0
 11
20.74221254812238
 21
12.53250393867205
 31
0.0
  0
LINE
  5
32DD
330
322C
100
AcDbEntity
  8
0
 62
     0
100
AcDbLine
 10
14.15434825625778
 20
18.22234261842965
 30
0.0
 11
11.35185442245154
 21
21.02483645223594
 31
0.0
  0
LINE
  5
32DE
330
322C
100
AcDbEntity
  8
0
 62
     0
100
AcDbLine
 10
25.2266912193511
 20
7.149999655336387
 30
0.0
 11
20.74221254812233
 21
11.6344783265651
 31
0.0
  0
LINE
  5
32DF
330
322C
100
AcDbEntity
  8
0
 62
     0
100
AcDbLine
 10
18.44658863934501
 20
13.03207662323558
 30
0.0
 11
11.29221254812239
 21
20.1864527144582
 31
0.0
  0
LINE
  5
32E0
330
322C
100
AcDbEntity
  8
0
 62
     0
100
AcDbLine
 10
24.27539352018755
 20
7.203271742393042
 30
0.0
 11
20.79548463517898
 21
10.68318062740161
 31
0.0
  0
LINE
  5
32E1
330
322C
100
AcDbEntity
  8
0
 62
     0
100
AcDbLine
 10
18.63848315343023
 20
11.94215649704347
 30
0.0
 11
11.29221254812228
 21
19.28842710235142
 31
0.0
  0
LINE
  5
32E2
330
322C
100
AcDbEntity
  8
0
 62
     0
100
AcDbLine
 10
22.90158560758596
 20
7.679054042887685
 30
0.0
 11
21.27126693567356
 21
9.309372714800133
 31
0.0
  0
LINE
  5
32E3
330
322C
100
AcDbEntity
  8
0
 62
     0
100
AcDbLine
 10
18.64221254812241
 20
11.04040149024433
 30
0.0
 11
11.29977699554467
 21
18.38283704282202
 31
0.0
  0
LINE
  5
32E4
330
322C
100
AcDbEntity
  8
0
 62
     0
100
AcDbLine
 10
18.6422125481223
 20
10.1423758781375
 30
0.0
 11
11.52306775386853
 21
17.26152067239121
 31
0.0
  0
LINE
  5
32E5
330
322C
100
AcDbEntity
  8
0
 62
     0
100
AcDbLine
 10
18.56969255199038
 20
9.316870262162581
 30
0.0
 11
15.80630090837132
 21
12.08026190578164
 31
0.0
  0
LINE
  5
32E6
330
322C
100
AcDbEntity
  8
0
 62
     0
100
AcDbLine
 10
18.32775461296154
 20
8.660782589084476
 30
0.0
 11
15.84221254812229
 21
11.14632465392372
 31
0.0
  0
LINE
  5
32E7
330
322C
100
AcDbEntity
  8
0
 62
     0
100
AcDbLine
 10
17.96563536557977
 20
8.124876224359297
 30
0.0
 11
15.80631351582161
 21
10.28419807411745
 31
0.0
  0
LINE
  5
32E8
330
322C
100
AcDbEntity
  8
0
 62
     0
100
AcDbLine
 10
17.4994089933129
 20
7.693076984519279
 30
0.0
 11
15.24248632249578
 21
9.949999655336455
 31
0.0
  0
LINE
  5
32E9
330
322C
100
AcDbEntity
  8
0
 62
     0
100
AcDbLine
 10
16.92614454558009
 20
7.368315820145198
 30
0.0
 11
14.34446071038883
 21
9.949999655336398
 31
0.0
  0
LINE
  5
32EA
330
322C
100
AcDbEntity
  8
0
 62
     0
100
AcDbLine
 10
16.22073195649415
 20
7.175702797124188
 30
0.0
 11
13.44643509828194
 21
9.949999655336398
 31
0.0
  0
LINE
  5
32EB
330
322C
100
AcDbEntity
  8
0
 62
     0
100
AcDbLine
 10
15.348409486175
 20
7.149999655336387
 30
0.0
 11
12.54840948617499
 21
9.949999655336398
 31
0.0
  0
LINE
  5
32EC
330
322C
100
AcDbEntity
  8
0
 62
     0
100
AcDbLine
 10
14.45038387406816
 20
7.14999965533633
 30
0.0
 11
11.89705997925028
 21
9.703323550154266
 31
0.0
  0
LINE
  5
32ED
330
322C
100
AcDbEntity
  8
0
 62
     0
100
AcDbLine
 10
13.55235826196116
 20
7.149999655336387
 30
0.0
 11
11.81721254812237
 21
8.885145369175177
 31
0.0
  0
LINE
  5
32EE
330
322C
100
AcDbEntity
  8
0
 62
     0
100
AcDbLine
 10
12.65433264985432
 20
7.14999965533633
 30
0.0
 11
11.81721254812237
 21
7.987119757068285
 31
0.0
  0
LINE
  5
32EF
330
322C
100
AcDbEntity
  8
0
 62
     0
100
AcDbLine
 10
68.63389983278927
 20
7.163131432453894
 30
0.0
 11
69.02908077100505
 21
7.558312370669682
 31
0.0
  0
LINE
  5
32F0
330
322C
100
AcDbEntity
  8
0
 62
     0
100
AcDbLine
 10
67.72274244356492
 20
7.14999965533633
 30
0.0
 11
69.04221254812251
 21
8.469469759893968
 31
0.0
  0
LINE
  5
32F1
330
322C
100
AcDbEntity
  8
0
 62
     0
100
AcDbLine
 10
66.82471683145798
 20
7.149999655336387
 30
0.0
 11
69.04221254812251
 21
9.36749537200086
 31
0.0
  0
LINE
  5
32F2
330
322C
100
AcDbEntity
  8
0
 62
     0
100
AcDbLine
 10
66.27341011137417
 20
7.496718547359478
 30
0.0
 11
69.04221254812245
 21
10.26552098410781
 31
0.0
  0
LINE
  5
32F3
330
322C
100
AcDbEntity
  8
0
 62
     0
100
AcDbLine
 10
66.24221254812238
 20
8.363546596214632
 30
0.0
 11
69.04221254812245
 21
11.16354659621464
 31
0.0
  0
LINE
  5
32F4
330
322C
100
AcDbEntity
  8
0
 62
     0
100
AcDbLine
 10
66.24221254812244
 20
9.261572208321524
 30
0.0
 11
69.04221254812245
 21
12.06157220832159
 31
0.0
  0
LINE
  5
32F5
330
322C
100
AcDbEntity
  8
0
 62
     0
100
AcDbLine
 10
66.24221254812238
 20
10.15959782042847
 30
0.0
 11
69.04221254812245
 21
12.95959782042854
 31
0.0
  0
LINE
  5
32F6
330
322C
100
AcDbEntity
  8
0
 62
     0
100
AcDbLine
 10
66.24221254812238
 20
11.05762343253536
 30
0.0
 11
69.04221254812245
 21
13.85762343253543
 31
0.0
  0
LINE
  5
32F7
330
322C
100
AcDbEntity
  8
0
 62
     0
100
AcDbLine
 10
62.66877741018766
 20
7.484188294600642
 30
0.0
 11
63.80802390885822
 21
8.623434793271258
 31
0.0
  0
LINE
  5
32F8
330
322C
100
AcDbEntity
  8
0
 62
     0
100
AcDbLine
 10
66.24221254812238
 20
11.95564904464226
 30
0.0
 11
69.04221254812245
 21
14.75564904464232
 31
0.0
  0
LINE
  5
32F9
330
322C
100
AcDbEntity
  8
0
 62
     0
100
AcDbLine
 10
61.43820924366486
 20
7.151645740184733
 30
0.0
 11
64.14056646327418
 21
9.854002959794001
 31
0.0
  0
LINE
  5
32FA
330
322C
100
AcDbEntity
  8
0
 62
     0
100
AcDbLine
 10
66.24221254812238
 20
12.8536746567492
 30
0.0
 11
69.04221254812245
 21
15.65367465674922
 31
0.0
  0
LINE
  5
32FB
330
322C
100
AcDbEntity
  8
0
 62
     0
100
AcDbLine
 10
60.53853754670962
 20
7.149999655336443
 30
0.0
 11
64.14221254812247
 21
10.75367465674924
 31
0.0
  0
LINE
  5
32FC
330
322C
100
AcDbEntity
  8
0
 62
     0
100
AcDbLine
 10
66.24221254812238
 20
13.7517002688561
 30
0.0
 11
69.04221254812239
 21
16.55170026885616
 31
0.0
  0
LINE
  5
32FD
330
322C
100
AcDbEntity
  8
0
 62
     0
100
AcDbLine
 10
59.64051193460267
 20
7.149999655336443
 30
0.0
 11
64.14221254812241
 21
11.65170026885619
 31
0.0
  0
LINE
  5
32FE
330
322C
100
AcDbEntity
  8
0
 62
     0
100
AcDbLine
 10
66.24221254812238
 20
14.64972588096299
 30
0.0
 11
69.04221254812245
 21
17.44972588096306
 31
0.0
  0
LINE
  5
32FF
330
322C
100
AcDbEntity
  8
0
 62
     0
100
AcDbLine
 10
58.74248632249572
 20
7.14999965533633
 30
0.0
 11
64.14221254812247
 21
12.54972588096308
 31
0.0
  0
LINE
  5
3300
330
322C
100
AcDbEntity
  8
0
 62
     0
100
AcDbLine
 10
61.23762134604135
 20
10.54316029098891
 30
0.0
 11
64.14221254812247
 21
13.44775149306997
 31
0.0
  0
LINE
  5
3301
330
322C
100
AcDbEntity
  8
0
 62
     0
100
AcDbLine
 10
66.24221254812238
 20
15.54775149306988
 30
0.0
 11
69.04221254812245
 21
18.34775149306995
 31
0.0
  0
LINE
  5
3302
330
322C
100
AcDbEntity
  8
0
 62
     0
100
AcDbLine
 10
57.84446071038889
 20
7.149999655336443
 30
0.0
 11
60.74905191246983
 21
10.05459085741734
 31
0.0
  0
LINE
  5
3303
330
322C
100
AcDbEntity
  8
0
 62
     0
100
AcDbLine
 10
61.34221254812229
 20
11.54577710517679
 30
0.0
 11
64.14221254812241
 21
14.34577710517692
 31
0.0
  0
LINE
  5
3304
330
322C
100
AcDbEntity
  8
0
 62
     0
100
AcDbLine
 10
66.24221254812233
 20
16.44577710517683
 30
0.0
 11
69.04221254812239
 21
19.2457771051769
 31
0.0
  0
LINE
  5
3305
330
322C
100
AcDbEntity
  8
0
 62
     0
100
AcDbLine
 10
57.05838484965903
 20
7.261949406713483
 30
0.0
 11
59.74643509828195
 21
9.949999655336455
 31
0.0
  0
LINE
  5
3306
330
322C
100
AcDbEntity
  8
0
 62
     0
100
AcDbLine
 10
61.34221254812229
 20
12.44380271728369
 30
0.0
 11
64.14221254812241
 21
15.24380271728381
 31
0.0
  0
LINE
  5
3307
330
322C
100
AcDbEntity
  8
0
 62
     0
100
AcDbLine
 10
66.24221254812233
 20
17.34380271728378
 30
0.0
 11
69.04221254812239
 21
20.14380271728379
 31
0.0
  0
LINE
  5
3308
330
322C
100
AcDbEntity
  8
0
 62
     0
100
AcDbLine
 10
56.43039798244888
 20
7.531988151610335
 30
0.0
 11
58.84928727181932
 21
9.950877440980775
 31
0.0
  0
LINE
  5
3309
330
322C
100
AcDbEntity
  8
0
 62
     0
100
AcDbLine
 10
61.34221254812229
 20
13.34182832939058
 30
0.0
 11
64.14221254812241
 21
16.1418283293907
 31
0.0
  0
LINE
  5
330A
330
322C
100
AcDbEntity
  8
0
 62
     0
100
AcDbLine
 10
66.24221254812238
 20
18.24182832939061
 30
0.0
 11
69.04221254812239
 21
21.04182832939068
 31
0.0
  0
LINE
  5
330B
330
322C
100
AcDbEntity
  8
0
 62
     0
100
AcDbLine
 10
55.91713810108382
 20
7.916753882352054
 30
0.0
 11
58.20580868310663
 21
10.20542446437491
 31
0.0
  0
LINE
  5
330C
330
322C
100
AcDbEntity
  8
0
 62
     0
100
AcDbLine
 10
61.34221254812229
 20
14.23985394149747
 30
0.0
 11
64.14221254812241
 21
17.03985394149765
 31
0.0
  0
LINE
  5
330D
330
322C
100
AcDbEntity
  8
0
 62
     0
100
AcDbLine
 10
66.24221254812233
 20
19.13985394149756
 30
0.0
 11
69.04221254812239
 21
21.93985394149763
 31
0.0
  0
LINE
  5
330E
330
322C
100
AcDbEntity
  8
0
 62
     0
100
AcDbLine
 10
55.5071739258587
 20
8.404815319233875
 30
0.0
 11
57.86857040469721
 21
10.76621179807244
 31
0.0
  0
LINE
  5
330F
330
322C
100
AcDbEntity
  8
0
 62
     0
100
AcDbLine
 10
61.34221254812223
 20
15.13787955360442
 30
0.0
 11
64.14221254812241
 21
17.93787955360454
 31
0.0
  0
LINE
  5
3310
330
322C
100
AcDbEntity
  8
0
 62
     0
100
AcDbLine
 10
66.24221254812233
 20
20.03787955360445
 30
0.0
 11
69.03206339457193
 21
22.82773040005412
 31
0.0
  0
LINE
  5
3311
330
322C
100
AcDbEntity
  8
0
 62
     0
100
AcDbLine
 10
55.20724904742468
 20
9.002916052906869
 30
0.0
 11
57.84221254812229
 21
11.63787955360447
 31
0.0
  0
LINE
  5
3312
330
322C
100
AcDbEntity
  8
0
 62
     0
100
AcDbLine
 10
61.34221254812235
 20
16.03590516571137
 30
0.0
 11
64.14221254812241
 21
18.83590516571144
 31
0.0
  0
LINE
  5
3313
330
322C
100
AcDbEntity
  8
0
 62
     0
100
AcDbLine
 10
66.24221254812233
 20
20.93590516571135
 30
0.0
 11
68.55494904949245
 21
23.24864166708147
 31
0.0
  0
LINE
  5
3314
330
322C
100
AcDbEntity
  8
0
 62
     0
100
AcDbLine
 10
55.04983551246823
 20
9.743528130057256
 30
0.0
 11
57.84221254812234
 21
12.53590516571137
 31
0.0
  0
LINE
  5
3315
330
322C
100
AcDbEntity
  8
0
 62
     0
100
AcDbLine
 10
61.34221254812235
 20
16.93393077781832
 30
0.0
 11
64.14221254812241
 21
19.73393077781833
 31
0.0
  0
LINE
  5
3316
330
322C
100
AcDbEntity
  8
0
 62
     0
100
AcDbLine
 10
66.24221254812238
 20
21.83393077781835
 30
0.0
 11
67.6582814256405
 21
23.24999965533641
 31
0.0
  0
LINE
  5
3317
330
322C
100
AcDbEntity
  8
0
 62
     0
100
AcDbLine
 10
55.04221254812233
 20
10.63393077781831
 30
0.0
 11
57.84221254812241
 21
13.43393077781837
 31
0.0
  0
LINE
  5
3318
330
322C
100
AcDbEntity
  8
0
 62
     0
100
AcDbLine
 10
61.34221254812235
 20
17.83195638992521
 30
0.0
 11
64.14221254812236
 21
20.63195638992528
 31
0.0
  0
LINE
  5
3319
330
322C
100
AcDbEntity
  8
0
 62
     0
100
AcDbLine
 10
55.04221254812233
 20
11.5319563899252
 30
0.0
 11
57.84221254812234
 21
14.33195638992527
 31
0.0
  0
LINE
  5
331A
330
322C
100
AcDbEntity
  8
0
 62
     0
100
AcDbLine
 10
66.24225926286982
 20
22.73200310467274
 30
0.0
 11
66.7602090987861
 21
23.24995294058897
 31
0.0
  0
LINE
  5
331B
330
322C
100
AcDbEntity
  8
0
 62
     0
100
AcDbLine
 10
50.72065691741039
 20
7.210400759213257
 30
0.0
 11
52.88181144424555
 21
9.371555286048476
 31
0.0
  0
LINE
  5
331C
330
322C
100
AcDbEntity
  8
0
 62
     0
100
AcDbLine
 10
55.04221254812228
 20
12.42998200203215
 30
0.0
 11
57.84221254812234
 21
15.22998200203221
 31
0.0
  0
LINE
  5
331D
330
322C
100
AcDbEntity
  8
0
 62
     0
100
AcDbLine
 10
61.34221254812229
 20
18.72998200203216
 30
0.0
 11
64.14221254812236
 21
21.52998200203223
 31
0.0
  0
LINE
  5
331E
330
322C
100
AcDbEntity
  8
0
 62
     0
100
AcDbLine
 10
49.76223020142658
 20
7.149999655336443
 30
0.0
 11
52.94221254812232
 21
10.32998200203212
 31
0.0
  0
LINE
  5
331F
330
322C
100
AcDbEntity
  8
0
 62
     0
100
AcDbLine
 10
55.04221254812233
 20
13.32800761413904
 30
0.0
 11
57.84221254812241
 21
16.12800761413905
 31
0.0
  0
LINE
  5
3320
330
322C
100
AcDbEntity
  8
0
 62
     0
100
AcDbLine
 10
61.34221254812235
 20
19.62800761413899
 30
0.0
 11
64.14221254812241
 21
22.42800761413906
 31
0.0
  0
LINE
  5
3321
330
322C
100
AcDbEntity
  8
0
 62
     0
100
AcDbLine
 10
48.86420458931962
 20
7.14999965533633
 30
0.0
 11
52.94221254812242
 21
11.22800761413907
 31
0.0
  0
LINE
  5
3322
330
322C
100
AcDbEntity
  8
0
 62
     0
100
AcDbLine
 10
55.04221254812233
 20
14.22603322624593
 30
0.0
 11
57.84221254812234
 21
17.026033226246
 31
0.0
  0
LINE
  5
3323
330
322C
100
AcDbEntity
  8
0
 62
     0
100
AcDbLine
 10
61.34221254812229
 20
20.52603322624594
 30
0.0
 11
63.94847509328832
 21
23.13229577141198
 31
0.0
  0
LINE
  5
3324
330
322C
100
AcDbEntity
  8
0
 62
     0
100
AcDbLine
 10
47.96617897721273
 20
7.149999655336387
 30
0.0
 11
52.92789394770943
 21
12.11171462583308
 31
0.0
  0
LINE
  5
3325
330
322C
100
AcDbEntity
  8
0
 62
     0
100
AcDbLine
 10
55.04221254812228
 20
15.12405883835288
 30
0.0
 11
57.84221254812234
 21
17.92405883835295
 31
0.0
  0
LINE
  5
3326
330
322C
100
AcDbEntity
  8
0
 62
     0
100
AcDbLine
 10
61.34221254812229
 20
21.42405883835289
 30
0.0
 11
63.16815336510581
 21
23.24999965533641
 31
0.0
  0
LINE
  5
3327
330
322C
100
AcDbEntity
  8
0
 62
     0
100
AcDbLine
 10
47.06815336510579
 20
7.149999655336387
 30
0.0
 11
52.79298157708069
 21
12.87482786731124
 31
0.0
  0
LINE
  5
3328
330
322C
100
AcDbEntity
  8
0
 62
     0
100
AcDbLine
 10
55.04221254812233
 20
16.02208445045971
 30
0.0
 11
57.84221254812234
 21
18.82208445045978
 31
0.0
  0
LINE
  5
3329
330
322C
100
AcDbEntity
  8
0
 62
     0
100
AcDbLine
 10
50.14221254812241
 20
11.12208445045985
 30
0.0
 11
52.55239412016215
 21
13.53226602249953
 31
0.0
  0
LINE
  5
332A
330
322C
100
AcDbEntity
  8
0
 62
     0
100
AcDbLine
 10
61.34221254812235
 20
22.32208445045973
 30
0.0
 11
62.27012775299903
 21
23.24999965533647
 31
0.0
  0
LINE
  5
332B
330
322C
100
AcDbEntity
  8
0
 62
     0
100
AcDbLine
 10
46.29838310613002
 20
7.278255008467453
 30
0.0
 11
48.97012775299896
 21
9.949999655336398
 31
0.0
  0
LINE
  5
332C
330
322C
100
AcDbEntity
  8
0
 62
     0
100
AcDbLine
 10
50.12234197299512
 20
12.00023948743944
 30
0.0
 11
52.2288948153016
 21
14.10679232974593
 31
0.0
  0
LINE
  5
332D
330
322C
100
AcDbEntity
  8
0
 62
     0
100
AcDbLine
 10
55.0422125481224
 20
16.92011006256672
 30
0.0
 11
57.84221254812241
 21
19.72011006256679
 31
0.0
  0
LINE
  5
332E
330
322C
100
AcDbEntity
  8
0
 62
     0
100
AcDbLine
 10
46.11721254812232
 20
7.995110062566709
 30
0.0
 11
48.07210214089207
 21
9.949999655336455
 31
0.0
  0
LINE
  5
332F
330
322C
100
AcDbEntity
  8
0
 62
     0
100
AcDbLine
 10
49.84795713585623
 20
12.62388026240756
 30
0.0
 11
51.83302369737379
 21
14.60894682392512
 31
0.0
  0
LINE
  5
3330
330
322C
100
AcDbEntity
  8
0
 62
     0
100
AcDbLine
 10
55.04221254812233
 20
17.81813567467367
 30
0.0
 11
57.84221254812241
 21
20.61813567467374
 31
0.0
  0
LINE
  5
3331
330
322C
100
AcDbEntity
  8
0
 62
     0
100
AcDbLine
 10
46.11721254812232
 20
8.893135674673601
 30
0.0
 11
47.17407652878512
 21
9.949999655336455
 31
0.0
  0
LINE
  5
3332
330
322C
100
AcDbEntity
  8
0
 62
     0
100
AcDbLine
 10
55.0422125481224
 20
18.71616128678056
 30
0.0
 11
57.84221254812246
 21
21.51616128678057
 31
0.0
  0
LINE
  5
3333
330
322C
100
AcDbEntity
  8
0
 62
     0
100
AcDbLine
 10
49.40668223873917
 20
13.08063097739728
 30
0.0
 11
51.38658122606154
 21
15.0605299647197
 31
0.0
  0
LINE
  5
3334
330
322C
100
AcDbEntity
  8
0
 62
     0
100
AcDbLine
 10
48.95766943268569
 20
13.52964378345075
 30
0.0
 11
50.937568420008
 21
15.50954277077306
 31
0.0
  0
LINE
  5
3335
330
322C
100
AcDbEntity
  8
0
 62
     0
100
AcDbLine
 10
55.04221254812233
 20
19.61418689888745
 30
0.0
 11
57.84221254812241
 21
22.41418689888752
 31
0.0
  0
LINE
  5
3336
330
322C
100
AcDbEntity
  8
0
 62
     0
100
AcDbLine
 10
42.57802530457126
 20
7.149999655336387
 30
0.0
 11
43.49221254812237
 21
8.064186898887442
 31
0.0
  0
LINE
  5
3337
330
322C
100
AcDbEntity
  8
0
 62
     0
100
AcDbLine
 10
48.50865662663228
 20
13.97865658950434
 30
0.0
 11
50.48855561395453
 21
15.95855557682654
 31
0.0
  0
LINE
  5
3338
330
322C
100
AcDbEntity
  8
0
 62
     0
100
AcDbLine
 10
55.04221254812233
 20
20.5122125109944
 30
0.0
 11
57.65603164002374
 21
23.12603160289575
 31
0.0
  0
LINE
  5
3339
330
322C
100
AcDbEntity
  8
0
 62
     0
100
AcDbLine
 10
41.67999969246437
 20
7.149999655336387
 30
0.0
 11
43.49221254812232
 21
8.96221251099439
 31
0.0
  0
LINE
  5
333A
330
322C
100
AcDbEntity
  8
0
 62
     0
100
AcDbLine
 10
48.05964382057874
 20
14.4276693955577
 30
0.0
 11
50.03954280790106
 21
16.40756838288001
 31
0.0
  0
LINE
  5
333B
330
322C
100
AcDbEntity
  8
0
 62
     0
100
AcDbLine
 10
55.04221254812233
 20
21.41023812310129
 30
0.0
 11
56.88197408035745
 21
23.24999965533647
 31
0.0
  0
LINE
  5
333C
330
322C
100
AcDbEntity
  8
0
 62
     0
100
AcDbLine
 10
40.89358521821935
 20
7.261610793198315
 30
0.0
 11
43.49221254812237
 21
9.860238123101396
 31
0.0
  0
LINE
  5
333D
330
322C
100
AcDbEntity
  8
0
 62
     0
100
AcDbLine
 10
47.61063101452532
 20
14.87668220161111
 30
0.0
 11
49.59053000184764
 21
16.85658118893343
 31
0.0
  0
LINE
  5
333E
330
322C
100
AcDbEntity
  8
0
 62
     0
100
AcDbLine
 10
55.04221254812233
 20
22.30826373520819
 30
0.0
 11
55.98394846825062
 21
23.24999965533641
 31
0.0
  0
LINE
  5
333F
330
322C
100
AcDbEntity
  8
0
 62
     0
100
AcDbLine
 10
40.69221254812236
 20
7.95826373520822
 30
0.0
 11
43.49221254812244
 21
10.75826373520823
 31
0.0
  0
LINE
  5
3340
330
322C
100
AcDbEntity
  8
0
 62
     0
100
AcDbLine
 10
47.16161820847185
 20
15.32569500766459
 30
0.0
 11
49.14151719579416
 21
17.3055939949869
 31
0.0
  0
LINE
  5
3341
330
322C
100
AcDbEntity
  8
0
 62
     0
100
AcDbLine
 10
40.69221254812236
 20
8.856289347315112
 30
0.0
 11
43.49221254812237
 21
11.65628934731518
 31
0.0
  0
LINE
  5
3342
330
322C
100
AcDbEntity
  8
0
 62
     0
100
AcDbLine
 10
46.71463430743052
 20
15.77673671873026
 30
0.0
 11
48.69860784081254
 21
17.76071025211223
 31
0.0
  0
LINE
  5
3343
330
322C
100
AcDbEntity
  8
0
 62
     0
100
AcDbLine
 10
40.69221254812231
 20
9.75431495942206
 30
0.0
 11
43.49221254812237
 21
12.55431495942213
 31
0.0
  0
LINE
  5
3344
330
322C
100
AcDbEntity
  8
0
 62
     0
100
AcDbLine
 10
51.38789724403671
 20
20.4499996553364
 30
0.0
 11
52.41721254812233
 21
21.47931495942208
 31
0.0
  0
LINE
  5
3345
330
322C
100
AcDbEntity
  8
0
 62
     0
100
AcDbLine
 10
38.19955632341219
 20
7.261658734711886
 30
0.0
 11
38.28920868486722
 21
7.351311096166966
 31
0.0
  0
LINE
  5
3346
330
322C
100
AcDbEntity
  8
0
 62
     0
100
AcDbLine
 10
46.31663212860854
 20
16.27676015201513
 30
0.0
 11
48.41626640602715
 21
18.37639442943373
 31
0.0
  0
LINE
  5
3347
330
322C
100
AcDbEntity
  8
0
 62
     0
100
AcDbLine
 10
40.69221254812236
 20
10.65234057152889
 30
0.0
 11
43.49221254812244
 21
13.45234057152896
 31
0.0
  0
LINE
  5
3348
330
322C
100
AcDbEntity
  8
0
 62
     0
100
AcDbLine
 10
50.48987163192982
 20
20.4499996553364
 30
0.0
 11
52.41721254812239
 21
22.37734057152892
 31
0.0
  0
LINE
  5
3349
330
322C
100
AcDbEntity
  8
0
 62
     0
100
AcDbLine
 10
37.18987163192975
 20
7.14999965533633
 30
0.0
 11
38.25565072823622
 21
8.215778751642744
 31
0.0
  0
LINE
  5
334A
330
322C
100
AcDbEntity
  8
0
 62
     0
100
AcDbLine
 10
45.99079786421185
 20
16.84895149972539
 30
0.0
 11
48.39221254812247
 21
19.25036618363595
 31
0.0
  0
LINE
  5
334B
330
322C
100
AcDbEntity
  8
0
 62
     0
100
AcDbLine
 10
40.69221254812231
 20
11.55036618363584
 30
0.0
 11
43.49221254812237
 21
14.35036618363591
 31
0.0
  0
LINE
  5
334C
330
322C
100
AcDbEntity
  8
0
 62
     0
100
AcDbLine
 10
49.59184601982292
 20
20.4499996553364
 30
0.0
 11
52.25054361632453
 21
23.10869725183807
 31
0.0
  0
LINE
  5
334D
330
322C
100
AcDbEntity
  8
0
 62
     0
100
AcDbLine
 10
36.29184601982286
 20
7.14999965533633
 30
0.0
 11
38.04012458133059
 21
8.898278216844119
 31
0.0
  0
LINE
  5
334E
330
322C
100
AcDbEntity
  8
0
 62
     0
100
AcDbLine
 10
40.69221254812231
 20
12.44839179574279
 30
0.0
 11
43.49221254812237
 21
15.2483917957428
 31
0.0
  0
LINE
  5
334F
330
322C
100
AcDbEntity
  8
0
 62
     0
100
AcDbLine
 10
45.74741580154176
 20
17.50359504916224
 30
0.0
 11
51.49382040771604
 21
23.24999965533647
 31
0.0
  0
LINE
  5
3350
330
322C
100
AcDbEntity
  8
0
 62
     0
100
AcDbLine
 10
35.69983170916777
 20
7.456010956788247
 30
0.0
 11
37.8245984344249
 21
9.580777682045379
 31
0.0
  0
LINE
  5
3351
330
322C
100
AcDbEntity
  8
0
 62
     0
100
AcDbLine
 10
40.69221254812231
 20
13.34641740784968
 30
0.0
 11
43.49221254812232
 21
16.14641740784975
 31
0.0
  0
LINE
  5
3352
330
322C
100
AcDbEntity
  8
0
 62
     0
100
AcDbLine
 10
45.60870894245607
 20
18.2629138021835
 30
0.0
 11
50.59579479560909
 21
23.24999965533653
 31
0.0
  0
LINE
  5
3353
330
322C
100
AcDbEntity
  8
0
 62
     0
100
AcDbLine
 10
35.48107228751917
 20
8.135277147246597
 30
0.0
 11
37.60907228751916
 21
10.26327714724658
 31
0.0
  0
LINE
  5
3354
330
322C
100
AcDbEntity
  8
0
 62
     0
100
AcDbLine
 10
40.69221254812231
 20
14.24444301995658
 30
0.0
 11
43.49221254812237
 21
17.04444301995664
 31
0.0
  0
LINE
  5
3355
330
322C
100
AcDbEntity
  8
0
 62
     0
100
AcDbLine
 10
45.5922125481224
 20
19.14444301995661
 30
0.0
 11
49.69776918350214
 21
23.24999965533641
 31
0.0
  0
LINE
  5
3356
330
322C
100
AcDbEntity
  8
0
 62
     0
100
AcDbLine
 10
35.26554614061348
 20
8.817776612447744
 30
0.0
 11
37.39354614061364
 21
10.94577661244784
 31
0.0
  0
LINE
  5
3357
330
322C
100
AcDbEntity
  8
0
 62
     0
100
AcDbLine
 10
40.69221254812231
 20
15.14246863206347
 30
0.0
 11
43.49221254812237
 21
17.94246863206353
 31
0.0
  0
LINE
  5
3358
330
322C
100
AcDbEntity
  8
0
 62
     0
100
AcDbLine
 10
45.59221254812235
 20
20.04246863206356
 30
0.0
 11
48.79974357139525
 21
23.24999965533641
 31
0.0
  0
LINE
  5
3359
330
322C
100
AcDbEntity
  8
0
 62
     0
100
AcDbLine
 10
35.05001999370779
 20
9.500276077649004
 30
0.0
 11
37.17801999370795
 21
11.6282760776491
 31
0.0
  0
LINE
  5
335A
330
322C
100
AcDbEntity
  8
0
 62
     0
100
AcDbLine
 10
40.69221254812226
 20
16.04049424417041
 30
0.0
 11
43.49221254812232
 21
18.84049424417048
 31
0.0
  0
LINE
  5
335B
330
322C
100
AcDbEntity
  8
0
 62
     0
100
AcDbLine
 10
34.83449384680211
 20
10.18277554285026
 30
0.0
 11
36.96249384680226
 21
12.31077554285036
 31
0.0
  0
LINE
  5
335C
330
322C
100
AcDbEntity
  8
0
 62
     0
100
AcDbLine
 10
45.6455292182436
 20
20.99381091429177
 30
0.0
 11
47.84840128916693
 21
23.19668298521509
 31
0.0
  0
LINE
  5
335D
330
322C
100
AcDbEntity
  8
0
 62
     0
100
AcDbLine
 10
31.80171795928828
 20
7.149999655336387
 30
0.0
 11
32.64221254812236
 21
7.99049424417052
 31
0.0
  0
LINE
  5
335E
330
322C
100
AcDbEntity
  8
0
 62
     0
100
AcDbLine
 10
34.61896769989659
 20
10.86527500805152
 30
0.0
 11
36.74696769989652
 21
12.99327500805151
 31
0.0
  0
LINE
  5
335F
330
322C
100
AcDbEntity
  8
0
 62
     0
100
AcDbLine
 10
40.69221254812231
 20
16.93851985627731
 30
0.0
 11
43.49221254812237
 21
19.73851985627732
 31
0.0
  0
LINE
  5
3360
330
322C
100
AcDbEntity
  8
0
 62
     0
100
AcDbLine
 10
30.90369234718139
 20
7.149999655336387
 30
0.0
 11
32.64221254812242
 21
8.888519856277412
 31
0.0
  0
LINE
  5
3361
330
322C
100
AcDbEntity
  8
0
 62
     0
100
AcDbLine
 10
34.40344155299078
 20
11.54777447325273
 30
0.0
 11
36.53144155299094
 21
13.67577447325288
 31
0.0
  0
LINE
  5
3362
330
322C
100
AcDbEntity
  8
0
 62
     0
100
AcDbLine
 10
40.69221254812236
 20
17.83654546838431
 30
0.0
 11
43.49221254812232
 21
20.63654546838427
 31
0.0
  0
LINE
  5
3363
330
322C
100
AcDbEntity
  8
0
 62
     0
100
AcDbLine
 10
30.08681648272568
 20
7.231149402987625
 30
0.0
 11
32.64221254812242
 21
9.786545468384304
 31
0.0
  0
LINE
  5
3364
330
322C
100
AcDbEntity
  8
0
 62
     0
100
AcDbLine
 10
34.1879154060851
 20
12.23027393845399
 30
0.0
 11
36.31591540608525
 21
14.35827393845414
 31
0.0
  0
LINE
  5
3365
330
322C
100
AcDbEntity
  8
0
 62
     0
100
AcDbLine
 10
40.69221254812236
 20
18.73457108049121
 30
0.0
 11
43.49221254812232
 21
21.53457108049122
 31
0.0
  0
LINE
  5
3366
330
322C
100
AcDbEntity
  8
0
 62
     0
100
AcDbLine
 10
29.84221254812229
 20
7.884571080491184
 30
0.0
 11
32.64221254812236
 21
10.68457108049125
 31
0.0
  0
LINE
  5
3367
330
322C
100
AcDbEntity
  8
0
 62
     0
100
AcDbLine
 10
33.97238925917958
 20
12.91277340365525
 30
0.0
 11
36.10038925917962
 21
15.04077340365535
 31
0.0
  0
LINE
  5
3368
330
322C
100
AcDbEntity
  8
0
 62
     0
100
AcDbLine
 10
40.69221254812236
 20
19.6325966925981
 30
0.0
 11
43.49221254812232
 21
22.43259669259805
 31
0.0
  0
LINE
  5
3369
330
322C
100
AcDbEntity
  8
0
 62
     0
100
AcDbLine
 10
29.84221254812235
 20
8.782596692598076
 30
0.0
 11
32.64221254812242
 21
11.58259669259809
 31
0.0
  0
LINE
  5
336A
330
322C
100
AcDbEntity
  8
0
 62
     0
100
AcDbLine
 10
33.73759047220784
 20
13.57600022879052
 30
0.0
 11
36.36788454013873
 21
16.20629429672141
 31
0.0
  0
LINE
  5
336B
330
322C
100
AcDbEntity
  8
0
 62
     0
100
AcDbLine
 10
40.69221254812236
 20
20.53062230470499
 30
0.0
 11
43.29593712562399
 21
23.13434688220661
 31
0.0
  0
LINE
  5
336C
330
322C
100
AcDbEntity
  8
0
 62
     0
100
AcDbLine
 10
29.84221254812235
 20
9.680622304704968
 30
0.0
 11
32.64221254812236
 21
12.48062230470504
 31
0.0
  0
LINE
  5
336D
330
322C
100
AcDbEntity
  8
0
 62
     0
100
AcDbLine
 10
33.05040510234045
 20
13.78684047103007
 30
0.0
 11
36.78235789957267
 21
17.5187932682623
 31
0.0
  0
LINE
  5
336E
330
322C
100
AcDbEntity
  8
0
 62
     0
100
AcDbLine
 10
29.84221254812229
 20
10.57864791681192
 30
0.0
 11
32.65537173242871
 21
13.39180710111827
 31
0.0
  0
LINE
  5
336F
330
322C
100
AcDbEntity
  8
0
 62
     0
100
AcDbLine
 10
40.69221254812231
 20
21.42864791681194
 30
0.0
 11
42.51356428664684
 21
23.24999965533647
 31
0.0
  0
LINE
  5
3370
330
322C
100
AcDbEntity
  8
0
 62
     0
100
AcDbLine
 10
26.41356428664682
 20
7.149999655336443
 30
0.0
 11
27.39221254812242
 21
8.128647916812042
 31
0.0
  0
LINE
  5
3371
330
322C
100
AcDbEntity
  8
0
 62
     0
100
AcDbLine
 10
29.84221254812229
 20
11.47667352891881
 30
0.0
 11
37.19683125900662
 21
18.83129223980313
 31
0.0
  0
LINE
  5
3372
330
322C
100
AcDbEntity
  8
0
 62
     0
100
AcDbLine
 10
40.69221254812231
 20
22.32667352891889
 30
0.0
 11
41.61553867453995
 21
23.24999965533647
 31
0.0
  0
LINE
  5
3373
330
322C
100
AcDbEntity
  8
0
 62
     0
100
AcDbLine
 10
25.51553867453981
 20
7.149999655336387
 30
0.0
 11
27.39221254812242
 21
9.02667352891899
 31
0.0
  0
LINE
  5
3374
330
322C
100
AcDbEntity
  8
0
 62
     0
100
AcDbLine
 10
29.84221254812229
 20
12.3746991410257
 30
0.0
 11
37.61130461844067
 21
20.14379121134402
 31
0.0
  0
LINE
  5
3375
330
322C
100
AcDbEntity
  8
0
 62
     0
100
AcDbLine
 10
24.62919368678303
 20
7.161680279686436
 30
0.0
 11
27.25087826451625
 21
9.783364857419599
 31
0.0
  0
LINE
  5
3376
330
322C
100
AcDbEntity
  8
0
 62
     0
100
AcDbLine
 10
29.84221254812229
 20
13.27272475313265
 30
0.0
 11
33.16948745032613
 21
16.59999965533643
 31
0.0
  0
LINE
  5
3377
330
322C
100
AcDbEntity
  8
0
 62
     0
100
AcDbLine
 10
33.93347028556667
 20
17.36398249057697
 30
0.0
 11
38.02577797787467
 21
21.45629018288497
 31
0.0
  0
LINE
  5
3378
330
322C
100
AcDbEntity
  8
0
 62
     0
100
AcDbLine
 10
23.86103316933605
 20
7.291545374346355
 30
0.0
 11
26.5194874503261
 21
9.949999655336398
 31
0.0
  0
LINE
  5
3379
330
322C
100
AcDbEntity
  8
0
 62
     0
100
AcDbLine
 10
29.84221254812235
 20
14.17075036523965
 30
0.0
 11
32.66020311883068
 21
16.98874093594793
 31
0.0
  0
LINE
  5
337A
330
322C
100
AcDbEntity
  8
0
 62
     0
100
AcDbLine
 10
34.34794364500056
 20
18.67648146211786
 30
0.0
 11
38.40084942967605
 21
22.72938724679335
 31
0.0
  0
LINE
  5
337B
330
322C
100
AcDbEntity
  8
0
 62
     0
100
AcDbLine
 10
23.19989891250964
 20
7.528436729626946
 30
0.0
 11
25.62146183821915
 21
9.949999655336455
 31
0.0
  0
LINE
  5
337C
330
322C
100
AcDbEntity
  8
0
 62
     0
100
AcDbLine
 10
29.8422125481224
 20
15.06877597734649
 30
0.0
 11
32.64221254812242
 21
17.86877597734656
 31
0.0
  0
LINE
  5
337D
330
322C
100
AcDbEntity
  8
0
 62
     0
100
AcDbLine
 10
34.76241700443461
 20
19.98898043365875
 30
0.0
 11
38.00683755710685
 21
23.23340098633099
 31
0.0
  0
LINE
  5
337E
330
322C
100
AcDbEntity
  8
0
 62
     0
100
AcDbLine
 10
22.62229562834534
 20
7.848859057569427
 30
0.0
 11
24.7383574868382
 21
9.964920916062339
 31
0.0
  0
LINE
  5
337F
330
322C
100
AcDbEntity
  8
0
 62
     0
100
AcDbLine
 10
29.84221254812235
 20
15.96680158945344
 30
0.0
 11
32.64221254812242
 21
18.76680158945351
 31
0.0
  0
LINE
  5
3380
330
322C
100
AcDbEntity
  8
0
 62
     0
100
AcDbLine
 10
35.17689036386861
 20
21.3014794051997
 30
0.0
 11
37.12541061400532
 21
23.24999965533641
 31
0.0
  0
LINE
  5
3381
330
322C
100
AcDbEntity
  8
0
 62
     0
100
AcDbLine
 10
22.11734066196328
 20
8.241929703294317
 30
0.0
 11
24.1040413458199
 21
10.22863038715093
 31
0.0
  0
LINE
  5
3382
330
322C
100
AcDbEntity
  8
0
 62
     0
100
AcDbLine
 10
29.84221254812235
 20
16.86482720156033
 30
0.0
 11
32.64221254812242
 21
19.6648272015604
 31
0.0
  0
LINE
  5
3383
330
322C
100
AcDbEntity
  8
0
 62
     0
100
AcDbLine
 10
26.50384667989886
 20
13.5264613333369
 30
0.0
 11
27.66575087012194
 21
14.68836552355998
 31
0.0
  0
LINE
  5
3384
330
322C
100
AcDbEntity
  8
0
 62
     0
100
AcDbLine
 10
35.59136372330255
 20
22.61397837674059
 30
0.0
 11
36.22738500189843
 21
23.24999965533647
 31
0.0
  0
LINE
  5
3385
330
322C
100
AcDbEntity
  8
0
 62
     0
100
AcDbLine
 10
21.68090358863344
 20
8.703518242071481
 30
0.0
 11
23.6937903945477
 21
10.71640504798574
 31
0.0
  0
LINE
  5
3386
330
322C
100
AcDbEntity
  8
0
 62
     0
100
AcDbLine
 10
25.57887383826904
 20
13.49951410381402
 30
0.0
 11
27.69269809964482
 21
15.61333836518975
 31
0.0
  0
LINE
  5
3387
330
322C
100
AcDbEntity
  8
0
 62
     0
100
AcDbLine
 10
29.84221254812229
 20
17.76285281366728
 30
0.0
 11
32.64221254812236
 21
20.56285281366735
 31
0.0
  0
LINE
  5
3388
330
322C
100
AcDbEntity
  8
0
 62
     0
100
AcDbLine
 10
21.31388436369048
 20
9.234524629235409
 30
0.0
 11
23.54221254812228
 21
11.46285281366727
 31
0.0
  0
LINE
  5
3389
330
322C
100
AcDbEntity
  8
0
 62
     0
100
AcDbLine
 10
24.96472726884884
 20
13.7833931465006
 30
0.0
 11
27.40881905695818
 21
16.22748493461
 31
0.0
  0
LINE
  5
338A
330
322C
100
AcDbEntity
  8
0
 62
     0
100
AcDbLine
 10
29.84221254812235
 20
18.66087842577417
 30
0.0
 11
32.64221254812242
 21
21.46087842577419
 31
0.0
  0
LINE
  5
338B
330
322C
100
AcDbEntity
  8
0
 62
     0
100
AcDbLine
 10
21.02256685376574
 20
9.841232731417562
 30
0.0
 11
23.54221254812234
 21
12.36087842577416
 31
0.0
  0
LINE
  5
338C
330
322C
100
AcDbEntity
  8
0
 62
     0
100
AcDbLine
 10
24.52676734185911
 20
14.24345883161788
 30
0.0
 11
26.94875337184095
 21
16.66544486159966
 31
0.0
  0
LINE
  5
338D
330
322C
100
AcDbEntity
  8
0
 62
     0
100
AcDbLine
 10
29.84221254812235
 20
19.55890403788106
 30
0.0
 11
32.64221254812236
 21
22.35890403788113
 31
0.0
  0
LINE
  5
338E
330
322C
100
AcDbEntity
  8
0
 62
     0
100
AcDbLine
 10
20.82142948959108
 20
10.53812097934985
 30
0.0
 11
23.54221254812234
 21
13.25890403788105
 31
0.0
  0
LINE
  5
338F
330
322C
100
AcDbEntity
  8
0
 62
     0
100
AcDbLine
 10
24.27071660945074
 20
14.88543371131641
 30
0.0
 11
26.30677849214237
 21
16.92149559400809
 31
0.0
  0
LINE
  5
3390
330
322C
100
AcDbEntity
  8
0
 62
     0
100
AcDbLine
 10
20.74221254812221
 20
11.35692964998793
 30
0.0
 11
23.54221254812228
 21
14.156929649988
 31
0.0
  0
LINE
  5
3391
330
322C
100
AcDbEntity
  8
0
 62
     0
100
AcDbLine
 10
29.84221254812229
 20
20.45692964998801
 30
0.0
 11
32.48496243976729
 21
23.09967954163301
 31
0.0
  0
LINE
  5
3392
330
322C
100
AcDbEntity
  8
0
 62
     0
100
AcDbLine
 10
16.65621579024673
 20
7.270932892112455
 30
0.0
 11
18.52127931134646
 21
9.135996413212183
 31
0.0
  0
LINE
  5
3393
330
322C
100
AcDbEntity
  8
0
 62
     0
100
AcDbLine
 10
24.38912969293153
 20
15.90187240690409
 30
0.0
 11
25.29033979655475
 21
16.8030825105273
 31
0.0
  0
LINE
  5
3394
330
322C
100
AcDbEntity
  8
0
 62
     0
100
AcDbLine
 10
20.74221254812227
 20
12.25495526209482
 30
0.0
 11
23.54221254812234
 21
15.05495526209489
 31
0.0
  0
LINE
  5
3395
330
322C
100
AcDbEntity
  8
0
 62
     0
100
AcDbLine
 10
29.84221254812235
 20
21.35495526209485
 30
0.0
 11
31.73725694136391
 21
23.24999965533647
 31
0.0
  0
LINE
  5
3396
330
322C
100
AcDbEntity
  8
0
 62
     0
100
AcDbLine
 10
15.63725694136377
 20
7.14999965533633
 30
0.0
 11
18.64221254812241
 21
10.15495526209497
 31
0.0
  0
LINE
  5
3397
330
322C
100
AcDbEntity
  8
0
 62
     0
100
AcDbLine
 10
20.74221254812227
 20
13.15298087420172
 30
0.0
 11
23.54221254812228
 21
15.95298087420178
 31
0.0
  0
LINE
  5
3398
330
322C
100
AcDbEntity
  8
0
 62
     0
100
AcDbLine
 10
29.84221254812229
 20
22.25298087420179
 30
0.0
 11
30.8392313292569
 21
23.24999965533641
 31
0.0
  0
LINE
  5
3399
330
322C
100
AcDbEntity
  8
0
 62
     0
100
AcDbLine
 10
14.73923132925688
 20
7.14999965533633
 30
0.0
 11
18.64221254812241
 21
11.05298087420192
 31
0.0
  0
LINE
  5
339A
330
322C
100
AcDbEntity
  8
0
 62
     0
100
AcDbLine
 10
20.74221254812221
 20
14.05100648630866
 30
0.0
 11
23.54221254812228
 21
16.85100648630873
 31
0.0
  0
LINE
  5
339B
330
322C
100
AcDbEntity
  8
0
 62
     0
100
AcDbLine
 10
13.84120571714993
 20
7.149999655336387
 30
0.0
 11
18.63827319556122
 21
11.94706713374768
 31
0.0
  0
LINE
  5
339C
330
322C
100
AcDbEntity
  8
0
 62
     0
100
AcDbLine
 10
20.74221254812233
 20
14.94903209841567
 30
0.0
 11
23.54221254812234
 21
17.74903209841562
 31
0.0
  0
LINE
  5
339D
330
322C
100
AcDbEntity
  8
0
 62
     0
100
AcDbLine
 10
26.24318010504311
 20
20.44999965533646
 30
0.0
 11
27.39221254812247
 21
21.59903209841576
 31
0.0
  0
LINE
  5
339E
330
322C
100
AcDbEntity
  8
0
 62
     0
100
AcDbLine
 10
12.94318010504304
 20
7.149999655336387
 30
0.0
 11
18.5286113592399
 21
12.73543090953325
 31
0.0
  0
LINE
  5
339F
330
322C
100
AcDbEntity
  8
0
 62
     0
100
AcDbLine
 10
20.74221254812233
 20
15.84705771052256
 30
0.0
 11
23.54221254812239
 21
18.64705771052257
 31
0.0
  0
LINE
  5
33A0
330
322C
100
AcDbEntity
  8
0
 62
     0
100
AcDbLine
 10
15.84221254812234
 20
10.94705771052258
 30
0.0
 11
18.30627261519578
 21
13.41111777759602
 31
0.0
  0
LINE
  5
33A1
330
322C
100
AcDbEntity
  8
0
 62
     0
100
AcDbLine
 10
25.34515449293622
 20
20.4499996553364
 30
0.0
 11
27.39221254812242
 21
22.49705771052266
 31
0.0
  0
LINE
  5
33A2
330
322C
100
AcDbEntity
  8
0
 62
     0
100
AcDbLine
 10
12.10288036819605
 20
7.207725530596292
 30
0.0
 11
14.84515449293622
 21
9.949999655336398
 31
0.0
  0
LINE
  5
33A3
330
322C
100
AcDbEntity
  8
0
 62
     0
100
AcDbLine
 10
20.74221254812227
 20
16.74508332262945
 30
0.0
 11
23.70802725390206
 21
19.71089802840925
 31
0.0
  0
LINE
  5
33A4
330
322C
100
AcDbEntity
  8
0
 62
     0
100
AcDbLine
 10
15.84005345651315
 20
11.84292423102027
 30
0.0
 11
17.99784108052375
 21
14.00071185503094
 31
0.0
  0
LINE
  5
33A5
330
322C
100
AcDbEntity
  8
0
 62
     0
100
AcDbLine
 10
24.2813141750496
 20
20.28418494955679
 30
0.0
 11
27.15874513320262
 21
23.16161590770974
 31
0.0
  0
LINE
  5
33A6
330
322C
100
AcDbEntity
  8
0
 62
     0
100
AcDbLine
 10
11.81721254812231
 20
7.8200833226295
 30
0.0
 11
13.94712888082927
 21
9.949999655336455
 31
0.0
  0
LINE
  5
33A7
330
322C
100
AcDbEntity
  8
0
 62
     0
100
AcDbLine
 10
15.62045043701244
 20
12.52134682362657
 30
0.0
 11
17.61559911568486
 21
14.51649550229899
 31
0.0
  0
LINE
  5
33A8
330
322C
100
AcDbEntity
  8
0
 62
     0
100
AcDbLine
 10
20.74221254812227
 20
17.6431089347364
 30
0.0
 11
26.34910326872233
 21
23.24999965533647
 31
0.0
  0
LINE
  5
33A9
330
322C
100
AcDbEntity
  8
0
 62
     0
100
AcDbLine
 10
11.81721254812231
 20
8.718108934736449
 30
0.0
 11
13.04910326872226
 21
9.949999655336398
 31
0.0
  0
LINE
  5
33AA
330
322C
100
AcDbEntity
  8
0
 62
     0
100
AcDbLine
 10
15.19419560870761
 20
12.99311760742859
 30
0.0
 11
17.1740945960301
 21
14.97301659475107
 31
0.0
  0
LINE
  5
33AB
330
322C
100
AcDbEntity
  8
0
 62
     0
100
AcDbLine
 10
20.74221254812233
 20
18.54113454684324
 30
0.0
 11
25.45107765661544
 21
23.24999965533641
 31
0.0
  0
LINE
  5
33AC
330
322C
100
AcDbEntity
  8
0
 62
     0
100
AcDbLine
 10
11.88616447014215
 20
9.685086468863119
 30
0.0
 11
12.08212573459576
 21
9.881047733316734
 31
0.0
  0
LINE
  5
33AD
330
322C
100
AcDbEntity
  8
0
 62
     0
100
AcDbLine
 10
20.7621876622789
 20
19.45913527310677
 30
0.0
 11
24.53307693035191
 21
23.23002454117983
 31
0.0
  0
LINE
  5
33AE
330
322C
100
AcDbEntity
  8
0
 62
     0
100
AcDbLine
 10
14.74518280265425
 20
13.44213041348217
 30
0.0
 11
16.72508178997663
 21
15.42202940080455
 31
0.0
  0
LINE
  5
33AF
330
322C
100
AcDbEntity
  8
0
 62
     0
100
AcDbLine
 10
21.06165109454469
 20
20.65662431747956
 30
0.0
 11
23.33558788597918
 21
22.93056110891405
 31
0.0
  0
LINE
  5
33B0
330
322C
100
AcDbEntity
  8
0
 62
     0
100
AcDbLine
 10
14.29616999660078
 20
13.89114321953565
 30
0.0
 11
16.27606898392315
 21
15.87104220685802
 31
0.0
  0
LINE
  5
33B1
330
322C
100
AcDbEntity
  8
0
 62
     0
100
AcDbLine
 10
13.84715719054736
 20
14.34015602558907
 30
0.0
 11
15.82705617786973
 21
16.32005501291144
 31
0.0
  0
LINE
  5
33B2
330
322C
100
AcDbEntity
  8
0
 62
     0
100
AcDbLine
 10
13.39814438449389
 20
14.78916883164254
 30
0.0
 11
15.37804337181626
 21
16.76906781896491
 31
0.0
  0
LINE
  5
33B3
330
322C
100
AcDbEntity
  8
0
 62
     0
100
AcDbLine
 10
12.9491315784403
 20
15.2381816376959
 30
0.0
 11
14.92903056576279
 21
17.21808062501839
 31
0.0
  0
LINE
  5
33B4
330
322C
100
AcDbEntity
  8
0
 62
     0
100
AcDbLine
 10
17.2629239839739
 20
20.44999965533646
 30
0.0
 11
18.11721254812226
 21
21.30428821948482
 31
0.0
  0
LINE
  5
33B5
330
322C
100
AcDbEntity
  8
0
 62
     0
100
AcDbLine
 10
12.50020208641507
 20
15.68727775777762
 30
0.0
 11
14.48026772984752
 21
17.66734340121007
 31
0.0
  0
LINE
  5
33B6
330
322C
100
AcDbEntity
  8
0
 62
     0
100
AcDbLine
 10
16.36489837186696
 20
20.44999965533634
 30
0.0
 11
18.11721254812226
 21
22.20231383159165
 31
0.0
  0
LINE
  5
33B7
330
322C
100
AcDbEntity
  8
0
 62
     0
100
AcDbLine
 10
12.0887341618635
 20
16.17383544533282
 30
0.0
 11
14.15037084855959
 21
18.23547213202897
 31
0.0
  0
LINE
  5
33B8
330
322C
100
AcDbEntity
  8
0
 62
     0
100
AcDbLine
 10
15.46687275976012
 20
20.4499996553364
 30
0.0
 11
18.03065364836124
 21
23.01378054393757
 31
0.0
  0
LINE
  5
33B9
330
322C
100
AcDbEntity
  8
0
 62
     0
100
AcDbLine
 10
11.74827355560103
 20
16.73140045117731
 30
0.0
 11
14.09221254812235
 21
19.07533944369868
 31
0.0
  0
LINE
  5
33BA
330
322C
100
AcDbEntity
  8
0
 62
     0
100
AcDbLine
 10
14.566380498483
 20
20.44753300616623
 30
0.0
 11
17.36884714765324
 21
23.24999965533653
 31
0.0
  0
LINE
  5
33BB
330
322C
100
AcDbEntity
  8
0
 62
     0
100
AcDbLine
 10
11.48758025986893
 20
17.36873276755216
 30
0.0
 11
14.09467919729252
 21
19.9758317049758
 31
0.0
  0
LINE
  5
33BC
330
322C
100
AcDbEntity
  8
0
 62
     0
100
AcDbLine
 10
11.32576829762087
 20
18.10494641741098
 30
0.0
 11
16.47082153554629
 21
23.24999965533641
 31
0.0
  0
LINE
  5
33BD
330
322C
100
AcDbEntity
  8
0
 62
     0
100
AcDbLine
 10
11.29221254812239
 20
18.9694162800194
 30
0.0
 11
15.57279592343934
 21
23.24999965533641
 31
0.0
  0
LINE
  5
33BE
330
322C
100
AcDbEntity
  8
0
 62
     0
100
AcDbLine
 10
11.29221254812233
 20
19.86744189212635
 30
0.0
 11
14.67477031133245
 21
23.24999965533641
 31
0.0
  0
LINE
  5
33BF
330
322C
100
AcDbEntity
  8
0
 62
     0
100
AcDbLine
 10
11.31240455856067
 20
20.78565951467158
 30
0.0
 11
13.75655268878728
 21
23.22980764489819
 31
0.0
  0
ENDBLK
  5
33C1
330
322C
100
AcDbEntity
  8
0
100
AcDbBlockEnd
  0
BLOCK
  5
36C4
330
36BA
100
AcDbEntity
  8
0
100
AcDbBlockBegin
  2
*D2
 70
     1
 10
0.0
 20
0.0
 30
0.0
  3
*D2
  1

  0
LINE
  5
3A3F
330
36BA
100
AcDbEntity
  8
SUNPOU
100
AcDbLine
 10
476.4293055977368
 20
348.1192632773698
 30
0.0
 11
416.2568980243825
 21
348.1192632773698
 31
0.0
  0
LINE
  5
3A40
330
36BA
100
AcDbEntity
  8
SUNPOU
100
AcDbLine
 10
476.7543055977366
 20
93.11926327736994
 30
0.0
 11
416.2568980243825
 21
93.11926327736994
 31
0.0
  0
LINE
  5
3A41
330
36BA
100
AcDbEntity
  8
SUNPOU
100
AcDbLine
 10
419.2568980243825
 20
341.1192632773698
 30
0.0
 11
419.2568980243825
 21
100.1192632773699
 31
0.0
  0
INSERT
  5
3A42
330
36BA
100
AcDbEntity
  8
SUNPOU
100
AcDbBlockReference
  2
_OPEN
 10
419.2568980243825
 20
348.1192632773698
 30
0.0
 41
7.0
 42
7.0
 43
7.0
 50
90.0
  0
INSERT
  5
3A43
330
36BA
100
AcDbEntity
  8
SUNPOU
100
AcDbBlockReference
  2
_OPEN
 10
419.2568980243825
 20
93.11926327736994
 30
0.0
 41
7.0
 42
7.0
 43
7.0
 50
270.0
  0
MTEXT
  5
3A44
330
36BA
100
AcDbEntity
  8
SUNPOU
100
AcDbMText
 10
414.2568980243825
 20
220.61926327737
 30
0.0
 40
6.0
 41
0.0
 71
     5
 72
     5
  1
\A1;255
 11
0.0000000000000001
 21
1.0
 31
0.0
 73
     1
 44
1.0
1001
ACAD
1000
MTEXTBEGIN
1070
    73
1070
     1
1070
    44
1040
1.0
1070
    74
1070
     0
1000
MTEXTEND
  0
POINT
  5
3A45
330
36BA
100
AcDbEntity
  8
DEFPOINTS
 62
     0
100
AcDbPoint
 10
482.4293055977368
 20
348.1192632773698
 30
0.0
  0
POINT
  5
3A46
330
36BA
100
AcDbEntity
  8
DEFPOINTS
 62
     0
100
AcDbPoint
 10
482.7543055977367
 20
93.11926327736992
 30
0.0
  0
POINT
  5
3A47
330
36BA
100
AcDbEntity
  8
DEFPOINTS
 62
     0
100
AcDbPoint
 10
419.2568980243825
 20
93.11926327736994
 30
0.0
  0
ENDBLK
  5
36C5
330
36BA
100
AcDbEntity
  8
0
100
AcDbBlockEnd
  0
BLOCK
  5
36D0
330
36C6
100
AcDbEntity
  8
0
100
AcDbBlockBegin
  2
*D3
 70
     1
 10
0.0
 20
0.0
 30
0.0
  3
*D3
  1

  0
LINE
  5
3A48
330
36C6
100
AcDbEntity
  8
SUNPOU
100
AcDbLine
 10
541.0293055977367
 20
191.1192632773698
 30
0.0
 11
432.24312798705
 21
191.1192632773698
 31
0.0
  0
LINE
  5
3A49
330
36C6
100
AcDbEntity
  8
SUNPOU
100
AcDbLine
 10
482.7543055977367
 20
93.11926327736989
 30
0.0
 11
432.24312798705
 21
93.11926327736991
 31
0.0
  0
LINE
  5
3A4A
330
36C6
100
AcDbEntity
  8
SUNPOU
100
AcDbLine
 10
435.24312798705
 20
184.1192632773698
 30
0.0
 11
435.24312798705
 21
100.1192632773699
 31
0.0
  0
INSERT
  5
3A4B
330
36C6
100
AcDbEntity
  8
SUNPOU
100
AcDbBlockReference
  2
_OPEN
 10
435.24312798705
 20
191.1192632773698
 30
0.0
 41
7.0
 42
7.0
 43
7.0
 50
90.0
  0
INSERT
  5
3A4C
330
36C6
100
AcDbEntity
  8
SUNPOU
100
AcDbBlockReference
  2
_OPEN
 10
435.24312798705
 20
93.11926327736991
 30
0.0
 41
7.0
 42
7.0
 43
7.0
 50
270.0
  0
MTEXT
  5
3A4D
330
36C6
100
AcDbEntity
  8
SUNPOU
100
AcDbMText
 10
430.24312798705
 20
142.1192632773699
 30
0.0
 40
6.0
 41
0.0
 71
     5
 72
     5
  1
\A1;98
 11
0.0000000000000001
 21
1.0
 31
0.0
 73
     1
 44
1.0
1001
ACAD
1000
MTEXTBEGIN
1070
    73
1070
     1
1070
    44
1040
1.0
1070
    74
1070
     0
1000
MTEXTEND
  0
POINT
  5
3A4E
330
36C6
100
AcDbEntity
  8
DEFPOINTS
 62
     0
100
AcDbPoint
 10
547.0293055977367
 20
191.1192632773698
 30
0.0
  0
POINT
  5
3A4F
330
36C6
100
AcDbEntity
  8
DEFPOINTS
 62
     0
100
AcDbPoint
 10
488.7543055977366
 20
93.11926327736989
 30
0.0
  0
POINT
  5
3A50
330
36C6
100
AcDbEntity
  8
DEFPOINTS
 62
     0
100
AcDbPoint
 10
435.24312798705
 20
93.11926327736991
 30
0.0
  0
ENDBLK
  5
36D1
330
36C6
100
AcDbEntity
  8
0
100
AcDbBlockEnd
  0
BLOCK
  5
36DC
330
36D2
100
AcDbEntity
  8
0
100
AcDbBlockBegin
  2
*D4
 70
     1
 10
0.0
 20
0.0
 30
0.0
  3
*D4
  1

  0
LINE
  5
3A51
330
36D2
100
AcDbEntity
  8
SUNPOU
100
AcDbLine
 10
482.6293055977369
 20
348.1192632773698
 30
0.0
 11
432.24312798705
 21
348.1192632773698
 31
0.0
  0
LINE
  5
3A52
330
36D2
100
AcDbEntity
  8
SUNPOU
100
AcDbLine
 10
541.0293055977367
 20
191.1192632773698
 30
0.0
 11
432.24312798705
 21
191.1192632773698
 31
0.0
  0
LINE
  5
3A53
330
36D2
100
AcDbEntity
  8
SUNPOU
100
AcDbLine
 10
435.24312798705
 20
341.1192632773698
 30
0.0
 11
435.24312798705
 21
198.1192632773698
 31
0.0
  0
INSERT
  5
3A54
330
36D2
100
AcDbEntity
  8
SUNPOU
100
AcDbBlockReference
  2
_OPEN
 10
435.24312798705
 20
348.1192632773698
 30
0.0
 41
7.0
 42
7.0
 43
7.0
 50
90.0
  0
INSERT
  5
3A55
330
36D2
100
AcDbEntity
  8
SUNPOU
100
AcDbBlockReference
  2
_OPEN
 10
435.24312798705
 20
191.1192632773698
 30
0.0
 41
7.0
 42
7.0
 43
7.0
 50
270.0
  0
MTEXT
  5
3A56
330
36D2
100
AcDbEntity
  8
SUNPOU
100
AcDbMText
 10
430.2431279870499
 20
269.6192632773699
 30
0.0
 40
6.0
 41
0.0
 71
     5
 72
     5
  1
\A1;157
 11
0.0000000000000001
 21
1.0
 31
0.0
 73
     1
 44
1.0
1001
ACAD
1000
MTEXTBEGIN
1070
    73
1070
     1
1070
    44
1040
1.0
1070
    74
1070
     0
1000
MTEXTEND
  0
POINT
  5
3A57
330
36D2
100
AcDbEntity
  8
DEFPOINTS
 62
     0
100
AcDbPoint
 10
488.6293055977368
 20
348.1192632773698
 30
0.0
  0
POINT
  5
3A58
330
36D2
100
AcDbEntity
  8
DEFPOINTS
 62
     0
100
AcDbPoint
 10
547.0293055977367
 20
191.1192632773698
 30
0.0
  0
POINT
  5
3A59
330
36D2
100
AcDbEntity
  8
DEFPOINTS
 62
     0
100
AcDbPoint
 10
435.24312798705
 20
191.1192632773698
 30
0.0
  0
ENDBLK
  5
36DD
330
36D2
100
AcDbEntity
  8
0
100
AcDbBlockEnd
  0
BLOCK
  5
36E8
330
36DE
100
AcDbEntity
  8
0
100
AcDbBlockBegin
  2
*D5
 70
     1
 10
0.0
 20
0.0
 30
0.0
  3
*D5
  1

  0
ARC
  5
3A73
330
36DE
100
AcDbEntity
  8
SUNPOU
100
AcDbCircle
 10
547.029305597737
 20
191.1192632773697
 30
0.0
 40
32.89411132249937
100
AcDbArc
 50
282.2158982669153
 51
348.8841017330757
  0
INSERT
  5
3A74
330
36DE
100
AcDbEntity
  8
SUNPOU
100
AcDbBlockReference
  2
_OPEN
 10
547.0293055977369
 20
158.2251519548704
 30
0.0
 41
7.0
 42
7.0
 43
7.0
 50
186.1079491334576
  0
INSERT
  5
3A75
330
36DE
100
AcDbEntity
  8
SUNPOU
100
AcDbBlockReference
  2
_OPEN
 10
579.9173549342504
 20
191.7507460847673
 30
0.0
 41
7.0
 42
7.0
 43
7.0
 50
84.99205086653335
  0
MTEXT
  5
3A76
330
36DE
100
AcDbEntity
  8
SUNPOU
100
AcDbMText
 10
566.9418471259143
 20
171.5853917624703
 30
0.0
 40
6.0
 41
0.0
 71
     5
 72
     5
  1
\A1;91.10\U+00B0
 11
0.7002865690560072
 21
0.7138618362118585
 31
0.0
 73
     1
 44
1.0
1001
ACAD
1000
MTEXTBEGIN
1070
    73
1070
     1
1070
    44
1040
1.0
1070
    74
1070
     0
1000
MTEXTEND
  0
POINT
  5
3A77
330
36DE
100
AcDbEntity
  8
DEFPOINTS
 62
     0
100
AcDbPoint
 10
563.6583278118398
 20
162.7379634498451
 30
0.0
  0
POINT
  5
3A78
330
36DE
100
AcDbEntity
  8
DEFPOINTS
 62
     0
100
AcDbPoint
 10
547.0293055977367
 20
191.1192632773697
 30
0.0
  0
POINT
  5
3A79
330
36DE
100
AcDbEntity
  8
DEFPOINTS
 62
     0
100
AcDbPoint
 10
547.029305597737
 20
356.11926327737
 30
0.0
  0
POINT
  5
3A7A
330
36DE
100
AcDbEntity
  8
DEFPOINTS
 62
     0
100
AcDbPoint
 10
547.0293055977367
 20
85.11926327736981
 30
0.0
  0
POINT
  5
3A7B
330
36DE
100
AcDbEntity
  8
DEFPOINTS
 62
     0
100
AcDbPoint
 10
657.0091083795152
 20
193.2309833708005
 30
0.0
  0
ENDBLK
  5
36E9
330
36DE
100
AcDbEntity
  8
0
100
AcDbBlockEnd
  0
BLOCK
  5
36F4
330
36EA
100
AcDbEntity
  8
0
100
AcDbBlockBegin
  2
*D6
 70
     1
 10
0.0
 20
0.0
 30
0.0
  3
*D6
  1

  0
LINE
  5
3A7C
330
36EA
100
AcDbEntity
  8
SUNPOU
100
AcDbLine
 10
615.0293055977369
 20
347.6192632773698
 30
0.0
 11
674.3416103263655
 21
347.6192632773697
 31
0.0
  0
LINE
  5
3A7D
330
36EA
100
AcDbEntity
  8
SUNPOU
100
AcDbLine
 10
611.6293055977369
 20
273.1192632773698
 30
0.0
 11
674.3416103263655
 21
273.1192632773698
 31
0.0
  0
LINE
  5
3A7E
330
36EA
100
AcDbEntity
  8
SUNPOU
100
AcDbLine
 10
671.3416103263655
 20
340.6192632773697
 30
0.0
 11
671.3416103263655
 21
280.1192632773698
 31
0.0
  0
INSERT
  5
3A7F
330
36EA
100
AcDbEntity
  8
SUNPOU
100
AcDbBlockReference
  2
_OPEN
 10
671.3416103263655
 20
347.6192632773697
 30
0.0
 41
7.0
 42
7.0
 43
7.0
 50
90.0
  0
INSERT
  5
3A80
330
36EA
100
AcDbEntity
  8
SUNPOU
100
AcDbBlockReference
  2
_OPEN
 10
671.3416103263655
 20
273.1192632773698
 30
0.0
 41
7.0
 42
7.0
 43
7.0
 50
270.0
  0
MTEXT
  5
3A81
330
36EA
100
AcDbEntity
  8
SUNPOU
100
AcDbMText
 10
666.3416103263654
 20
310.3692632773698
 30
0.0
 40
6.0
 41
0.0
 71
     5
 72
     5
  1
\A1;差込寸法　75
 11
0.0000000000000001
 21
1.0
 31
0.0
 73
     1
 44
1.0
1001
ACAD
1000
MTEXTBEGIN
1070
    73
1070
     1
1070
    44
1040
1.0
1070
    74
1070
     0
1000
MTEXTEND
  0
POINT
  5
3A82
330
36EA
100
AcDbEntity
  8
DEFPOINTS
 62
     0
100
AcDbPoint
 10
609.029305597737
 20
347.6192632773698
 30
0.0
  0
POINT
  5
3A83
330
36EA
100
AcDbEntity
  8
DEFPOINTS
 62
     0
100
AcDbPoint
 10
605.6293055977369
 20
273.1192632773698
 30
0.0
  0
POINT
  5
3A84
330
36EA
100
AcDbEntity
  8
DEFPOINTS
 62
     0
100
AcDbPoint
 10
671.3416103263655
 20
273.1192632773698
 30
0.0
  0
ENDBLK
  5
36F5
330
36EA
100
AcDbEntity
  8
0
100
AcDbBlockEnd
  0
BLOCK
  5
3700
330
36F6
100
AcDbEntity
  8
0
100
AcDbBlockBegin
  2
*D7
 70
     1
 10
0.0
 20
0.0
 30
0.0
  3
*D7
  1

  0
LINE
  5
3A85
330
36F6
100
AcDbEntity
  8
SUNPOU
100
AcDbLine
 10
655.996830682678
 20
144.7096224757925
 30
0.0
 11
693.3346525434934
 21
145.4700068165572
 31
0.0
  0
LINE
  5
3A86
330
36F6
100
AcDbEntity
  8
SUNPOU
100
AcDbLine
 10
654.021836230578
 20
241.6895141900924
 30
0.0
 11
691.3596580913933
 21
242.449898530857
 31
0.0
  0
LINE
  5
3A87
330
36F6
100
AcDbEntity
  8
SUNPOU
100
AcDbLine
 10
690.1927490764052
 20
152.4074734005127
 30
0.0
 11
688.5028053699691
 21
235.390267341617
 31
0.0
  0
INSERT
  5
3A88
330
36F6
100
AcDbEntity
  8
SUNPOU
100
AcDbBlockReference
  2
_OPEN
 10
690.3352744492372
 20
145.4089245139149
 30
0.0
 41
7.0
 42
7.0
 43
7.0
 50
271.1666666666395
  0
INSERT
  5
3A89
330
36F6
100
AcDbEntity
  8
SUNPOU
100
AcDbBlockReference
  2
_OPEN
 10
688.3602799971372
 20
242.3888162282147
 30
0.0
 41
7.0
 42
7.0
 43
7.0
 50
91.16666666663945
  0
MTEXT
  5
3A8A
330
36F6
100
AcDbEntity
  8
SUNPOU
100
AcDbMText
 10
694.3467407136142
 20
194.0006742088018
 30
0.0
 40
6.0
 41
0.0
 71
     5
 72
     5
  1
\A1;\U+03C697
 11
0.0203607675474188
 21
-0.999792698085398
 31
0.0
 73
     1
 44
1.0
1001
ACAD
1000
MTEXTBEGIN
1070
    73
1070
     1
1070
    44
1040
1.0
1070
    74
1070
     0
1000
MTEXTEND
  0
POINT
  5
3A8B
330
36F6
100
AcDbEntity
  8
DEFPOINTS
 62
     0
100
AcDbPoint
 10
649.9980744941656
 20
144.587457870508
 30
0.0
  0
POINT
  5
3A8C
330
36F6
100
AcDbEntity
  8
DEFPOINTS
 62
     0
100
AcDbPoint
 10
648.0230800420656
 20
241.5673495848078
 30
0.0
  0
POINT
  5
3A8D
330
36F6
100
AcDbEntity
  8
DEFPOINTS
 62
     0
100
AcDbPoint
 10
688.3602799971372
 20
242.3888162282147
 30
0.0
  0
ENDBLK
  5
3701
330
36F6
100
AcDbEntity
  8
0
100
AcDbBlockEnd
  0
BLOCK
  5
370C
330
3702
100
AcDbEntity
  8
0
100
AcDbBlockBegin
  2
*D8
 70
     1
 10
0.0
 20
0.0
 30
0.0
  3
*D8
  1

  0
LINE
  5
3A8E
330
3702
100
AcDbEntity
  8
SUNPOU
100
AcDbLine
 10
479.0293055977367
 20
143.1192632773699
 30
0.0
 11
446.3976262724466
 21
143.1192632773699
 31
0.0
  0
LINE
  5
3A8F
330
3702
100
AcDbEntity
  8
SUNPOU
100
AcDbLine
 10
481.1418055977367
 20
93.11926327736989
 30
0.0
 11
446.3976262724465
 21
93.11926327736991
 31
0.0
  0
LINE
  5
3A90
330
3702
100
AcDbEntity
  8
SUNPOU
100
AcDbLine
 10
449.3976262724466
 20
136.1192632773699
 30
0.0
 11
449.3976262724466
 21
100.1192632773699
 31
0.0
  0
INSERT
  5
3A91
330
3702
100
AcDbEntity
  8
SUNPOU
100
AcDbBlockReference
  2
_OPEN
 10
449.3976262724466
 20
143.1192632773699
 30
0.0
 41
7.0
 42
7.0
 43
7.0
 50
90.0
  0
INSERT
  5
3A92
330
3702
100
AcDbEntity
  8
SUNPOU
100
AcDbBlockReference
  2
_OPEN
 10
449.3976262724466
 20
93.11926327736991
 30
0.0
 41
7.0
 42
7.0
 43
7.0
 50
270.0
  0
MTEXT
  5
3A93
330
3702
100
AcDbEntity
  8
SUNPOU
100
AcDbMText
 10
444.3976262724466
 20
118.11926327737
 30
0.0
 40
6.0
 41
0.0
 71
     5
 72
     5
  1
\A1;差込寸法50
 11
0.0000000000000001
 21
1.0
 31
0.0
 73
     1
 44
1.0
1001
ACAD
1000
MTEXTBEGIN
1070
    73
1070
     1
1070
    44
1040
1.0
1070
    74
1070
     0
1000
MTEXTEND
  0
POINT
  5
3A94
330
3702
100
AcDbEntity
  8
DEFPOINTS
 62
     0
100
AcDbPoint
 10
485.0293055977367
 20
143.1192632773699
 30
0.0
  0
POINT
  5
3A95
330
3702
100
AcDbEntity
  8
DEFPOINTS
 62
     0
100
AcDbPoint
 10
487.1418055977366
 20
93.11926327736989
 30
0.0
  0
POINT
  5
3A96
330
3702
100
AcDbEntity
  8
DEFPOINTS
 62
     0
100
AcDbPoint
 10
449.3976262724466
 20
93.11926327736991
 30
0.0
  0
ENDBLK
  5
370D
330
3702
100
AcDbEntity
  8
0
100
AcDbBlockEnd
  0
BLOCK
  5
3718
330
370E
100
AcDbEntity
  8
0
100
AcDbBlockBegin
  2
*D9
 70
     1
 10
0.0
 20
0.0
 30
0.0
  3
*D9
  1

  0
LINE
  5
3A97
330
370E
100
AcDbEntity
  8
SUNPOU
100
AcDbLine
 10
485.0293055977367
 20
87.11926327736989
 30
0.0
 11
485.0293055977367
 21
66.03823531889895
 31
0.0
  0
LINE
  5
3A98
330
370E
100
AcDbEntity
  8
SUNPOU
100
AcDbLine
 10
609.0293055977367
 20
87.11926327736978
 30
0.0
 11
609.0293055977367
 21
66.03823531889895
 31
0.0
  0
LINE
  5
3A99
330
370E
100
AcDbEntity
  8
SUNPOU
100
AcDbLine
 10
492.0293055977367
 20
69.03823531889895
 30
0.0
 11
602.0293055977368
 21
69.03823531889895
 31
0.0
  0
INSERT
  5
3A9A
330
370E
100
AcDbEntity
  8
SUNPOU
100
AcDbBlockReference
  2
_OPEN
 10
485.0293055977367
 20
69.03823531889895
 30
0.0
 41
7.0
 42
7.0
 43
7.0
 50
180.0
  0
INSERT
  5
3A9B
330
370E
100
AcDbEntity
  8
SUNPOU
100
AcDbBlockReference
  2
_OPEN
 10
609.0293055977367
 20
69.03823531889895
 30
0.0
 41
7.0
 42
7.0
 43
7.0
  0
MTEXT
  5
3A9C
330
370E
100
AcDbEntity
  8
SUNPOU
100
AcDbMText
 10
547.0293055977367
 20
74.03823531889895
 30
0.0
 40
6.0
 41
0.0
 71
     5
 72
     5
  1
\A1;\U+03C6124
 73
     1
 44
1.0
1001
ACAD
1000
MTEXTBEGIN
1070
    73
1070
     1
1070
    44
1040
1.0
1070
    74
1070
     0
1000
MTEXTEND
  0
POINT
  5
3A9D
330
370E
100
AcDbEntity
  8
DEFPOINTS
 62
     0
100
AcDbPoint
 10
485.0293055977367
 20
93.11926327736989
 30
0.0
  0
POINT
  5
3A9E
330
370E
100
AcDbEntity
  8
DEFPOINTS
 62
     0
100
AcDbPoint
 10
609.0293055977367
 20
93.11926327736978
 30
0.0
  0
POINT
  5
3A9F
330
370E
100
AcDbEntity
  8
DEFPOINTS
 62
     0
100
AcDbPoint
 10
609.0293055977367
 20
69.03823531889895
 30
0.0
  0
ENDBLK
  5
3719
330
370E
100
AcDbEntity
  8
0
100
AcDbBlockEnd
  0
BLOCK
  5
3724
330
371A
100
AcDbEntity
  8
0
100
AcDbBlockBegin
  2
*D10
 70
     1
 10
0.0
 20
0.0
 30
0.0
  3
*D10
  1

  0
LINE
  5
3AA0
330
371A
100
AcDbEntity
  8
SUNPOU
100
AcDbLine
 10
649.0105772681158
 20
199.077403727658
 30
0.0
 11
649.0105772681158
 21
286.281345126769
 31
0.0
  0
LINE
  5
3AA1
330
371A
100
AcDbEntity
  8
SUNPOU
100
AcDbLine
 10
547.0293055977367
 20
254.1192632773698
 30
0.0
 11
547.0293055977367
 21
286.281345126769
 31
0.0
  0
LINE
  5
3AA2
330
371A
100
AcDbEntity
  8
SUNPOU
100
AcDbLine
 10
642.0105772681158
 20
283.281345126769
 30
0.0
 11
554.0293055977367
 21
283.281345126769
 31
0.0
  0
INSERT
  5
3AA3
330
371A
100
AcDbEntity
  8
SUNPOU
100
AcDbBlockReference
  2
_OPEN
 10
649.0105772681158
 20
283.281345126769
 30
0.0
 41
7.0
 42
7.0
 43
7.0
  0
INSERT
  5
3AA4
330
371A
100
AcDbEntity
  8
SUNPOU
100
AcDbBlockReference
  2
_OPEN
 10
547.0293055977367
 20
283.281345126769
 30
0.0
 41
7.0
 42
7.0
 43
7.0
 50
180.0
  0
MTEXT
  5
3AA5
330
371A
100
AcDbEntity
  8
SUNPOU
100
AcDbMText
 10
598.0199414329263
 20
288.281345126769
 30
0.0
 40
6.0
 41
0.0
 71
     5
 72
     5
  1
\A1;102
 73
     1
 44
1.0
1001
ACAD
1000
MTEXTBEGIN
1070
    73
1070
     1
1070
    44
1040
1.0
1070
    74
1070
     0
1000
MTEXTEND
  0
POINT
  5
3AA6
330
371A
100
AcDbEntity
  8
DEFPOINTS
 62
     0
100
AcDbPoint
 10
649.0105772681158
 20
193.0774037276581
 30
0.0
  0
POINT
  5
3AA7
330
371A
100
AcDbEntity
  8
DEFPOINTS
 62
     0
100
AcDbPoint
 10
547.0293055977367
 20
248.1192632773698
 30
0.0
  0
POINT
  5
3AA8
330
371A
100
AcDbEntity
  8
DEFPOINTS
 62
     0
100
AcDbPoint
 10
547.0293055977367
 20
283.281345126769
 30
0.0
  0
ENDBLK
  5
3725
330
371A
100
AcDbEntity
  8
0
100
AcDbBlockEnd
  0
BLOCK
  5
3730
330
3726
100
AcDbEntity
  8
0
100
AcDbBlockBegin
  2
*D11
 70
     1
 10
0.0
 20
0.0
 30
0.0
  3
*D11
  1

  0
LINE
  5
3AA9
330
3726
100
AcDbEntity
  8
SUNPOU
100
AcDbLine
 10
654.0971704529924
 20
237.9903115272442
 30
0.0
 11
680.3511220064605
 21
238.5249729683914
 31
0.0
  0
LINE
  5
3AAA
330
3726
100
AcDbEntity
  8
SUNPOU
100
AcDbLine
 10
655.9214964602645
 20
148.4088251386205
 30
0.0
 11
682.1754480137325
 21
148.9434865797677
 31
0.0
  0
LINE
  5
3AAB
330
3726
100
AcDbEntity
  8
SUNPOU
100
AcDbLine
 10
677.4942692850431
 20
231.4653417791486
 30
0.0
 11
679.0335445466378
 21
155.8809531637201
 31
0.0
  0
INSERT
  5
3AAC
330
3726
100
AcDbEntity
  8
SUNPOU
100
AcDbBlockReference
  2
_OPEN
 10
677.3517439122045
 20
238.4638906657462
 30
0.0
 41
7.0
 42
7.0
 43
7.0
 50
91.16666666669498
  0
INSERT
  5
3AAD
330
3726
100
AcDbEntity
  8
SUNPOU
100
AcDbBlockReference
  2
_OPEN
 10
679.1760699194765
 20
148.8824042771225
 30
0.0
 41
7.0
 42
7.0
 43
7.0
 50
271.166666666695
  0
MTEXT
  5
3AAE
330
3726
100
AcDbEntity
  8
SUNPOU
100
AcDbMText
 10
683.2628704062674
 20
193.7749513091762
 30
0.0
 40
6.0
 41
0.0
 71
     5
 72
     5
  1
\A1;\U+03C689.6
 11
0.0203607675483876
 21
-0.9997926980853783
 31
0.0
 73
     1
 44
1.0
1001
ACAD
1000
MTEXTBEGIN
1070
    73
1070
     1
1070
    44
1040
1.0
1070
    74
1070
     0
1000
MTEXTEND
  0
POINT
  5
3AAF
330
3726
100
AcDbEntity
  8
DEFPOINTS
 62
     0
100
AcDbPoint
 10
648.0984142644801
 20
237.8681469219539
 30
0.0
  0
POINT
  5
3AB0
330
3726
100
AcDbEntity
  8
DEFPOINTS
 62
     0
100
AcDbPoint
 10
649.9227402717522
 20
148.2866605333301
 30
0.0
  0
POINT
  5
3AB1
330
3726
100
AcDbEntity
  8
DEFPOINTS
 62
     0
100
AcDbPoint
 10
679.1760699194765
 20
148.8824042771225
 30
0.0
  0
ENDBLK
  5
3731
330
3726
100
AcDbEntity
  8
0
100
AcDbBlockEnd
  0
BLOCK
  5
373C
330
3732
100
AcDbEntity
  8
0
100
AcDbBlockBegin
  2
*D12
 70
     1
 10
0.0
 20
0.0
 30
0.0
  3
*D12
  1

  0
LINE
  5
3AB2
330
3732
100
AcDbEntity
  8
SUNPOU
100
AcDbLine
 10
649.895645287511
 20
150.5865834949323
 30
0.0
 11
649.6980979214566
 21
162.1566376273328
 31
0.0
  0
LINE
  5
3AB3
330
3732
100
AcDbEntity
  8
SUNPOU
100
AcDbLine
 10
609.9012580315233
 20
149.9037184219629
 30
0.0
 11
609.7037106654688
 21
161.4737725543634
 31
0.0
  0
LINE
  5
3AB4
330
3732
100
AcDbEntity
  8
SUNPOU
100
AcDbLine
 10
642.7503326296224
 20
159.0375740740234
 30
0.0
 11
616.753905163958
 21
158.5937104832485
 31
0.0
  0
MTEXT
  5
3AB5
330
3732
100
AcDbEntity
  8
SUNPOU
100
AcDbMText
 10
629.5984750868079
 20
167.8143307152724
 30
0.0
 40
6.0
 41
0.0
 71
     5
 72
     5
  1
\A1;差込寸法40
 11
0.9998542707373808
 21
0.0170715344424634
 31
0.0
 73
     1
 44
1.0
1001
ACAD
1000
MTEXTBEGIN
1070
    73
1070
     1
1070
    44
1040
1.0
1070
    74
1070
     0
1000
MTEXTEND
  0
INSERT
  5
3AB6
330
3732
100
AcDbEntity
  8
SUNPOU
100
AcDbBlockReference
  2
_OPEN
 10
649.749312524784
 20
159.1570748151206
 30
0.0
 41
7.0
 42
7.0
 43
7.0
 50
0.9781743900378625
  0
INSERT
  5
3AB7
330
3732
100
AcDbEntity
  8
SUNPOU
100
AcDbBlockReference
  2
_OPEN
 10
609.7549252687963
 20
158.4742097421513
 30
0.0
 41
7.0
 42
7.0
 43
7.0
 50
180.9781743900378
  0
POINT
  5
3AB8
330
3732
100
AcDbEntity
  8
DEFPOINTS
 62
     0
100
AcDbPoint
 10
649.9980744941658
 20
144.5874578705081
 30
0.0
  0
POINT
  5
3AB9
330
3732
100
AcDbEntity
  8
DEFPOINTS
 62
     0
100
AcDbPoint
 10
610.0036872381781
 20
143.9045927975386
 30
0.0
  0
POINT
  5
3ABA
330
3732
100
AcDbEntity
  8
DEFPOINTS
 62
     0
100
AcDbPoint
 10
609.7549252687963
 20
158.4742097421513
 30
0.0
  0
ENDBLK
  5
373D
330
3732
100
AcDbEntity
  8
0
100
AcDbBlockEnd
  0
BLOCK
  5
3748
330
373E
100
AcDbEntity
  8
0
100
AcDbBlockBegin
  2
*D13
 70
     1
 10
0.0
 20
0.0
 30
0.0
  3
*D13
  1

  0
LINE
  5
3ABB
330
373E
100
AcDbEntity
  8
SUNPOU
100
AcDbLine
 10
655.0081608024868
 20
526.3306591134345
 30
0.0
 11
698.5440815523887
 21
526.3306591134345
 31
0.0
  0
LINE
  5
3ABC
330
373E
100
AcDbEntity
  8
SUNPOU
100
AcDbLine
 10
655.0081116015332
 20
429.3306590532359
 30
0.0
 11
698.5440815523887
 21
429.3306590532359
 31
0.0
  0
LINE
  5
3ABD
330
373E
100
AcDbEntity
  8
SUNPOU
100
AcDbLine
 10
695.5440815523886
 20
519.3306591134345
 30
0.0
 11
695.5440815523886
 21
436.3306590532358
 31
0.0
  0
INSERT
  5
3ABE
330
373E
100
AcDbEntity
  8
SUNPOU
100
AcDbBlockReference
  2
_OPEN
 10
695.5440815523886
 20
526.3306591134345
 30
0.0
 41
7.0
 42
7.0
 43
7.0
 50
90.0
  0
INSERT
  5
3ABF
330
373E
100
AcDbEntity
  8
SUNPOU
100
AcDbBlockReference
  2
_OPEN
 10
695.5440815523886
 20
429.3306590532359
 30
0.0
 41
7.0
 42
7.0
 43
7.0
 50
270.0
  0
MTEXT
  5
3AC0
330
373E
100
AcDbEntity
  8
SUNPOU
100
AcDbMText
 10
690.5440815523885
 20
477.8306590833353
 30
0.0
 40
6.0
 41
0.0
 71
     5
 72
     5
  1
\A1;97
 11
0.0000000000000001
 21
1.0
 31
0.0
 73
     1
 44
1.0
1001
ACAD
1000
MTEXTBEGIN
1070
    73
1070
     1
1070
    44
1040
1.0
1070
    74
1070
     0
1000
MTEXTEND
  0
POINT
  5
3AC1
330
373E
100
AcDbEntity
  8
DEFPOINTS
 62
     0
100
AcDbPoint
 10
649.0081608024868
 20
526.3306591134345
 30
0.0
  0
POINT
  5
3AC2
330
373E
100
AcDbEntity
  8
DEFPOINTS
 62
     0
100
AcDbPoint
 10
649.0081116015333
 20
429.3306590532359
 30
0.0
  0
POINT
  5
3AC3
330
373E
100
AcDbEntity
  8
DEFPOINTS
 62
     0
100
AcDbPoint
 10
695.5440815523886
 20
429.3306590532359
 30
0.0
  0
ENDBLK
  5
3749
330
373E
100
AcDbEntity
  8
0
100
AcDbBlockEnd
  0
BLOCK
  5
3751
330
374A
100
AcDbEntity
  8
0
100
AcDbBlockBegin
  2
*D14
 70
     1
 10
0.0
 20
0.0
 30
0.0
  3
*D14
  1

  0
LINE
  5
3AC4
330
374A
100
AcDbEntity
  8
SUNPOU
100
AcDbLine
 10
500.838256242809
 20
457.6676493698919
 30
0.0
 11
593.2203549526648
 21
497.9936687365793
 31
0.0
  0
MTEXT
  5
3AC5
102
{ACAD_XDICTIONARY
360
3BE7
102
}
330
374A
100
AcDbEntity
  8
SUNPOU
100
AcDbMText
 10
574.6026890786717
 20
496.0955519956812
 30
0.0
 40
6.0
 41
0.0
 71
     5
 72
     5
  1
\A1;\U+2205115
 11
0.9164890745025385
 21
0.400059715939359
 31
0.0
 73
     1
 44
1.0
1001
ACAD
1000
MTEXTBEGIN
1070
    73
1070
     1
1070
    44
1040
1.0
1070
    74
1070
     0
1000
MTEXTEND
  0
INSERT
  5
3AC6
330
374A
100
AcDbEntity
  8
SUNPOU
100
AcDbBlockReference
  2
_OPEN
 10
494.4228327212914
 20
454.8672313583164
 30
0.0
 41
7.0
 42
7.0
 43
7.0
 50
203.5819116625213
  0
INSERT
  5
3AC7
330
374A
100
AcDbEntity
  8
SUNPOU
100
AcDbBlockReference
  2
_OPEN
 10
599.6357784741826
 20
500.7940867481547
 30
0.0
 41
7.0
 42
7.0
 43
7.0
 50
23.58191166252136
  0
POINT
  5
3AC8
330
374A
100
AcDbEntity
  8
DEFPOINTS
 62
     0
100
AcDbPoint
 10
599.6357784741826
 20
500.7940867481547
 30
0.0
  0
POINT
  5
3AC9
330
374A
100
AcDbEntity
  8
DEFPOINTS
 62
     0
100
AcDbPoint
 10
494.4228327212914
 20
454.8672313583164
 30
0.0
  0
ENDBLK
  5
3752
330
374A
100
AcDbEntity
  8
0
100
AcDbBlockEnd
  0
BLOCK
  5
375A
330
3753
100
AcDbEntity
  8
0
100
AcDbBlockBegin
  2
*D15
 70
     1
 10
0.0
 20
0.0
 30
0.0
  3
*D15
  1

  0
LINE
  5
3ACA
330
3753
100
AcDbEntity
  8
SUNPOU
100
AcDbLine
 10
514.1268925355698
 20
433.7576376604764
 30
0.0
 11
579.9317186599028
 21
521.903680445994
 31
0.0
  0
MTEXT
  5
3ACB
102
{ACAD_XDICTIONARY
360
3BE9
102
}
330
3753
100
AcDbEntity
  8
SUNPOU
100
AcDbMText
 10
560.9282594454289
 20
505.6569379987815
 30
0.0
 40
6.0
 41
0.0
 71
     5
 72
     5
  1
\A1;\U+2205124
 11
0.5982256920393909
 21
0.8013276616865237
 31
0.0
 73
     1
 44
1.0
1001
ACAD
1000
MTEXTBEGIN
1070
    73
1070
     1
1070
    44
1040
1.0
1070
    74
1070
     0
1000
MTEXTEND
  0
INSERT
  5
3ACC
330
3753
100
AcDbEntity
  8
SUNPOU
100
AcDbBlockReference
  2
_OPEN
 10
509.939312691294
 20
428.1483440286709
 30
0.0
 41
7.0
 42
7.0
 43
7.0
 50
233.2570723909928
  0
INSERT
  5
3ACD
330
3753
100
AcDbEntity
  8
SUNPOU
100
AcDbBlockReference
  2
_OPEN
 10
584.1192985041784
 20
527.5129740777998
 30
0.0
 41
7.0
 42
7.0
 43
7.0
 50
53.25707239099281
  0
POINT
  5
3ACE
330
3753
100
AcDbEntity
  8
DEFPOINTS
 62
     0
100
AcDbPoint
 10
584.1192985041784
 20
527.5129740777998
 30
0.0
  0
POINT
  5
3ACF
330
3753
100
AcDbEntity
  8
DEFPOINTS
 62
     0
100
AcDbPoint
 10
509.939312691294
 20
428.1483440286709
 30
0.0
  0
ENDBLK
  5
375B
330
3753
100
AcDbEntity
  8
0
100
AcDbBlockEnd
  0
BLOCK
  5
3766
330
375C
100
AcDbEntity
  8
0
100
AcDbBlockBegin
  2
*D16
 70
     1
 10
0.0
 20
0.0
 30
0.0
  3
*D16
  1

  0
LINE
  5
3AD0
330
375C
100
AcDbEntity
  8
SUNPOU
100
AcDbLine
 10
489.6293055977366
 20
354.1192632773698
 30
0.0
 11
489.6293055977366
 21
379.9977736248903
 31
0.0
  0
LINE
  5
3AD1
330
375C
100
AcDbEntity
  8
SUNPOU
100
AcDbLine
 10
604.4293055977369
 20
354.1192632773698
 30
0.0
 11
604.4293055977369
 21
379.9977736248903
 31
0.0
  0
LINE
  5
3AD2
330
375C
100
AcDbEntity
  8
SUNPOU
100
AcDbLine
 10
496.6293055977367
 20
376.9977736248903
 30
0.0
 11
597.4293055977368
 21
376.9977736248903
 31
0.0
  0
INSERT
  5
3AD3
330
375C
100
AcDbEntity
  8
SUNPOU
100
AcDbBlockReference
  2
_OPEN
 10
489.6293055977366
 20
376.9977736248903
 30
0.0
 41
7.0
 42
7.0
 43
7.0
 50
180.0
  0
INSERT
  5
3AD4
330
375C
100
AcDbEntity
  8
SUNPOU
100
AcDbBlockReference
  2
_OPEN
 10
604.4293055977369
 20
376.9977736248903
 30
0.0
 41
7.0
 42
7.0
 43
7.0
  0
MTEXT
  5
3AD5
330
375C
100
AcDbEntity
  8
SUNPOU
100
AcDbMText
 10
547.0293055977367
 20
381.9977736248903
 30
0.0
 40
6.0
 41
0.0
 71
     5
 72
     5
  1
\A1;\U+03C6114.8
 73
     1
 44
1.0
1001
ACAD
1000
MTEXTBEGIN
1070
    73
1070
     1
1070
    44
1040
1.0
1070
    74
1070
     0
1000
MTEXTEND
  0
POINT
  5
3AD6
330
375C
100
AcDbEntity
  8
DEFPOINTS
 62
     0
100
AcDbPoint
 10
489.6293055977366
 20
348.1192632773698
 30
0.0
  0
POINT
  5
3AD7
330
375C
100
AcDbEntity
  8
DEFPOINTS
 62
     0
100
AcDbPoint
 10
604.4293055977369
 20
348.1192632773698
 30
0.0
  0
POINT
  5
3AD8
330
375C
100
AcDbEntity
  8
DEFPOINTS
 62
     0
100
AcDbPoint
 10
604.4293055977369
 20
376.9977736248903
 30
0.0
  0
ENDBLK
  5
3767
330
375C
100
AcDbEntity
  8
0
100
AcDbBlockEnd
  0
BLOCK
  5
3772
330
3768
100
AcDbEntity
  8
0
100
AcDbBlockBegin
  2
*D17
 70
     1
 10
0.0
 20
0.0
 30
0.0
  3
*D17
  1

  0
LINE
  5
3AD9
330
3768
100
AcDbEntity
  8
SUNPOU
100
AcDbLine
 10
485.5293055977368
 20
354.1192632773698
 30
0.0
 11
485.5293055977368
 21
391.6467333781319
 31
0.0
  0
LINE
  5
3ADA
330
3768
100
AcDbEntity
  8
SUNPOU
100
AcDbLine
 10
609.029305597737
 20
353.6192632773698
 30
0.0
 11
609.029305597737
 21
391.6467333781319
 31
0.0
  0
LINE
  5
3ADB
330
3768
100
AcDbEntity
  8
SUNPOU
100
AcDbLine
 10
492.5293055977367
 20
388.6467333781319
 30
0.0
 11
602.0293055977369
 21
388.6467333781319
 31
0.0
  0
INSERT
  5
3ADC
330
3768
100
AcDbEntity
  8
SUNPOU
100
AcDbBlockReference
  2
_OPEN
 10
485.5293055977368
 20
388.6467333781319
 30
0.0
 41
7.0
 42
7.0
 43
7.0
 50
180.0
  0
INSERT
  5
3ADD
330
3768
100
AcDbEntity
  8
SUNPOU
100
AcDbBlockReference
  2
_OPEN
 10
609.029305597737
 20
388.6467333781319
 30
0.0
 41
7.0
 42
7.0
 43
7.0
  0
MTEXT
  5
3ADE
330
3768
100
AcDbEntity
  8
SUNPOU
100
AcDbMText
 10
547.2793055977368
 20
393.6467333781319
 30
0.0
 40
6.0
 41
0.0
 71
     5
 72
     5
  1
\A1;\U+03C6124
 73
     1
 44
1.0
1001
ACAD
1000
MTEXTBEGIN
1070
    73
1070
     1
1070
    44
1040
1.0
1070
    74
1070
     0
1000
MTEXTEND
  0
POINT
  5
3ADF
330
3768
100
AcDbEntity
  8
DEFPOINTS
 62
     0
100
AcDbPoint
 10
485.5293055977368
 20
348.1192632773698
 30
0.0
  0
POINT
  5
3AE0
330
3768
100
AcDbEntity
  8
DEFPOINTS
 62
     0
100
AcDbPoint
 10
609.029305597737
 20
347.6192632773698
 30
0.0
  0
POINT
  5
3AE1
330
3768
100
AcDbEntity
  8
DEFPOINTS
 62
     0
100
AcDbPoint
 10
609.029305597737
 20
388.6467333781319
 30
0.0
  0
ENDBLK
  5
3773
330
3768
100
AcDbEntity
  8
0
100
AcDbBlockEnd
  0
ENDSEC
  0
SECTION
  2
ENTITIES
  0
DIMENSION
  5
3573
330
1A
100
AcDbEntity
  8
SUNPOU
100
AcDbDimension
  2
*D2
 10
419.2568980243825
 20
93.11926327736994
 30
0.0
 11
414.2568980243825
 21
220.61926327737
 31
0.0
 70
    32
 71
     5
 42
-1.0
  3
STANDARD
100
AcDbAlignedDimension
 13
482.4293055977368
 23
348.1192632773698
 33
0.0
 14
482.7543055977367
 24
93.11926327736992
 34
0.0
 50
90.0
100
AcDbRotatedDimension
1001
ACAD
1000
DSTYLE
1002
{
1070
   287
1070
     5
1070
   287
1070
     5
1070
   287
1070
     5
1070
   287
1070
     5
1070
   287
1070
     5
1070
   287
1070
     5
1070
   287
1070
     5
1070
   287
1070
     5
1070
   287
1070
     5
1070
    41
1040
7.0
1070
    42
1040
6.0
1070
    43
1040
14.0
1070
    44
1040
3.0
1070
    73
1070
     0
1070
    74
1070
     0
1070
    77
1070
     3
1070
   140
1040
6.0
1070
   141
1040
150.0
1070
   147
1040
2.0
1070
   172
1070
     1
1070
   173
1070
     1
1070
   176
1070
   256
1070
   177
1070
   256
1070
   178
1070
   256
1070
   271
1070
     0
1070
   272
1070
     0
1070
   279
1070
     2
1070
   341
1005
6D
1070
     6
1000
OPEN
1070
     7
1000
OPEN
1070
   371
1070
    -1
1070
   372
1070
    -1
1002
}
  0
DIMENSION
  5
3574
330
1A
100
AcDbEntity
  8
SUNPOU
100
AcDbDimension
  2
*D3
 10
435.24312798705
 20
93.11926327736991
 30
0.0
 11
430.24312798705
 21
142.1192632773699
 31
0.0
 70
    32
 71
     5
 42
-1.0
  3
STANDARD
100
AcDbAlignedDimension
 13
547.0293055977367
 23
191.1192632773698
 33
0.0
 14
488.7543055977366
 24
93.11926327736989
 34
0.0
 50
90.0
100
AcDbRotatedDimension
1001
ACAD
1000
DSTYLE
1002
{
1070
   287
1070
     5
1070
   287
1070
     5
1070
   287
1070
     5
1070
   287
1070
     5
1070
   287
1070
     5
1070
   287
1070
     5
1070
   287
1070
     5
1070
   287
1070
     5
1070
   287
1070
     5
1070
    41
1040
7.0
1070
    42
1040
6.0
1070
    43
1040
14.0
1070
    44
1040
3.0
1070
    73
1070
     0
1070
    74
1070
     0
1070
    77
1070
     3
1070
   140
1040
6.0
1070
   141
1040
150.0
1070
   147
1040
2.0
1070
   172
1070
     1
1070
   173
1070
     1
1070
   176
1070
   256
1070
   177
1070
   256
1070
   178
1070
   256
1070
   271
1070
     0
1070
   272
1070
     0
1070
   279
1070
     2
1070
   341
1005
6D
1070
     6
1000
OPEN
1070
     7
1000
OPEN
1070
   371
1070
    -1
1070
   372
1070
    -1
1002
}
  0
DIMENSION
  5
3575
330
1A
100
AcDbEntity
  8
SUNPOU
100
AcDbDimension
  2
*D4
 10
435.24312798705
 20
191.1192632773698
 30
0.0
 11
430.2431279870499
 21
269.6192632773699
 31
0.0
 70
    32
 71
     5
 42
-1.0
  3
STANDARD
100
AcDbAlignedDimension
 13
488.6293055977368
 23
348.1192632773698
 33
0.0
 14
547.0293055977367
 24
191.1192632773698
 34
0.0
 50
90.0
100
AcDbRotatedDimension
1001
ACAD
1000
DSTYLE
1002
{
1070
   287
1070
     5
1070
   287
1070
     5
1070
   287
1070
     5
1070
   287
1070
     5
1070
   287
1070
     5
1070
   287
1070
     5
1070
   287
1070
     5
1070
   287
1070
     5
1070
   287
1070
     5
1070
    41
1040
7.0
1070
    42
1040
6.0
1070
    43
1040
14.0
1070
    44
1040
3.0
1070
    73
1070
     0
1070
    74
1070
     0
1070
    77
1070
     3
1070
   140
1040
6.0
1070
   141
1040
150.0
1070
   147
1040
2.0
1070
   172
1070
     1
1070
   173
1070
     1
1070
   176
1070
   256
1070
   177
1070
   256
1070
   178
1070
   256
1070
   271
1070
     0
1070
   272
1070
     0
1070
   279
1070
     2
1070
   341
1005
6D
1070
     6
1000
OPEN
1070
     7
1000
OPEN
1070
   371
1070
    -1
1070
   372
1070
    -1
1002
}
  0
LWPOLYLINE
  5
3576
330
1A
100
AcDbEntity
  8
ZUWAKU
100
AcDbPolyline
 90
        4
 70
     1
 43
0.0
 10
10.85047808566082
 20
564.5825862828226
 10
10.85047808566082
 20
14.58258628282272
 10
806.8504780856608
 20
14.58258628282272
 10
806.8504780856608
 20
564.5825862828226
  0
LWPOLYLINE
  5
3577
330
1A
100
AcDbEntity
  8
ZUWAKU
100
AcDbPolyline
 90
        4
 70
     1
 43
0.0
 10
10.45047808566085
 20
564.9825862828227
 10
10.45047808566085
 20
14.18258628282274
 10
807.2504780856609
 20
14.18258628282272
 10
807.2504780856609
 20
564.9825862828227
  0
LWPOLYLINE
  5
3578
330
1A
100
AcDbEntity
  8
ZUWAKU
100
AcDbPolyline
 90
        4
 70
     1
 43
0.0
 10
10.05047808566087
 20
565.3825862828226
 10
10.05047808566087
 20
13.78258628282265
 10
807.6504780856609
 20
13.78258628282271
 10
807.6504780856609
 20
565.3825862828227
  0
LWPOLYLINE
  5
3579
330
1A
100
AcDbEntity
  8
ZUWAKU
100
AcDbPolyline
 90
        4
 70
     1
 43
0.0
 10
10.65047808566078
 20
564.7825862828227
 10
10.65047808566078
 20
14.38258628282267
 10
807.0504780856611
 20
14.38258628282271
 10
807.0504780856609
 20
564.7825862828227
  0
LWPOLYLINE
  5
357A
330
1A
100
AcDbEntity
  8
ZUWAKU
100
AcDbPolyline
 90
        4
 70
     1
 43
0.0
 10
10.2504780856608
 20
565.1825862828227
 10
10.2504780856608
 20
13.98258628282269
 10
807.4504780856607
 20
13.98258628282271
 10
807.450478085661
 20
565.1825862828227
  0
LINE
  5
357B
330
1A
100
AcDbEntity
  8
ZUWAKU
100
AcDbLine
 10
10.05047808566087
 20
43.78258628282265
 30
0.0
 11
807.4504780856607
 21
43.78258628282265
 31
0.0
  0
LINE
  5
357C
330
1A
100
AcDbEntity
  8
ZUWAKU
100
AcDbLine
 10
10.05047808566087
 20
43.98258628282269
 30
0.0
 11
807.4504780856607
 21
43.98258628282269
 31
0.0
  0
LINE
  5
357D
330
1A
100
AcDbEntity
  8
ZUWAKU
100
AcDbLine
 10
10.05047808566087
 20
44.18258628282262
 30
0.0
 11
807.4504780856607
 21
44.18258628282262
 31
0.0
  0
LINE
  5
357E
330
1A
100
AcDbEntity
  8
ZUWAKU
100
AcDbLine
 10
10.05047808566087
 20
44.38258628282267
 30
0.0
 11
807.4504780856607
 21
44.38258628282267
 31
0.0
  0
LINE
  5
357F
330
1A
100
AcDbEntity
  8
ZUWAKU
100
AcDbLine
 10
10.05047808566087
 20
44.5825862828226
 30
0.0
 11
807.4504780856607
 21
44.5825862828226
 31
0.0
  0
LINE
  5
3580
330
1A
100
AcDbEntity
  8
ZUWAKU
100
AcDbLine
 10
218.6970793757289
 20
29.18258628282274
 30
0.0
 11
457.4748420566522
 21
29.18258628282274
 31
0.0
  0
LINE
  5
3581
330
1A
100
AcDbEntity
  8
ZUWAKU
100
AcDbLine
 10
218.6970793757289
 20
29.38258628282267
 30
0.0
 11
457.4748420566522
 21
29.38258628282267
 31
0.0
  0
LINE
  5
3582
330
1A
100
AcDbEntity
  8
ZUWAKU
100
AcDbLine
 10
218.6970793757289
 20
28.98258628282269
 30
0.0
 11
457.4748420566522
 21
28.98258628282269
 31
0.0
  0
LINE
  5
3583
330
1A
100
AcDbEntity
  8
SEIHIN
  6
Continuous
 62
     3
100
AcDbLine
 10
306.8117259782707
 20
347.6192632773698
 30
0.0
 11
306.8117259782707
 21
239.0185633297697
 31
0.0
  0
LINE
  5
3584
330
1A
100
AcDbEntity
  8
CENTER L
  6
CENTER
 62
     1
 48
5.0
100
AcDbLine
 10
244.8117259782705
 20
356.1192632773699
 30
0.0
 11
244.8117259782707
 21
85.11926327736984
 31
0.0
  0
LINE
  5
3585
330
1A
100
AcDbEntity
  8
SEIHIN
  6
Continuous
 62
     3
100
AcDbLine
 10
182.8117259782707
 20
347.6192632773698
 30
0.0
 11
182.8117259782707
 21
249.0371836613697
 31
0.0
  0
LINE
  5
3586
330
1A
100
AcDbEntity
  8
CENTER L
  6
CENTER
 62
     1
 48
5.0
100
AcDbLine
 10
257.7214493533063
 20
190.8713839253237
 30
0.0
 11
134.8319231964923
 21
193.2309833708005
 31
0.0
  0
LINE
  5
3587
330
1A
100
AcDbEntity
  8
SEIHIN
  6
Continuous
 62
     3
100
AcDbLine
 10
177.9135298159707
 20
143.9715880954697
 30
0.0
 11
141.8429570818416
 21
144.587457870508
 31
0.0
  0
LINE
  5
3588
330
1A
100
AcDbEntity
  8
SEIHIN
  6
Continuous
 62
     3
100
AcDbLine
 10
184.9118478908706
 20
240.8491798782698
 30
0.0
 11
143.8179515339416
 21
241.5673495848079
 31
0.0
  0
TEXT
  5
3589
330
1A
100
AcDbEntity
  8
moji
100
AcDbText
 10
103.00826767383
 20
26.52376441309741
 30
0.0
 40
6.0
  1
エスロン厚肉たてとい
 41
0.9
  7
ｽﾀｲﾙ1
100
AcDbText
  0
CIRCLE
  5
358A
330
1A
100
AcDbEntity
  8
ZUWAKU
100
AcDbCircle
 10
36.04269024044197
 20
28.98258628282269
 30
0.0
 40
1.75
  0
LINE
  5
358B
330
1A
100
AcDbEntity
  8
ZUWAKU
100
AcDbLine
 10
36.91769024044197
 20
20.93258628282263
 30
0.0
 11
34.99269024044202
 21
20.93258628282263
 31
0.0
  0
LINE
  5
358C
330
1A
100
AcDbEntity
  8
ZUWAKU
100
AcDbLine
 10
34.99269024044202
 20
23.7325862828227
 30
0.0
 11
36.91769024044197
 21
23.7325862828227
 31
0.0
  0
LINE
  5
358D
330
1A
100
AcDbEntity
  8
ZUWAKU
100
AcDbLine
 10
36.91769024044197
 20
34.23258628282269
 30
0.0
 11
34.99269024044202
 21
34.23258628282269
 31
0.0
  0
LINE
  5
358E
330
1A
100
AcDbEntity
  8
ZUWAKU
100
AcDbLine
 10
34.99269024044202
 20
37.03258628282265
 30
0.0
 11
36.91769024044197
 21
37.03258628282265
 31
0.0
  0
INSERT
  5
358F
330
1A
100
AcDbEntity
  8
ZUWAKU
  6
Continuous
100
AcDbBlockReference
  2
*X1
 10
10.05047769231964
 20
13.78258662748624
 30
0.0
1001
ACAD
1000
HATCH
1002
{
1070
    19
1000
ANSI37
1040
0.2
1040
0.0
1000
R14_HATCH_DATA
1000
B0E
1011
11.05047769231964
1021
13.78258662748624
1031
0.0
1011
10.05047769231964
1021
14.78258662748624
1031
0.0
1011
10.05047769231964
1021
13.78258662748624
1031
1.0
1040
0.0
1010
0.0
1020
0.0
1030
1.0
1000
ANSI37
1070
     0
1070
     0
1071
        8
1071
        7
1070
     1
1070
     1
1071
       24
1040
14.50226305446108
1040
17.64484813631999
1040
-0.1989123673796348
1040
14.09221254812235
1040
18.63479762998104
1040
0.0
1040
14.09221254812235
1040
19.92499965533642
1040
-0.4142135623730912
1040
14.61721254812232
1040
20.44999965533641
1040
0.0
1040
17.59221254812223
1040
20.44999965533641
1040
0.4142135623731546
1040
18.11721254812232
1040
20.97499965533641
1040
0.0
1040
18.11721254812232
1040
22.72499965533642
1040
0.4142135623731586
1040
17.59221254812223
1040
23.24999965533642
1040
0.0
1040
14.09221254812235
1040
23.24999965533642
1040
0.4142135623730928
1040
11.29221254812239
1040
20.44999965533644
1040
0.0
1040
11.29221254812239
1040
18.63479762998117
1040
0.1989123673796619
1040
12.52236406713882
1040
15.66494914899756
1040
0.0
1040
15.4321620417835
1040
12.75515117435291
1040
-0.1989123673796613
1040
15.84221254812234
1040
11.76520168069172
1040
0.0
1040
15.84221254812234
1040
10.4749996553364
1040
-0.4142135623730911
1040
15.31721254812237
1040
9.949999655336412
1040
0.0
1040
12.34221254812246
1040
9.949999655336412
1040
0.4142135623731526
1040
11.81721254812237
1040
9.424999655336424
1040
0.0
1040
11.81721254812237
1040
7.674999655336403
1040
0.4142135623731526
1040
12.34221254812246
1040
7.149999655336415
1040
0.0
1040
15.84221254812234
1040
7.149999655336415
1040
0.4142135623731044
1040
18.64221254812241
1040
9.949999655336391
1040
0.0
1040
18.64221254812241
1040
11.76520168069166
1040
0.1989123673796604
1040
17.41206102910587
1040
14.7350501616752
1040
0.0
1071
        0
1071
        7
1070
     1
1070
     1
1071
       16
1040
23.54221254812239
1040
19.04999965533642
1040
-0.4142135623730935
1040
24.94221254812237
1040
20.44999965533641
1040
0.0
1040
26.86721254812233
1040
20.44999965533641
1040
0.4142135623731546
1040
27.39221254812242
1040
20.97499965533641
1040
0.0
1040
27.39221254812242
1040
22.72499965533642
1040
0.4142135623730951
1040
26.86721254812244
1040
23.24999965533642
1040
0.0
1040
24.94221254812226
1040
23.24999965533637
1040
0.4142135623730892
1040
20.74221254812233
1040
19.04999965533635
1040
0.0
1040
20.74221254812233
1040
11.34999965533644
1040
0.4142135623730969
1040
24.94221254812237
1040
7.149999655336415
1040
0.0
1040
26.86721254812233
1040
7.149999655336415
1040
0.4142135623731526
1040
27.39221254812242
1040
7.674999655336403
1040
0.0
1040
27.39221254812242
1040
9.424999655336424
1040
0.4142135623730891
1040
26.86721254812244
1040
9.949999655336412
1040
0.0
1040
24.94221254812237
1040
9.949999655336412
1040
-0.4142135623730928
1040
23.54221254812239
1040
11.3499996553364
1040
0.0
1071
        0
1071
        7
1070
     1
1070
     1
1071
        2
1040
24.24221254812233
1040
15.19999965533641
1040
1.0
1040
27.74221254812232
1040
15.19999965533641
1040
1.0
1071
        0
1071
        7
1070
     1
1070
     1
1071
       26
1040
37.31485903030034
1040
19.20504684889984
1040
0.0
1040
38.37649866343816
1040
22.56690568716943
1040
0.5069206636600134
1040
37.8758677642428
1040
23.24999965533642
1040
0.0
1040
36.17697838463357
1040
23.24999965533642
1040
0.3272098845218764
1040
35.67634748543822
1040
22.88309362350338
1040
0.0
1040
33.80807761080644
1040
16.96690568716949
1040
-0.3272098845219541
1040
33.30744671161097
1040
16.59999965533641
1040
0.0
1040
33.16721254812251
1040
16.59999965533641
1040
-0.4142135623731526
1040
32.64221254812242
1040
17.1249996553364
1040
0.0
1040
32.64221254812242
1040
22.72499965533642
1040
0.4142135623730951
1040
32.11721254812244
1040
23.24999965533642
1040
0.0
1040
30.36721254812233
1040
23.24999965533642
1040
0.4142135623730871
1040
29.84221254812235
1040
22.72499965533643
1040
0.0
1040
29.84221254812235
1040
7.674999655336403
1040
0.4142135623730891
1040
30.36721254812233
1040
7.149999655336415
1040
0.0
1040
32.11721254812232
1040
7.149999655336415
1040
0.4142135623731526
1040
32.64221254812242
1040
7.674999655336403
1040
0.0
1040
32.64221254812242
1040
13.27499965533643
1040
-0.4142135623731526
1040
33.16721254812251
1040
13.79999965533641
1040
0.0
1040
33.30744671161108
1040
13.79999965533641
1040
-0.3272098845218915
1040
33.80807761080644
1040
13.43309362350334
1040
0.0
1040
35.67634748543822
1040
7.516905687169487
1040
0.3272098845218902
1040
36.17697838463357
1040
7.149999655336415
1040
0.0
1040
37.8758677642428
1040
7.149999655336415
1040
0.5069206636600335
1040
38.37649866343816
1040
7.833093623503422
1040
0.0
1040
36.0501072849645
1040
15.19999965533655
1040
0.0
1071
        0
1071
        7
1070
     1
1070
     1
1071
        8
1040
43.49221254812232
1040
22.72499965533643
1040
0.4142135623731546
1040
42.96721254812223
1040
23.24999965533642
1040
0.0
1040
41.21721254812245
1040
23.24999965533642
1040
0.4142135623731507
1040
40.69221254812236
1040
22.72499965533643
1040
0.0
1040
40.69221254812236
1040
7.674999655336403
1040
0.4142135623731526
1040
41.21721254812245
1040
7.149999655336415
1040
0.0
1040
42.96721254812223
1040
7.149999655336415
1040
0.4142135623731526
1040
43.49221254812232
1040
7.674999655336403
1040
0.0
1071
        0
1071
        7
1070
     1
1070
     1
1071
       24
1040
48.39221254812241
1040
19.92499965533642
1040
-0.4142135623731546
1040
48.9172125481225
1040
20.44999965533641
1040
0.0
1040
51.89221254812242
1040
20.44999965533641
1040
0.4142135623730911
1040
52.41721254812239
1040
20.97499965533641
1040
0.0
1040
52.41721254812239
1040
22.72499965533642
1040
0.4142135623730952
1040
51.89221254812242
1040
23.24999965533642
1040
0.0
1040
48.39221254812241
1040
23.24999965533642
1040
0.4142135623731048
1040
45.59221254812235
1040
20.44999965533644
1040
0.0
1040
45.59221254812235
1040
18.63479762998117
1040
0.1989123673796613
1040
46.82236406713889
1040
15.66494914899762
1040
0.0
1040
49.73216204178356
1040
12.75515117435295
1040
-0.1989123673796402
1040
50.14221254812241
1040
11.76520168069188
1040
0.0
1040
50.14221254812241
1040
10.4749996553364
1040
-0.4142135623730911
1040
49.61721254812244
1040
9.949999655336412
1040
0.0
1040
46.64221254812241
1040
9.949999655336412
1040
0.4142135623731526
1040
46.11721254812232
1040
9.424999655336424
1040
0.0
1040
46.11721254812232
1040
7.674999655336403
1040
0.4142135623730891
1040
46.6422125481223
1040
7.149999655336415
1040
0.0
1040
50.14221254812241
1040
7.149999655336415
1040
0.4142135623730925
1040
52.94221254812237
1040
9.949999655336391
1040
0.0
1040
52.94221254812237
1040
11.76520168069166
1040
0.1989123673796675
1040
51.71206102910582
1040
14.73505016167532
1040
0.0
1040
48.80226305446126
1040
17.64484813631983
1040
-0.1989123673796652
1040
48.39221254812241
1040
18.634797629981
1040
0.0
1071
        0
1071
        7
1070
     1
1070
     1
1071
       16
1040
57.84221254812234
1040
22.7249996553364
1040
0.414213562373103
1040
57.31721254812237
1040
23.24999965533642
1040
0.0
1040
55.56721254812237
1040
23.24999965533642
1040
0.4142135623730871
1040
55.0422125481224
1040
22.72499965533643
1040
0.0
1040
55.0422125481224
1040
9.949999655336391
1040
0.4142135623730926
1040
57.84221254812234
1040
7.149999655336415
1040
0.0
1040
61.34221254812235
1040
7.149999655336415
1040
0.4142135623731044
1040
64.14221254812241
1040
9.949999655336391
1040
0.0
1040
64.14221254812241
1040
22.72499965533642
1040
0.4142135623730951
1040
63.61721254812244
1040
23.24999965533642
1040
0.0
1040
61.86721254812233
1040
23.24999965533642
1040
0.4142135623730871
1040
61.34221254812235
1040
22.72499965533643
1040
0.0
1040
61.34221254812235
1040
10.99999965533639
1040
-0.414213562373088
1040
60.29221254812239
1040
9.949999655336412
1040
0.0
1040
58.89221254812241
1040
9.949999655336412
1040
-0.4142135623731197
1040
57.84221254812234
1040
10.99999965533639
1040
0.0
1071
        0
1071
        7
1070
     1
1070
     1
1071
        8
1040
69.04221254812239
1040
22.72499965533643
1040
0.4142135623730871
1040
68.51721254812241
1040
23.24999965533642
1040
0.0
1040
66.76721254812242
1040
23.24999965533642
1040
0.4142135623731507
1040
66.24221254812233
1040
22.72499965533643
1040
0.0
1040
66.24221254812233
1040
7.674999655336403
1040
0.4142135623730891
1040
66.7672125481223
1040
7.149999655336415
1040
0.0
1040
68.51721254812241
1040
7.149999655336415
1040
0.4142135623730891
1040
69.04221254812239
1040
7.674999655336403
1040
0.0
1071
        0
1070
     0
1070
     1
1040
0.0
1040
0.2
1070
     0
1070
     2
1040
0.7853981633974483
1040
-900.9423039413377
1040
-13.20000034466352
1040
-0.4490128060534576
1040
0.4490128060534577
1070
     0
1040
2.356194490192344
1040
-900.9423039413377
1040
-13.20000034466352
1040
-0.4490128060534577
1040
-0.4490128060534576
1070
     0
1040
0.057451373970553
1071
        8
1040
16.07985535636453
1040
15.16717330122196
1040
0.0
1040
22.40451539978039
1040
18.84406183778742
1040
0.0
1040
25.16436827900089
1040
15.51188130140713
1040
0.0
1040
30.91406037497836
1040
16.20129730177791
1040
0.0
1040
41.83847241229796
1040
16.66090956931953
1040
0.0
1040
46.89820128847077
1040
19.41857597174362
1040
0.0
1040
56.55768636574157
1040
18.72915757043142
1040
0.0
1040
67.82708001296396
1040
19.18876983797304
1040
0.0
1002
}
  0
ARC
  5
3590
330
1A
100
AcDbEntity
  8
ZUWAKU
100
AcDbCircle
 10
25.54269024044197
 20
32.41738425746735
 30
0.0
 40
4.199999999999999
100
AcDbArc
 50
180.0
 51
224.9999999999998
  0
LINE
  5
3591
330
1A
100
AcDbEntity
  8
ZUWAKU
100
AcDbLine
 10
30.79269024044197
 20
25.13258628282267
 30
0.0
 11
30.79269024044197
 21
32.8325862828226
 31
0.0
  0
LINE
  5
3592
330
1A
100
AcDbEntity
  8
ZUWAKU
100
AcDbLine
 10
33.59269024044204
 20
32.8325862828226
 30
0.0
 11
33.59269024044204
 21
25.13258628282267
 31
0.0
  0
ARC
  5
3593
330
1A
100
AcDbEntity
  8
ZUWAKU
100
AcDbCircle
 10
25.54269024044197
 20
32.41738425746735
 30
0.0
 40
1.399999999999999
100
AcDbArc
 50
180.0000000000016
 51
224.9999999999992
  0
ARC
  5
3594
330
1A
100
AcDbEntity
  8
ZUWAKU
100
AcDbCircle
 10
34.99269024044202
 20
25.13258628282267
 30
0.0
 40
4.199999999999999
100
AcDbArc
 50
180.0
 51
270.0
  0
ARC
  5
3595
330
1A
100
AcDbEntity
  8
ZUWAKU
100
AcDbCircle
 10
25.89269024044199
 20
23.7325862828227
 30
0.0
 40
2.799999999999999
100
AcDbArc
 50
270.0
 51
0.0
  0
ARC
  5
3596
330
1A
100
AcDbEntity
  8
ZUWAKU
100
AcDbCircle
 10
24.49269024044202
 20
25.54778830817793
 30
0.0
 40
4.199999999999999
100
AcDbArc
 50
0.0
 51
44.99999999999978
  0
LINE
  5
3597
330
1A
100
AcDbEntity
  8
ZUWAKU
100
AcDbLine
 10
22.57284175945847
 20
29.44753577648384
 30
0.0
 11
25.48263973410314
 21
26.53773780183917
 31
0.0
  0
LINE
  5
3598
330
1A
100
AcDbEntity
  8
ZUWAKU
100
AcDbLine
 10
22.39269024044199
 20
23.7325862828227
 30
0.0
 11
25.36769024044202
 21
23.7325862828227
 31
0.0
  0
LINE
  5
3599
330
1A
100
AcDbEntity
  8
ZUWAKU
100
AcDbLine
 10
22.39269024044199
 20
20.93258628282263
 30
0.0
 11
25.89269024044199
 21
20.93258628282263
 31
0.0
  0
ARC
  5
359A
330
1A
100
AcDbEntity
  8
ZUWAKU
100
AcDbCircle
 10
22.39269024044199
 20
23.2075862828226
 30
0.0
 40
0.525
100
AcDbArc
 50
90.0
 51
180.0
  0
ARC
  5
359B
330
1A
100
AcDbEntity
  8
ZUWAKU
100
AcDbCircle
 10
22.39269024044199
 20
21.4575862828226
 30
0.0
 40
0.525
100
AcDbArc
 50
180.0
 51
270.0
  0
LINE
  5
359C
330
1A
100
AcDbEntity
  8
ZUWAKU
100
AcDbLine
 10
21.86769024044202
 20
21.4575862828226
 30
0.0
 11
21.86769024044202
 21
23.2075862828226
 31
0.0
  0
ARC
  5
359D
330
1A
100
AcDbEntity
  8
ZUWAKU
100
AcDbCircle
 10
24.49269024044202
 20
25.54778830817804
 30
0.0
 40
1.399999999999999
100
AcDbArc
 50
0.0
 51
44.99999999999978
  0
ARC
  5
359E
330
1A
100
AcDbEntity
  8
ZUWAKU
100
AcDbCircle
 10
25.36769024044202
 20
24.25758628282267
 30
0.0
 40
0.525
100
AcDbArc
 50
270.0
 51
0.0
  0
LINE
  5
359F
330
1A
100
AcDbEntity
  8
ZUWAKU
100
AcDbLine
 10
25.89269024044199
 20
24.25758628282267
 30
0.0
 11
25.89269024044199
 21
25.54778830817804
 31
0.0
  0
LINE
  5
35A0
330
1A
100
AcDbEntity
  8
ZUWAKU
100
AcDbLine
 10
27.46253872142552
 20
28.51763678916143
 30
0.0
 11
24.55274074678084
 21
31.42743476380611
 31
0.0
  0
ARC
  5
35A1
330
1A
100
AcDbEntity
  8
ZUWAKU
100
AcDbCircle
 10
34.99269024044202
 20
25.13258628282267
 30
0.0
 40
1.399999999999999
100
AcDbArc
 50
180.0
 51
270.0
  0
LINE
  5
35A2
330
1A
100
AcDbEntity
  8
ZUWAKU
100
AcDbLine
 10
28.69269024044206
 20
23.7325862828227
 30
0.0
 11
28.69269024044206
 21
25.54778830817804
 31
0.0
  0
ARC
  5
35A3
330
1A
100
AcDbEntity
  8
ZUWAKU
100
AcDbCircle
 10
27.642690240442
 20
34.75758628282267
 30
0.0
 40
0.525
100
AcDbArc
 50
270.0
 51
0.0
  0
ARC
  5
35A4
330
1A
100
AcDbEntity
  8
ZUWAKU
100
AcDbCircle
 10
27.642690240442
 20
36.50758628282267
 30
0.0
 40
0.525
100
AcDbArc
 50
0.0
 51
90.0
  0
ARC
  5
35A5
330
1A
100
AcDbEntity
  8
ZUWAKU
100
AcDbCircle
 10
24.14269024044199
 20
34.23258628282269
 30
0.0
 40
2.799999999999999
100
AcDbArc
 50
90.0
 51
180.0
  0
LINE
  5
35A6
330
1A
100
AcDbEntity
  8
ZUWAKU
100
AcDbLine
 10
21.34269024044204
 20
34.23258628282269
 30
0.0
 11
21.34269024044204
 21
32.41738425746735
 31
0.0
  0
LINE
  5
35A7
330
1A
100
AcDbEntity
  8
ZUWAKU
100
AcDbLine
 10
27.642690240442
 20
34.23258628282269
 30
0.0
 11
24.66769024044197
 21
34.23258628282269
 31
0.0
  0
LINE
  5
35A8
330
1A
100
AcDbEntity
  8
ZUWAKU
100
AcDbLine
 10
24.14269024044199
 20
33.7075862828226
 30
0.0
 11
24.14269024044199
 21
32.41738425746735
 31
0.0
  0
ARC
  5
35A9
330
1A
100
AcDbEntity
  8
ZUWAKU
100
AcDbCircle
 10
24.66769024044197
 20
33.7075862828226
 30
0.0
 40
0.525
100
AcDbArc
 50
90.0
 51
180.0
  0
LINE
  5
35AA
330
1A
100
AcDbEntity
  8
ZUWAKU
100
AcDbLine
 10
24.14269024044199
 20
37.03258628282265
 30
0.0
 11
27.642690240442
 21
37.03258628282265
 31
0.0
  0
ARC
  5
35AB
330
1A
100
AcDbEntity
  8
ZUWAKU
100
AcDbCircle
 10
34.99269024044202
 20
32.8325862828226
 30
0.0
 40
4.199999999999999
100
AcDbArc
 50
90.0
 51
180.0
  0
ARC
  5
35AC
330
1A
100
AcDbEntity
  8
ZUWAKU
100
AcDbCircle
 10
34.99269024044202
 20
32.8325862828226
 30
0.0
 40
1.399999999999999
100
AcDbArc
 50
90.0
 51
180.0
  0
LINE
  5
35AD
330
1A
100
AcDbEntity
  8
ZUWAKU
100
AcDbLine
 10
28.16769024044197
 20
36.50758628282267
 30
0.0
 11
28.16769024044197
 21
34.75758628282267
 31
0.0
  0
LINE
  5
35AE
330
1A
100
AcDbEntity
  8
ZUWAKU
100
AcDbLine
 10
45.72682517775786
 20
36.66568025098968
 30
0.0
 11
43.85855530312608
 21
30.74949231465564
 31
0.0
  0
LINE
  5
35AF
330
1A
100
AcDbEntity
  8
ZUWAKU
100
AcDbLine
 10
39.892690240442
 20
36.50758628282267
 30
0.0
 11
39.892690240442
 21
21.4575862828226
 31
0.0
  0
LINE
  5
35B0
330
1A
100
AcDbEntity
  8
ZUWAKU
100
AcDbLine
 10
42.69269024044206
 20
30.90758628282265
 30
0.0
 11
42.69269024044206
 21
36.50758628282267
 31
0.0
  0
LINE
  5
35B1
330
1A
100
AcDbEntity
  8
ZUWAKU
100
AcDbLine
 10
67.89269024044199
 20
24.78258628282265
 30
0.0
 11
67.89269024044199
 21
36.50758628282267
 31
0.0
  0
LINE
  5
35B2
330
1A
100
AcDbEntity
  8
ZUWAKU
100
AcDbLine
 10
65.09269024044204
 20
36.50758628282267
 30
0.0
 11
65.09269024044204
 21
23.7325862828227
 31
0.0
  0
LINE
  5
35B3
330
1A
100
AcDbEntity
  8
ZUWAKU
100
AcDbLine
 10
53.54269024044197
 20
21.4575862828226
 30
0.0
 11
53.54269024044197
 21
36.50758628282267
 31
0.0
  0
LINE
  5
35B4
330
1A
100
AcDbEntity
  8
ZUWAKU
100
AcDbLine
 10
50.74269024044202
 20
36.50758628282267
 30
0.0
 11
50.74269024044202
 21
21.4575862828226
 31
0.0
  0
LINE
  5
35B5
330
1A
100
AcDbEntity
  8
ZUWAKU
100
AcDbLine
 10
47.36533672261998
 20
32.98763347638612
 30
0.0
 11
46.10058497728414
 21
28.98258628282269
 31
0.0
  0
ARC
  5
35B6
330
1A
100
AcDbEntity
  8
ZUWAKU
100
AcDbCircle
 10
59.84269024044204
 20
32.41738425746735
 30
0.0
 40
4.199999999999999
100
AcDbArc
 50
180.0
 51
224.9999999999998
  0
ARC
  5
35B7
330
1A
100
AcDbEntity
  8
ZUWAKU
100
AcDbCircle
 10
59.84269024044204
 20
32.41738425746735
 30
0.0
 40
1.399999999999999
100
AcDbArc
 50
180.0000000000016
 51
224.9999999999992
  0
LINE
  5
35B8
330
1A
100
AcDbEntity
  8
ZUWAKU
100
AcDbLine
 10
76.29269024044197
 20
36.50758628282267
 30
0.0
 11
76.29269024044197
 21
21.4575862828226
 31
0.0
  0
LINE
  5
35B9
330
1A
100
AcDbEntity
  8
ZUWAKU
100
AcDbLine
 10
79.09269024044204
 20
21.4575862828226
 30
0.0
 11
79.09269024044204
 21
36.50758628282267
 31
0.0
  0
LINE
  5
35BA
330
1A
100
AcDbEntity
  8
ZUWAKU
100
AcDbLine
 10
71.392690240442
 20
36.50758628282267
 30
0.0
 11
71.392690240442
 21
24.78258628282265
 31
0.0
  0
LINE
  5
35BB
330
1A
100
AcDbEntity
  8
ZUWAKU
100
AcDbLine
 10
74.19269024044206
 20
23.7325862828227
 30
0.0
 11
74.19269024044206
 21
36.50758628282267
 31
0.0
  0
LINE
  5
35BC
330
1A
100
AcDbEntity
  8
ZUWAKU
100
AcDbLine
 10
89.17710763364926
 20
43.78258628282265
 30
0.0
 11
89.17710763364926
 21
14.58258628282272
 31
0.0
  0
LINE
  5
35BD
330
1A
100
AcDbEntity
  8
ZUWAKU
100
AcDbLine
 10
89.57710763364913
 20
43.78258628282265
 30
0.0
 11
89.57710763364934
 21
14.58258628282272
 31
0.0
  0
LINE
  5
35BE
330
1A
100
AcDbEntity
  8
ZUWAKU
100
AcDbLine
 10
89.37710763364908
 20
43.78258628282265
 30
0.0
 11
89.37710763364931
 21
14.58258628282272
 31
0.0
  0
LINE
  5
35BF
330
1A
100
AcDbEntity
  8
ZUWAKU
100
AcDbLine
 10
67.89269024044199
 20
20.93258628282263
 30
0.0
 11
71.392690240442
 21
20.93258628282263
 31
0.0
  0
LINE
  5
35C0
330
1A
100
AcDbEntity
  8
ZUWAKU
100
AcDbLine
 10
70.34269024044204
 20
23.7325862828227
 30
0.0
 11
68.94269024044206
 21
23.7325862828227
 31
0.0
  0
LINE
  5
35C1
330
1A
100
AcDbEntity
  8
ZUWAKU
100
AcDbLine
 10
51.26769024044199
 20
20.93258628282263
 30
0.0
 11
53.01769024044199
 21
20.93258628282263
 31
0.0
  0
LINE
  5
35C2
330
1A
100
AcDbEntity
  8
ZUWAKU
100
AcDbLine
 10
45.72682517775786
 20
21.29949231465571
 30
0.0
 11
43.85855530312608
 21
27.21568025098964
 31
0.0
  0
ARC
  5
35C3
330
1A
100
AcDbEntity
  8
ZUWAKU
100
AcDbCircle
 10
43.21769024044203
 20
27.05758628282263
 30
0.0
 40
0.525
100
AcDbArc
 50
90.0
 51
180.0
  0
ARC
  5
35C4
330
1A
100
AcDbEntity
  8
ZUWAKU
100
AcDbCircle
 10
43.35792440393072
 20
27.05758628282263
 30
0.0
 40
0.525
100
AcDbArc
 50
17.52556837372284
 51
90.0
  0
ARC
  5
35C5
330
1A
100
AcDbEntity
  8
ZUWAKU
100
AcDbCircle
 10
40.41769024044197
 20
21.4575862828226
 30
0.0
 40
0.525
100
AcDbArc
 50
180.0
 51
270.0
  0
ARC
  5
35C6
330
1A
100
AcDbEntity
  8
ZUWAKU
100
AcDbCircle
 10
36.91769024044197
 20
23.2075862828226
 30
0.0
 40
0.525
100
AcDbArc
 50
0.0
 51
90.0
  0
ARC
  5
35C7
330
1A
100
AcDbEntity
  8
ZUWAKU
100
AcDbCircle
 10
36.91769024044197
 20
21.4575862828226
 30
0.0
 40
0.525
100
AcDbArc
 50
270.0
 51
0.0
  0
LINE
  5
35C8
330
1A
100
AcDbEntity
  8
ZUWAKU
100
AcDbLine
 10
37.44269024044206
 20
23.2075862828226
 30
0.0
 11
37.44269024044206
 21
21.4575862828226
 31
0.0
  0
LINE
  5
35C9
330
1A
100
AcDbEntity
  8
ZUWAKU
100
AcDbLine
 10
42.69269024044206
 20
21.4575862828226
 30
0.0
 11
42.69269024044206
 21
27.05758628282263
 31
0.0
  0
ARC
  5
35CA
330
1A
100
AcDbEntity
  8
ZUWAKU
100
AcDbCircle
 10
42.16769024044197
 20
21.4575862828226
 30
0.0
 40
0.525
100
AcDbArc
 50
270.0
 51
0.0
  0
LINE
  5
35CB
330
1A
100
AcDbEntity
  8
ZUWAKU
100
AcDbLine
 10
40.41769024044197
 20
20.93258628282263
 30
0.0
 11
42.16769024044197
 21
20.93258628282263
 31
0.0
  0
ARC
  5
35CC
330
1A
100
AcDbEntity
  8
ZUWAKU
100
AcDbCircle
 10
43.21769024044203
 20
30.90758628282265
 30
0.0
 40
0.525
100
AcDbArc
 50
180.0
 51
270.0
  0
LINE
  5
35CD
330
1A
100
AcDbEntity
  8
ZUWAKU
100
AcDbLine
 10
43.21769024044203
 20
27.5825862828226
 30
0.0
 11
43.35792440393072
 21
27.5825862828226
 31
0.0
  0
LINE
  5
35CE
330
1A
100
AcDbEntity
  8
ZUWAKU
100
AcDbLine
 10
43.35792440393072
 20
30.38258628282267
 30
0.0
 11
43.21769024044203
 21
30.38258628282267
 31
0.0
  0
ARC
  5
35CF
330
1A
100
AcDbEntity
  8
ZUWAKU
100
AcDbCircle
 10
43.35792440393072
 20
30.90758628282265
 30
0.0
 40
0.525
100
AcDbArc
 50
270.0
 51
342.4744316262772
  0
ARC
  5
35D0
330
1A
100
AcDbEntity
  8
ZUWAKU
100
AcDbCircle
 10
46.22745607695333
 20
21.4575862828226
 30
0.0
 40
0.525
100
AcDbArc
 50
197.5255683737228
 51
270.0
  0
LINE
  5
35D1
330
1A
100
AcDbEntity
  8
ZUWAKU
100
AcDbLine
 10
48.4269763557578
 20
21.61568025098961
 30
0.0
 11
46.10058497728414
 21
28.98258628282269
 31
0.0
  0
ARC
  5
35D2
330
1A
100
AcDbEntity
  8
ZUWAKU
100
AcDbCircle
 10
47.92634545656233
 20
21.4575862828226
 30
0.0
 40
0.525
100
AcDbArc
 50
270.0
 51
17.52556837372284
  0
LINE
  5
35D3
330
1A
100
AcDbEntity
  8
ZUWAKU
100
AcDbLine
 10
46.22745607695333
 20
20.93258628282263
 30
0.0
 11
47.92634545656233
 21
20.93258628282263
 31
0.0
  0
ARC
  5
35D4
330
1A
100
AcDbEntity
  8
ZUWAKU
100
AcDbCircle
 10
51.26769024044199
 20
21.4575862828226
 30
0.0
 40
0.525
100
AcDbArc
 50
180.0
 51
270.0
  0
ARC
  5
35D5
330
1A
100
AcDbEntity
  8
ZUWAKU
100
AcDbCircle
 10
60.19269024044206
 20
23.7325862828227
 30
0.0
 40
2.799999999999999
100
AcDbArc
 50
270.0
 51
0.0
  0
ARC
  5
35D6
330
1A
100
AcDbEntity
  8
ZUWAKU
100
AcDbCircle
 10
67.89269024044199
 20
23.7325862828227
 30
0.0
 40
2.799999999999999
100
AcDbArc
 50
180.0
 51
270.0
  0
LINE
  5
35D7
330
1A
100
AcDbEntity
  8
ZUWAKU
100
AcDbLine
 10
61.76253872142559
 20
28.51763678916143
 30
0.0
 11
58.85274074678079
 21
31.42743476380611
 31
0.0
  0
LINE
  5
35D8
330
1A
100
AcDbEntity
  8
ZUWAKU
100
AcDbLine
 10
56.87284175945854
 20
29.44753577648384
 30
0.0
 11
59.78263973410321
 21
26.53773780183917
 31
0.0
  0
LINE
  5
35D9
330
1A
100
AcDbEntity
  8
ZUWAKU
100
AcDbLine
 10
56.69269024044206
 20
20.93258628282263
 30
0.0
 11
60.19269024044206
 21
20.93258628282263
 31
0.0
  0
LINE
  5
35DA
330
1A
100
AcDbEntity
  8
ZUWAKU
100
AcDbLine
 10
56.69269024044206
 20
23.7325862828227
 30
0.0
 11
59.66769024044197
 21
23.7325862828227
 31
0.0
  0
ARC
  5
35DB
330
1A
100
AcDbEntity
  8
ZUWAKU
100
AcDbCircle
 10
56.69269024044206
 20
23.2075862828226
 30
0.0
 40
0.525
100
AcDbArc
 50
90.0
 51
180.0
  0
ARC
  5
35DC
330
1A
100
AcDbEntity
  8
ZUWAKU
100
AcDbCircle
 10
53.01769024044199
 20
21.4575862828226
 30
0.0
 40
0.525
100
AcDbArc
 50
270.0
 51
0.0
  0
ARC
  5
35DD
330
1A
100
AcDbEntity
  8
ZUWAKU
100
AcDbCircle
 10
56.69269024044206
 20
21.4575862828226
 30
0.0
 40
0.525
100
AcDbArc
 50
180.0
 51
270.0
  0
LINE
  5
35DE
330
1A
100
AcDbEntity
  8
ZUWAKU
100
AcDbLine
 10
56.16769024044197
 20
21.4575862828226
 30
0.0
 11
56.16769024044197
 21
23.2075862828226
 31
0.0
  0
ARC
  5
35DF
330
1A
100
AcDbEntity
  8
ZUWAKU
100
AcDbCircle
 10
59.66769024044197
 20
24.25758628282267
 30
0.0
 40
0.525
100
AcDbArc
 50
270.0
 51
0.0
  0
ARC
  5
35E0
330
1A
100
AcDbEntity
  8
ZUWAKU
100
AcDbCircle
 10
58.79269024044197
 20
25.54778830817804
 30
0.0
 40
1.399999999999999
100
AcDbArc
 50
0.0
 51
44.99999999999978
  0
LINE
  5
35E1
330
1A
100
AcDbEntity
  8
ZUWAKU
100
AcDbLine
 10
60.19269024044206
 20
24.25758628282267
 30
0.0
 11
60.19269024044206
 21
25.54778830817804
 31
0.0
  0
ARC
  5
35E2
330
1A
100
AcDbEntity
  8
ZUWAKU
100
AcDbCircle
 10
68.94269024044206
 20
24.78258628282265
 30
0.0
 40
1.049999999999999
100
AcDbArc
 50
180.0
 51
270.0
  0
ARC
  5
35E3
330
1A
100
AcDbEntity
  8
ZUWAKU
100
AcDbCircle
 10
58.79269024044197
 20
25.54778830817793
 30
0.0
 40
4.199999999999999
100
AcDbArc
 50
0.0
 51
44.99999999999978
  0
LINE
  5
35E4
330
1A
100
AcDbEntity
  8
ZUWAKU
100
AcDbLine
 10
62.99269024044201
 20
23.7325862828227
 30
0.0
 11
62.99269024044201
 21
25.54778830817804
 31
0.0
  0
ARC
  5
35E5
330
1A
100
AcDbEntity
  8
ZUWAKU
100
AcDbCircle
 10
71.392690240442
 20
23.7325862828227
 30
0.0
 40
2.799999999999999
100
AcDbArc
 50
270.0
 51
0.0
  0
LINE
  5
35E6
330
1A
100
AcDbEntity
  8
ZUWAKU
100
AcDbLine
 10
76.81769024044206
 20
20.93258628282263
 30
0.0
 11
78.56769024044206
 21
20.93258628282263
 31
0.0
  0
ARC
  5
35E7
330
1A
100
AcDbEntity
  8
ZUWAKU
100
AcDbCircle
 10
70.34269024044204
 20
24.78258628282265
 30
0.0
 40
1.049999999999999
100
AcDbArc
 50
270.0
 51
0.0
  0
ARC
  5
35E8
330
1A
100
AcDbEntity
  8
ZUWAKU
100
AcDbCircle
 10
76.81769024044206
 20
21.4575862828226
 30
0.0
 40
0.525
100
AcDbArc
 50
180.0
 51
270.0
  0
ARC
  5
35E9
330
1A
100
AcDbEntity
  8
ZUWAKU
100
AcDbCircle
 10
78.56769024044206
 20
21.4575862828226
 30
0.0
 40
0.525
100
AcDbArc
 50
270.0
 51
0.0
  0
LINE
  5
35EA
330
1A
100
AcDbEntity
  8
ZUWAKU
100
AcDbLine
 10
53.01769024044199
 20
37.03258628282265
 30
0.0
 11
51.26769024044199
 21
37.03258628282265
 31
0.0
  0
LINE
  5
35EB
330
1A
100
AcDbEntity
  8
ZUWAKU
100
AcDbLine
 10
37.44269024044206
 20
36.50758628282267
 30
0.0
 11
37.44269024044206
 21
34.75758628282267
 31
0.0
  0
ARC
  5
35EC
330
1A
100
AcDbEntity
  8
ZUWAKU
100
AcDbCircle
 10
36.91769024044197
 20
34.75758628282267
 30
0.0
 40
0.525
100
AcDbArc
 50
270.0
 51
0.0
  0
ARC
  5
35ED
330
1A
100
AcDbEntity
  8
ZUWAKU
100
AcDbCircle
 10
40.41769024044197
 20
36.50758628282267
 30
0.0
 40
0.525
100
AcDbArc
 50
90.0
 51
180.0
  0
ARC
  5
35EE
330
1A
100
AcDbEntity
  8
ZUWAKU
100
AcDbCircle
 10
36.91769024044197
 20
36.50758628282267
 30
0.0
 40
0.525
100
AcDbArc
 50
0.0
 51
90.0
  0
LINE
  5
35EF
330
1A
100
AcDbEntity
  8
ZUWAKU
100
AcDbLine
 10
42.16769024044197
 20
37.03258628282265
 30
0.0
 11
40.41769024044197
 21
37.03258628282265
 31
0.0
  0
ARC
  5
35F0
330
1A
100
AcDbEntity
  8
ZUWAKU
100
AcDbCircle
 10
42.16769024044197
 20
36.50758628282267
 30
0.0
 40
0.525
100
AcDbArc
 50
0.0
 51
90.0
  0
ARC
  5
35F1
330
1A
100
AcDbEntity
  8
ZUWAKU
100
AcDbCircle
 10
46.22745607695333
 20
36.50758628282267
 30
0.0
 40
0.525
100
AcDbArc
 50
90.0
 51
162.4744316262771
  0
LINE
  5
35F2
330
1A
100
AcDbEntity
  8
ZUWAKU
100
AcDbLine
 10
48.4269763557578
 20
36.34949231465566
 30
0.0
 11
47.36533672261998
 21
32.98763347638612
 31
0.0
  0
ARC
  5
35F3
330
1A
100
AcDbEntity
  8
ZUWAKU
100
AcDbCircle
 10
47.92634545656233
 20
36.50758628282267
 30
0.0
 40
0.525
100
AcDbArc
 50
342.4744316262772
 51
90.0
  0
LINE
  5
35F4
330
1A
100
AcDbEntity
  8
ZUWAKU
100
AcDbLine
 10
46.22745607695333
 20
37.03258628282265
 30
0.0
 11
47.92634545656233
 21
37.03258628282265
 31
0.0
  0
ARC
  5
35F5
330
1A
100
AcDbEntity
  8
ZUWAKU
100
AcDbCircle
 10
51.26769024044199
 20
36.50758628282267
 30
0.0
 40
0.525
100
AcDbArc
 50
90.0
 51
180.0
  0
LINE
  5
35F6
330
1A
100
AcDbEntity
  8
ZUWAKU
100
AcDbLine
 10
61.94269024044206
 20
34.23258628282269
 30
0.0
 11
58.96769024044203
 21
34.23258628282269
 31
0.0
  0
LINE
  5
35F7
330
1A
100
AcDbEntity
  8
ZUWAKU
100
AcDbLine
 10
58.44269024044206
 20
37.03258628282265
 30
0.0
 11
61.94269024044206
 21
37.03258628282265
 31
0.0
  0
ARC
  5
35F8
330
1A
100
AcDbEntity
  8
ZUWAKU
100
AcDbCircle
 10
58.44269024044206
 20
34.23258628282269
 30
0.0
 40
2.799999999999999
100
AcDbArc
 50
90.0
 51
180.0
  0
LINE
  5
35F9
330
1A
100
AcDbEntity
  8
ZUWAKU
100
AcDbLine
 10
55.64269024044199
 20
34.23258628282269
 30
0.0
 11
55.64269024044199
 21
32.41738425746735
 31
0.0
  0
ARC
  5
35FA
330
1A
100
AcDbEntity
  8
ZUWAKU
100
AcDbCircle
 10
53.01769024044199
 20
36.50758628282267
 30
0.0
 40
0.525
100
AcDbArc
 50
0.0
 51
90.0
  0
LINE
  5
35FB
330
1A
100
AcDbEntity
  8
ZUWAKU
100
AcDbLine
 10
58.44269024044206
 20
33.7075862828226
 30
0.0
 11
58.44269024044206
 21
32.41738425746735
 31
0.0
  0
ARC
  5
35FC
330
1A
100
AcDbEntity
  8
ZUWAKU
100
AcDbCircle
 10
58.96769024044203
 20
33.7075862828226
 30
0.0
 40
0.525
100
AcDbArc
 50
90.0
 51
180.0
  0
LINE
  5
35FD
330
1A
100
AcDbEntity
  8
ZUWAKU
100
AcDbLine
 10
62.46769024044204
 20
36.50758628282267
 30
0.0
 11
62.46769024044204
 21
34.75758628282267
 31
0.0
  0
ARC
  5
35FE
330
1A
100
AcDbEntity
  8
ZUWAKU
100
AcDbCircle
 10
61.94269024044206
 20
34.75758628282267
 30
0.0
 40
0.525
100
AcDbArc
 50
270.0
 51
0.0
  0
ARC
  5
35FF
330
1A
100
AcDbEntity
  8
ZUWAKU
100
AcDbCircle
 10
61.94269024044206
 20
36.50758628282267
 30
0.0
 40
0.525
100
AcDbArc
 50
0.0
 51
90.0
  0
LINE
  5
3600
330
1A
100
AcDbEntity
  8
ZUWAKU
100
AcDbLine
 10
67.36769024044201
 20
37.03258628282265
 30
0.0
 11
65.61769024044202
 21
37.03258628282265
 31
0.0
  0
ARC
  5
3601
330
1A
100
AcDbEntity
  8
ZUWAKU
100
AcDbCircle
 10
65.61769024044202
 20
36.50758628282267
 30
0.0
 40
0.525
100
AcDbArc
 50
90.0
 51
180.0
  0
ARC
  5
3602
330
1A
100
AcDbEntity
  8
ZUWAKU
100
AcDbCircle
 10
67.36769024044201
 20
36.50758628282267
 30
0.0
 40
0.525
100
AcDbArc
 50
0.0
 51
90.0
  0
LINE
  5
3603
330
1A
100
AcDbEntity
  8
ZUWAKU
100
AcDbLine
 10
78.56769024044206
 20
37.03258628282265
 30
0.0
 11
76.81769024044206
 21
37.03258628282265
 31
0.0
  0
ARC
  5
3604
330
1A
100
AcDbEntity
  8
ZUWAKU
100
AcDbCircle
 10
71.91769024044197
 20
36.50758628282267
 30
0.0
 40
0.525
100
AcDbArc
 50
90.0
 51
180.0
  0
LINE
  5
3605
330
1A
100
AcDbEntity
  8
ZUWAKU
100
AcDbLine
 10
73.66769024044197
 20
37.03258628282265
 30
0.0
 11
71.91769024044197
 21
37.03258628282265
 31
0.0
  0
ARC
  5
3606
330
1A
100
AcDbEntity
  8
ZUWAKU
100
AcDbCircle
 10
73.66769024044197
 20
36.50758628282267
 30
0.0
 40
0.525
100
AcDbArc
 50
0.0
 51
90.0
  0
ARC
  5
3607
330
1A
100
AcDbEntity
  8
ZUWAKU
100
AcDbCircle
 10
76.81769024044206
 20
36.50758628282267
 30
0.0
 40
0.525
100
AcDbArc
 50
90.0
 51
180.0
  0
ARC
  5
3608
330
1A
100
AcDbEntity
  8
ZUWAKU
100
AcDbCircle
 10
78.56769024044206
 20
36.50758628282267
 30
0.0
 40
0.525
100
AcDbArc
 50
0.0
 51
90.0
  0
LINE
  5
3609
330
1A
100
AcDbEntity
  8
SEIHIN
  6
Continuous
 62
     3
100
AcDbLine
 10
143.7614504040416
 20
238.7929248476082
 30
0.0
 11
141.8994582117416
 21
147.361882607708
 31
0.0
  0
LINE
  5
360A
330
1A
100
AcDbEntity
  8
SEIHIN
  6
Continuous
 62
     3
100
AcDbLine
 10
141.8429570818416
 20
144.587457870508
 30
0.0
 11
141.8994582117416
 21
147.361882607708
 31
0.0
  0
LINE
  5
360B
330
1A
100
AcDbEntity
  8
SEIHIN
  6
Continuous
 62
     3
100
AcDbLine
 10
143.8179515339416
 20
241.5673495848079
 30
0.0
 11
143.7614504040416
 21
238.7929248476082
 31
0.0
  0
LINE
  5
360C
330
1A
100
AcDbEntity
  8
SEIHIN
  6
Continuous
 62
     3
100
AcDbLine
 10
182.8117259782707
 20
138.9726246050697
 30
0.0
 11
182.8117259782707
 21
93.61926327736979
 31
0.0
  0
LINE
  5
360D
330
1A
100
AcDbEntity
  8
SEIHIN
  6
Continuous
 62
     3
100
AcDbLine
 10
306.8117259782707
 20
154.11926293007
 30
0.0
 11
306.8117259782707
 21
93.61926327736989
 31
0.0
  0
LINE
  5
360E
330
1A
100
AcDbEntity
  8
SEIHIN
  6
Continuous
 62
     3
100
AcDbLine
 10
303.0867259782708
 20
93.11926327736989
 30
0.0
 11
186.5367259782708
 21
93.11926327736978
 31
0.0
  0
LINE
  5
360F
330
1A
100
AcDbEntity
  8
ZUWAKU
100
AcDbLine
 10
218.4970793757286
 20
43.78258628282265
 30
0.0
 11
218.4970793757289
 21
14.58258628282272
 31
0.0
  0
LINE
  5
3610
330
1A
100
AcDbEntity
  8
ZUWAKU
100
AcDbLine
 10
218.6970793757287
 20
43.78258628282265
 30
0.0
 11
218.6970793757289
 21
14.58258628282272
 31
0.0
  0
LINE
  5
3611
330
1A
100
AcDbEntity
  8
ZUWAKU
100
AcDbLine
 10
218.2970793757288
 20
43.78258628282265
 30
0.0
 11
218.2970793757288
 21
14.58258628282272
 31
0.0
  0
TEXT
  5
3612
330
1A
100
AcDbEntity
  8
moji
100
AcDbText
 10
249.877680766512
 20
31.78750734023004
 30
0.0
 40
5.599999999999999
  1
伸縮チーズ
 41
0.9
  7
ｽﾀｲﾙ1
100
AcDbText
  0
TEXT
  5
3613
330
1A
100
AcDbEntity
  8
ZUWAKU
100
AcDbText
 10
219.7745243979384
 20
23.43794282120825
 30
0.0
 40
4.0
  1
サイズ
 41
0.9
  7
ｽﾀｲﾙ1
100
AcDbText
  0
TEXT
  5
3614
330
1A
100
AcDbEntity
  8
moji
100
AcDbText
 10
249.877680766512
 20
16.98750734023008
 30
0.0
 40
5.599999999999999
  1
１００ー７５ー９０\U+00B0
 41
0.9
  7
ｽﾀｲﾙ1
100
AcDbText
  0
TEXT
  5
3615
330
1A
100
AcDbEntity
  8
ZUWAKU
100
AcDbText
 10
219.7745243979382
 20
37.83794282120823
 30
0.0
 40
4.0
  1
品名
 41
0.9
  7
ｽﾀｲﾙ1
100
AcDbText
  0
LINE
  5
3616
330
1A
100
AcDbEntity
  8
SEIHIN
  6
Continuous
 62
     3
100
AcDbLine
 10
186.5367259782708
 20
93.11926327736978
 30
0.0
 11
183.3117259782707
 21
93.11926327736978
 31
0.0
  0
ARC
  5
3617
330
1A
100
AcDbEntity
  8
SEIHIN
  6
Continuous
 62
     3
100
AcDbCircle
 10
-183.3117259782707
 20
93.61926327736979
 30
0.0
 40
0.5
210
0.0
220
0.0
230
-1.0
100
AcDbArc
 50
270.0
 51
0.0
  0
ARC
  5
3618
330
1A
100
AcDbEntity
  8
SEIHIN
  6
Continuous
 62
     3
100
AcDbCircle
 10
306.3117259782707
 20
93.61926327736979
 30
0.0
 40
0.5
100
AcDbArc
 50
270.0
 51
0.0
  0
LINE
  5
3619
330
1A
100
AcDbEntity
  8
SEIHIN
  6
Continuous
 62
     3
100
AcDbLine
 10
306.3117259782707
 20
93.11926327736989
 30
0.0
 11
303.0867259782708
 21
93.11926327736989
 31
0.0
  0
ARC
  5
361A
330
1A
100
AcDbEntity
  8
SEIHIN
  6
Continuous
 62
     3
100
AcDbCircle
 10
-300.7117259782708
 20
237.4749447950699
 30
0.0
 40
2.0
210
0.0
220
0.0
230
-1.0
100
AcDbArc
 50
359.9999911426977
 51
44.27477570090085
  0
LINE
  5
361B
330
1A
100
AcDbEntity
  8
SEIHIN
  6
Continuous
 62
     3
100
AcDbLine
 10
298.7117259782708
 20
156.6192632773699
 30
0.0
 11
304.3117259782707
 21
156.6192632773699
 31
0.0
  0
ARC
  5
361C
330
1A
100
AcDbEntity
  8
SEIHIN
  6
Continuous
 62
     3
100
AcDbCircle
 10
-301.2117259782708
 20
150.1192632773698
 30
0.0
 40
2.5
210
0.0
220
0.0
230
-1.0
100
AcDbArc
 50
270.0
 51
0.0
  0
LINE
  5
361D
330
1A
100
AcDbEntity
  8
SEIHIN
  6
Continuous
 62
     3
100
AcDbLine
 10
306.1017263272709
 20
237.2733132665699
 30
0.0
 11
298.7117259782706
 21
229.6938257290699
 31
0.0
  0
LINE
  5
361E
330
1A
100
AcDbEntity
  8
SEIHIN
  6
Continuous
 62
     3
100
AcDbLine
 10
187.6117259782706
 20
248.1192632773698
 30
0.0
 11
302.0117259782708
 21
248.1192632773698
 31
0.0
  0
LINE
  5
361F
330
1A
100
AcDbEntity
  8
SEIHIN
  6
Continuous
 62
     3
100
AcDbLine
 10
295.9160373208708
 20
147.6192632773699
 30
0.0
 11
304.3117259782707
 21
147.6192632773699
 31
0.0
  0
ARC
  5
3620
330
1A
100
AcDbEntity
  8
SEIHIN
  6
Continuous
 62
     3
100
AcDbCircle
 10
-99.2544947767708
 20
143.1192632773698
 30
0.0
 40
132.0572312014
210
0.0
220
0.0
230
-1.0
100
AcDbArc
 50
136.7313724185018
 51
150.0366757243512
  0
LINE
  5
3621
330
1A
100
AcDbEntity
  8
SEIHIN
  6
Continuous
 62
     3
100
AcDbLine
 10
185.5137400038707
 20
147.6192632773698
 30
0.0
 11
187.3604277172706
 21
238.2987962141697
 31
0.0
  0
LINE
  5
3622
330
1A
100
AcDbEntity
  8
SEIHIN
  6
Continuous
 62
     3
100
AcDbLine
 10
298.7117259782706
 20
237.4749444859697
 30
0.0
 11
298.7117259782708
 21
150.1192632773699
 31
0.0
  0
LINE
  5
3623
330
1A
100
AcDbEntity
  8
SEIHIN
  6
Continuous
 62
     3
100
AcDbLine
 10
185.5137400038707
 20
147.6192632773698
 30
0.0
 11
295.9160373208708
 21
147.6192632773699
 31
0.0
  0
ARC
  5
3624
330
1A
100
AcDbEntity
  8
SEIHIN
  6
Continuous
 62
     3
100
AcDbCircle
 10
-101.2043974593889
 20
244.6715064677055
 30
0.0
 40
132.0572312014
210
0.0
220
0.0
230
-1.0
100
AcDbArc
 50
212.1633242756337
 51
225.4686275814831
  0
LINE
  5
3625
330
1A
100
AcDbEntity
  8
SEIHIN
  6
Continuous
 62
     3
100
AcDbLine
 10
172.8389471880707
 20
144.0749319161698
 30
0.0
 11
182.8117259782707
 21
134.1192632773698
 31
0.0
  0
ARC
  5
3626
330
1A
100
AcDbEntity
  8
SEIHIN
  6
Continuous
 62
     3
100
AcDbCircle
 10
177.8117259782707
 20
138.9726246050697
 30
0.0
 40
5.0
100
AcDbArc
 50
0.0
 51
88.83333333329963
  0
TEXT
  5
3627
330
1A
100
AcDbEntity
  8
SEIHIN
100
AcDbText
 10
220.3331164685699
 20
266.4665060326316
 30
0.0
 40
4.0
  1
スライド部は接着禁止
 41
0.9
  7
ｽﾀｲﾙ1
100
AcDbText
  0
LINE
  5
3628
330
1A
100
AcDbEntity
  8
SEIHIN
  6
Continuous
 62
     3
100
AcDbLine
 10
195.4117259782706
 20
240.1192632773698
 30
0.0
 11
294.2117259782706
 21
240.1192632773698
 31
0.0
  0
ARC
  5
3629
330
1A
100
AcDbEntity
  8
SEIHIN
  6
Continuous
 62
     3
100
AcDbCircle
 10
184.8609459720708
 20
238.3496981329699
 30
0.0
 40
2.5
100
AcDbArc
 50
358.8333333332996
 51
88.83333333329963
  0
ARC
  5
362A
330
1A
100
AcDbEntity
  8
SEIHIN
  6
Continuous
 62
     3
100
AcDbCircle
 10
183.6463141837705
 20
242.8753671483698
 30
0.0
 40
2.0
100
AcDbArc
 50
268.8333366795012
 51
44.27477570090085
  0
LINE
  5
362B
330
1A
100
AcDbEntity
  8
SEIHIN
  6
Continuous
 62
     3
100
AcDbLine
 10
171.8145635459707
 20
241.1159059330699
 30
0.0
 11
182.8117259782707
 21
253.1192632773699
 31
0.0
  0
ARC
  5
362C
330
1A
100
AcDbEntity
  8
SEIHIN
  6
Continuous
 62
     3
100
AcDbCircle
 10
-188.8117259782705
 20
249.0371829271698
 30
0.0
 40
6.0
210
0.0
220
0.0
230
-1.0
100
AcDbArc
 50
315.7252242990992
 51
0.0000070108031506
  0
LINE
  5
362D
330
1A
100
AcDbEntity
  8
SEIHIN
  6
Continuous
 62
     3
100
AcDbLine
 10
184.5157251404707
 20
244.8485821103698
 30
0.0
 11
185.0783144630707
 21
244.2715674205697
 31
0.0
  0
LINE
  5
362E
330
1A
100
AcDbEntity
  8
SEIHIN
100
AcDbLine
 10
247.3117259782707
 20
300.1192632773698
 30
0.0
 11
247.3117259782707
 21
280.1192632773698
 31
0.0
  0
LINE
  5
362F
330
1A
100
AcDbEntity
  8
SEIHIN
100
AcDbLine
 10
242.3117259782707
 20
300.1192632773698
 30
0.0
 11
242.3117259782707
 21
280.1192632773698
 31
0.0
  0
LINE
  5
3630
330
1A
100
AcDbEntity
  8
SEIHIN
  6
Continuous
 62
     3
100
AcDbLine
 10
247.3117259782707
 20
280.1192632773698
 30
0.0
 11
249.8117259782707
 21
280.1192632773698
 31
0.0
  0
LINE
  5
3631
330
1A
100
AcDbEntity
  8
SEIHIN
100
AcDbLine
 10
244.8117259782707
 20
275.1192632773698
 30
0.0
 11
249.8117259782707
 21
280.1192632773698
 31
0.0
  0
LINE
  5
3632
330
1A
100
AcDbEntity
  8
SEIHIN
  6
Continuous
 62
     3
100
AcDbLine
 10
234.8117259782707
 20
275.1192632773698
 30
0.0
 11
254.8117259782707
 21
275.1192632773699
 31
0.0
  0
LINE
  5
3633
330
1A
100
AcDbEntity
  8
SEIHIN
  6
Continuous
 62
     3
100
AcDbLine
 10
234.8117259782707
 20
273.1192632773698
 30
0.0
 11
254.8117259782707
 21
273.1192632773698
 31
0.0
  0
LINE
  5
3634
330
1A
100
AcDbEntity
  8
SEIHIN
100
AcDbLine
 10
239.8117259782707
 20
280.1192632773698
 30
0.0
 11
244.8117259782707
 21
275.1192632773698
 31
0.0
  0
LINE
  5
3635
330
1A
100
AcDbEntity
  8
SEIHIN
100
AcDbLine
 10
234.8117259782707
 20
275.1192632773698
 30
0.0
 11
234.8117259782707
 21
273.1192632773698
 31
0.0
  0
LINE
  5
3636
330
1A
100
AcDbEntity
  8
SEIHIN
  6
Continuous
 62
     3
100
AcDbLine
 10
239.8117259782707
 20
280.1192632773698
 30
0.0
 11
242.3117259782705
 21
280.1192632773698
 31
0.0
  0
LINE
  5
3637
330
1A
100
AcDbEntity
  8
SEIHIN
100
AcDbLine
 10
254.8117259782707
 20
275.1192632773699
 30
0.0
 11
254.8117259782707
 21
273.1192632773698
 31
0.0
  0
LINE
  5
3638
330
1A
100
AcDbEntity
  8
SEIHIN
  6
Continuous
 62
     3
100
AcDbLine
 10
242.3117259782705
 20
300.1192632773698
 30
0.0
 11
247.3117259782707
 21
300.1192632773698
 31
0.0
  0
ARC
  5
3639
330
1A
100
AcDbEntity
  8
SEIHIN
  6
Continuous
 62
     3
100
AcDbCircle
 10
304.3117259782707
 20
145.1192632773698
 30
0.0
 40
2.5
100
AcDbArc
 50
0.0
 51
90.0
  0
ARC
  5
363A
330
1A
100
AcDbEntity
  8
SEIHIN
  6
Continuous
 62
     3
100
AcDbCircle
 10
304.3117259782707
 20
154.1192632773698
 30
0.0
 40
2.5
100
AcDbArc
 50
359.9999920404979
 51
90.0
  0
LINE
  5
363B
330
1A
100
AcDbEntity
  8
SEIHIN
  6
Continuous
 62
     3
100
AcDbLine
 10
305.1077268159709
 20
244.8485821103698
 30
0.0
 11
299.2797256989707
 21
238.8711450673698
 31
0.0
  0
ARC
  5
363C
330
1A
100
AcDbEntity
  8
SEIHIN
  6
Continuous
 62
     3
100
AcDbCircle
 10
304.3117259782707
 20
239.0185636068698
 30
0.0
 40
2.5
100
AcDbArc
 50
315.7252242990992
 51
359.999993649101
  0
ARC
  5
363D
330
1A
100
AcDbEntity
  8
SEIHIN
  6
Continuous
 62
     3
100
AcDbCircle
 10
300.8117259782707
 20
249.0371829271699
 30
0.0
 40
6.0
100
AcDbArc
 50
315.7252242990992
 51
0.0
  0
LINE
  5
363E
330
1A
100
AcDbEntity
  8
SEIHIN
  6
Continuous
 62
     3
100
AcDbLine
 10
186.4117259782706
 20
348.1192632773698
 30
0.0
 11
303.2117259782706
 21
348.1192632773698
 31
0.0
  0
LINE
  5
363F
330
1A
100
AcDbEntity
  8
SEIHIN
  6
Continuous
 62
     3
100
AcDbLine
 10
183.3117259782707
 20
348.1192632773698
 30
0.0
 11
186.4117259782706
 21
348.1192632773698
 31
0.0
  0
ARC
  5
3640
330
1A
100
AcDbEntity
  8
SEIHIN
  6
Continuous
 62
     3
100
AcDbCircle
 10
-183.3117259782705
 20
347.6192632773698
 30
0.0
 40
0.5
210
0.0
220
0.0
230
-1.0
100
AcDbArc
 50
0.0
 51
90.0
  0
ARC
  5
3641
330
1A
100
AcDbEntity
  8
SEIHIN
  6
Continuous
 62
     3
100
AcDbCircle
 10
306.3117259782707
 20
347.6192632773698
 30
0.0
 40
0.5
100
AcDbArc
 50
0.0
 51
90.0
  0
LINE
  5
3642
330
1A
100
AcDbEntity
  8
SEIHIN
  6
Continuous
 62
     3
100
AcDbLine
 10
306.3117259782707
 20
348.1192632773698
 30
0.0
 11
302.2117259782706
 21
348.1192632773698
 31
0.0
  0
DIMENSION
  5
3643
330
1A
100
AcDbEntity
  8
SUNPOU
100
AcDbDimension
  2
*D5
 10
657.0091083795152
 20
193.2309833708005
 30
0.0
 11
566.9418471259143
 21
171.5853917624703
 31
0.0
 70
    34
 71
     5
 42
-1.0
  3
STANDARD
100
AcDb2LineAngularDimension
 13
547.029305597737
 23
356.1192632773699
 33
0.0
 14
547.0293055977367
 24
85.11926327736984
 34
0.0
 15
547.0293055977367
 25
191.1192632773698
 35
0.0
 16
563.6583278118398
 26
162.7379634498451
 36
0.0
1001
ACAD
1000
DSTYLE
1002
{
1070
   287
1070
     5
1070
   271
1070
     2
1070
   287
1070
     5
1070
   271
1070
     2
1070
   287
1070
     5
1070
   271
1070
     2
1070
   287
1070
     5
1070
   271
1070
     2
1070
   287
1070
     5
1070
   271
1070
     2
1070
   287
1070
     5
1070
   271
1070
     2
1070
   287
1070
     5
1070
   271
1070
     2
1070
   287
1070
     5
1070
   271
1070
     2
1070
    41
1040
7.0
1070
    42
1040
6.0
1070
    43
1040
14.0
1070
    44
1040
3.0
1070
    73
1070
     0
1070
    74
1070
     0
1070
    77
1070
     3
1070
   140
1040
6.0
1070
   141
1040
150.0
1070
   147
1040
2.0
1070
   172
1070
     1
1070
   173
1070
     1
1070
   176
1070
   256
1070
   177
1070
   256
1070
   178
1070
   256
1070
   179
1070
     2
1070
   271
1070
     0
1070
   272
1070
     0
1070
   279
1070
     2
1070
   341
1005
6D
1070
     6
1000
OPEN
1070
     7
1000
OPEN
1070
   371
1070
    -1
1070
   372
1070
    -1
1002
}
  0
DIMENSION
  5
3644
330
1A
100
AcDbEntity
  8
SUNPOU
100
AcDbDimension
  2
*D6
 10
671.3416103263655
 20
273.1192632773698
 30
0.0
 11
666.3416103263654
 21
310.3692632773698
 31
0.0
 70
    32
  1
差込寸法　<>
 71
     5
 42
-1.0
  3
STANDARD
100
AcDbAlignedDimension
 13
609.029305597737
 23
347.6192632773698
 33
0.0
 14
605.6293055977369
 24
273.1192632773698
 34
0.0
 50
90.0
100
AcDbRotatedDimension
1001
ACAD
1000
DSTYLE
1002
{
1070
   287
1070
     5
1070
   287
1070
     5
1070
   287
1070
     5
1070
   287
1070
     5
1070
   287
1070
     5
1070
   287
1070
     5
1070
   287
1070
     5
1070
   287
1070
     5
1070
   287
1070
     5
1070
    41
1040
7.0
1070
    42
1040
6.0
1070
    43
1040
14.0
1070
    44
1040
3.0
1070
    73
1070
     0
1070
    74
1070
     0
1070
    77
1070
     3
1070
   140
1040
6.0
1070
   141
1040
150.0
1070
   147
1040
2.0
1070
   172
1070
     1
1070
   173
1070
     1
1070
   176
1070
   256
1070
   177
1070
   256
1070
   178
1070
   256
1070
   271
1070
     0
1070
   272
1070
     0
1070
   279
1070
     2
1070
   341
1005
6D
1070
     6
1000
OPEN
1070
     7
1000
OPEN
1070
   371
1070
    -1
1070
   372
1070
    -1
1002
}
  0
LINE
  5
3645
330
1A
100
AcDbEntity
  8
SEIHIN
  6
Continuous
 62
     3
100
AcDbLine
 10
609.0293055977367
 20
347.6192632773698
 30
0.0
 11
609.0293055977367
 21
249.0371836613697
 31
0.0
  0
LINE
  5
3646
330
1A
100
AcDbEntity
  8
SEIHIN
  6
Continuous
 62
     3
100
AcDbLine
 10
485.0293055977367
 20
347.6192632773698
 30
0.0
 11
485.0293055977367
 21
239.0185633297697
 31
0.0
  0
LINE
  5
3647
330
1A
100
AcDbEntity
  8
CENTER L
  6
CENTER
 62
     1
 48
5.0
100
AcDbLine
 10
547.029305597737
 20
356.1192632773699
 30
0.0
 11
547.0293055977367
 21
85.11926327736984
 31
0.0
  0
DIMENSION
  5
3648
330
1A
100
AcDbEntity
  8
SUNPOU
100
AcDbDimension
  2
*D7
 10
688.3602799971372
 20
242.3888162282147
 30
0.0
 11
694.3467407136142
 21
194.0006742088018
 31
0.0
 70
    33
  1
\U+03C6<>
 71
     5
 42
-1.0
  3
STANDARD
100
AcDbAlignedDimension
 13
649.9980744941658
 23
144.587457870508
 33
0.0
 14
648.0230800420659
 24
241.5673495848079
 34
0.0
1001
ACAD
1000
DSTYLE
1002
{
1070
   287
1070
     5
1070
   287
1070
     5
1070
   287
1070
     5
1070
   287
1070
     5
1070
   287
1070
     5
1070
   287
1070
     5
1070
   287
1070
     5
1070
   287
1070
     5
1070
   287
1070
     5
1070
    41
1040
7.0
1070
    42
1040
6.0
1070
    43
1040
14.0
1070
    44
1040
3.0
1070
    73
1070
     0
1070
    74
1070
     0
1070
    77
1070
     3
1070
   140
1040
6.0
1070
   141
1040
150.0
1070
   147
1040
2.0
1070
   172
1070
     1
1070
   173
1070
     1
1070
   176
1070
   256
1070
   177
1070
   256
1070
   178
1070
   256
1070
   271
1070
     0
1070
   272
1070
     0
1070
   279
1070
     2
1070
   341
1005
6D
1070
     6
1000
OPEN
1070
     7
1000
OPEN
1070
   371
1070
    -1
1070
   372
1070
    -1
1002
}
  0
TEXT
  5
3649
330
1A
100
AcDbEntity
  8
ZUWAKU
100
AcDbText
 10
668.2544157729632
 20
31.78750734023004
 30
0.0
 40
5.599999999999999
  1
　　．　　．　　
 41
0.9
  7
ｽﾀｲﾙ1
100
AcDbText
  0
LINE
  5
364A
330
1A
100
AcDbEntity
  8
ZUWAKU
100
AcDbLine
 10
658.867680595865
 20
29.38258628282267
 30
0.0
 11
707.2994886342021
 21
29.38258628282267
 31
0.0
  0
LINE
  5
364B
330
1A
100
AcDbEntity
  8
ZUWAKU
100
AcDbLine
 10
658.8676805958653
 20
29.18258628282274
 30
0.0
 11
707.2994886342021
 21
29.18258628282274
 31
0.0
  0
LINE
  5
364C
330
1A
100
AcDbEntity
  8
ZUWAKU
100
AcDbLine
 10
658.867680595865
 20
28.98258628282269
 30
0.0
 11
707.2994886342021
 21
28.98258628282269
 31
0.0
  0
DIMENSION
  5
364D
330
1A
100
AcDbEntity
  8
SUNPOU
100
AcDbDimension
  2
*D8
 10
449.3976262724466
 20
93.11926327736991
 30
0.0
 11
444.3976262724466
 21
118.11926327737
 31
0.0
 70
    32
  1
差込寸法<>
 71
     5
 42
-1.0
  3
STANDARD
100
AcDbAlignedDimension
 13
485.0293055977367
 23
143.1192632773699
 33
0.0
 14
487.1418055977366
 24
93.11926327736989
 34
0.0
 50
90.0
100
AcDbRotatedDimension
1001
ACAD
1000
DSTYLE
1002
{
1070
   287
1070
     5
1070
   287
1070
     5
1070
   287
1070
     5
1070
   287
1070
     5
1070
   287
1070
     5
1070
    41
1040
7.0
1070
    42
1040
6.0
1070
    43
1040
14.0
1070
    44
1040
3.0
1070
    73
1070
     0
1070
    74
1070
     0
1070
    77
1070
     3
1070
   140
1040
6.0
1070
   141
1040
150.0
1070
   147
1040
2.0
1070
   172
1070
     1
1070
   173
1070
     1
1070
   176
1070
   256
1070
   177
1070
   256
1070
   178
1070
   256
1070
   271
1070
     0
1070
   272
1070
     0
1070
   279
1070
     2
1070
   341
1005
6D
1070
     6
1000
OPEN
1070
     7
1000
OPEN
1070
   371
1070
    -1
1070
   372
1070
    -1
1002
}
  0
LINE
  5
364E
330
1A
100
AcDbEntity
  8
SEIHIN
  6
Continuous
 62
     3
100
AcDbLine
 10
609.0293055977367
 20
138.9726246050697
 30
0.0
 11
609.0293055977367
 21
93.61926327736979
 31
0.0
  0
LINE
  5
364F
330
1A
100
AcDbEntity
  8
SEIHIN
  6
Continuous
 62
     3
100
AcDbLine
 10
485.0293055977367
 20
154.11926293007
 30
0.0
 11
485.0293055977367
 21
93.61926327736989
 31
0.0
  0
DIMENSION
  5
3650
330
1A
100
AcDbEntity
  8
SUNPOU
100
AcDbDimension
  2
*D9
 10
609.0293055977367
 20
69.03823531889895
 30
0.0
 11
547.0293055977367
 21
74.03823531889895
 31
0.0
 70
    32
  1
\U+03C6<>
 71
     5
 42
-1.0
  3
STANDARD
100
AcDbAlignedDimension
 13
485.0293055977367
 23
93.11926327736989
 33
0.0
 14
609.0293055977367
 24
93.11926327736978
 34
0.0
100
AcDbRotatedDimension
1001
ACAD
1000
DSTYLE
1002
{
1070
   287
1070
     5
1070
   287
1070
     5
1070
   287
1070
     5
1070
   287
1070
     5
1070
    41
1040
7.0
1070
    42
1040
6.0
1070
    43
1040
14.0
1070
    44
1040
3.0
1070
    73
1070
     0
1070
    74
1070
     0
1070
    77
1070
     3
1070
   140
1040
6.0
1070
   141
1040
150.0
1070
   147
1040
2.0
1070
   172
1070
     1
1070
   173
1070
     1
1070
   176
1070
   256
1070
   177
1070
   256
1070
   178
1070
   256
1070
   271
1070
     0
1070
   272
1070
     0
1070
   279
1070
     2
1070
   341
1005
6D
1070
     6
1000
OPEN
1070
     7
1000
OPEN
1070
   371
1070
    -1
1070
   372
1070
    -1
1002
}
  0
LINE
  5
3651
330
1A
100
AcDbEntity
  8
SEIHIN
  6
Continuous
 62
     3
100
AcDbLine
 10
488.7543055977366
 20
93.11926327736989
 30
0.0
 11
605.3043055977366
 21
93.11926327736978
 31
0.0
  0
LINE
  5
3652
330
1A
100
AcDbEntity
  8
ZUWAKU
100
AcDbLine
 10
515.2496575838017
 20
29.38258628282267
 30
0.0
 11
562.5774338517733
 21
29.38258628282267
 31
0.0
  0
LINE
  5
3653
330
1A
100
AcDbEntity
  8
ZUWAKU
100
AcDbLine
 10
515.2496575838017
 20
29.18258628282274
 30
0.0
 11
562.5774338517733
 21
29.18258628282274
 31
0.0
  0
LINE
  5
3654
330
1A
100
AcDbEntity
  8
ZUWAKU
100
AcDbLine
 10
515.2496575838017
 20
28.98258628282269
 30
0.0
 11
562.5774338517733
 21
28.98258628282269
 31
0.0
  0
LINE
  5
3655
330
1A
100
AcDbEntity
  8
ZUWAKU
100
AcDbLine
 10
514.8496575838018
 20
43.78258628282265
 30
0.0
 11
514.8496575838018
 21
14.58258628282272
 31
0.0
  0
LINE
  5
3656
330
1A
100
AcDbEntity
  8
ZUWAKU
100
AcDbLine
 10
515.2496575838017
 20
43.78258628282265
 30
0.0
 11
515.249657583802
 21
14.58258628282272
 31
0.0
  0
LINE
  5
3657
330
1A
100
AcDbEntity
  8
ZUWAKU
100
AcDbLine
 10
515.0496575838017
 20
43.78258628282265
 30
0.0
 11
515.0496575838019
 21
14.58258628282272
 31
0.0
  0
TEXT
  5
3658
330
1A
100
AcDbEntity
  8
moji
100
AcDbText
 10
538.0913860579737
 20
31.78750734023004
 30
0.0
 40
5.599999999999999
  1
Ａ３
 41
0.9
  7
ｽﾀｲﾙ1
100
AcDbText
  0
LINE
  5
3659
330
1A
100
AcDbEntity
  8
ZUWAKU
100
AcDbLine
 10
457.4748420566522
 20
43.78258628282265
 30
0.0
 11
457.4748420566522
 21
14.58258628282272
 31
0.0
  0
LINE
  5
365A
330
1A
100
AcDbEntity
  8
ZUWAKU
100
AcDbLine
 10
457.8748420566521
 20
43.78258628282265
 30
0.0
 11
457.8748420566523
 21
14.58258628282272
 31
0.0
  0
LINE
  5
365B
330
1A
100
AcDbEntity
  8
ZUWAKU
100
AcDbLine
 10
457.6748420566521
 20
43.78258628282265
 30
0.0
 11
457.6748420566523
 21
14.58258628282272
 31
0.0
  0
TEXT
  5
365C
330
1A
100
AcDbEntity
  8
moji
100
AcDbText
 10
472.0996663985099
 20
26.52203406514548
 30
0.0
 40
5.599999999999999
  1
ＧＦ８８□
 41
0.9
  7
ｽﾀｲﾙ1
100
AcDbText
  0
TEXT
  5
365D
330
1A
100
AcDbEntity
  8
ZUWAKU
100
AcDbText
 10
472.744239741168
 20
16.39665719396214
 30
0.0
 40
3.0
  1
□には色品番が入ります
 41
0.9
  7
ｽﾀｲﾙ1
100
AcDbText
  0
TEXT
  5
365E
330
1A
100
AcDbEntity
  8
ZUWAKU
100
AcDbText
 10
516.7271026060116
 20
23.43794282120825
 30
0.0
 40
4.0
  1
縮尺
 41
0.9
  7
ｽﾀｲﾙ1
100
AcDbText
  0
TEXT
  5
365F
330
1A
100
AcDbEntity
  8
moji
100
AcDbText
 10
538.0913860579737
 20
16.98750734023008
 30
0.0
 40
5.599999999999999
  1
１/２
 41
0.9
  7
ｽﾀｲﾙ1
100
AcDbText
  0
TEXT
  5
3660
330
1A
100
AcDbEntity
  8
ZUWAKU
100
AcDbText
 10
459.3522870788617
 20
37.83794282120823
 30
0.0
 40
4.0
  1
品番
 41
0.9
  7
ｽﾀｲﾙ1
100
AcDbText
  0
LINE
  5
3661
330
1A
100
AcDbEntity
  8
SEIHIN
  6
Continuous
 62
     3
100
AcDbLine
 10
485.5293055977368
 20
93.11926327736989
 30
0.0
 11
488.7543055977366
 21
93.11926327736989
 31
0.0
  0
ARC
  5
3662
330
1A
100
AcDbEntity
  8
SEIHIN
  6
Continuous
 62
     3
100
AcDbCircle
 10
485.5293055977368
 20
93.61926327736979
 30
0.0
 40
0.5
100
AcDbArc
 50
180.0
 51
270.0
  0
TEXT
  5
3663
330
1A
100
AcDbEntity
  8
ZUWAKU
100
AcDbText
 10
516.7271026060113
 20
37.83794282120823
 30
0.0
 40
4.0
  1
用紙
 41
0.9
  7
ｽﾀｲﾙ1
100
AcDbText
  0
LINE
  5
3664
330
1A
100
AcDbEntity
  8
ZUWAKU
100
AcDbLine
 10
562.5774338517733
 20
43.78258628282265
 30
0.0
 11
562.5774338517733
 21
14.58258628282272
 31
0.0
  0
LINE
  5
3665
330
1A
100
AcDbEntity
  8
ZUWAKU
100
AcDbLine
 10
562.9774338517732
 20
43.78258628282265
 30
0.0
 11
562.9774338517734
 21
14.58258628282272
 31
0.0
  0
LINE
  5
3666
330
1A
100
AcDbEntity
  8
ZUWAKU
100
AcDbLine
 10
562.7774338517731
 20
43.78258628282265
 30
0.0
 11
562.7774338517733
 21
14.58258628282272
 31
0.0
  0
LINE
  5
3667
330
1A
100
AcDbEntity
  8
ZUWAKU
100
AcDbLine
 10
658.4676805958654
 20
43.78258628282265
 30
0.0
 11
658.4676805958654
 21
14.58258628282272
 31
0.0
  0
LINE
  5
3668
330
1A
100
AcDbEntity
  8
ZUWAKU
100
AcDbLine
 10
658.8676805958653
 20
43.78258628282265
 30
0.0
 11
658.8676805958655
 21
14.58258628282272
 31
0.0
  0
LINE
  5
3669
330
1A
100
AcDbEntity
  8
ZUWAKU
100
AcDbLine
 10
658.6676805958652
 20
43.78258628282265
 30
0.0
 11
658.6676805958655
 21
14.58258628282272
 31
0.0
  0
ARC
  5
366A
330
1A
100
AcDbEntity
  8
SEIHIN
  6
Continuous
 62
     3
100
AcDbCircle
 10
-608.5293055977367
 20
93.61926327736979
 30
0.0
 40
0.5
210
0.0
220
0.0
230
-1.0
100
AcDbArc
 50
180.0
 51
270.0
  0
LINE
  5
366B
330
1A
100
AcDbEntity
  8
SEIHIN
  6
Continuous
 62
     3
100
AcDbLine
 10
605.3043055977366
 20
93.11926327736978
 30
0.0
 11
608.5293055977367
 21
93.11926327736978
 31
0.0
  0
TEXT
  5
366C
330
1A
100
AcDbEntity
  8
ZUWAKU
100
AcDbText
 10
660.3451256180749
 20
37.83794282120823
 30
0.0
 40
4.0
  1
DATE
 41
0.9
  7
ｽﾀｲﾙ1
100
AcDbText
  0
LINE
  5
366D
330
1A
100
AcDbEntity
  8
CENTER L
  6
CENTER
 62
     1
 48
5.0
100
AcDbLine
 10
534.1195822227011
 20
190.8713839253237
 30
0.0
 11
657.0091083795152
 21
193.2309833708005
 31
0.0
  0
DIMENSION
  5
366E
330
1A
100
AcDbEntity
  8
SUNPOU
100
AcDbDimension
  2
*D10
 10
547.0293055977367
 20
283.281345126769
 30
0.0
 11
598.0199414329263
 21
288.281345126769
 31
0.0
 70
    32
 71
     5
 42
-1.0
  3
STANDARD
100
AcDbAlignedDimension
 13
649.0105772681158
 23
193.0774037276581
 33
0.0
 14
547.0293055977367
 24
248.1192632773698
 34
0.0
100
AcDbRotatedDimension
1001
ACAD
1000
DSTYLE
1002
{
1070
   287
1070
     5
1070
   287
1070
     5
1070
   287
1070
     5
1070
   287
1070
     5
1070
   287
1070
     5
1070
   287
1070
     5
1070
   287
1070
     5
1070
   287
1070
     5
1070
   287
1070
     5
1070
    41
1040
7.0
1070
    42
1040
6.0
1070
    43
1040
14.0
1070
    44
1040
3.0
1070
    73
1070
     0
1070
    74
1070
     0
1070
    77
1070
     3
1070
   140
1040
6.0
1070
   141
1040
150.0
1070
   147
1040
2.0
1070
   172
1070
     1
1070
   173
1070
     1
1070
   176
1070
   256
1070
   177
1070
   256
1070
   178
1070
   256
1070
   271
1070
     0
1070
   272
1070
     0
1070
   279
1070
     2
1070
   341
1005
6D
1070
     6
1000
OPEN
1070
     7
1000
OPEN
1070
   371
1070
    -1
1070
   372
1070
    -1
1002
}
  0
LINE
  5
366F
330
1A
100
AcDbEntity
  8
SEIHIN
  6
Continuous
 62
     3
100
AcDbLine
 10
606.3272915721368
 20
147.6192632773698
 30
0.0
 11
495.9249942551366
 21
147.6192632773699
 31
0.0
  0
LINE
  5
3670
330
1A
100
AcDbEntity
  8
SEIHIN
  6
Continuous
 62
     3
100
AcDbLine
 10
604.2293055977368
 20
248.1192632773698
 30
0.0
 11
489.8293055977367
 21
248.1192632773698
 31
0.0
  0
LINE
  5
3671
330
1A
100
AcDbEntity
  8
SEIHIN
  6
Continuous
 62
     3
100
AcDbLine
 10
596.4293055977369
 20
240.1192632773698
 30
0.0
 11
497.6293055977369
 21
240.1192632773698
 31
0.0
  0
LINE
  5
3672
330
1A
100
AcDbEntity
  8
SEIHIN
  6
Continuous
 62
     3
100
AcDbLine
 10
493.1293055977369
 20
237.4749444859697
 30
0.0
 11
493.1293055977366
 21
150.1192632773699
 31
0.0
  0
LINE
  5
3673
330
1A
100
AcDbEntity
  8
SEIHIN
  6
Continuous
 62
     3
100
AcDbLine
 10
495.9249942551366
 20
147.6192632773699
 30
0.0
 11
487.5293055977367
 21
147.6192632773699
 31
0.0
  0
ARC
  5
3674
330
1A
100
AcDbEntity
  8
SEIHIN
  6
Continuous
 62
     3
100
AcDbCircle
 10
-490.6293055977366
 20
150.1192632773698
 30
0.0
 40
2.5
210
0.0
220
0.0
230
-1.0
100
AcDbArc
 50
180.0
 51
270.0
  0
ARC
  5
3675
330
1A
100
AcDbEntity
  8
SEIHIN
  6
Continuous
 62
     3
100
AcDbCircle
 10
487.5293055977367
 20
145.1192632773698
 30
0.0
 40
2.5
100
AcDbArc
 50
90.0
 51
180.0
  0
ARC
  5
3676
330
1A
100
AcDbEntity
  8
SEIHIN
  6
Continuous
 62
     3
100
AcDbCircle
 10
487.5293055977367
 20
154.1192632773698
 30
0.0
 40
2.5
100
AcDbArc
 50
90.0
 51
180.000007959502
  0
LINE
  5
3677
330
1A
100
AcDbEntity
  8
SEIHIN
  6
Continuous
 62
     3
100
AcDbLine
 10
493.1293055977366
 20
156.6192632773699
 30
0.0
 11
487.5293055977367
 21
156.6192632773699
 31
0.0
  0
LINE
  5
3678
330
1A
100
AcDbEntity
  8
SEIHIN
100
AcDbLine
 10
544.5293055977368
 20
204.0255376896387
 30
0.0
 11
544.5293055977368
 21
184.0255376896386
 31
0.0
  0
LINE
  5
3679
330
1A
100
AcDbEntity
  8
SEIHIN
100
AcDbLine
 10
549.5293055977367
 20
204.0255376896387
 30
0.0
 11
549.5293055977367
 21
184.0255376896386
 31
0.0
  0
LINE
  5
367A
330
1A
100
AcDbEntity
  8
SEIHIN
100
AcDbLine
 10
542.0293055977367
 20
184.0255376896386
 30
0.0
 11
547.0293055977367
 21
179.0255376896386
 31
0.0
  0
LINE
  5
367B
330
1A
100
AcDbEntity
  8
SEIHIN
  6
Continuous
 62
     3
100
AcDbLine
 10
542.0293055977367
 20
184.0255376896386
 30
0.0
 11
544.5293055977368
 21
184.0255376896386
 31
0.0
  0
LINE
  5
367C
330
1A
100
AcDbEntity
  8
SEIHIN
100
AcDbLine
 10
547.0293055977367
 20
179.0255376896386
 30
0.0
 11
552.0293055977368
 21
184.0255376896386
 31
0.0
  0
LINE
  5
367D
330
1A
100
AcDbEntity
  8
SEIHIN
  6
Continuous
 62
     3
100
AcDbLine
 10
549.5293055977367
 20
184.0255376896386
 30
0.0
 11
552.0293055977368
 21
184.0255376896386
 31
0.0
  0
LINE
  5
367E
330
1A
100
AcDbEntity
  8
SEIHIN
  6
Continuous
 62
     3
100
AcDbLine
 10
544.5293055977368
 20
204.0255376896387
 30
0.0
 11
549.5293055977367
 21
204.0255376896387
 31
0.0
  0
LINE
  5
367F
330
1A
100
AcDbEntity
  8
SEIHIN
  6
Continuous
 62
     3
100
AcDbLine
 10
486.7333047600366
 20
244.8485821103698
 30
0.0
 11
492.5613058770368
 21
238.8711450673698
 31
0.0
  0
LINE
  5
3680
330
1A
100
AcDbEntity
  8
SEIHIN
  6
Continuous
 62
     3
100
AcDbLine
 10
485.7393052487366
 20
237.2733132665699
 30
0.0
 11
493.1293055977369
 21
229.6938257290699
 31
0.0
  0
ARC
  5
3681
330
1A
100
AcDbEntity
  8
SEIHIN
  6
Continuous
 62
     3
100
AcDbCircle
 10
487.5293055977367
 20
239.0185636068698
 30
0.0
 40
2.5
100
AcDbArc
 50
180.000006350899
 51
224.2747757009009
  0
ARC
  5
3682
330
1A
100
AcDbEntity
  8
SEIHIN
  6
Continuous
 62
     3
100
AcDbCircle
 10
-491.1293055977366
 20
237.4749447950699
 30
0.0
 40
2.0
210
0.0
220
0.0
230
-1.0
100
AcDbArc
 50
135.7252242990991
 51
180.0000088573023
  0
ARC
  5
3683
330
1A
100
AcDbEntity
  8
SEIHIN
  6
Continuous
 62
     3
100
AcDbCircle
 10
491.0293055977367
 20
249.0371829271699
 30
0.0
 40
6.0
100
AcDbArc
 50
180.0
 51
224.2747757009009
  0
DIMENSION
  5
3684
330
1A
100
AcDbEntity
  8
SUNPOU
100
AcDbDimension
  2
*D11
 10
679.1760699194765
 20
148.8824042771225
 30
0.0
 11
683.2628704062674
 21
193.7749513091762
 31
0.0
 70
    33
  1
\U+03C6<>
 71
     5
 42
-1.0
  3
STANDARD
100
AcDbAlignedDimension
 13
648.0984142644802
 23
237.8681469219539
 33
0.0
 14
649.9227402717522
 24
148.2866605333301
 34
0.0
1001
ACAD
1000
DSTYLE
1002
{
1070
   287
1070
     5
1070
   287
1070
     5
1070
   287
1070
     5
1070
   287
1070
     5
1070
   287
1070
     5
1070
   287
1070
     5
1070
    41
1040
7.0
1070
    42
1040
6.0
1070
    43
1040
14.0
1070
    44
1040
3.0
1070
    73
1070
     0
1070
    74
1070
     0
1070
    77
1070
     3
1070
   140
1040
6.0
1070
   141
1040
150.0
1070
   147
1040
2.0
1070
   172
1070
     1
1070
   173
1070
     1
1070
   176
1070
   256
1070
   177
1070
   256
1070
   178
1070
   256
1070
   271
1070
     1
1070
   272
1070
     0
1070
   279
1070
     2
1070
   341
1005
6D
1070
     6
1000
OPEN
1070
     7
1000
OPEN
1070
   371
1070
    -1
1070
   372
1070
    -1
1002
}
  0
ARC
  5
3685
330
1A
100
AcDbEntity
  8
SEIHIN
  6
Continuous
 62
     3
100
AcDbCircle
 10
-692.5865367992367
 20
143.1192632773698
 30
0.0
 40
132.0572312014
210
0.0
220
0.0
230
-1.0
100
AcDbArc
 50
29.96332427564868
 51
43.26862758149816
  0
LINE
  5
3686
330
1A
100
AcDbEntity
  8
SEIHIN
  6
Continuous
 62
     3
100
AcDbLine
 10
648.0795811719659
 20
238.7929248476082
 30
0.0
 11
649.9415733642658
 21
147.361882607708
 31
0.0
  0
LINE
  5
3687
330
1A
100
AcDbEntity
  8
SEIHIN
  6
Continuous
 62
     3
100
AcDbLine
 10
606.3272915721368
 20
147.6192632773698
 30
0.0
 11
604.4806038587369
 21
238.2987962141697
 31
0.0
  0
DIMENSION
  5
3688
330
1A
100
AcDbEntity
  8
SUNPOU
100
AcDbDimension
  2
*D12
 10
609.7549252687963
 20
158.4742097421513
 30
0.0
 11
629.5984750868079
 21
167.8143307152724
 31
0.0
 70
    33
  1
差込寸法<>
 71
     5
 42
-1.0
  3
STANDARD
100
AcDbAlignedDimension
 13
649.9980744941658
 23
144.587457870508
 33
0.0
 14
610.0036872381781
 24
143.9045927975386
 34
0.0
1001
ACAD
1000
DSTYLE
1002
{
1070
   287
1070
     5
1070
   287
1070
     5
1070
   287
1070
     5
1070
   287
1070
     5
1070
   287
1070
     5
1070
    41
1040
7.0
1070
    42
1040
6.0
1070
    43
1040
14.0
1070
    44
1040
3.0
1070
    73
1070
     0
1070
    74
1070
     0
1070
    77
1070
     3
1070
   140
1040
6.0
1070
   141
1040
150.0
1070
   147
1040
2.0
1070
   172
1070
     1
1070
   173
1070
     1
1070
   176
1070
   256
1070
   177
1070
   256
1070
   178
1070
   256
1070
   271
1070
     0
1070
   272
1070
     0
1070
   279
1070
     2
1070
   341
1005
6D
1070
     6
1000
OPEN
1070
     7
1000
OPEN
1070
   371
1070
    -1
1070
   372
1070
    -1
1002
}
  0
LINE
  5
3689
330
1A
100
AcDbEntity
  8
SEIHIN
  6
Continuous
 62
     3
100
AcDbLine
 10
613.9275017600368
 20
143.9715880954697
 30
0.0
 11
649.9980744941658
 21
144.587457870508
 31
0.0
  0
ARC
  5
368A
330
1A
100
AcDbEntity
  8
SEIHIN
  6
Continuous
 62
     3
100
AcDbCircle
 10
-690.6366341166185
 20
244.6715064677055
 30
0.0
 40
132.0572312014
210
0.0
220
0.0
230
-1.0
100
AcDbArc
 50
314.5313724185168
 51
327.8366757243664
  0
ARC
  5
368B
330
1A
100
AcDbEntity
  8
SEIHIN
  6
Continuous
 62
     3
100
AcDbCircle
 10
614.0293055977367
 20
138.9726246050697
 30
0.0
 40
5.0
100
AcDbArc
 50
91.1666666667004
 51
180.0
  0
LINE
  5
368C
330
1A
100
AcDbEntity
  8
SEIHIN
  6
Continuous
 62
     3
100
AcDbLine
 10
619.0020843879367
 20
144.0749319161698
 30
0.0
 11
609.0293055977367
 21
134.1192632773698
 31
0.0
  0
LINE
  5
368D
330
1A
100
AcDbEntity
  8
SEIHIN
  6
Continuous
 62
     3
100
AcDbLine
 10
649.9980744941658
 20
144.587457870508
 30
0.0
 11
649.9415733642658
 21
147.361882607708
 31
0.0
  0
LINE
  5
368E
330
1A
100
AcDbEntity
  8
SEIHIN
  6
Continuous
 62
     3
100
AcDbLine
 10
606.9291836851369
 20
240.8491798782698
 30
0.0
 11
648.0230800420659
 21
241.5673495848079
 31
0.0
  0
ARC
  5
368F
330
1A
100
AcDbEntity
  8
SEIHIN
  6
Continuous
 62
     3
100
AcDbCircle
 10
608.1947173922369
 20
242.8753671483698
 30
0.0
 40
2.0
100
AcDbArc
 50
135.7252242990991
 51
271.1666633204988
  0
LINE
  5
3690
330
1A
100
AcDbEntity
  8
SEIHIN
  6
Continuous
 62
     3
100
AcDbLine
 10
620.0264680300367
 20
241.1159059330699
 30
0.0
 11
609.0293055977367
 21
253.1192632773699
 31
0.0
  0
ARC
  5
3691
330
1A
100
AcDbEntity
  8
SEIHIN
  6
Continuous
 62
     3
100
AcDbCircle
 10
606.9800856039367
 20
238.3496981329699
 30
0.0
 40
2.5
100
AcDbArc
 50
91.1666666667004
 51
181.1666666667004
  0
LINE
  5
3692
330
1A
100
AcDbEntity
  8
SEIHIN
  6
Continuous
 62
     3
100
AcDbLine
 10
607.3253064355367
 20
244.8485821103698
 30
0.0
 11
606.7627171129368
 21
244.2715674205697
 31
0.0
  0
ARC
  5
3693
330
1A
100
AcDbEntity
  8
SEIHIN
  6
Continuous
 62
     3
100
AcDbCircle
 10
-603.0293055977369
 20
249.0371829271698
 30
0.0
 40
6.0
210
0.0
220
0.0
230
-1.0
100
AcDbArc
 50
179.9999929891968
 51
224.2747757009009
  0
LINE
  5
3694
330
1A
100
AcDbEntity
  8
SEIHIN
  6
Continuous
 62
     3
100
AcDbLine
 10
648.0230800420659
 20
241.5673495848079
 30
0.0
 11
648.0795811719659
 21
238.7929248476082
 31
0.0
  0
TEXT
  5
3695
330
1A
100
AcDbEntity
  8
ZUWAKU
100
AcDbText
 10
716.8906034025588
 20
26.27480651343774
 30
0.0
 40
6.0
  1
積水化学工業株式会社
 41
0.9
  7
ｽﾀｲﾙ1
100
AcDbText
  0
LINE
  5
3696
330
1A
100
AcDbEntity
  8
ZUWAKU
100
AcDbLine
 10
707.899488634202
 20
43.78258628282265
 30
0.0
 11
707.8994886342022
 21
14.58258628282272
 31
0.0
  0
LINE
  5
3697
330
1A
100
AcDbEntity
  8
ZUWAKU
100
AcDbLine
 10
707.699488634202
 20
43.78258628282265
 30
0.0
 11
707.6994886342022
 21
14.58258628282272
 31
0.0
  0
LINE
  5
3698
330
1A
100
AcDbEntity
  8
ZUWAKU
100
AcDbLine
 10
707.4994886342022
 20
43.78258628282265
 30
0.0
 11
707.4994886342022
 21
14.58258628282272
 31
0.0
  0
LINE
  5
3699
330
1A
100
AcDbEntity
  8
ZUWAKU
100
AcDbLine
 10
707.2994886342021
 20
43.78258628282265
 30
0.0
 11
707.2994886342021
 21
14.58258628282272
 31
0.0
  0
ELLIPSE
  5
369B
330
1A
100
AcDbEntity
  8
SEIHIN
100
AcDbEllipse
 10
649.0105772681161
 20
477.8306590532359
 30
0.0
 11
0.0
 21
-44.80000006785164
 31
0.0
210
0.0
220
0.0
230
1.0
 40
0.0203607813003236
 41
0.0
 42
6.283185307179586
  0
ELLIPSE
  5
369C
330
1A
100
AcDbEntity
  8
SEIHIN
100
AcDbEllipse
 10
649.0081608024868
 20
477.8306590532358
 30
0.0
 11
0.0
 21
-48.50000006019868
 31
0.0
210
0.0
220
0.0
230
1.0
 40
0.0203607675221503
 41
0.0
 42
6.283185307179586
  0
DIMENSION
  5
369D
330
1A
100
AcDbEntity
  8
SUNPOU
100
AcDbDimension
  2
*D13
 10
695.5440815523886
 20
429.3306590532359
 30
0.0
 11
690.5440815523885
 21
477.8306590833353
 31
0.0
 70
    32
 71
     5
 42
-1.0
  3
STANDARD
100
AcDbAlignedDimension
 13
649.0081608024868
 23
526.3306591134345
 33
0.0
 14
649.0081116015333
 24
429.3306590532359
 34
0.0
 50
90.0
100
AcDbRotatedDimension
1001
ACAD
1000
DSTYLE
1002
{
1070
   287
1070
     5
1070
   287
1070
     5
1070
   287
1070
     5
1070
   287
1070
     5
1070
   287
1070
     5
1070
   287
1070
     5
1070
    41
1040
7.0
1070
    42
1040
6.0
1070
    43
1040
14.0
1070
    44
1040
3.0
1070
    73
1070
     0
1070
    74
1070
     0
1070
    77
1070
     3
1070
   140
1040
6.0
1070
   141
1040
150.0
1070
   147
1040
2.0
1070
   172
1070
     1
1070
   173
1070
     1
1070
   176
1070
   256
1070
   177
1070
   256
1070
   178
1070
   256
1070
   271
1070
     0
1070
   272
1070
     0
1070
   279
1070
     2
1070
   341
1005
6D
1070
     6
1000
OPEN
1070
     7
1000
OPEN
1070
   371
1070
    -1
1070
   372
1070
    -1
1002
}
  0
DIMENSION
  5
369E
330
1A
100
AcDbEntity
  8
SUNPOU
100
AcDbDimension
  2
*D14
 10
494.4228327212914
 20
454.8672313583164
 30
0.0
 11
574.6026890786717
 21
496.0955519956812
 31
0.0
 70
   163
 71
     5
 42
-1.0
  3
STANDARD
100
AcDbDiametricDimension
 15
599.6357784741826
 25
500.7940867481547
 35
0.0
 40
0.0
1001
ACAD
1000
DSTYLE
1002
{
1070
   287
1070
     5
1070
   287
1070
     5
1070
   287
1070
     5
1070
   287
1070
     5
1070
   287
1070
     5
1070
   287
1070
     5
1070
    41
1040
7.0
1070
    42
1040
6.0
1070
    43
1040
14.0
1070
    44
1040
3.0
1070
    73
1070
     0
1070
    74
1070
     0
1070
    77
1070
     3
1070
   140
1040
6.0
1070
   141
1040
150.0
1070
   147
1040
2.0
1070
   172
1070
     1
1070
   173
1070
     1
1070
   176
1070
   256
1070
   177
1070
   256
1070
   178
1070
   256
1070
   271
1070
     0
1070
   272
1070
     0
1070
   279
1070
     2
1070
   288
1070
     1
1070
   341
1005
6D
1070
     6
1000
OPEN
1070
     7
1000
OPEN
1070
   371
1070
    -1
1070
   372
1070
    -1
1002
}
  0
CIRCLE
  5
369F
330
1A
100
AcDbEntity
  8
SEIHIN
100
AcDbCircle
 10
547.0293055977365
 20
477.8306590532357
 30
0.0
 40
57.4
  0
DIMENSION
  5
36A0
330
1A
100
AcDbEntity
  8
SUNPOU
100
AcDbDimension
  2
*D15
 10
509.939312691294
 20
428.1483440286709
 30
0.0
 11
560.9282594454289
 21
505.6569379987815
 31
0.0
 70
   163
 71
     5
 42
-1.0
  3
STANDARD
100
AcDbDiametricDimension
 15
584.1192985041784
 25
527.5129740777998
 35
0.0
 40
0.0
1001
ACAD
1000
DSTYLE
1002
{
1070
   287
1070
     5
1070
   287
1070
     5
1070
   287
1070
     5
1070
   287
1070
     5
1070
   287
1070
     5
1070
   287
1070
     5
1070
    41
1040
7.0
1070
    42
1040
6.0
1070
    43
1040
14.0
1070
    44
1040
3.0
1070
    73
1070
     0
1070
    74
1070
     0
1070
    77
1070
     3
1070
   140
1040
6.0
1070
   141
1040
150.0
1070
   147
1040
2.0
1070
   172
1070
     1
1070
   173
1070
     1
1070
   176
1070
   256
1070
   177
1070
   256
1070
   178
1070
   256
1070
   271
1070
     0
1070
   272
1070
     0
1070
   279
1070
     2
1070
   288
1070
     1
1070
   341
1005
6D
1070
     6
1000
OPEN
1070
     7
1000
OPEN
1070
   371
1070
    -1
1070
   372
1070
    -1
1002
}
  0
CIRCLE
  5
36A1
330
1A
100
AcDbEntity
  8
SEIHIN
100
AcDbCircle
 10
547.0293055977365
 20
477.8306590532357
 30
0.0
 40
49.4
  0
CIRCLE
  5
36A2
330
1A
100
AcDbEntity
  8
SEIHIN
  6
Continuous
 62
     3
100
AcDbCircle
 10
547.0293055977367
 20
477.8306590532359
 30
0.0
 40
62.0
  0
LINE
  5
36A3
330
1A
100
AcDbEntity
  8
CENTER L
  6
CENTER
 62
     1
 48
5.0
100
AcDbLine
 10
547.0293055977367
 20
405.5946614867848
 30
0.0
 11
547.0293055977367
 21
545.0020973490101
 31
0.0
  0
DIMENSION
  5
36A4
330
1A
100
AcDbEntity
  8
SUNPOU
100
AcDbDimension
  2
*D16
 10
604.4293055977369
 20
376.9977736248903
 30
0.0
 11
547.0293055977367
 21
381.9977736248903
 31
0.0
 70
    32
  1
\U+03C6<>
 71
     5
 42
-1.0
  3
STANDARD
100
AcDbAlignedDimension
 13
489.6293055977366
 23
348.1192632773698
 33
0.0
 14
604.4293055977369
 24
348.1192632773698
 34
0.0
100
AcDbRotatedDimension
1001
ACAD
1000
DSTYLE
1002
{
1070
   287
1070
     5
1070
   287
1070
     5
1070
   287
1070
     5
1070
   287
1070
     5
1070
   287
1070
     5
1070
   287
1070
     5
1070
    41
1040
7.0
1070
    42
1040
6.0
1070
    43
1040
14.0
1070
    44
1040
3.0
1070
    73
1070
     0
1070
    74
1070
     0
1070
    77
1070
     3
1070
   140
1040
6.0
1070
   141
1040
150.0
1070
   147
1040
2.0
1070
   172
1070
     1
1070
   173
1070
     1
1070
   176
1070
   256
1070
   177
1070
   256
1070
   178
1070
   256
1070
   271
1070
     1
1070
   272
1070
     0
1070
   279
1070
     2
1070
   341
1005
6D
1070
     6
1000
OPEN
1070
     7
1000
OPEN
1070
   371
1070
    -1
1070
   372
1070
    -1
1002
}
  0
DIMENSION
  5
36A5
330
1A
100
AcDbEntity
  8
SUNPOU
100
AcDbDimension
  2
*D17
 10
609.029305597737
 20
388.6467333781319
 30
0.0
 11
547.2793055977368
 21
393.6467333781319
 31
0.0
 70
    32
  1
\U+03C6<>
 71
     5
 42
-1.0
  3
STANDARD
100
AcDbAlignedDimension
 13
485.5293055977368
 23
348.1192632773698
 33
0.0
 14
609.029305597737
 24
347.6192632773698
 34
0.0
100
AcDbRotatedDimension
1001
ACAD
1000
DSTYLE
1002
{
1070
   287
1070
     5
1070
   287
1070
     5
1070
   287
1070
     5
1070
   287
1070
     5
1070
   287
1070
     5
1070
   287
1070
     5
1070
   287
1070
     5
1070
   287
1070
     5
1070
   287
1070
     5
1070
    41
1040
7.0
1070
    42
1040
6.0
1070
    43
1040
14.0
1070
    44
1040
3.0
1070
    73
1070
     0
1070
    74
1070
     0
1070
    77
1070
     3
1070
   140
1040
6.0
1070
   141
1040
150.0
1070
   147
1040
2.0
1070
   172
1070
     1
1070
   173
1070
     1
1070
   176
1070
   256
1070
   177
1070
   256
1070
   178
1070
   256
1070
   271
1070
     0
1070
   272
1070
     0
1070
   279
1070
     2
1070
   341
1005
6D
1070
     6
1000
OPEN
1070
     7
1000
OPEN
1070
   371
1070
    -1
1070
   372
1070
    -1
1002
}
  0
LINE
  5
36A6
330
1A
100
AcDbEntity
  8
SEIHIN
  6
Continuous
 62
     3
100
AcDbLine
 10
605.4293055977368
 20
348.1192632773698
 30
0.0
 11
488.6293055977368
 21
348.1192632773698
 31
0.0
  0
LINE
  5
36A7
330
1A
100
AcDbEntity
  8
CENTER L
  6
CENTER
 62
     1
 48
5.0
100
AcDbLine
 10
475.1238923894918
 20
477.8306590532359
 30
0.0
 11
669.1839437985525
 21
477.8306590532359
 31
0.0
  0
LINE
  5
36A8
330
1A
100
AcDbEntity
  8
SEIHIN
  6
Continuous
 62
     3
100
AcDbLine
 10
485.5293055977368
 20
348.1192632773698
 30
0.0
 11
489.6293055977369
 21
348.1192632773698
 31
0.0
  0
ARC
  5
36A9
330
1A
100
AcDbEntity
  8
SEIHIN
  6
Continuous
 62
     3
100
AcDbCircle
 10
485.5293055977368
 20
347.6192632773698
 30
0.0
 40
0.5
100
AcDbArc
 50
90.0
 51
180.0
  0
ARC
  5
36AA
330
1A
100
AcDbEntity
  8
SEIHIN
  6
Continuous
 62
     3
100
AcDbCircle
 10
-608.529305597737
 20
347.6192632773698
 30
0.0
 40
0.5
210
0.0
220
0.0
230
-1.0
100
AcDbArc
 50
90.0
 51
180.0
  0
LINE
  5
36AB
330
1A
100
AcDbEntity
  8
SEIHIN
  6
Continuous
 62
     3
100
AcDbLine
 10
608.5293055977367
 20
348.1192632773698
 30
0.0
 11
605.4293055977368
 21
348.1192632773698
 31
0.0
  0
LINE
  5
36AC
330
1A
100
AcDbEntity
  8
SEIHIN
  6
Continuous
 62
     3
100
AcDbLine
 10
607.4039477154367
 20
429.3306590532358
 30
0.0
 11
649.0081116015333
 21
429.3306590532359
 31
0.0
  0
LINE
  5
36AD
330
1A
100
AcDbEntity
  8
SEIHIN
  6
Continuous
 62
     3
100
AcDbLine
 10
605.4039477154367
 20
431.3306590532357
 30
0.0
 11
605.4039477154374
 21
456.94044226091
 31
0.0
  0
LINE
  5
36AE
330
1A
100
AcDbEntity
  8
SEIHIN
  6
Continuous
 62
     3
100
AcDbLine
 10
592.4513266888332
 20
435.6306590532359
 30
0.0
 11
603.4039477154367
 21
435.6306590532359
 31
0.0
  0
ARC
  5
36AF
330
1A
100
AcDbEntity
  8
SEIHIN
  6
Continuous
 62
     3
100
AcDbCircle
 10
603.4039477154367
 20
433.6306590532358
 30
0.0
 40
2.0
100
AcDbArc
 50
0.0
 51
90.0
  0
ARC
  5
36B0
330
1A
100
AcDbEntity
  8
SEIHIN
  6
Continuous
 62
     3
100
AcDbCircle
 10
607.4039477154367
 20
431.3306590532357
 30
0.0
 40
2.0
100
AcDbArc
 50
180.0
 51
270.0
  0
LINE
  5
36B1
330
1A
100
AcDbEntity
  8
SEIHIN
  6
Continuous
 62
     3
100
AcDbLine
 10
608.9788818674739
 20
480.3306590532359
 30
0.0
 11
620.0264680300367
 21
480.3306590532359
 31
0.0
  0
LINE
  5
36B2
330
1A
100
AcDbEntity
  8
SEIHIN
  6
Continuous
 62
     3
100
AcDbLine
 10
608.9788818674739
 20
475.3306590532359
 30
0.0
 11
620.0264680300367
 21
475.3306590532359
 31
0.0
  0
LINE
  5
36B3
330
1A
100
AcDbEntity
  8
SEIHIN
  6
Continuous
 62
     3
100
AcDbLine
 10
620.0264680300367
 20
475.3306590532359
 30
0.0
 11
620.0264680300367
 21
480.3306590532359
 31
0.0
  0
LINE
  5
36B4
330
1A
100
AcDbEntity
  8
SEIHIN
  6
Continuous
 62
     3
100
AcDbLine
 10
607.4039477154367
 20
526.3306590532358
 30
0.0
 11
649.0081116015333
 21
526.3306590532359
 31
0.0
  0
LINE
  5
36B5
330
1A
100
AcDbEntity
  8
SEIHIN
  6
Continuous
 62
     3
100
AcDbLine
 10
592.451326688833
 20
520.0306590532355
 30
0.0
 11
603.4039477154367
 21
520.0306590532358
 31
0.0
  0
LINE
  5
36B6
330
1A
100
AcDbEntity
  8
SEIHIN
  6
Continuous
 62
     3
100
AcDbLine
 10
605.4039477154367
 20
524.3306590532357
 30
0.0
 11
605.4039477154374
 21
498.7208758455616
 31
0.0
  0
LINE
  5
36B7
330
1A
100
AcDbEntity
  8
SEIHIN
  6
Continuous
 62
     3
100
AcDbLine
 10
605.4039477154383
 20
498.7208758455589
 30
0.0
 11
605.403947715439
 21
524.3306590532358
 31
0.0
  0
ARC
  5
36B8
330
1A
100
AcDbEntity
  8
SEIHIN
  6
Continuous
 62
     3
100
AcDbCircle
 10
603.4039477154367
 20
522.0306590532358
 30
0.0
 40
2.0
100
AcDbArc
 50
270.0
 51
0.0000000000001018
  0
ARC
  5
36B9
330
1A
100
AcDbEntity
  8
SEIHIN
  6
Continuous
 62
     3
100
AcDbCircle
 10
607.4039477154367
 20
524.3306590532357
 30
0.0
 40
2.0
100
AcDbArc
 50
90.0
 51
180.0000000000001
  0
VIEWPORT
  5
22
102
{ACAD_XDICTIONARY
360
3BDF
102
}
330
17
100
AcDbEntity
 67
     1
  8
0
100
AcDbViewport
 10
313.6808219178083
 20
148.5
 30
0.0
 40
627.3616438356165
 41
297.0
 68
     2
 69
     1
 12
313.6808219178083
 22
148.5
 13
0.0
 23
0.0
 14
1.0
 24
1.0
 15
10.0
 25
10.0
 16
0.0
 26
0.0
 36
1.0
 17
0.0
 27
0.0
 37
0.0
 42
50.0
 43
0.0
 44
0.0
 45
297.0
 50
0.0
 51
0.0
 72
   100
 90
    32768
  1

281
     0
 71
     1
 74
     0
110
0.0
120
0.0
130
0.0
111
1.0
121
0.0
131
0.0
112
0.0
122
1.0
132
0.0
 79
     0
146
0.0
  0
VIEWPORT
  5
64
102
{ACAD_XDICTIONARY
360
3BE1
102
}
330
17
100
AcDbEntity
 67
     1
  8
VIEWPORT
100
AcDbViewport
 10
210.0
 20
148.5
 30
0.0
 40
420.0
 41
297.0
 68
     1
 69
     2
 12
420.0
 22
297.0
 13
0.0
 23
0.0
 14
10.0
 24
10.0
 15
0.0
 25
0.0
 16
0.0
 26
0.0
 36
1.0
 17
0.0
 27
0.0
 37
0.0
 42
50.0
 43
0.0
 44
0.0
 45
605.8799999999998
 50
0.0
 51
0.0
 72
   100
 90
    32768
  1

281
     0
 71
     1
 74
     0
110
0.0
120
0.0
130
0.0
111
1.0
121
0.0
131
0.0
112
0.0
122
1.0
132
0.0
 79
     0
146
0.0
  0
ENDSEC
  0
SECTION
  2
OBJECTS
  0
DICTIONARY
  5
C
330
0
100
AcDbDictionary
281
     1
  3
ACAD_COLOR
350
3B15
  3
ACAD_GROUP
350
D
  3
ACAD_LAYOUT
350
340
  3
ACAD_MATERIAL
350
3AE3
  3
ACAD_MLEADERSTYLE
350
3B2A
  3
ACAD_MLINESTYLE
350
E
  3
ACAD_PLOTSETTINGS
350
341
  3
ACAD_PLOTSTYLENAME
350
33E
  3
ACAD_SCALELIST
350
3B18
  3
ACAD_TABLESTYLE
350
3B16
  3
ACAD_VISUALSTYLE
350
3AFC
  3
ACDB_RECOMPOSE_DATA
350
3BDD
  3
AcDbVariableDictionary
350
3B78
  3
DWGPROPS
350
3BDE
  0
DICTIONARY
  5
3B35
330
8
100
AcDbDictionary
280
     1
281
     1
  0
DICTIONARY
  5
3B88
330
F
100
AcDbDictionary
280
     1
281
     1
  3
ADSK_XREC_LAYER_RECONCILED
360
3B89
  0
DICTIONARY
  5
3B8A
330
62
100
AcDbDictionary
280
     1
281
     1
  3
ADSK_XREC_LAYER_RECONCILED
360
3B8B
  0
DICTIONARY
  5
3B8C
330
65
100
AcDbDictionary
280
     1
281
     1
  3
ADSK_XREC_LAYER_RECONCILED
360
3B8D
  0
DICTIONARY
  5
3B8E
330
153
100
AcDbDictionary
280
     1
281
     1
  3
ADSK_XREC_LAYER_RECONCILED
360
3B8F
  0
DICTIONARY
  5
3B90
330
154
100
AcDbDictionary
280
     1
281
     1
  3
ADSK_XREC_LAYER_RECONCILED
360
3B91
  0
DICTIONARY
  5
3B92
330
155
100
AcDbDictionary
280
     1
281
     1
  3
ADSK_XREC_LAYER_RECONCILED
360
3B93
  0
DICTIONARY
  5
3B94
330
59A
100
AcDbDictionary
280
     1
281
     1
  3
ADSK_XREC_LAYER_RECONCILED
360
3B95
  0
DICTIONARY
  5
385
330
1A
100
AcDbDictionary
280
     1
281
     1
  3
ACAD_LAYOUTSELFREF
360
3A36
  0
DICTIONARY
  5
383
330
17
100
AcDbDictionary
280
     1
281
     1
  3
ACAD_LAYOUTSELFREF
360
3A35
  0
DICTIONARY
  5
3BE7
330
3AC5
100
AcDbDictionary
280
     1
281
     1
  3
ACAD_MTEXT_RT
360
3BE8
  0
DICTIONARY
  5
3BE9
330
3ACB
100
AcDbDictionary
280
     1
281
     1
  3
ACAD_MTEXT_RT
360
3BEA
  0
DICTIONARY
  5
3BDF
330
22
100
AcDbDictionary
280
     1
281
     1
  3
ACAD_XREC_ROUNDTRIP
360
3BE0
  0
DICTIONARY
  5
3BE1
330
64
100
AcDbDictionary
280
     1
281
     1
  3
ACAD_XREC_ROUNDTRIP
360
3BE2
  0
DICTIONARY
  5
3B15
102
{ACAD_REACTORS
330
C
102
}
330
C
100
AcDbDictionary
281
     1
  0
DICTIONARY
  5
D
102
{ACAD_REACTORS
330
C
102
}
330
C
100
AcDbDictionary
281
     1
  0
DICTIONARY
  5
340
102
{ACAD_REACTORS
330
C
102
}
330
C
100
AcDbDictionary
281
     1
  3
Model
350
342
  3
ﾚｲｱｳﾄ1
350
343
  0
DICTIONARY
  5
3AE3
102
{ACAD_REACTORS
330
C
102
}
330
C
100
AcDbDictionary
281
     1
  3
ByBlock
350
3AEC
  3
ByLayer
350
3AE4
  3
Global
350
3AF4
  0
DICTIONARY
  5
3B2A
102
{ACAD_REACTORS
330
C
102
}
330
C
100
AcDbDictionary
281
     1
  3
Standard
350
3B2B
  0
DICTIONARY
  5
E
102
{ACAD_REACTORS
330
C
102
}
330
C
100
AcDbDictionary
281
     1
  3
STANDARD
350
13
  0
DICTIONARY
  5
341
102
{ACAD_REACTORS
330
C
102
}
330
C
100
AcDbDictionary
281
     1
  0
ACDBDICTIONARYWDFLT
  5
33E
102
{ACAD_REACTORS
330
C
102
}
330
C
100
AcDbDictionary
281
     1
  3
Normal
350
33F
100
AcDbDictionaryWithDefault
340
33F
  0
DICTIONARY
  5
3B18
102
{ACAD_REACTORS
330
C
102
}
330
C
100
AcDbDictionary
281
     1
  3
A0
350
3B19
  3
A1
350
3B1A
  3
A2
350
3B1B
  3
A3
350
3B1C
  3
A4
350
3B1D
  3
A5
350
3B1E
  3
A6
350
3B1F
  3
A7
350
3B20
  3
A8
350
3B21
  3
A9
350
3B22
  3
B0
350
3B23
  3
B1
350
3B24
  3
B2
350
3B25
  3
B3
350
3B26
  3
B4
350
3B27
  3
B5
350
3B28
  3
B6
350
3B29
  0
DICTIONARY
  5
3B16
102
{ACAD_REACTORS
330
C
102
}
330
C
100
AcDbDictionary
281
     1
  3
Standard
350
3B17
  0
DICTIONARY
  5
3AFC
102
{ACAD_REACTORS
330
C
102
}
330
C
100
AcDbDictionary
281
     1
  3
2dWireframe
350
3B02
  3
Basic
350
3B01
  3
Brighten
350
3B08
  3
ColorChange
350
3B0C
  3
Conceptual
350
3B05
  3
Dim
350
3B07
  3
EdgeColorOff
350
3B14
  3
Facepattern
350
3B0B
  3
Flat
350
3AFD
  3
FlatWithEdges
350
3AFE
  3
Gouraud
350
3AFF
  3
GouraudWithEdges
350
3B00
  3
Hidden
350
3B04
  3
JitterOff
350
3B12
  3
Linepattern
350
3B0A
  3
OverhangOff
350
3B13
  3
Realistic
350
3B06
  3
Shaded
350
3B11
  3
Shaded with edges
350
3B10
  3
Shades of Gray
350
3B0D
  3
Sketchy
350
3B0E
  3
Thicken
350
3B09
  3
Wireframe
350
3B03
  3
X-Ray
350
3B0F
  0
XRECORD
  5
3BDD
102
{ACAD_REACTORS
330
C
102
}
330
C
100
AcDbXrecord
280
     1
 90
        1
330
3573
330
3574
330
3575
330
3643
330
3644
330
3648
330
364D
330
3650
330
366E
330
3684
330
3688
330
369D
330
369E
330
36A0
330
36A4
330
36A5
330
3B17
  0
DICTIONARY
  5
3B78
102
{ACAD_REACTORS
330
C
102
}
330
C
100
AcDbDictionary
281
     1
  3
CANNOSCALE
350
3B7B
  3
CMLEADERSTYLE
350
3B7A
  3
CTABLESTYLE
350
3B79
  3
DIMASSOC
350
3B7E
  3
INDEXCTL
350
3B7D
  3
SORTENTS
350
3B7C
  3
XCLIPFRAME
350
3BDB
  0
XRECORD
  5
3BDE
102
{ACAD_REACTORS
330
C
102
}
330
C
100
AcDbXrecord
280
     1
  1
DWGPROPS COOKIE
  2

  3

  4

  6

  7

  8
furukawa011
  9

300
=
301
=
302
=
303
=
304
=
305
=
306
=
307
=
308
=
309
=
 40
0.0632184259259259
 41
2450994.354346065
 42
2458306.586813565
  1

 90
        0
  0
XRECORD
  5
3B89
102
{ACAD_REACTORS
330
3B88
102
}
330
3B88
100
AcDbXrecord
280
     1
290
     1
  0
XRECORD
  5
3B8B
102
{ACAD_REACTORS
330
3B8A
102
}
330
3B8A
100
AcDbXrecord
280
     1
290
     1
  0
XRECORD
  5
3B8D
102
{ACAD_REACTORS
330
3B8C
102
}
330
3B8C
100
AcDbXrecord
280
     1
290
     1
  0
XRECORD
  5
3B8F
102
{ACAD_REACTORS
330
3B8E
102
}
330
3B8E
100
AcDbXrecord
280
     1
290
     1
  0
XRECORD
  5
3B91
102
{ACAD_REACTORS
330
3B90
102
}
330
3B90
100
AcDbXrecord
280
     1
290
     1
  0
XRECORD
  5
3B93
102
{ACAD_REACTORS
330
3B92
102
}
330
3B92
100
AcDbXrecord
280
     1
290
     1
  0
XRECORD
  5
3B95
102
{ACAD_REACTORS
330
3B94
102
}
330
3B94
100
AcDbXrecord
280
     1
290
     1
  0
XRECORD
  5
3A36
102
{ACAD_REACTORS
330
385
102
}
330
385
100
AcDbXrecord
280
     1
340
1A
  0
XRECORD
  5
3A35
102
{ACAD_REACTORS
330
383
102
}
330
383
100
AcDbXrecord
280
     1
340
17
  0
XRECORD
  5
3BE8
102
{ACAD_REACTORS
330
3BE7
102
}
330
3BE7
100
AcDbXrecord
280
     1
 40
5756.0
  1
\A1;\U+2205115
  0
XRECORD
  5
3BEA
102
{ACAD_REACTORS
330
3BE9
102
}
330
3BE9
100
AcDbXrecord
280
     1
 40
5755.0
  1
\A1;\U+2205124
  0
XRECORD
  5
3BE0
102
{ACAD_REACTORS
330
3BDF
102
}
330
3BDF
100
AcDbXrecord
280
     1
102
SHADEPLOT
 70
     0
  0
XRECORD
  5
3BE2
102
{ACAD_REACTORS
330
3BE1
102
}
330
3BE1
100
AcDbXrecord
280
     1
102
SHADEPLOT
 70
     0
  0
LAYOUT
  5
342
102
{ACAD_XDICTIONARY
360
3BE3
102
}
102
{ACAD_REACTORS
330
340
102
}
330
340
100
AcDbPlotSettings
  1

  2
Acrobat Distiller
  4
A3
  6

 40
3.174999952316284
 41
3.174999952316284
 42
3.17498779296875
 43
3.17498779296875
 44
297.0318298339844
 45
420.1583251953125
 46
0.0
 47
0.0
 48
0.0
 49
0.0
140
0.0
141
0.0
142
1.0
143
2.0
 70
 11952
 72
     1
 73
     1
 74
     2
  7
print.ctb
 75
    17
147
0.5
148
0.0
149
0.0
100
AcDbLayout
  1
Model
 70
     1
 71
     0
 10
0.0
 20
0.0
 11
12.0
 21
9.0
 12
0.0
 22
0.0
 32
0.0
 14
0.0
 24
0.0
 34
0.0
 15
0.0
 25
0.0
 35
0.0
146
0.0
 13
0.0
 23
0.0
 33
0.0
 16
1.0
 26
0.0
 36
0.0
 17
0.0
 27
1.0
 37
0.0
 76
     0
330
1A
331
3A0D
  0
LAYOUT
  5
343
102
{ACAD_XDICTIONARY
360
3BE5
102
}
102
{ACAD_REACTORS
330
340
102
}
330
340
100
AcDbPlotSettings
  1

  2
Acrobat Distiller
  4

  6

 40
0.0
 41
0.0
 42
0.0
 43
0.0
 44
0.0
 45
0.0
 46
0.0
 47
0.0
 48
0.0
 49
0.0
140
0.0
141
0.0
142
1.0
143
1.0
 70
   688
 72
     0
 73
     0
 74
     5
  7
print.ctb
 75
    16
147
1.0
148
0.0
149
0.0
100
AcDbLayout
  1
ﾚｲｱｳﾄ1
 70
     1
 71
     1
 10
0.0
 20
0.0
 11
420.0
 21
297.0
 12
0.0
 22
0.0
 32
0.0
 14
0.0
 24
0.0
 34
0.0
 15
420.0
 25
297.0
 35
0.0
146
0.0
 13
0.0
 23
0.0
 33
0.0
 16
1.0
 26
0.0
 36
0.0
 17
0.0
 27
1.0
 37
0.0
 76
     0
330
17
331
64
  0
MATERIAL
  5
3AEC
102
{ACAD_XDICTIONARY
360
3AED
102
}
102
{ACAD_REACTORS
330
3AE3
102
}
330
3AE3
100
AcDbMaterial
  1
ByBlock
 72
     0
 43
0.0208333333333333
 43
0.0
 43
0.0
 43
0.0
 43
0.0
 43
0.0208333333333333
 43
0.0
 43
0.0
 43
0.0
 43
0.0
 43
1.0
 43
0.0
 43
0.0
 43
0.0
 43
0.0
 43
1.0
 77
     0
 47
0.0208333333333333
 47
0.0
 47
0.0
 47
0.0
 47
0.0
 47
0.0208333333333333
 47
0.0
 47
0.0
 47
0.0
 47
0.0
 47
1.0
 47
0.0
 47
0.0
 47
0.0
 47
0.0
 47
1.0
171
     0
 49
0.0208333333333333
 49
0.0
 49
0.0
 49
0.0
 49
0.0
 49
0.0208333333333333
 49
0.0
 49
0.0
 49
0.0
 49
0.0
 49
1.0
 49
0.0
 49
0.0
 49
0.0
 49
0.0
 49
1.0
175
     0
142
0.0208333333333333
142
0.0
142
0.0
142
0.0
142
0.0
142
0.0208333333333333
142
0.0
142
0.0
142
0.0
142
0.0
142
1.0
142
0.0
142
0.0
142
0.0
142
0.0
142
1.0
179
     0
144
0.0208333333333333
144
0.0
144
0.0
144
0.0
144
0.0
144
0.0208333333333333
144
0.0
144
0.0
144
0.0
144
0.0
144
1.0
144
0.0
144
0.0
144
0.0
144
0.0
144
1.0
147
0.0208333333333333
147
0.0
147
0.0
147
0.0
147
0.0
147
0.0208333333333333
147
0.0
147
0.0
147
0.0
147
0.0
147
1.0
147
0.0
147
0.0
147
0.0
147
0.0
147
1.0
  0
MATERIAL
  5
3AE4
102
{ACAD_XDICTIONARY
360
3AE5
102
}
102
{ACAD_REACTORS
330
3AE3
102
}
330
3AE3
100
AcDbMaterial
  1
ByLayer
 72
     0
 43
0.0208333333333333
 43
0.0
 43
0.0
 43
0.0
 43
0.0
 43
0.0208333333333333
 43
0.0
 43
0.0
 43
0.0
 43
0.0
 43
1.0
 43
0.0
 43
0.0
 43
0.0
 43
0.0
 43
1.0
 77
     0
 47
0.0208333333333333
 47
0.0
 47
0.0
 47
0.0
 47
0.0
 47
0.0208333333333333
 47
0.0
 47
0.0
 47
0.0
 47
0.0
 47
1.0
 47
0.0
 47
0.0
 47
0.0
 47
0.0
 47
1.0
171
     0
 49
0.0208333333333333
 49
0.0
 49
0.0
 49
0.0
 49
0.0
 49
0.0208333333333333
 49
0.0
 49
0.0
 49
0.0
 49
0.0
 49
1.0
 49
0.0
 49
0.0
 49
0.0
 49
0.0
 49
1.0
175
     0
142
0.0208333333333333
142
0.0
142
0.0
142
0.0
142
0.0
142
0.0208333333333333
142
0.0
142
0.0
142
0.0
142
0.0
142
1.0
142
0.0
142
0.0
142
0.0
142
0.0
142
1.0
179
     0
144
0.0208333333333333
144
0.0
144
0.0
144
0.0
144
0.0
144
0.0208333333333333
144
0.0
144
0.0
144
0.0
144
0.0
144
1.0
144
0.0
144
0.0
144
0.0
144
0.0
144
1.0
147
0.0208333333333333
147
0.0
147
0.0
147
0.0
147
0.0
147
0.0208333333333333
147
0.0
147
0.0
147
0.0
147
0.0
147
1.0
147
0.0
147
0.0
147
0.0
147
0.0
147
1.0
  0
MATERIAL
  5
3AF4
102
{ACAD_XDICTIONARY
360
3AF5
102
}
102
{ACAD_REACTORS
330
3AE3
102
}
330
3AE3
100
AcDbMaterial
  1
Global
 72
     0
 43
0.0208333333333333
 43
0.0
 43
0.0
 43
0.0
 43
0.0
 43
0.0208333333333333
 43
0.0
 43
0.0
 43
0.0
 43
0.0
 43
1.0
 43
0.0
 43
0.0
 43
0.0
 43
0.0
 43
1.0
 77
     0
 47
0.0208333333333333
 47
0.0
 47
0.0
 47
0.0
 47
0.0
 47
0.0208333333333333
 47
0.0
 47
0.0
 47
0.0
 47
0.0
 47
1.0
 47
0.0
 47
0.0
 47
0.0
 47
0.0
 47
1.0
171
     0
 49
0.0208333333333333
 49
0.0
 49
0.0
 49
0.0
 49
0.0
 49
0.0208333333333333
 49
0.0
 49
0.0
 49
0.0
 49
0.0
 49
1.0
 49
0.0
 49
0.0
 49
0.0
 49
0.0
 49
1.0
175
     0
142
0.0208333333333333
142
0.0
142
0.0
142
0.0
142
0.0
142
0.0208333333333333
142
0.0
142
0.0
142
0.0
142
0.0
142
1.0
142
0.0
142
0.0
142
0.0
142
0.0
142
1.0
179
     0
144
0.0208333333333333
144
0.0
144
0.0
144
0.0
144
0.0
144
0.0208333333333333
144
0.0
144
0.0
144
0.0
144
0.0
144
1.0
144
0.0
144
0.0
144
0.0
144
0.0
144
1.0
147
0.0208333333333333
147
0.0
147
0.0
147
0.0
147
0.0
147
0.0208333333333333
147
0.0
147
0.0
147
0.0
147
0.0
147
1.0
147
0.0
147
0.0
147
0.0
147
0.0
147
1.0
  0
MLEADERSTYLE
  5
3B2B
102
{ACAD_REACTORS
330
3B2A
102
}
330
3B2A
100
AcDbMLeaderStyle
170
     2
171
     1
172
     0
 90
        2
 40
0.0
 41
0.0
173
     1
 91
-1056964608
340
14
 92
       -2
290
     1
 42
2.0
291
     1
 43
0.36
  3
Standard
 44
4.0
300

342
10
174
     1
178
     6
175
     1
176
     0
 93
-1056964608
 45
4.0
292
     0
297
     0
 46
4.0
 94
-1056964608
 47
1.0
 49
1.0
140
1.0
293
     1
141
0.0
294
     1
177
     0
142
1.0
295
     0
296
     0
143
0.125
1001
ACAD_MLEADERVER
1070
     2
  0
MLINESTYLE
  5
13
102
{ACAD_REACTORS
330
E
102
}
330
E
100
AcDbMlineStyle
  2
STANDARD
 70
     0
  3

 62
     0
 51
90.0
 52
90.0
 71
     2
 49
0.5
 62
   256
  6
BYLAYER
 49
-0.5
 62
   256
  6
BYLAYER
  0
ACDBPLACEHOLDER
  5
33F
102
{ACAD_REACTORS
330
33E
102
}
330
33E
  0
SCALE
  5
3B19
102
{ACAD_REACTORS
330
3B18
102
}
330
3B18
100
AcDbScale
 70
     0
300
1:1
140
1.0
141
1.0
290
     1
  0
SCALE
  5
3B1A
102
{ACAD_REACTORS
330
3B18
102
}
330
3B18
100
AcDbScale
 70
     0
300
1:2
140
1.0
141
2.0
290
     0
  0
SCALE
  5
3B1B
102
{ACAD_REACTORS
330
3B18
102
}
330
3B18
100
AcDbScale
 70
     0
300
1:4
140
1.0
141
4.0
290
     0
  0
SCALE
  5
3B1C
102
{ACAD_REACTORS
330
3B18
102
}
330
3B18
100
AcDbScale
 70
     0
300
1:5
140
1.0
141
5.0
290
     0
  0
SCALE
  5
3B1D
102
{ACAD_REACTORS
330
3B18
102
}
330
3B18
100
AcDbScale
 70
     0
300
1:8
140
1.0
141
8.0
290
     0
  0
SCALE
  5
3B1E
102
{ACAD_REACTORS
330
3B18
102
}
330
3B18
100
AcDbScale
 70
     0
300
1:10
140
1.0
141
10.0
290
     0
  0
SCALE
  5
3B1F
102
{ACAD_REACTORS
330
3B18
102
}
330
3B18
100
AcDbScale
 70
     0
300
1:16
140
1.0
141
16.0
290
     0
  0
SCALE
  5
3B20
102
{ACAD_REACTORS
330
3B18
102
}
330
3B18
100
AcDbScale
 70
     0
300
1:20
140
1.0
141
20.0
290
     0
  0
SCALE
  5
3B21
102
{ACAD_REACTORS
330
3B18
102
}
330
3B18
100
AcDbScale
 70
     0
300
1:30
140
1.0
141
30.0
290
     0
  0
SCALE
  5
3B22
102
{ACAD_REACTORS
330
3B18
102
}
330
3B18
100
AcDbScale
 70
     0
300
1:40
140
1.0
141
40.0
290
     0
  0
SCALE
  5
3B23
102
{ACAD_REACTORS
330
3B18
102
}
330
3B18
100
AcDbScale
 70
     0
300
1:50
140
1.0
141
50.0
290
     0
  0
SCALE
  5
3B24
102
{ACAD_REACTORS
330
3B18
102
}
330
3B18
100
AcDbScale
 70
     0
300
1:100
140
1.0
141
100.0
290
     0
  0
SCALE
  5
3B25
102
{ACAD_REACTORS
330
3B18
102
}
330
3B18
100
AcDbScale
 70
     0
300
2:1
140
2.0
141
1.0
290
     0
  0
SCALE
  5
3B26
102
{ACAD_REACTORS
330
3B18
102
}
330
3B18
100
AcDbScale
 70
     0
300
4:1
140
4.0
141
1.0
290
     0
  0
SCALE
  5
3B27
102
{ACAD_REACTORS
330
3B18
102
}
330
3B18
100
AcDbScale
 70
     0
300
8:1
140
8.0
141
1.0
290
     0
  0
SCALE
  5
3B28
102
{ACAD_REACTORS
330
3B18
102
}
330
3B18
100
AcDbScale
 70
     0
300
10:1
140
10.0
141
1.0
290
     0
  0
SCALE
  5
3B29
102
{ACAD_REACTORS
330
3B18
102
}
330
3B18
100
AcDbScale
 70
     0
300
100:1
140
100.0
141
1.0
290
     0
  0
TABLESTYLE
  5
3B17
102
{ACAD_XDICTIONARY
360
3B31
102
}
102
{ACAD_REACTORS
330
3B16
102
}
330
3B16
100
AcDbTableStyle
  3
Standard
 70
     0
 71
     0
 40
1.5
 41
1.5
280
     0
281
     0
  7
STANDARD
140
4.5
170
     2
 62
     0
 63
     7
283
     0
274
    -2
284
     1
 64
     0
275
    -2
285
     1
 65
     0
276
    -2
286
     1
 66
     0
277
    -2
287
     1
 67
     0
278
    -2
288
     1
 68
     0
279
    -2
289
     1
 69
     0
  7
STANDARD
140
6.0
170
     5
 62
     0
 63
     7
283
     0
274
    -2
284
     1
 64
     0
275
    -2
285
     1
 65
     0
276
    -2
286
     1
 66
     0
277
    -2
287
     1
 67
     0
278
    -2
288
     1
 68
     0
279
    -2
289
     1
 69
     0
  7
STANDARD
140
4.5
170
     5
 62
     0
 63
     7
283
     0
274
    -2
284
     1
 64
     0
275
    -2
285
     1
 65
     0
276
    -2
286
     1
 66
     0
277
    -2
287
     1
 67
     0
278
    -2
288
     1
 68
     0
279
    -2
289
     1
 69
     0
  0
VISUALSTYLE
  5
3B02
102
{ACAD_XDICTIONARY
360
3BF8
102
}
102
{ACAD_REACTORS
330
3AFC
102
}
330
3AFC
100
AcDbVisualStyle
  2
2dWireframe
 70
     4
 71
     0
 72
     2
 73
     0
 90
        0
 40
-0.6
 41
-30.0
 62
     5
 63
     7
 74
     1
 91
        4
 64
     7
 65
   257
 75
     1
175
     1
 42
1.0
 92
        0
 66
   257
 43
1.0
 76
     1
 77
     6
 78
     2
 67
     7
 79
     5
170
     0
171
     0
290
     0
174
     0
 93
        1
 44
0.0
173
     0
291
     0
 45
0.0
1001
ACAD
1000
AcDbSavedByObjectVersion
1070
     0
  0
VISUALSTYLE
  5
3B01
102
{ACAD_XDICTIONARY
360
3BF6
102
}
102
{ACAD_REACTORS
330
3AFC
102
}
330
3AFC
100
AcDbVisualStyle
  2
Basic
 70
     7
 71
     1
 72
     0
 73
     1
 90
        0
 40
-0.6
 41
-30.0
 62
     5
 63
     7
 74
     0
 91
        4
 64
     7
 65
   257
 75
     1
175
     1
 42
1.0
 92
        8
 66
     7
 43
1.0
 76
     1
 77
     6
 78
     2
 67
     7
 79
     5
170
     0
171
     0
290
     0
174
     0
 93
        1
 44
0.0
173
     0
291
     1
 45
0.0
1001
ACAD
1000
AcDbSavedByObjectVersion
1070
     0
  0
VISUALSTYLE
  5
3B08
102
{ACAD_XDICTIONARY
360
3C04
102
}
102
{ACAD_REACTORS
330
3AFC
102
}
330
3AFC
100
AcDbVisualStyle
  2
Brighten
 70
    12
 71
     2
 72
     2
 73
     0
 90
        0
 40
-0.6
 41
-30.0
 62
     5
 63
     7
 74
     1
 91
        4
 64
     7
 65
   257
 75
     1
175
     1
 42
1.0
 92
        8
 66
     7
 43
1.0
 76
     1
 77
     6
 78
     2
 67
     7
 79
     5
170
     0
171
     0
290
     0
174
     0
 93
        1
 44
50.0
173
     0
291
     1
 45
0.0
1001
ACAD
1000
AcDbSavedByObjectVersion
1070
     0
  0
VISUALSTYLE
  5
3B0C
102
{ACAD_XDICTIONARY
360
3C0C
102
}
102
{ACAD_REACTORS
330
3AFC
102
}
330
3AFC
100
AcDbVisualStyle
  2
ColorChange
 70
    16
 71
     2
 72
     2
 73
     3
 90
        0
 40
-0.6
 41
-30.0
 62
     5
 63
     8
 74
     1
 91
        4
 64
     7
 65
   257
 75
     1
175
     1
 42
1.0
 92
        8
 66
     8
 43
1.0
 76
     1
 77
     6
 78
     2
 67
     7
 79
     5
170
     0
171
     0
290
     0
174
     0
 93
        1
 44
0.0
173
     0
291
     1
 45
0.0
1001
ACAD
1000
AcDbSavedByObjectVersion
1070
     0
  0
VISUALSTYLE
  5
3B05
102
{ACAD_XDICTIONARY
360
3BFE
102
}
102
{ACAD_REACTORS
330
3AFC
102
}
330
3AFC
100
AcDbVisualStyle
  2
Conceptual
 70
     9
 71
     3
 72
     2
 73
     0
 90
        0
 40
-0.6
 41
-30.0
 62
     5
 63
     7
 74
     2
 91
        2
 64
     7
 65
   257
 75
     1
175
     1
 42
179.0
 92
        8
 66
     7
 43
1.0
 76
     1
 77
     6
 78
     2
 67
     7
 79
     3
170
     0
171
     0
290
     0
174
     0
 93
        1
 44
0.0
173
     0
291
     0
 45
0.0
1001
ACAD
1000
AcDbSavedByObjectVersion
1070
     0
  0
VISUALSTYLE
  5
3B07
102
{ACAD_XDICTIONARY
360
3C02
102
}
102
{ACAD_REACTORS
330
3AFC
102
}
330
3AFC
100
AcDbVisualStyle
  2
Dim
 70
    11
 71
     2
 72
     2
 73
     0
 90
        0
 40
-0.6
 41
-30.0
 62
     5
 63
     7
 74
     1
 91
        4
 64
     7
 65
   257
 75
     1
175
     1
 42
1.0
 92
        8
 66
     7
 43
1.0
 76
     1
 77
     6
 78
     2
 67
     7
 79
     5
170
     0
171
     0
290
     0
174
     0
 93
        1
 44
-50.0
173
     0
291
     1
 45
0.0
1001
ACAD
1000
AcDbSavedByObjectVersion
1070
     0
  0
VISUALSTYLE
  5
3B14
102
{ACAD_XDICTIONARY
360
3C1C
102
}
102
{ACAD_REACTORS
330
3AFC
102
}
330
3AFC
100
AcDbVisualStyle
  2
EdgeColorOff
 70
    22
 71
     2
 72
     2
 73
     0
 90
        0
 40
-0.6
 41
-30.0
 62
     5
 63
     7
 74
     1
 91
        4
 64
     7
 65
   257
 75
     1
175
     1
 42
1.0
 92
        8
 66
     7
 43
1.0
 76
     1
 77
     6
 78
     2
 67
     7
 79
     5
170
     0
171
     0
290
     0
174
     0
 93
        1
 44
0.0
173
     0
291
     1
 45
0.0
1001
ACAD
1000
AcDbSavedByObjectVersion
1070
     0
  0
VISUALSTYLE
  5
3B0B
102
{ACAD_XDICTIONARY
360
3C0A
102
}
102
{ACAD_REACTORS
330
3AFC
102
}
330
3AFC
100
AcDbVisualStyle
  2
Facepattern
 70
    15
 71
     2
 72
     2
 73
     0
 90
        0
 40
-0.6
 41
-30.0
 62
     5
 63
     7
 74
     1
 91
        4
 64
     7
 65
   257
 75
     1
175
     1
 42
1.0
 92
        8
 66
     7
 43
1.0
 76
     1
 77
     6
 78
     2
 67
     7
 79
     5
170
     0
171
     0
290
     0
174
     0
 93
        1
 44
0.0
173
     0
291
     1
 45
0.0
1001
ACAD
1000
AcDbSavedByObjectVersion
1070
     0
  0
VISUALSTYLE
  5
3AFD
102
{ACAD_XDICTIONARY
360
3BEE
102
}
102
{ACAD_REACTORS
330
3AFC
102
}
330
3AFC
100
AcDbVisualStyle
  2
Flat
 70
     0
 71
     2
 72
     1
 73
     1
 90
        2
 40
-0.6
 41
30.0
 62
     5
 63
     7
 74
     0
 91
        0
 64
     7
 65
   257
 75
     1
175
     1
 42
1.0
 92
        8
 66
     7
 43
1.0
 76
     1
 77
     6
 78
     2
 67
     7
 79
     5
170
     0
171
     0
290
     0
174
     0
 93
       13
 44
0.0
173
     0
291
     1
 45
0.0
1001
ACAD
1000
AcDbSavedByObjectVersion
1070
     0
  0
VISUALSTYLE
  5
3AFE
102
{ACAD_XDICTIONARY
360
3BF0
102
}
102
{ACAD_REACTORS
330
3AFC
102
}
330
3AFC
100
AcDbVisualStyle
  2
FlatWithEdges
 70
     1
 71
     2
 72
     1
 73
     1
 90
        2
 40
-0.6
 41
30.0
 62
     5
 63
     7
 74
     1
 91
        0
 64
     7
 65
   257
 75
     1
175
     1
 42
1.0
 92
        0
 66
   257
 43
1.0
 76
     1
 77
     6
 78
     2
 67
     7
 79
     5
170
     0
171
     0
290
     0
174
     0
 93
       13
 44
0.0
173
     0
291
     1
 45
0.0
1001
ACAD
1000
AcDbSavedByObjectVersion
1070
     0
  0
VISUALSTYLE
  5
3AFF
102
{ACAD_XDICTIONARY
360
3BF2
102
}
102
{ACAD_REACTORS
330
3AFC
102
}
330
3AFC
100
AcDbVisualStyle
  2
Gouraud
 70
     2
 71
     2
 72
     2
 73
     1
 90
        2
 40
-0.6
 41
30.0
 62
     5
 63
     7
 74
     0
 91
        0
 64
     7
 65
   257
 75
     1
175
     1
 42
1.0
 92
        0
 66
     7
 43
1.0
 76
     1
 77
     6
 78
     2
 67
     7
 79
     5
170
     0
171
     0
290
     0
174
     0
 93
       13
 44
0.0
173
     0
291
     1
 45
0.0
1001
ACAD
1000
AcDbSavedByObjectVersion
1070
     0
  0
VISUALSTYLE
  5
3B00
102
{ACAD_XDICTIONARY
360
3BF4
102
}
102
{ACAD_REACTORS
330
3AFC
102
}
330
3AFC
100
AcDbVisualStyle
  2
GouraudWithEdges
 70
     3
 71
     2
 72
     2
 73
     1
 90
        2
 40
-0.6
 41
30.0
 62
     5
 63
     7
 74
     1
 91
        0
 64
     7
 65
   257
 75
     1
175
     1
 42
1.0
 92
        0
 66
   257
 43
1.0
 76
     1
 77
     6
 78
     2
 67
     7
 79
     5
170
     0
171
     0
290
     0
174
     0
 93
       13
 44
0.0
173
     0
291
     1
 45
0.0
1001
ACAD
1000
AcDbSavedByObjectVersion
1070
     0
  0
VISUALSTYLE
  5
3B04
102
{ACAD_XDICTIONARY
360
3BFC
102
}
102
{ACAD_REACTORS
330
3AFC
102
}
330
3AFC
100
AcDbVisualStyle
  2
Hidden
 70
     6
 71
     1
 72
     2
 73
     2
 90
        0
 40
-0.6
 41
-30.0
 62
     5
 63
     7
 74
     2
 91
        2
 64
     7
 65
   257
 75
     2
175
     1
 42
40.0
 92
        0
 66
   257
 43
1.0
 76
     1
 77
     6
 78
     2
 67
     7
 79
     3
170
     0
171
     0
290
     0
174
     0
 93
        1
 44
0.0
173
     0
291
     0
 45
0.0
1001
ACAD
1000
AcDbSavedByObjectVersion
1070
     0
  0
VISUALSTYLE
  5
3B12
102
{ACAD_XDICTIONARY
360
3C18
102
}
102
{ACAD_REACTORS
330
3AFC
102
}
330
3AFC
100
AcDbVisualStyle
  2
JitterOff
 70
    20
 71
     2
 72
     2
 73
     0
 90
        0
 40
-0.6
 41
-30.0
 62
     5
 63
     7
 74
     1
 91
        4
 64
     7
 65
   257
 75
     1
175
     1
 42
1.0
 92
       10
 66
     7
 43
1.0
 76
     1
 77
     6
 78
     2
 67
     7
 79
     5
170
     0
171
     0
290
     0
174
     0
 93
        1
 44
0.0
173
     0
291
     1
 45
0.0
1001
ACAD
1000
AcDbSavedByObjectVersion
1070
     0
  0
VISUALSTYLE
  5
3B0A
102
{ACAD_XDICTIONARY
360
3C08
102
}
102
{ACAD_REACTORS
330
3AFC
102
}
330
3AFC
100
AcDbVisualStyle
  2
Linepattern
 70
    14
 71
     2
 72
     2
 73
     0
 90
        0
 40
-0.6
 41
-30.0
 62
     5
 63
     7
 74
     1
 91
        4
 64
     7
 65
   257
 75
     7
175
     7
 42
1.0
 92
        8
 66
     7
 43
1.0
 76
     1
 77
     6
 78
     2
 67
     7
 79
     5
170
     0
171
     0
290
     0
174
     0
 93
        1
 44
0.0
173
     0
291
     1
 45
0.0
1001
ACAD
1000
AcDbSavedByObjectVersion
1070
     0
  0
VISUALSTYLE
  5
3B13
102
{ACAD_XDICTIONARY
360
3C1A
102
}
102
{ACAD_REACTORS
330
3AFC
102
}
330
3AFC
100
AcDbVisualStyle
  2
OverhangOff
 70
    21
 71
     2
 72
     2
 73
     0
 90
        0
 40
-0.6
 41
-30.0
 62
     5
 63
     7
 74
     1
 91
        4
 64
     7
 65
   257
 75
     1
175
     1
 42
1.0
 92
        9
 66
     7
 43
1.0
 76
     1
 77
     6
 78
     2
 67
     7
 79
     5
170
     0
171
     0
290
     0
174
     0
 93
        1
 44
0.0
173
     0
291
     1
 45
0.0
1001
ACAD
1000
AcDbSavedByObjectVersion
1070
     0
  0
VISUALSTYLE
  5
3B06
102
{ACAD_XDICTIONARY
360
3C00
102
}
102
{ACAD_REACTORS
330
3AFC
102
}
330
3AFC
100
AcDbVisualStyle
  2
Realistic
 70
     8
 71
     2
 72
     2
 73
     0
 90
        2
 40
-0.6
 41
30.0
 62
     5
 63
     7
 74
     0
 91
        0
 64
     7
 65
   257
 75
     1
175
     1
 42
1.0
 92
        8
 66
   257
 43
1.0
 76
     1
 77
     6
 78
     2
 67
     7
 79
     3
170
     0
171
     0
290
     0
174
     0
 93
       13
 44
0.0
173
     0
291
     0
 45
0.0
1001
ACAD
1000
AcDbSavedByObjectVersion
1070
     0
  0
VISUALSTYLE
  5
3B11
102
{ACAD_XDICTIONARY
360
3C16
102
}
102
{ACAD_REACTORS
330
3AFC
102
}
330
3AFC
100
AcDbVisualStyle
  2
Shaded
 70
    27
 71
     2
 72
     2
 73
     1
 90
        2
 40
-0.6
 41
30.0
 62
     5
 63
     7
 74
     0
 91
        4
 64
     7
 65
   257
 75
     1
175
     1
 42
1.0
 92
        8
 66
   257
 43
1.0
 76
     1
 77
     6
 78
     2
 67
     8
 79
     3
170
     0
171
     0
290
     0
174
     0
 93
        5
 44
0.0
173
     0
291
     0
 45
0.0
1001
ACAD
1000
AcDbSavedByObjectVersion
1070
     0
  0
VISUALSTYLE
  5
3B10
102
{ACAD_XDICTIONARY
360
3C14
102
}
102
{ACAD_REACTORS
330
3AFC
102
}
330
3AFC
100
AcDbVisualStyle
  2
Shaded with edges
 70
    26
 71
     2
 72
     2
 73
     1
 90
        2
 40
-0.6
 41
30.0
 62
     5
 63
     7
 74
     1
 91
       10
 64
     7
 65
   257
 75
     2
175
     1
 42
1.0
 92
        8
 66
   257
 43
1.0
 76
     1
 77
     6
 78
     2
 67
     7
 79
     3
170
     0
171
     0
290
     0
174
     0
 93
        5
 44
0.0
173
     0
291
     0
 45
0.0
1001
ACAD
1000
AcDbSavedByObjectVersion
1070
     0
  0
VISUALSTYLE
  5
3B0D
102
{ACAD_XDICTIONARY
360
3C0E
102
}
102
{ACAD_REACTORS
330
3AFC
102
}
330
3AFC
100
AcDbVisualStyle
  2
Shades of Gray
 70
    23
 71
     2
 72
     2
 73
     3
 90
        0
 40
-0.6
 41
-30.0
 62
     5
 63
     7
 74
     2
 91
        2
 64
     7
 65
     7
 75
     1
175
     1
 42
40.0
 92
        8
 66
     7
 43
1.0
 76
     1
 77
     6
 78
     2
 67
     7
 79
     3
170
     0
171
     0
290
     0
174
     0
 93
        1
 44
0.0
173
     0
291
     0
 45
0.0
1001
ACAD
1000
AcDbSavedByObjectVersion
1070
     0
  0
VISUALSTYLE
  5
3B0E
102
{ACAD_XDICTIONARY
360
3C10
102
}
102
{ACAD_REACTORS
330
3AFC
102
}
330
3AFC
100
AcDbVisualStyle
  2
Sketchy
 70
    24
 71
     1
 72
     2
 73
     2
 90
        0
 40
-0.6
 41
-30.0
 62
     5
 63
     7
 74
     2
 91
        2
 64
     7
 65
     7
 75
     1
175
     1
 42
40.0
 92
       11
 66
     7
 43
1.0
 76
     1
 77
     6
 78
     2
 67
     7
 79
     6
170
     0
171
     0
290
     0
174
     0
 93
        1
 44
0.0
173
     0
291
     0
 45
0.0
1001
ACAD
1000
AcDbSavedByObjectVersion
1070
     0
  0
VISUALSTYLE
  5
3B09
102
{ACAD_XDICTIONARY
360
3C06
102
}
102
{ACAD_REACTORS
330
3AFC
102
}
330
3AFC
100
AcDbVisualStyle
  2
Thicken
 70
    13
 71
     2
 72
     2
 73
     0
 90
        0
 40
-0.6
 41
-30.0
 62
     5
 63
     7
 74
     1
 91
        4
 64
     7
 65
   257
 75
     1
175
     1
 42
1.0
 92
       12
 66
     7
 43
1.0
 76
     1
 77
     6
 78
     2
 67
     7
 79
     5
170
     0
171
     0
290
     0
174
     0
 93
        1
 44
0.0
173
     0
291
     1
 45
0.0
1001
ACAD
1000
AcDbSavedByObjectVersion
1070
     0
  0
VISUALSTYLE
  5
3B03
102
{ACAD_XDICTIONARY
360
3BFA
102
}
102
{ACAD_REACTORS
330
3AFC
102
}
330
3AFC
100
AcDbVisualStyle
  2
Wireframe
 70
     5
 71
     0
 72
     2
 73
     0
 90
        0
 40
-0.6
 41
-30.0
 62
     5
 63
     7
 74
     1
 91
        4
 64
     7
 65
   257
 75
     1
175
     1
 42
1.0
 92
        0
 66
   257
 43
1.0
 76
     1
 77
     6
 78
     2
 67
     7
 79
     3
170
     0
171
     0
290
     0
174
     0
 93
        1
 44
0.0
173
     0
291
     0
 45
0.0
1001
ACAD
1000
AcDbSavedByObjectVersion
1070
     0
  0
VISUALSTYLE
  5
3B0F
102
{ACAD_XDICTIONARY
360
3C12
102
}
102
{ACAD_REACTORS
330
3AFC
102
}
330
3AFC
100
AcDbVisualStyle
  2
X-Ray
 70
    25
 71
     2
 72
     2
 73
     1
 90
        1
 40
0.5
 41
-30.0
 62
     5
 63
     7
 74
     1
 91
        0
 64
     7
 65
   257
 75
     1
175
     1
 42
1.0
 92
        8
 66
     7
 43
1.0
 76
     1
 77
     6
 78
     2
 67
     7
 79
     3
170
     0
171
     0
290
     0
174
     0
 93
       13
 44
0.0
173
     0
291
     0
 45
0.0
1001
ACAD
1000
AcDbSavedByObjectVersion
1070
     0
  0
DICTIONARYVAR
  5
3B7B
102
{ACAD_REACTORS
330
3B78
102
}
330
3B78
100
DictionaryVariables
280
     0
  1
1:1
  0
DICTIONARYVAR
  5
3B7A
102
{ACAD_REACTORS
330
3B78
102
}
330
3B78
100
DictionaryVariables
280
     0
  1
STANDARD
  0
DICTIONARYVAR
  5
3B79
102
{ACAD_REACTORS
330
3B78
102
}
330
3B78
100
DictionaryVariables
280
     0
  1
STANDARD
  0
DICTIONARYVAR
  5
3B7E
102
{ACAD_REACTORS
330
3B78
102
}
330
3B78
100
DictionaryVariables
280
     0
  1
1
  0
DICTIONARYVAR
  5
3B7D
102
{ACAD_REACTORS
330
3B78
102
}
330
3B78
100
DictionaryVariables
280
     0
  1
0
  0
DICTIONARYVAR
  5
3B7C
102
{ACAD_REACTORS
330
3B78
102
}
330
3B78
100
DictionaryVariables
280
     0
  1
127
  0
DICTIONARYVAR
  5
3BDB
102
{ACAD_REACTORS
330
3B78
102
}
330
3B78
100
DictionaryVariables
280
     0
  1
2
  0
DICTIONARY
  5
3BE3
330
342
100
AcDbDictionary
280
     1
281
     1
  3
ACAD_XREC_ROUNDTRIP
360
3BE4
  0
DICTIONARY
  5
3BE5
330
343
100
AcDbDictionary
280
     1
281
     1
  3
ACAD_XREC_ROUNDTRIP
360
3BE6
  0
DICTIONARY
  5
3AED
330
3AEC
100
AcDbDictionary
280
     1
281
     1
  3
ACAD_XREC_ROUNDTRIP
360
3BEC
  3
BUMPTILE
360
3AEF
  3
DIFFUSETILE
360
3AEE
  3
OPACITYTILE
360
3AF2
  3
REFLECTIONTILE
360
3AF1
  3
REFRACTIONTILE
360
3AF3
  3
SPECULARTILE
360
3AF0
  0
DICTIONARY
  5
3AE5
330
3AE4
100
AcDbDictionary
280
     1
281
     1
  3
ACAD_XREC_ROUNDTRIP
360
3BEB
  3
BUMPTILE
360
3AE7
  3
DIFFUSETILE
360
3AE6
  3
OPACITYTILE
360
3AEA
  3
REFLECTIONTILE
360
3AE9
  3
REFRACTIONTILE
360
3AEB
  3
SPECULARTILE
360
3AE8
  0
DICTIONARY
  5
3AF5
330
3AF4
100
AcDbDictionary
280
     1
281
     1
  3
ACAD_XREC_ROUNDTRIP
360
3BED
  3
BUMPTILE
360
3AF7
  3
DIFFUSETILE
360
3AF6
  3
OPACITYTILE
360
3AFA
  3
REFLECTIONTILE
360
3AF9
  3
REFRACTIONTILE
360
3AFB
  3
SPECULARTILE
360
3AF8
  0
DICTIONARY
  5
3B31
330
3B17
100
AcDbDictionary
280
     1
281
     1
  3
ACAD_ROUNDTRIP_2008_TABLESTYLE_CELLSTYLEMAP
360
3BDC
  3
ACAD_XREC_ROUNDTRIP
360
3C1E
  0
DICTIONARY
  5
3BF8
330
3B02
100
AcDbDictionary
280
     1
281
     1
  3
ACAD_XREC_ROUNDTRIP
360
3BF9
  0
DICTIONARY
  5
3BF6
330
3B01
100
AcDbDictionary
280
     1
281
     1
  3
ACAD_XREC_ROUNDTRIP
360
3BF7
  0
DICTIONARY
  5
3C04
330
3B08
100
AcDbDictionary
280
     1
281
     1
  3
ACAD_XREC_ROUNDTRIP
360
3C05
  0
DICTIONARY
  5
3C0C
330
3B0C
100
AcDbDictionary
280
     1
281
     1
  3
ACAD_XREC_ROUNDTRIP
360
3C0D
  0
DICTIONARY
  5
3BFE
330
3B05
100
AcDbDictionary
280
     1
281
     1
  3
ACAD_XREC_ROUNDTRIP
360
3BFF
  0
DICTIONARY
  5
3C02
330
3B07
100
AcDbDictionary
280
     1
281
     1
  3
ACAD_XREC_ROUNDTRIP
360
3C03
  0
DICTIONARY
  5
3C1C
330
3B14
100
AcDbDictionary
280
     1
281
     1
  3
ACAD_XREC_ROUNDTRIP
360
3C1D
  0
DICTIONARY
  5
3C0A
330
3B0B
100
AcDbDictionary
280
     1
281
     1
  3
ACAD_XREC_ROUNDTRIP
360
3C0B
  0
DICTIONARY
  5
3BEE
330
3AFD
100
AcDbDictionary
280
     1
281
     1
  3
ACAD_XREC_ROUNDTRIP
360
3BEF
  0
DICTIONARY
  5
3BF0
330
3AFE
100
AcDbDictionary
280
     1
281
     1
  3
ACAD_XREC_ROUNDTRIP
360
3BF1
  0
DICTIONARY
  5
3BF2
330
3AFF
100
AcDbDictionary
280
     1
281
     1
  3
ACAD_XREC_ROUNDTRIP
360
3BF3
  0
DICTIONARY
  5
3BF4
330
3B00
100
AcDbDictionary
280
     1
281
     1
  3
ACAD_XREC_ROUNDTRIP
360
3BF5
  0
DICTIONARY
  5
3BFC
330
3B04
100
AcDbDictionary
280
     1
281
     1
  3
ACAD_XREC_ROUNDTRIP
360
3BFD
  0
DICTIONARY
  5
3C18
330
3B12
100
AcDbDictionary
280
     1
281
     1
  3
ACAD_XREC_ROUNDTRIP
360
3C19
  0
DICTIONARY
  5
3C08
330
3B0A
100
AcDbDictionary
280
     1
281
     1
  3
ACAD_XREC_ROUNDTRIP
360
3C09
  0
DICTIONARY
  5
3C1A
330
3B13
100
AcDbDictionary
280
     1
281
     1
  3
ACAD_XREC_ROUNDTRIP
360
3C1B
  0
DICTIONARY
  5
3C00
330
3B06
100
AcDbDictionary
280
     1
281
     1
  3
ACAD_XREC_ROUNDTRIP
360
3C01
  0
DICTIONARY
  5
3C16
330
3B11
100
AcDbDictionary
280
     1
281
     1
  3
ACAD_XREC_ROUNDTRIP
360
3C17
  0
DICTIONARY
  5
3C14
330
3B10
100
AcDbDictionary
280
     1
281
     1
  3
ACAD_XREC_ROUNDTRIP
360
3C15
  0
DICTIONARY
  5
3C0E
330
3B0D
100
AcDbDictionary
280
     1
281
     1
  3
ACAD_XREC_ROUNDTRIP
360
3C0F
  0
DICTIONARY
  5
3C10
330
3B0E
100
AcDbDictionary
280
     1
281
     1
  3
ACAD_XREC_ROUNDTRIP
360
3C11
  0
DICTIONARY
  5
3C06
330
3B09
100
AcDbDictionary
280
     1
281
     1
  3
ACAD_XREC_ROUNDTRIP
360
3C07
  0
DICTIONARY
  5
3BFA
330
3B03
100
AcDbDictionary
280
     1
281
     1
  3
ACAD_XREC_ROUNDTRIP
360
3BFB
  0
DICTIONARY
  5
3C12
330
3B0F
100
AcDbDictionary
280
     1
281
     1
  3
ACAD_XREC_ROUNDTRIP
360
3C13
  0
XRECORD
  5
3BE4
102
{ACAD_REACTORS
330
3BE3
102
}
330
3BE3
100
AcDbXrecord
280
     1
102
SHADEPLOT
 70
     0
102
SHADEPLOTRESLEVEL
 70
     2
102
SHADEPLOTCUSTOMDPI
 70
   300
  0
XRECORD
  5
3BE6
102
{ACAD_REACTORS
330
3BE5
102
}
330
3BE5
100
AcDbXrecord
280
     1
102
SHADEPLOT
 70
     0
102
SHADEPLOTRESLEVEL
 70
     2
102
SHADEPLOTCUSTOMDPI
 70
   300
  0
XRECORD
  5
3BEC
102
{ACAD_REACTORS
330
3AED
102
}
330
3AED
100
AcDbXrecord
280
     1
102
MATERIAL
148
0.0
149
0.0
149
0.0
 93
        0
 94
      127
282
     0
 72
     0
 77
     0
171
     0
175
     0
179
     0
273
     0
  0
XRECORD
  5
3AEF
102
{ACAD_REACTORS
330
3AED
102
}
330
3AED
100
AcDbXrecord
280
     1
270
     1
271
     1
  0
XRECORD
  5
3AEE
102
{ACAD_REACTORS
330
3AED
102
}
330
3AED
100
AcDbXrecord
280
     1
270
     1
271
     1
  0
XRECORD
  5
3AF2
102
{ACAD_REACTORS
330
3AED
102
}
330
3AED
100
AcDbXrecord
280
     1
270
     1
271
     1
  0
XRECORD
  5
3AF1
102
{ACAD_REACTORS
330
3AED
102
}
330
3AED
100
AcDbXrecord
280
     1
270
     1
271
     1
  0
XRECORD
  5
3AF3
102
{ACAD_REACTORS
330
3AED
102
}
330
3AED
100
AcDbXrecord
280
     1
270
     1
271
     1
  0
XRECORD
  5
3AF0
102
{ACAD_REACTORS
330
3AED
102
}
330
3AED
100
AcDbXrecord
280
     1
270
     1
271
     1
  0
XRECORD
  5
3BEB
102
{ACAD_REACTORS
330
3AE5
102
}
330
3AE5
100
AcDbXrecord
280
     1
102
MATERIAL
148
0.0
149
0.0
149
0.0
 93
        0
 94
      127
282
     0
 72
     0
 77
     0
171
     0
175
     0
179
     0
273
     0
  0
XRECORD
  5
3AE7
102
{ACAD_REACTORS
330
3AE5
102
}
330
3AE5
100
AcDbXrecord
280
     1
270
     1
271
     1
  0
XRECORD
  5
3AE6
102
{ACAD_REACTORS
330
3AE5
102
}
330
3AE5
100
AcDbXrecord
280
     1
270
     1
271
     1
  0
XRECORD
  5
3AEA
102
{ACAD_REACTORS
330
3AE5
102
}
330
3AE5
100
AcDbXrecord
280
     1
270
     1
271
     1
  0
XRECORD
  5
3AE9
102
{ACAD_REACTORS
330
3AE5
102
}
330
3AE5
100
AcDbXrecord
280
     1
270
     1
271
     1
  0
XRECORD
  5
3AEB
102
{ACAD_REACTORS
330
3AE5
102
}
330
3AE5
100
AcDbXrecord
280
     1
270
     1
271
     1
  0
XRECORD
  5
3AE8
102
{ACAD_REACTORS
330
3AE5
102
}
330
3AE5
100
AcDbXrecord
280
     1
270
     1
271
     1
  0
XRECORD
  5
3BED
102
{ACAD_REACTORS
330
3AF5
102
}
330
3AF5
100
AcDbXrecord
280
     1
102
MATERIAL
148
0.0
149
0.0
149
0.0
 93
        0
 94
      127
282
     0
 72
     0
 77
     0
171
     0
175
     0
179
     0
273
     0
  0
XRECORD
  5
3AF7
102
{ACAD_REACTORS
330
3AF5
102
}
330
3AF5
100
AcDbXrecord
280
     1
270
     1
271
     1
  0
XRECORD
  5
3AF6
102
{ACAD_REACTORS
330
3AF5
102
}
330
3AF5
100
AcDbXrecord
280
     1
270
     1
271
     1
  0
XRECORD
  5
3AFA
102
{ACAD_REACTORS
330
3AF5
102
}
330
3AF5
100
AcDbXrecord
280
     1
270
     1
271
     1
  0
XRECORD
  5
3AF9
102
{ACAD_REACTORS
330
3AF5
102
}
330
3AF5
100
AcDbXrecord
280
     1
270
     1
271
     1
  0
XRECORD
  5
3AFB
102
{ACAD_REACTORS
330
3AF5
102
}
330
3AF5
100
AcDbXrecord
280
     1
270
     1
271
     1
  0
XRECORD
  5
3AF8
102
{ACAD_REACTORS
330
3AF5
102
}
330
3AF5
100
AcDbXrecord
280
     1
270
     1
271
     1
  0
CELLSTYLEMAP
  5
3BDC
102
{ACAD_REACTORS
330
3B31
102
}
330
3B31
100
AcDbCellStyleMap
 90
        3
300
CELLSTYLE
  1
TABLEFORMAT_BEGIN
 90
        5
170
     1
 91
        0
 92
    32768
 62
   257
 93
        1
300
CONTENTFORMAT
  1
CONTENTFORMAT_BEGIN
 90
        0
 91
        0
 92
      512
 93
        0
300

 40
0.0
140
1.0
 94
        5
 62
     0
340
10
144
6.0
309
CONTENTFORMAT_END
171
     1
301
MARGIN
  1
CELLMARGIN_BEGIN
 40
1.5
 40
1.5
 40
1.5
 40
1.5
 40
4.5
 40
4.5
309
CELLMARGIN_END
 94
        6
 95
        1
302
GRIDFORMAT
  1
GRIDFORMAT_BEGIN
 90
        0
 91
        1
 62
     0
 92
       -2
340
0
 93
        0
 40
1.125
309
GRIDFORMAT_END
 95
        2
302
GRIDFORMAT
  1
GRIDFORMAT_BEGIN
 90
        0
 91
        1
 62
     0
 92
       -2
340
0
 93
        0
 40
1.125
309
GRIDFORMAT_END
 95
        4
302
GRIDFORMAT
  1
GRIDFORMAT_BEGIN
 90
        0
 91
        1
 62
     0
 92
       -2
340
0
 93
        0
 40
1.125
309
GRIDFORMAT_END
 95
        8
302
GRIDFORMAT
  1
GRIDFORMAT_BEGIN
 90
        0
 91
        1
 62
     0
 92
       -2
340
0
 93
        0
 40
1.125
309
GRIDFORMAT_END
 95
       16
302
GRIDFORMAT
  1
GRIDFORMAT_BEGIN
 90
        0
 91
        1
 62
     0
 92
       -2
340
0
 93
        0
 40
1.125
309
GRIDFORMAT_END
 95
       32
302
GRIDFORMAT
  1
GRIDFORMAT_BEGIN
 90
        0
 91
        1
 62
     0
 92
       -2
340
0
 93
        0
 40
1.125
309
GRIDFORMAT_END
309
TABLEFORMAT_END
  1
CELLSTYLE_BEGIN
 90
        1
 91
        1
300
_TITLE
309
CELLSTYLE_END
300
CELLSTYLE
  1
TABLEFORMAT_BEGIN
 90
        5
170
     1
 91
        0
 92
        0
 62
   257
 93
        1
300
CONTENTFORMAT
  1
CONTENTFORMAT_BEGIN
 90
        0
 91
        0
 92
      512
 93
        0
300

 40
0.0
140
1.0
 94
        5
 62
     0
340
10
144
4.5
309
CONTENTFORMAT_END
171
     1
301
MARGIN
  1
CELLMARGIN_BEGIN
 40
1.5
 40
1.5
 40
1.5
 40
1.5
 40
4.5
 40
4.5
309
CELLMARGIN_END
 94
        6
 95
        1
302
GRIDFORMAT
  1
GRIDFORMAT_BEGIN
 90
        0
 91
        1
 62
     0
 92
       -2
340
0
 93
        0
 40
1.125
309
GRIDFORMAT_END
 95
        2
302
GRIDFORMAT
  1
GRIDFORMAT_BEGIN
 90
        0
 91
        1
 62
     0
 92
       -2
340
0
 93
        0
 40
1.125
309
GRIDFORMAT_END
 95
        4
302
GRIDFORMAT
  1
GRIDFORMAT_BEGIN
 90
        0
 91
        1
 62
     0
 92
       -2
340
0
 93
        0
 40
1.125
309
GRIDFORMAT_END
 95
        8
302
GRIDFORMAT
  1
GRIDFORMAT_BEGIN
 90
        0
 91
        1
 62
     0
 92
       -2
340
0
 93
        0
 40
1.125
309
GRIDFORMAT_END
 95
       16
302
GRIDFORMAT
  1
GRIDFORMAT_BEGIN
 90
        0
 91
        1
 62
     0
 92
       -2
340
0
 93
        0
 40
1.125
309
GRIDFORMAT_END
 95
       32
302
GRIDFORMAT
  1
GRIDFORMAT_BEGIN
 90
        0
 91
        1
 62
     0
 92
       -2
340
0
 93
        0
 40
1.125
309
GRIDFORMAT_END
309
TABLEFORMAT_END
  1
CELLSTYLE_BEGIN
 90
        2
 91
        1
300
_HEADER
309
CELLSTYLE_END
300
CELLSTYLE
  1
TABLEFORMAT_BEGIN
 90
        5
170
     1
 91
        0
 92
        0
 62
   257
 93
        1
300
CONTENTFORMAT
  1
CONTENTFORMAT_BEGIN
 90
        0
 91
        0
 92
      512
 93
        0
300

 40
0.0
140
1.0
 94
        2
 62
     0
340
10
144
4.5
309
CONTENTFORMAT_END
171
     1
301
MARGIN
  1
CELLMARGIN_BEGIN
 40
1.5
 40
1.5
 40
1.5
 40
1.5
 40
4.5
 40
4.5
309
CELLMARGIN_END
 94
        6
 95
        1
302
GRIDFORMAT
  1
GRIDFORMAT_BEGIN
 90
        0
 91
        1
 62
     0
 92
       -2
340
0
 93
        0
 40
1.125
309
GRIDFORMAT_END
 95
        2
302
GRIDFORMAT
  1
GRIDFORMAT_BEGIN
 90
        0
 91
        1
 62
     0
 92
       -2
340
0
 93
        0
 40
1.125
309
GRIDFORMAT_END
 95
        4
302
GRIDFORMAT
  1
GRIDFORMAT_BEGIN
 90
        0
 91
        1
 62
     0
 92
       -2
340
0
 93
        0
 40
1.125
309
GRIDFORMAT_END
 95
        8
302
GRIDFORMAT
  1
GRIDFORMAT_BEGIN
 90
        0
 91
        1
 62
     0
 92
       -2
340
0
 93
        0
 40
1.125
309
GRIDFORMAT_END
 95
       16
302
GRIDFORMAT
  1
GRIDFORMAT_BEGIN
 90
        0
 91
        1
 62
     0
 92
       -2
340
0
 93
        0
 40
1.125
309
GRIDFORMAT_END
 95
       32
302
GRIDFORMAT
  1
GRIDFORMAT_BEGIN
 90
        0
 91
        1
 62
     0
 92
       -2
340
0
 93
        0
 40
1.125
309
GRIDFORMAT_END
309
TABLEFORMAT_END
  1
CELLSTYLE_BEGIN
 90
        3
 91
        2
300
_DATA
309
CELLSTYLE_END
  0
XRECORD
  5
3C1E
102
{ACAD_REACTORS
330
3B31
102
}
330
3B31
100
AcDbXrecord
280
     1
102
ACAD_ROUNDTRIP_PRE2007_TABLESTYLE
 90
      512
 91
        0
  1

 92
      512
 93
        0
  2

 94
      512
 95
        0
  3

  0
XRECORD
  5
3BF9
102
{ACAD_REACTORS
330
3BF8
102
}
330
3BF8
100
AcDbXrecord
280
     1
102
RTVSPropertyOp0
 70
     1
102
RTVSPropertyOp1
 70
     1
102
RTVSPropertyOp2
 70
     1
102
RTVSPropertyOp3
 70
     1
102
RTVSPropertyOp4
 70
     1
102
RTVSPropertyOp5
 70
     1
102
RTVSPropertyOp6
 70
     1
102
RTVSPropertyOp7
 70
     1
102
RTVSPropertyOp8
 70
     1
102
RTVSPropertyOp9
 70
     1
102
RTVSPropertyOp10
 70
     1
102
RTVSPropertyOp11
 70
     1
102
RTVSPropertyOp12
 70
     1
102
RTVSPropertyOp13
 70
     1
102
RTVSPropertyOp14
 70
     1
102
RTVSPropertyOp15
 70
     1
102
RTVSPropertyOp16
 70
     1
102
RTVSPropertyOp17
 70
     1
102
RTVSPropertyOp18
 70
     1
102
RTVSPropertyOp19
 70
     1
102
RTVSPropertyOp20
 70
     1
102
RTVSPropertyOp21
 70
     1
102
RTVSPropertyOp22
 70
     1
102
RTVSPropertyOp23
 70
     1
102
RTVSPropertyOp24
 70
     1
102
RTVSPropertyOp25
 70
     1
102
RTVSPropertyOp26
 70
     1
102
RTVSPropertyOp27
 70
     1
102
RTVSPropertyOp28
 70
     1
102
RTVSPropertyOp29
 70
     1
102
RTVSPropertyOp30
 70
     1
102
RTVSPropertyOp31
 70
     1
102
RTVSPropertyOp32
 70
     1
  0
XRECORD
  5
3BF7
102
{ACAD_REACTORS
330
3BF6
102
}
330
3BF6
100
AcDbXrecord
280
     1
102
RTVSPropertyOp0
 70
     1
102
RTVSPropertyOp1
 70
     1
102
RTVSPropertyOp2
 70
     1
102
RTVSPropertyOp3
 70
     1
102
RTVSPropertyOp4
 70
     1
102
RTVSPropertyOp5
 70
     1
102
RTVSPropertyOp6
 70
     1
102
RTVSPropertyOp7
 70
     1
102
RTVSPropertyOp8
 70
     1
102
RTVSPropertyOp9
 70
     1
102
RTVSPropertyOp10
 70
     1
102
RTVSPropertyOp11
 70
     1
102
RTVSPropertyOp12
 70
     1
102
RTVSPropertyOp13
 70
     1
102
RTVSPropertyOp14
 70
     1
102
RTVSPropertyOp15
 70
     1
102
RTVSPropertyOp16
 70
     1
102
RTVSPropertyOp17
 70
     1
102
RTVSPropertyOp18
 70
     1
102
RTVSPropertyOp19
 70
     1
102
RTVSPropertyOp20
 70
     1
102
RTVSPropertyOp21
 70
     1
102
RTVSPropertyOp22
 70
     1
102
RTVSPropertyOp23
 70
     1
102
RTVSPropertyOp24
 70
     1
102
RTVSPropertyOp25
 70
     1
102
RTVSPropertyOp26
 70
     1
102
RTVSPropertyOp27
 70
     1
102
RTVSPropertyOp28
 70
     1
102
RTVSPropertyOp29
 70
     1
102
RTVSPropertyOp30
 70
     1
102
RTVSPropertyOp31
 70
     1
102
RTVSPropertyOp32
 70
     1
  0
XRECORD
  5
3C05
102
{ACAD_REACTORS
330
3C04
102
}
330
3C04
100
AcDbXrecord
280
     1
102
RTVSPropertyOp0
 70
     1
102
RTVSPropertyOp1
 70
     1
102
RTVSPropertyOp2
 70
     1
102
RTVSPropertyOp3
 70
     1
102
RTVSPropertyOp4
 70
     1
102
RTVSPropertyOp5
 70
     1
102
RTVSPropertyOp6
 70
     1
102
RTVSPropertyOp7
 70
     1
102
RTVSPropertyOp8
 70
     1
102
RTVSPropertyOp9
 70
     1
102
RTVSPropertyOp10
 70
     1
102
RTVSPropertyOp11
 70
     1
102
RTVSPropertyOp12
 70
     1
102
RTVSPropertyOp13
 70
     1
102
RTVSPropertyOp14
 70
     1
102
RTVSPropertyOp15
 70
     1
102
RTVSPropertyOp16
 70
     1
102
RTVSPropertyOp17
 70
     1
102
RTVSPropertyOp18
 70
     1
102
RTVSPropertyOp19
 70
     1
102
RTVSPropertyOp20
 70
     1
102
RTVSPropertyOp21
 70
     1
102
RTVSPropertyOp22
 70
     1
102
RTVSPropertyOp23
 70
     1
102
RTVSPropertyOp24
 70
     1
102
RTVSPropertyOp25
 70
     1
102
RTVSPropertyOp26
 70
     1
102
RTVSPropertyOp27
 70
     1
102
RTVSPropertyOp28
 70
     1
102
RTVSPropertyOp29
 70
     1
102
RTVSPropertyOp30
 70
     1
102
RTVSPropertyOp31
 70
     1
102
RTVSPropertyOp32
 70
     1
  0
XRECORD
  5
3C0D
102
{ACAD_REACTORS
330
3C0C
102
}
330
3C0C
100
AcDbXrecord
280
     1
102
RTVSPropertyOp0
 70
     1
102
RTVSPropertyOp1
 70
     1
102
RTVSPropertyOp2
 70
     1
102
RTVSPropertyOp3
 70
     1
102
RTVSPropertyOp4
 70
     1
102
RTVSPropertyOp5
 70
     1
102
RTVSPropertyOp6
 70
     1
102
RTVSPropertyOp7
 70
     1
102
RTVSPropertyOp8
 70
     1
102
RTVSPropertyOp9
 70
     1
102
RTVSPropertyOp10
 70
     1
102
RTVSPropertyOp11
 70
     1
102
RTVSPropertyOp12
 70
     1
102
RTVSPropertyOp13
 70
     1
102
RTVSPropertyOp14
 70
     1
102
RTVSPropertyOp15
 70
     1
102
RTVSPropertyOp16
 70
     1
102
RTVSPropertyOp17
 70
     1
102
RTVSPropertyOp18
 70
     1
102
RTVSPropertyOp19
 70
     1
102
RTVSPropertyOp20
 70
     1
102
RTVSPropertyOp21
 70
     1
102
RTVSPropertyOp22
 70
     1
102
RTVSPropertyOp23
 70
     1
102
RTVSPropertyOp24
 70
     1
102
RTVSPropertyOp25
 70
     1
102
RTVSPropertyOp26
 70
     1
102
RTVSPropertyOp27
 70
     1
102
RTVSPropertyOp28
 70
     1
102
RTVSPropertyOp29
 70
     1
102
RTVSPropertyOp30
 70
     1
102
RTVSPropertyOp31
 70
     1
102
RTVSPropertyOp32
 70
     1
  0
XRECORD
  5
3BFF
102
{ACAD_REACTORS
330
3BFE
102
}
330
3BFE
100
AcDbXrecord
280
     1
102
RTVSPropertyOp0
 70
     1
102
RTVSPropertyOp1
 70
     1
102
RTVSPropertyOp2
 70
     1
102
RTVSPropertyOp3
 70
     1
102
RTVSPropertyOp4
 70
     1
102
RTVSPropertyOp5
 70
     1
102
RTVSPropertyOp6
 70
     1
102
RTVSPropertyOp7
 70
     1
102
RTVSPropertyOp8
 70
     1
102
RTVSPropertyOp9
 70
     1
102
RTVSPropertyOp10
 70
     1
102
RTVSPropertyOp11
 70
     1
102
RTVSPropertyOp12
 70
     1
102
RTVSPropertyOp13
 70
     1
102
RTVSPropertyOp14
 70
     1
102
RTVSPropertyOp15
 70
     1
102
RTVSPropertyOp16
 70
     1
102
RTVSPropertyOp17
 70
     1
102
RTVSPropertyOp18
 70
     1
102
RTVSPropertyOp19
 70
     1
102
RTVSPropertyOp20
 70
     1
102
RTVSPropertyOp21
 70
     1
102
RTVSPropertyOp22
 70
     1
102
RTVSPropertyOp23
 70
     1
102
RTVSPropertyOp24
 70
     1
102
RTVSPropertyOp25
 70
     1
102
RTVSPropertyOp26
 70
     1
102
RTVSPropertyOp27
 70
     1
102
RTVSPropertyOp28
 70
     1
102
RTVSPropertyOp29
 70
     1
102
RTVSPropertyOp30
 70
     1
102
RTVSPropertyOp31
 70
     1
102
RTVSPropertyOp32
 70
     1
  0
XRECORD
  5
3C03
102
{ACAD_REACTORS
330
3C02
102
}
330
3C02
100
AcDbXrecord
280
     1
102
RTVSPropertyOp0
 70
     1
102
RTVSPropertyOp1
 70
     1
102
RTVSPropertyOp2
 70
     1
102
RTVSPropertyOp3
 70
     1
102
RTVSPropertyOp4
 70
     1
102
RTVSPropertyOp5
 70
     1
102
RTVSPropertyOp6
 70
     1
102
RTVSPropertyOp7
 70
     1
102
RTVSPropertyOp8
 70
     1
102
RTVSPropertyOp9
 70
     1
102
RTVSPropertyOp10
 70
     1
102
RTVSPropertyOp11
 70
     1
102
RTVSPropertyOp12
 70
     1
102
RTVSPropertyOp13
 70
     1
102
RTVSPropertyOp14
 70
     1
102
RTVSPropertyOp15
 70
     1
102
RTVSPropertyOp16
 70
     1
102
RTVSPropertyOp17
 70
     1
102
RTVSPropertyOp18
 70
     1
102
RTVSPropertyOp19
 70
     1
102
RTVSPropertyOp20
 70
     1
102
RTVSPropertyOp21
 70
     1
102
RTVSPropertyOp22
 70
     1
102
RTVSPropertyOp23
 70
     1
102
RTVSPropertyOp24
 70
     1
102
RTVSPropertyOp25
 70
     1
102
RTVSPropertyOp26
 70
     1
102
RTVSPropertyOp27
 70
     1
102
RTVSPropertyOp28
 70
     1
102
RTVSPropertyOp29
 70
     1
102
RTVSPropertyOp30
 70
     1
102
RTVSPropertyOp31
 70
     1
102
RTVSPropertyOp32
 70
     1
  0
XRECORD
  5
3C1D
102
{ACAD_REACTORS
330
3C1C
102
}
330
3C1C
100
AcDbXrecord
280
     1
102
RTVSPropertyOp0
 70
     0
102
RTVSPropertyOp1
 70
     0
102
RTVSPropertyOp2
 70
     0
102
RTVSPropertyOp3
 70
     0
102
RTVSPropertyOp4
 70
     0
102
RTVSPropertyOp5
 70
     0
102
RTVSPropertyOp6
 70
     0
102
RTVSPropertyOp7
 70
     0
102
RTVSPropertyOp8
 70
     0
102
RTVSPropertyOp9
 70
     0
102
RTVSPropertyOp10
 70
     0
102
RTVSPropertyOp11
 70
     0
102
RTVSPropertyOp12
 70
     0
102
RTVSPropertyOp13
 70
     0
102
RTVSPropertyOp14
 70
     2
102
RTVSPropertyOp15
 70
     0
102
RTVSPropertyOp16
 70
     0
102
RTVSPropertyOp17
 70
     0
102
RTVSPropertyOp18
 70
     0
102
RTVSPropertyOp19
 70
     0
102
RTVSPropertyOp20
 70
     0
102
RTVSPropertyOp21
 70
     0
102
RTVSPropertyOp22
 70
     0
102
RTVSPropertyOp23
 70
     0
102
RTVSPropertyOp24
 70
     0
102
RTVSPropertyOp25
 70
     0
102
RTVSPropertyOp26
 70
     0
102
RTVSPropertyOp27
 70
     0
102
RTVSPropertyOp28
 70
     0
102
RTVSPropertyOp29
 70
     0
102
RTVSPropertyOp30
 70
     0
102
RTVSPropertyOp31
 70
     0
102
RTVSPropertyOp32
 70
     0
  0
XRECORD
  5
3C0B
102
{ACAD_REACTORS
330
3C0A
102
}
330
3C0A
100
AcDbXrecord
280
     1
102
RTVSPropertyOp0
 70
     1
102
RTVSPropertyOp1
 70
     1
102
RTVSPropertyOp2
 70
     1
102
RTVSPropertyOp3
 70
     1
102
RTVSPropertyOp4
 70
     1
102
RTVSPropertyOp5
 70
     1
102
RTVSPropertyOp6
 70
     1
102
RTVSPropertyOp7
 70
     1
102
RTVSPropertyOp8
 70
     1
102
RTVSPropertyOp9
 70
     1
102
RTVSPropertyOp10
 70
     1
102
RTVSPropertyOp11
 70
     1
102
RTVSPropertyOp12
 70
     1
102
RTVSPropertyOp13
 70
     1
102
RTVSPropertyOp14
 70
     1
102
RTVSPropertyOp15
 70
     1
102
RTVSPropertyOp16
 70
     1
102
RTVSPropertyOp17
 70
     1
102
RTVSPropertyOp18
 70
     1
102
RTVSPropertyOp19
 70
     1
102
RTVSPropertyOp20
 70
     1
102
RTVSPropertyOp21
 70
     1
102
RTVSPropertyOp22
 70
     1
102
RTVSPropertyOp23
 70
     1
102
RTVSPropertyOp24
 70
     1
102
RTVSPropertyOp25
 70
     1
102
RTVSPropertyOp26
 70
     1
102
RTVSPropertyOp27
 70
     1
102
RTVSPropertyOp28
 70
     1
102
RTVSPropertyOp29
 70
     1
102
RTVSPropertyOp30
 70
     1
102
RTVSPropertyOp31
 70
     1
102
RTVSPropertyOp32
 70
     1
  0
XRECORD
  5
3BEF
102
{ACAD_REACTORS
330
3BEE
102
}
330
3BEE
100
AcDbXrecord
280
     1
102
RTVSPropertyOp0
 70
     1
102
RTVSPropertyOp1
 70
     1
102
RTVSPropertyOp2
 70
     1
102
RTVSPropertyOp3
 70
     1
102
RTVSPropertyOp4
 70
     1
102
RTVSPropertyOp5
 70
     1
102
RTVSPropertyOp6
 70
     1
102
RTVSPropertyOp7
 70
     1
102
RTVSPropertyOp8
 70
     1
102
RTVSPropertyOp9
 70
     1
102
RTVSPropertyOp10
 70
     1
102
RTVSPropertyOp11
 70
     1
102
RTVSPropertyOp12
 70
     1
102
RTVSPropertyOp13
 70
     1
102
RTVSPropertyOp14
 70
     1
102
RTVSPropertyOp15
 70
     1
102
RTVSPropertyOp16
 70
     1
102
RTVSPropertyOp17
 70
     1
102
RTVSPropertyOp18
 70
     1
102
RTVSPropertyOp19
 70
     1
102
RTVSPropertyOp20
 70
     1
102
RTVSPropertyOp21
 70
     1
102
RTVSPropertyOp22
 70
     1
102
RTVSPropertyOp23
 70
     1
102
RTVSPropertyOp24
 70
     1
102
RTVSPropertyOp25
 70
     1
102
RTVSPropertyOp26
 70
     1
102
RTVSPropertyOp27
 70
     1
102
RTVSPropertyOp28
 70
     1
102
RTVSPropertyOp29
 70
     1
102
RTVSPropertyOp30
 70
     1
102
RTVSPropertyOp31
 70
     1
102
RTVSPropertyOp32
 70
     1
  0
XRECORD
  5
3BF1
102
{ACAD_REACTORS
330
3BF0
102
}
330
3BF0
100
AcDbXrecord
280
     1
102
RTVSPropertyOp0
 70
     1
102
RTVSPropertyOp1
 70
     1
102
RTVSPropertyOp2
 70
     1
102
RTVSPropertyOp3
 70
     1
102
RTVSPropertyOp4
 70
     1
102
RTVSPropertyOp5
 70
     1
102
RTVSPropertyOp6
 70
     1
102
RTVSPropertyOp7
 70
     1
102
RTVSPropertyOp8
 70
     1
102
RTVSPropertyOp9
 70
     1
102
RTVSPropertyOp10
 70
     1
102
RTVSPropertyOp11
 70
     1
102
RTVSPropertyOp12
 70
     1
102
RTVSPropertyOp13
 70
     1
102
RTVSPropertyOp14
 70
     1
102
RTVSPropertyOp15
 70
     1
102
RTVSPropertyOp16
 70
     1
102
RTVSPropertyOp17
 70
     1
102
RTVSPropertyOp18
 70
     1
102
RTVSPropertyOp19
 70
     1
102
RTVSPropertyOp20
 70
     1
102
RTVSPropertyOp21
 70
     1
102
RTVSPropertyOp22
 70
     1
102
RTVSPropertyOp23
 70
     1
102
RTVSPropertyOp24
 70
     1
102
RTVSPropertyOp25
 70
     1
102
RTVSPropertyOp26
 70
     1
102
RTVSPropertyOp27
 70
     1
102
RTVSPropertyOp28
 70
     1
102
RTVSPropertyOp29
 70
     1
102
RTVSPropertyOp30
 70
     1
102
RTVSPropertyOp31
 70
     1
102
RTVSPropertyOp32
 70
     1
  0
XRECORD
  5
3BF3
102
{ACAD_REACTORS
330
3BF2
102
}
330
3BF2
100
AcDbXrecord
280
     1
102
RTVSPropertyOp0
 70
     1
102
RTVSPropertyOp1
 70
     1
102
RTVSPropertyOp2
 70
     1
102
RTVSPropertyOp3
 70
     1
102
RTVSPropertyOp4
 70
     1
102
RTVSPropertyOp5
 70
     1
102
RTVSPropertyOp6
 70
     1
102
RTVSPropertyOp7
 70
     1
102
RTVSPropertyOp8
 70
     1
102
RTVSPropertyOp9
 70
     1
102
RTVSPropertyOp10
 70
     1
102
RTVSPropertyOp11
 70
     1
102
RTVSPropertyOp12
 70
     1
102
RTVSPropertyOp13
 70
     1
102
RTVSPropertyOp14
 70
     1
102
RTVSPropertyOp15
 70
     1
102
RTVSPropertyOp16
 70
     1
102
RTVSPropertyOp17
 70
     1
102
RTVSPropertyOp18
 70
     1
102
RTVSPropertyOp19
 70
     1
102
RTVSPropertyOp20
 70
     1
102
RTVSPropertyOp21
 70
     1
102
RTVSPropertyOp22
 70
     1
102
RTVSPropertyOp23
 70
     1
102
RTVSPropertyOp24
 70
     1
102
RTVSPropertyOp25
 70
     1
102
RTVSPropertyOp26
 70
     1
102
RTVSPropertyOp27
 70
     1
102
RTVSPropertyOp28
 70
     1
102
RTVSPropertyOp29
 70
     1
102
RTVSPropertyOp30
 70
     1
102
RTVSPropertyOp31
 70
     1
102
RTVSPropertyOp32
 70
     1
  0
XRECORD
  5
3BF5
102
{ACAD_REACTORS
330
3BF4
102
}
330
3BF4
100
AcDbXrecord
280
     1
102
RTVSPropertyOp0
 70
     1
102
RTVSPropertyOp1
 70
     1
102
RTVSPropertyOp2
 70
     1
102
RTVSPropertyOp3
 70
     1
102
RTVSPropertyOp4
 70
     1
102
RTVSPropertyOp5
 70
     1
102
RTVSPropertyOp6
 70
     1
102
RTVSPropertyOp7
 70
     1
102
RTVSPropertyOp8
 70
     1
102
RTVSPropertyOp9
 70
     1
102
RTVSPropertyOp10
 70
     1
102
RTVSPropertyOp11
 70
     1
102
RTVSPropertyOp12
 70
     1
102
RTVSPropertyOp13
 70
     1
102
RTVSPropertyOp14
 70
     1
102
RTVSPropertyOp15
 70
     1
102
RTVSPropertyOp16
 70
     1
102
RTVSPropertyOp17
 70
     1
102
RTVSPropertyOp18
 70
     1
102
RTVSPropertyOp19
 70
     1
102
RTVSPropertyOp20
 70
     1
102
RTVSPropertyOp21
 70
     1
102
RTVSPropertyOp22
 70
     1
102
RTVSPropertyOp23
 70
     1
102
RTVSPropertyOp24
 70
     1
102
RTVSPropertyOp25
 70
     1
102
RTVSPropertyOp26
 70
     1
102
RTVSPropertyOp27
 70
     1
102
RTVSPropertyOp28
 70
     1
102
RTVSPropertyOp29
 70
     1
102
RTVSPropertyOp30
 70
     1
102
RTVSPropertyOp31
 70
     1
102
RTVSPropertyOp32
 70
     1
  0
XRECORD
  5
3BFD
102
{ACAD_REACTORS
330
3BFC
102
}
330
3BFC
100
AcDbXrecord
280
     1
102
RTVSPropertyOp0
 70
     1
102
RTVSPropertyOp1
 70
     1
102
RTVSPropertyOp2
 70
     1
102
RTVSPropertyOp3
 70
     1
102
RTVSPropertyOp4
 70
     1
102
RTVSPropertyOp5
 70
     1
102
RTVSPropertyOp6
 70
     1
102
RTVSPropertyOp7
 70
     1
102
RTVSPropertyOp8
 70
     1
102
RTVSPropertyOp9
 70
     1
102
RTVSPropertyOp10
 70
     1
102
RTVSPropertyOp11
 70
     1
102
RTVSPropertyOp12
 70
     1
102
RTVSPropertyOp13
 70
     1
102
RTVSPropertyOp14
 70
     1
102
RTVSPropertyOp15
 70
     1
102
RTVSPropertyOp16
 70
     1
102
RTVSPropertyOp17
 70
     1
102
RTVSPropertyOp18
 70
     1
102
RTVSPropertyOp19
 70
     1
102
RTVSPropertyOp20
 70
     1
102
RTVSPropertyOp21
 70
     1
102
RTVSPropertyOp22
 70
     1
102
RTVSPropertyOp23
 70
     1
102
RTVSPropertyOp24
 70
     1
102
RTVSPropertyOp25
 70
     1
102
RTVSPropertyOp26
 70
     1
102
RTVSPropertyOp27
 70
     1
102
RTVSPropertyOp28
 70
     1
102
RTVSPropertyOp29
 70
     1
102
RTVSPropertyOp30
 70
     1
102
RTVSPropertyOp31
 70
     1
102
RTVSPropertyOp32
 70
     1
  0
XRECORD
  5
3C19
102
{ACAD_REACTORS
330
3C18
102
}
330
3C18
100
AcDbXrecord
280
     1
102
RTVSPropertyOp0
 70
     0
102
RTVSPropertyOp1
 70
     0
102
RTVSPropertyOp2
 70
     0
102
RTVSPropertyOp3
 70
     0
102
RTVSPropertyOp4
 70
     0
102
RTVSPropertyOp5
 70
     0
102
RTVSPropertyOp6
 70
     0
102
RTVSPropertyOp7
 70
     0
102
RTVSPropertyOp8
 70
     0
102
RTVSPropertyOp9
 70
     0
102
RTVSPropertyOp10
 70
     0
102
RTVSPropertyOp11
 70
     0
102
RTVSPropertyOp12
 70
     0
102
RTVSPropertyOp13
 70
     0
102
RTVSPropertyOp14
 70
     2
102
RTVSPropertyOp15
 70
     0
102
RTVSPropertyOp16
 70
     0
102
RTVSPropertyOp17
 70
     0
102
RTVSPropertyOp18
 70
     0
102
RTVSPropertyOp19
 70
     0
102
RTVSPropertyOp20
 70
     0
102
RTVSPropertyOp21
 70
     0
102
RTVSPropertyOp22
 70
     0
102
RTVSPropertyOp23
 70
     0
102
RTVSPropertyOp24
 70
     0
102
RTVSPropertyOp25
 70
     0
102
RTVSPropertyOp26
 70
     0
102
RTVSPropertyOp27
 70
     0
102
RTVSPropertyOp28
 70
     0
102
RTVSPropertyOp29
 70
     0
102
RTVSPropertyOp30
 70
     0
102
RTVSPropertyOp31
 70
     0
102
RTVSPropertyOp32
 70
     0
  0
XRECORD
  5
3C09
102
{ACAD_REACTORS
330
3C08
102
}
330
3C08
100
AcDbXrecord
280
     1
102
RTVSPropertyOp0
 70
     1
102
RTVSPropertyOp1
 70
     1
102
RTVSPropertyOp2
 70
     1
102
RTVSPropertyOp3
 70
     1
102
RTVSPropertyOp4
 70
     1
102
RTVSPropertyOp5
 70
     1
102
RTVSPropertyOp6
 70
     1
102
RTVSPropertyOp7
 70
     1
102
RTVSPropertyOp8
 70
     1
102
RTVSPropertyOp9
 70
     1
102
RTVSPropertyOp10
 70
     1
102
RTVSPropertyOp11
 70
     1
102
RTVSPropertyOp12
 70
     1
102
RTVSPropertyOp13
 70
     1
102
RTVSPropertyOp14
 70
     1
102
RTVSPropertyOp15
 70
     1
102
RTVSPropertyOp16
 70
     1
102
RTVSPropertyOp17
 70
     1
102
RTVSPropertyOp18
 70
     1
102
RTVSPropertyOp19
 70
     1
102
RTVSPropertyOp20
 70
     1
102
RTVSPropertyOp21
 70
     1
102
RTVSPropertyOp22
 70
     1
102
RTVSPropertyOp23
 70
     1
102
RTVSPropertyOp24
 70
     1
102
RTVSPropertyOp25
 70
     1
102
RTVSPropertyOp26
 70
     1
102
RTVSPropertyOp27
 70
     1
102
RTVSPropertyOp28
 70
     1
102
RTVSPropertyOp29
 70
     1
102
RTVSPropertyOp30
 70
     1
102
RTVSPropertyOp31
 70
     1
102
RTVSPropertyOp32
 70
     1
  0
XRECORD
  5
3C1B
102
{ACAD_REACTORS
330
3C1A
102
}
330
3C1A
100
AcDbXrecord
280
     1
102
RTVSPropertyOp0
 70
     0
102
RTVSPropertyOp1
 70
     0
102
RTVSPropertyOp2
 70
     0
102
RTVSPropertyOp3
 70
     0
102
RTVSPropertyOp4
 70
     0
102
RTVSPropertyOp5
 70
     0
102
RTVSPropertyOp6
 70
     0
102
RTVSPropertyOp7
 70
     0
102
RTVSPropertyOp8
 70
     0
102
RTVSPropertyOp9
 70
     0
102
RTVSPropertyOp10
 70
     0
102
RTVSPropertyOp11
 70
     0
102
RTVSPropertyOp12
 70
     0
102
RTVSPropertyOp13
 70
     0
102
RTVSPropertyOp14
 70
     2
102
RTVSPropertyOp15
 70
     0
102
RTVSPropertyOp16
 70
     0
102
RTVSPropertyOp17
 70
     0
102
RTVSPropertyOp18
 70
     0
102
RTVSPropertyOp19
 70
     0
102
RTVSPropertyOp20
 70
     0
102
RTVSPropertyOp21
 70
     0
102
RTVSPropertyOp22
 70
     0
102
RTVSPropertyOp23
 70
     0
102
RTVSPropertyOp24
 70
     0
102
RTVSPropertyOp25
 70
     0
102
RTVSPropertyOp26
 70
     0
102
RTVSPropertyOp27
 70
     0
102
RTVSPropertyOp28
 70
     0
102
RTVSPropertyOp29
 70
     0
102
RTVSPropertyOp30
 70
     0
102
RTVSPropertyOp31
 70
     0
102
RTVSPropertyOp32
 70
     0
  0
XRECORD
  5
3C01
102
{ACAD_REACTORS
330
3C00
102
}
330
3C00
100
AcDbXrecord
280
     1
102
RTVSPropertyOp0
 70
     1
102
RTVSPropertyOp1
 70
     1
102
RTVSPropertyOp2
 70
     1
102
RTVSPropertyOp3
 70
     1
102
RTVSPropertyOp4
 70
     1
102
RTVSPropertyOp5
 70
     1
102
RTVSPropertyOp6
 70
     1
102
RTVSPropertyOp7
 70
     1
102
RTVSPropertyOp8
 70
     1
102
RTVSPropertyOp9
 70
     1
102
RTVSPropertyOp10
 70
     1
102
RTVSPropertyOp11
 70
     1
102
RTVSPropertyOp12
 70
     1
102
RTVSPropertyOp13
 70
     1
102
RTVSPropertyOp14
 70
     1
102
RTVSPropertyOp15
 70
     1
102
RTVSPropertyOp16
 70
     1
102
RTVSPropertyOp17
 70
     1
102
RTVSPropertyOp18
 70
     1
102
RTVSPropertyOp19
 70
     1
102
RTVSPropertyOp20
 70
     1
102
RTVSPropertyOp21
 70
     1
102
RTVSPropertyOp22
 70
     1
102
RTVSPropertyOp23
 70
     1
102
RTVSPropertyOp24
 70
     1
102
RTVSPropertyOp25
 70
     1
102
RTVSPropertyOp26
 70
     1
102
RTVSPropertyOp27
 70
     1
102
RTVSPropertyOp28
 70
     1
102
RTVSPropertyOp29
 70
     1
102
RTVSPropertyOp30
 70
     1
102
RTVSPropertyOp31
 70
     1
102
RTVSPropertyOp32
 70
     1
  0
XRECORD
  5
3C17
102
{ACAD_REACTORS
330
3C16
102
}
330
3C16
100
AcDbXrecord
280
     1
102
RTVSPropertyOp0
 70
     1
102
RTVSPropertyOp1
 70
     1
102
RTVSPropertyOp2
 70
     1
102
RTVSPropertyOp3
 70
     1
102
RTVSPropertyOp4
 70
     1
102
RTVSPropertyOp5
 70
     1
102
RTVSPropertyOp6
 70
     1
102
RTVSPropertyOp7
 70
     1
102
RTVSPropertyOp8
 70
     1
102
RTVSPropertyOp9
 70
     1
102
RTVSPropertyOp10
 70
     1
102
RTVSPropertyOp11
 70
     1
102
RTVSPropertyOp12
 70
     1
102
RTVSPropertyOp13
 70
     1
102
RTVSPropertyOp14
 70
     1
102
RTVSPropertyOp15
 70
     1
102
RTVSPropertyOp16
 70
     1
102
RTVSPropertyOp17
 70
     1
102
RTVSPropertyOp18
 70
     1
102
RTVSPropertyOp19
 70
     1
102
RTVSPropertyOp20
 70
     1
102
RTVSPropertyOp21
 70
     1
102
RTVSPropertyOp22
 70
     1
102
RTVSPropertyOp23
 70
     1
102
RTVSPropertyOp24
 70
     1
102
RTVSPropertyOp25
 70
     1
102
RTVSPropertyOp26
 70
     1
102
RTVSPropertyOp27
 70
     1
102
RTVSPropertyOp28
 70
     1
102
RTVSPropertyOp29
 70
     1
102
RTVSPropertyOp30
 70
     1
102
RTVSPropertyOp31
 70
     1
102
RTVSPropertyOp32
 70
     1
  0
XRECORD
  5
3C15
102
{ACAD_REACTORS
330
3C14
102
}
330
3C14
100
AcDbXrecord
280
     1
102
RTVSPropertyOp0
 70
     1
102
RTVSPropertyOp1
 70
     1
102
RTVSPropertyOp2
 70
     1
102
RTVSPropertyOp3
 70
     1
102
RTVSPropertyOp4
 70
     1
102
RTVSPropertyOp5
 70
     1
102
RTVSPropertyOp6
 70
     1
102
RTVSPropertyOp7
 70
     1
102
RTVSPropertyOp8
 70
     1
102
RTVSPropertyOp9
 70
     1
102
RTVSPropertyOp10
 70
     1
102
RTVSPropertyOp11
 70
     1
102
RTVSPropertyOp12
 70
     1
102
RTVSPropertyOp13
 70
     1
102
RTVSPropertyOp14
 70
     1
102
RTVSPropertyOp15
 70
     1
102
RTVSPropertyOp16
 70
     1
102
RTVSPropertyOp17
 70
     1
102
RTVSPropertyOp18
 70
     1
102
RTVSPropertyOp19
 70
     1
102
RTVSPropertyOp20
 70
     1
102
RTVSPropertyOp21
 70
     1
102
RTVSPropertyOp22
 70
     1
102
RTVSPropertyOp23
 70
     1
102
RTVSPropertyOp24
 70
     1
102
RTVSPropertyOp25
 70
     1
102
RTVSPropertyOp26
 70
     1
102
RTVSPropertyOp27
 70
     1
102
RTVSPropertyOp28
 70
     1
102
RTVSPropertyOp29
 70
     1
102
RTVSPropertyOp30
 70
     1
102
RTVSPropertyOp31
 70
     1
102
RTVSPropertyOp32
 70
     1
  0
XRECORD
  5
3C0F
102
{ACAD_REACTORS
330
3C0E
102
}
330
3C0E
100
AcDbXrecord
280
     1
102
RTVSPropertyOp0
 70
     1
102
RTVSPropertyOp1
 70
     1
102
RTVSPropertyOp2
 70
     1
102
RTVSPropertyOp3
 70
     1
102
RTVSPropertyOp4
 70
     1
102
RTVSPropertyOp5
 70
     1
102
RTVSPropertyOp6
 70
     1
102
RTVSPropertyOp7
 70
     1
102
RTVSPropertyOp8
 70
     1
102
RTVSPropertyOp9
 70
     1
102
RTVSPropertyOp10
 70
     1
102
RTVSPropertyOp11
 70
     1
102
RTVSPropertyOp12
 70
     1
102
RTVSPropertyOp13
 70
     1
102
RTVSPropertyOp14
 70
     1
102
RTVSPropertyOp15
 70
     1
102
RTVSPropertyOp16
 70
     1
102
RTVSPropertyOp17
 70
     1
102
RTVSPropertyOp18
 70
     1
102
RTVSPropertyOp19
 70
     1
102
RTVSPropertyOp20
 70
     1
102
RTVSPropertyOp21
 70
     1
102
RTVSPropertyOp22
 70
     1
102
RTVSPropertyOp23
 70
     1
102
RTVSPropertyOp24
 70
     1
102
RTVSPropertyOp25
 70
     1
102
RTVSPropertyOp26
 70
     1
102
RTVSPropertyOp27
 70
     1
102
RTVSPropertyOp28
 70
     1
102
RTVSPropertyOp29
 70
     1
102
RTVSPropertyOp30
 70
     1
102
RTVSPropertyOp31
 70
     1
102
RTVSPropertyOp32
 70
     1
  0
XRECORD
  5
3C11
102
{ACAD_REACTORS
330
3C10
102
}
330
3C10
100
AcDbXrecord
280
     1
102
RTVSPropertyOp0
 70
     1
102
RTVSPropertyOp1
 70
     1
102
RTVSPropertyOp2
 70
     1
102
RTVSPropertyOp3
 70
     1
102
RTVSPropertyOp4
 70
     1
102
RTVSPropertyOp5
 70
     1
102
RTVSPropertyOp6
 70
     1
102
RTVSPropertyOp7
 70
     1
102
RTVSPropertyOp8
 70
     1
102
RTVSPropertyOp9
 70
     1
102
RTVSPropertyOp10
 70
     1
102
RTVSPropertyOp11
 70
     1
102
RTVSPropertyOp12
 70
     1
102
RTVSPropertyOp13
 70
     1
102
RTVSPropertyOp14
 70
     1
102
RTVSPropertyOp15
 70
     1
102
RTVSPropertyOp16
 70
     1
102
RTVSPropertyOp17
 70
     1
102
RTVSPropertyOp18
 70
     1
102
RTVSPropertyOp19
 70
     1
102
RTVSPropertyOp20
 70
     1
102
RTVSPropertyOp21
 70
     1
102
RTVSPropertyOp22
 70
     1
102
RTVSPropertyOp23
 70
     1
102
RTVSPropertyOp24
 70
     1
102
RTVSPropertyOp25
 70
     1
102
RTVSPropertyOp26
 70
     1
102
RTVSPropertyOp27
 70
     1
102
RTVSPropertyOp28
 70
     1
102
RTVSPropertyOp29
 70
     1
102
RTVSPropertyOp30
 70
     1
102
RTVSPropertyOp31
 70
     1
102
RTVSPropertyOp32
 70
     1
  0
XRECORD
  5
3C07
102
{ACAD_REACTORS
330
3C06
102
}
330
3C06
100
AcDbXrecord
280
     1
102
RTVSPropertyOp0
 70
     1
102
RTVSPropertyOp1
 70
     1
102
RTVSPropertyOp2
 70
     1
102
RTVSPropertyOp3
 70
     1
102
RTVSPropertyOp4
 70
     1
102
RTVSPropertyOp5
 70
     1
102
RTVSPropertyOp6
 70
     1
102
RTVSPropertyOp7
 70
     1
102
RTVSPropertyOp8
 70
     1
102
RTVSPropertyOp9
 70
     1
102
RTVSPropertyOp10
 70
     1
102
RTVSPropertyOp11
 70
     1
102
RTVSPropertyOp12
 70
     1
102
RTVSPropertyOp13
 70
     1
102
RTVSPropertyOp14
 70
     1
102
RTVSPropertyOp15
 70
     1
102
RTVSPropertyOp16
 70
     1
102
RTVSPropertyOp17
 70
     1
102
RTVSPropertyOp18
 70
     1
102
RTVSPropertyOp19
 70
     1
102
RTVSPropertyOp20
 70
     1
102
RTVSPropertyOp21
 70
     1
102
RTVSPropertyOp22
 70
     1
102
RTVSPropertyOp23
 70
     1
102
RTVSPropertyOp24
 70
     1
102
RTVSPropertyOp25
 70
     1
102
RTVSPropertyOp26
 70
     1
102
RTVSPropertyOp27
 70
     1
102
RTVSPropertyOp28
 70
     1
102
RTVSPropertyOp29
 70
     1
102
RTVSPropertyOp30
 70
     1
102
RTVSPropertyOp31
 70
     1
102
RTVSPropertyOp32
 70
     1
  0
XRECORD
  5
3BFB
102
{ACAD_REACTORS
330
3BFA
102
}
330
3BFA
100
AcDbXrecord
280
     1
102
RTVSPropertyOp0
 70
     1
102
RTVSPropertyOp1
 70
     1
102
RTVSPropertyOp2
 70
     1
102
RTVSPropertyOp3
 70
     1
102
RTVSPropertyOp4
 70
     1
102
RTVSPropertyOp5
 70
     1
102
RTVSPropertyOp6
 70
     1
102
RTVSPropertyOp7
 70
     1
102
RTVSPropertyOp8
 70
     1
102
RTVSPropertyOp9
 70
     1
102
RTVSPropertyOp10
 70
     1
102
RTVSPropertyOp11
 70
     1
102
RTVSPropertyOp12
 70
     1
102
RTVSPropertyOp13
 70
     1
102
RTVSPropertyOp14
 70
     1
102
RTVSPropertyOp15
 70
     1
102
RTVSPropertyOp16
 70
     1
102
RTVSPropertyOp17
 70
     1
102
RTVSPropertyOp18
 70
     1
102
RTVSPropertyOp19
 70
     1
102
RTVSPropertyOp20
 70
     1
102
RTVSPropertyOp21
 70
     1
102
RTVSPropertyOp22
 70
     1
102
RTVSPropertyOp23
 70
     1
102
RTVSPropertyOp24
 70
     1
102
RTVSPropertyOp25
 70
     1
102
RTVSPropertyOp26
 70
     1
102
RTVSPropertyOp27
 70
     1
102
RTVSPropertyOp28
 70
     1
102
RTVSPropertyOp29
 70
     1
102
RTVSPropertyOp30
 70
     1
102
RTVSPropertyOp31
 70
     1
102
RTVSPropertyOp32
 70
     1
  0
XRECORD
  5
3C13
102
{ACAD_REACTORS
330
3C12
102
}
330
3C12
100
AcDbXrecord
280
     1
102
RTVSPropertyOp0
 70
     1
102
RTVSPropertyOp1
 70
     1
102
RTVSPropertyOp2
 70
     1
102
RTVSPropertyOp3
 70
     1
102
RTVSPropertyOp4
 70
     1
102
RTVSPropertyOp5
 70
     1
102
RTVSPropertyOp6
 70
     1
102
RTVSPropertyOp7
 70
     1
102
RTVSPropertyOp8
 70
     1
102
RTVSPropertyOp9
 70
     1
102
RTVSPropertyOp10
 70
     1
102
RTVSPropertyOp11
 70
     1
102
RTVSPropertyOp12
 70
     1
102
RTVSPropertyOp13
 70
     1
102
RTVSPropertyOp14
 70
     1
102
RTVSPropertyOp15
 70
     1
102
RTVSPropertyOp16
 70
     1
102
RTVSPropertyOp17
 70
     1
102
RTVSPropertyOp18
 70
     1
102
RTVSPropertyOp19
 70
     1
102
RTVSPropertyOp20
 70
     1
102
RTVSPropertyOp21
 70
     1
102
RTVSPropertyOp22
 70
     1
102
RTVSPropertyOp23
 70
     1
102
RTVSPropertyOp24
 70
     1
102
RTVSPropertyOp25
 70
     1
102
RTVSPropertyOp26
 70
     1
102
RTVSPropertyOp27
 70
     1
102
RTVSPropertyOp28
 70
     1
102
RTVSPropertyOp29
 70
     1
102
RTVSPropertyOp30
 70
     1
102
RTVSPropertyOp31
 70
     1
102
RTVSPropertyOp32
 70
     1
  0
ENDSEC
  0
EOF
