  0
SECTION
  2
HEADER
  9
$ACADVER
  1
AC1012
  9
$DWGCODEPAGE
  3
dos932
  9
$INSBASE
 10
0.0
 20
0.0
 30
0.0
  9
$EXTMIN
 10
19.90074647074652
 20
5.798621502208327
 30
0.0
  9
$EXTMAX
 10
1611.900746470746
 20
1124.166900699545
 30
0.0
  9
$LIMMIN
 10
0.0
 20
0.0
  9
$LIMMAX
 10
1682.0
 20
1188.0
  9
$ORTHOMODE
 70
     0
  9
$REGENMODE
 70
     1
  9
$FILLMODE
 70
     1
  9
$QTEXTMODE
 70
     0
  9
$MIRRTEXT
 70
     1
  9
$DRAGMODE
 70
     2
  9
$LTSCALE
 40
5.657142857142857
  9
$OSMODE
 70
    37
  9
$ATTMODE
 70
     1
  9
$TEXTSIZE
 40
19.8
  9
$TRACEWID
 40
0.05
  9
$TEXTSTYLE
  7
STANDARD
  9
$CLAYER
  8
SUNPOU
  9
$CELTYPE
  6
BYLAYER
  9
$CECOLOR
 62
   256
  9
$CELTSCALE
 40
1.0
  9
$DELOBJ
 70
     1
  9
$DISPSILH
 70
     0
  9
$DIMSCALE
 40
1.0
  9
$DIMASZ
 40
14.0
  9
$DIMEXO
 40
12.0
  9
$DIMDLI
 40
28.0
  9
$DIMRND
 40
0.0
  9
$DIMDLE
 40
0.0
  9
$DIMEXE
 40
6.0
  9
$DIMTP
 40
0.0
  9
$DIMTM
 40
0.0
  9
$DIMTXT
 40
12.0
  9
$DIMCEN
 40
150.0
  9
$DIMTSZ
 40
0.0
  9
$DIMTOL
 70
     0
  9
$DIMLIM
 70
     0
  9
$DIMTIH
 70
     0
  9
$DIMTOH
 70
     0
  9
$DIMSE1
 70
     0
  9
$DIMSE2
 70
     0
  9
$DIMTAD
 70
     3
  9
$DIMZIN
 70
     0
  9
$DIMBLK
  1

  9
$DIMASO
 70
     1
  9
$DIMSHO
 70
     1
  9
$DIMPOST
  1

  9
$DIMAPOST
  1

  9
$DIMALT
 70
     0
  9
$DIMALTD
 70
     2
  9
$DIMALTF
 40
0.03937
  9
$DIMLFAC
 40
1.0
  9
$DIMTOFL
 70
     1
  9
$DIMTVP
 40
0.0
  9
$DIMTIX
 70
     0
  9
$DIMSOXD
 70
     0
  9
$DIMSAH
 70
     1
  9
$DIMBLK1
  1
OPEN
  9
$DIMBLK2
  1
OPEN
  9
$DIMSTYLE
  2
STANDARD
  9
$DIMCLRD
 70
   256
  9
$DIMCLRE
 70
   256
  9
$DIMCLRT
 70
   256
  9
$DIMTFAC
 40
1.0
  9
$DIMGAP
 40
4.0
  9
$DIMJUST
 70
     0
  9
$DIMSD1
 70
     0
  9
$DIMSD2
 70
     0
  9
$DIMTOLJ
 70
     1
  9
$DIMTZIN
 70
     0
  9
$DIMALTZ
 70
     0
  9
$DIMALTTZ
 70
     0
  9
$DIMFIT
 70
     3
  9
$DIMUPT
 70
     0
  9
$DIMUNIT
 70
     2
  9
$DIMDEC
 70
     0
  9
$DIMTDEC
 70
     0
  9
$DIMALTU
 70
     2
  9
$DIMALTTD
 70
     2
  9
$DIMTXSTY
  7
STANDARD
  9
$DIMAUNIT
 70
     0
  9
$LUNITS
 70
     2
  9
$LUPREC
 70
     4
  9
$SKETCHINC
 40
0.1
  9
$FILLETRAD
 40
56.57142857142858
  9
$AUNITS
 70
     0
  9
$AUPREC
 70
     0
  9
$MENU
  1
acad
  9
$ELEVATION
 40
0.0
  9
$PELEVATION
 40
0.0
  9
$THICKNESS
 40
0.0
  9
$LIMCHECK
 70
     0
  9
$BLIPMODE
 70
     0
  9
$CHAMFERA
 40
56.57142857142858
  9
$CHAMFERB
 40
56.57142857142858
  9
$CHAMFERC
 40
113.1428571428571
  9
$CHAMFERD
 40
0.0
  9
$SKPOLY
 70
     0
  9
$TDCREATE
 40
2450994.355304167
  9
$TDUPDATE
 40
2452393.711044676
  9
$TDINDWG
 40
0.0072947685
  9
$TDUSRTIMER
 40
0.0072947685
  9
$USRTIMER
 70
     1
  9
$ANGBASE
 50
0.0
  9
$ANGDIR
 70
     0
  9
$PDMODE
 70
     1
  9
$PDSIZE
 40
0.0
  9
$PLINEWID
 40
0.0
  9
$COORDS
 70
     1
  9
$SPLFRAME
 70
     0
  9
$SPLINETYPE
 70
     6
  9
$SPLINESEGS
 70
     8
  9
$ATTDIA
 70
     0
  9
$ATTREQ
 70
     1
  9
$HANDLING
 70
 10241
  9
$HANDSEED
  5
6AD
  9
$SURFTAB1
 70
     6
  9
$SURFTAB2
 70
     6
  9
$SURFTYPE
 70
     6
  9
$SURFU
 70
     6
  9
$SURFV
 70
     6
  9
$UCSNAME
  2

  9
$UCSORG
 10
0.0
 20
0.0
 30
0.0
  9
$UCSXDIR
 10
1.0
 20
0.0
 30
0.0
  9
$UCSYDIR
 10
0.0
 20
1.0
 30
0.0
  9
$PUCSNAME
  2

  9
$PUCSORG
 10
0.0
 20
0.0
 30
0.0
  9
$PUCSXDIR
 10
1.0
 20
0.0
 30
0.0
  9
$PUCSYDIR
 10
0.0
 20
1.0
 30
0.0
  9
$USERI1
 70
     0
  9
$USERI2
 70
     0
  9
$USERI3
 70
     0
  9
$USERI4
 70
     0
  9
$USERI5
 70
     0
  9
$USERR1
 40
0.0
  9
$USERR2
 40
0.0
  9
$USERR3
 40
0.0
  9
$USERR4
 40
0.0
  9
$USERR5
 40
0.0
  9
$WORLDVIEW
 70
     1
  9
$SHADEDGE
 70
     3
  9
$SHADEDIF
 70
    70
  9
$TILEMODE
 70
     1
  9
$MAXACTVP
 70
    16
  9
$PINSBASE
 10
0.0
 20
0.0
 30
0.0
  9
$PLIMCHECK
 70
     0
  9
$PEXTMIN
 10
0.0
 20
0.0
 30
0.0
  9
$PEXTMAX
 10
420.0
 20
297.0
 30
0.0
  9
$PLIMMIN
 10
0.0
 20
0.0
  9
$PLIMMAX
 10
420.0
 20
297.0
  9
$UNITMODE
 70
     0
  9
$VISRETAIN
 70
     0
  9
$PLINEGEN
 70
     0
  9
$PSLTSCALE
 70
     1
  9
$TREEDEPTH
 70
  3020
  9
$PICKSTYLE
 70
     1
  9
$CMLSTYLE
  2
STANDARD
  9
$CMLJUST
 70
     0
  9
$CMLSCALE
 40
20.0
  9
$SAVEIMAGES
 70
     1
  0
ENDSEC
  0
SECTION
  2
CLASSES
  0
CLASS
  1
ACDBDICTIONARYWDFLT
  2
AcDbDictionaryWithDefault
  3
AutoCAD 2000
 90
    32768
280
     0
281
     0
  0
CLASS
  1
ACDBPLACEHOLDER
  2
AcDbPlaceHolder
  3
AutoCAD 2000
 90
    32768
280
     0
281
     0
  0
CLASS
  1
LAYOUT
  2
AcDbLayout
  3
AutoCAD 2000
 90
    32768
280
     0
281
     0
  0
CLASS
  1
LONG_TRANSACTION
  2
AcDbLongTransaction
  3
AutoCAD 2000
 90
    32768
280
     0
281
     0
  0
CLASS
  1
LWPOLYLINE
  2
AcDbPolyline
  3
AutoCAD 2000
 90
    32768
280
     0
281
     1
  0
CLASS
  1
HATCH
  2
AcDbHatch
  3
AutoCAD 2000
 90
    32768
280
     0
281
     1
  0
CLASS
  1
XRECORD
  2
AcDbXrecord
  3
AutoCAD 2000
 90
    32768
280
     0
281
     0
  0
CLASS
  1
LONG_TRANSACTION
  2
AcDbLongTransaction
  3
AutoCAD 2000
 90
    32768
280
     0
281
     0
  0
CLASS
  1
LWPOLYLINE
  2
AcDbPolyline
  3
AutoCAD 2000
 90
    32768
280
     0
281
     1
  0
CLASS
  1
HATCH
  2
AcDbHatch
  3
AutoCAD 2000
 90
    32768
280
     0
281
     1
  0
CLASS
  1
XRECORD
  2
AcDbXrecord
  3
AutoCAD 2000
 90
    32768
280
     0
281
     0
  0
CLASS
  1
LONG_TRANSACTION
  2
AcDbLongTransaction
  3
AutoCAD 2000
 90
    32768
280
     0
281
     0
  0
CLASS
  1
LWPOLYLINE
  2
AcDbPolyline
  3
AutoCAD 2000
 90
    32768
280
     0
281
     1
  0
CLASS
  1
HATCH
  2
AcDbHatch
  3
AutoCAD 2000
 90
    32768
280
     0
281
     1
  0
CLASS
  1
XRECORD
  2
AcDbXrecord
  3
AutoCAD 2000
 90
    32768
280
     0
281
     0
  0
ENDSEC
  0
SECTION
  2
TABLES
  0
TABLE
  2
VPORT
  5
8
330
0
100
AcDbSymbolTable
 70
     2
  0
VPORT
  5
6AA
330
8
100
AcDbSymbolTableRecord
100
AcDbViewportTableRecord
  2
*ACTIVE
 70
     0
 10
0.0
 20
0.0
 11
1.0
 21
1.0
 12
1092.358333003991
 22
594.0
 13
0.0
 23
0.0
 14
10.0
 24
10.0
 15
10.0
 25
10.0
 16
0.0
 26
0.0
 36
1.0
 17
0.0
 27
0.0
 37
0.0
 40
1201.127071823204
 41
2.169459962756052
 42
50.0
 43
0.0
 44
0.0
 50
0.0
 51
0.0
 71
     0
 72
   100
 73
     1
 74
     0
 75
     0
 76
     0
 77
     0
 78
     0
  0
ENDTAB
  0
TABLE
  2
LTYPE
  5
5
330
0
100
AcDbSymbolTable
 70
     2
  0
LTYPE
  5
13
330
5
100
AcDbSymbolTableRecord
100
AcDbLinetypeTableRecord
  2
BYBLOCK
 70
     0
  3

 72
    65
 73
     0
 40
0.0
  0
LTYPE
  5
14
330
5
100
AcDbSymbolTableRecord
100
AcDbLinetypeTableRecord
  2
BYLAYER
 70
     0
  3

 72
    65
 73
     0
 40
0.0
  0
LTYPE
  5
15
330
5
100
AcDbSymbolTableRecord
100
AcDbLinetypeTableRecord
  2
CONTINUOUS
 70
     0
  3
Solid line
 72
    65
 73
     0
 40
0.0
  0
LTYPE
  5
11C
330
5
100
AcDbSymbolTableRecord
100
AcDbLinetypeTableRecord
  2
CENTER
 70
     0
  3
____ _ ____ _ ____ _ ____ _ ____ _ ____ _ ____ 
 72
    65
 73
     4
 40
2.0
 49
1.25
 74
     0
 49
-0.25
 74
     0
 49
0.25
 74
     0
 49
-0.25
 74
     0
  0
ENDTAB
  0
TABLE
  2
LAYER
  5
2
330
0
100
AcDbSymbolTable
 70
     7
  0
LAYER
  5
F
330
2
100
AcDbSymbolTableRecord
100
AcDbLayerTableRecord
  2
0
 70
     0
 62
     7
  6
CONTINUOUS
  0
LAYER
  5
23
330
2
100
AcDbSymbolTableRecord
100
AcDbLayerTableRecord
  2
VIEWPORT
 70
     0
 62
     7
  6
CONTINUOUS
  0
LAYER
  5
2D
330
2
100
AcDbSymbolTableRecord
100
AcDbLayerTableRecord
  2
ZUWAKU
 70
     0
 62
     7
  6
CONTINUOUS
  0
LAYER
  5
A6
330
2
100
AcDbSymbolTableRecord
100
AcDbLayerTableRecord
  2
DEFPOINTS
 70
     0
 62
     7
  6
CONTINUOUS
  0
LAYER
  5
246
330
2
100
AcDbSymbolTableRecord
100
AcDbLayerTableRecord
  2
SEIHIN
 70
     0
 62
     3
  6
CONTINUOUS
  0
LAYER
  5
247
330
2
100
AcDbSymbolTableRecord
100
AcDbLayerTableRecord
  2
SUNPOU
 70
     0
 62
     4
  6
CONTINUOUS
  0
LAYER
  5
248
330
2
100
AcDbSymbolTableRecord
100
AcDbLayerTableRecord
  2
CENTER_L
 70
     0
 62
     1
  6
CENTER
  0
ENDTAB
  0
TABLE
  2
STYLE
  5
3
330
0
100
AcDbSymbolTable
 70
     1
  0
STYLE
  5
10
330
3
100
AcDbSymbolTableRecord
100
AcDbTextStyleTableRecord
  2
STANDARD
 70
     0
 40
0.0
 41
1.0
 50
0.0
 71
     0
 42
19.8
  3
txt
  4
bigfont.shx
  0
ENDTAB
  0
TABLE
  2
VIEW
  5
6
330
0
100
AcDbSymbolTable
 70
     0
  0
ENDTAB
  0
TABLE
  2
UCS
  5
7
330
0
100
AcDbSymbolTable
 70
     0
  0
ENDTAB
  0
TABLE
  2
APPID
  5
9
330
0
100
AcDbSymbolTable
 70
     1
  0
APPID
  5
11
330
9
100
AcDbSymbolTableRecord
100
AcDbRegAppTableRecord
  2
ACAD
 70
     0
  0
ENDTAB
  0
TABLE
  2
DIMSTYLE
  5
A
330
0
100
AcDbSymbolTable
 70
     1
  0
DIMSTYLE
105
1D
102
{ACAD_REACTORS
330
366
330
367
330
368
330
369
330
36A
330
36B
330
36C
330
36D
330
36E
330
36F
330
370
330
379
330
385
330
38A
330
3D3
330
444
330
449
330
466
102
}
330
A
100
AcDbSymbolTableRecord
100
AcDbDimStyleTableRecord
  2
STANDARD
 70
     0
  3

  4

  5

  6

  7

 40
1.0
 41
0.18
 42
0.0625
 43
0.38
 44
0.18
 45
0.0
 46
0.0
 47
0.0
 48
0.0
140
0.18
141
0.09
142
0.0
143
25.4
144
1.0
145
0.0
146
1.0
147
0.09
 71
     0
 72
     0
 73
     1
 74
     1
 75
     0
 76
     0
 77
     0
 78
     0
170
     0
171
     2
172
     0
173
     0
174
     0
175
     0
176
     0
177
     0
178
     0
270
     2
271
     4
272
     4
273
     2
274
     2
340
10
275
     0
280
     0
281
     0
282
     0
283
     1
284
     0
285
     0
286
     0
287
     3
288
     0
  0
ENDTAB
  0
TABLE
  2
BLOCK_RECORD
  5
1
330
0
100
AcDbSymbolTable
 70
    19
  0
BLOCK_RECORD
  5
19
102
{ACAD_XDICTIONARY
360
668
102
}
330
1
100
AcDbSymbolTableRecord
100
AcDbBlockTableRecord
  2
*MODEL_SPACE
  0
BLOCK_RECORD
  5
16
102
{ACAD_XDICTIONARY
360
666
102
}
330
1
100
AcDbSymbolTableRecord
100
AcDbBlockTableRecord
  2
*PAPER_SPACE
  0
BLOCK_RECORD
  5
27
330
1
100
AcDbSymbolTableRecord
100
AcDbBlockTableRecord
  2
_OPEN
  0
BLOCK_RECORD
  5
47B
330
1
100
AcDbSymbolTableRecord
100
AcDbBlockTableRecord
  2
*D1
  0
BLOCK_RECORD
  5
488
330
1
100
AcDbSymbolTableRecord
100
AcDbBlockTableRecord
  2
*D2
  0
BLOCK_RECORD
  5
496
330
1
100
AcDbSymbolTableRecord
100
AcDbBlockTableRecord
  2
*D3
  0
BLOCK_RECORD
  5
4A4
330
1
100
AcDbSymbolTableRecord
100
AcDbBlockTableRecord
  2
*D4
  0
BLOCK_RECORD
  5
4B2
330
1
100
AcDbSymbolTableRecord
100
AcDbBlockTableRecord
  2
*D5
  0
BLOCK_RECORD
  5
4BE
330
1
100
AcDbSymbolTableRecord
100
AcDbBlockTableRecord
  2
*D6
  0
BLOCK_RECORD
  5
4CA
330
1
100
AcDbSymbolTableRecord
100
AcDbBlockTableRecord
  2
*D7
  0
BLOCK_RECORD
  5
4D6
330
1
100
AcDbSymbolTableRecord
100
AcDbBlockTableRecord
  2
*D8
  0
BLOCK_RECORD
  5
4E2
330
1
100
AcDbSymbolTableRecord
100
AcDbBlockTableRecord
  2
*D9
  0
BLOCK_RECORD
  5
4EE
330
1
100
AcDbSymbolTableRecord
100
AcDbBlockTableRecord
  2
*D10
  0
BLOCK_RECORD
  5
4FA
330
1
100
AcDbSymbolTableRecord
100
AcDbBlockTableRecord
  2
*D11
  0
BLOCK_RECORD
  5
508
330
1
100
AcDbSymbolTableRecord
100
AcDbBlockTableRecord
  2
*D12
  0
BLOCK_RECORD
  5
516
330
1
100
AcDbSymbolTableRecord
100
AcDbBlockTableRecord
  2
*D13
  0
BLOCK_RECORD
  5
524
330
1
100
AcDbSymbolTableRecord
100
AcDbBlockTableRecord
  2
*D14
  0
BLOCK_RECORD
  5
530
330
1
100
AcDbSymbolTableRecord
100
AcDbBlockTableRecord
  2
*D15
  0
BLOCK_RECORD
  5
53C
330
1
100
AcDbSymbolTableRecord
100
AcDbBlockTableRecord
  2
*D16
  0
BLOCK_RECORD
  5
548
330
1
100
AcDbSymbolTableRecord
100
AcDbBlockTableRecord
  2
*D17
  0
BLOCK_RECORD
  5
554
330
1
100
AcDbSymbolTableRecord
100
AcDbBlockTableRecord
  2
*D18
  0
ENDTAB
  0
ENDSEC
  0
SECTION
  2
BLOCKS
  0
BLOCK
  5
1A
330
19
100
AcDbEntity
  8
0
100
AcDbBlockBegin
  2
*MODEL_SPACE
 70
     0
 10
0.0
 20
0.0
 30
0.0
  3
*MODEL_SPACE
  1

  0
ENDBLK
  5
1B
330
19
100
AcDbEntity
  8
0
100
AcDbBlockEnd
  0
BLOCK
  5
17
330
16
100
AcDbEntity
 67
     1
  8
0
100
AcDbBlockBegin
  2
*PAPER_SPACE
 70
     0
 10
0.0
 20
0.0
 30
0.0
  3
*PAPER_SPACE
  1

  0
ENDBLK
  5
18
330
16
100
AcDbEntity
 67
     1
  8
0
100
AcDbBlockEnd
  0
BLOCK
  5
28
330
27
100
AcDbEntity
  8
0
100
AcDbBlockBegin
  2
_OPEN
 70
     0
 10
0.0
 20
0.0
 30
0.0
  3
_OPEN
  1

  0
LINE
  5
29
330
27
100
AcDbEntity
  8
0
  6
BYBLOCK
 62
     0
100
AcDbLine
 10
-1.0
 20
0.1666666666666666
 30
0.0
 11
0.0
 21
0.0
 31
0.0
  0
LINE
  5
2A
330
27
100
AcDbEntity
  8
0
  6
BYBLOCK
 62
     0
100
AcDbLine
 10
0.0
 20
0.0
 30
0.0
 11
-1.0
 21
-0.1666666666666666
 31
0.0
  0
LINE
  5
2B
330
27
100
AcDbEntity
  8
0
  6
BYBLOCK
 62
     0
100
AcDbLine
 10
0.0
 20
0.0
 30
0.0
 11
-1.0
 21
0.0
 31
0.0
  0
ENDBLK
  5
2C
330
27
100
AcDbEntity
  8
0
100
AcDbBlockEnd
  0
BLOCK
  5
560
330
47B
100
AcDbEntity
  8
0
100
AcDbBlockBegin
  2
*D1
 70
     1
 10
0.0
 20
0.0
 30
0.0
  3
*D1
  1

  0
LINE
  5
561
330
47B
100
AcDbEntity
  8
0
  6
BYBLOCK
 62
     4
100
AcDbLine
 10
806.924380417187
 20
893.315261688572
 30
0.0
 11
880.8605417726411
 21
893.315261688572
 31
0.0
  0
LINE
  5
562
330
47B
100
AcDbEntity
  8
0
  6
BYBLOCK
 62
     4
100
AcDbLine
 10
806.9243032353313
 20
853.3152616886322
 30
0.0
 11
880.8605417726411
 21
853.3152616886322
 31
0.0
  0
LINE
  5
563
330
47B
100
AcDbEntity
  8
0
  6
BYBLOCK
 62
     4
100
AcDbLine
 10
874.8605417726412
 20
879.315261688572
 30
0.0
 11
874.8605417726412
 21
867.3152616886323
 31
0.0
  0
LINE
  5
564
330
47B
100
AcDbEntity
  8
0
  6
BYBLOCK
 62
     4
100
AcDbLine
 10
874.8605417726412
 20
853.3152616886322
 30
0.0
 11
874.8605417726412
 21
808.8420896637385
 31
0.0
  0
INSERT
  5
565
330
47B
100
AcDbEntity
  8
0
  6
BYBLOCK
 62
     4
100
AcDbBlockReference
  2
_OPEN
 10
874.8605417726412
 20
893.315261688572
 30
0.0
 41
14.0
 42
14.0
 43
14.0
 50
90.0
  0
INSERT
  5
566
330
47B
100
AcDbEntity
  8
0
  6
BYBLOCK
 62
     4
100
AcDbBlockReference
  2
_OPEN
 10
874.8605417726412
 20
853.3152616886322
 30
0.0
 41
14.0
 42
14.0
 43
14.0
 50
270.0
  0
MTEXT
  5
567
330
47B
100
AcDbEntity
  8
0
  6
BYBLOCK
 62
     4
100
AcDbMText
 10
864.8605417726413
 20
821.8420896637384
 30
0.0
 40
12.0
 41
0.0
 71
     5
 72
     1
  1
\A1;40
 11
0.0
 21
1.0
 31
0.0
1001
ACAD
1000
MTEXTBEGIN
1070
    73
1070
     1
1070
    44
1040
1.0
1070
    74
1070
     0
1000
MTEXTEND
1000
MTEXTBEGIN
1070
    73
1070
     1
1070
    44
1040
1.0
1070
    74
1070
     0
1000
MTEXTEND
1000
MTEXTBEGIN
1070
    73
1070
     1
1070
    44
1040
1.0
1070
    74
1070
     0
1000
MTEXTEND
  0
POINT
  5
568
330
47B
100
AcDbEntity
  8
DEFPOINTS
  6
BYBLOCK
 62
     0
100
AcDbPoint
 10
794.9243804171869
 20
893.315261688572
 30
0.0
  0
POINT
  5
569
330
47B
100
AcDbEntity
  8
DEFPOINTS
  6
BYBLOCK
 62
     0
100
AcDbPoint
 10
794.9243032353312
 20
853.3152616886322
 30
0.0
  0
POINT
  5
56A
330
47B
100
AcDbEntity
  8
DEFPOINTS
  6
BYBLOCK
 62
     0
100
AcDbPoint
 10
874.8605417726412
 20
853.3152616886322
 30
0.0
  0
ENDBLK
  5
56B
330
47B
100
AcDbEntity
  8
0
100
AcDbBlockEnd
  0
BLOCK
  5
56C
330
488
100
AcDbEntity
  8
0
100
AcDbBlockBegin
  2
*D2
 70
     1
 10
0.0
 20
0.0
 30
0.0
  3
*D2
  1

  0
LINE
  5
56D
330
488
100
AcDbEntity
  8
0
  6
BYBLOCK
 62
     4
100
AcDbLine
 10
805.6699648874809
 20
883.3152651655648
 30
0.0
 11
846.9334369804764
 21
883.3152651655648
 31
0.0
  0
LINE
  5
56E
330
488
100
AcDbEntity
  8
0
  6
BYBLOCK
 62
     4
100
AcDbLine
 10
805.6699281683028
 20
863.3152651655898
 30
0.0
 11
846.9334369804764
 21
863.3152651655898
 31
0.0
  0
LINE
  5
56F
330
488
100
AcDbEntity
  8
0
  6
BYBLOCK
 62
     4
100
AcDbLine
 10
840.9334369804764
 20
897.3152651655649
 30
0.0
 11
840.9334369804764
 21
911.3152651655648
 31
0.0
  0
LINE
  5
570
330
488
100
AcDbEntity
  8
0
  6
BYBLOCK
 62
     4
100
AcDbLine
 10
840.9334369804764
 20
849.3152651655899
 30
0.0
 11
840.9334369804764
 21
809.3152651655898
 31
0.0
  0
LINE
  5
571
330
488
100
AcDbEntity
  8
0
  6
BYBLOCK
 62
     4
100
AcDbLine
 10
840.9334369804764
 20
883.3152651655648
 30
0.0
 11
840.9334369804764
 21
863.3152651655898
 31
0.0
  0
INSERT
  5
572
330
488
100
AcDbEntity
  8
0
  6
BYBLOCK
 62
     4
100
AcDbBlockReference
  2
_OPEN
 10
840.9334369804764
 20
883.3152651655648
 30
0.0
 41
14.0
 42
14.0
 43
14.0
 50
270.0
  0
INSERT
  5
573
330
488
100
AcDbEntity
  8
0
  6
BYBLOCK
 62
     4
100
AcDbBlockReference
  2
_OPEN
 10
840.9334369804764
 20
863.3152651655898
 30
0.0
 41
14.0
 42
14.0
 43
14.0
 50
90.0
  0
MTEXT
  5
574
330
488
100
AcDbEntity
  8
0
  6
BYBLOCK
 62
     4
100
AcDbMText
 10
830.9334369804764
 20
822.3152651655897
 30
0.0
 40
12.0
 41
0.0
 71
     5
 72
     1
  1
\A1;20
 11
0.0
 21
1.0
 31
0.0
1001
ACAD
1000
MTEXTBEGIN
1070
    73
1070
     1
1070
    44
1040
1.0
1070
    74
1070
     0
1000
MTEXTEND
1000
MTEXTBEGIN
1070
    73
1070
     1
1070
    44
1040
1.0
1070
    74
1070
     0
1000
MTEXTEND
1000
MTEXTBEGIN
1070
    73
1070
     1
1070
    44
1040
1.0
1070
    74
1070
     0
1000
MTEXTEND
  0
POINT
  5
575
330
488
100
AcDbEntity
  8
DEFPOINTS
  6
BYBLOCK
 62
     0
100
AcDbPoint
 10
793.6699648874809
 20
883.3152651655648
 30
0.0
  0
POINT
  5
576
330
488
100
AcDbEntity
  8
DEFPOINTS
  6
BYBLOCK
 62
     0
100
AcDbPoint
 10
793.6699281683029
 20
863.3152651655898
 30
0.0
  0
POINT
  5
577
330
488
100
AcDbEntity
  8
DEFPOINTS
  6
BYBLOCK
 62
     0
100
AcDbPoint
 10
840.9334369804764
 20
863.3152651655898
 30
0.0
  0
ENDBLK
  5
578
330
488
100
AcDbEntity
  8
0
100
AcDbBlockEnd
  0
BLOCK
  5
579
330
496
100
AcDbEntity
  8
0
100
AcDbBlockBegin
  2
*D3
 70
     1
 10
0.0
 20
0.0
 30
0.0
  3
*D3
  1

  0
LINE
  5
57A
330
496
100
AcDbEntity
  8
0
  6
BYBLOCK
 62
     4
100
AcDbLine
 10
808.9243087789952
 20
549.0634471877282
 30
0.0
 11
846.9886234198693
 21
549.0634471877282
 31
0.0
  0
LINE
  5
57B
330
496
100
AcDbEntity
  8
0
  6
BYBLOCK
 62
     4
100
AcDbLine
 10
786.1715646356751
 20
514.1753899017102
 30
0.0
 11
846.9886234198693
 21
514.1753899017102
 31
0.0
  0
LINE
  5
57C
330
496
100
AcDbEntity
  8
0
  6
BYBLOCK
 62
     4
100
AcDbLine
 10
840.9886234198692
 20
563.0634471877282
 30
0.0
 11
840.9886234198692
 21
577.0634471877282
 31
0.0
  0
LINE
  5
57D
330
496
100
AcDbEntity
  8
0
  6
BYBLOCK
 62
     4
100
AcDbLine
 10
840.9886234198692
 20
500.1753899017102
 30
0.0
 11
840.9886234198692
 21
486.1753899017101
 31
0.0
  0
LINE
  5
57E
330
496
100
AcDbEntity
  8
0
  6
BYBLOCK
 62
     4
100
AcDbLine
 10
840.9886234198692
 20
549.0634471877282
 30
0.0
 11
840.9886234198692
 21
514.1753899017102
 31
0.0
  0
INSERT
  5
57F
330
496
100
AcDbEntity
  8
0
  6
BYBLOCK
 62
     4
100
AcDbBlockReference
  2
_OPEN
 10
840.9886234198692
 20
549.0634471877282
 30
0.0
 41
14.0
 42
14.0
 43
14.0
 50
270.0
  0
INSERT
  5
580
330
496
100
AcDbEntity
  8
0
  6
BYBLOCK
 62
     4
100
AcDbBlockReference
  2
_OPEN
 10
840.9886234198692
 20
514.1753899017102
 30
0.0
 41
14.0
 42
14.0
 43
14.0
 50
90.0
  0
MTEXT
  5
581
330
496
100
AcDbEntity
  8
0
  6
BYBLOCK
 62
     4
100
AcDbMText
 10
830.9886234198692
 20
531.6194185447192
 30
0.0
 40
12.0
 41
0.0
 71
     5
 72
     1
  1
\A1;35
 11
0.0
 21
1.0
 31
0.0
1001
ACAD
1000
MTEXTBEGIN
1070
    73
1070
     1
1070
    44
1040
1.0
1070
    74
1070
     0
1000
MTEXTEND
1000
MTEXTBEGIN
1070
    73
1070
     1
1070
    44
1040
1.0
1070
    74
1070
     0
1000
MTEXTEND
1000
MTEXTBEGIN
1070
    73
1070
     1
1070
    44
1040
1.0
1070
    74
1070
     0
1000
MTEXTEND
  0
POINT
  5
582
330
496
100
AcDbEntity
  8
DEFPOINTS
  6
BYBLOCK
 62
     0
100
AcDbPoint
 10
796.9243087789952
 20
549.0634471877282
 30
0.0
  0
POINT
  5
583
330
496
100
AcDbEntity
  8
DEFPOINTS
  6
BYBLOCK
 62
     0
100
AcDbPoint
 10
774.1715646356752
 20
514.1753899017102
 30
0.0
  0
POINT
  5
584
330
496
100
AcDbEntity
  8
DEFPOINTS
  6
BYBLOCK
 62
     0
100
AcDbPoint
 10
840.9886234198692
 20
514.1753899017102
 30
0.0
  0
ENDBLK
  5
585
330
496
100
AcDbEntity
  8
0
100
AcDbBlockEnd
  0
BLOCK
  5
586
330
4A4
100
AcDbEntity
  8
0
100
AcDbBlockBegin
  2
*D4
 70
     1
 10
0.0
 20
0.0
 30
0.0
  3
*D4
  1

  0
LINE
  5
587
330
4A4
100
AcDbEntity
  8
0
  6
BYBLOCK
 62
     4
100
AcDbLine
 10
732.3741510657655
 20
364.0634471877282
 30
0.0
 11
846.8081581990581
 21
364.0634471877282
 31
0.0
  0
LINE
  5
588
330
4A4
100
AcDbEntity
  8
0
  6
BYBLOCK
 62
     4
100
AcDbLine
 10
733.9739510657655
 20
389.0634471877282
 30
0.0
 11
846.8081581990581
 21
389.0634471877282
 31
0.0
  0
LINE
  5
589
330
4A4
100
AcDbEntity
  8
0
  6
BYBLOCK
 62
     4
100
AcDbLine
 10
840.8081581990582
 20
403.0634471877283
 30
0.0
 11
840.8081581990582
 21
417.0634471877282
 31
0.0
  0
LINE
  5
58A
330
4A4
100
AcDbEntity
  8
0
  6
BYBLOCK
 62
     4
100
AcDbLine
 10
840.8081581990582
 20
350.0634471877282
 30
0.0
 11
840.8081581990582
 21
293.2663256154632
 31
0.0
  0
LINE
  5
58B
330
4A4
100
AcDbEntity
  8
0
  6
BYBLOCK
 62
     4
100
AcDbLine
 10
840.8081581990582
 20
389.0634471877282
 30
0.0
 11
840.8081581990582
 21
364.0634471877282
 31
0.0
  0
INSERT
  5
58C
330
4A4
100
AcDbEntity
  8
0
  6
BYBLOCK
 62
     4
100
AcDbBlockReference
  2
_OPEN
 10
840.8081581990582
 20
389.0634471877282
 30
0.0
 41
14.0
 42
14.0
 43
14.0
 50
270.0
  0
INSERT
  5
58D
330
4A4
100
AcDbEntity
  8
0
  6
BYBLOCK
 62
     4
100
AcDbBlockReference
  2
_OPEN
 10
840.8081581990582
 20
364.0634471877282
 30
0.0
 41
14.0
 42
14.0
 43
14.0
 50
90.0
  0
MTEXT
  5
58E
330
4A4
100
AcDbEntity
  8
0
  6
BYBLOCK
 62
     4
100
AcDbMText
 10
830.8081581990581
 20
307.2663256154632
 30
0.0
 40
12.0
 41
0.0
 71
     5
 72
     1
  1
\A1;25
 11
0.0
 21
1.0
 31
0.0
1001
ACAD
1000
MTEXTBEGIN
1070
    73
1070
     1
1070
    44
1040
1.0
1070
    74
1070
     0
1000
MTEXTEND
1000
MTEXTBEGIN
1070
    73
1070
     1
1070
    44
1040
1.0
1070
    74
1070
     0
1000
MTEXTEND
1000
MTEXTBEGIN
1070
    73
1070
     1
1070
    44
1040
1.0
1070
    74
1070
     0
1000
MTEXTEND
  0
POINT
  5
58F
330
4A4
100
AcDbEntity
  8
DEFPOINTS
  6
BYBLOCK
 62
     0
100
AcDbPoint
 10
720.3741510657655
 20
364.0634471877282
 30
0.0
  0
POINT
  5
590
330
4A4
100
AcDbEntity
  8
DEFPOINTS
  6
BYBLOCK
 62
     0
100
AcDbPoint
 10
721.9739510657655
 20
389.0634471877282
 30
0.0
  0
POINT
  5
591
330
4A4
100
AcDbEntity
  8
DEFPOINTS
  6
BYBLOCK
 62
     0
100
AcDbPoint
 10
840.8081581990582
 20
389.0634471877282
 30
0.0
  0
ENDBLK
  5
592
330
4A4
100
AcDbEntity
  8
0
100
AcDbBlockEnd
  0
BLOCK
  5
593
330
4B2
100
AcDbEntity
  8
0
100
AcDbBlockBegin
  2
*D5
 70
     1
 10
0.0
 20
0.0
 30
0.0
  3
*D5
  1

  0
LINE
  5
594
330
4B2
100
AcDbEntity
  8
0
  6
BYBLOCK
 62
     4
100
AcDbLine
 10
791.4244510657653
 20
935.3154471877283
 30
0.0
 11
918.3877443472166
 21
935.3154471877283
 31
0.0
  0
LINE
  5
595
330
4B2
100
AcDbEntity
  8
0
  6
BYBLOCK
 62
     4
100
AcDbLine
 10
815.9243418266148
 20
873.3154471877282
 30
0.0
 11
918.3877443472166
 21
873.3154471877282
 31
0.0
  0
LINE
  5
596
330
4B2
100
AcDbEntity
  8
0
  6
BYBLOCK
 62
     4
100
AcDbLine
 10
912.3877443472165
 20
921.3154471877283
 30
0.0
 11
912.3877443472165
 21
887.3154471877283
 31
0.0
  0
INSERT
  5
597
330
4B2
100
AcDbEntity
  8
0
  6
BYBLOCK
 62
     4
100
AcDbBlockReference
  2
_OPEN
 10
912.3877443472165
 20
935.3154471877283
 30
0.0
 41
14.0
 42
14.0
 43
14.0
 50
90.0
  0
INSERT
  5
598
330
4B2
100
AcDbEntity
  8
0
  6
BYBLOCK
 62
     4
100
AcDbBlockReference
  2
_OPEN
 10
912.3877443472165
 20
873.3154471877282
 30
0.0
 41
14.0
 42
14.0
 43
14.0
 50
270.0
  0
MTEXT
  5
599
330
4B2
100
AcDbEntity
  8
0
  6
BYBLOCK
 62
     4
100
AcDbMText
 10
902.3877443472166
 20
901.3154471877284
 30
0.0
 40
12.0
 41
0.0
 71
     5
 72
     1
  1
\A1;62
 11
0.0
 21
1.0
 31
0.0
1001
ACAD
1000
MTEXTBEGIN
1070
    73
1070
     1
1070
    44
1040
1.0
1070
    74
1070
     0
1000
MTEXTEND
1000
MTEXTBEGIN
1070
    73
1070
     1
1070
    44
1040
1.0
1070
    74
1070
     0
1000
MTEXTEND
1000
MTEXTBEGIN
1070
    73
1070
     1
1070
    44
1040
1.0
1070
    74
1070
     0
1000
MTEXTEND
  0
POINT
  5
59A
330
4B2
100
AcDbEntity
  8
DEFPOINTS
  6
BYBLOCK
 62
     0
100
AcDbPoint
 10
779.4244510657654
 20
935.3154471877283
 30
0.0
  0
POINT
  5
59B
330
4B2
100
AcDbEntity
  8
DEFPOINTS
  6
BYBLOCK
 62
     0
100
AcDbPoint
 10
803.9243418266149
 20
873.3154471877282
 30
0.0
  0
POINT
  5
59C
330
4B2
100
AcDbEntity
  8
DEFPOINTS
  6
BYBLOCK
 62
     0
100
AcDbPoint
 10
912.3877443472165
 20
873.3154471877282
 30
0.0
  0
ENDBLK
  5
59D
330
4B2
100
AcDbEntity
  8
0
100
AcDbBlockEnd
  0
BLOCK
  5
59E
330
4BE
100
AcDbEntity
  8
0
100
AcDbBlockBegin
  2
*D6
 70
     1
 10
0.0
 20
0.0
 30
0.0
  3
*D6
  1

  0
LINE
  5
59F
330
4BE
100
AcDbEntity
  8
0
  6
BYBLOCK
 62
     4
100
AcDbLine
 10
808.9243087789952
 20
549.0634471877282
 30
0.0
 11
929.6805864262969
 21
549.0634471877282
 31
0.0
  0
LINE
  5
5A0
330
4BE
100
AcDbEntity
  8
0
  6
BYBLOCK
 62
     4
100
AcDbLine
 10
730.2240510657655
 20
339.0634471877282
 30
0.0
 11
929.6805864262969
 21
339.0634471877282
 31
0.0
  0
LINE
  5
5A1
330
4BE
100
AcDbEntity
  8
0
  6
BYBLOCK
 62
     4
100
AcDbLine
 10
923.6805864262969
 20
535.0634471877282
 30
0.0
 11
923.6805864262969
 21
353.0634471877283
 31
0.0
  0
INSERT
  5
5A2
330
4BE
100
AcDbEntity
  8
0
  6
BYBLOCK
 62
     4
100
AcDbBlockReference
  2
_OPEN
 10
923.6805864262969
 20
549.0634471877282
 30
0.0
 41
14.0
 42
14.0
 43
14.0
 50
90.0
  0
INSERT
  5
5A3
330
4BE
100
AcDbEntity
  8
0
  6
BYBLOCK
 62
     4
100
AcDbBlockReference
  2
_OPEN
 10
923.6805864262969
 20
339.0634471877282
 30
0.0
 41
14.0
 42
14.0
 43
14.0
 50
270.0
  0
MTEXT
  5
5A4
330
4BE
100
AcDbEntity
  8
0
  6
BYBLOCK
 62
     4
100
AcDbMText
 10
913.6805864262969
 20
444.0634471877282
 30
0.0
 40
12.0
 41
0.0
 71
     5
 72
     1
  1
\A1;210
 11
0.0
 21
1.0
 31
0.0
1001
ACAD
1000
MTEXTBEGIN
1070
    73
1070
     1
1070
    44
1040
1.0
1070
    74
1070
     0
1000
MTEXTEND
1000
MTEXTBEGIN
1070
    73
1070
     1
1070
    44
1040
1.0
1070
    74
1070
     0
1000
MTEXTEND
1000
MTEXTBEGIN
1070
    73
1070
     1
1070
    44
1040
1.0
1070
    74
1070
     0
1000
MTEXTEND
  0
POINT
  5
5A5
330
4BE
100
AcDbEntity
  8
DEFPOINTS
  6
BYBLOCK
 62
     0
100
AcDbPoint
 10
796.9243087789952
 20
549.0634471877282
 30
0.0
  0
POINT
  5
5A6
330
4BE
100
AcDbEntity
  8
DEFPOINTS
  6
BYBLOCK
 62
     0
100
AcDbPoint
 10
718.2240510657655
 20
339.0634471877282
 30
0.0
  0
POINT
  5
5A7
330
4BE
100
AcDbEntity
  8
DEFPOINTS
  6
BYBLOCK
 62
     0
100
AcDbPoint
 10
923.6805864262969
 20
339.0634471877282
 30
0.0
  0
ENDBLK
  5
5A8
330
4BE
100
AcDbEntity
  8
0
100
AcDbBlockEnd
  0
BLOCK
  5
5A9
330
4CA
100
AcDbEntity
  8
0
100
AcDbBlockBegin
  2
*D7
 70
     1
 10
0.0
 20
0.0
 30
0.0
  3
*D7
  1

  0
LINE
  5
5AA
330
4CA
100
AcDbEntity
  8
0
  6
BYBLOCK
 62
     4
100
AcDbLine
 10
808.9243087789952
 20
549.0634471877282
 30
0.0
 11
888.1280029407534
 21
549.0634471877282
 31
0.0
  0
LINE
  5
5AB
330
4CA
100
AcDbEntity
  8
0
  6
BYBLOCK
 62
     4
100
AcDbLine
 10
733.9739510657655
 20
389.0634471877282
 30
0.0
 11
888.1280029407534
 21
389.0634471877282
 31
0.0
  0
LINE
  5
5AC
330
4CA
100
AcDbEntity
  8
0
  6
BYBLOCK
 62
     4
100
AcDbLine
 10
882.1280029407535
 20
535.0634471877282
 30
0.0
 11
882.1280029407535
 21
403.0634471877283
 31
0.0
  0
INSERT
  5
5AD
330
4CA
100
AcDbEntity
  8
0
  6
BYBLOCK
 62
     4
100
AcDbBlockReference
  2
_OPEN
 10
882.1280029407535
 20
549.0634471877282
 30
0.0
 41
14.0
 42
14.0
 43
14.0
 50
90.0
  0
INSERT
  5
5AE
330
4CA
100
AcDbEntity
  8
0
  6
BYBLOCK
 62
     4
100
AcDbBlockReference
  2
_OPEN
 10
882.1280029407535
 20
389.0634471877282
 30
0.0
 41
14.0
 42
14.0
 43
14.0
 50
270.0
  0
MTEXT
  5
5AF
330
4CA
100
AcDbEntity
  8
0
  6
BYBLOCK
 62
     4
100
AcDbMText
 10
872.1280029407536
 20
469.0634471877282
 30
0.0
 40
12.0
 41
0.0
 71
     5
 72
     1
  1
\A1;160
 11
0.0
 21
1.0
 31
0.0
1001
ACAD
1000
MTEXTBEGIN
1070
    73
1070
     1
1070
    44
1040
1.0
1070
    74
1070
     0
1000
MTEXTEND
1000
MTEXTBEGIN
1070
    73
1070
     1
1070
    44
1040
1.0
1070
    74
1070
     0
1000
MTEXTEND
1000
MTEXTBEGIN
1070
    73
1070
     1
1070
    44
1040
1.0
1070
    74
1070
     0
1000
MTEXTEND
  0
POINT
  5
5B0
330
4CA
100
AcDbEntity
  8
DEFPOINTS
  6
BYBLOCK
 62
     0
100
AcDbPoint
 10
796.9243087789952
 20
549.0634471877282
 30
0.0
  0
POINT
  5
5B1
330
4CA
100
AcDbEntity
  8
DEFPOINTS
  6
BYBLOCK
 62
     0
100
AcDbPoint
 10
721.9739510657655
 20
389.0634471877282
 30
0.0
  0
POINT
  5
5B2
330
4CA
100
AcDbEntity
  8
DEFPOINTS
  6
BYBLOCK
 62
     0
100
AcDbPoint
 10
882.1280029407535
 20
389.0634471877282
 30
0.0
  0
ENDBLK
  5
5B3
330
4CA
100
AcDbEntity
  8
0
100
AcDbBlockEnd
  0
BLOCK
  5
5B4
330
4D6
100
AcDbEntity
  8
0
100
AcDbBlockBegin
  2
*D8
 70
     1
 10
0.0
 20
0.0
 30
0.0
  3
*D8
  1

  0
LINE
  5
5B5
330
4D6
100
AcDbEntity
  8
0
  6
BYBLOCK
 62
     4
100
AcDbLine
 10
796.9243087789952
 20
561.0634471877282
 30
0.0
 11
796.9243087789952
 21
665.2320553960517
 31
0.0
  0
LINE
  5
5B6
330
4D6
100
AcDbEntity
  8
0
  6
BYBLOCK
 62
     4
100
AcDbLine
 10
586.9240913542468
 20
561.0634471877282
 30
0.0
 11
586.9240913542468
 21
665.2320553960517
 31
0.0
  0
LINE
  5
5B7
330
4D6
100
AcDbEntity
  8
0
  6
BYBLOCK
 62
     4
100
AcDbLine
 10
782.9243087789953
 20
659.2320553960517
 30
0.0
 11
600.9240913542469
 21
659.2320553960517
 31
0.0
  0
INSERT
  5
5B8
330
4D6
100
AcDbEntity
  8
0
  6
BYBLOCK
 62
     4
100
AcDbBlockReference
  2
_OPEN
 10
796.9243087789952
 20
659.2320553960517
 30
0.0
 41
14.0
 42
14.0
 43
14.0
  0
INSERT
  5
5B9
330
4D6
100
AcDbEntity
  8
0
  6
BYBLOCK
 62
     4
100
AcDbBlockReference
  2
_OPEN
 10
586.9240913542468
 20
659.2320553960517
 30
0.0
 41
14.0
 42
14.0
 43
14.0
 50
180.0
  0
MTEXT
  5
5BA
330
4D6
100
AcDbEntity
  8
0
  6
BYBLOCK
 62
     4
100
AcDbMText
 10
691.924200066621
 20
669.2320553960517
 30
0.0
 40
12.0
 41
0.0
 71
     5
 72
     1
  1
\A1;210
1001
ACAD
1000
MTEXTBEGIN
1070
    73
1070
     1
1070
    44
1040
1.0
1070
    74
1070
     0
1000
MTEXTEND
1000
MTEXTBEGIN
1070
    73
1070
     1
1070
    44
1040
1.0
1070
    74
1070
     0
1000
MTEXTEND
1000
MTEXTBEGIN
1070
    73
1070
     1
1070
    44
1040
1.0
1070
    74
1070
     0
1000
MTEXTEND
  0
POINT
  5
5BB
330
4D6
100
AcDbEntity
  8
DEFPOINTS
  6
BYBLOCK
 62
     0
100
AcDbPoint
 10
796.9243087789952
 20
549.0634471877282
 30
0.0
  0
POINT
  5
5BC
330
4D6
100
AcDbEntity
  8
DEFPOINTS
  6
BYBLOCK
 62
     0
100
AcDbPoint
 10
586.9240913542468
 20
549.0634471877282
 30
0.0
  0
POINT
  5
5BD
330
4D6
100
AcDbEntity
  8
DEFPOINTS
  6
BYBLOCK
 62
     0
100
AcDbPoint
 10
586.9240913542468
 20
659.2320553960517
 30
0.0
  0
ENDBLK
  5
5BE
330
4D6
100
AcDbEntity
  8
0
100
AcDbBlockEnd
  0
BLOCK
  5
5BF
330
4E2
100
AcDbEntity
  8
0
100
AcDbBlockBegin
  2
*D9
 70
     1
 10
0.0
 20
0.0
 30
0.0
  3
*D9
  1

  0
LINE
  5
5C0
330
4E2
100
AcDbEntity
  8
0
  6
BYBLOCK
 62
     4
100
AcDbLine
 10
781.9243510657654
 20
561.0634471877282
 30
0.0
 11
781.9243510657654
 21
625.2306414346312
 31
0.0
  0
LINE
  5
5C1
330
4E2
100
AcDbEntity
  8
0
  6
BYBLOCK
 62
     4
100
AcDbLine
 10
601.9236510657655
 20
561.0634471877282
 30
0.0
 11
601.9236510657655
 21
625.2306414346312
 31
0.0
  0
LINE
  5
5C2
330
4E2
100
AcDbEntity
  8
0
  6
BYBLOCK
 62
     4
100
AcDbLine
 10
767.9243510657654
 20
619.2306414346312
 30
0.0
 11
615.9236510657656
 21
619.2306414346312
 31
0.0
  0
INSERT
  5
5C3
330
4E2
100
AcDbEntity
  8
0
  6
BYBLOCK
 62
     4
100
AcDbBlockReference
  2
_OPEN
 10
781.9243510657654
 20
619.2306414346312
 30
0.0
 41
14.0
 42
14.0
 43
14.0
  0
INSERT
  5
5C4
330
4E2
100
AcDbEntity
  8
0
  6
BYBLOCK
 62
     4
100
AcDbBlockReference
  2
_OPEN
 10
601.9236510657655
 20
619.2306414346312
 30
0.0
 41
14.0
 42
14.0
 43
14.0
 50
180.0
  0
MTEXT
  5
5C5
330
4E2
100
AcDbEntity
  8
0
  6
BYBLOCK
 62
     4
100
AcDbMText
 10
691.9240010657655
 20
629.2306414346312
 30
0.0
 40
12.0
 41
0.0
 71
     5
 72
     1
  1
\A1;180
1001
ACAD
1000
MTEXTBEGIN
1070
    73
1070
     1
1070
    44
1040
1.0
1070
    74
1070
     0
1000
MTEXTEND
1000
MTEXTBEGIN
1070
    73
1070
     1
1070
    44
1040
1.0
1070
    74
1070
     0
1000
MTEXTEND
1000
MTEXTBEGIN
1070
    73
1070
     1
1070
    44
1040
1.0
1070
    74
1070
     0
1000
MTEXTEND
  0
POINT
  5
5C6
330
4E2
100
AcDbEntity
  8
DEFPOINTS
  6
BYBLOCK
 62
     0
100
AcDbPoint
 10
781.9243510657654
 20
549.0634471877282
 30
0.0
  0
POINT
  5
5C7
330
4E2
100
AcDbEntity
  8
DEFPOINTS
  6
BYBLOCK
 62
     0
100
AcDbPoint
 10
601.9236510657655
 20
549.0634471877282
 30
0.0
  0
POINT
  5
5C8
330
4E2
100
AcDbEntity
  8
DEFPOINTS
  6
BYBLOCK
 62
     0
100
AcDbPoint
 10
601.9236510657655
 20
619.2306414346312
 30
0.0
  0
ENDBLK
  5
5C9
330
4E2
100
AcDbEntity
  8
0
100
AcDbBlockEnd
  0
BLOCK
  5
5CA
330
4EE
100
AcDbEntity
  8
0
100
AcDbBlockBegin
  2
*D10
 70
     1
 10
0.0
 20
0.0
 30
0.0
  3
*D10
  1

  0
LINE
  5
5CB
330
4EE
100
AcDbEntity
  8
0
  6
BYBLOCK
 62
     4
100
AcDbLine
 10
751.9240907714056
 20
382.0634471877283
 30
0.0
 11
751.9240907714056
 21
208.0239058386346
 31
0.0
  0
LINE
  5
5CC
330
4EE
100
AcDbEntity
  8
0
  6
BYBLOCK
 62
     4
100
AcDbLine
 10
631.9239136443593
 20
382.0634471877283
 30
0.0
 11
631.9239136443593
 21
208.0239058386346
 31
0.0
  0
LINE
  5
5CD
330
4EE
100
AcDbEntity
  8
0
  6
BYBLOCK
 62
     4
100
AcDbLine
 10
737.9240907714056
 20
214.0239058386346
 30
0.0
 11
645.9239136443593
 21
214.0239058386346
 31
0.0
  0
INSERT
  5
5CE
330
4EE
100
AcDbEntity
  8
0
  6
BYBLOCK
 62
     4
100
AcDbBlockReference
  2
_OPEN
 10
751.9240907714056
 20
214.0239058386346
 30
0.0
 41
14.0
 42
14.0
 43
14.0
  0
INSERT
  5
5CF
330
4EE
100
AcDbEntity
  8
0
  6
BYBLOCK
 62
     4
100
AcDbBlockReference
  2
_OPEN
 10
631.9239136443593
 20
214.0239058386346
 30
0.0
 41
14.0
 42
14.0
 43
14.0
 50
180.0
  0
MTEXT
  5
5D0
330
4EE
100
AcDbEntity
  8
0
  6
BYBLOCK
 62
     4
100
AcDbMText
 10
691.9240022078825
 20
224.0239058386346
 30
0.0
 40
12.0
 41
0.0
 71
     5
 72
     1
  1
\A1;120
1001
ACAD
1000
MTEXTBEGIN
1070
    73
1070
     1
1070
    44
1040
1.0
1070
    74
1070
     0
1000
MTEXTEND
1000
MTEXTBEGIN
1070
    73
1070
     1
1070
    44
1040
1.0
1070
    74
1070
     0
1000
MTEXTEND
1000
MTEXTBEGIN
1070
    73
1070
     1
1070
    44
1040
1.0
1070
    74
1070
     0
1000
MTEXTEND
  0
POINT
  5
5D1
330
4EE
100
AcDbEntity
  8
DEFPOINTS
  6
BYBLOCK
 62
     0
100
AcDbPoint
 10
751.9240907714056
 20
394.0634471877282
 30
0.0
  0
POINT
  5
5D2
330
4EE
100
AcDbEntity
  8
DEFPOINTS
  6
BYBLOCK
 62
     0
100
AcDbPoint
 10
631.9239136443593
 20
394.0634471877282
 30
0.0
  0
POINT
  5
5D3
330
4EE
100
AcDbEntity
  8
DEFPOINTS
  6
BYBLOCK
 62
     0
100
AcDbPoint
 10
631.9239136443593
 20
214.0239058386346
 30
0.0
  0
ENDBLK
  5
5D4
330
4EE
100
AcDbEntity
  8
0
100
AcDbBlockEnd
  0
BLOCK
  5
5D5
330
4FA
100
AcDbEntity
  8
0
100
AcDbBlockBegin
  2
*D11
 70
     1
 10
0.0
 20
0.0
 30
0.0
  3
*D11
  1

  0
LINE
  5
5D6
330
4FA
100
AcDbEntity
  8
0
  6
BYBLOCK
 62
     4
100
AcDbLine
 10
720.3741510657655
 20
352.0634471877282
 30
0.0
 11
720.3741510657655
 21
245.5641251758716
 31
0.0
  0
LINE
  5
5D7
330
4FA
100
AcDbEntity
  8
0
  6
BYBLOCK
 62
     4
100
AcDbLine
 10
663.4739510657655
 20
352.0634471877282
 30
0.0
 11
663.4739510657655
 21
245.5641251758716
 31
0.0
  0
LINE
  5
5D8
330
4FA
100
AcDbEntity
  8
0
  6
BYBLOCK
 62
     4
100
AcDbLine
 10
734.3741510657655
 20
251.5641251758716
 30
0.0
 11
748.3741510657655
 21
251.5641251758716
 31
0.0
  0
LINE
  5
5D9
330
4FA
100
AcDbEntity
  8
0
  6
BYBLOCK
 62
     4
100
AcDbLine
 10
649.4739510657654
 20
251.5641251758716
 30
0.0
 11
635.4739510657655
 21
251.5641251758716
 31
0.0
  0
LINE
  5
5DA
330
4FA
100
AcDbEntity
  8
0
  6
BYBLOCK
 62
     4
100
AcDbLine
 10
720.3741510657655
 20
251.5641251758716
 30
0.0
 11
663.4739510657655
 21
251.5641251758716
 31
0.0
  0
INSERT
  5
5DB
330
4FA
100
AcDbEntity
  8
0
  6
BYBLOCK
 62
     4
100
AcDbBlockReference
  2
_OPEN
 10
720.3741510657655
 20
251.5641251758716
 30
0.0
 41
14.0
 42
14.0
 43
14.0
 50
180.0
  0
INSERT
  5
5DC
330
4FA
100
AcDbEntity
  8
0
  6
BYBLOCK
 62
     4
100
AcDbBlockReference
  2
_OPEN
 10
663.4739510657655
 20
251.5641251758716
 30
0.0
 41
14.0
 42
14.0
 43
14.0
  0
MTEXT
  5
5DD
330
4FA
100
AcDbEntity
  8
0
  6
BYBLOCK
 62
     4
100
AcDbMText
 10
691.9240510657655
 20
261.5641251758716
 30
0.0
 40
12.0
 41
0.0
 71
     5
 72
     1
  1
\A1;φ57
1001
ACAD
1000
MTEXTBEGIN
1070
    73
1070
     1
1070
    44
1040
1.0
1070
    74
1070
     0
1000
MTEXTEND
1000
MTEXTBEGIN
1070
    73
1070
     1
1070
    44
1040
1.0
1070
    74
1070
     0
1000
MTEXTEND
1000
MTEXTBEGIN
1070
    73
1070
     1
1070
    44
1040
1.0
1070
    74
1070
     0
1000
MTEXTEND
  0
POINT
  5
5DE
330
4FA
100
AcDbEntity
  8
DEFPOINTS
  6
BYBLOCK
 62
     0
100
AcDbPoint
 10
720.3741510657655
 20
364.0634471877282
 30
0.0
  0
POINT
  5
5DF
330
4FA
100
AcDbEntity
  8
DEFPOINTS
  6
BYBLOCK
 62
     0
100
AcDbPoint
 10
663.4739510657655
 20
364.0634471877282
 30
0.0
  0
POINT
  5
5E0
330
4FA
100
AcDbEntity
  8
DEFPOINTS
  6
BYBLOCK
 62
     0
100
AcDbPoint
 10
663.4739510657655
 20
251.5641251758716
 30
0.0
  0
ENDBLK
  5
5E1
330
4FA
100
AcDbEntity
  8
0
100
AcDbBlockEnd
  0
BLOCK
  5
5E2
330
508
100
AcDbEntity
  8
0
100
AcDbBlockBegin
  2
*D12
 70
     1
 10
0.0
 20
0.0
 30
0.0
  3
*D12
  1

  0
LINE
  5
5E3
330
508
100
AcDbEntity
  8
0
  6
BYBLOCK
 62
     4
100
AcDbLine
 10
718.2240510657655
 20
327.0634471877282
 30
0.0
 11
718.2240510657655
 21
283.6891066888942
 31
0.0
  0
LINE
  5
5E4
330
508
100
AcDbEntity
  8
0
  6
BYBLOCK
 62
     4
100
AcDbLine
 10
665.6239510657655
 20
327.0634471877282
 30
0.0
 11
665.6239510657655
 21
283.6891066888942
 31
0.0
  0
LINE
  5
5E5
330
508
100
AcDbEntity
  8
0
  6
BYBLOCK
 62
     4
100
AcDbLine
 10
732.2240510657654
 20
289.6891066888942
 30
0.0
 11
746.2240510657655
 21
289.6891066888942
 31
0.0
  0
LINE
  5
5E6
330
508
100
AcDbEntity
  8
0
  6
BYBLOCK
 62
     4
100
AcDbLine
 10
651.6239510657656
 20
289.6891066888942
 30
0.0
 11
637.6239510657655
 21
289.6891066888942
 31
0.0
  0
LINE
  5
5E7
330
508
100
AcDbEntity
  8
0
  6
BYBLOCK
 62
     4
100
AcDbLine
 10
718.2240510657655
 20
289.6891066888942
 30
0.0
 11
665.6239510657655
 21
289.6891066888942
 31
0.0
  0
INSERT
  5
5E8
330
508
100
AcDbEntity
  8
0
  6
BYBLOCK
 62
     4
100
AcDbBlockReference
  2
_OPEN
 10
718.2240510657655
 20
289.6891066888942
 30
0.0
 41
14.0
 42
14.0
 43
14.0
 50
180.0
  0
INSERT
  5
5E9
330
508
100
AcDbEntity
  8
0
  6
BYBLOCK
 62
     4
100
AcDbBlockReference
  2
_OPEN
 10
665.6239510657655
 20
289.6891066888942
 30
0.0
 41
14.0
 42
14.0
 43
14.0
  0
MTEXT
  5
5EA
330
508
100
AcDbEntity
  8
0
  6
BYBLOCK
 62
     4
100
AcDbMText
 10
691.9240010657655
 20
299.6891066888943
 30
0.0
 40
12.0
 41
0.0
 71
     5
 72
     1
  1
\A1;φ53
1001
ACAD
1000
MTEXTBEGIN
1070
    73
1070
     1
1070
    44
1040
1.0
1070
    74
1070
     0
1000
MTEXTEND
1000
MTEXTBEGIN
1070
    73
1070
     1
1070
    44
1040
1.0
1070
    74
1070
     0
1000
MTEXTEND
1000
MTEXTBEGIN
1070
    73
1070
     1
1070
    44
1040
1.0
1070
    74
1070
     0
1000
MTEXTEND
  0
POINT
  5
5EB
330
508
100
AcDbEntity
  8
DEFPOINTS
  6
BYBLOCK
 62
     0
100
AcDbPoint
 10
718.2240510657655
 20
339.0634471877282
 30
0.0
  0
POINT
  5
5EC
330
508
100
AcDbEntity
  8
DEFPOINTS
  6
BYBLOCK
 62
     0
100
AcDbPoint
 10
665.6239510657655
 20
339.0634471877282
 30
0.0
  0
POINT
  5
5ED
330
508
100
AcDbEntity
  8
DEFPOINTS
  6
BYBLOCK
 62
     0
100
AcDbPoint
 10
665.6239510657655
 20
289.6891066888942
 30
0.0
  0
ENDBLK
  5
5EE
330
508
100
AcDbEntity
  8
0
100
AcDbBlockEnd
  0
BLOCK
  5
5EF
330
516
100
AcDbEntity
  8
0
100
AcDbBlockBegin
  2
*D13
 70
     1
 10
0.0
 20
0.0
 30
0.0
  3
*D13
  1

  0
LINE
  5
5F0
330
516
100
AcDbEntity
  8
0
  6
BYBLOCK
 62
     4
100
AcDbLine
 10
730.2240510657655
 20
339.0634471877282
 30
0.0
 11
804.6703216587683
 21
339.0634471877282
 31
0.0
  0
LINE
  5
5F1
330
516
100
AcDbEntity
  8
0
  6
BYBLOCK
 62
     4
100
AcDbLine
 10
732.3741510657655
 20
364.0634471877282
 30
0.0
 11
804.6703216587683
 21
364.0634471877282
 31
0.0
  0
LINE
  5
5F2
330
516
100
AcDbEntity
  8
0
  6
BYBLOCK
 62
     4
100
AcDbLine
 10
798.6703216587685
 20
378.0634471877283
 30
0.0
 11
798.6703216587685
 21
392.0634471877282
 31
0.0
  0
LINE
  5
5F3
330
516
100
AcDbEntity
  8
0
  6
BYBLOCK
 62
     4
100
AcDbLine
 10
798.6703216587685
 20
325.0634471877282
 30
0.0
 11
798.6703216587685
 21
293.0634471877283
 31
0.0
  0
LINE
  5
5F4
330
516
100
AcDbEntity
  8
0
  6
BYBLOCK
 62
     4
100
AcDbLine
 10
798.6703216587685
 20
364.0634471877282
 30
0.0
 11
798.6703216587685
 21
339.0634471877282
 31
0.0
  0
INSERT
  5
5F5
330
516
100
AcDbEntity
  8
0
  6
BYBLOCK
 62
     4
100
AcDbBlockReference
  2
_OPEN
 10
798.6703216587685
 20
364.0634471877282
 30
0.0
 41
14.0
 42
14.0
 43
14.0
 50
270.0
  0
INSERT
  5
5F6
330
516
100
AcDbEntity
  8
0
  6
BYBLOCK
 62
     4
100
AcDbBlockReference
  2
_OPEN
 10
798.6703216587685
 20
339.0634471877282
 30
0.0
 41
14.0
 42
14.0
 43
14.0
 50
90.0
  0
MTEXT
  5
5F7
330
516
100
AcDbEntity
  8
0
  6
BYBLOCK
 62
     4
100
AcDbMText
 10
788.6703216587684
 20
307.0634471877283
 30
0.0
 40
12.0
 41
0.0
 71
     5
 72
     1
  1
\A1;25
 11
0.0
 21
1.0
 31
0.0
1001
ACAD
1000
MTEXTBEGIN
1070
    73
1070
     1
1070
    44
1040
1.0
1070
    74
1070
     0
1000
MTEXTEND
1000
MTEXTBEGIN
1070
    73
1070
     1
1070
    44
1040
1.0
1070
    74
1070
     0
1000
MTEXTEND
1000
MTEXTBEGIN
1070
    73
1070
     1
1070
    44
1040
1.0
1070
    74
1070
     0
1000
MTEXTEND
  0
POINT
  5
5F8
330
516
100
AcDbEntity
  8
DEFPOINTS
  6
BYBLOCK
 62
     0
100
AcDbPoint
 10
718.2240510657655
 20
339.0634471877282
 30
0.0
  0
POINT
  5
5F9
330
516
100
AcDbEntity
  8
DEFPOINTS
  6
BYBLOCK
 62
     0
100
AcDbPoint
 10
720.3741510657655
 20
364.0634471877282
 30
0.0
  0
POINT
  5
5FA
330
516
100
AcDbEntity
  8
DEFPOINTS
  6
BYBLOCK
 62
     0
100
AcDbPoint
 10
798.6703216587685
 20
364.0634471877282
 30
0.0
  0
ENDBLK
  5
5FB
330
516
100
AcDbEntity
  8
0
100
AcDbBlockEnd
  0
BLOCK
  5
5FC
330
524
100
AcDbEntity
  8
0
100
AcDbBlockBegin
  2
*D14
 70
     1
 10
0.0
 20
0.0
 30
0.0
  3
*D14
  1

  0
LINE
  5
5FD
330
524
100
AcDbEntity
  8
0
  6
BYBLOCK
 62
     4
100
AcDbLine
 10
771.9243510657654
 20
532.5634471877282
 30
0.0
 11
771.9243510657654
 21
589.109633482165
 31
0.0
  0
LINE
  5
5FE
330
524
100
AcDbEntity
  8
0
  6
BYBLOCK
 62
     4
100
AcDbLine
 10
611.9235510657656
 20
532.5634471877282
 30
0.0
 11
611.9235510657656
 21
589.109633482165
 31
0.0
  0
LINE
  5
5FF
330
524
100
AcDbEntity
  8
0
  6
BYBLOCK
 62
     4
100
AcDbLine
 10
757.9243510657654
 20
583.109633482165
 30
0.0
 11
625.9235510657656
 21
583.109633482165
 31
0.0
  0
INSERT
  5
600
330
524
100
AcDbEntity
  8
0
  6
BYBLOCK
 62
     4
100
AcDbBlockReference
  2
_OPEN
 10
771.9243510657654
 20
583.109633482165
 30
0.0
 41
14.0
 42
14.0
 43
14.0
  0
INSERT
  5
601
330
524
100
AcDbEntity
  8
0
  6
BYBLOCK
 62
     4
100
AcDbBlockReference
  2
_OPEN
 10
611.9235510657656
 20
583.109633482165
 30
0.0
 41
14.0
 42
14.0
 43
14.0
 50
180.0
  0
MTEXT
  5
602
330
524
100
AcDbEntity
  8
0
  6
BYBLOCK
 62
     4
100
AcDbMText
 10
691.9239510657655
 20
593.109633482165
 30
0.0
 40
12.0
 41
0.0
 71
     5
 72
     1
  1
\A1;160
1001
ACAD
1000
MTEXTBEGIN
1070
    73
1070
     1
1070
    44
1040
1.0
1070
    74
1070
     0
1000
MTEXTEND
1000
MTEXTBEGIN
1070
    73
1070
     1
1070
    44
1040
1.0
1070
    74
1070
     0
1000
MTEXTEND
1000
MTEXTBEGIN
1070
    73
1070
     1
1070
    44
1040
1.0
1070
    74
1070
     0
1000
MTEXTEND
  0
POINT
  5
603
330
524
100
AcDbEntity
  8
DEFPOINTS
  6
BYBLOCK
 62
     0
100
AcDbPoint
 10
771.9243510657654
 20
520.5634471877282
 30
0.0
  0
POINT
  5
604
330
524
100
AcDbEntity
  8
DEFPOINTS
  6
BYBLOCK
 62
     0
100
AcDbPoint
 10
611.9235510657656
 20
520.5634471877282
 30
0.0
  0
POINT
  5
605
330
524
100
AcDbEntity
  8
DEFPOINTS
  6
BYBLOCK
 62
     0
100
AcDbPoint
 10
611.9235510657656
 20
583.109633482165
 30
0.0
  0
ENDBLK
  5
606
330
524
100
AcDbEntity
  8
0
100
AcDbBlockEnd
  0
BLOCK
  5
607
330
530
100
AcDbEntity
  8
0
100
AcDbBlockBegin
  2
*D15
 70
     1
 10
0.0
 20
0.0
 30
0.0
  3
*D15
  1

  0
LINE
  5
608
330
530
100
AcDbEntity
  8
0
  6
BYBLOCK
 62
     4
100
AcDbLine
 10
796.9243087789955
 20
843.3152580167067
 30
0.0
 11
796.9243087789955
 21
727.0766723538913
 31
0.0
  0
LINE
  5
609
330
530
100
AcDbEntity
  8
0
  6
BYBLOCK
 62
     4
100
AcDbLine
 10
586.9240913542468
 20
843.3153832059613
 30
0.0
 11
586.9240913542468
 21
727.0766723538913
 31
0.0
  0
LINE
  5
60A
330
530
100
AcDbEntity
  8
0
  6
BYBLOCK
 62
     4
100
AcDbLine
 10
782.9243087789955
 20
733.0766723538913
 30
0.0
 11
600.9240913542469
 21
733.0766723538913
 31
0.0
  0
INSERT
  5
60B
330
530
100
AcDbEntity
  8
0
  6
BYBLOCK
 62
     4
100
AcDbBlockReference
  2
_OPEN
 10
796.9243087789955
 20
733.0766723538913
 30
0.0
 41
14.0
 42
14.0
 43
14.0
  0
INSERT
  5
60C
330
530
100
AcDbEntity
  8
0
  6
BYBLOCK
 62
     4
100
AcDbBlockReference
  2
_OPEN
 10
586.9240913542468
 20
733.0766723538913
 30
0.0
 41
14.0
 42
14.0
 43
14.0
 50
180.0
  0
MTEXT
  5
60D
330
530
100
AcDbEntity
  8
0
  6
BYBLOCK
 62
     4
100
AcDbMText
 10
692.2880602056502
 20
743.0766723538913
 30
0.0
 40
12.0
 41
0.0
 71
     5
 72
     1
  1
\A1;210
1001
ACAD
1000
MTEXTBEGIN
1070
    73
1070
     1
1070
    44
1040
1.0
1070
    74
1070
     0
1000
MTEXTEND
1000
MTEXTBEGIN
1070
    73
1070
     1
1070
    44
1040
1.0
1070
    74
1070
     0
1000
MTEXTEND
1000
MTEXTBEGIN
1070
    73
1070
     1
1070
    44
1040
1.0
1070
    74
1070
     0
1000
MTEXTEND
  0
POINT
  5
60E
330
530
100
AcDbEntity
  8
DEFPOINTS
  6
BYBLOCK
 62
     0
100
AcDbPoint
 10
796.9243087789955
 20
855.3152580167067
 30
0.0
  0
POINT
  5
60F
330
530
100
AcDbEntity
  8
DEFPOINTS
  6
BYBLOCK
 62
     0
100
AcDbPoint
 10
586.9240913542468
 20
855.3153832059614
 30
0.0
  0
POINT
  5
610
330
530
100
AcDbEntity
  8
DEFPOINTS
  6
BYBLOCK
 62
     0
100
AcDbPoint
 10
586.9240913542468
 20
733.0766723538913
 30
0.0
  0
ENDBLK
  5
611
330
530
100
AcDbEntity
  8
0
100
AcDbBlockEnd
  0
BLOCK
  5
612
330
53C
100
AcDbEntity
  8
0
100
AcDbBlockBegin
  2
*D16
 70
     1
 10
0.0
 20
0.0
 30
0.0
  3
*D16
  1

  0
LINE
  5
613
330
53C
100
AcDbEntity
  8
0
  6
BYBLOCK
 62
     4
100
AcDbLine
 10
1171.923736646673
 20
382.0634471877283
 30
0.0
 11
1171.923736646673
 21
245.1581203146683
 31
0.0
  0
LINE
  5
614
330
53C
100
AcDbEntity
  8
0
  6
BYBLOCK
 62
     4
100
AcDbLine
 10
1051.924028314504
 20
382.0634471877283
 30
0.0
 11
1051.924028314504
 21
245.1581203146683
 31
0.0
  0
LINE
  5
615
330
53C
100
AcDbEntity
  8
0
  6
BYBLOCK
 62
     4
100
AcDbLine
 10
1157.923736646673
 20
251.1581203146683
 30
0.0
 11
1065.924028314504
 21
251.1581203146683
 31
0.0
  0
INSERT
  5
616
330
53C
100
AcDbEntity
  8
0
  6
BYBLOCK
 62
     4
100
AcDbBlockReference
  2
_OPEN
 10
1171.923736646673
 20
251.1581203146683
 30
0.0
 41
14.0
 42
14.0
 43
14.0
  0
INSERT
  5
617
330
53C
100
AcDbEntity
  8
0
  6
BYBLOCK
 62
     4
100
AcDbBlockReference
  2
_OPEN
 10
1051.924028314504
 20
251.1581203146683
 30
0.0
 41
14.0
 42
14.0
 43
14.0
 50
180.0
  0
MTEXT
  5
618
330
53C
100
AcDbEntity
  8
0
  6
BYBLOCK
 62
     4
100
AcDbMText
 10
1111.923882480589
 20
261.1581203146684
 30
0.0
 40
12.0
 41
0.0
 71
     5
 72
     1
  1
\A1;120
1001
ACAD
1000
MTEXTBEGIN
1070
    73
1070
     1
1070
    44
1040
1.0
1070
    74
1070
     0
1000
MTEXTEND
1000
MTEXTBEGIN
1070
    73
1070
     1
1070
    44
1040
1.0
1070
    74
1070
     0
1000
MTEXTEND
1000
MTEXTBEGIN
1070
    73
1070
     1
1070
    44
1040
1.0
1070
    74
1070
     0
1000
MTEXTEND
  0
POINT
  5
619
330
53C
100
AcDbEntity
  8
DEFPOINTS
  6
BYBLOCK
 62
     0
100
AcDbPoint
 10
1171.923736646673
 20
394.0634471877282
 30
0.0
  0
POINT
  5
61A
330
53C
100
AcDbEntity
  8
DEFPOINTS
  6
BYBLOCK
 62
     0
100
AcDbPoint
 10
1051.924028314504
 20
394.0634471877282
 30
0.0
  0
POINT
  5
61B
330
53C
100
AcDbEntity
  8
DEFPOINTS
  6
BYBLOCK
 62
     0
100
AcDbPoint
 10
1051.924028314504
 20
251.1581203146683
 30
0.0
  0
ENDBLK
  5
61C
330
53C
100
AcDbEntity
  8
0
100
AcDbBlockEnd
  0
BLOCK
  5
61D
330
548
100
AcDbEntity
  8
0
100
AcDbBlockBegin
  2
*D17
 70
     1
 10
0.0
 20
0.0
 30
0.0
  3
*D17
  1

  0
LINE
  5
61E
330
548
100
AcDbEntity
  8
0
  6
BYBLOCK
 62
     4
100
AcDbLine
 10
1173.923951065765
 20
561.0634471877282
 30
0.0
 11
1173.923951065765
 21
588.4537058763385
 31
0.0
  0
LINE
  5
61F
330
548
100
AcDbEntity
  8
0
  6
BYBLOCK
 62
     4
100
AcDbLine
 10
1019.924151065765
 20
561.0634471877282
 30
0.0
 11
1019.924151065765
 21
588.4537058763385
 31
0.0
  0
LINE
  5
620
330
548
100
AcDbEntity
  8
0
  6
BYBLOCK
 62
     4
100
AcDbLine
 10
1159.923951065765
 20
582.4537058763385
 30
0.0
 11
1033.924151065765
 21
582.4537058763385
 31
0.0
  0
INSERT
  5
621
330
548
100
AcDbEntity
  8
0
  6
BYBLOCK
 62
     4
100
AcDbBlockReference
  2
_OPEN
 10
1173.923951065765
 20
582.4537058763385
 30
0.0
 41
14.0
 42
14.0
 43
14.0
  0
INSERT
  5
622
330
548
100
AcDbEntity
  8
0
  6
BYBLOCK
 62
     4
100
AcDbBlockReference
  2
_OPEN
 10
1019.924151065765
 20
582.4537058763385
 30
0.0
 41
14.0
 42
14.0
 43
14.0
 50
180.0
  0
MTEXT
  5
623
330
548
100
AcDbEntity
  8
0
  6
BYBLOCK
 62
     4
100
AcDbMText
 10
1096.924051065765
 20
592.4537058763385
 30
0.0
 40
12.0
 41
0.0
 71
     5
 72
     1
  1
\A1;154
1001
ACAD
1000
MTEXTBEGIN
1070
    73
1070
     1
1070
    44
1040
1.0
1070
    74
1070
     0
1000
MTEXTEND
1000
MTEXTBEGIN
1070
    73
1070
     1
1070
    44
1040
1.0
1070
    74
1070
     0
1000
MTEXTEND
1000
MTEXTBEGIN
1070
    73
1070
     1
1070
    44
1040
1.0
1070
    74
1070
     0
1000
MTEXTEND
  0
POINT
  5
624
330
548
100
AcDbEntity
  8
DEFPOINTS
  6
BYBLOCK
 62
     0
100
AcDbPoint
 10
1173.923951065765
 20
549.0634471877282
 30
0.0
  0
POINT
  5
625
330
548
100
AcDbEntity
  8
DEFPOINTS
  6
BYBLOCK
 62
     0
100
AcDbPoint
 10
1019.924151065765
 20
549.0634471877282
 30
0.0
  0
POINT
  5
626
330
548
100
AcDbEntity
  8
DEFPOINTS
  6
BYBLOCK
 62
     0
100
AcDbPoint
 10
1019.924151065765
 20
582.4537058763385
 30
0.0
  0
ENDBLK
  5
627
330
548
100
AcDbEntity
  8
0
100
AcDbBlockEnd
  0
BLOCK
  5
628
330
554
100
AcDbEntity
  8
0
100
AcDbBlockBegin
  2
*D18
 70
     1
 10
0.0
 20
0.0
 30
0.0
  3
*D18
  1

  0
LINE
  5
629
330
554
100
AcDbEntity
  8
0
  6
BYBLOCK
 62
     4
100
AcDbLine
 10
1171.961951065765
 20
385.0247471877283
 30
0.0
 11
1171.961951065765
 21
283.3380105916003
 31
0.0
  0
LINE
  5
62A
330
554
100
AcDbEntity
  8
0
  6
BYBLOCK
 62
     4
100
AcDbLine
 10
1111.924051065765
 20
313.0634471877282
 30
0.0
 11
1111.924051065765
 21
283.3380105916003
 31
0.0
  0
LINE
  5
62B
330
554
100
AcDbEntity
  8
0
  6
BYBLOCK
 62
     4
100
AcDbLine
 10
1157.961951065765
 20
289.3380105916003
 30
0.0
 11
1125.924051065765
 21
289.3380105916003
 31
0.0
  0
INSERT
  5
62C
330
554
100
AcDbEntity
  8
0
  6
BYBLOCK
 62
     4
100
AcDbBlockReference
  2
_OPEN
 10
1171.961951065765
 20
289.3380105916003
 30
0.0
 41
14.0
 42
14.0
 43
14.0
  0
INSERT
  5
62D
330
554
100
AcDbEntity
  8
0
  6
BYBLOCK
 62
     4
100
AcDbBlockReference
  2
_OPEN
 10
1111.924051065765
 20
289.3380105916003
 30
0.0
 41
14.0
 42
14.0
 43
14.0
 50
180.0
  0
MTEXT
  5
62E
330
554
100
AcDbEntity
  8
0
  6
BYBLOCK
 62
     4
100
AcDbMText
 10
1141.943001065765
 20
299.3380105916003
 30
0.0
 40
12.0
 41
0.0
 71
     5
 72
     1
  1
\A1;60
1001
ACAD
1000
MTEXTBEGIN
1070
    73
1070
     1
1070
    44
1040
1.0
1070
    74
1070
     0
1000
MTEXTEND
1000
MTEXTBEGIN
1070
    73
1070
     1
1070
    44
1040
1.0
1070
    74
1070
     0
1000
MTEXTEND
1000
MTEXTBEGIN
1070
    73
1070
     1
1070
    44
1040
1.0
1070
    74
1070
     0
1000
MTEXTEND
  0
POINT
  5
62F
330
554
100
AcDbEntity
  8
DEFPOINTS
  6
BYBLOCK
 62
     0
100
AcDbPoint
 10
1171.961951065765
 20
397.0247471877283
 30
0.0
  0
POINT
  5
630
330
554
100
AcDbEntity
  8
DEFPOINTS
  6
BYBLOCK
 62
     0
100
AcDbPoint
 10
1111.924051065765
 20
325.0634471877282
 30
0.0
  0
POINT
  5
631
330
554
100
AcDbEntity
  8
DEFPOINTS
  6
BYBLOCK
 62
     0
100
AcDbPoint
 10
1111.924051065765
 20
289.3380105916003
 30
0.0
  0
ENDBLK
  5
632
330
554
100
AcDbEntity
  8
0
100
AcDbBlockEnd
  0
ENDSEC
  0
SECTION
  2
ENTITIES
  0
LINE
  5
121
330
19
100
AcDbEntity
  8
ZUWAKU
 62
     7
 48
10.0
100
AcDbLine
 10
19.90074647074652
 20
48.1669006995453
 30
0.0
 11
1611.900746470746
 21
48.16690069954507
 31
0.0
  0
LINE
  5
122
330
19
100
AcDbEntity
  8
ZUWAKU
  6
CONTINUOUS
 62
     7
100
AcDbLine
 10
1611.900746470746
 20
1124.166900699545
 30
0.0
 11
19.90074647074652
 21
1124.166900699545
 31
0.0
  0
LINE
  5
123
330
19
100
AcDbEntity
  8
ZUWAKU
  6
CONTINUOUS
 62
     7
100
AcDbLine
 10
1611.900746470746
 20
24.16690069954529
 30
0.0
 11
19.90074647074652
 21
24.16690069954529
 31
0.0
  0
LINE
  5
124
330
19
100
AcDbEntity
  8
ZUWAKU
  6
CONTINUOUS
 62
     7
100
AcDbLine
 10
19.90074647074652
 20
1124.166900699545
 30
0.0
 11
19.90074647074652
 21
24.16690069954529
 31
0.0
  0
LINE
  5
125
330
19
100
AcDbEntity
  8
ZUWAKU
 62
     7
 48
10.0
100
AcDbLine
 10
88.91574076238157
 20
24.16690069954529
 30
0.0
 11
88.91574076238157
 21
48.1669006995453
 31
0.0
  0
TEXT
  5
126
330
19
100
AcDbEntity
  8
ZUWAKU
 62
     7
100
AcDbText
 10
31.91332132304342
 20
27.64761340998802
 30
0.0
 40
16.0
  1
品 種
100
AcDbText
  0
LINE
  5
127
330
19
100
AcDbEntity
  8
ZUWAKU
 62
     7
 48
10.0
100
AcDbLine
 10
552.0054677130756
 20
24.16690069954529
 30
0.0
 11
552.0054677130756
 21
48.16690069954521
 31
0.0
  0
LINE
  5
128
330
19
100
AcDbEntity
  8
ZUWAKU
 62
     7
 48
10.0
100
AcDbLine
 10
418.8274955845217
 20
24.16690069954529
 30
0.0
 11
418.8274955845218
 21
48.16690069954525
 31
0.0
  0
TEXT
  5
129
330
19
100
AcDbEntity
  8
ZUWAKU
 62
     7
100
AcDbText
 10
564.4260762822405
 20
27.88656214294769
 30
0.0
 40
16.0
  1
標準　型　ＵＴ６０×５５
100
AcDbText
  0
TEXT
  5
12A
330
19
100
AcDbEntity
  8
ZUWAKU
 62
     7
100
AcDbText
 10
430.711957737576
 20
28.96889043994906
 30
0.0
 40
16.0
  1
品名・ｻ ｲ ｽﾞ
100
AcDbText
  0
TEXT
  5
12B
330
19
100
AcDbEntity
  8
ZUWAKU
 62
     7
100
AcDbText
 10
100.503666760442
 20
28.80785192669509
 30
0.0
 40
16.0
  1
角マス
100
AcDbText
  0
LINE
  5
12C
330
19
100
AcDbEntity
  8
ZUWAKU
 62
     7
 48
10.0
100
AcDbLine
 10
1537.246006285983
 20
24.16690069954474
 30
0.0
 11
1537.246006285983
 21
48.16690069954507
 31
0.0
  0
LINE
  5
12D
330
19
100
AcDbEntity
  8
ZUWAKU
 62
     7
 48
10.0
100
AcDbLine
 10
1467.423590774814
 20
24.16690069954483
 30
0.0
 11
1467.423590774814
 21
48.16690069954509
 31
0.0
  0
TEXT
  5
12E
330
19
100
AcDbEntity
  8
ZUWAKU
 62
     7
100
AcDbText
 10
1479.19091629413
 20
27.08628325011705
 30
0.0
 40
16.0
  1
尺 度
100
AcDbText
  0
TEXT
  5
12F
330
19
100
AcDbEntity
  8
ZUWAKU
 62
     7
100
AcDbText
 10
1559.27471636407
 20
27.71150653553059
 30
0.0
 40
16.0
  1
1/4
100
AcDbText
  0
TEXT
  5
130
330
19
100
AcDbEntity
  8
ZUWAKU
 62
     7
100
AcDbText
 10
1308.30613703518
 20
28.40748782453036
 30
0.0
 40
16.0
  1
ＧＧ８６
100
AcDbText
  0
TEXT
  5
131
330
19
100
AcDbEntity
  8
ZUWAKU
 62
     7
100
AcDbText
 10
1240.472447976041
 20
27.90554632275259
 30
0.0
 40
16.0
  1
品 番
100
AcDbText
  0
LINE
  5
132
330
19
100
AcDbEntity
  8
ZUWAKU
 62
     7
 48
10.0
100
AcDbLine
 10
1228.46999593825
 20
24.16690069954464
 30
0.0
 11
1228.46999593825
 21
48.16690069954512
 31
0.0
  0
LINE
  5
133
330
19
100
AcDbEntity
  8
ZUWAKU
 62
     7
 48
10.0
100
AcDbLine
 10
1297.321307773629
 20
24.16690069954464
 30
0.0
 11
1297.321307773629
 21
48.1669006995451
 31
0.0
  0
TEXT
  5
134
330
19
100
AcDbEntity
  8
ZUWAKU
 62
     7
 48
10.0
100
AcDbText
 10
1292.407013373002
 20
5.798621502208334
 30
0.0
 40
16.0
  1
積水化学工業株式会社  建材
100
AcDbText
  0
LINE
  5
135
330
19
100
AcDbEntity
  8
ZUWAKU
  6
CONTINUOUS
 62
     7
100
AcDbLine
 10
1611.900746470746
 20
1124.166900699545
 30
0.0
 11
1611.900746470746
 21
24.16690069954529
 31
0.0
  0
MTEXT
  5
364
330
19
100
AcDbEntity
  8
SUNPOU
  6
CONTINUOUS
 62
     4
100
AcDbMText
 10
811.0770035779424
 20
942.8977729893595
 30
0.0
 40
12.0
 41
0.0
 71
     7
 72
     1
  1
4-φ4.5
1001
ACAD
1000
MTEXTBEGIN
1070
    73
1070
     1
1070
    44
1040
1.0
1070
    74
1070
     0
1000
MTEXTEND
1000
MTEXTBEGIN
1070
    73
1070
     1
1070
    44
1040
1.0
1070
    74
1070
     0
1000
MTEXTEND
1000
MTEXTBEGIN
1070
    73
1070
     1
1070
    44
1040
1.0
1070
    74
1070
     0
1000
MTEXTEND
  0
LEADER
  5
365
330
19
100
AcDbEntity
  8
SUNPOU
  6
CONTINUOUS
 62
     4
100
AcDbLeader
  3
STANDARD
 73
     0
 74
     0
 40
12.0
 41
62.39999999999999
 76
     3
 10
791.0441166420705
 20
862.5392921920861
 30
0.0
 10
805.0539271121115
 20
938.8977729893595
 30
0.0
 10
807.0770035779423
 20
938.8977729893595
 30
0.0
1001
ACAD
1000
DSTYLE
1002
{
1070
     6
1000
OPEN
1070
    41
1040
14.0
1070
    42
1040
12.0
1070
    43
1040
28.0
1070
    44
1040
6.0
1070
    73
1070
     0
1070
    74
1070
     0
1070
    77
1070
     3
1070
   140
1040
12.0
1070
   141
1040
150.0
1070
   143
1040
0.03937
1070
   147
1040
4.0
1070
   172
1070
     1
1070
   173
1070
     1
1070
   176
1070
     4
1070
   177
1070
     4
1070
   178
1070
     4
1070
   271
1070
     0
1070
   272
1070
     2
1070
   288
1070
     1
1070
   341
1005
27
1070
   343
1005
27
1070
   344
1005
27
1002
}
1000
LEANOF
1010
0.0
1020
0.0
1030
0.0
  0
DIMENSION
  5
366
330
19
100
AcDbEntity
  8
SUNPOU
  6
CONTINUOUS
100
AcDbDimension
  2
*D1
 10
874.8605417726412
 20
830.9200162104666
 30
0.0
 11
874.8605417726412
 21
799.4468441855729
 31
0.0
 12
0.0
 22
-22.39524547816563
 32
0.0
 70
   160
  3
STANDARD
100
AcDbAlignedDimension
 13
794.9243804171869
 23
870.9200162104064
 33
0.0
 14
794.9243032353312
 24
830.9200162104666
 34
0.0
 50
90.0
100
AcDbRotatedDimension
1001
ACAD
1000
DSTYLE
1002
{
1070
   288
1070
     1
1070
   140
1040
12.0
1070
    74
1070
     0
1070
   172
1070
     1
1070
    73
1070
     0
1070
   272
1070
     2
1070
    77
1070
     3
1070
   173
1070
     1
1070
   147
1040
4.0
1070
    42
1040
12.0
1070
    44
1040
6.0
1070
    43
1040
28.0
1070
   271
1070
     0
1070
   178
1070
     4
1070
   177
1070
     4
1070
   176
1070
     4
1070
   141
1040
150.0
1070
     7
1000
_OPEN
1070
     6
1000
_OPEN
1070
    41
1040
14.0
1070
   143
1040
0.03937
1002
}
  0
DIMENSION
  5
367
330
19
100
AcDbEntity
  8
SUNPOU
  6
CONTINUOUS
 62
     4
100
AcDbDimension
  2
*D2
 10
840.9334369804764
 20
840.9200196874241
 30
0.0
 11
830.9334369804764
 21
799.9200196874242
 31
0.0
 12
0.0
 22
-22.39524547816563
 32
0.0
 70
    32
  3
STANDARD
100
AcDbAlignedDimension
 13
793.6699648874809
 23
860.9200196873992
 33
0.0
 14
793.6699281683029
 24
840.9200196874241
 34
0.0
 50
90.0
100
AcDbRotatedDimension
1001
ACAD
1000
DSTYLE
1002
{
1070
   140
1040
12.0
1070
    74
1070
     0
1070
   172
1070
     1
1070
    73
1070
     0
1070
   272
1070
     2
1070
    77
1070
     3
1070
   173
1070
     1
1070
   147
1040
4.0
1070
    42
1040
12.0
1070
    44
1040
6.0
1070
    43
1040
28.0
1070
   271
1070
     0
1070
   178
1070
     4
1070
   177
1070
     4
1070
   176
1070
     4
1070
   141
1040
150.0
1070
     7
1000
_OPEN
1070
     6
1000
_OPEN
1070
    41
1040
14.0
1070
   143
1040
0.03937
1002
}
  0
DIMENSION
  5
368
330
19
100
AcDbEntity
  8
SUNPOU
  6
CONTINUOUS
 62
     4
100
AcDbDimension
  2
*D3
 10
840.9886234198692
 20
491.7801444235445
 30
0.0
 11
830.9886234198692
 21
509.2241730665535
 31
0.0
 12
0.0
 22
-22.39524547816563
 32
0.0
 70
    32
  3
STANDARD
100
AcDbAlignedDimension
 13
796.9243087789952
 23
526.6682017095625
 33
0.0
 14
774.1715646356752
 24
491.7801444235445
 34
0.0
 50
90.0
100
AcDbRotatedDimension
1001
ACAD
1000
DSTYLE
1002
{
1070
   140
1040
12.0
1070
    74
1070
     0
1070
   172
1070
     1
1070
    73
1070
     0
1070
   272
1070
     2
1070
    77
1070
     3
1070
   173
1070
     1
1070
   147
1040
4.0
1070
    42
1040
12.0
1070
    44
1040
6.0
1070
    43
1040
28.0
1070
   271
1070
     0
1070
   178
1070
     4
1070
   177
1070
     4
1070
   176
1070
     4
1070
   141
1040
150.0
1070
     7
1000
_OPEN
1070
     6
1000
_OPEN
1070
    41
1040
14.0
1070
   143
1040
0.03937
1002
}
  0
DIMENSION
  5
369
330
19
100
AcDbEntity
  8
SUNPOU
  6
CONTINUOUS
 62
     4
100
AcDbDimension
  2
*D4
 10
840.8081581990582
 20
366.6682017095626
 30
0.0
 11
840.8081581990582
 21
284.8710801372977
 31
0.0
 12
0.0
 22
-22.39524547816563
 32
0.0
 70
   160
  3
STANDARD
100
AcDbAlignedDimension
 13
720.3741510657655
 23
341.6682017095626
 33
0.0
 14
721.9739510657655
 24
366.6682017095626
 34
0.0
 50
90.0
100
AcDbRotatedDimension
1001
ACAD
1000
DSTYLE
1002
{
1070
   288
1070
     1
1070
   140
1040
12.0
1070
    74
1070
     0
1070
   172
1070
     1
1070
    73
1070
     0
1070
   272
1070
     2
1070
    77
1070
     3
1070
   173
1070
     1
1070
   147
1040
4.0
1070
    42
1040
12.0
1070
    44
1040
6.0
1070
    43
1040
28.0
1070
   271
1070
     0
1070
   178
1070
     4
1070
   177
1070
     4
1070
   176
1070
     4
1070
   141
1040
150.0
1070
     7
1000
_OPEN
1070
     6
1000
_OPEN
1070
    41
1040
14.0
1070
   143
1040
0.03937
1002
}
  0
DIMENSION
  5
36A
330
19
100
AcDbEntity
  8
SUNPOU
  6
CONTINUOUS
100
AcDbDimension
  2
*D5
 10
912.3877443472165
 20
850.9202017095626
 30
0.0
 11
912.3877443472165
 21
878.9202017095627
 31
0.0
 12
0.0
 22
-22.39524547816563
 32
0.0
 70
   160
  3
STANDARD
100
AcDbAlignedDimension
 13
779.4244510657654
 23
912.9202017095627
 33
0.0
 14
803.9243418266149
 24
850.9202017095626
 34
0.0
 50
90.0
100
AcDbRotatedDimension
1001
ACAD
1000
DSTYLE
1002
{
1070
   140
1040
12.0
1070
    74
1070
     0
1070
   172
1070
     1
1070
    73
1070
     0
1070
   272
1070
     2
1070
    77
1070
     3
1070
   173
1070
     1
1070
   147
1040
4.0
1070
    42
1040
12.0
1070
    44
1040
6.0
1070
    43
1040
28.0
1070
   271
1070
     0
1070
   178
1070
     4
1070
   177
1070
     4
1070
   176
1070
     4
1070
   141
1040
150.0
1070
     7
1000
_OPEN
1070
     6
1000
_OPEN
1070
    41
1040
14.0
1070
   143
1040
0.03937
1002
}
  0
DIMENSION
  5
36B
330
19
100
AcDbEntity
  8
SUNPOU
  6
CONTINUOUS
 62
     4
100
AcDbDimension
  2
*D6
 10
923.6805864262969
 20
316.6682017095626
 30
0.0
 11
913.6805864262969
 21
421.6682017095625
 31
0.0
 12
0.0
 22
-22.39524547816563
 32
0.0
 70
    32
  3
STANDARD
100
AcDbAlignedDimension
 13
796.9243087789952
 23
526.6682017095625
 33
0.0
 14
718.2240510657655
 24
316.6682017095626
 34
0.0
 50
90.0
100
AcDbRotatedDimension
1001
ACAD
1000
DSTYLE
1002
{
1070
   140
1040
12.0
1070
    74
1070
     0
1070
   172
1070
     1
1070
    73
1070
     0
1070
   272
1070
     2
1070
    77
1070
     3
1070
   173
1070
     1
1070
   147
1040
4.0
1070
    42
1040
12.0
1070
    44
1040
6.0
1070
    43
1040
28.0
1070
   271
1070
     0
1070
   178
1070
     4
1070
   177
1070
     4
1070
   176
1070
     4
1070
   141
1040
150.0
1070
     7
1000
_OPEN
1070
     6
1000
_OPEN
1070
    41
1040
14.0
1070
   143
1040
0.03937
1002
}
  0
DIMENSION
  5
36C
330
19
100
AcDbEntity
  8
SUNPOU
  6
CONTINUOUS
 62
     4
100
AcDbDimension
  2
*D7
 10
882.1280029407535
 20
366.6682017095626
 30
0.0
 11
872.1280029407536
 21
446.6682017095625
 31
0.0
 12
0.0
 22
-22.39524547816563
 32
0.0
 70
    32
  3
STANDARD
100
AcDbAlignedDimension
 13
796.9243087789952
 23
526.6682017095625
 33
0.0
 14
721.9739510657655
 24
366.6682017095626
 34
0.0
 50
90.0
100
AcDbRotatedDimension
1001
ACAD
1000
DSTYLE
1002
{
1070
   140
1040
12.0
1070
    74
1070
     0
1070
   172
1070
     1
1070
    73
1070
     0
1070
   272
1070
     2
1070
    77
1070
     3
1070
   173
1070
     1
1070
   147
1040
4.0
1070
    42
1040
12.0
1070
    44
1040
6.0
1070
    43
1040
28.0
1070
   271
1070
     0
1070
   178
1070
     4
1070
   177
1070
     4
1070
   176
1070
     4
1070
   141
1040
150.0
1070
     7
1000
_OPEN
1070
     6
1000
_OPEN
1070
    41
1040
14.0
1070
   143
1040
0.03937
1002
}
  0
DIMENSION
  5
36D
330
19
100
AcDbEntity
  8
SUNPOU
  6
CONTINUOUS
 62
     4
100
AcDbDimension
  2
*D8
 10
586.9240913542468
 20
636.836809917886
 30
0.0
 11
691.924200066621
 21
646.836809917886
 31
0.0
 12
0.0
 22
-22.39524547816563
 32
0.0
 70
    32
  3
STANDARD
100
AcDbAlignedDimension
 13
796.9243087789952
 23
526.6682017095625
 33
0.0
 14
586.9240913542468
 24
526.6682017095625
 34
0.0
100
AcDbRotatedDimension
1001
ACAD
1000
DSTYLE
1002
{
1070
   140
1040
12.0
1070
    74
1070
     0
1070
   172
1070
     1
1070
    73
1070
     0
1070
   272
1070
     2
1070
    77
1070
     3
1070
   173
1070
     1
1070
   147
1040
4.0
1070
    42
1040
12.0
1070
    44
1040
6.0
1070
    43
1040
28.0
1070
   271
1070
     0
1070
   178
1070
     4
1070
   177
1070
     4
1070
   176
1070
     4
1070
   141
1040
150.0
1070
     7
1000
_OPEN
1070
     6
1000
_OPEN
1070
    41
1040
14.0
1070
   143
1040
0.03937
1002
}
  0
DIMENSION
  5
36E
330
19
100
AcDbEntity
  8
SUNPOU
  6
CONTINUOUS
 62
     4
100
AcDbDimension
  2
*D9
 10
601.9236510657655
 20
596.8353959564656
 30
0.0
 11
691.9240010657655
 21
606.8353959564656
 31
0.0
 12
0.0
 22
-22.39524547816563
 32
0.0
 70
    32
  3
STANDARD
100
AcDbAlignedDimension
 13
781.9243510657654
 23
526.6682017095625
 33
0.0
 14
601.9236510657655
 24
526.6682017095625
 34
0.0
100
AcDbRotatedDimension
1001
ACAD
1000
DSTYLE
1002
{
1070
   140
1040
12.0
1070
    74
1070
     0
1070
   172
1070
     1
1070
    73
1070
     0
1070
   272
1070
     2
1070
    77
1070
     3
1070
   173
1070
     1
1070
   147
1040
4.0
1070
    42
1040
12.0
1070
    44
1040
6.0
1070
    43
1040
28.0
1070
   271
1070
     0
1070
   178
1070
     4
1070
   177
1070
     4
1070
   176
1070
     4
1070
   141
1040
150.0
1070
     7
1000
_OPEN
1070
     6
1000
_OPEN
1070
    41
1040
14.0
1070
   143
1040
0.03937
1002
}
  0
DIMENSION
  5
36F
330
19
100
AcDbEntity
  8
SUNPOU
  6
CONTINUOUS
 62
     4
100
AcDbDimension
  2
*D10
 10
631.9239136443593
 20
191.6286603604689
 30
0.0
 11
691.9240022078825
 21
201.6286603604689
 31
0.0
 12
0.0
 22
-22.39524547816563
 32
0.0
 70
    32
  3
STANDARD
100
AcDbAlignedDimension
 13
751.9240907714056
 23
371.6682017095626
 33
0.0
 14
631.9239136443593
 24
371.6682017095626
 34
0.0
100
AcDbRotatedDimension
1001
ACAD
1000
DSTYLE
1002
{
1070
   140
1040
12.0
1070
    74
1070
     0
1070
   172
1070
     1
1070
    73
1070
     0
1070
   272
1070
     2
1070
    77
1070
     3
1070
   173
1070
     1
1070
   147
1040
4.0
1070
    42
1040
12.0
1070
    44
1040
6.0
1070
    43
1040
28.0
1070
   271
1070
     0
1070
   178
1070
     4
1070
   177
1070
     4
1070
   176
1070
     4
1070
   141
1040
150.0
1070
     7
1000
_OPEN
1070
     6
1000
_OPEN
1070
    41
1040
14.0
1070
   143
1040
0.03937
1002
}
  0
DIMENSION
  5
370
330
19
100
AcDbEntity
  8
SUNPOU
  6
CONTINUOUS
 62
     4
100
AcDbDimension
  2
*D11
 10
663.4739510657655
 20
229.1688796977059
 30
0.0
 11
691.9240510657655
 21
239.1688796977059
 31
0.0
 12
0.0
 22
-22.39524547816563
 32
0.0
 70
    32
  1
φ<>
  3
STANDARD
100
AcDbAlignedDimension
 13
720.3741510657655
 23
341.6682017095626
 33
0.0
 14
663.4739510657655
 24
341.6682017095626
 34
0.0
100
AcDbRotatedDimension
1001
ACAD
1000
DSTYLE
1002
{
1070
   140
1040
12.0
1070
    74
1070
     0
1070
   172
1070
     1
1070
    73
1070
     0
1070
   272
1070
     2
1070
    77
1070
     3
1070
   173
1070
     1
1070
   147
1040
4.0
1070
    42
1040
12.0
1070
    44
1040
6.0
1070
    43
1040
28.0
1070
   271
1070
     0
1070
   178
1070
     4
1070
   177
1070
     4
1070
   176
1070
     4
1070
   141
1040
150.0
1070
     7
1000
_OPEN
1070
     6
1000
_OPEN
1070
    41
1040
14.0
1070
   143
1040
0.03937
1002
}
  0
LINE
  5
371
330
19
100
AcDbEntity
  8
SEIHIN
  6
CONTINUOUS
 62
     3
100
AcDbLine
 10
741.8138510657654
 20
495.2878017095626
 30
0.0
 11
732.1449510657656
 21
374.4289017095626
 31
0.0
  0
LINE
  5
372
330
19
100
AcDbEntity
  8
SEIHIN
  6
CONTINUOUS
 62
     3
100
AcDbLine
 10
761.8138526773568
 20
495.2878218540639
 30
0.0
 11
752.1449510657655
 21
374.4289017095626
 31
0.0
  0
LINE
  5
373
330
19
100
AcDbEntity
  8
SEIHIN
  6
CONTINUOUS
 62
     3
100
AcDbLine
 10
642.0340510657654
 20
495.2878017095626
 30
0.0
 11
651.7030510657654
 21
374.4289017095626
 31
0.0
  0
LINE
  5
374
330
19
100
AcDbEntity
  8
SEIHIN
  6
CONTINUOUS
 62
     3
100
AcDbLine
 10
622.0340510657654
 20
495.2878017095626
 30
0.0
 11
631.7030510657655
 21
374.4289017095626
 31
0.0
  0
LINE
  5
375
330
19
100
AcDbEntity
  8
CENTER_L
  6
CENTER
 62
     1
 48
5.0
100
AcDbLine
 10
691.9239510657655
 20
302.6682017095626
 30
0.0
 11
691.9239510657655
 21
534.6682017095625
 31
0.0
  0
LINE
  5
376
330
19
100
AcDbEntity
  8
SEIHIN
  6
CONTINUOUS
 62
     3
100
AcDbLine
 10
691.9239510657655
 20
366.6682017095626
 30
0.0
 11
721.9739510657655
 21
366.6682017095626
 31
0.0
  0
LINE
  5
377
330
19
100
AcDbEntity
  8
SEIHIN
  6
CONTINUOUS
 62
     3
100
AcDbLine
 10
691.9239510657655
 20
341.6682017095626
 30
0.0
 11
720.3741510657655
 21
341.6682017095626
 31
0.0
  0
LINE
  5
378
330
19
100
AcDbEntity
  8
SEIHIN
  6
CONTINUOUS
 62
     3
100
AcDbLine
 10
691.9239510657655
 20
316.6682017095626
 30
0.0
 11
718.2240510657655
 21
316.6682017095626
 31
0.0
  0
DIMENSION
  5
379
330
19
100
AcDbEntity
  8
SUNPOU
  6
CONTINUOUS
 62
     4
100
AcDbDimension
  2
*D12
 10
665.6239510657655
 20
267.2938612107286
 30
0.0
 11
691.9240010657655
 21
277.2938612107286
 31
0.0
 12
0.0
 22
-22.39524547816563
 32
0.0
 70
    32
  1
φ<>
  3
STANDARD
100
AcDbAlignedDimension
 13
718.2240510657655
 23
316.6682017095626
 33
0.0
 14
665.6239510657655
 24
316.6682017095626
 34
0.0
100
AcDbRotatedDimension
1001
ACAD
1000
DSTYLE
1002
{
1070
   140
1040
12.0
1070
    74
1070
     0
1070
   172
1070
     1
1070
    73
1070
     0
1070
   272
1070
     2
1070
    77
1070
     3
1070
   173
1070
     1
1070
   147
1040
4.0
1070
    42
1040
12.0
1070
    44
1040
6.0
1070
    43
1040
28.0
1070
   271
1070
     0
1070
   178
1070
     4
1070
   177
1070
     4
1070
   176
1070
     4
1070
   141
1040
150.0
1070
     7
1000
_OPEN
1070
     6
1000
_OPEN
1070
    41
1040
14.0
1070
   143
1040
0.03937
1002
}
  0
LINE
  5
37A
330
19
100
AcDbEntity
  8
SEIHIN
  6
CONTINUOUS
 62
     3
100
AcDbLine
 10
691.9239510657655
 20
371.6682017095626
 30
0.0
 11
749.1545510657656
 21
371.6682017095626
 31
0.0
  0
LINE
  5
37B
330
19
100
AcDbEntity
  8
SEIHIN
  6
CONTINUOUS
 62
     3
100
AcDbLine
 10
665.6239510657655
 20
316.6682017095626
 30
0.0
 11
665.6239510657655
 21
341.6682017095626
 31
0.0
  0
LINE
  5
37C
330
19
100
AcDbEntity
  8
SEIHIN
  6
CONTINUOUS
 62
     3
100
AcDbLine
 10
691.9239510657655
 20
316.6682017095626
 30
0.0
 11
665.6239510657655
 21
316.6682017095626
 31
0.0
  0
LINE
  5
37D
330
19
100
AcDbEntity
  8
SEIHIN
  6
CONTINUOUS
 62
     3
100
AcDbLine
 10
691.9239510657655
 20
371.6682017095626
 30
0.0
 11
634.6934510657654
 21
371.6682017095626
 31
0.0
  0
ARC
  5
37E
330
19
100
AcDbEntity
  8
SEIHIN
  6
CONTINUOUS
 62
     3
100
AcDbCircle
 10
634.6934510657654
 20
374.6682017095626
 30
0.0
 40
2.999975999999999
100
AcDbArc
 50
184.573312
 51
270.0
  0
ARC
  5
37F
330
19
100
AcDbEntity
  8
SEIHIN
  6
CONTINUOUS
 62
     3
100
AcDbCircle
 10
654.6935510657656
 20
374.6682017095626
 30
0.0
 40
3.000025999999999
100
AcDbArc
 50
184.57316
 51
270.0
  0
LINE
  5
380
330
19
100
AcDbEntity
  8
SEIHIN
  6
CONTINUOUS
 62
     3
100
AcDbLine
 10
691.9239510657655
 20
341.6682017095626
 30
0.0
 11
663.4739510657655
 21
341.6682017095626
 31
0.0
  0
LINE
  5
381
330
19
100
AcDbEntity
  8
SEIHIN
  6
CONTINUOUS
 62
     3
100
AcDbLine
 10
691.9239510657655
 20
366.6682017095626
 30
0.0
 11
661.8739510657656
 21
366.6682017095626
 31
0.0
  0
LINE
  5
382
330
19
100
AcDbEntity
  8
SEIHIN
  6
CONTINUOUS
 62
     3
100
AcDbLine
 10
663.4739510657655
 20
341.6682017095626
 30
0.0
 11
663.4739510657655
 21
366.6682017095626
 31
0.0
  0
ARC
  5
383
330
19
100
AcDbEntity
  8
SEIHIN
  6
CONTINUOUS
 62
     3
100
AcDbCircle
 10
656.8739510657656
 20
366.6682017095626
 30
0.0
 40
5.0
100
AcDbArc
 50
0.0
 51
90.0
  0
LINE
  5
384
330
19
100
AcDbEntity
  8
SEIHIN
  6
CONTINUOUS
 62
     3
100
AcDbLine
 10
718.2240510657655
 20
316.6682017095626
 30
0.0
 11
718.2240510657655
 21
341.6682017095626
 31
0.0
  0
DIMENSION
  5
385
330
19
100
AcDbEntity
  8
SUNPOU
  6
CONTINUOUS
 62
     4
100
AcDbDimension
  2
*D13
 10
798.6703216587685
 20
341.6682017095626
 30
0.0
 11
798.6703216587685
 21
284.6682017095626
 31
0.0
 12
0.0
 22
-22.39524547816563
 32
0.0
 70
   160
  3
STANDARD
100
AcDbAlignedDimension
 13
718.2240510657655
 23
316.6682017095626
 33
0.0
 14
720.3741510657655
 24
341.6682017095626
 34
0.0
 50
90.0
100
AcDbRotatedDimension
1001
ACAD
1000
DSTYLE
1002
{
1070
   288
1070
     1
1070
   140
1040
12.0
1070
    74
1070
     0
1070
   172
1070
     1
1070
    73
1070
     0
1070
   272
1070
     2
1070
    77
1070
     3
1070
   173
1070
     1
1070
   147
1040
4.0
1070
    42
1040
12.0
1070
    44
1040
6.0
1070
    43
1040
28.0
1070
   271
1070
     0
1070
   178
1070
     4
1070
   177
1070
     4
1070
   176
1070
     4
1070
   141
1040
150.0
1070
     7
1000
_OPEN
1070
     6
1000
_OPEN
1070
    41
1040
14.0
1070
   143
1040
0.03937
1002
}
  0
ARC
  5
386
330
19
100
AcDbEntity
  8
SEIHIN
  6
CONTINUOUS
 62
     3
100
AcDbCircle
 10
749.1545510657656
 20
374.6682017095626
 30
0.0
 40
2.999979999999999
100
AcDbArc
 50
270.0
 51
355.4247839999999
  0
ARC
  5
387
330
19
100
AcDbEntity
  8
SEIHIN
  6
CONTINUOUS
 62
     3
100
AcDbCircle
 10
729.1545510657656
 20
374.6682017095626
 30
0.0
 40
2.999979999999999
100
AcDbArc
 50
270.0
 51
355.4247839999999
  0
LINE
  5
388
330
19
100
AcDbEntity
  8
SEIHIN
  6
CONTINUOUS
 62
     3
100
AcDbLine
 10
720.3741510657655
 20
341.6682017095626
 30
0.0
 11
720.3741510657655
 21
366.6682017095626
 31
0.0
  0
ARC
  5
389
330
19
100
AcDbEntity
  8
SEIHIN
  6
CONTINUOUS
 62
     3
100
AcDbCircle
 10
726.9740510657655
 20
366.6682017095626
 30
0.0
 40
5.0
100
AcDbArc
 50
90.0
 51
180.0
  0
DIMENSION
  5
38A
330
19
100
AcDbEntity
  8
SUNPOU
  6
CONTINUOUS
 62
     4
100
AcDbDimension
  2
*D14
 10
611.9235510657656
 20
560.7143880039993
 30
0.0
 11
691.9239510657655
 21
570.7143880039994
 31
0.0
 12
0.0
 22
-22.39524547816563
 32
0.0
 70
    32
  3
STANDARD
100
AcDbAlignedDimension
 13
771.9243510657654
 23
498.1682017095626
 33
0.0
 14
611.9235510657656
 24
498.1682017095626
 34
0.0
100
AcDbRotatedDimension
1001
ACAD
1000
DSTYLE
1002
{
1070
   140
1040
12.0
1070
    74
1070
     0
1070
   172
1070
     1
1070
    73
1070
     0
1070
   272
1070
     2
1070
    77
1070
     3
1070
   173
1070
     1
1070
   147
1040
4.0
1070
    42
1040
12.0
1070
    44
1040
6.0
1070
    43
1040
28.0
1070
   271
1070
     0
1070
   178
1070
     4
1070
   177
1070
     4
1070
   176
1070
     4
1070
   141
1040
150.0
1070
     7
1000
_OPEN
1070
     6
1000
_OPEN
1070
    41
1040
14.0
1070
   143
1040
0.03937
1002
}
  0
LINE
  5
38B
330
19
100
AcDbEntity
  8
SEIHIN
  6
CONTINUOUS
 62
     3
100
AcDbLine
 10
796.9243087789952
 20
526.6682017095625
 30
0.0
 11
691.9239510657655
 21
526.6682017095625
 31
0.0
  0
LINE
  5
38C
330
19
100
AcDbEntity
  8
SEIHIN
  6
CONTINUOUS
 62
     3
100
AcDbLine
 10
691.9239510657655
 20
506.6682017095626
 30
0.0
 11
778.5462510657655
 21
506.6682017095626
 31
0.0
  0
LINE
  5
38D
330
19
100
AcDbEntity
  8
SEIHIN
  6
CONTINUOUS
 62
     3
100
AcDbLine
 10
691.9239510657655
 20
496.6682017095608
 30
0.0
 11
768.6617510657654
 21
496.6682017095625
 31
0.0
  0
LINE
  5
38E
330
19
100
AcDbEntity
  8
SEIHIN
  6
CONTINUOUS
 62
     3
100
AcDbLine
 10
621.9236510657656
 20
526.6682017095625
 30
0.0
 11
622.8048510657654
 21
509.0433017095627
 31
0.0
  0
LINE
  5
38F
330
19
100
AcDbEntity
  8
SEIHIN
  6
CONTINUOUS
 62
     3
100
AcDbLine
 10
601.9235510657656
 20
526.6682017095625
 30
0.0
 11
604.2810417083074
 21
479.518388858731
 31
0.0
  0
LINE
  5
390
330
19
100
AcDbEntity
  8
SEIHIN
  6
CONTINUOUS
 62
     3
100
AcDbLine
 10
601.9236510657655
 20
526.6682017095625
 30
0.0
 11
602.8048510657654
 21
509.0433017095627
 31
0.0
  0
ARC
  5
391
330
19
100
AcDbEntity
  8
SEIHIN
  6
CONTINUOUS
 62
     3
100
AcDbCircle
 10
640.5388510657656
 20
495.1682017095626
 30
0.0
 40
1.499987999999999
100
AcDbArc
 50
4.573312
 51
90.0
  0
LINE
  5
392
330
19
100
AcDbEntity
  8
SEIHIN
  6
CONTINUOUS
 62
     3
100
AcDbLine
 10
691.9239510657655
 20
496.6682017095625
 30
0.0
 11
615.1862510657656
 21
496.6682017095625
 31
0.0
  0
LINE
  5
393
330
19
100
AcDbEntity
  8
SEIHIN
  6
CONTINUOUS
 62
     3
100
AcDbLine
 10
691.9239510657655
 20
506.6682017095626
 30
0.0
 11
605.3017510657655
 21
506.6682017095626
 31
0.0
  0
ARC
  5
394
330
19
100
AcDbEntity
  8
SEIHIN
  6
CONTINUOUS
 62
     3
100
AcDbCircle
 10
607.9721251244814
 20
477.6682017095627
 30
0.0
 40
1.0
100
AcDbArc
 50
270.0
 51
357.1482248735578
  0
LINE
  5
395
330
19
100
AcDbEntity
  8
CENTER_L
  6
CENTER
 62
     1
 48
5.0
100
AcDbLine
 10
618.4235510657656
 20
491.6682017095626
 30
0.0
 11
605.4235510657658
 21
491.6682017095625
 31
0.0
  0
LINE
  5
396
330
19
100
AcDbEntity
  8
SEIHIN
  6
CONTINUOUS
 62
     3
100
AcDbLine
 10
607.2772987249408
 20
476.6682017095626
 30
0.0
 11
607.9721251244814
 21
476.6682017095627
 31
0.0
  0
ARC
  5
397
330
19
100
AcDbEntity
  8
SEIHIN
  6
CONTINUOUS
 62
     3
100
AcDbCircle
 10
607.2772987249408
 20
479.6682017095626
 30
0.0
 40
3.0
100
AcDbArc
 50
182.8624052261117
 51
269.9999999999998
  0
ARC
  5
398
330
19
100
AcDbEntity
  8
SEIHIN
  6
CONTINUOUS
 62
     3
100
AcDbCircle
 10
605.3017510657655
 20
509.1682017095625
 30
0.0
 40
2.500008
100
AcDbArc
 50
182.861375
 51
270.0
  0
LINE
  5
399
330
19
100
AcDbEntity
  8
CENTER_L
  6
CENTER
 62
     1
 48
5.0
100
AcDbLine
 10
611.9235510657656
 20
498.1682017095626
 30
0.0
 11
611.9235510657659
 21
485.1682017095627
 31
0.0
  0
LINE
  5
39A
330
19
100
AcDbEntity
  8
SEIHIN
  6
CONTINUOUS
 62
     3
100
AcDbLine
 10
614.1707646356754
 20
491.7801444235445
 30
0.0
 11
614.8762154204234
 21
477.6184493922372
 31
0.0
  0
LINE
  5
39B
330
19
100
AcDbEntity
  8
SEIHIN
  6
CONTINUOUS
 62
     3
100
AcDbLine
 10
608.9708867111077
 20
477.6184493922373
 30
0.0
 11
609.6763374958559
 21
491.7801444235445
 31
0.0
  0
LINE
  5
39C
330
19
100
AcDbEntity
  8
SEIHIN
  6
CONTINUOUS
 62
     3
100
AcDbLine
 10
615.8749770070499
 20
476.6682017095626
 30
0.0
 11
620.7540676346668
 21
476.6682017095625
 31
0.0
  0
ARC
  5
39D
330
19
100
AcDbEntity
  8
SEIHIN
  6
CONTINUOUS
 62
     3
100
AcDbCircle
 10
615.8749770070499
 20
477.6682017095626
 30
0.0
 40
1.0
100
AcDbArc
 50
182.851775126442
 51
269.9999999999994
  0
ARC
  5
39E
330
19
100
AcDbEntity
  8
SEIHIN
  6
CONTINUOUS
 62
     3
100
AcDbCircle
 10
620.7540676346668
 20
473.6682017095625
 30
0.0
 40
3.0
100
AcDbArc
 50
4.574009818586604
 51
90.0
  0
ARC
  5
39F
330
19
100
AcDbEntity
  8
SEIHIN
  6
CONTINUOUS
 62
     3
100
AcDbCircle
 10
625.3017510657655
 20
509.1682017095625
 30
0.0
 40
2.500008
100
AcDbArc
 50
182.861375
 51
270.0
  0
ARC
  5
3A0
330
19
100
AcDbEntity
  8
SEIHIN
  6
CONTINUOUS
 62
     3
100
AcDbCircle
 10
611.9235510657656
 20
491.6682017095626
 30
0.0
 40
2.25
100
AcDbArc
 50
2.851775126443279
 51
177.1482248735567
  0
ARC
  5
3A1
330
19
100
AcDbEntity
  8
SEIHIN
  6
CONTINUOUS
 62
     3
100
AcDbCircle
 10
620.5388510657655
 20
495.1682017095626
 30
0.0
 40
1.499987999999999
100
AcDbArc
 50
4.573312
 51
90.0
  0
ARC
  5
3A2
330
19
100
AcDbEntity
  8
SEIHIN
  6
CONTINUOUS
 62
     3
100
AcDbCircle
 10
610.5661510657655
 20
505.1682017095625
 30
0.0
 40
1.499973999999999
100
AcDbArc
 50
5.712494
 51
90.0
  0
LINE
  5
3A3
330
19
100
AcDbEntity
  8
SEIHIN
  6
CONTINUOUS
 62
     3
100
AcDbLine
 10
612.0586510657656
 20
505.3175017095626
 30
0.0
 11
612.6986510657655
 21
498.9194017095626
 31
0.0
  0
ARC
  5
3A4
330
19
100
AcDbEntity
  8
SEIHIN
  6
CONTINUOUS
 62
     3
100
AcDbCircle
 10
615.1862510657656
 20
499.1682017095626
 30
0.0
 40
2.500005999999999
100
AcDbArc
 50
185.711505
 51
270.0
  0
ARC
  5
3A5
330
19
100
AcDbEntity
  8
SEIHIN
  6
CONTINUOUS
 62
     3
100
AcDbCircle
 10
630.5661510657655
 20
505.1682017095625
 30
0.0
 40
1.499973999999999
100
AcDbArc
 50
5.712494
 51
90.0
  0
ARC
  5
3A6
330
19
100
AcDbEntity
  8
SEIHIN
  6
CONTINUOUS
 62
     3
100
AcDbCircle
 10
635.1862510657656
 20
499.1682017095626
 30
0.0
 40
2.500005999999999
100
AcDbArc
 50
185.711505
 51
270.0
  0
LINE
  5
3A7
330
19
100
AcDbEntity
  8
SEIHIN
  6
CONTINUOUS
 62
     3
100
AcDbLine
 10
632.0586510657656
 20
505.3175017095626
 30
0.0
 11
632.6986510657654
 21
498.9194017095626
 31
0.0
  0
LINE
  5
3A8
330
19
100
AcDbEntity
  8
SEIHIN
  6
CONTINUOUS
 62
     3
100
AcDbLine
 10
586.9240913542468
 20
526.6682017095625
 30
0.0
 11
691.9239510657655
 21
526.6682017095625
 31
0.0
  0
LINE
  5
3A9
330
19
100
AcDbEntity
  8
SEIHIN
  6
CONTINUOUS
 62
     3
100
AcDbLine
 10
586.9240913542468
 20
523.6682017095626
 30
0.0
 11
602.0736434061477
 21
523.6682017095626
 31
0.0
  0
LINE
  5
3AA
330
19
100
AcDbEntity
  8
SEIHIN
  6
CONTINUOUS
 62
     3
100
AcDbLine
 10
586.9240913542468
 20
526.6682017095625
 30
0.0
 11
586.9240913542468
 21
523.6682017095626
 31
0.0
  0
LINE
  5
3AB
330
19
100
AcDbEntity
  8
CENTER_L
  6
CENTER
 62
     1
 48
5.0
100
AcDbLine
 10
594.4235864595982
 20
531.6682017095624
 30
0.0
 11
594.4235864595982
 21
518.6682017095626
 31
0.0
  0
LINE
  5
3AC
330
19
100
AcDbEntity
  8
SEIHIN
  6
CONTINUOUS
 62
     3
100
AcDbLine
 10
781.9243510657654
 20
526.6682017095625
 30
0.0
 11
779.5668604232239
 21
479.518388858731
 31
0.0
  0
LINE
  5
3AD
330
19
100
AcDbEntity
  8
SEIHIN
  6
CONTINUOUS
 62
     3
100
AcDbLine
 10
761.9243510657654
 20
526.6682017095625
 30
0.0
 11
761.0431510657656
 21
509.0433017095627
 31
0.0
  0
LINE
  5
3AE
330
19
100
AcDbEntity
  8
SEIHIN
  6
CONTINUOUS
 62
     3
100
AcDbLine
 10
781.9243510657654
 20
526.6682017095625
 30
0.0
 11
781.0431510657656
 21
509.0433017095627
 31
0.0
  0
LINE
  5
3AF
330
19
100
AcDbEntity
  8
CENTER_L
  6
CENTER
 62
     1
 48
5.0
100
AcDbLine
 10
765.4243510657654
 20
491.6682017095626
 30
0.0
 11
778.4243510657654
 21
491.6682017095625
 31
0.0
  0
ARC
  5
3B0
330
19
100
AcDbEntity
  8
SEIHIN
  6
CONTINUOUS
 62
     3
100
AcDbCircle
 10
771.9243510657654
 20
491.6682017095626
 30
0.0
 40
2.25
100
AcDbArc
 50
2.85177512644327
 51
177.1482248735567
  0
ARC
  5
3B1
330
19
100
AcDbEntity
  8
SEIHIN
  6
CONTINUOUS
 62
     3
100
AcDbCircle
 10
773.2818510657655
 20
505.1682017095625
 30
0.0
 40
1.500023999999999
100
AcDbArc
 50
90.0
 51
174.287887
  0
LINE
  5
3B2
330
19
100
AcDbEntity
  8
CENTER_L
  6
CENTER
 62
     1
 48
5.0
100
AcDbLine
 10
771.9243510657654
 20
498.1682017095626
 30
0.0
 11
771.9243510657654
 21
485.1682017095627
 31
0.0
  0
LINE
  5
3B3
330
19
100
AcDbEntity
  8
SEIHIN
  6
CONTINUOUS
 62
     3
100
AcDbLine
 10
769.6771374958557
 20
491.7801444235445
 30
0.0
 11
768.9716867111078
 21
477.6184493922372
 31
0.0
  0
ARC
  5
3B4
330
19
100
AcDbEntity
  8
SEIHIN
  6
CONTINUOUS
 62
     3
100
AcDbCircle
 10
767.9729251244812
 20
477.6682017095626
 30
0.0
 40
1.0
100
AcDbArc
 50
270.0000000000005
 51
357.1482248735579
  0
LINE
  5
3B5
330
19
100
AcDbEntity
  8
SEIHIN
  6
CONTINUOUS
 62
     3
100
AcDbLine
 10
767.9729251244812
 20
476.6682017095626
 30
0.0
 11
763.0938344968642
 21
476.6682017095625
 31
0.0
  0
ARC
  5
3B6
330
19
100
AcDbEntity
  8
SEIHIN
  6
CONTINUOUS
 62
     3
100
AcDbCircle
 10
763.0938344968642
 20
473.6682017095625
 30
0.0
 40
3.0
100
AcDbArc
 50
90.0
 51
175.4259901814134
  0
ARC
  5
3B7
330
19
100
AcDbEntity
  8
SEIHIN
  6
CONTINUOUS
 62
     3
100
AcDbCircle
 10
748.6617510657654
 20
499.1682017095626
 30
0.0
 40
2.500005999999999
100
AcDbArc
 50
270.0
 51
354.288495
  0
ARC
  5
3B8
330
19
100
AcDbEntity
  8
SEIHIN
  6
CONTINUOUS
 62
     3
100
AcDbCircle
 10
753.2818510657655
 20
505.1682017095625
 30
0.0
 40
1.500023999999999
100
AcDbArc
 50
90.0
 51
174.287887
  0
LINE
  5
3B9
330
19
100
AcDbEntity
  8
SEIHIN
  6
CONTINUOUS
 62
     3
100
AcDbLine
 10
751.7892510657654
 20
505.3175017095626
 30
0.0
 11
751.1493510657656
 21
498.9194017095626
 31
0.0
  0
ARC
  5
3BA
330
19
100
AcDbEntity
  8
SEIHIN
  6
CONTINUOUS
 62
     3
100
AcDbCircle
 10
743.3091510657654
 20
495.1682017095626
 30
0.0
 40
1.500037999999999
100
AcDbArc
 50
90.0
 51
175.426993
  0
LINE
  5
3BB
330
19
100
AcDbEntity
  8
SEIHIN
  6
CONTINUOUS
 62
     3
100
AcDbLine
 10
771.7892510657654
 20
505.3175017095626
 30
0.0
 11
771.1493510657655
 21
498.9194017095626
 31
0.0
  0
ARC
  5
3BC
330
19
100
AcDbEntity
  8
SEIHIN
  6
CONTINUOUS
 62
     3
100
AcDbCircle
 10
768.6617510657654
 20
499.1682017095626
 30
0.0
 40
2.500005999999999
100
AcDbArc
 50
270.0
 51
354.288495
  0
ARC
  5
3BD
330
19
100
AcDbEntity
  8
SEIHIN
  6
CONTINUOUS
 62
     3
100
AcDbCircle
 10
758.5462510657655
 20
509.1682017095625
 30
0.0
 40
2.500011
100
AcDbArc
 50
270.0
 51
357.1363359999999
  0
ARC
  5
3BE
330
19
100
AcDbEntity
  8
SEIHIN
  6
CONTINUOUS
 62
     3
100
AcDbCircle
 10
763.3090754102731
 20
495.1682017095625
 30
0.0
 40
1.5
100
AcDbArc
 50
90.0
 51
175.4259901814134
  0
LINE
  5
3BF
330
19
100
AcDbEntity
  8
SEIHIN
  6
CONTINUOUS
 62
     3
100
AcDbLine
 10
774.8770154204232
 20
477.6184493922373
 30
0.0
 11
774.1715646356752
 21
491.7801444235445
 31
0.0
  0
ARC
  5
3C0
330
19
100
AcDbEntity
  8
SEIHIN
  6
CONTINUOUS
 62
     3
100
AcDbCircle
 10
775.8757770070499
 20
477.6682017095627
 30
0.0
 40
1.0
100
AcDbArc
 50
182.851775126442
 51
270.0
  0
LINE
  5
3C1
330
19
100
AcDbEntity
  8
SEIHIN
  6
CONTINUOUS
 62
     3
100
AcDbLine
 10
776.5706034065904
 20
476.6682017095626
 30
0.0
 11
775.8757770070499
 21
476.6682017095627
 31
0.0
  0
ARC
  5
3C2
330
19
100
AcDbEntity
  8
SEIHIN
  6
CONTINUOUS
 62
     3
100
AcDbCircle
 10
776.5706034065904
 20
479.6682017095626
 30
0.0
 40
3.0
100
AcDbArc
 50
270.0000000000001
 51
357.1375947738882
  0
ARC
  5
3C3
330
19
100
AcDbEntity
  8
SEIHIN
  6
CONTINUOUS
 62
     3
100
AcDbCircle
 10
778.5462510657655
 20
509.1682017095625
 30
0.0
 40
2.500011
100
AcDbArc
 50
270.0
 51
357.1363359999999
  0
LINE
  5
3C4
330
19
100
AcDbEntity
  8
SEIHIN
  6
CONTINUOUS
 62
     3
100
AcDbLine
 10
796.9243087789952
 20
523.6682017095626
 30
0.0
 11
781.7743587253835
 21
523.6682017095626
 31
0.0
  0
LINE
  5
3C5
330
19
100
AcDbEntity
  8
SEIHIN
  6
CONTINUOUS
 62
     3
100
AcDbLine
 10
796.9243087789952
 20
526.6682017095625
 30
0.0
 11
796.9243087789952
 21
523.6682017095626
 31
0.0
  0
LINE
  5
3C6
330
19
100
AcDbEntity
  8
CENTER_L
  6
CENTER
 62
     1
 48
5.0
100
AcDbLine
 10
789.4243156719331
 20
531.6682017095624
 30
0.0
 11
789.4243156719328
 21
518.6682017095626
 31
0.0
  0
LINE
  5
3C7
330
19
100
AcDbEntity
  8
SEIHIN
  6
CONTINUOUS
 62
     3
100
AcDbLine
 10
754.5945510657654
 20
773.3231017095626
 30
0.0
 11
768.9200510657656
 21
803.4068017095625
 31
0.0
  0
LINE
  5
3C8
330
19
100
AcDbEntity
  8
SEIHIN
  6
CONTINUOUS
 62
     3
100
AcDbLine
 10
755.5217510657655
 20
771.0603017095626
 30
0.0
 11
770.7299510657656
 21
802.9976017095627
 31
0.0
  0
LINE
  5
3C9
330
19
100
AcDbEntity
  8
SEIHIN
  6
CONTINUOUS
 62
     3
100
AcDbLine
 10
778.8277510657656
 20
801.1628017095626
 30
0.0
 11
760.8639510657654
 21
763.4388017095626
 31
0.0
  0
LINE
  5
3CA
330
19
100
AcDbEntity
  8
SEIHIN
  6
CONTINUOUS
 62
     3
100
AcDbLine
 10
781.6813510657655
 20
800.4103017095626
 30
0.0
 11
762.6028510657654
 21
760.3454017095627
 31
0.0
  0
LINE
  5
3CB
330
19
100
AcDbEntity
  8
SEIHIN
  6
CONTINUOUS
 62
     3
100
AcDbLine
 10
761.2043510657656
 20
762.0603017095626
 30
0.0
 11
779.7299510657656
 21
800.9641017095626
 31
0.0
  0
LINE
  5
3CC
330
19
100
AcDbEntity
  8
SEIHIN
  6
CONTINUOUS
 62
     3
100
AcDbLine
 10
751.7300510657655
 20
807.2905017095626
 30
0.0
 11
743.5251510657656
 21
790.0604017095625
 31
0.0
  0
LINE
  5
3CD
330
19
100
AcDbEntity
  8
SEIHIN
  6
CONTINUOUS
 62
     3
100
AcDbLine
 10
761.7299510657655
 20
805.0310017095625
 30
0.0
 11
749.8391510657654
 21
780.0604017095626
 31
0.0
  0
LINE
  5
3CE
330
19
100
AcDbEntity
  8
SEIHIN
  6
CONTINUOUS
 62
     3
100
AcDbLine
 10
632.1181510657654
 20
807.2905017095626
 30
0.0
 11
640.3230510657656
 21
790.0604017095625
 31
0.0
  0
LINE
  5
3CF
330
19
100
AcDbEntity
  8
SEIHIN
  6
CONTINUOUS
 62
     3
100
AcDbLine
 10
628.3263510657654
 20
771.0604017095626
 30
0.0
 11
613.1181510657654
 21
802.9977017095626
 31
0.0
  0
LINE
  5
3D0
330
19
100
AcDbEntity
  8
SEIHIN
  6
CONTINUOUS
 62
     3
100
AcDbLine
 10
629.2536510657655
 20
773.3232017095627
 30
0.0
 11
614.9280510657654
 21
803.4069017095626
 31
0.0
  0
LINE
  5
3D1
330
19
100
AcDbEntity
  8
SEIHIN
  6
CONTINUOUS
 62
     3
100
AcDbLine
 10
622.1181510657654
 20
805.0311017095626
 30
0.0
 11
634.0090510657655
 21
780.0604017095626
 31
0.0
  0
LINE
  5
3D2
330
19
100
AcDbEntity
  8
CENTER_L
  6
CENTER
 62
     1
 48
5.0
100
AcDbLine
 10
691.9241510657655
 20
750.7230017095626
 30
0.0
 11
691.9242510657654
 21
918.4692017095626
 31
0.0
  0
DIMENSION
  5
3D3
330
19
100
AcDbEntity
  8
SUNPOU
  6
CONTINUOUS
100
AcDbDimension
  2
*D15
 10
586.9240913542468
 20
710.6814268757257
 30
0.0
 11
692.2880602056502
 21
710.6814268757257
 31
0.0
 12
0.0
 22
-22.39524547816563
 32
0.0
 70
   160
  3
STANDARD
100
AcDbAlignedDimension
 13
796.9243087789955
 23
832.920012538541
 33
0.0
 14
586.9240913542468
 24
832.9201377277957
 34
0.0
100
AcDbRotatedDimension
1001
ACAD
1000
DSTYLE
1002
{
1070
   288
1070
     1
1070
   140
1040
12.0
1070
    74
1070
     0
1070
   172
1070
     1
1070
    73
1070
     0
1070
   272
1070
     2
1070
    77
1070
     3
1070
   173
1070
     1
1070
   147
1040
4.0
1070
    42
1040
12.0
1070
    44
1040
6.0
1070
    43
1040
28.0
1070
   271
1070
     0
1070
   178
1070
     4
1070
   177
1070
     4
1070
   176
1070
     4
1070
   141
1040
150.0
1070
     7
1000
_OPEN
1070
     6
1000
_OPEN
1070
    41
1040
14.0
1070
   143
1040
0.03937
1002
}
  0
LINE
  5
3D4
330
19
100
AcDbEntity
  8
SEIHIN
  6
CONTINUOUS
 62
     3
100
AcDbLine
 10
605.0204510657654
 20
801.1629017095627
 30
0.0
 11
622.9842510657656
 21
763.4389017095626
 31
0.0
  0
LINE
  5
3D5
330
19
100
AcDbEntity
  8
SEIHIN
  6
CONTINUOUS
 62
     3
100
AcDbLine
 10
622.6437510657656
 20
762.0604017095626
 30
0.0
 11
604.1181510657654
 21
800.9642017095625
 31
0.0
  0
LINE
  5
3D6
330
19
100
AcDbEntity
  8
SEIHIN
  6
CONTINUOUS
 62
     3
100
AcDbLine
 10
602.1667510657655
 20
800.4103017095626
 30
0.0
 11
621.2452510657656
 21
760.3455017095626
 31
0.0
  0
LINE
  5
3D7
330
19
100
AcDbEntity
  8
SEIHIN
  6
CONTINUOUS
 62
     3
100
AcDbLine
 10
741.7194510657655
 20
788.9203017095626
 30
0.0
 11
691.9241510657655
 21
788.9204017095626
 31
0.0
  0
LINE
  5
3D8
330
19
100
AcDbEntity
  8
SEIHIN
  6
CONTINUOUS
 62
     3
100
AcDbLine
 10
691.9240510657655
 20
772.1830017095626
 30
0.0
 11
752.7887510657656
 21
772.1829017095626
 31
0.0
  0
LINE
  5
3D9
330
19
100
AcDbEntity
  8
SEIHIN
  6
CONTINUOUS
 62
     3
100
AcDbLine
 10
753.7160510657654
 20
769.9202017095626
 30
0.0
 11
691.9241510657655
 21
769.9203017095626
 31
0.0
  0
LINE
  5
3DA
330
19
100
AcDbEntity
  8
SEIHIN
  6
CONTINUOUS
 62
     3
100
AcDbLine
 10
748.0334510657655
 20
778.9203017095626
 30
0.0
 11
691.9241510657655
 21
778.9204017095626
 31
0.0
  0
LINE
  5
3DB
330
19
100
AcDbEntity
  8
SEIHIN
  6
CONTINUOUS
 62
     3
100
AcDbLine
 10
691.9240510657655
 20
762.2988017095626
 30
0.0
 11
759.0582510657655
 21
762.2987017095627
 31
0.0
  0
LINE
  5
3DC
330
19
100
AcDbEntity
  8
SEIHIN
  6
CONTINUOUS
 62
     3
100
AcDbLine
 10
691.9241510657655
 20
758.9204017095625
 30
0.0
 11
760.3457510657656
 21
758.9202017095626
 31
0.0
  0
LINE
  5
3DD
330
19
100
AcDbEntity
  8
SEIHIN
  6
CONTINUOUS
 62
     3
100
AcDbLine
 10
759.3986510657655
 20
760.9202017095626
 30
0.0
 11
691.9241510657655
 21
760.9203017095626
 31
0.0
  0
ARC
  5
3DE
330
19
100
AcDbEntity
  8
SEIHIN
  6
CONTINUOUS
 62
     3
100
AcDbCircle
 10
642.1287510657655
 20
790.9203017095626
 30
0.0
 40
1.999997999999999
100
AcDbArc
 50
205.464454
 51
270.0
  0
LINE
  5
3DF
330
19
100
AcDbEntity
  8
SEIHIN
  6
CONTINUOUS
 62
     3
100
AcDbLine
 10
691.9241510657655
 20
772.1830017095626
 30
0.0
 11
631.0593510657654
 21
772.1830017095626
 31
0.0
  0
LINE
  5
3E0
330
19
100
AcDbEntity
  8
SEIHIN
  6
CONTINUOUS
 62
     3
100
AcDbLine
 10
691.9241510657655
 20
762.2987017095627
 30
0.0
 11
624.7899510657655
 21
762.2988017095626
 31
0.0
  0
LINE
  5
3E1
330
19
100
AcDbEntity
  8
SEIHIN
  6
CONTINUOUS
 62
     3
100
AcDbLine
 10
635.8147510657654
 20
778.9203017095626
 30
0.0
 11
691.9239510657655
 21
778.9203017095626
 31
0.0
  0
LINE
  5
3E2
330
19
100
AcDbEntity
  8
SEIHIN
  6
CONTINUOUS
 62
     3
100
AcDbLine
 10
630.1321510657656
 20
769.9203017095626
 30
0.0
 11
691.9239510657655
 21
769.9203017095626
 31
0.0
  0
LINE
  5
3E3
330
19
100
AcDbEntity
  8
SEIHIN
  6
CONTINUOUS
 62
     3
100
AcDbLine
 10
624.4494510657655
 20
760.9203017095626
 30
0.0
 11
691.9239510657655
 21
760.9203017095626
 31
0.0
  0
LINE
  5
3E4
330
19
100
AcDbEntity
  8
SEIHIN
  6
CONTINUOUS
 62
     3
100
AcDbLine
 10
691.9239510657655
 20
758.9203017095626
 30
0.0
 11
623.5024510657656
 21
758.9203017095626
 31
0.0
  0
ARC
  5
3E5
330
19
100
AcDbEntity
  8
SEIHIN
  6
CONTINUOUS
 62
     3
100
AcDbCircle
 10
624.7899510657655
 20
764.2988017095627
 30
0.0
 40
1.999997999999999
100
AcDbArc
 50
205.464454
 51
270.0
  0
ARC
  5
3E6
330
19
100
AcDbEntity
  8
SEIHIN
  6
CONTINUOUS
 62
     3
100
AcDbCircle
 10
623.5024510657656
 20
761.4203017095626
 30
0.0
 40
2.500015
100
AcDbArc
 50
205.4621629999999
 51
270.0
  0
ARC
  5
3E7
330
19
100
AcDbEntity
  8
SEIHIN
  6
CONTINUOUS
 62
     3
100
AcDbCircle
 10
624.4494510657655
 20
762.9203017095626
 30
0.0
 40
1.999997999999999
100
AcDbArc
 50
205.464454
 51
270.0
  0
ARC
  5
3E8
330
19
100
AcDbEntity
  8
SEIHIN
  6
CONTINUOUS
 62
     3
100
AcDbCircle
 10
635.8147510657654
 20
780.9203017095626
 30
0.0
 40
1.999997999999999
100
AcDbArc
 50
205.464454
 51
270.0
  0
LINE
  5
3E9
330
19
100
AcDbEntity
  8
SEIHIN
  6
CONTINUOUS
 62
     3
100
AcDbLine
 10
640.8659510657655
 20
788.9203017095626
 30
0.0
 11
634.8622510657655
 21
779.4117017095625
 31
0.0
  0
ARC
  5
3EA
330
19
100
AcDbEntity
  8
SEIHIN
  6
CONTINUOUS
 62
     3
100
AcDbCircle
 10
631.0593510657654
 20
774.1830017095626
 30
0.0
 40
1.999975999999999
100
AcDbArc
 50
205.4618669999999
 51
270.0
  0
ARC
  5
3EB
330
19
100
AcDbEntity
  8
SEIHIN
  6
CONTINUOUS
 62
     3
100
AcDbCircle
 10
630.1321510657656
 20
771.9203017095626
 30
0.0
 40
2.000043
100
AcDbArc
 50
205.463222
 51
270.0
  0
LINE
  5
3EC
330
19
100
AcDbEntity
  8
SEIHIN
  6
CONTINUOUS
 62
     3
100
AcDbLine
 10
642.1287510657655
 20
788.9203017095626
 30
0.0
 11
691.9239510657655
 21
788.9203017095626
 31
0.0
  0
ARC
  5
3ED
330
19
100
AcDbEntity
  8
SEIHIN
  6
CONTINUOUS
 62
     3
100
AcDbCircle
 10
759.0582510657655
 20
764.2987017095626
 30
0.0
 40
1.999997999999999
100
AcDbArc
 50
270.0
 51
334.535546
  0
ARC
  5
3EE
330
19
100
AcDbEntity
  8
SEIHIN
  6
CONTINUOUS
 62
     3
100
AcDbCircle
 10
759.3986510657655
 20
762.9202017095626
 30
0.0
 40
1.999975999999999
100
AcDbArc
 50
270.0
 51
334.538133
  0
ARC
  5
3EF
330
19
100
AcDbEntity
  8
SEIHIN
  6
CONTINUOUS
 62
     3
100
AcDbCircle
 10
760.3457510657656
 20
761.4202017095626
 30
0.0
 40
2.49997
100
AcDbArc
 50
270.0
 51
334.536852
  0
ARC
  5
3F0
330
19
100
AcDbEntity
  8
SEIHIN
  6
CONTINUOUS
 62
     3
100
AcDbCircle
 10
748.0334510657655
 20
780.9202017095627
 30
0.0
 40
1.999975999999999
100
AcDbArc
 50
270.0
 51
334.538133
  0
ARC
  5
3F1
330
19
100
AcDbEntity
  8
SEIHIN
  6
CONTINUOUS
 62
     3
100
AcDbCircle
 10
752.7887510657656
 20
774.1829017095626
 30
0.0
 40
2.000020999999999
100
AcDbArc
 50
270.0
 51
334.5393649999999
  0
ARC
  5
3F2
330
19
100
AcDbEntity
  8
SEIHIN
  6
CONTINUOUS
 62
     3
100
AcDbCircle
 10
753.7160510657654
 20
771.9202017095626
 30
0.0
 40
1.999997999999999
100
AcDbArc
 50
270.0
 51
334.535546
  0
ARC
  5
3F3
330
19
100
AcDbEntity
  8
SEIHIN
  6
CONTINUOUS
 62
     3
100
AcDbCircle
 10
741.7194510657655
 20
790.9202017095626
 30
0.0
 40
1.999975999999999
100
AcDbArc
 50
270.0
 51
334.538133
  0
LINE
  5
3F4
330
19
100
AcDbEntity
  8
SEIHIN
  6
CONTINUOUS
 62
     3
100
AcDbLine
 10
742.9822510657654
 20
788.9203017095626
 30
0.0
 11
748.9859510657656
 21
779.4117017095625
 31
0.0
  0
CIRCLE
  5
3F5
330
19
100
AcDbEntity
  8
SEIHIN
  6
CONTINUOUS
 62
     3
100
AcDbCircle
 10
691.9239510657655
 20
850.9202017095626
 30
0.0
 40
26.45
  0
CIRCLE
  5
3F6
330
19
100
AcDbEntity
  8
SEIHIN
  6
CONTINUOUS
 62
     3
100
AcDbCircle
 10
691.9239510657655
 20
850.9202017095626
 30
0.0
 40
24.3
  0
LINE
  5
3F7
330
19
100
AcDbEntity
  8
SEIHIN
  6
CONTINUOUS
 62
     3
100
AcDbLine
 10
777.9244510657654
 20
910.9202017095626
 30
0.0
 11
691.9243510657654
 21
910.9201017095626
 31
0.0
  0
LINE
  5
3F8
330
19
100
AcDbEntity
  8
SEIHIN
  6
CONTINUOUS
 62
     3
100
AcDbLine
 10
691.9243510657654
 20
912.9202017095627
 30
0.0
 11
779.4244510657654
 21
912.9202017095627
 31
0.0
  0
LINE
  5
3F9
330
19
100
AcDbEntity
  8
CENTER_L
  6
CENTER
 62
     1
 48
5.0
100
AcDbLine
 10
579.9240797679367
 20
850.9202017095626
 30
0.0
 11
803.9243418266149
 21
850.9202017095626
 31
0.0
  0
LINE
  5
3FA
330
19
100
AcDbEntity
  8
SEIHIN
  6
CONTINUOUS
 62
     3
100
AcDbLine
 10
614.7338510657655
 20
804.2668017095627
 30
0.0
 11
614.7338510657655
 21
908.9202017095626
 31
0.0
  0
LINE
  5
3FB
330
19
100
AcDbEntity
  8
SEIHIN
  6
CONTINUOUS
 62
     3
100
AcDbLine
 10
631.9239510657655
 20
808.1504017095626
 30
0.0
 11
631.9239510657655
 21
908.9202017095626
 31
0.0
  0
LINE
  5
3FC
330
19
100
AcDbEntity
  8
SEIHIN
  6
CONTINUOUS
 62
     3
100
AcDbLine
 10
621.9239510657655
 20
805.8910017095625
 30
0.0
 11
621.9239510657655
 21
908.9202017095626
 31
0.0
  0
LINE
  5
3FD
330
19
100
AcDbEntity
  8
SEIHIN
  6
CONTINUOUS
 62
     3
100
AcDbLine
 10
612.9239510657655
 20
803.8575017095626
 30
0.0
 11
612.9239510657655
 21
908.9202017095626
 31
0.0
  0
LINE
  5
3FE
330
19
100
AcDbEntity
  8
SEIHIN
  6
CONTINUOUS
 62
     3
100
AcDbLine
 10
604.8262510657655
 20
802.0228017095625
 30
0.0
 11
604.8262510657655
 21
908.9202017095626
 31
0.0
  0
LINE
  5
3FF
330
19
100
AcDbEntity
  8
SEIHIN
  6
CONTINUOUS
 62
     3
100
AcDbLine
 10
603.9239510657655
 20
801.8241017095627
 30
0.0
 11
603.9239510657655
 21
908.9202017095626
 31
0.0
  0
LINE
  5
400
330
19
100
AcDbEntity
  8
SEIHIN
  6
CONTINUOUS
 62
     3
100
AcDbLine
 10
601.9239510657655
 20
872.9201563901069
 30
0.0
 11
601.9239510657655
 21
910.4202017095627
 31
0.0
  0
LINE
  5
401
330
19
100
AcDbEntity
  8
CENTER_L
  6
CENTER
 62
     1
 48
5.0
100
AcDbLine
 10
594.4240889376072
 20
836.6745430010912
 30
0.0
 11
594.4240834719724
 21
845.1657524043499
 31
0.0
  0
LINE
  5
402
330
19
100
AcDbEntity
  8
SEIHIN
  6
CONTINUOUS
 62
     3
100
AcDbLine
 10
586.9240913542468
 20
832.9201377277957
 30
0.0
 11
586.924068181712
 21
868.920137727804
 31
0.0
  0
LINE
  5
403
330
19
100
AcDbEntity
  8
SEIHIN
  6
CONTINUOUS
 62
     3
100
AcDbLine
 10
601.9240521573635
 20
828.9201627084372
 30
0.0
 11
601.9241389331901
 21
801.4517457205815
 31
0.0
  0
ARC
  5
404
330
19
100
AcDbEntity
  8
SEIHIN
  6
CONTINUOUS
 62
     3
100
AcDbCircle
 10
606.8262510657655
 20
802.0228017095625
 30
0.0
 40
2.000043
100
AcDbArc
 50
180.0
 51
205.463222
  0
ARC
  5
405
330
19
100
AcDbEntity
  8
SEIHIN
  6
CONTINUOUS
 62
     3
100
AcDbCircle
 10
605.9239510657655
 20
801.8241017095627
 30
0.0
 40
2.000043
100
AcDbArc
 50
180.0
 51
205.463222
  0
ARC
  5
406
330
19
100
AcDbEntity
  8
SEIHIN
  6
CONTINUOUS
 62
     3
100
AcDbCircle
 10
604.4239510657655
 20
801.4852017095625
 30
0.0
 40
2.500036
100
AcDbArc
 50
180.0
 51
205.464232
  0
LINE
  5
407
330
19
100
AcDbEntity
  8
SEIHIN
  6
CONTINUOUS
 62
     3
100
AcDbLine
 10
588.9240945133592
 20
830.9201390151613
 30
0.0
 11
599.9240489982607
 21
830.9201563902092
 31
0.0
  0
ARC
  5
408
330
19
100
AcDbEntity
  8
SEIHIN
  6
CONTINUOUS
 62
     3
100
AcDbCircle
 10
588.9240913542466
 20
832.9201390151588
 30
0.0
 40
2.0
100
AcDbArc
 50
180.0000368802348
 51
270.0000905019125
  0
ARC
  5
409
330
19
100
AcDbEntity
  8
SEIHIN
  6
CONTINUOUS
 62
     3
100
AcDbCircle
 10
599.9240521573735
 20
828.9201563902118
 30
0.0
 40
2.0
100
AcDbArc
 50
0.0001810038275845
 51
90.00009050191199
  0
LINE
  5
40A
330
19
100
AcDbEntity
  8
SEIHIN
  6
CONTINUOUS
 62
     3
100
AcDbLine
 10
622.2184510657655
 20
805.5057017095627
 30
0.0
 11
631.9239510657655
 21
807.6986017095626
 31
0.0
  0
ARC
  5
40B
330
19
100
AcDbEntity
  8
SEIHIN
  6
CONTINUOUS
 62
     3
100
AcDbCircle
 10
616.7338510657655
 20
804.2668017095627
 30
0.0
 40
2.000043
100
AcDbArc
 50
180.0
 51
205.463222
  0
ARC
  5
40C
330
19
100
AcDbEntity
  8
SEIHIN
  6
CONTINUOUS
 62
     3
100
AcDbCircle
 10
623.9239510657655
 20
805.8910017095625
 30
0.0
 40
2.000043
100
AcDbArc
 50
180.0
 51
205.463222
  0
ARC
  5
40D
330
19
100
AcDbEntity
  8
SEIHIN
  6
CONTINUOUS
 62
     3
100
AcDbCircle
 10
614.9239510657655
 20
803.8575017095626
 30
0.0
 40
2.000020999999999
100
AcDbArc
 50
180.0
 51
205.460635
  0
ARC
  5
40E
330
19
100
AcDbEntity
  8
SEIHIN
  6
CONTINUOUS
 62
     3
100
AcDbCircle
 10
633.9239510657655
 20
808.1504017095626
 30
0.0
 40
2.000043
100
AcDbArc
 50
180.0
 51
205.463222
  0
CIRCLE
  5
40F
330
19
100
AcDbEntity
  8
SEIHIN
  6
CONTINUOUS
 62
     3
100
AcDbCircle
 10
594.4240733311594
 20
860.9201477027253
 30
0.0
 40
2.25
  0
LINE
  5
410
330
19
100
AcDbEntity
  8
CENTER_L
  6
CENTER
 62
     1
 48
5.0
100
AcDbLine
 10
594.4240760639766
 20
856.6745430010957
 30
0.0
 11
594.424070598342
 21
865.1657524043548
 31
0.0
  0
LINE
  5
411
330
19
100
AcDbEntity
  8
CENTER_L
  6
CENTER
 62
     1
 48
5.0
100
AcDbLine
 10
590.1784815031649
 20
840.9201409965486
 30
0.0
 11
598.6696909064151
 21
840.9201544088924
 31
0.0
  0
CIRCLE
  5
412
330
19
100
AcDbEntity
  8
SEIHIN
  6
CONTINUOUS
 62
     3
100
AcDbCircle
 10
594.4240862047897
 20
840.9201477027206
 30
0.0
 40
2.25
  0
LINE
  5
413
330
19
100
AcDbEntity
  8
CENTER_L
  6
CENTER
 62
     1
 48
5.0
100
AcDbLine
 10
590.1784686295343
 20
860.9201409965534
 30
0.0
 11
598.6696780327845
 21
860.9201544088973
 31
0.0
  0
LINE
  5
414
330
19
100
AcDbEntity
  8
SEIHIN
  6
CONTINUOUS
 62
     3
100
AcDbLine
 10
588.9240650225988
 20
870.9201390151646
 30
0.0
 11
599.9239542248783
 21
870.9201563901093
 31
0.0
  0
ARC
  5
415
330
19
100
AcDbEntity
  8
SEIHIN
  6
CONTINUOUS
 62
     3
100
AcDbCircle
 10
588.9240681817116
 20
868.9201390151673
 30
0.0
 40
2.0
100
AcDbArc
 50
90.00009050191255
 51
180.0000368802347
  0
ARC
  5
416
330
19
100
AcDbEntity
  8
SEIHIN
  6
CONTINUOUS
 62
     3
100
AcDbCircle
 10
599.9239510657655
 20
872.9201563901069
 30
0.0
 40
2.0
100
AcDbArc
 50
270.0000905019132
 51
0.0
  0
LINE
  5
417
330
19
100
AcDbEntity
  8
SEIHIN
  6
CONTINUOUS
 62
     3
100
AcDbLine
 10
605.9239510657655
 20
910.9202017095626
 30
0.0
 11
691.9239510657655
 21
910.9202017095626
 31
0.0
  0
LINE
  5
418
330
19
100
AcDbEntity
  8
SEIHIN
  6
CONTINUOUS
 62
     3
100
AcDbLine
 10
691.9239510657655
 20
912.9202017095627
 30
0.0
 11
604.4239510657655
 21
912.9202017095627
 31
0.0
  0
ARC
  5
419
330
19
100
AcDbEntity
  8
SEIHIN
  6
CONTINUOUS
 62
     3
100
AcDbCircle
 10
605.9239510657655
 20
908.9202017095626
 30
0.0
 40
2.0
100
AcDbArc
 50
90.0
 51
180.0
  0
ARC
  5
41A
330
19
100
AcDbEntity
  8
SEIHIN
  6
CONTINUOUS
 62
     3
100
AcDbCircle
 10
604.4239510657655
 20
910.4202017095627
 30
0.0
 40
2.5
100
AcDbArc
 50
90.0
 51
180.0
  0
ARC
  5
41B
330
19
100
AcDbEntity
  8
SEIHIN
  6
CONTINUOUS
 62
     3
100
AcDbCircle
 10
606.8262510657655
 20
908.9202017095626
 30
0.0
 40
2.0
100
AcDbArc
 50
90.0
 51
180.0
  0
ARC
  5
41C
330
19
100
AcDbEntity
  8
SEIHIN
  6
CONTINUOUS
 62
     3
100
AcDbCircle
 10
616.7338510657655
 20
908.9202017095626
 30
0.0
 40
2.0
100
AcDbArc
 50
90.0
 51
180.0
  0
ARC
  5
41D
330
19
100
AcDbEntity
  8
SEIHIN
  6
CONTINUOUS
 62
     3
100
AcDbCircle
 10
614.9239510657655
 20
908.9202017095626
 30
0.0
 40
2.0
100
AcDbArc
 50
90.0
 51
180.0
  0
ARC
  5
41E
330
19
100
AcDbEntity
  8
SEIHIN
  6
CONTINUOUS
 62
     3
100
AcDbCircle
 10
623.9239510657655
 20
908.9202017095626
 30
0.0
 40
2.0
100
AcDbArc
 50
90.0
 51
180.0
  0
ARC
  5
41F
330
19
100
AcDbEntity
  8
SEIHIN
  6
CONTINUOUS
 62
     3
100
AcDbCircle
 10
633.9239510657655
 20
908.9202017095626
 30
0.0
 40
2.0
100
AcDbArc
 50
90.0
 51
180.0
  0
LINE
  5
420
330
19
100
AcDbEntity
  8
SEIHIN
  6
CONTINUOUS
 62
     3
100
AcDbLine
 10
769.1143510657655
 20
804.2667017095626
 30
0.0
 11
769.1144510657655
 21
908.9201017095627
 31
0.0
  0
LINE
  5
421
330
19
100
AcDbEntity
  8
SEIHIN
  6
CONTINUOUS
 62
     3
100
AcDbLine
 10
779.0220510657655
 20
802.0226017095627
 30
0.0
 11
779.0221510657654
 21
908.9201017095627
 31
0.0
  0
LINE
  5
422
330
19
100
AcDbEntity
  8
SEIHIN
  6
CONTINUOUS
 62
     3
100
AcDbLine
 10
761.9242510657654
 20
805.8909017095626
 30
0.0
 11
761.9244510657654
 21
908.9202017095626
 31
0.0
  0
LINE
  5
423
330
19
100
AcDbEntity
  8
SEIHIN
  6
CONTINUOUS
 62
     3
100
AcDbLine
 10
770.9242510657654
 20
803.8575017095626
 30
0.0
 11
770.9244510657654
 21
908.9202017095626
 31
0.0
  0
LINE
  5
424
330
19
100
AcDbEntity
  8
SEIHIN
  6
CONTINUOUS
 62
     3
100
AcDbLine
 10
751.9242510657655
 20
808.1503017095625
 30
0.0
 11
751.9244510657654
 21
908.9202017095626
 31
0.0
  0
LINE
  5
425
330
19
100
AcDbEntity
  8
SEIHIN
  6
CONTINUOUS
 62
     3
100
AcDbLine
 10
779.9242510657655
 20
801.8240017095626
 30
0.0
 11
779.9244510657654
 21
908.9202017095626
 31
0.0
  0
LINE
  5
426
330
19
100
AcDbEntity
  8
SEIHIN
  6
CONTINUOUS
 62
     3
100
AcDbLine
 10
781.9243822173957
 20
872.920050372498
 30
0.0
 11
781.9244510657654
 21
910.4200017095626
 31
0.0
  0
LINE
  5
427
330
19
100
AcDbEntity
  8
SEIHIN
  6
CONTINUOUS
 62
     3
100
AcDbLine
 10
761.6296510657655
 20
805.5056017095626
 30
0.0
 11
751.9242510657655
 21
807.6986017095626
 31
0.0
  0
ARC
  5
428
330
19
100
AcDbEntity
  8
SEIHIN
  6
CONTINUOUS
 62
     3
100
AcDbCircle
 10
749.9242510657654
 20
808.1503017095625
 30
0.0
 40
2.000020999999999
100
AcDbArc
 50
334.5393649999999
 51
0.0
  0
ARC
  5
429
330
19
100
AcDbEntity
  8
SEIHIN
  6
CONTINUOUS
 62
     3
100
AcDbCircle
 10
768.9242510657654
 20
803.8575017095626
 30
0.0
 40
1.999997999999999
100
AcDbArc
 50
334.535546
 51
0.0
  0
ARC
  5
42A
330
19
100
AcDbEntity
  8
SEIHIN
  6
CONTINUOUS
 62
     3
100
AcDbCircle
 10
767.1143510657655
 20
804.2667017095626
 30
0.0
 40
1.999997999999999
100
AcDbArc
 50
334.535546
 51
0.0
  0
ARC
  5
42B
330
19
100
AcDbEntity
  8
SEIHIN
  6
CONTINUOUS
 62
     3
100
AcDbCircle
 10
759.9242510657655
 20
805.8909017095626
 30
0.0
 40
1.999975999999999
100
AcDbArc
 50
334.538133
 51
0.0
  0
LINE
  5
42C
330
19
100
AcDbEntity
  8
CENTER_L
  6
CENTER
 62
     1
 48
5.0
100
AcDbLine
 10
789.4243156719331
 20
836.6744267539113
 30
0.0
 11
789.4243312614446
 21
845.1656361571576
 31
0.0
  0
LINE
  5
42D
330
19
100
AcDbEntity
  8
SEIHIN
  6
CONTINUOUS
 62
     3
100
AcDbLine
 10
796.9243087789955
 20
832.920012538541
 30
0.0
 11
796.9243748735161
 21
868.9200125384962
 31
0.0
  0
LINE
  5
42E
330
19
100
AcDbEntity
  8
SEIHIN
  6
CONTINUOUS
 62
     3
100
AcDbLine
 10
781.9242415392253
 20
828.920054116218
 30
0.0
 11
781.9241397436542
 21
801.4649374065198
 31
0.0
  0
ARC
  5
42F
330
19
100
AcDbEntity
  8
SEIHIN
  6
CONTINUOUS
 62
     3
100
AcDbCircle
 10
777.9242510657654
 20
801.8240017095626
 30
0.0
 40
1.999997999999999
100
AcDbArc
 50
334.535546
 51
0.0
  0
ARC
  5
430
330
19
100
AcDbEntity
  8
SEIHIN
  6
CONTINUOUS
 62
     3
100
AcDbCircle
 10
779.4242510657654
 20
801.4851017095626
 30
0.0
 40
2.49997
100
AcDbArc
 50
334.536852
 51
0.0
  0
ARC
  5
431
330
19
100
AcDbEntity
  8
SEIHIN
  6
CONTINUOUS
 62
     3
100
AcDbCircle
 10
777.0220510657654
 20
802.0226017095627
 30
0.0
 40
1.999975999999999
100
AcDbArc
 50
334.538133
 51
0.0
  0
LINE
  5
432
330
19
100
AcDbEntity
  8
SEIHIN
  6
CONTINUOUS
 62
     3
100
AcDbLine
 10
794.9243032353312
 20
830.9200162104666
 30
0.0
 11
783.9242470828789
 21
830.9200467007933
 31
0.0
  0
ARC
  5
433
330
19
100
AcDbEntity
  8
SEIHIN
  6
CONTINUOUS
 62
     3
100
AcDbCircle
 10
783.9242415392114
 20
828.920046700801
 30
0.0
 40
2.0
100
AcDbArc
 50
89.99984118562556
 51
179.9997875639478
  0
ARC
  5
434
330
19
100
AcDbEntity
  8
SEIHIN
  6
CONTINUOUS
 62
     3
100
AcDbCircle
 10
794.9243087789989
 20
832.9200162104589
 30
0.0
 40
2.0
100
AcDbArc
 50
269.9998411856256
 51
359.9998948073031
  0
LINE
  5
435
330
19
100
AcDbEntity
  8
CENTER_L
  6
CENTER
 62
     1
 48
5.0
100
AcDbLine
 10
789.4243523911111
 20
856.6744267538863
 30
0.0
 11
789.4243679806227
 21
865.1656361571328
 31
0.0
  0
CIRCLE
  5
436
330
19
100
AcDbEntity
  8
SEIHIN
  6
CONTINUOUS
 62
     3
100
AcDbCircle
 10
789.4243601858668
 20
860.9200314555096
 30
0.0
 40
2.25
  0
CIRCLE
  5
437
330
19
100
AcDbEntity
  8
SEIHIN
  6
CONTINUOUS
 62
     3
100
AcDbCircle
 10
789.4243234666888
 20
840.9200314555345
 30
0.0
 40
2.25
  0
LINE
  5
438
330
19
100
AcDbEntity
  8
CENTER_L
  6
CENTER
 62
     1
 48
5.0
100
AcDbLine
 10
793.6699281683029
 20
840.9200196874241
 30
0.0
 11
785.1787187650748
 21
840.9200432236447
 31
0.0
  0
LINE
  5
439
330
19
100
AcDbEntity
  8
CENTER_L
  6
CENTER
 62
     1
 48
5.0
100
AcDbLine
 10
793.6699648874809
 20
860.9200196873992
 30
0.0
 11
785.1787554842529
 21
860.92004322362
 31
0.0
  0
LINE
  5
43A
330
19
100
AcDbEntity
  8
SEIHIN
  6
CONTINUOUS
 62
     3
100
AcDbLine
 10
794.9243804171869
 20
870.9200162104064
 30
0.0
 11
783.9243766737249
 21
870.920046700588
 31
0.0
  0
ARC
  5
43B
330
19
100
AcDbEntity
  8
SEIHIN
  6
CONTINUOUS
 62
     3
100
AcDbCircle
 10
783.9243822173923
 20
872.9200467005801
 30
0.0
 40
2.0
100
AcDbArc
 50
179.9998948073032
 51
269.9998411856256
  0
ARC
  5
43C
330
19
100
AcDbEntity
  8
SEIHIN
  6
CONTINUOUS
 62
     3
100
AcDbCircle
 10
794.9243748735195
 20
868.9200162104141
 30
0.0
 40
2.0
100
AcDbArc
 50
359.9998948073032
 51
89.99984118562553
  0
ARC
  5
43D
330
19
100
AcDbEntity
  8
SEIHIN
  6
CONTINUOUS
 62
     3
100
AcDbCircle
 10
749.9244510657653
 20
908.9202017095626
 30
0.0
 40
2.0
100
AcDbArc
 50
0.0
 51
90.0
  0
ARC
  5
43E
330
19
100
AcDbEntity
  8
SEIHIN
  6
CONTINUOUS
 62
     3
100
AcDbCircle
 10
767.1144510657654
 20
908.9201017095627
 30
0.0
 40
2.0
100
AcDbArc
 50
0.0
 51
90.0
  0
ARC
  5
43F
330
19
100
AcDbEntity
  8
SEIHIN
  6
CONTINUOUS
 62
     3
100
AcDbCircle
 10
768.9244510657654
 20
908.9202017095626
 30
0.0
 40
2.0
100
AcDbArc
 50
0.0
 51
90.0
  0
ARC
  5
440
330
19
100
AcDbEntity
  8
SEIHIN
  6
CONTINUOUS
 62
     3
100
AcDbCircle
 10
759.9244510657654
 20
908.9202017095626
 30
0.0
 40
2.0
100
AcDbArc
 50
0.0
 51
90.0
  0
ARC
  5
441
330
19
100
AcDbEntity
  8
SEIHIN
  6
CONTINUOUS
 62
     3
100
AcDbCircle
 10
777.0221510657655
 20
908.9201017095627
 30
0.0
 40
2.0
100
AcDbArc
 50
0.0
 51
90.0
  0
ARC
  5
442
330
19
100
AcDbEntity
  8
SEIHIN
  6
CONTINUOUS
 62
     3
100
AcDbCircle
 10
777.9244510657654
 20
908.9202017095626
 30
0.0
 40
2.0
100
AcDbArc
 50
0.0
 51
90.0
  0
ARC
  5
443
330
19
100
AcDbEntity
  8
SEIHIN
  6
CONTINUOUS
 62
     3
100
AcDbCircle
 10
779.4244510657654
 20
910.4202017095627
 30
0.0
 40
2.5
100
AcDbArc
 50
0.0
 51
90.0
  0
DIMENSION
  5
444
330
19
100
AcDbEntity
  8
SUNPOU
  6
CONTINUOUS
 62
     4
100
AcDbDimension
  2
*D16
 10
1051.924028314504
 20
228.7628748365027
 30
0.0
 11
1111.923882480589
 21
238.7628748365027
 31
0.0
 12
0.0
 22
-22.39524547816563
 32
0.0
 70
    32
  3
STANDARD
100
AcDbAlignedDimension
 13
1171.923736646673
 23
371.6682017095626
 33
0.0
 14
1051.924028314504
 24
371.6682017095626
 34
0.0
100
AcDbRotatedDimension
1001
ACAD
1000
DSTYLE
1002
{
1070
   140
1040
12.0
1070
    74
1070
     0
1070
   172
1070
     1
1070
    73
1070
     0
1070
   272
1070
     2
1070
    77
1070
     3
1070
   173
1070
     1
1070
   147
1040
4.0
1070
    42
1040
12.0
1070
    44
1040
6.0
1070
    43
1040
28.0
1070
   271
1070
     0
1070
   178
1070
     4
1070
   177
1070
     4
1070
   176
1070
     4
1070
   141
1040
150.0
1070
     7
1000
_OPEN
1070
     6
1000
_OPEN
1070
    41
1040
14.0
1070
   143
1040
0.03937
1002
}
  0
LINE
  5
445
330
19
100
AcDbEntity
  8
SEIHIN
  6
CONTINUOUS
 62
     3
100
AcDbLine
 10
1091.923896056996
 20
523.6682017095626
 30
0.0
 11
1131.923896056791
 21
523.6682017095626
 31
0.0
  0
LINE
  5
446
330
19
100
AcDbEntity
  8
SEIHIN
  6
CONTINUOUS
 62
     3
100
AcDbLine
 10
1111.924051065765
 20
341.6682017095626
 30
0.0
 11
1083.473951065765
 21
341.6682017095626
 31
0.0
  0
LINE
  5
447
330
19
100
AcDbEntity
  8
SEIHIN
  6
CONTINUOUS
 62
     3
100
AcDbLine
 10
1111.924051065765
 20
366.6682017095626
 30
0.0
 11
1081.874051065765
 21
366.6682017095626
 31
0.0
  0
LINE
  5
448
330
19
100
AcDbEntity
  8
SEIHIN
  6
CONTINUOUS
 62
     3
100
AcDbLine
 10
1111.924051065765
 20
316.6682017095626
 30
0.0
 11
1085.623951065765
 21
316.6682017095626
 31
0.0
  0
DIMENSION
  5
449
330
19
100
AcDbEntity
  8
SUNPOU
  6
CONTINUOUS
 62
     4
100
AcDbDimension
  2
*D17
 10
1019.924151065765
 20
560.0584603981729
 30
0.0
 11
1096.924051065765
 21
570.0584603981728
 31
0.0
 12
0.0
 22
-22.39524547816563
 32
0.0
 70
    32
  3
STANDARD
100
AcDbAlignedDimension
 13
1173.923951065765
 23
526.6682017095625
 33
0.0
 14
1019.924151065765
 24
526.6682017095625
 34
0.0
100
AcDbRotatedDimension
1001
ACAD
1000
DSTYLE
1002
{
1070
   140
1040
12.0
1070
    74
1070
     0
1070
   172
1070
     1
1070
    73
1070
     0
1070
   272
1070
     2
1070
    77
1070
     3
1070
   173
1070
     1
1070
   147
1040
4.0
1070
    42
1040
12.0
1070
    44
1040
6.0
1070
    43
1040
28.0
1070
   271
1070
     0
1070
   178
1070
     4
1070
   177
1070
     4
1070
   176
1070
     4
1070
   141
1040
150.0
1070
     7
1000
_OPEN
1070
     6
1000
_OPEN
1070
    41
1040
14.0
1070
   143
1040
0.03937
1002
}
  0
LINE
  5
44A
330
19
100
AcDbEntity
  8
SEIHIN
  6
CONTINUOUS
 62
     3
100
AcDbLine
 10
1019.924151065765
 20
526.6682017095625
 30
0.0
 11
1173.923951065765
 21
526.6682017095625
 31
0.0
  0
LINE
  5
44B
330
19
100
AcDbEntity
  8
SEIHIN
  6
CONTINUOUS
 62
     3
100
AcDbLine
 10
1038.561051065765
 20
496.6682017095625
 30
0.0
 11
1170.657284399098
 21
496.6682017095628
 31
0.0
  0
LINE
  5
44C
330
19
100
AcDbEntity
  8
SEIHIN
  6
CONTINUOUS
 62
     3
100
AcDbLine
 10
1054.649851065765
 20
371.6682017095626
 30
0.0
 11
1168.962951065765
 21
371.6682017095626
 31
0.0
  0
LINE
  5
44D
330
19
100
AcDbEntity
  8
SEIHIN
  6
CONTINUOUS
 62
     3
100
AcDbLine
 10
1023.302051065765
 20
506.6682017095626
 30
0.0
 11
1169.935481639842
 21
506.6682017095626
 31
0.0
  0
LINE
  5
44E
330
19
100
AcDbEntity
  8
SEIHIN
  6
CONTINUOUS
 62
     3
100
AcDbLine
 10
1093.663651065765
 20
374.3815017095626
 30
0.0
 11
1082.054251065765
 21
495.3115017095626
 31
0.0
  0
LINE
  5
44F
330
19
100
AcDbEntity
  8
SEIHIN
  6
CONTINUOUS
 62
     3
100
AcDbLine
 10
1051.663551065765
 20
374.3815017095626
 30
0.0
 11
1040.054251065765
 21
495.3115017095626
 31
0.0
  0
LINE
  5
450
330
19
100
AcDbEntity
  8
SEIHIN
  6
CONTINUOUS
 62
     3
100
AcDbLine
 10
1085.623951065765
 20
316.6682017095626
 30
0.0
 11
1085.623951065765
 21
341.6682017095626
 31
0.0
  0
ARC
  5
451
330
19
100
AcDbEntity
  8
SEIHIN
  6
CONTINUOUS
 62
     3
100
AcDbCircle
 10
1096.649851065765
 20
374.6682017095626
 30
0.0
 40
2.999966
100
AcDbArc
 50
185.484062
 51
270.0
  0
ARC
  5
452
330
19
100
AcDbEntity
  8
SEIHIN
  6
CONTINUOUS
 62
     3
100
AcDbCircle
 10
1054.649851065765
 20
374.6682017095626
 30
0.0
 40
3.000015
100
AcDbArc
 50
185.483879
 51
270.0
  0
LINE
  5
453
330
19
100
AcDbEntity
  8
SEIHIN
  6
CONTINUOUS
 62
     3
100
AcDbLine
 10
1083.473951065765
 20
341.6682017095626
 30
0.0
 11
1083.473951065765
 21
366.6682017095626
 31
0.0
  0
ARC
  5
454
330
19
100
AcDbEntity
  8
SEIHIN
  6
CONTINUOUS
 62
     3
100
AcDbCircle
 10
1076.873951065765
 20
366.6682017095626
 30
0.0
 40
5.0
100
AcDbArc
 50
0.0
 51
90.0
  0
LINE
  5
455
330
19
100
AcDbEntity
  8
SEIHIN
  6
CONTINUOUS
 62
     3
100
AcDbLine
 10
1061.924151065765
 20
526.6682017095625
 30
0.0
 11
1062.805251065765
 21
509.0434017095626
 31
0.0
  0
LINE
  5
456
330
19
100
AcDbEntity
  8
SEIHIN
  6
CONTINUOUS
 62
     3
100
AcDbLine
 10
1019.924151065765
 20
526.6682017095625
 30
0.0
 11
1020.805251065765
 21
509.0434017095626
 31
0.0
  0
LINE
  5
457
330
19
100
AcDbEntity
  8
SEIHIN
  6
CONTINUOUS
 62
     3
100
AcDbLine
 10
1033.186451065765
 20
496.6682017095625
 30
0.0
 11
1038.561051065765
 21
496.6682017095625
 31
0.0
  0
ARC
  5
458
330
19
100
AcDbEntity
  8
SEIHIN
  6
CONTINUOUS
 62
     3
100
AcDbCircle
 10
1033.186451065765
 20
499.1682017095626
 30
0.0
 40
2.500005999999999
100
AcDbArc
 50
185.711505
 51
270.0
  0
ARC
  5
459
330
19
100
AcDbEntity
  8
SEIHIN
  6
CONTINUOUS
 62
     3
100
AcDbCircle
 10
1028.566551065765
 20
505.1682017095625
 30
0.0
 40
1.499969
100
AcDbArc
 50
5.708693
 51
90.0
  0
LINE
  5
45A
330
19
100
AcDbEntity
  8
SEIHIN
  6
CONTINUOUS
 62
     3
100
AcDbLine
 10
1030.698851065765
 20
498.9194017095626
 30
0.0
 11
1030.059051065765
 21
505.3174017095626
 31
0.0
  0
ARC
  5
45B
330
19
100
AcDbEntity
  8
SEIHIN
  6
CONTINUOUS
 62
     3
100
AcDbCircle
 10
1023.302051065765
 20
509.1682017095625
 30
0.0
 40
2.499959
100
AcDbArc
 50
182.8614899999999
 51
270.0
  0
ARC
  5
45C
330
19
100
AcDbEntity
  8
SEIHIN
  6
CONTINUOUS
 62
     3
100
AcDbCircle
 10
1038.561051065765
 20
495.1682017095626
 30
0.0
 40
1.500035
100
AcDbArc
 50
5.485598
 51
90.0
  0
ARC
  5
45D
330
19
100
AcDbEntity
  8
SEIHIN
  6
CONTINUOUS
 62
     3
100
AcDbCircle
 10
1065.302051065765
 20
509.1682017095625
 30
0.0
 40
2.499959
100
AcDbArc
 50
182.8614899999999
 51
270.0
  0
ARC
  5
45E
330
19
100
AcDbEntity
  8
SEIHIN
  6
CONTINUOUS
 62
     3
100
AcDbCircle
 10
1080.561151065765
 20
495.1682017095626
 30
0.0
 40
1.499985
100
AcDbArc
 50
5.485962999999999
 51
90.0
  0
ARC
  5
45F
330
19
100
AcDbEntity
  8
SEIHIN
  6
CONTINUOUS
 62
     3
100
AcDbCircle
 10
1070.566551065765
 20
505.1682017095625
 30
0.0
 40
1.499969
100
AcDbArc
 50
5.708693
 51
90.0
  0
LINE
  5
460
330
19
100
AcDbEntity
  8
SEIHIN
  6
CONTINUOUS
 62
     3
100
AcDbLine
 10
1072.698851065765
 20
498.9194017095626
 30
0.0
 11
1072.059051065765
 21
505.3174017095626
 31
0.0
  0
ARC
  5
461
330
19
100
AcDbEntity
  8
SEIHIN
  6
CONTINUOUS
 62
     3
100
AcDbCircle
 10
1075.186451065765
 20
499.1682017095626
 30
0.0
 40
2.500005999999999
100
AcDbArc
 50
185.711505
 51
270.0
  0
LINE
  5
462
330
19
100
AcDbEntity
  8
SEIHIN
  6
CONTINUOUS
 62
     3
100
AcDbLine
 10
1091.923896056996
 20
526.6682017095625
 30
0.0
 11
1091.923896056996
 21
523.6682017095626
 31
0.0
  0
LINE
  5
463
330
19
100
AcDbEntity
  8
SEIHIN
  6
CONTINUOUS
 62
     3
100
AcDbLine
 10
1171.961951065765
 20
374.6295017095626
 30
0.0
 11
1173.923951065765
 21
526.6682017095625
 31
0.0
  0
LINE
  5
464
330
19
100
AcDbEntity
  8
SEIHIN
  6
CONTINUOUS
 62
     3
100
AcDbLine
 10
1138.224151065765
 20
316.6682017095626
 30
0.0
 11
1138.224151065765
 21
341.6682017095626
 31
0.0
  0
LINE
  5
465
330
19
100
AcDbEntity
  8
CENTER_L
  6
CENTER
 62
     1
 48
5.0
100
AcDbLine
 10
1111.924051065765
 20
302.6682017095626
 30
0.0
 11
1111.924051065765
 21
382.6682017095626
 31
0.0
  0
DIMENSION
  5
466
330
19
100
AcDbEntity
  8
SUNPOU
  6
CONTINUOUS
 62
     4
100
AcDbDimension
  2
*D18
 10
1111.924051065765
 20
266.9427651134347
 30
0.0
 11
1141.943001065765
 21
276.9427651134346
 31
0.0
 12
0.0
 22
-22.39524547816563
 32
0.0
 70
    32
  3
STANDARD
100
AcDbAlignedDimension
 13
1171.961951065765
 23
374.6295017095626
 33
0.0
 14
1111.924051065765
 24
302.6682017095626
 34
0.0
100
AcDbRotatedDimension
1001
ACAD
1000
DSTYLE
1002
{
1070
   140
1040
12.0
1070
    74
1070
     0
1070
   172
1070
     1
1070
    73
1070
     0
1070
   272
1070
     2
1070
    77
1070
     3
1070
   173
1070
     1
1070
   147
1040
4.0
1070
    42
1040
12.0
1070
    44
1040
6.0
1070
    43
1040
28.0
1070
   271
1070
     0
1070
   178
1070
     4
1070
   177
1070
     4
1070
   176
1070
     4
1070
   141
1040
150.0
1070
     7
1000
_OPEN
1070
     6
1000
_OPEN
1070
    41
1040
14.0
1070
   143
1040
0.03937
1002
}
  0
LINE
  5
467
330
19
100
AcDbEntity
  8
SEIHIN
  6
CONTINUOUS
 62
     3
100
AcDbLine
 10
1111.924051065765
 20
316.6682017095626
 30
0.0
 11
1138.224151065765
 21
316.6682017095626
 31
0.0
  0
LINE
  5
468
330
19
100
AcDbEntity
  8
SEIHIN
  6
CONTINUOUS
 62
     3
100
AcDbLine
 10
1111.924051065765
 20
341.6682017095626
 30
0.0
 11
1140.374151065765
 21
341.6682017095626
 31
0.0
  0
LINE
  5
469
330
19
100
AcDbEntity
  8
SEIHIN
  6
CONTINUOUS
 62
     3
100
AcDbLine
 10
1111.924051065765
 20
366.6682017095626
 30
0.0
 11
1141.974051065765
 21
366.6682017095626
 31
0.0
  0
LINE
  5
46A
330
19
100
AcDbEntity
  8
SEIHIN
  6
CONTINUOUS
 62
     3
100
AcDbLine
 10
1140.374151065765
 20
341.6682017095626
 30
0.0
 11
1140.374151065765
 21
366.6682017095626
 31
0.0
  0
ARC
  5
46B
330
19
100
AcDbEntity
  8
SEIHIN
  6
CONTINUOUS
 62
     3
100
AcDbCircle
 10
1146.974151065765
 20
366.6682017095626
 30
0.0
 40
5.0
100
AcDbArc
 50
90.0
 51
180.0
  0
ARC
  5
46C
330
19
100
AcDbEntity
  8
SEIHIN
  6
CONTINUOUS
 62
     3
100
AcDbCircle
 10
1168.962951065765
 20
374.6682017095626
 30
0.0
 40
2.999624999999999
100
AcDbArc
 50
270.0
 51
359.260679
  0
LINE
  5
46D
330
19
100
AcDbEntity
  8
CENTER_L
  6
CENTER
100
AcDbLine
 10
1165.747430407791
 20
491.6682017095625
 30
0.0
 11
1179.791116778554
 21
491.6682017095625
 31
0.0
  0
LINE
  5
46E
330
19
100
AcDbEntity
  8
SEIHIN
  6
CONTINUOUS
 62
     3
100
AcDbLine
 10
1170.435345584284
 20
506.1798652015995
 30
0.0
 11
1171.123951065765
 21
476.6682017095624
 31
0.0
  0
LINE
  5
46F
330
19
100
AcDbEntity
  8
SEIHIN
  6
CONTINUOUS
 62
     3
100
AcDbLine
 10
1171.123951065765
 20
476.6682017095624
 30
0.0
 11
1173.278720607993
 21
476.6682017095625
 31
0.0
  0
ARC
  5
470
330
19
100
AcDbEntity
  8
SEIHIN
  6
CONTINUOUS
 62
     3
100
AcDbCircle
 10
1169.935481639842
 20
506.1682017095626
 30
0.0
 40
0.5
100
AcDbArc
 50
1.33665897832919
 51
90.0
  0
LINE
  5
471
330
19
100
AcDbEntity
  8
CENTER_L
  6
CENTER
 62
     1
 48
5.0
100
AcDbLine
 10
1101.923896056996
 20
531.6682017095624
 30
0.0
 11
1101.923896056996
 21
518.6682017095626
 31
0.0
  0
LINE
  5
472
330
19
100
AcDbEntity
  8
SEIHIN
  6
CONTINUOUS
 62
     3
100
AcDbLine
 10
1131.923896056791
 20
526.6682017095625
 30
0.0
 11
1131.923896056791
 21
523.6682017095626
 31
0.0
  0
LINE
  5
473
330
19
100
AcDbEntity
  8
CENTER_L
  6
CENTER
 62
     1
 48
5.0
100
AcDbLine
 10
1121.92389605679
 20
531.6682017095624
 30
0.0
 11
1121.92389605679
 21
518.6682017095626
 31
0.0
  0
LINE
  5
476
330
19
100
AcDbEntity
  8
ZUWAKU
  6
CONTINUOUS
100
AcDbLine
 10
613.9257640215712
 20
43.06731878508368
 30
0.0
 11
613.9257640215712
 21
28.71872504921862
 31
0.0
  0
LINE
  5
477
330
19
100
AcDbEntity
  8
ZUWAKU
  6
CONTINUOUS
100
AcDbLine
 10
607.9942615650229
 20
43.06731878508368
 30
0.0
 11
607.9942615650229
 21
28.71872504921862
 31
0.0
  0
LINE
  5
478
330
19
100
AcDbEntity
  8
ZUWAKU
  6
CONTINUOUS
100
AcDbLine
 10
604.7683568357661
 20
28.71872504921862
 30
0.0
 11
617.0476073504349
 21
28.71872504921862
 31
0.0
  0
LINE
  5
479
330
19
100
AcDbEntity
  8
ZUWAKU
  6
CONTINUOUS
100
AcDbLine
 10
604.7683568357661
 20
43.06731878508368
 30
0.0
 11
617.0476073504349
 21
43.06731878508368
 31
0.0
  0
VIEWPORT
  5
22
330
16
100
AcDbEntity
 67
     1
  8
0
100
AcDbViewport
 10
313.6808219178082
 20
148.5
 30
0.0
 40
627.3616438356165
 41
297.0
 68
     2
 69
     1
1001
ACAD
1000
MVIEW
1002
{
1070
    16
1010
0.0
1020
0.0
1030
0.0
1010
0.0
1020
0.0
1030
1.0
1040
0.0
1040
297.0
1040
313.6808219178082
1040
148.5
1040
50.0
1040
0.0
1040
0.0
1070
     0
1070
   100
1070
     1
1070
     0
1070
     0
1070
     0
1070
     0
1070
     0
1040
0.0
1040
0.0
1040
0.0
1040
10.0
1040
10.0
1040
10.0
1040
10.0
1070
     0
1002
{
1002
}
1002
}
  0
VIEWPORT
  5
25
330
16
100
AcDbEntity
 67
     1
  8
VIEWPORT
100
AcDbViewport
 10
210.0
 20
148.5
 30
0.0
 40
420.0
 41
297.0
 68
     1
 69
     2
1001
ACAD
1000
MVIEW
1002
{
1070
    16
1010
0.0
1020
0.0
1030
0.0
1010
0.0
1020
0.0
1030
1.0
1040
0.0
1040
1212.607689320388
1040
841.0
1040
594.0
1040
50.0
1040
0.0
1040
0.0
1070
     0
1070
   100
1070
     1
1070
     0
1070
     0
1070
     0
1070
     0
1070
     0
1040
0.0
1040
0.0
1040
0.0
1040
57.0
1040
57.0
1040
57.0
1040
57.0
1070
     0
1002
{
1002
}
1002
}
  0
ENDSEC
  0
SECTION
  2
OBJECTS
  0
DICTIONARY
  5
C
330
0
100
AcDbDictionary
  3
ACAD_GROUP
350
D
  3
ACAD_LAYOUT
350
63B
  3
ACAD_MLINESTYLE
350
E
  3
ACAD_PLOTSETTINGS
350
63C
1001
ACAD
1000
TREAT_AS_HARD
1070
     0
  0
DICTIONARY
  5
668
330
19
100
AcDbDictionary
  3
ACAD_LAYOUTSELFREF
350
6AC
1001
ACAD
1000
TREAT_AS_HARD
1070
     1
  0
DICTIONARY
  5
666
330
16
100
AcDbDictionary
  3
ACAD_LAYOUTSELFREF
350
6AB
1001
ACAD
1000
TREAT_AS_HARD
1070
     1
  0
DICTIONARY
  5
D
102
{ACAD_REACTORS
330
C
102
}
330
C
100
AcDbDictionary
1001
ACAD
1000
TREAT_AS_HARD
1070
     0
  0
DICTIONARY
  5
63B
102
{ACAD_REACTORS
330
C
102
}
330
C
100
AcDbDictionary
1001
ACAD
1000
TREAT_AS_HARD
1070
     0
  0
DICTIONARY
  5
E
102
{ACAD_REACTORS
330
C
102
}
330
C
100
AcDbDictionary
  3
STANDARD
350
1C
1001
ACAD
1000
TREAT_AS_HARD
1070
     0
  0
DICTIONARY
  5
63C
102
{ACAD_REACTORS
330
C
102
}
330
C
100
AcDbDictionary
1001
ACAD
1000
TREAT_AS_HARD
1070
     0
  0
XRECORD
  5
6AC
102
{ACAD_REACTORS
330
668
102
}
330
668
100
AcDbXrecord
340
19
  0
XRECORD
  5
6AB
102
{ACAD_REACTORS
330
666
102
}
330
666
100
AcDbXrecord
340
16
  0
MLINESTYLE
  5
1C
102
{ACAD_REACTORS
330
E
102
}
330
E
100
AcDbMlineStyle
  2
STANDARD
 70
     0
  3

 62
     0
 51
90.0
 52
90.0
 71
     2
 49
0.5
 62
   256
  6
BYLAYER
 49
-0.5
 62
   256
  6
BYLAYER
  0
ENDSEC
  0
EOF
