  0
SECTION
  2
HEADER
  9
$ACADVER
  1
AC1012
  9
$DWGCODEPAGE
  3
dos932
  9
$INSBASE
 10
0.0
 20
0.0
 30
0.0
  9
$EXTMIN
 10
10.05047808566086
 20
4.949376903717846
 30
-0.00000001
  9
$EXTMAX
 10
806.2246110975902
 20
563.7825862828226
 30
0.00000001
  9
$LIMMIN
 10
0.0
 20
0.0
  9
$LIMMAX
 10
840.0
 20
594.0
  9
$ORTHOMODE
 70
     0
  9
$REGENMODE
 70
     1
  9
$FILLMODE
 70
     1
  9
$QTEXTMODE
 70
     0
  9
$MIRRTEXT
 70
     1
  9
$DRAGMODE
 70
     2
  9
$LTSCALE
 40
2.0
  9
$OSMODE
 70
   319
  9
$ATTMODE
 70
     1
  9
$TEXTSIZE
 40
5.0
  9
$TRACEWID
 40
1.0
  9
$TEXTSTYLE
  7
STANDARD
  9
$CLAYER
  8
CENTER_L
  9
$CELTYPE
  6
BYLAYER
  9
$CECOLOR
 62
   256
  9
$CELTSCALE
 40
1.0
  9
$DELOBJ
 70
     1
  9
$DISPSILH
 70
     0
  9
$DIMSCALE
 40
1.0
  9
$DIMASZ
 40
7.0
  9
$DIMEXO
 40
6.0
  9
$DIMDLI
 40
14.0
  9
$DIMRND
 40
0.0
  9
$DIMDLE
 40
0.0
  9
$DIMEXE
 40
3.0
  9
$DIMTP
 40
0.0
  9
$DIMTM
 40
0.0
  9
$DIMTXT
 40
6.0
  9
$DIMCEN
 40
150.0
  9
$DIMTSZ
 40
0.0
  9
$DIMTOL
 70
     0
  9
$DIMLIM
 70
     0
  9
$DIMTIH
 70
     0
  9
$DIMTOH
 70
     0
  9
$DIMSE1
 70
     0
  9
$DIMSE2
 70
     0
  9
$DIMTAD
 70
     3
  9
$DIMZIN
 70
     0
  9
$DIMBLK
  1

  9
$DIMASO
 70
     1
  9
$DIMSHO
 70
     1
  9
$DIMPOST
  1

  9
$DIMAPOST
  1

  9
$DIMALT
 70
     0
  9
$DIMALTD
 70
     2
  9
$DIMALTF
 40
25.4
  9
$DIMLFAC
 40
1.0
  9
$DIMTOFL
 70
     1
  9
$DIMTVP
 40
0.0
  9
$DIMTIX
 70
     0
  9
$DIMSOXD
 70
     0
  9
$DIMSAH
 70
     1
  9
$DIMBLK1
  1
OPEN
  9
$DIMBLK2
  1
OPEN
  9
$DIMSTYLE
  2
STANDARD
  9
$DIMCLRD
 70
   256
  9
$DIMCLRE
 70
   256
  9
$DIMCLRT
 70
   256
  9
$DIMTFAC
 40
1.0
  9
$DIMGAP
 40
2.0
  9
$DIMJUST
 70
     0
  9
$DIMSD1
 70
     0
  9
$DIMSD2
 70
     0
  9
$DIMTOLJ
 70
     1
  9
$DIMTZIN
 70
     0
  9
$DIMALTZ
 70
     0
  9
$DIMALTTZ
 70
     0
  9
$DIMFIT
 70
     3
  9
$DIMUPT
 70
     0
  9
$DIMUNIT
 70
     2
  9
$DIMDEC
 70
     0
  9
$DIMTDEC
 70
     0
  9
$DIMALTU
 70
     2
  9
$DIMALTTD
 70
     2
  9
$DIMTXSTY
  7
STANDARD
  9
$DIMAUNIT
 70
     0
  9
$LUNITS
 70
     2
  9
$LUPREC
 70
     4
  9
$SKETCHINC
 40
1.0
  9
$FILLETRAD
 40
1.0
  9
$AUNITS
 70
     0
  9
$AUPREC
 70
     0
  9
$MENU
  1
.
  9
$ELEVATION
 40
0.0
  9
$PELEVATION
 40
0.0
  9
$THICKNESS
 40
0.0
  9
$LIMCHECK
 70
     0
  9
$BLIPMODE
 70
     0
  9
$CHAMFERA
 40
20.0
  9
$CHAMFERB
 40
20.0
  9
$CHAMFERC
 40
40.0
  9
$CHAMFERD
 40
0.0
  9
$SKPOLY
 70
     0
  9
$TDCREATE
 40
2451186.469821296
  9
$TDUPDATE
 40
2452422.708257176
  9
$TDINDWG
 40
0.0050593750
  9
$TDUSRTIMER
 40
0.0050593750
  9
$USRTIMER
 70
     1
  9
$ANGBASE
 50
0.0
  9
$ANGDIR
 70
     0
  9
$PDMODE
 70
     0
  9
$PDSIZE
 40
0.0
  9
$PLINEWID
 40
0.0
  9
$COORDS
 70
     1
  9
$SPLFRAME
 70
     0
  9
$SPLINETYPE
 70
     6
  9
$SPLINESEGS
 70
     8
  9
$ATTDIA
 70
     0
  9
$ATTREQ
 70
     1
  9
$HANDLING
 70
 10241
  9
$HANDSEED
  5
4C4
  9
$SURFTAB1
 70
     6
  9
$SURFTAB2
 70
     6
  9
$SURFTYPE
 70
     6
  9
$SURFU
 70
     6
  9
$SURFV
 70
     6
  9
$UCSNAME
  2

  9
$UCSORG
 10
0.0
 20
0.0
 30
0.0
  9
$UCSXDIR
 10
1.0
 20
0.0
 30
0.0
  9
$UCSYDIR
 10
0.0
 20
1.0
 30
0.0
  9
$PUCSNAME
  2

  9
$PUCSORG
 10
0.0
 20
0.0
 30
0.0
  9
$PUCSXDIR
 10
1.0
 20
0.0
 30
0.0
  9
$PUCSYDIR
 10
0.0
 20
1.0
 30
0.0
  9
$USERI1
 70
     0
  9
$USERI2
 70
     0
  9
$USERI3
 70
     0
  9
$USERI4
 70
     0
  9
$USERI5
 70
     0
  9
$USERR1
 40
0.0
  9
$USERR2
 40
0.0
  9
$USERR3
 40
0.0
  9
$USERR4
 40
0.0
  9
$USERR5
 40
0.0
  9
$WORLDVIEW
 70
     1
  9
$SHADEDGE
 70
     3
  9
$SHADEDIF
 70
    70
  9
$TILEMODE
 70
     1
  9
$MAXACTVP
 70
    16
  9
$PINSBASE
 10
0.0
 20
0.0
 30
0.0
  9
$PLIMCHECK
 70
     0
  9
$PEXTMIN
 10
0.0
 20
0.0
 30
0.0
  9
$PEXTMAX
 10
420.0
 20
297.0
 30
0.0
  9
$PLIMMIN
 10
0.0
 20
0.0
  9
$PLIMMAX
 10
420.0
 20
297.0
  9
$UNITMODE
 70
     0
  9
$VISRETAIN
 70
     0
  9
$PLINEGEN
 70
     0
  9
$PSLTSCALE
 70
     1
  9
$TREEDEPTH
 70
  3020
  9
$PICKSTYLE
 70
     1
  9
$CMLSTYLE
  2
STANDARD
  9
$CMLJUST
 70
     0
  9
$CMLSCALE
 40
1.0
  9
$SAVEIMAGES
 70
     1
  0
ENDSEC
  0
SECTION
  2
CLASSES
  0
CLASS
  1
ACDBDICTIONARYWDFLT
  2
AcDbDictionaryWithDefault
  3
AutoCAD 2000
 90
    32768
280
     0
281
     0
  0
CLASS
  1
ACDBPLACEHOLDER
  2
AcDbPlaceHolder
  3
AutoCAD 2000
 90
    32768
280
     0
281
     0
  0
CLASS
  1
LAYOUT
  2
AcDbLayout
  3
AutoCAD 2000
 90
    32768
280
     0
281
     0
  0
CLASS
  1
LONG_TRANSACTION
  2
AcDbLongTransaction
  3
AutoCAD 2000
 90
    32768
280
     0
281
     0
  0
CLASS
  1
LWPOLYLINE
  2
AcDbPolyline
  3
AutoCAD 2000
 90
    32768
280
     0
281
     1
  0
CLASS
  1
HATCH
  2
AcDbHatch
  3
AutoCAD 2000
 90
    32768
280
     0
281
     1
  0
CLASS
  1
XRECORD
  2
AcDbXrecord
  3
AutoCAD 2000
 90
    32768
280
     0
281
     0
  0
CLASS
  1
LONG_TRANSACTION
  2
AcDbLongTransaction
  3
AutoCAD 2000
 90
    32768
280
     0
281
     0
  0
CLASS
  1
LWPOLYLINE
  2
AcDbPolyline
  3
AutoCAD 2000
 90
    32768
280
     0
281
     1
  0
CLASS
  1
HATCH
  2
AcDbHatch
  3
AutoCAD 2000
 90
    32768
280
     0
281
     1
  0
CLASS
  1
XRECORD
  2
AcDbXrecord
  3
AutoCAD 2000
 90
    32768
280
     0
281
     0
  0
ENDSEC
  0
SECTION
  2
TABLES
  0
TABLE
  2
VPORT
  5
8
330
0
100
AcDbSymbolTable
 70
     2
  0
VPORT
  5
4B7
330
8
100
AcDbSymbolTableRecord
100
AcDbViewportTableRecord
  2
*ACTIVE
 70
     0
 10
0.0
 20
0.0
 11
1.0
 21
1.0
 12
443.0814953905643
 22
302.1919169267056
 13
0.0
 23
0.0
 14
5.0
 24
5.0
 15
0.0
 25
0.0
 16
0.0
 26
0.0
 36
1.0
 17
0.0
 27
0.0
 37
0.0
 40
618.5968380370549
 41
1.70990990990991
 42
50.0
 43
0.0
 44
0.0
 50
0.0
 51
0.0
 71
     0
 72
   100
 73
     1
 74
     0
 75
     0
 76
     0
 77
     0
 78
     0
  0
ENDTAB
  0
TABLE
  2
LTYPE
  5
5
330
0
100
AcDbSymbolTable
 70
     2
  0
LTYPE
  5
14
330
5
100
AcDbSymbolTableRecord
100
AcDbLinetypeTableRecord
  2
BYBLOCK
 70
     0
  3

 72
    65
 73
     0
 40
0.0
  0
LTYPE
  5
15
330
5
100
AcDbSymbolTableRecord
100
AcDbLinetypeTableRecord
  2
BYLAYER
 70
     0
  3

 72
    65
 73
     0
 40
0.0
  0
LTYPE
  5
16
330
5
100
AcDbSymbolTableRecord
100
AcDbLinetypeTableRecord
  2
CONTINUOUS
 70
     0
  3
Solid line
 72
    65
 73
     0
 40
0.0
  0
LTYPE
  5
135
330
5
100
AcDbSymbolTableRecord
100
AcDbLinetypeTableRecord
  2
CENTER
 70
     0
  3
____ _ ____ _ ____ _ ____ _ ____ _ ____ _ ____ 
 72
    65
 73
     4
 40
2.0
 49
1.25
 74
     0
 49
-0.25
 74
     0
 49
0.25
 74
     0
 49
-0.25
 74
     0
  0
ENDTAB
  0
TABLE
  2
LAYER
  5
2
330
0
100
AcDbSymbolTable
 70
     7
  0
LAYER
  5
F
330
2
100
AcDbSymbolTableRecord
100
AcDbLayerTableRecord
  2
0
 70
     0
 62
     7
  6
CONTINUOUS
  0
LAYER
  5
62
330
2
100
AcDbSymbolTableRecord
100
AcDbLayerTableRecord
  2
VIEWPORT
 70
     0
 62
     7
  6
CONTINUOUS
  0
LAYER
  5
65
330
2
100
AcDbSymbolTableRecord
100
AcDbLayerTableRecord
  2
ZUWAKU
 70
     0
 62
     7
  6
CONTINUOUS
  0
LAYER
  5
182
330
2
100
AcDbSymbolTableRecord
100
AcDbLayerTableRecord
  2
SEIHIN
 70
     0
 62
     3
  6
CONTINUOUS
  0
LAYER
  5
183
330
2
100
AcDbSymbolTableRecord
100
AcDbLayerTableRecord
  2
SUNPOU
 70
     0
 62
     4
  6
CONTINUOUS
  0
LAYER
  5
184
330
2
100
AcDbSymbolTableRecord
100
AcDbLayerTableRecord
  2
CENTER_L
 70
     0
 62
     1
  6
CENTER
  0
LAYER
  5
185
330
2
100
AcDbSymbolTableRecord
100
AcDbLayerTableRecord
  2
DEFPOINTS
 70
     0
 62
     7
  6
CONTINUOUS
  0
ENDTAB
  0
TABLE
  2
STYLE
  5
3
330
0
100
AcDbSymbolTable
 70
     1
  0
STYLE
  5
10
330
3
100
AcDbSymbolTableRecord
100
AcDbTextStyleTableRecord
  2
STANDARD
 70
     0
 40
0.0
 41
1.0
 50
0.0
 71
     0
 42
5.0
  3
TXT
  4
bigfont.shx
  0
ENDTAB
  0
TABLE
  2
VIEW
  5
6
330
0
100
AcDbSymbolTable
 70
     0
  0
ENDTAB
  0
TABLE
  2
UCS
  5
7
330
0
100
AcDbSymbolTable
 70
     0
  0
ENDTAB
  0
TABLE
  2
APPID
  5
9
330
0
100
AcDbSymbolTable
 70
     1
  0
APPID
  5
11
330
9
100
AcDbSymbolTableRecord
100
AcDbRegAppTableRecord
  2
ACAD
 70
     0
  0
ENDTAB
  0
TABLE
  2
DIMSTYLE
  5
A
330
0
100
AcDbSymbolTable
 70
     1
  0
DIMSTYLE
105
1D
102
{ACAD_REACTORS
330
298
330
299
330
2A8
330
2D7
330
34E
102
}
330
A
100
AcDbSymbolTableRecord
100
AcDbDimStyleTableRecord
  2
STANDARD
 70
     0
  3

  4

  5

  6

  7

 40
1.0
 41
0.18
 42
0.0625
 43
0.38
 44
0.18
 45
0.0
 46
0.0
 47
0.0
 48
0.0
140
0.18
141
0.09
142
0.0
143
25.4
144
1.0
145
0.0
146
1.0
147
0.09
 71
     0
 72
     0
 73
     1
 74
     1
 75
     0
 76
     0
 77
     0
 78
     0
170
     0
171
     2
172
     0
173
     0
174
     0
175
     0
176
     0
177
     0
178
     0
270
     2
271
     4
272
     4
273
     2
274
     2
340
10
275
     0
280
     0
281
     0
282
     0
283
     1
284
     0
285
     0
286
     0
287
     3
288
     0
  0
ENDTAB
  0
TABLE
  2
BLOCK_RECORD
  5
1
330
0
100
AcDbSymbolTable
 70
     6
  0
BLOCK_RECORD
  5
1A
102
{ACAD_XDICTIONARY
360
49F
102
}
330
1
100
AcDbSymbolTableRecord
100
AcDbBlockTableRecord
  2
*MODEL_SPACE
  0
BLOCK_RECORD
  5
17
102
{ACAD_XDICTIONARY
360
49D
102
}
330
1
100
AcDbSymbolTableRecord
100
AcDbBlockTableRecord
  2
*PAPER_SPACE
  0
BLOCK_RECORD
  5
6D
330
1
100
AcDbSymbolTableRecord
100
AcDbBlockTableRecord
  2
_OPEN
  0
BLOCK_RECORD
  5
3A6
330
1
100
AcDbSymbolTableRecord
100
AcDbBlockTableRecord
  2
*D1
  0
BLOCK_RECORD
  5
3B2
330
1
100
AcDbSymbolTableRecord
100
AcDbBlockTableRecord
  2
*D2
  0
BLOCK_RECORD
  5
3BE
330
1
100
AcDbSymbolTableRecord
100
AcDbBlockTableRecord
  2
*D3
  0
BLOCK_RECORD
  5
3CC
330
1
100
AcDbSymbolTableRecord
100
AcDbBlockTableRecord
  2
*D4
  0
BLOCK_RECORD
  5
3D8
330
1
100
AcDbSymbolTableRecord
100
AcDbBlockTableRecord
  2
*D5
  0
ENDTAB
  0
ENDSEC
  0
SECTION
  2
BLOCKS
  0
BLOCK
  5
1B
330
1A
100
AcDbEntity
  8
0
100
AcDbBlockBegin
  2
*MODEL_SPACE
 70
     0
 10
0.0
 20
0.0
 30
0.0
  3
*MODEL_SPACE
  1

  0
ENDBLK
  5
1C
330
1A
100
AcDbEntity
  8
0
100
AcDbBlockEnd
  0
BLOCK
  5
18
330
17
100
AcDbEntity
 67
     1
  8
0
100
AcDbBlockBegin
  2
*PAPER_SPACE
 70
     0
 10
0.0
 20
0.0
 30
0.0
  3
*PAPER_SPACE
  1

  0
ENDBLK
  5
19
330
17
100
AcDbEntity
 67
     1
  8
0
100
AcDbBlockEnd
  0
BLOCK
  5
6E
330
6D
100
AcDbEntity
  8
0
100
AcDbBlockBegin
  2
_OPEN
 70
     0
 10
0.0
 20
0.0
 30
0.0
  3
_OPEN
  1

  0
LINE
  5
6F
330
6D
100
AcDbEntity
  8
0
  6
BYBLOCK
 62
     0
100
AcDbLine
 10
-1.0
 20
0.1666666666666666
 30
0.0
 11
0.0
 21
0.0
 31
0.0
  0
LINE
  5
70
330
6D
100
AcDbEntity
  8
0
  6
BYBLOCK
 62
     0
100
AcDbLine
 10
0.0
 20
0.0
 30
0.0
 11
-1.0
 21
-0.1666666666666666
 31
0.0
  0
LINE
  5
71
330
6D
100
AcDbEntity
  8
0
  6
BYBLOCK
 62
     0
100
AcDbLine
 10
0.0
 20
0.0
 30
0.0
 11
-1.0
 21
0.0
 31
0.0
  0
ENDBLK
  5
72
330
6D
100
AcDbEntity
  8
0
100
AcDbBlockEnd
  0
BLOCK
  5
45D
330
3A6
100
AcDbEntity
  8
0
100
AcDbBlockBegin
  2
*D1
 70
     1
 10
0.0
 20
0.0
 30
0.0
  3
*D1
  1

  0
LINE
  5
45E
330
3A6
100
AcDbEntity
  8
0
  6
BYBLOCK
 62
     4
100
AcDbLine
 10
338.9470599354546
 20
159.1136084046895
 30
0.0
 11
299.0167370288306
 21
159.1136084046895
 31
0.0
  0
LINE
  5
45F
330
3A6
100
AcDbEntity
  8
0
  6
BYBLOCK
 62
     4
100
AcDbLine
 10
398.0970599354547
 20
105.0136084046307
 30
0.0
 11
299.0167370288306
 21
105.0136084046307
 31
0.0
  0
LINE
  5
460
330
3A6
100
AcDbEntity
  8
0
  6
BYBLOCK
 62
     4
100
AcDbLine
 10
302.0167370288306
 20
152.1136084046895
 30
0.0
 11
302.0167370288306
 21
112.0136084046307
 31
0.0
  0
INSERT
  5
461
330
3A6
100
AcDbEntity
  8
0
  6
BYBLOCK
 62
     4
100
AcDbBlockReference
  2
_OPEN
 10
302.0167370288306
 20
159.1136084046895
 30
0.0
 41
7.0
 42
7.0
 43
7.0
 50
90.0
  0
INSERT
  5
462
330
3A6
100
AcDbEntity
  8
0
  6
BYBLOCK
 62
     4
100
AcDbBlockReference
  2
_OPEN
 10
302.0167370288306
 20
105.0136084046307
 30
0.0
 41
7.0
 42
7.0
 43
7.0
 50
270.0
  0
MTEXT
  5
463
330
3A6
100
AcDbEntity
  8
0
  6
BYBLOCK
 62
     4
100
AcDbMText
 10
297.0167370288306
 20
132.0636084046601
 30
0.0
 40
6.0
 41
0.0
 71
     5
 72
     1
  1
\A1;54
 11
0.0
 21
1.0
 31
0.0
1001
ACAD
1000
MTEXTBEGIN
1070
    73
1070
     1
1070
    44
1040
1.0
1070
    74
1070
     0
1000
MTEXTEND
1000
MTEXTBEGIN
1070
    73
1070
     1
1070
    44
1040
1.0
1070
    74
1070
     0
1000
MTEXTEND
  0
POINT
  5
464
330
3A6
100
AcDbEntity
  8
DEFPOINTS
  6
BYBLOCK
 62
     0
100
AcDbPoint
 10
344.9470599354546
 20
159.1136084046895
 30
0.0
  0
POINT
  5
465
330
3A6
100
AcDbEntity
  8
DEFPOINTS
  6
BYBLOCK
 62
     0
100
AcDbPoint
 10
404.0970599354547
 20
105.0136084046307
 30
0.0
  0
POINT
  5
466
330
3A6
100
AcDbEntity
  8
DEFPOINTS
  6
BYBLOCK
 62
     0
100
AcDbPoint
 10
302.0167370288306
 20
105.0136084046307
 30
0.0
  0
ENDBLK
  5
467
330
3A6
100
AcDbEntity
  8
0
100
AcDbBlockEnd
  0
BLOCK
  5
3F0
330
3B2
100
AcDbEntity
  8
0
100
AcDbBlockBegin
  2
*D2
 70
     1
 10
0.0
 20
0.0
 30
0.0
  3
*D2
  1

  0
LINE
  5
3F1
330
3B2
100
AcDbEntity
  8
0
  6
BYBLOCK
 62
     4
100
AcDbLine
 10
373.4887837055276
 20
229.823060202744
 30
0.0
 11
373.4887837055276
 21
284.6868528005039
 31
0.0
  0
LINE
  5
3F2
330
3B2
100
AcDbEntity
  8
0
  6
BYBLOCK
 62
     4
100
AcDbLine
 10
491.7887837055276
 20
229.823060202744
 30
0.0
 11
491.7887837055276
 21
284.6868528005039
 31
0.0
  0
LINE
  5
3F3
330
3B2
100
AcDbEntity
  8
0
  6
BYBLOCK
 62
     4
100
AcDbLine
 10
380.4887837055277
 20
281.6868528005039
 30
0.0
 11
484.7887837055276
 21
281.6868528005039
 31
0.0
  0
INSERT
  5
3F4
330
3B2
100
AcDbEntity
  8
0
  6
BYBLOCK
 62
     4
100
AcDbBlockReference
  2
_OPEN
 10
373.4887837055276
 20
281.6868528005039
 30
0.0
 41
7.0
 42
7.0
 43
7.0
 50
180.0
  0
INSERT
  5
3F5
330
3B2
100
AcDbEntity
  8
0
  6
BYBLOCK
 62
     4
100
AcDbBlockReference
  2
_OPEN
 10
491.7887837055276
 20
281.6868528005039
 30
0.0
 41
7.0
 42
7.0
 43
7.0
  0
MTEXT
  5
3F6
330
3B2
100
AcDbEntity
  8
0
  6
BYBLOCK
 62
     4
100
AcDbMText
 10
432.6387837055277
 20
286.6868528005039
 30
0.0
 40
6.0
 41
0.0
 71
     5
 72
     1
  1
\A1;118
1001
ACAD
1000
MTEXTBEGIN
1070
    73
1070
     1
1070
    44
1040
1.0
1070
    74
1070
     0
1000
MTEXTEND
1000
MTEXTBEGIN
1070
    73
1070
     1
1070
    44
1040
1.0
1070
    74
1070
     0
1000
MTEXTEND
  0
POINT
  5
3F7
330
3B2
100
AcDbEntity
  8
DEFPOINTS
  6
BYBLOCK
 62
     0
100
AcDbPoint
 10
373.4887837055276
 20
223.823060202744
 30
0.0
  0
POINT
  5
3F8
330
3B2
100
AcDbEntity
  8
DEFPOINTS
  6
BYBLOCK
 62
     0
100
AcDbPoint
 10
491.7887837055276
 20
223.823060202744
 30
0.0
  0
POINT
  5
3F9
330
3B2
100
AcDbEntity
  8
DEFPOINTS
  6
BYBLOCK
 62
     0
100
AcDbPoint
 10
491.7887837055276
 20
281.6868528005039
 30
0.0
  0
ENDBLK
  5
3FA
330
3B2
100
AcDbEntity
  8
0
100
AcDbBlockEnd
  0
BLOCK
  5
450
330
3BE
100
AcDbEntity
  8
0
100
AcDbBlockBegin
  2
*D3
 70
     1
 10
0.0
 20
0.0
 30
0.0
  3
*D3
  1

  0
LINE
  5
451
330
3BE
100
AcDbEntity
  8
0
  6
BYBLOCK
 62
     4
100
AcDbLine
 10
362.0970599354548
 20
312.1081785471695
 30
0.0
 11
295.2845674074058
 21
312.1081785471695
 31
0.0
  0
LINE
  5
452
330
3BE
100
AcDbEntity
  8
0
  6
BYBLOCK
 62
     4
100
AcDbLine
 10
338.9471599354548
 20
277.1081785471695
 30
0.0
 11
295.2845674074058
 21
277.1081785471695
 31
0.0
  0
LINE
  5
453
330
3BE
100
AcDbEntity
  8
0
  6
BYBLOCK
 62
     4
100
AcDbLine
 10
298.2845674074058
 20
319.1081785471695
 30
0.0
 11
298.2845674074058
 21
326.1081785471695
 31
0.0
  0
LINE
  5
454
330
3BE
100
AcDbEntity
  8
0
  6
BYBLOCK
 62
     4
100
AcDbLine
 10
298.2845674074058
 20
270.1081785471695
 30
0.0
 11
298.2845674074058
 21
263.1081785471695
 31
0.0
  0
LINE
  5
455
330
3BE
100
AcDbEntity
  8
0
  6
BYBLOCK
 62
     4
100
AcDbLine
 10
298.2845674074058
 20
312.1081785471695
 30
0.0
 11
298.2845674074058
 21
277.1081785471695
 31
0.0
  0
INSERT
  5
456
330
3BE
100
AcDbEntity
  8
0
  6
BYBLOCK
 62
     4
100
AcDbBlockReference
  2
_OPEN
 10
298.2845674074058
 20
312.1081785471695
 30
0.0
 41
7.0
 42
7.0
 43
7.0
 50
270.0
  0
INSERT
  5
457
330
3BE
100
AcDbEntity
  8
0
  6
BYBLOCK
 62
     4
100
AcDbBlockReference
  2
_OPEN
 10
298.2845674074058
 20
277.1081785471695
 30
0.0
 41
7.0
 42
7.0
 43
7.0
 50
90.0
  0
MTEXT
  5
458
330
3BE
100
AcDbEntity
  8
0
  6
BYBLOCK
 62
     4
100
AcDbMText
 10
293.2845674074058
 20
294.6081785471695
 30
0.0
 40
6.0
 41
0.0
 71
     5
 72
     1
  1
\A1;※35
 11
0.0
 21
1.0
 31
0.0
1001
ACAD
1000
MTEXTBEGIN
1070
    73
1070
     1
1070
    44
1040
1.0
1070
    74
1070
     0
1000
MTEXTEND
1000
MTEXTBEGIN
1070
    73
1070
     1
1070
    44
1040
1.0
1070
    74
1070
     0
1000
MTEXTEND
  0
POINT
  5
459
330
3BE
100
AcDbEntity
  8
DEFPOINTS
  6
BYBLOCK
 62
     0
100
AcDbPoint
 10
368.0970599354548
 20
312.1081785471695
 30
0.0
  0
POINT
  5
45A
330
3BE
100
AcDbEntity
  8
DEFPOINTS
  6
BYBLOCK
 62
     0
100
AcDbPoint
 10
344.9471599354548
 20
277.1081785471695
 30
0.0
  0
POINT
  5
45B
330
3BE
100
AcDbEntity
  8
DEFPOINTS
  6
BYBLOCK
 62
     0
100
AcDbPoint
 10
298.2845674074058
 20
277.1081785471695
 30
0.0
  0
ENDBLK
  5
45C
330
3BE
100
AcDbEntity
  8
0
100
AcDbBlockEnd
  0
BLOCK
  5
445
330
3CC
100
AcDbEntity
  8
0
100
AcDbBlockBegin
  2
*D4
 70
     1
 10
0.0
 20
0.0
 30
0.0
  3
*D4
  1

  0
LINE
  5
446
330
3CC
100
AcDbEntity
  8
0
  6
BYBLOCK
 62
     4
100
AcDbLine
 10
325.9942114188227
 20
502.1084327285308
 30
0.0
 11
273.9088262456728
 21
502.1084327285308
 31
0.0
  0
LINE
  5
447
330
3CC
100
AcDbEntity
  8
0
  6
BYBLOCK
 62
     4
100
AcDbLine
 10
338.9471599354548
 20
277.1081785471695
 30
0.0
 11
273.9088262456728
 21
277.1081785471695
 31
0.0
  0
LINE
  5
448
330
3CC
100
AcDbEntity
  8
0
  6
BYBLOCK
 62
     4
100
AcDbLine
 10
276.9088262456727
 20
495.1084327285308
 30
0.0
 11
276.9088262456727
 21
284.1081785471695
 31
0.0
  0
INSERT
  5
449
330
3CC
100
AcDbEntity
  8
0
  6
BYBLOCK
 62
     4
100
AcDbBlockReference
  2
_OPEN
 10
276.9088262456727
 20
502.1084327285308
 30
0.0
 41
7.0
 42
7.0
 43
7.0
 50
90.0
  0
INSERT
  5
44A
330
3CC
100
AcDbEntity
  8
0
  6
BYBLOCK
 62
     4
100
AcDbBlockReference
  2
_OPEN
 10
276.9088262456727
 20
277.1081785471695
 30
0.0
 41
7.0
 42
7.0
 43
7.0
 50
270.0
  0
MTEXT
  5
44B
330
3CC
100
AcDbEntity
  8
0
  6
BYBLOCK
 62
     4
100
AcDbMText
 10
271.9088262456728
 20
389.6083056378502
 30
0.0
 40
6.0
 41
0.0
 71
     5
 72
     1
  1
\A1;225
 11
0.0
 21
1.0
 31
0.0
1001
ACAD
1000
MTEXTBEGIN
1070
    73
1070
     1
1070
    44
1040
1.0
1070
    74
1070
     0
1000
MTEXTEND
1000
MTEXTBEGIN
1070
    73
1070
     1
1070
    44
1040
1.0
1070
    74
1070
     0
1000
MTEXTEND
  0
POINT
  5
44C
330
3CC
100
AcDbEntity
  8
DEFPOINTS
  6
BYBLOCK
 62
     0
100
AcDbPoint
 10
331.9942114188227
 20
502.1084327285308
 30
0.0
  0
POINT
  5
44D
330
3CC
100
AcDbEntity
  8
DEFPOINTS
  6
BYBLOCK
 62
     0
100
AcDbPoint
 10
344.9471599354548
 20
277.1081785471695
 30
0.0
  0
POINT
  5
44E
330
3CC
100
AcDbEntity
  8
DEFPOINTS
  6
BYBLOCK
 62
     0
100
AcDbPoint
 10
276.9088262456727
 20
277.1081785471695
 30
0.0
  0
ENDBLK
  5
44F
330
3CC
100
AcDbEntity
  8
0
100
AcDbBlockEnd
  0
BLOCK
  5
435
330
3D8
100
AcDbEntity
  8
0
100
AcDbBlockBegin
  2
*D5
 70
     1
 10
0.0
 20
0.0
 30
0.0
  3
*D5
  1

  0
LINE
  5
4BA
330
3D8
100
AcDbEntity
  8
SUNPOU
  6
CONTINUOUS
 62
     4
100
AcDbLine
 10
452.9886187560696
 20
375.4563293266424
 30
0.0
 11
451.9505578368017
 21
375.8757569648147
 31
0.0
  0
ARC
  5
4BB
330
3D8
100
AcDbEntity
  8
SUNPOU
  6
CONTINUOUS
 62
     4
100
AcDbCircle
 10
404.0971604500569
 20
395.2108817844623
 30
0.0
 40
48.61196269514524
100
AcDbArc
 50
278.2575476415994
 51
329.7412780470583
  0
INSERT
  5
4BC
330
3D8
100
AcDbEntity
  8
SUNPOU
  6
CONTINUOUS
 62
     4
100
AcDbBlockReference
  2
_OPEN
 10
404.0971223628172
 20
346.598919089332
 30
0.0
 41
7.0
 42
7.0
 43
7.0
 50
184.1287513753155
  0
INSERT
  5
4BD
330
3D8
100
AcDbEntity
  8
SUNPOU
  6
CONTINUOUS
 62
     4
100
AcDbBlockReference
  2
_OPEN
 10
449.1690284264942
 20
376.9996315750781
 30
0.0
 41
7.0
 42
7.0
 43
7.0
 50
63.87007431334223
  0
MTEXT
  5
4BE
330
3D8
100
AcDbEntity
  8
SUNPOU
  6
CONTINUOUS
 62
     4
100
AcDbMText
 10
420.4079255297712
 20
354.7638518238199
 30
0.0
 40
6.0
 41
0.0
 71
     5
 72
     1
  1
\A1;68°
 11
0.9274297110490953
 21
0.3739975014133003
 31
0.0
  0
POINT
  5
4BF
330
3D8
100
AcDbEntity
  8
DEFPOINTS
  6
CONTINUOUS
 62
     0
100
AcDbPoint
 10
438.6699470081526
 20
361.0371294783057
 30
0.0
  0
POINT
  5
4C0
330
3D8
100
AcDbEntity
  8
DEFPOINTS
  6
CONTINUOUS
 62
     0
100
AcDbPoint
 10
404.0970599354546
 20
266.9208785471693
 30
0.0
  0
POINT
  5
4C1
330
3D8
100
AcDbEntity
  8
DEFPOINTS
  6
CONTINUOUS
 62
     0
100
AcDbPoint
 10
408.4149599354548
 20
393.4662785471694
 30
0.0
  0
POINT
  5
4C2
330
3D8
100
AcDbEntity
  8
DEFPOINTS
  6
CONTINUOUS
 62
     0
100
AcDbPoint
 10
447.4255599354547
 20
377.7040785471693
 30
0.0
  0
POINT
  5
4C3
330
3D8
100
AcDbEntity
  8
DEFPOINTS
  6
CONTINUOUS
 62
     0
100
AcDbPoint
 10
404.0971659345163
 20
402.2108727725409
 30
0.0
  0
ENDBLK
  5
440
330
3D8
100
AcDbEntity
  8
0
100
AcDbBlockEnd
  0
ENDSEC
  0
SECTION
  2
ENTITIES
  0
TEXT
  5
11A
330
1A
100
AcDbEntity
  8
ZUWAKU
 62
     7
 48
10.0
100
AcDbText
 10
795.5579444309237
 20
4.974918402528146
 30
0.0
 40
8.0
  1
A1
100
AcDbText
  0
LINE
  5
11B
330
1A
100
AcDbEntity
  8
ZUWAKU
 62
     7
 48
10.0
100
AcDbLine
 10
10.05047808566086
 20
25.78258628282265
 30
0.0
 11
806.0504780856609
 21
25.78258628282253
 31
0.0
  0
LINE
  5
11C
330
1A
100
AcDbEntity
  8
ZUWAKU
  6
CONTINUOUS
 62
     7
100
AcDbLine
 10
806.0504780856609
 20
563.7825862828226
 30
0.0
 11
10.05047808566086
 21
563.7825862828226
 31
0.0
  0
LINE
  5
11D
330
1A
100
AcDbEntity
  8
ZUWAKU
  6
CONTINUOUS
 62
     7
100
AcDbLine
 10
806.0504780856609
 20
13.78258628282265
 30
0.0
 11
10.05047808566086
 21
13.78258628282265
 31
0.0
  0
LINE
  5
11E
330
1A
100
AcDbEntity
  8
ZUWAKU
  6
CONTINUOUS
 62
     7
100
AcDbLine
 10
10.05047808566086
 20
563.7825862828226
 30
0.0
 11
10.05047808566086
 21
13.78258628282265
 31
0.0
  0
LINE
  5
11F
330
1A
100
AcDbEntity
  8
ZUWAKU
 62
     7
 48
10.0
100
AcDbLine
 10
44.55797523147839
 20
13.78258628282265
 30
0.0
 11
44.5579752314784
 21
25.78258628282265
 31
0.0
  0
TEXT
  5
120
330
1A
100
AcDbEntity
  8
ZUWAKU
 62
     7
100
AcDbText
 10
16.05676551180931
 20
15.52294263804401
 30
0.0
 40
8.0
  1
品 種
100
AcDbText
  0
LINE
  5
121
330
1A
100
AcDbEntity
  8
ZUWAKU
 62
     7
 48
10.0
100
AcDbLine
 10
276.1028387068254
 20
13.78258628282265
 30
0.0
 11
276.1028387068254
 21
25.78258628282261
 31
0.0
  0
LINE
  5
122
330
1A
100
AcDbEntity
  8
ZUWAKU
 62
     7
 48
10.0
100
AcDbLine
 10
209.5138526425484
 20
13.78258628282265
 30
0.0
 11
209.5138526425485
 21
25.78258628282263
 31
0.0
  0
TEXT
  5
124
330
1A
100
AcDbEntity
  8
ZUWAKU
 62
     7
100
AcDbText
 10
215.4560837190756
 20
16.18358115302453
 30
0.0
 40
8.0
  1
品名・ｻ ｲ ｽﾞ
100
AcDbText
  0
LINE
  5
126
330
1A
100
AcDbEntity
  8
ZUWAKU
 62
     7
 48
10.0
100
AcDbLine
 10
768.7231079932794
 20
13.78258628282237
 30
0.0
 11
768.7231079932794
 21
25.78258628282254
 31
0.0
  0
LINE
  5
127
330
1A
100
AcDbEntity
  8
ZUWAKU
 62
     7
 48
10.0
100
AcDbLine
 10
733.8119002376948
 20
13.78258628282242
 30
0.0
 11
733.8119002376946
 21
25.78258628282254
 31
0.0
  0
TEXT
  5
128
330
1A
100
AcDbEntity
  8
ZUWAKU
 62
     7
100
AcDbText
 10
739.6955629973526
 20
15.24227755810852
 30
0.0
 40
8.0
  1
尺 度
100
AcDbText
  0
TEXT
  5
129
330
1A
100
AcDbEntity
  8
ZUWAKU
 62
     7
100
AcDbText
 10
779.7374630323229
 20
15.55488920081529
 30
0.0
 40
8.0
  1
1/2
100
AcDbText
  0
TEXT
  5
12B
330
1A
100
AcDbEntity
  8
ZUWAKU
 62
     7
100
AcDbText
 10
620.3363288383084
 20
15.6519090944263
 30
0.0
 40
8.0
  1
品 番
100
AcDbText
  0
LINE
  5
12C
330
1A
100
AcDbEntity
  8
ZUWAKU
 62
     7
 48
10.0
100
AcDbLine
 10
614.3351028194128
 20
13.78258628282232
 30
0.0
 11
614.3351028194128
 21
25.78258628282256
 31
0.0
  0
LINE
  5
12D
330
1A
100
AcDbEntity
  8
ZUWAKU
 62
     7
 48
10.0
100
AcDbLine
 10
648.7607587371021
 20
13.78258628282232
 30
0.0
 11
648.7607587371021
 21
25.78258628282255
 31
0.0
  0
TEXT
  5
12E
330
1A
100
AcDbEntity
  8
ZUWAKU
 62
     7
 48
10.0
100
AcDbText
 10
646.2758615931216
 20
4.949376903717848
 30
0.0
 40
8.0
  1
積水化学工業株式会社  建材
100
AcDbText
  0
LINE
  5
12F
330
1A
100
AcDbEntity
  8
ZUWAKU
  6
CONTINUOUS
 62
     7
100
AcDbLine
 10
806.0504780856609
 20
563.7825862828226
 30
0.0
 11
806.0504780856609
 21
13.78258628282265
 31
0.0
  0
DIMENSION
  5
298
330
1A
100
AcDbEntity
  8
SUNPOU
  6
CONTINUOUS
100
AcDbDimension
  2
*D1
 10
302.0167370288306
 20
105.0136084046307
 30
0.0
 11
297.0167370288306
 21
132.0636084046601
 31
0.0
 70
    32
  3
STANDARD
100
AcDbAlignedDimension
 13
344.9470599354546
 23
159.1136084046895
 33
0.0
 14
404.0970599354547
 24
105.0136084046307
 34
0.0
 50
90.0
100
AcDbRotatedDimension
1001
ACAD
1000
DSTYLE
1002
{
1070
   140
1040
6.0
1070
    74
1070
     0
1070
   172
1070
     1
1070
    73
1070
     0
1070
   272
1070
     2
1070
    77
1070
     3
1070
   173
1070
     1
1070
   147
1040
2.0
1070
    42
1040
6.0
1070
    44
1040
3.0
1070
    43
1040
14.0
1070
   271
1070
     0
1070
   178
1070
     4
1070
   177
1070
     4
1070
   176
1070
     4
1070
   141
1040
150.0
1070
     7
1000
_OPEN
1070
     6
1000
_OPEN
1070
    41
1040
7.0
1002
}
  0
DIMENSION
  5
299
330
1A
100
AcDbEntity
  8
SUNPOU
  6
CONTINUOUS
100
AcDbDimension
  2
*D2
 10
463.2470599354546
 20
216.9774010024494
 30
0.0
 11
404.0970599354546
 21
221.9774010024494
 31
0.0
 12
-28.54172377007307
 22
-64.70945179805449
 32
0.0
 70
    32
  3
STANDARD
100
AcDbAlignedDimension
 13
344.9470599354546
 23
159.1136084046895
 33
0.0
 14
463.2470599354546
 24
159.1136084046895
 34
0.0
100
AcDbRotatedDimension
1001
ACAD
1000
DSTYLE
1002
{
1070
   140
1040
6.0
1070
    74
1070
     0
1070
   172
1070
     1
1070
    73
1070
     0
1070
   272
1070
     2
1070
    77
1070
     3
1070
   173
1070
     1
1070
   147
1040
2.0
1070
    42
1040
6.0
1070
    44
1040
3.0
1070
    43
1040
14.0
1070
   271
1070
     0
1070
   178
1070
     4
1070
   177
1070
     4
1070
   176
1070
     4
1070
   141
1040
150.0
1070
     7
1000
_OPEN
1070
     6
1000
_OPEN
1070
    41
1040
7.0
1002
}
  0
LINE
  5
29A
330
1A
100
AcDbEntity
  8
SEIHIN
  6
CONTINUOUS
 62
     3
 48
16.0
100
AcDbLine
 10
396.6945599354547
 20
302.1081785471695
 30
0.0
 11
376.4995599354548
 21
302.1081785471695
 31
0.0
  0
ARC
  5
29B
330
1A
100
AcDbEntity
  8
SEIHIN
  6
CONTINUOUS
 62
     3
 48
16.0
100
AcDbCircle
 10
404.0971693515433
 20
157.3136415540407
 30
0.0
 40
48.3000724872323
100
AcDbArc
 50
231.9829639828127
 51
261.3110393355431
  0
ARC
  5
29C
330
1A
100
AcDbEntity
  8
SEIHIN
  6
CONTINUOUS
 62
     3
 48
16.0
100
AcDbCircle
 10
1027.764815386029
 20
1716.988495965025
 30
0.0
 40
1409.920943070837
100
AcDbArc
 50
241.0067546628857
 51
246.0894319601486
  0
ARC
  5
29D
330
1A
100
AcDbEntity
  8
SEIHIN
  6
CONTINUOUS
 62
     3
 48
16.0
100
AcDbCircle
 10
1027.756100693418
 20
1716.972416797685
 30
0.0
 40
1399.992537964161
100
AcDbArc
 50
240.1998253223232
 51
247.9998099643347
  0
ARC
  5
29E
330
1A
100
AcDbEntity
  8
SEIHIN
  6
CONTINUOUS
 62
     3
 48
16.0
100
AcDbCircle
 10
1027.767426296722
 20
1716.993854879111
 30
0.0
 40
1402.016682662722
100
AcDbArc
 50
240.3654661550598
 51
247.9997102891195
  0
LINE
  5
29F
330
1A
100
AcDbEntity
  8
SEIHIN
  6
CONTINUOUS
 62
     3
 48
16.0
100
AcDbLine
 10
331.9942599354547
 20
502.1080785471695
 30
0.0
 11
453.3730599354548
 21
322.1560785471694
 31
0.0
  0
LINE
  5
2A0
330
1A
100
AcDbEntity
  8
SEIHIN
  6
CONTINUOUS
 62
     3
 48
16.0
100
AcDbLine
 10
344.9471599354548
 20
277.1081785471695
 30
0.0
 11
404.0970599354547
 21
277.1081785471695
 31
0.0
  0
LINE
  5
2A1
330
1A
100
AcDbEntity
  8
SEIHIN
  6
CONTINUOUS
 62
     3
 48
16.0
100
AcDbLine
 10
399.0971599354547
 20
316.1081785471695
 30
0.0
 11
374.0970599354548
 21
316.1081785471695
 31
0.0
  0
LINE
  5
2A2
330
1A
100
AcDbEntity
  8
SEIHIN
  6
CONTINUOUS
 62
     3
 48
16.0
100
AcDbLine
 10
399.0971599354547
 20
314.1081785471695
 30
0.0
 11
374.0970599354548
 21
314.1081785471695
 31
0.0
  0
ARC
  5
2A5
330
1A
100
AcDbEntity
  8
SEIHIN
  6
CONTINUOUS
 62
     3
 48
16.0
100
AcDbCircle
 10
528.4298964671864
 20
1156.526411112549
 30
0.0
 40
1011.296128679349
100
AcDbArc
 50
260.5677232385906
 51
264.3958711616259
  0
ARC
  5
2A6
330
1A
100
AcDbEntity
  8
SEIHIN
  6
CONTINUOUS
 62
     3
 48
16.0
100
AcDbCircle
 10
528.4297447231805
 20
1156.533576421932
 30
0.0
 40
1000.00311522171
100
AcDbArc
 50
258.6713085308722
 51
265.8806348433623
  0
ARC
  5
2A7
330
1A
100
AcDbEntity
  8
SEIHIN
  6
CONTINUOUS
 62
     3
 48
16.0
100
AcDbCircle
 10
404.0969541355501
 20
157.313540274468
 30
0.0
 40
46.19988075445009
100
AcDbArc
 50
229.5073847687962
 51
263.7871049582252
  0
DIMENSION
  5
2A8
330
1A
100
AcDbEntity
  8
SUNPOU
  6
CONTINUOUS
100
AcDbDimension
  2
*D3
 10
298.2845674074058
 20
277.1081785471695
 30
0.0
 11
293.2845674074058
 21
294.6081785471695
 31
0.0
 70
    32
  1
※<>
  3
STANDARD
100
AcDbAlignedDimension
 13
368.0970599354548
 23
312.1081785471695
 33
0.0
 14
344.9471599354548
 24
277.1081785471695
 34
0.0
 50
90.0
100
AcDbRotatedDimension
1001
ACAD
1000
DSTYLE
1002
{
1070
   140
1040
6.0
1070
    74
1070
     0
1070
   172
1070
     1
1070
    73
1070
     0
1070
   272
1070
     2
1070
    77
1070
     3
1070
   173
1070
     1
1070
   147
1040
2.0
1070
    42
1040
6.0
1070
    44
1040
3.0
1070
    43
1040
14.0
1070
   271
1070
     0
1070
   178
1070
     4
1070
   177
1070
     4
1070
   176
1070
     4
1070
   141
1040
150.0
1070
     7
1000
_OPEN
1070
     6
1000
_OPEN
1070
    41
1040
7.0
1002
}
  0
TEXT
  5
2A9
330
1A
100
AcDbEntity
  8
ZUWAKU
 62
     7
100
AcDbText
 10
50.3519382305086
 20
16.10306189639755
 30
0.0
 40
8.0
  1
丸トップ　のきとい
100
AcDbText
  0
TEXT
  5
2AB
330
1A
100
AcDbEntity
  8
ZUWAKU
 62
     7
100
AcDbText
 10
282.3131429914078
 20
15.64241700452384
 30
0.0
 40
8.0
  1
テリ曲り　１０５－６８°
100
AcDbText
  0
LINE
  5
2AF
330
1A
100
AcDbEntity
  8
SEIHIN
  6
CONTINUOUS
 62
     3
 48
16.0
100
AcDbLine
 10
334.3539599354545
 20
175.5438084046895
 30
0.0
 11
346.9470599354546
 21
159.1136084046895
 31
0.0
  0
LINE
  5
2B0
330
1A
100
AcDbEntity
  8
SEIHIN
  6
CONTINUOUS
 62
     3
 48
16.0
100
AcDbLine
 10
331.9937599354547
 20
176.0137084046895
 30
0.0
 11
344.9470599354546
 21
159.1136084046895
 31
0.0
  0
LINE
  5
2B1
330
1A
100
AcDbEntity
  8
SEIHIN
  6
CONTINUOUS
 62
     3
 48
16.0
100
AcDbLine
 10
331.9937599354547
 20
176.0137084046895
 30
0.0
 11
331.9937599354547
 21
167.4113084046895
 31
0.0
  0
LINE
  5
2B2
330
1A
100
AcDbEntity
  8
SEIHIN
  6
CONTINUOUS
 62
     3
 48
16.0
100
AcDbLine
 10
368.0970599354547
 20
125.8861084046895
 30
0.0
 11
368.0970599354547
 21
128.3578084046895
 31
0.0
  0
ARC
  5
2B3
330
1A
100
AcDbEntity
  8
SEIHIN
  6
CONTINUOUS
 62
     3
 48
16.0
100
AcDbCircle
 10
404.0978494179909
 20
157.3131774763255
 30
0.0
 40
48.30023450631091
100
AcDbArc
 50
222.7473085669945
 51
227.0304714936761
  0
ARC
  5
2B4
330
1A
100
AcDbEntity
  8
SEIHIN
  6
CONTINUOUS
 62
     3
 48
16.0
100
AcDbCircle
 10
370.0970800372639
 20
125.8860582832187
 30
0.0
 40
2.000020102437388
100
AcDbArc
 50
179.9985641400631
 51
222.7474541849787
  0
ARC
  5
2B5
330
1A
100
AcDbEntity
  8
SEIHIN
  6
CONTINUOUS
 62
     3
 48
16.0
100
AcDbCircle
 10
372.5392435949856
 20
123.4345052325388
 30
0.0
 40
1.999949990717637
100
AcDbArc
 50
227.0305056482715
 51
319.5062836016006
  0
ARC
  5
2B6
330
1A
100
AcDbEntity
  8
SEIHIN
  6
CONTINUOUS
 62
     3
 48
16.0
100
AcDbCircle
 10
375.581155998313
 20
120.8371455985728
 30
0.0
 40
1.999988526772563
100
AcDbArc
 50
139.5085078838758
 51
231.9825411760126
  0
LINE
  5
2B7
330
1A
100
AcDbEntity
  8
SEIHIN
  6
CONTINUOUS
 62
     3
 48
16.0
100
AcDbLine
 10
374.0601599354546
 20
122.1358084046895
 30
0.0
 11
374.0970599354547
 21
122.1790084046895
 31
0.0
  0
ARC
  5
2B8
330
1A
100
AcDbEntity
  8
SEIHIN
  6
CONTINUOUS
 62
     3
 48
16.0
100
AcDbCircle
 10
404.0971271367844
 20
157.3135665861923
 30
0.0
 40
48.2999951922437
100
AcDbArc
 50
196.8137843647776
 51
216.3347807136431
  0
ARC
  5
2B9
330
1A
100
AcDbEntity
  8
SEIHIN
  6
CONTINUOUS
 62
     3
 48
16.0
100
AcDbCircle
 10
404.0971870298412
 20
157.313587186046
 30
0.0
 40
46.20006791820595
100
AcDbArc
 50
194.4665764021859
 51
218.8105672876191
  0
LINE
  5
2BA
330
1A
100
AcDbEntity
  8
SEIHIN
  6
CONTINUOUS
 62
     3
 48
16.0
100
AcDbLine
 10
359.8229599354546
 20
144.1136084046895
 30
0.0
 11
361.0614599354546
 21
144.1136084046895
 31
0.0
  0
ARC
  5
2BB
330
1A
100
AcDbEntity
  8
SEIHIN
  6
CONTINUOUS
 62
     3
 48
16.0
100
AcDbCircle
 10
528.4396330287103
 20
1156.59780328427
 30
0.0
 40
1011.368021474243
100
AcDbArc
 50
259.5318263113759
 51
260.5179951818136
  0
ARC
  5
2BC
330
1A
100
AcDbEntity
  8
SEIHIN
  6
CONTINUOUS
 62
     3
 48
16.0
100
AcDbCircle
 10
362.1880387229268
 20
158.1135880267783
 30
0.0
 40
1.000020378136236
100
AcDbArc
 50
89.99878463645435
 51
179.4774442423333
  0
LINE
  5
2BD
330
1A
100
AcDbEntity
  8
SEIHIN
  6
CONTINUOUS
 62
     3
 48
16.0
100
AcDbLine
 10
359.3619599354545
 20
154.4366084046895
 30
0.0
 11
359.3619599354545
 21
145.7720084046895
 31
0.0
  0
LINE
  5
2BE
330
1A
100
AcDbEntity
  8
SEIHIN
  6
CONTINUOUS
 62
     3
 48
16.0
100
AcDbLine
 10
352.4470599354545
 20
147.8136084046895
 30
0.0
 11
352.9470599354546
 21
154.1136084046895
 31
0.0
  0
LINE
  5
2BF
330
1A
100
AcDbEntity
  8
SEIHIN
  6
CONTINUOUS
 62
     3
 48
16.0
100
AcDbLine
 10
357.8619599354546
 20
143.3421084046895
 30
0.0
 11
357.8619599354546
 21
154.4366084046895
 31
0.0
  0
LINE
  5
2C0
330
1A
100
AcDbEntity
  8
SEIHIN
  6
CONTINUOUS
 62
     3
 48
16.0
100
AcDbLine
 10
348.4879599354545
 20
155.9214084046895
 30
0.0
 11
352.6586599354546
 21
150.4800084046895
 31
0.0
  0
LINE
  5
2C1
330
1A
100
AcDbEntity
  8
SEIHIN
  6
CONTINUOUS
 62
     3
 48
16.0
100
AcDbLine
 10
331.9937599354547
 20
167.4113084046895
 30
0.0
 11
345.6032599354546
 21
149.6550084046895
 31
0.0
  0
ARC
  5
2C2
330
1A
100
AcDbEntity
  8
SEIHIN
  6
CONTINUOUS
 62
     3
 48
16.0
100
AcDbCircle
 10
351.5970564615551
 20
152.4636049307899
 30
0.0
 40
4.649996526101713
100
AcDbArc
 50
179.9999571957131
 51
270.0000428042871
  0
ARC
  5
2C3
330
1A
100
AcDbEntity
  8
SEIHIN
  6
CONTINUOUS
 62
     3
 48
16.0
100
AcDbCircle
 10
351.5970549674046
 20
152.4636034366396
 30
0.0
 40
6.649995031951904
100
AcDbArc
 50
179.9999571957132
 51
270.0000428042871
  0
LINE
  5
2C4
330
1A
100
AcDbEntity
  8
SEIHIN
  6
CONTINUOUS
 62
     3
 48
16.0
100
AcDbLine
 10
351.5970599354547
 20
147.8136084046895
 30
0.0
 11
357.8619599354546
 21
147.8136084046895
 31
0.0
  0
LINE
  5
2C6
330
1A
100
AcDbEntity
  8
SEIHIN
  6
CONTINUOUS
 62
     3
 48
16.0
100
AcDbLine
 10
351.5970599354547
 20
145.8136084046895
 30
0.0
 11
353.0039735893282
 21
145.8136084046895
 31
0.0
  0
ARC
  5
2C7
330
1A
100
AcDbEntity
  8
SEIHIN
  6
CONTINUOUS
 62
     3
 48
16.0
100
AcDbCircle
 10
353.8831452164644
 20
146.8136207623562
 30
0.0
 40
0.9999876424416562
100
AcDbArc
 50
11.81136260658115
 51
89.9991566535578
  0
ARC
  5
2C8
330
1A
100
AcDbEntity
  8
SEIHIN
  6
CONTINUOUS
 62
     3
 48
16.0
100
AcDbCircle
 10
351.5970578829899
 20
152.4636104660582
 30
0.0
 40
6.64999794753561
100
AcDbArc
 50
55.38699547526611
 51
180.0000177605655
  0
ARC
  5
2C9
330
1A
100
AcDbEntity
  8
SEIHIN
  6
CONTINUOUS
 62
     3
 48
16.0
100
AcDbCircle
 10
351.5970532465893
 20
152.4636073896708
 30
0.0
 40
4.64999331113486
100
AcDbArc
 50
55.38746874963291
 51
179.999987493253
  0
LINE
  5
2CA
330
1A
100
AcDbEntity
  8
SEIHIN
  6
CONTINUOUS
 62
     3
 48
16.0
100
AcDbLine
 10
344.9470599354546
 20
152.4636084046895
 30
0.0
 11
344.9470599354546
 21
159.1136084046895
 31
0.0
  0
LINE
  5
2CB
330
1A
100
AcDbEntity
  8
SEIHIN
  6
CONTINUOUS
 62
     3
 48
16.0
100
AcDbLine
 10
346.9470599354546
 20
157.2176084046895
 30
0.0
 11
346.9470599354546
 21
159.1136084046895
 31
0.0
  0
LINE
  5
2CC
330
1A
100
AcDbEntity
  8
SEIHIN
  6
CONTINUOUS
 62
     3
 48
16.0
100
AcDbLine
 10
346.9470599354546
 20
159.1136084046895
 30
0.0
 11
344.9470599354546
 21
159.1136084046895
 31
0.0
  0
ARC
  5
2CD
330
1A
100
AcDbEntity
  8
SEIHIN
  6
CONTINUOUS
 62
     3
 48
16.0
100
AcDbCircle
 10
354.7958909706796
 20
150.1135992838059
 30
0.0
 40
4.00000912100403
100
AcDbArc
 50
39.95799391943394
 51
90.00044454583871
  0
ARC
  5
2CE
330
1A
100
AcDbEntity
  8
SEIHIN
  6
CONTINUOUS
 62
     3
 48
16.0
100
AcDbCircle
 10
354.8064876852828
 20
157.113647952348
 30
0.0
 40
1.000024810484581
100
AcDbArc
 50
235.3881721439884
 51
55.16897830174295
  0
LINE
  5
2CF
330
1A
100
AcDbEntity
  8
SEIHIN
  6
CONTINUOUS
 62
     3
 48
16.0
100
AcDbLine
 10
352.9470599354546
 20
154.1136084046895
 30
0.0
 11
354.7958599354545
 21
154.1136084046895
 31
0.0
  0
ARC
  5
2D0
330
1A
100
AcDbEntity
  8
SEIHIN
  6
CONTINUOUS
 62
     3
 48
16.0
100
AcDbCircle
 10
355.8619660444885
 20
154.4366013438661
 30
0.0
 40
1.999993890978587
100
AcDbArc
 50
0.0002022783075972
 51
100.0497712729512
  0
ARC
  5
2D1
330
1A
100
AcDbEntity
  8
SEIHIN
  6
CONTINUOUS
 62
     3
 48
16.0
100
AcDbCircle
 10
355.8619697760026
 20
154.4365971044186
 30
0.0
 40
3.499990159470196
100
AcDbArc
 50
0.0001849884719591
 51
97.35256782769276
  0
LINE
  5
2D2
330
1A
100
AcDbEntity
  8
SEIHIN
  6
CONTINUOUS
 62
     3
 48
16.0
100
AcDbLine
 10
362.6971599354545
 20
159.1136084046895
 30
0.0
 11
362.8815599354546
 21
136.4396084046895
 31
0.0
  0
LINE
  5
2D3
330
1A
100
AcDbEntity
  8
SEIHIN
  6
CONTINUOUS
 62
     3
 48
16.0
100
AcDbLine
 10
361.0614599354546
 20
144.1136084046895
 30
0.0
 11
361.1880599354545
 21
158.1226084046895
 31
0.0
  0
LINE
  5
2D4
330
1A
100
AcDbEntity
  8
SEIHIN
  6
CONTINUOUS
 62
     3
 48
16.0
100
AcDbLine
 10
368.0970599354547
 20
128.3578084046895
 30
0.0
 11
368.0528599354546
 21
128.3222084046895
 31
0.0
  0
ARC
  5
2D5
330
1A
100
AcDbEntity
  8
SEIHIN
  6
CONTINUOUS
 62
     3
 48
16.0
100
AcDbCircle
 10
366.7993052879109
 20
129.8806144737345
 30
0.0
 40
2.000007182590808
100
AcDbArc
 50
216.3346817022957
 51
308.8125920039031
  0
LINE
  5
2D6
330
1A
100
AcDbEntity
  8
SEIHIN
  6
CONTINUOUS
 62
     3
 48
16.0
100
AcDbLine
 10
362.1880599354545
 20
159.1136084046895
 30
0.0
 11
362.6971599354545
 21
159.1136084046895
 31
0.0
  0
DIMENSION
  5
2D7
330
1A
100
AcDbEntity
  8
SUNPOU
  6
CONTINUOUS
100
AcDbDimension
  2
*D4
 10
276.9088262456727
 20
277.1081785471695
 30
0.0
 11
271.9088262456728
 21
389.6083056378502
 31
0.0
 70
    32
  3
STANDARD
100
AcDbAlignedDimension
 13
331.9942114188227
 23
502.1084327285308
 33
0.0
 14
344.9471599354548
 24
277.1081785471695
 34
0.0
 50
90.0
100
AcDbRotatedDimension
1001
ACAD
1000
DSTYLE
1002
{
1070
   140
1040
6.0
1070
    74
1070
     0
1070
   172
1070
     1
1070
    73
1070
     0
1070
   272
1070
     2
1070
    77
1070
     3
1070
   173
1070
     1
1070
   147
1040
2.0
1070
    42
1040
6.0
1070
    44
1040
3.0
1070
    43
1040
14.0
1070
   271
1070
     0
1070
   178
1070
     4
1070
   177
1070
     4
1070
   176
1070
     4
1070
   141
1040
150.0
1070
     7
1000
_OPEN
1070
     6
1000
_OPEN
1070
    41
1040
7.0
1002
}
  0
ARC
  5
2D8
330
1A
100
AcDbEntity
  8
SEIHIN
  6
CONTINUOUS
 62
     3
 48
16.0
100
AcDbCircle
 10
-1055.050333612558
 20
312.1080671947335
 30
0.0
 40
1409.90729652184
100
AcDbArc
 50
1.910339279192508
 51
6.993016576455407
  0
ARC
  5
2D9
330
1A
100
AcDbEntity
  8
SEIHIN
  6
CONTINUOUS
 62
     3
 48
16.0
100
AcDbCircle
 10
-1055.062721581705
 20
312.107953042882
 30
0.0
 40
1402.009781517178
100
AcDbArc
 50
0.0000092156589095
 51
7.634253349718613
  0
ARC
  5
2DA
330
1A
100
AcDbEntity
  8
SEIHIN
  6
CONTINUOUS
 62
     3
 48
16.0
100
AcDbCircle
 10
-1055.041635246277
 20
312.1086782473013
 30
0.0
 40
1399.988695181821
100
AcDbArc
 50
359.9999795493287
 51
7.799964191340268
  0
LINE
  5
2DB
330
1A
100
AcDbEntity
  8
SEIHIN
  6
CONTINUOUS
 62
     3
 48
16.0
100
AcDbLine
 10
359.3619599354548
 20
312.1072785471695
 30
0.0
 11
359.3619599354548
 21
314.1081785471695
 31
0.0
  0
LINE
  5
2DC
330
1A
100
AcDbEntity
  8
SEIHIN
  6
CONTINUOUS
 62
     3
 48
16.0
100
AcDbLine
 10
374.0971599354547
 20
312.1081785471695
 30
0.0
 11
374.0971599354547
 21
316.1086785471695
 31
0.0
  0
LINE
  5
2DD
330
1A
100
AcDbEntity
  8
SEIHIN
  6
CONTINUOUS
 62
     3
 48
16.0
100
AcDbLine
 10
368.0971599354547
 20
312.1081785471695
 30
0.0
 11
368.0971599354547
 21
316.1081785471695
 31
0.0
  0
LINE
  5
2DE
330
1A
100
AcDbEntity
  8
SEIHIN
  6
CONTINUOUS
 62
     3
 48
16.0
100
AcDbLine
 10
365.6945599354547
 20
302.1081785471695
 30
0.0
 11
355.8064599354547
 21
302.1081785471695
 31
0.0
  0
LINE
  5
2DF
330
1A
100
AcDbEntity
  8
SEIHIN
  6
CONTINUOUS
 62
     3
 48
16.0
100
AcDbLine
 10
355.8064599354547
 20
277.1081785471695
 30
0.0
 11
355.8065599354548
 21
302.1089785471695
 31
0.0
  0
LINE
  5
2E0
330
1A
100
AcDbEntity
  8
SEIHIN
  6
CONTINUOUS
 62
     3
 48
16.0
100
AcDbLine
 10
344.9471599354548
 20
277.1081785471695
 30
0.0
 11
344.9471599354548
 21
312.1072785471695
 31
0.0
  0
LINE
  5
2E1
330
1A
100
AcDbEntity
  8
SEIHIN
  6
CONTINUOUS
 62
     3
 48
16.0
100
AcDbLine
 10
344.9471599354548
 20
312.1081785471695
 30
0.0
 11
359.3619599354548
 21
312.1081785471695
 31
0.0
  0
LINE
  5
2E2
330
1A
100
AcDbEntity
  8
SEIHIN
  6
CONTINUOUS
 62
     3
 48
16.0
100
AcDbLine
 10
368.0970599354548
 20
312.1081785471695
 30
0.0
 11
374.0970599354548
 21
312.1081785471695
 31
0.0
  0
ARC
  5
2E3
330
1A
100
AcDbEntity
  8
SEIHIN
  6
CONTINUOUS
 62
     3
 48
16.0
100
AcDbCircle
 10
365.694558047731
 20
304.1081769160596
 30
0.0
 40
1.999998368891023
100
AcDbArc
 50
270.0000540793453
 51
357.1369288398178
  0
LINE
  5
2E4
330
1A
100
AcDbEntity
  8
SEIHIN
  6
CONTINUOUS
 62
     3
 48
16.0
100
AcDbLine
 10
368.0971599354547
 20
312.1081785471695
 30
0.0
 11
367.6920599354548
 21
304.0082785471694
 31
0.0
  0
ARC
  5
2E5
330
1A
100
AcDbEntity
  8
SEIHIN
  6
CONTINUOUS
 62
     3
 48
16.0
100
AcDbCircle
 10
376.4995618231785
 20
304.1081769160596
 30
0.0
 40
1.999998368891029
100
AcDbArc
 50
182.8630711601821
 51
269.9999459206547
  0
LINE
  5
2E6
330
1A
100
AcDbEntity
  8
SEIHIN
  6
CONTINUOUS
 62
     3
 48
16.0
100
AcDbLine
 10
374.0971599354547
 20
312.1080785471694
 30
0.0
 11
374.5020599354548
 21
304.0082785471694
 31
0.0
  0
LINE
  5
2E7
330
1A
100
AcDbEntity
  8
SEIHIN
  6
CONTINUOUS
 62
     3
 48
16.0
100
AcDbLine
 10
368.0970599354548
 20
316.1081785471695
 30
0.0
 11
354.8513599354548
 21
316.1081785471695
 31
0.0
  0
LINE
  5
2E8
330
1A
100
AcDbEntity
  8
SEIHIN
  6
CONTINUOUS
 62
     3
 48
16.0
100
AcDbLine
 10
368.0970599354548
 20
314.1081785471695
 30
0.0
 11
359.3620599354547
 21
314.1081785471695
 31
0.0
  0
ARC
  5
2E9
330
1A
100
AcDbEntity
  8
SEIHIN
  6
CONTINUOUS
 62
     3
 48
16.0
100
AcDbCircle
 10
-1054.910766018023
 20
312.1083138628803
 30
0.0
 40
1409.767900273941
100
AcDbArc
 50
0.1625626973534877
 51
1.09739545125439
  0
LINE
  5
2EA
330
1A
100
AcDbEntity
  8
SEIHIN
  6
CONTINUOUS
 62
     3
 48
16.0
100
AcDbLine
 10
354.8513599354548
 20
316.1081785471695
 30
0.0
 11
359.3620599354547
 21
314.1081785471695
 31
0.0
  0
ARC
  5
2EB
330
1A
100
AcDbEntity
  8
SEIHIN
  6
CONTINUOUS
 62
     3
 48
16.0
100
AcDbCircle
 10
-1055.074299023446
 20
312.1193496515576
 30
0.0
 40
1409.93110225662
100
AcDbArc
 50
1.178110469638949
 51
1.828530412461569
  0
LINE
  5
2EC
330
1A
100
AcDbEntity
  8
SEIHIN
  6
CONTINUOUS
 62
     3
 48
16.0
100
AcDbLine
 10
358.9471599354548
 20
339.1081785471694
 30
0.0
 11
358.9471599354548
 21
359.1081785471694
 31
0.0
  0
LINE
  5
2ED
330
1A
100
AcDbEntity
  8
SEIHIN
  6
CONTINUOUS
 62
     3
 48
16.0
100
AcDbLine
 10
360.9471599354548
 20
339.1081785471694
 30
0.0
 11
360.9471599354548
 21
359.1081785471694
 31
0.0
  0
LINE
  5
2EE
330
1A
100
AcDbEntity
  8
SEIHIN
  6
CONTINUOUS
 62
     3
 48
16.0
100
AcDbLine
 10
360.9471599354548
 20
339.1081785471694
 30
0.0
 11
350.4471599354548
 21
339.1081785471694
 31
0.0
  0
LINE
  5
2EF
330
1A
100
AcDbEntity
  8
SEIHIN
  6
CONTINUOUS
 62
     3
 48
16.0
100
AcDbLine
 10
358.9471599354548
 20
341.1081785471694
 30
0.0
 11
350.4471599354548
 21
341.1081785471694
 31
0.0
  0
LINE
  5
2F0
330
1A
100
AcDbEntity
  8
SEIHIN
  6
CONTINUOUS
 62
     3
 48
16.0
100
AcDbLine
 10
350.4471599354548
 20
339.1081785471694
 30
0.0
 11
350.4471599354548
 21
341.1081785471694
 31
0.0
  0
LINE
  5
2F1
330
1A
100
AcDbEntity
  8
SEIHIN
  6
CONTINUOUS
 62
     3
 48
16.0
100
AcDbLine
 10
356.9471599354548
 20
339.1081785471694
 30
0.0
 11
356.9471599354548
 21
341.1081785471694
 31
0.0
  0
LINE
  5
2F2
330
1A
100
AcDbEntity
  8
SEIHIN
  6
CONTINUOUS
 62
     3
 48
16.0
100
AcDbLine
 10
360.9471599354548
 20
359.1081785471694
 30
0.0
 11
350.4471599354548
 21
359.1081785471694
 31
0.0
  0
LINE
  5
2F3
330
1A
100
AcDbEntity
  8
SEIHIN
  6
CONTINUOUS
 62
     3
 48
16.0
100
AcDbLine
 10
358.9471599354548
 20
357.1081785471694
 30
0.0
 11
350.4471599354548
 21
357.1081785471694
 31
0.0
  0
LINE
  5
2F4
330
1A
100
AcDbEntity
  8
SEIHIN
  6
CONTINUOUS
 62
     3
 48
16.0
100
AcDbLine
 10
350.4471599354548
 20
357.1081785471694
 30
0.0
 11
350.4471599354548
 21
359.1079785471694
 31
0.0
  0
LINE
  5
2F5
330
1A
100
AcDbEntity
  8
SEIHIN
  6
CONTINUOUS
 62
     3
 48
16.0
100
AcDbLine
 10
356.9471599354548
 20
357.1081785471694
 30
0.0
 11
356.9471599354548
 21
359.1081785471694
 31
0.0
  0
TEXT
  5
2F6
330
1A
100
AcDbEntity
  8
SUNPOU
 62
     4
100
AcDbText
 10
620.3353563527936
 20
39.40029583852544
 30
0.0
 40
8.0
  1
※　テリといの差込み寸法を示す。
100
AcDbText
  0
TEXT
  5
2F7
330
1A
100
AcDbEntity
  8
ZUWAKU
 62
     7
100
AcDbText
 10
654.2531733678779
 20
15.90287984531518
 30
0.0
 40
8.0
  1
ＧＨ０７
100
AcDbText
  0
LINE
  5
2FC
330
1A
100
AcDbEntity
  8
SEIHIN
  6
CONTINUOUS
 48
16.0
100
AcDbLine
 10
493.9419599354547
 20
147.8136073896708
 30
0.0
 11
533.2579052274342
 21
147.8136073896708
 31
0.0
  0
LINE
  5
2FD
330
1A
100
AcDbEntity
  8
SEIHIN
  6
CONTINUOUS
 62
     3
 48
16.0
100
AcDbLine
 10
456.5970599354547
 20
159.1136084046895
 30
0.0
 11
533.2770194587632
 21
159.1134130185877
 31
0.0
  0
ELLIPSE
  5
2FE
330
1A
100
AcDbEntity
  8
SEIHIN
  6
CONTINUOUS
 48
16.0
100
AcDbEllipse
 10
513.5999325814444
 20
157.3135327539828
 30
0.0
 11
0.0
 21
50.3
 31
0.0
210
0.0
220
0.0
230
1.0
 40
0.3749502982107359
 41
1.760802864874048
 42
4.522382442305778
  0
ELLIPSE
  5
2FF
330
1A
100
AcDbEntity
  8
SEIHIN
  6
CONTINUOUS
 48
16.0
100
AcDbEllipse
 10
513.5999325814444
 20
157.3135327539828
 30
0.0
 11
0.0
 21
50.79999999999999
 31
0.0
210
0.0
220
0.0
230
1.0
 40
0.3749999999999992
 41
1.786732114194257
 42
4.496453192985578
  0
LINE
  5
300
330
1A
100
AcDbEntity
  8
SEIHIN
  6
CONTINUOUS
 48
16.0
100
AcDbLine
 10
515.2393599354546
 20
156.1137084046895
 30
0.0
 11
526.5941599354547
 21
156.1138084046895
 31
0.0
  0
ARC
  5
301
330
1A
100
AcDbEntity
  8
SEIHIN
  6
CONTINUOUS
 62
     3
 48
16.0
100
AcDbCircle
 10
404.0971061513865
 20
157.3135858982375
 30
0.0
 40
52.29997749375239
100
AcDbArc
 50
193.5634039514932
 51
346.4364594024796
  0
ARC
  5
302
330
1A
100
AcDbEntity
  8
SEIHIN
  6
CONTINUOUS
 62
     3
 48
16.0
100
AcDbCircle
 10
404.0970534106597
 20
157.3136205991353
 30
0.0
 40
50.3000121944462
100
AcDbArc
 50
191.8014823565333
 51
348.1892261694702
  0
LINE
  5
303
330
1A
100
AcDbEntity
  8
SEIHIN
  6
CONTINUOUS
 62
     3
 48
16.0
100
AcDbLine
 10
416.5330599354546
 20
106.5136084046895
 30
0.0
 11
479.2942803094448
 21
106.5135033254206
 31
0.0
  0
ARC
  5
304
330
1A
100
AcDbEntity
  8
SEIHIN
  6
CONTINUOUS
 62
     3
 48
16.0
100
AcDbCircle
 10
456.5970634093543
 20
152.4636049307899
 30
0.0
 40
4.649996526101678
100
AcDbArc
 50
269.9999571957131
 51
0.0000428042872374
  0
ARC
  5
305
330
1A
100
AcDbEntity
  8
SEIHIN
  6
CONTINUOUS
 62
     3
 48
16.0
100
AcDbCircle
 10
456.5970666243198
 20
152.4636073896708
 30
0.0
 40
4.649993311134832
100
AcDbArc
 50
0.0000125067469986
 51
124.6125312503667
  0
ARC
  5
306
330
1A
100
AcDbEntity
  8
SEIHIN
  6
CONTINUOUS
 62
     3
 48
16.0
100
AcDbCircle
 10
456.5970649035044
 20
152.4636034366395
 30
0.0
 40
6.649995031951883
100
AcDbArc
 50
269.9999571957132
 51
0.0000428042870425
  0
ARC
  5
307
330
1A
100
AcDbEntity
  8
SEIHIN
  6
CONTINUOUS
 62
     3
 48
16.0
100
AcDbCircle
 10
456.5970619879193
 20
152.4636104660582
 30
0.0
 40
6.649997947535587
100
AcDbArc
 50
359.9999822394343
 51
124.6130045247337
  0
LINE
  5
308
330
1A
100
AcDbEntity
  8
SEIHIN
  6
CONTINUOUS
 62
     3
 48
16.0
100
AcDbLine
 10
455.1902311422989
 20
145.8136004806792
 30
0.0
 11
493.9419599354547
 21
145.8138187510903
 31
0.0
  0
ELLIPSE
  5
309
330
1A
100
AcDbEntity
  8
SEIHIN
  6
CONTINUOUS
 48
16.0
100
AcDbEllipse
 10
477.4398360462831
 20
157.3135327539828
 30
0.0
 11
0.0
 21
50.3
 31
0.0
210
0.0
220
0.0
230
1.0
 40
0.3749502982107359
 41
1.801462854692089
 42
3.141592653589793
  0
LINE
  5
30A
330
1A
100
AcDbEntity
  8
CENTER_L
  6
CENTER
 62
     1
 48
3.0
100
AcDbLine
 10
404.0970599354547
 20
99.4074084046896
 30
0.0
 11
404.0970599354547
 21
169.8600084046895
 31
0.0
  0
LINE
  5
30B
330
1A
100
AcDbEntity
  8
SEIHIN
  6
CONTINUOUS
 62
     3
 48
16.0
100
AcDbLine
 10
440.0970599354547
 20
125.8861084046895
 30
0.0
 11
440.0970599354547
 21
128.3578084046895
 31
0.0
  0
ARC
  5
30C
330
1A
100
AcDbEntity
  8
SEIHIN
  6
CONTINUOUS
 62
     3
 48
16.0
100
AcDbCircle
 10
404.0970415965654
 20
157.3135915540407
 30
0.0
 40
48.29999419532042
100
AcDbArc
 50
278.6887455612574
 51
308.016820913988
  0
ARC
  5
30D
330
1A
100
AcDbEntity
  8
SEIHIN
  6
CONTINUOUS
 62
     3
 48
16.0
100
AcDbCircle
 10
404.0971157353591
 20
157.3136024005954
 30
0.0
 40
46.20003651724525
100
AcDbArc
 50
276.2128116378834
 51
310.4925318273123
  0
ARC
  5
30E
330
1A
100
AcDbEntity
  8
SEIHIN
  6
CONTINUOUS
 62
     3
 48
16.0
100
AcDbCircle
 10
411.0915205245852
 20
111.5449629050557
 30
0.0
 40
2.000008180237927
100
AcDbArc
 50
186.2131088654266
 51
278.6888868187551
  0
ARC
  5
30F
330
1A
100
AcDbEntity
  8
SEIHIN
  6
CONTINUOUS
 62
     3
 48
16.0
100
AcDbCircle
 10
411.0915205245852
 20
111.5449629050557
 30
0.0
 40
2.000008180237927
100
AcDbArc
 50
186.2131088654266
 51
278.6888868187551
  0
ARC
  5
310
330
1A
100
AcDbEntity
  8
SEIHIN
  6
CONTINUOUS
 62
     3
 48
16.0
100
AcDbCircle
 10
404.0969471742622
 20
157.3122218783032
 30
0.0
 40
48.29861347361532
100
AcDbArc
 50
266.2848238922971
 51
270.0000151383737
  0
LINE
  5
311
330
1A
100
AcDbEntity
  8
SEIHIN
  6
CONTINUOUS
 62
     3
 48
16.0
100
AcDbLine
 10
399.0970599354547
 20
111.3850084046895
 30
0.0
 11
399.0909599354546
 21
111.3285084046895
 31
0.0
  0
ARC
  5
312
330
1A
100
AcDbEntity
  8
SEIHIN
  6
CONTINUOUS
 62
     3
 48
16.0
100
AcDbCircle
 10
401.0970611058843
 20
111.1109060443186
 30
0.0
 40
2.000001170431076
100
AcDbArc
 50
179.9999323803926
 51
266.2845987993855
  0
LINE
  5
313
330
1A
100
AcDbEntity
  8
SEIHIN
  6
CONTINUOUS
 62
     3
 48
16.0
100
AcDbLine
 10
399.0970599354547
 20
111.3850084046895
 30
0.0
 11
399.0970599354547
 21
111.1109084046895
 31
0.0
  0
ARC
  5
314
330
1A
100
AcDbEntity
  8
SEIHIN
  6
CONTINUOUS
 62
     3
 48
16.0
100
AcDbCircle
 10
397.1026622301293
 20
111.545011190261
 30
0.0
 40
2.000050304657878
100
AcDbArc
 50
261.3123732161486
 51
353.7856310996711
  0
ARC
  5
315
330
1A
100
AcDbEntity
  8
SEIHIN
  6
CONTINUOUS
 62
     3
 48
16.0
100
AcDbCircle
 10
397.1026622301293
 20
111.545011190261
 30
0.0
 40
2.000050304657878
100
AcDbArc
 50
261.3123732161486
 51
353.7856310996711
  0
ARC
  5
316
330
1A
100
AcDbEntity
  8
SEIHIN
  6
CONTINUOUS
 62
     3
 48
16.0
100
AcDbCircle
 10
404.0970726966468
 20
157.3122218783022
 30
0.0
 40
48.29861347361444
100
AcDbArc
 50
269.9999848616262
 51
273.7151761077027
  0
LINE
  5
317
330
1A
100
AcDbEntity
  8
SEIHIN
  6
CONTINUOUS
 62
     3
 48
16.0
100
AcDbLine
 10
409.0970599354546
 20
111.3850084046895
 30
0.0
 11
409.1032599354546
 21
111.3285084046895
 31
0.0
  0
ARC
  5
318
330
1A
100
AcDbEntity
  8
SEIHIN
  6
CONTINUOUS
 62
     3
 48
16.0
100
AcDbCircle
 10
407.0970587650249
 20
111.1109060443186
 30
0.0
 40
2.000001170431119
100
AcDbArc
 50
273.7154012006135
 51
0.0000676196057449
  0
LINE
  5
319
330
1A
100
AcDbEntity
  8
SEIHIN
  6
CONTINUOUS
 62
     3
 48
16.0
100
AcDbLine
 10
409.0970599354546
 20
111.3850084046895
 30
0.0
 11
409.0970599354546
 21
111.1109084046895
 31
0.0
  0
ARC
  5
31A
330
1A
100
AcDbEntity
  8
SEIHIN
  6
CONTINUOUS
 62
     3
 48
16.0
100
AcDbCircle
 10
435.6549238722441
 20
123.4345110245327
 30
0.0
 40
1.999989947925146
100
AcDbArc
 50
220.4929571484775
 51
312.970479751658
  0
ARC
  5
31B
330
1A
100
AcDbEntity
  8
SEIHIN
  6
CONTINUOUS
 62
     3
 48
16.0
100
AcDbCircle
 10
432.6129579376148
 20
120.8370913777536
 30
0.0
 40
2.000028248172062
100
AcDbArc
 50
308.0167850421978
 51
40.4925629955273
  0
LINE
  5
31C
330
1A
100
AcDbEntity
  8
SEIHIN
  6
CONTINUOUS
 62
     3
 48
16.0
100
AcDbLine
 10
434.1339599354546
 20
122.1358084046895
 30
0.0
 11
434.0970599354546
 21
122.1790084046895
 31
0.0
  0
ARC
  5
31D
330
1A
100
AcDbEntity
  8
SEIHIN
  6
CONTINUOUS
 62
     3
 48
16.0
100
AcDbCircle
 10
404.0975075277759
 20
157.3130274763255
 30
0.0
 40
48.29928656705607
100
AcDbArc
 50
312.9684083406721
 51
317.2515712673537
  0
ARC
  5
31E
330
1A
100
AcDbEntity
  8
SEIHIN
  6
CONTINUOUS
 62
     3
 48
16.0
100
AcDbCircle
 10
438.0970398336452
 20
125.8860582832187
 30
0.0
 40
2.000020102437392
100
AcDbArc
 50
317.2525458150212
 51
0.0014358599368908
  0
LINE
  5
31F
330
1A
100
AcDbEntity
  8
SEIHIN
  6
CONTINUOUS
 62
     3
 48
16.0
100
AcDbLine
 10
448.8322599354545
 20
145.7720084046895
 30
0.0
 11
448.8322599354545
 21
154.4366084046895
 31
0.0
  0
LINE
  5
320
330
1A
100
AcDbEntity
  8
SEIHIN
  6
CONTINUOUS
 62
     3
 48
16.0
100
AcDbLine
 10
450.3322599354545
 20
143.3421084046895
 30
0.0
 11
450.3322599354545
 21
154.4366084046895
 31
0.0
  0
LINE
  5
321
330
1A
100
AcDbEntity
  8
SEIHIN
  6
CONTINUOUS
 62
     3
 48
16.0
100
AcDbLine
 10
429.6739599354546
 20
161.4186084046895
 30
0.0
 11
429.6738599354546
 21
128.3866084046895
 31
0.0
  0
ARC
  5
322
330
1A
100
AcDbEntity
  8
SEIHIN
  6
CONTINUOUS
 62
     3
 48
16.0
100
AcDbCircle
 10
404.0969427341248
 20
157.3136572499497
 30
0.0
 40
48.30012713347038
100
AcDbArc
 50
323.664906384896
 51
343.1859027337616
  0
ARC
  5
323
330
1A
100
AcDbEntity
  8
SEIHIN
  6
CONTINUOUS
 62
     3
 48
16.0
100
AcDbCircle
 10
404.096982841068
 20
157.3137189936816
 30
0.0
 40
46.20017424243767
100
AcDbArc
 50
321.189169838506
 51
345.5331607239393
  0
ARC
  5
324
330
1A
100
AcDbEntity
  8
SEIHIN
  6
CONTINUOUS
 62
     3
 48
16.0
100
AcDbCircle
 10
441.3948591335335
 20
129.8806083971449
 30
0.0
 40
1.999967693756491
100
AcDbArc
 50
231.1885366718904
 51
323.6647023261661
  0
LINE
  5
325
330
1A
100
AcDbEntity
  8
SEIHIN
  6
CONTINUOUS
 62
     3
 48
16.0
100
AcDbLine
 10
429.6741599354546
 20
128.3867084046895
 30
0.0
 11
440.1202599354546
 21
128.3867084046895
 31
0.0
  0
LINE
  5
326
330
1A
100
AcDbEntity
  8
SEIHIN
  6
CONTINUOUS
 62
     3
 48
16.0
100
AcDbLine
 10
440.0970599354547
 20
128.3578084046895
 30
0.0
 11
440.1413599354546
 21
128.3222084046895
 31
0.0
  0
LINE
  5
327
330
1A
100
AcDbEntity
  8
SEIHIN
  6
CONTINUOUS
 62
     3
 48
16.0
100
AcDbLine
 10
456.5970599354547
 20
147.8136084046895
 30
0.0
 11
450.3322599354545
 21
147.8136084046895
 31
0.0
  0
ARC
  5
328
330
1A
100
AcDbEntity
  8
SEIHIN
  6
CONTINUOUS
 62
     3
 48
16.0
100
AcDbCircle
 10
528.4265946518623
 20
1156.310497936466
 30
0.0
 40
1011.080477272331
100
AcDbArc
 50
265.5700515191637
 51
265.8799069059753
  0
ARC
  5
329
330
1A
100
AcDbEntity
  8
SEIHIN
  6
CONTINUOUS
 62
     3
 48
16.0
100
AcDbCircle
 10
454.3110746544449
 20
146.8136207623562
 30
0.0
 40
0.9999876424416489
100
AcDbArc
 50
90.00084334644219
 51
168.1886373934188
  0
LINE
  5
32A
330
1A
100
AcDbEntity
  8
SEIHIN
  6
CONTINUOUS
 62
     3
 48
16.0
100
AcDbLine
 10
456.5970599354547
 20
145.8136084046895
 30
0.0
 11
455.9105599354547
 21
145.8136084046895
 31
0.0
  0
ARC
  5
32B
330
1A
100
AcDbEntity
  8
SEIHIN
  6
CONTINUOUS
 62
     3
 48
16.0
100
AcDbCircle
 10
455.9105697927922
 20
144.8136163572462
 30
0.0
 40
0.9999920474918267
100
AcDbArc
 50
90.0005647883268
 51
166.4382074793804
  0
ARC
  5
32C
330
1A
100
AcDbEntity
  8
SEIHIN
  6
CONTINUOUS
 62
     3
 48
16.0
100
AcDbCircle
 10
452.3322409708781
 20
154.4365945790254
 30
0.0
 40
3.499981035450849
100
AcDbArc
 50
82.64891289849053
 51
179.9997736695735
  0
ARC
  5
32D
330
1A
100
AcDbEntity
  8
SEIHIN
  6
CONTINUOUS
 62
     3
 48
16.0
100
AcDbCircle
 10
452.3322451364341
 20
154.4365939891201
 30
0.0
 40
1.99998520103151
100
AcDbArc
 50
79.95284121709814
 51
179.9995870212996
  0
LINE
  5
32E
330
1A
100
AcDbEntity
  8
SEIHIN
  6
CONTINUOUS
 62
     3
 48
16.0
100
AcDbLine
 10
449.5979599354547
 20
159.6424084046895
 30
0.0
 11
449.5979599354547
 21
156.6216084046895
 31
0.0
  0
ARC
  5
32F
330
1A
100
AcDbEntity
  8
SEIHIN
  6
CONTINUOUS
 62
     3
 48
16.0
100
AcDbCircle
 10
453.387664659334
 20
157.1136011575599
 30
0.0
 40
1.000024656709777
100
AcDbArc
 50
124.8263146503855
 51
304.616534903883
  0
ELLIPSE
  5
330
330
1A
100
AcDbEntity
  8
SEIHIN
  6
CONTINUOUS
 48
16.0
100
AcDbEllipse
 10
508.0823606599562
 20
157.3135327539828
 30
0.0
 11
0.0
 21
-52.3
 31
0.0
210
0.0
220
0.0
230
1.0
 40
0.3458894254008823
 41
-1.349104677236061
 42
0.0000000000000251
  0
ELLIPSE
  5
331
330
1A
100
AcDbEntity
  8
SEIHIN
  6
CONTINUOUS
 48
16.0
100
AcDbEllipse
 10
484.8572668390971
 20
157.3135327539828
 30
0.0
 11
0.0
 21
-52.3
 31
0.0
210
0.0
220
0.0
230
1.0
 40
0.3747609942638617
 41
-1.349101950602817
 42
0.0000000000000116
  0
LINE
  5
332
330
1A
100
AcDbEntity
  8
SEIHIN
  6
CONTINUOUS
 62
     3
 48
16.0
100
AcDbLine
 10
484.8572668390971
 20
105.0135084046895
 30
0.0
 11
508.0823606599562
 21
105.0135084046895
 31
0.0
  0
LINE
  5
333
330
1A
100
AcDbEntity
  8
SEIHIN
  6
CONTINUOUS
 48
16.0
100
AcDbLine
 10
484.8572668390971
 20
105.0135084046895
 30
0.0
 11
477.4398360462831
 21
107.0135327539829
 31
0.0
  0
LINE
  5
334
330
1A
100
AcDbEntity
  8
SEIHIN
  6
CONTINUOUS
 48
16.0
100
AcDbLine
 10
508.0823606599562
 20
105.0135084046895
 30
0.0
 11
513.5999325814444
 21
106.5135327539828
 31
0.0
  0
LINE
  5
335
330
1A
100
AcDbEntity
  8
SEIHIN
  6
CONTINUOUS
 62
     3
 48
16.0
100
AcDbLine
 10
500.1036639626875
 20
122.1786084046895
 30
0.0
 11
501.6702535406895
 21
122.1786084046895
 31
0.0
  0
ELLIPSE
  5
336
330
1A
100
AcDbEntity
  8
SEIHIN
  6
CONTINUOUS
 48
16.0
100
AcDbEllipse
 10
490.4203967230418
 20
157.3135327539828
 30
0.0
 11
0.0
 21
46.2
 31
0.0
210
0.0
220
0.0
230
1.0
 40
0.3749999999999997
 41
-2.4984130208873
 42
-2.434873254947712
  0
ELLIPSE
  5
337
330
1A
100
AcDbEntity
  8
SEIHIN
  6
CONTINUOUS
 62
     3
 48
16.0
100
AcDbEllipse
 10
493.9419599354547
 20
152.4636073896708
 30
0.0
 11
0.0
 21
-6.65
 31
0.0
210
0.0
220
0.0
230
1.0
 40
0.3759398496240601
 41
2.151828920666834
 42
6.71679978686009
  0
ELLIPSE
  5
338
330
1A
100
AcDbEntity
  8
SEIHIN
  6
CONTINUOUS
 48
16.0
100
AcDbEllipse
 10
493.9419599354547
 20
152.4636073896708
 30
0.0
 11
0.0
 21
-4.65
 31
0.0
210
0.0
220
0.0
230
1.0
 40
0.3763440860215053
 41
2.47344073639906
 42
6.2831853071796
  0
LINE
  5
339
330
1A
100
AcDbEntity
  8
SEIHIN
  6
CONTINUOUS
 62
     3
 48
16.0
100
AcDbLine
 10
461.2470599354545
 20
159.1136084046895
 30
0.0
 11
463.2470599354546
 21
159.1136084046895
 31
0.0
  0
LINE
  5
33A
330
1A
100
AcDbEntity
  8
SEIHIN
  6
CONTINUOUS
 62
     3
 48
16.0
100
AcDbLine
 10
461.2470599354545
 20
157.2176084046895
 30
0.0
 11
461.2470599354545
 21
159.1136084046895
 31
0.0
  0
LINE
  5
33B
330
1A
100
AcDbEntity
  8
SEIHIN
  6
CONTINUOUS
 62
     3
 48
16.0
100
AcDbLine
 10
463.2470599354546
 20
152.4636084046895
 30
0.0
 11
463.2470599354546
 21
159.1136084046895
 31
0.0
  0
ELLIPSE
  5
33C
330
1A
100
AcDbEntity
  8
SEIHIN
  6
CONTINUOUS
 48
16.0
100
AcDbEllipse
 10
490.4203967230418
 20
157.3135327539828
 30
0.0
 11
0.0
 21
46.2
 31
0.0
210
0.0
220
0.0
230
1.0
 40
0.3749999999999997
 41
-2.24816818096208
 42
-1.77789975254068
  0
LINE
  5
33D
330
1A
100
AcDbEntity
  8
SEIHIN
  6
CONTINUOUS
 62
     3
 48
16.0
100
AcDbLine
 10
498.1783219559448
 20
128.3578084046895
 30
0.0
 11
503.9204281157538
 21
128.3578084046895
 31
0.0
  0
LINE
  5
33E
330
1A
100
AcDbEntity
  8
SEIHIN
  6
CONTINUOUS
 62
     3
 48
16.0
100
AcDbLine
 10
498.3119678611232
 20
127.8580205925319
 30
0.0
 11
503.9204281157538
 21
127.8579716833896
 31
0.0
  0
LINE
  5
33F
330
1A
100
AcDbEntity
  8
SEIHIN
  6
CONTINUOUS
 48
16.0
100
AcDbLine
 10
503.9204281157538
 20
128.3578084046895
 30
0.0
 11
503.9204281157538
 21
127.8579716833896
 31
0.0
  0
ELLIPSE
  5
340
330
1A
100
AcDbEntity
  8
SEIHIN
  6
CONTINUOUS
 48
16.0
100
AcDbEllipse
 10
479.2941387904462
 20
157.3135327539828
 30
0.0
 11
0.0
 21
-46.2
 31
0.0
210
0.0
220
0.0
230
1.0
 40
0.3749999999999997
 41
1.214743103187808
 42
1.363692901049115
  0
LINE
  5
341
330
1A
100
AcDbEntity
  8
SEIHIN
  6
CONTINUOUS
 62
     3
 48
16.0
100
AcDbLine
 10
492.8577713053592
 20
156.1137084046895
 30
0.0
 11
515.2393599354546
 21
156.1137084046895
 31
0.0
  0
ELLIPSE
  5
342
330
1A
100
AcDbEntity
  8
SEIHIN
  6
CONTINUOUS
 48
16.0
100
AcDbEllipse
 10
533.2579052274342
 20
152.4636073896708
 30
0.0
 11
0.0
 21
-4.65
 31
0.0
210
0.0
220
0.0
230
-1.0
 40
0.3763440860215053
 41
2.47344073639906
 42
6.2831853071796
  0
ELLIPSE
  5
343
330
1A
100
AcDbEntity
  8
SEIHIN
  6
CONTINUOUS
 62
     3
 48
16.0
100
AcDbEllipse
 10
533.2579052274342
 20
152.4636073896708
 30
0.0
 11
0.0
 21
-6.65
 31
0.0
210
0.0
220
0.0
230
-1.0
 40
0.3759398496240601
 41
2.151828920666834
 42
6.716799786860141
  0
LINE
  5
344
330
1A
100
AcDbEntity
  8
SEIHIN
  6
CONTINUOUS
 62
     3
 48
16.0
100
AcDbLine
 10
526.5941599354547
 20
156.1138084046895
 30
0.0
 11
531.1681644760564
 21
156.1138084046895
 31
0.0
  0
ELLIPSE
  5
345
330
1A
100
AcDbEntity
  8
SEIHIN
  6
CONTINUOUS
 48
16.0
100
AcDbEllipse
 10
531.6709405149894
 20
156.1137084046895
 30
0.0
 11
-0.5027760823496124
 21
0.0
 31
0.0
210
0.0
220
0.0
230
1.0
 40
0.478597152544805
 41
-0.2378087616859185
 42
3.141592653589793
  0
LINE
  5
349
330
1A
100
AcDbEntity
  8
SEIHIN
  6
CONTINUOUS
 62
     3
 48
16.0
100
AcDbLine
 10
535.7581599354547
 20
405.8113785471694
 30
0.0
 11
513.5999599354546
 21
350.9685785471694
 31
0.0
  0
LINE
  5
34A
330
1A
100
AcDbEntity
  8
SEIHIN
  6
CONTINUOUS
 62
     3
 48
16.0
100
AcDbLine
 10
535.7581599354547
 20
405.8113785471694
 30
0.0
 11
503.3075599354545
 21
418.9222785471694
 31
0.0
  0
LINE
  5
34B
330
1A
100
AcDbEntity
  8
SEIHIN
  6
CONTINUOUS
 62
     3
 48
16.0
100
AcDbLine
 10
531.6901599354547
 20
395.7427785471695
 30
0.0
 11
508.5097599354547
 21
405.1082785471694
 31
0.0
  0
LINE
  5
34C
330
1A
100
AcDbEntity
  8
CENTER_L
  6
CENTER
 62
     1
 48
3.0
100
AcDbLine
 10
404.0970599354547
 20
266.9208785471695
 30
0.0
 11
404.0971659345164
 21
402.2108727725409
 31
0.0
  0
LINE
  5
34D
330
1A
100
AcDbEntity
  8
CENTER_L
  6
CENTER
 62
     1
 48
3.0
100
AcDbLine
 10
523.0453599354547
 20
347.1522785471695
 30
0.0
 11
397.606881088894
 21
397.833137788546
 31
0.0
  0
DIMENSION
  5
34E
330
1A
100
AcDbEntity
  8
SUNPOU
  6
CONTINUOUS
100
AcDbDimension
  2
*D5
 10
404.0971659345164
 20
402.210872772541
 30
0.0
 11
420.4079255297711
 21
354.7638518238199
 31
0.0
 70
    34
  3
STANDARD
100
AcDb2LineAngularDimension
 13
408.4149599354548
 23
393.4662785471694
 33
0.0
 14
447.4255599354547
 24
377.7040785471694
 34
0.0
 15
404.0970599354546
 25
266.9208785471693
 35
0.0
 16
438.6699470081526
 26
361.0371294783057
 36
0.0
1001
ACAD
1000
DSTYLE
1002
{
1070
   271
1070
     0
1070
   271
1070
     0
1070
   140
1040
6.0
1070
    74
1070
     0
1070
   172
1070
     1
1070
    73
1070
     0
1070
   272
1070
     2
1070
    77
1070
     3
1070
   173
1070
     1
1070
   280
1070
     2
1070
   147
1040
2.0
1070
    42
1040
6.0
1070
    44
1040
3.0
1070
    43
1040
14.0
1070
   271
1070
     0
1070
   178
1070
     4
1070
   177
1070
     4
1070
   176
1070
     4
1070
   141
1040
150.0
1070
     7
1000
_OPEN
1070
     6
1000
_OPEN
1070
    41
1040
7.0
1002
}
  0
LINE
  5
34F
330
1A
100
AcDbEntity
  8
CENTER_L
  6
CONTINUOUS
 62
     1
 48
16.0
100
AcDbLine
 10
404.0971599354548
 20
390.5540785471694
 30
0.0
 11
404.0971599354548
 21
348.4793785471695
 31
0.0
  0
LINE
  5
350
330
1A
100
AcDbEntity
  8
SEIHIN
  6
CONTINUOUS
 62
     3
 48
16.0
100
AcDbLine
 10
475.5668599354548
 20
360.9424785471695
 30
0.0
 11
466.2016599354548
 21
337.7627785471695
 31
0.0
  0
LINE
  5
351
330
1A
100
AcDbEntity
  8
SEIHIN
  6
CONTINUOUS
 62
     3
 48
16.0
100
AcDbLine
 10
477.4211599354548
 20
360.1932785471694
 30
0.0
 11
468.0559599354547
 21
337.0135785471695
 31
0.0
  0
LINE
  5
352
330
1A
100
AcDbEntity
  8
SEIHIN
  6
CONTINUOUS
 62
     3
 48
16.0
100
AcDbLine
 10
479.2755599354547
 20
359.4438785471695
 30
0.0
 11
481.1486599354548
 21
364.0797785471694
 31
0.0
  0
LINE
  5
353
330
1A
100
AcDbEntity
  8
SEIHIN
  6
CONTINUOUS
 62
     3
 48
16.0
100
AcDbLine
 10
479.2755599354547
 20
359.4439785471694
 30
0.0
 11
475.5668599354548
 21
360.9424785471695
 31
0.0
  0
LINE
  5
354
330
1A
100
AcDbEntity
  8
SEIHIN
  6
CONTINUOUS
 62
     3
 48
16.0
100
AcDbLine
 10
463.2470599354547
 20
277.1080785471695
 30
0.0
 11
404.0970599354547
 21
277.1081785471695
 31
0.0
  0
LINE
  5
355
330
1A
100
AcDbEntity
  8
SEIHIN
  6
CONTINUOUS
 62
     3
 48
16.0
100
AcDbLine
 10
458.9920599354548
 20
319.9184785471695
 30
0.0
 11
462.5360599354547
 21
323.3513785471695
 31
0.0
  0
LINE
  5
356
330
1A
100
AcDbEntity
  8
SEIHIN
  6
CONTINUOUS
 62
     3
 48
16.0
100
AcDbLine
 10
463.9539599354548
 20
332.1996785471695
 30
0.0
 11
458.9920599354548
 21
319.9184785471695
 31
0.0
  0
LINE
  5
357
330
1A
100
AcDbEntity
  8
SEIHIN
  6
CONTINUOUS
 62
     3
 48
16.0
100
AcDbLine
 10
460.1504599354548
 20
312.1080785471694
 30
0.0
 11
448.8322599354547
 21
312.1080785471694
 31
0.0
  0
LINE
  5
358
330
1A
100
AcDbEntity
  8
SEIHIN
  6
CONTINUOUS
 62
     3
 48
16.0
100
AcDbLine
 10
399.0971599354547
 20
312.1081785471695
 30
0.0
 11
399.0971599354547
 21
316.1081785471695
 31
0.0
  0
LINE
  5
359
330
1A
100
AcDbEntity
  8
SEIHIN
  6
CONTINUOUS
 62
     3
 48
16.0
100
AcDbLine
 10
409.0970599354547
 20
312.1081785471695
 30
0.0
 11
409.0970599354547
 21
316.1081785471695
 31
0.0
  0
LINE
  5
35A
330
1A
100
AcDbEntity
  8
SEIHIN
  6
CONTINUOUS
 62
     3
 48
16.0
100
AcDbLine
 10
434.0970599354547
 20
312.1080785471694
 30
0.0
 11
434.0970599354547
 21
316.1086785471695
 31
0.0
  0
LINE
  5
35B
330
1A
100
AcDbEntity
  8
SEIHIN
  6
CONTINUOUS
 62
     3
 48
16.0
100
AcDbLine
 10
440.0970599354548
 20
312.1080785471694
 30
0.0
 11
440.0970599354548
 21
316.1080785471694
 31
0.0
  0
LINE
  5
35C
330
1A
100
AcDbEntity
  8
SEIHIN
  6
CONTINUOUS
 62
     3
 48
16.0
100
AcDbLine
 10
448.8322599354547
 20
312.1071785471694
 30
0.0
 11
448.8322599354547
 21
314.1080785471694
 31
0.0
  0
LINE
  5
35D
330
1A
100
AcDbEntity
  8
SEIHIN
  6
CONTINUOUS
 62
     3
 48
16.0
100
AcDbLine
 10
411.4996599354547
 20
302.1081785471695
 30
0.0
 11
431.6946599354548
 21
302.1080785471695
 31
0.0
  0
ARC
  5
35E
330
1A
100
AcDbEntity
  8
SEIHIN
  6
CONTINUOUS
 62
     3
 48
16.0
100
AcDbCircle
 10
411.4996618231786
 20
304.1081769160596
 30
0.0
 40
1.999998368891029
100
AcDbArc
 50
182.8630711601821
 51
269.9999459206547
  0
LINE
  5
35F
330
1A
100
AcDbEntity
  8
SEIHIN
  6
CONTINUOUS
 62
     3
 48
16.0
100
AcDbLine
 10
399.0970599354548
 20
312.1081785471695
 30
0.0
 11
404.0970599354547
 21
312.1081785471695
 31
0.0
  0
ARC
  5
360
330
1A
100
AcDbEntity
  8
SEIHIN
  6
CONTINUOUS
 62
     3
 48
16.0
100
AcDbCircle
 10
396.6945580477311
 20
304.1081769160596
 30
0.0
 40
1.999998368891023
100
AcDbArc
 50
270.0000540793453
 51
357.1369288398178
  0
LINE
  5
361
330
1A
100
AcDbEntity
  8
SEIHIN
  6
CONTINUOUS
 62
     3
 48
16.0
100
AcDbLine
 10
399.0971599354547
 20
312.1081785471695
 30
0.0
 11
398.6920599354548
 21
304.0082785471694
 31
0.0
  0
LINE
  5
362
330
1A
100
AcDbEntity
  8
SEIHIN
  6
CONTINUOUS
 62
     3
 48
16.0
100
AcDbLine
 10
409.0971599354547
 20
312.1081785471695
 30
0.0
 11
404.0971599354548
 21
312.1081785471695
 31
0.0
  0
LINE
  5
363
330
1A
100
AcDbEntity
  8
SEIHIN
  6
CONTINUOUS
 62
     3
 48
16.0
100
AcDbLine
 10
409.0970599354547
 20
312.1081785471695
 30
0.0
 11
409.5021599354549
 21
304.0082785471694
 31
0.0
  0
LINE
  5
364
330
1A
100
AcDbEntity
  8
SEIHIN
  6
CONTINUOUS
 62
     3
 48
16.0
100
AcDbLine
 10
452.3876599354548
 20
277.1080785471695
 30
0.0
 11
452.3876599354548
 21
302.1089785471695
 31
0.0
  0
LINE
  5
365
330
1A
100
AcDbEntity
  8
SEIHIN
  6
CONTINUOUS
 62
     3
 48
16.0
100
AcDbLine
 10
442.4996599354548
 20
302.1080785471695
 30
0.0
 11
452.3877599354547
 21
302.1080785471695
 31
0.0
  0
LINE
  5
366
330
1A
100
AcDbEntity
  8
SEIHIN
  6
CONTINUOUS
 62
     3
 48
16.0
100
AcDbLine
 10
440.0971599354547
 20
312.1080785471694
 30
0.0
 11
434.0971599354547
 21
312.1080785471694
 31
0.0
  0
ARC
  5
367
330
1A
100
AcDbEntity
  8
SEIHIN
  6
CONTINUOUS
 62
     3
 48
16.0
100
AcDbCircle
 10
431.6946572222156
 20
304.1080725292216
 30
0.0
 40
1.999993982053901
100
AcDbArc
 50
270.0000777288117
 51
357.139916759883
  0
LINE
  5
368
330
1A
100
AcDbEntity
  8
SEIHIN
  6
CONTINUOUS
 62
     3
 48
16.0
100
AcDbLine
 10
434.0970599354547
 20
312.1080785471694
 30
0.0
 11
433.6921599354548
 21
304.0082785471694
 31
0.0
  0
ARC
  5
369
330
1A
100
AcDbEntity
  8
SEIHIN
  6
CONTINUOUS
 62
     3
 48
16.0
100
AcDbCircle
 10
442.4996618231785
 20
304.1080769160596
 30
0.0
 40
1.999998368891056
100
AcDbArc
 50
182.8630711601812
 51
269.9999459206538
  0
LINE
  5
36A
330
1A
100
AcDbEntity
  8
SEIHIN
  6
CONTINUOUS
 62
     3
 48
16.0
100
AcDbLine
 10
440.0970599354548
 20
312.1080785471694
 30
0.0
 11
440.5020599354547
 21
304.0082785471694
 31
0.0
  0
LINE
  5
36B
330
1A
100
AcDbEntity
  8
SEIHIN
  6
CONTINUOUS
 62
     3
 48
16.0
100
AcDbLine
 10
409.0970599354547
 20
316.1081785471695
 30
0.0
 11
434.0971599354547
 21
316.1080785471694
 31
0.0
  0
LINE
  5
36C
330
1A
100
AcDbEntity
  8
SEIHIN
  6
CONTINUOUS
 62
     3
 48
16.0
100
AcDbLine
 10
409.0970599354547
 20
314.1081785471695
 30
0.0
 11
434.0971599354547
 21
314.1080785471694
 31
0.0
  0
LINE
  5
36D
330
1A
100
AcDbEntity
  8
SEIHIN
  6
CONTINUOUS
 62
     3
 48
16.0
100
AcDbLine
 10
440.0971599354547
 20
314.1080785471694
 30
0.0
 11
448.8321599354548
 21
314.1080785471694
 31
0.0
  0
LINE
  5
36E
330
1A
100
AcDbEntity
  8
SEIHIN
  6
CONTINUOUS
 62
     3
 48
16.0
100
AcDbLine
 10
440.0971599354547
 20
316.1080785471694
 30
0.0
 11
453.3427599354548
 21
316.1080785471694
 31
0.0
  0
LINE
  5
36F
330
1A
100
AcDbEntity
  8
SEIHIN
  6
CONTINUOUS
 62
     3
 48
16.0
100
AcDbLine
 10
453.3427599354548
 20
316.1080785471694
 30
0.0
 11
448.8321599354548
 21
314.1080785471694
 31
0.0
  0
ARC
  5
370
330
1A
100
AcDbEntity
  8
SEIHIN
  6
CONTINUOUS
 62
     3
 48
16.0
100
AcDbCircle
 10
-65.64474859669712
 20
-989.3860558325384
 30
0.0
 40
1410.504031120669
100
AcDbArc
 50
68.16405617849866
 51
68.40974038693869
  0
ARC
  5
371
330
1A
100
AcDbEntity
  8
SEIHIN
  6
CONTINUOUS
 62
     3
 48
16.0
100
AcDbCircle
 10
1862.885794046573
 20
312.1430882256039
 30
0.0
 40
1409.548310502591
100
AcDbArc
 50
179.5929202410536
 51
179.838833632348
  0
LINE
  5
372
330
1A
100
AcDbEntity
  8
SEIHIN
  6
CONTINUOUS
 62
     3
 48
16.0
100
AcDbLine
 10
460.1505599354547
 20
312.1079785471695
 30
0.0
 11
464.3904599354548
 21
322.6021785471695
 31
0.0
  0
LINE
  5
373
330
1A
100
AcDbEntity
  8
SEIHIN
  6
CONTINUOUS
 62
     3
 48
16.0
100
AcDbLine
 10
491.4419599354547
 20
296.1256785471695
 30
0.0
 11
513.5999599354546
 21
350.9685785471694
 31
0.0
  0
LINE
  5
374
330
1A
100
AcDbEntity
  8
SEIHIN
  6
CONTINUOUS
 62
     3
 48
16.0
100
AcDbLine
 10
495.5099599354547
 20
306.1942785471695
 30
0.0
 11
472.3295599354547
 21
315.5597785471695
 31
0.0
  0
LINE
  5
375
330
1A
100
AcDbEntity
  8
SEIHIN
  6
CONTINUOUS
 62
     3
 48
16.0
100
AcDbLine
 10
463.2470599354547
 20
277.1080785471695
 30
0.0
 11
463.2470599354547
 21
301.5869785471695
 31
0.0
  0
LINE
  5
376
330
1A
100
AcDbEntity
  8
SEIHIN
  6
CONTINUOUS
 62
     3
 48
16.0
100
AcDbLine
 10
491.4419599354547
 20
296.1256785471695
 30
0.0
 11
468.7454599354548
 21
305.2956785471695
 31
0.0
  0
ARC
  5
377
330
1A
100
AcDbEntity
  8
SEIHIN
  6
CONTINUOUS
 62
     3
 48
16.0
100
AcDbCircle
 10
467.2470366195397
 20
301.5869670405034
 30
0.0
 40
3.99997668410145
100
AcDbArc
 50
67.99991230330878
 51
179.9998351781891
  0
LINE
  5
378
330
1A
100
AcDbEntity
  8
SEIHIN
  6
CONTINUOUS
 62
     3
 48
16.0
100
AcDbLine
 10
487.6473599354548
 20
353.4701785471694
 30
0.0
 11
480.0822599354547
 21
334.7457785471695
 31
0.0
  0
LINE
  5
379
330
1A
100
AcDbEntity
  8
SEIHIN
  6
CONTINUOUS
 62
     3
 48
16.0
100
AcDbLine
 10
469.9103599354548
 20
336.2643785471695
 30
0.0
 11
466.2011599354548
 21
337.7629785471695
 31
0.0
  0
ARC
  5
37A
330
1A
100
AcDbEntity
  8
SEIHIN
  6
CONTINUOUS
 62
     3
 48
16.0
100
AcDbCircle
 10
474.1801859272116
 20
325.4767178594068
 30
0.0
 40
2.00001562730152
100
AcDbArc
 50
337.9993736655891
 51
65.13802699209827
  0
LINE
  5
37B
330
1A
100
AcDbEntity
  8
SEIHIN
  6
CONTINUOUS
 62
     3
 48
16.0
100
AcDbLine
 10
476.0345599354548
 20
324.7275785471695
 30
0.0
 11
472.3303599354547
 21
315.5594785471695
 31
0.0
  0
LINE
  5
37C
330
1A
100
AcDbEntity
  8
SEIHIN
  6
CONTINUOUS
 62
     3
 48
16.0
100
AcDbLine
 10
469.9104599354548
 20
336.2643785471695
 30
0.0
 11
477.5721599354548
 21
333.6054785471695
 31
0.0
  0
LINE
  5
37D
330
1A
100
AcDbEntity
  8
SEIHIN
  6
CONTINUOUS
 62
     3
 48
16.0
100
AcDbLine
 10
465.8083599354548
 20
331.4504785471695
 30
0.0
 11
462.5361599354548
 21
323.3514785471695
 31
0.0
  0
LINE
  5
37E
330
1A
100
AcDbEntity
  8
SEIHIN
  6
CONTINUOUS
 62
     3
 48
16.0
100
AcDbLine
 10
464.3912599354548
 20
322.6018785471695
 30
0.0
 11
462.5361599354548
 21
323.3513785471695
 31
0.0
  0
LINE
  5
37F
330
1A
100
AcDbEntity
  8
SEIHIN
  6
CONTINUOUS
 62
     3
 48
16.0
100
AcDbLine
 10
467.6627599354548
 20
330.7012785471695
 30
0.0
 11
463.9539599354548
 21
332.1996785471695
 31
0.0
  0
LINE
  5
380
330
1A
100
AcDbEntity
  8
SEIHIN
  6
CONTINUOUS
 62
     3
 48
16.0
100
AcDbLine
 10
467.6627599354548
 20
330.7012785471695
 30
0.0
 11
475.0210599354548
 21
327.2914785471694
 31
0.0
  0
LINE
  5
381
330
1A
100
AcDbEntity
  8
SEIHIN
  6
CONTINUOUS
 62
     3
 48
16.0
100
AcDbLine
 10
467.6627599354548
 20
330.7011785471694
 30
0.0
 11
469.9103599354548
 21
336.2643785471695
 31
0.0
  0
ARC
  5
382
330
1A
100
AcDbEntity
  8
SEIHIN
  6
CONTINUOUS
 62
     3
 48
16.0
100
AcDbCircle
 10
478.2278512800472
 20
335.4949744745034
 30
0.0
 40
2.000031499448092
100
AcDbArc
 50
250.8622445263861
 51
338.0008978528954
  0
LINE
  5
383
330
1A
100
AcDbEntity
  8
SEIHIN
  6
CONTINUOUS
 62
     3
 48
16.0
100
AcDbLine
 10
479.2755599354547
 20
359.4439785471694
 30
0.0
 11
486.6338599354548
 21
356.0340785471694
 31
0.0
  0
ARC
  5
384
330
1A
100
AcDbEntity
  8
SEIHIN
  6
CONTINUOUS
 62
     3
 48
16.0
100
AcDbCircle
 10
485.7929733351254
 20
354.2194421034399
 30
0.0
 40
1.999998924380973
100
AcDbArc
 50
338.0015210153124
 51
65.13740767877495
  0
LINE
  5
385
330
1A
100
AcDbEntity
  8
SEIHIN
  6
CONTINUOUS
 62
     3
 48
16.0
100
AcDbLine
 10
473.0282599354548
 20
416.0566785471695
 30
0.0
 11
454.4846599354548
 21
423.5487785471694
 31
0.0
  0
LINE
  5
386
330
1A
100
AcDbEntity
  8
SEIHIN
  6
CONTINUOUS
 62
     3
 48
16.0
100
AcDbLine
 10
472.2790599354548
 20
414.2022785471694
 30
0.0
 11
453.7354599354548
 21
421.6944785471694
 31
0.0
  0
ARC
  5
387
330
1A
100
AcDbEntity
  8
SEIHIN
  6
CONTINUOUS
 62
     3
 48
16.0
100
AcDbCircle
 10
1027.761814635509
 20
1716.991680541457
 30
0.0
 40
1409.922627309214
100
AcDbArc
 50
246.1709003044547
 51
246.8213202472774
  0
LINE
  5
388
330
1A
100
AcDbEntity
  8
SEIHIN
  6
CONTINUOUS
 62
     3
 48
16.0
100
AcDbLine
 10
459.5231599354548
 20
430.6805785471694
 30
0.0
 11
457.6689599354548
 21
431.4297785471695
 31
0.0
  0
LINE
  5
389
330
1A
100
AcDbEntity
  8
SEIHIN
  6
CONTINUOUS
 62
     3
 48
16.0
100
AcDbLine
 10
456.3390599354547
 20
422.7995785471694
 30
0.0
 11
459.5231599354548
 21
430.6805785471694
 31
0.0
  0
LINE
  5
38A
330
1A
100
AcDbEntity
  8
CENTER_L
  6
CONTINUOUS
 62
     1
 48
3.0
100
AcDbLine
 10
408.4149599354548
 20
393.4662785471694
 30
0.0
 11
447.4255599354547
 21
377.7040785471694
 31
0.0
  0
LINE
  5
38B
330
1A
100
AcDbEntity
  8
SEIHIN
  6
CONTINUOUS
 62
     3
 48
16.0
100
AcDbLine
 10
453.7354599354548
 20
421.6944785471694
 30
0.0
 11
457.6687599354547
 21
431.4298785471694
 31
0.0
  0
LINE
  5
38C
330
1A
100
AcDbEntity
  8
SEIHIN
  6
CONTINUOUS
 62
     3
 48
16.0
100
AcDbLine
 10
457.0882599354548
 20
424.6538785471694
 30
0.0
 11
455.2339599354548
 21
425.4031785471695
 31
0.0
  0
LINE
  5
38D
330
1A
100
AcDbEntity
  8
SEIHIN
  6
CONTINUOUS
 62
     3
 48
16.0
100
AcDbLine
 10
492.7801599354546
 20
398.2076785471694
 30
0.0
 11
496.0523599354547
 21
406.3065785471695
 31
0.0
  0
LINE
  5
38E
330
1A
100
AcDbEntity
  8
SEIHIN
  6
CONTINUOUS
 62
     3
 48
16.0
100
AcDbLine
 10
490.9258599354546
 20
398.9568785471694
 30
0.0
 11
495.8877599354547
 21
411.2380785471694
 31
0.0
  0
LINE
  5
38F
330
1A
100
AcDbEntity
  8
SEIHIN
  6
CONTINUOUS
 62
     3
 48
16.0
100
AcDbLine
 10
503.3067599354548
 20
418.9226785471694
 30
0.0
 11
497.9067599354547
 21
405.5573785471694
 31
0.0
  0
LINE
  5
390
330
1A
100
AcDbEntity
  8
SEIHIN
  6
CONTINUOUS
 62
     3
 48
16.0
100
AcDbLine
 10
497.9075599354547
 20
405.5571785471695
 30
0.0
 11
496.0524599354547
 21
406.3066785471694
 31
0.0
  0
ARC
  5
391
330
1A
100
AcDbEntity
  8
SEIHIN
  6
CONTINUOUS
 62
     3
 48
16.0
100
AcDbCircle
 10
491.3391145168378
 20
367.9464584811531
 30
0.0
 40
2.000004337749211
100
AcDbArc
 50
250.8630892978779
 51
337.9979878609259
  0
LINE
  5
392
330
1A
100
AcDbEntity
  8
SEIHIN
  6
CONTINUOUS
 62
     3
 48
16.0
100
AcDbLine
 10
492.3868599354547
 20
391.8952785471694
 30
0.0
 11
488.6776599354546
 21
393.3939785471695
 31
0.0
  0
LINE
  5
393
330
1A
100
AcDbEntity
  8
SEIHIN
  6
CONTINUOUS
 62
     3
 48
16.0
100
AcDbLine
 10
494.6345599354546
 20
397.4583785471695
 30
0.0
 11
490.9258599354546
 21
398.9568785471694
 31
0.0
  0
LINE
  5
394
330
1A
100
AcDbEntity
  8
SEIHIN
  6
CONTINUOUS
 62
     3
 48
16.0
100
AcDbLine
 10
481.1672599354547
 20
369.4649785471694
 30
0.0
 11
490.5325599354547
 21
392.6444785471695
 31
0.0
  0
LINE
  5
395
330
1A
100
AcDbEntity
  8
SEIHIN
  6
CONTINUOUS
 62
     3
 48
16.0
100
AcDbLine
 10
479.3129599354548
 20
370.2140785471694
 30
0.0
 11
488.6781599354548
 21
393.3937785471694
 31
0.0
  0
LINE
  5
396
330
1A
100
AcDbEntity
  8
SEIHIN
  6
CONTINUOUS
 62
     3
 48
16.0
100
AcDbLine
 10
483.0216599354549
 20
368.7156785471695
 30
0.0
 11
490.6835599354548
 21
366.0569785471694
 31
0.0
  0
LINE
  5
397
330
1A
100
AcDbEntity
  8
SEIHIN
  6
CONTINUOUS
 62
     3
 48
16.0
100
AcDbLine
 10
483.0216599354549
 20
368.7157785471694
 30
0.0
 11
481.1486599354548
 21
364.0797785471694
 31
0.0
  0
LINE
  5
398
330
1A
100
AcDbEntity
  8
SEIHIN
  6
CONTINUOUS
 62
     3
 48
16.0
100
AcDbLine
 10
483.0216599354549
 20
368.7156785471695
 30
0.0
 11
479.3129599354548
 21
370.2140785471694
 31
0.0
  0
LINE
  5
399
330
1A
100
AcDbEntity
  8
SEIHIN
  6
CONTINUOUS
 62
     3
 48
16.0
100
AcDbLine
 10
493.1934599354546
 20
367.1971785471694
 30
0.0
 11
500.7587599354548
 21
385.9216785471695
 31
0.0
  0
LINE
  5
39A
330
1A
100
AcDbEntity
  8
SEIHIN
  6
CONTINUOUS
 62
     3
 48
16.0
100
AcDbLine
 10
494.6345599354546
 20
397.4584785471694
 30
0.0
 11
492.3869599354547
 21
391.8952785471694
 31
0.0
  0
ARC
  5
39B
330
1A
100
AcDbEntity
  8
SEIHIN
  6
CONTINUOUS
 62
     3
 48
16.0
100
AcDbCircle
 10
502.9520145168379
 20
396.6891584811531
 30
0.0
 40
2.000004337749211
100
AcDbArc
 50
250.8630892978779
 51
337.9979878609259
  0
ARC
  5
39C
330
1A
100
AcDbEntity
  8
SEIHIN
  6
CONTINUOUS
 62
     3
 48
16.0
100
AcDbCircle
 10
498.9043733351253
 20
386.6708421034399
 30
0.0
 40
1.99999892438101
100
AcDbArc
 50
338.0015210153119
 51
65.13740767877455
  0
LINE
  5
39D
330
1A
100
AcDbEntity
  8
SEIHIN
  6
CONTINUOUS
 62
     3
 48
16.0
100
AcDbLine
 10
492.3869599354547
 20
391.8952785471694
 30
0.0
 11
499.7452599354548
 21
388.4855785471695
 31
0.0
  0
LINE
  5
39E
330
1A
100
AcDbEntity
  8
SEIHIN
  6
CONTINUOUS
 62
     3
 48
16.0
100
AcDbLine
 10
494.6345599354546
 20
397.4583785471695
 30
0.0
 11
502.2963599354547
 21
394.7995785471694
 31
0.0
  0
LINE
  5
39F
330
1A
100
AcDbEntity
  8
SEIHIN
  6
CONTINUOUS
 62
     3
 48
16.0
100
AcDbLine
 10
504.8063599354547
 20
395.9398785471694
 30
0.0
 11
508.5105599354547
 21
405.1079785471694
 31
0.0
  0
ARC
  5
3A0
330
1A
100
AcDbEntity
  8
SEIHIN
  6
CONTINUOUS
 62
     3
 48
16.0
100
AcDbCircle
 10
1027.710764224752
 20
1716.880776776228
 30
0.0
 40
1409.800572379628
100
AcDbArc
 50
246.9027167030663
 51
247.8375494569672
  0
LINE
  5
3A1
330
1A
100
AcDbEntity
  8
SEIHIN
  6
CONTINUOUS
 62
     3
 48
16.0
100
AcDbLine
 10
472.2790599354548
 20
414.2022785471694
 30
0.0
 11
476.2124599354548
 21
423.9376785471694
 31
0.0
  0
LINE
  5
3A2
330
1A
100
AcDbEntity
  8
SEIHIN
  6
CONTINUOUS
 62
     3
 48
16.0
100
AcDbLine
 10
476.2124599354548
 20
423.9376785471694
 30
0.0
 11
474.3581599354548
 21
424.6868785471694
 31
0.0
  0
LINE
  5
3A3
330
1A
100
AcDbEntity
  8
SEIHIN
  6
CONTINUOUS
 62
     3
 48
16.0
100
AcDbLine
 10
471.1739599354548
 20
416.8057785471694
 30
0.0
 11
474.3581599354548
 21
424.6868785471694
 31
0.0
  0
LINE
  5
3A4
330
1A
100
AcDbEntity
  8
SEIHIN
  6
CONTINUOUS
 62
     3
 48
16.0
100
AcDbLine
 10
473.7775599354548
 20
417.9109785471694
 30
0.0
 11
471.9231599354547
 21
418.6601785471694
 31
0.0
  0
LINE
  5
3A5
330
1A
100
AcDbEntity
  8
SEIHIN
  6
CONTINUOUS
 62
     3
 48
16.0
100
AcDbLine
 10
495.8877599354547
 20
411.2380785471694
 30
0.0
 11
496.0524599354547
 21
406.3066785471694
 31
0.0
  0
ARC
  5
420
330
1A
100
AcDbEntity
  8
SEIHIN
  6
CONTINUOUS
 62
     3
 48
16.0
100
AcDbCircle
 10
404.0971061513865
 20
157.3135858982375
 30
0.0
 40
51.59997749375238
100
AcDbArc
 50
193.7474262707935
 51
346.252564843248
  0
ARC
  5
421
330
1A
100
AcDbEntity
  8
SEIHIN
  6
CONTINUOUS
 62
     3
 48
16.0
100
AcDbCircle
 10
352.2836121223664
 20
144.8136084046895
 30
0.0
 40
1.0
100
AcDbArc
 50
13.56340395149333
 51
90.0
  0
ARC
  5
422
330
1A
100
AcDbEntity
  8
SEIHIN
  6
CONTINUOUS
 62
     3
 48
16.0
100
AcDbCircle
 10
353.0039735893282
 20
144.8136084046895
 30
0.0
 40
1.0
100
AcDbArc
 50
13.74742627079255
 51
90.0
  0
ARC
  5
423
330
1A
100
AcDbEntity
  8
SEIHIN
  6
CONTINUOUS
 62
     3
 48
16.0
100
AcDbCircle
 10
455.1902367748324
 20
144.813600480695
 30
0.0
 40
1.0
100
AcDbArc
 50
90.00032272039673
 51
166.2525648432473
  0
VIEWPORT
  5
22
330
17
100
AcDbEntity
 67
     1
  8
0
100
AcDbViewport
 10
313.6808219178082
 20
148.5
 30
0.0
 40
627.3616438356165
 41
297.0
 68
     2
 69
     1
1001
ACAD
1000
MVIEW
1002
{
1070
    16
1010
0.0
1020
0.0
1030
0.0
1010
0.0
1020
0.0
1030
1.0
1040
0.0
1040
297.0
1040
313.6808219178082
1040
148.5
1040
50.0
1040
0.0
1040
0.0
1070
     0
1070
   100
1070
     1
1070
     0
1070
     0
1070
     0
1070
     0
1070
     0
1040
0.0
1040
0.0
1040
0.0
1040
1.0
1040
1.0
1040
10.0
1040
10.0
1070
     0
1002
{
1002
}
1002
}
  0
VIEWPORT
  5
64
330
17
100
AcDbEntity
 67
     1
  8
VIEWPORT
100
AcDbViewport
 10
210.0
 20
148.5
 30
0.0
 40
420.0
 41
297.0
 68
     1
 69
     2
1001
ACAD
1000
MVIEW
1002
{
1070
    16
1010
0.0
1020
0.0
1030
0.0
1010
0.0
1020
0.0
1030
1.0
1040
0.0
1040
605.8799999999998
1040
420.0
1040
297.0
1040
50.0
1040
0.0
1040
0.0
1070
     0
1070
   100
1070
     1
1070
     0
1070
     0
1070
     0
1070
     0
1070
     0
1040
0.0
1040
0.0
1040
0.0
1040
10.0
1040
10.0
1040
0.0
1040
0.0
1070
     0
1002
{
1002
}
1002
}
  0
ENDSEC
  0
SECTION
  2
OBJECTS
  0
DICTIONARY
  5
C
330
0
100
AcDbDictionary
  3
ACAD_GROUP
350
D
  3
ACAD_LAYOUT
350
470
  3
ACAD_MLINESTYLE
350
E
  3
ACAD_PLOTSETTINGS
350
471
1001
ACAD
1000
TREAT_AS_HARD
1070
     0
  0
DICTIONARY
  5
49F
330
1A
100
AcDbDictionary
  3
ACAD_LAYOUTSELFREF
350
4B9
1001
ACAD
1000
TREAT_AS_HARD
1070
     1
  0
DICTIONARY
  5
49D
330
17
100
AcDbDictionary
  3
ACAD_LAYOUTSELFREF
350
4B8
1001
ACAD
1000
TREAT_AS_HARD
1070
     1
  0
DICTIONARY
  5
D
102
{ACAD_REACTORS
330
C
102
}
330
C
100
AcDbDictionary
1001
ACAD
1000
TREAT_AS_HARD
1070
     0
  0
DICTIONARY
  5
470
102
{ACAD_REACTORS
330
C
102
}
330
C
100
AcDbDictionary
1001
ACAD
1000
TREAT_AS_HARD
1070
     0
  0
DICTIONARY
  5
E
102
{ACAD_REACTORS
330
C
102
}
330
C
100
AcDbDictionary
  3
STANDARD
350
13
1001
ACAD
1000
TREAT_AS_HARD
1070
     0
  0
DICTIONARY
  5
471
102
{ACAD_REACTORS
330
C
102
}
330
C
100
AcDbDictionary
1001
ACAD
1000
TREAT_AS_HARD
1070
     0
  0
XRECORD
  5
4B9
102
{ACAD_REACTORS
330
49F
102
}
330
49F
100
AcDbXrecord
340
1A
  0
XRECORD
  5
4B8
102
{ACAD_REACTORS
330
49D
102
}
330
49D
100
AcDbXrecord
340
17
  0
MLINESTYLE
  5
13
102
{ACAD_REACTORS
330
E
102
}
330
E
100
AcDbMlineStyle
  2
STANDARD
 70
     0
  3

 62
     0
 51
90.0
 52
90.0
 71
     2
 49
0.5
 62
   256
  6
BYLAYER
 49
-0.5
 62
   256
  6
BYLAYER
  0
ENDSEC
  0
EOF
