  0
SECTION
  2
HEADER
  9
$ACADVER
  1
AC1012
  9
$DWGCODEPAGE
  3
dos932
  9
$INSBASE
 10
0.0
 20
0.0
 30
0.0
  9
$EXTMIN
 10
19.90074647074652
 20
5.798621502208327
 30
0.0
  9
$EXTMAX
 10
1611.900746470746
 20
1124.166900699545
 30
0.0
  9
$LIMMIN
 10
0.0
 20
0.0
  9
$LIMMAX
 10
1682.0
 20
1188.0
  9
$ORTHOMODE
 70
     0
  9
$REGENMODE
 70
     1
  9
$FILLMODE
 70
     1
  9
$QTEXTMODE
 70
     0
  9
$MIRRTEXT
 70
     1
  9
$DRAGMODE
 70
     2
  9
$LTSCALE
 40
5.657142857142857
  9
$OSMODE
 70
    37
  9
$ATTMODE
 70
     1
  9
$TEXTSIZE
 40
19.8
  9
$TRACEWID
 40
0.05
  9
$TEXTSTYLE
  7
STANDARD
  9
$CLAYER
  8
CENTR_L
  9
$CELTYPE
  6
BYLAYER
  9
$CECOLOR
 62
   256
  9
$CELTSCALE
 40
1.0
  9
$DELOBJ
 70
     1
  9
$DISPSILH
 70
     0
  9
$DIMSCALE
 40
1.0
  9
$DIMASZ
 40
14.0
  9
$DIMEXO
 40
12.0
  9
$DIMDLI
 40
28.0
  9
$DIMRND
 40
0.0
  9
$DIMDLE
 40
0.0
  9
$DIMEXE
 40
6.0
  9
$DIMTP
 40
0.0
  9
$DIMTM
 40
0.0
  9
$DIMTXT
 40
12.0
  9
$DIMCEN
 40
150.0
  9
$DIMTSZ
 40
0.0
  9
$DIMTOL
 70
     0
  9
$DIMLIM
 70
     0
  9
$DIMTIH
 70
     0
  9
$DIMTOH
 70
     0
  9
$DIMSE1
 70
     0
  9
$DIMSE2
 70
     0
  9
$DIMTAD
 70
     3
  9
$DIMZIN
 70
     0
  9
$DIMBLK
  1

  9
$DIMASO
 70
     1
  9
$DIMSHO
 70
     1
  9
$DIMPOST
  1

  9
$DIMAPOST
  1

  9
$DIMALT
 70
     0
  9
$DIMALTD
 70
     2
  9
$DIMALTF
 40
0.03937
  9
$DIMLFAC
 40
1.0
  9
$DIMTOFL
 70
     1
  9
$DIMTVP
 40
0.0
  9
$DIMTIX
 70
     0
  9
$DIMSOXD
 70
     0
  9
$DIMSAH
 70
     1
  9
$DIMBLK1
  1
OPEN
  9
$DIMBLK2
  1
OPEN
  9
$DIMSTYLE
  2
STANDARD
  9
$DIMCLRD
 70
   256
  9
$DIMCLRE
 70
   256
  9
$DIMCLRT
 70
   256
  9
$DIMTFAC
 40
1.0
  9
$DIMGAP
 40
4.0
  9
$DIMJUST
 70
     0
  9
$DIMSD1
 70
     0
  9
$DIMSD2
 70
     0
  9
$DIMTOLJ
 70
     1
  9
$DIMTZIN
 70
     0
  9
$DIMALTZ
 70
     0
  9
$DIMALTTZ
 70
     0
  9
$DIMFIT
 70
     3
  9
$DIMUPT
 70
     0
  9
$DIMUNIT
 70
     2
  9
$DIMDEC
 70
     0
  9
$DIMTDEC
 70
     0
  9
$DIMALTU
 70
     2
  9
$DIMALTTD
 70
     2
  9
$DIMTXSTY
  7
STANDARD
  9
$DIMAUNIT
 70
     0
  9
$LUNITS
 70
     2
  9
$LUPREC
 70
     4
  9
$SKETCHINC
 40
0.1
  9
$FILLETRAD
 40
56.57142857142858
  9
$AUNITS
 70
     0
  9
$AUPREC
 70
     0
  9
$MENU
  1
acad
  9
$ELEVATION
 40
0.0
  9
$PELEVATION
 40
0.0
  9
$THICKNESS
 40
0.0
  9
$LIMCHECK
 70
     0
  9
$BLIPMODE
 70
     0
  9
$CHAMFERA
 40
56.57142857142858
  9
$CHAMFERB
 40
56.57142857142858
  9
$CHAMFERC
 40
113.1428571428571
  9
$CHAMFERD
 40
0.0
  9
$SKPOLY
 70
     0
  9
$TDCREATE
 40
2450994.355304167
  9
$TDUPDATE
 40
2452393.712290914
  9
$TDINDWG
 40
0.0156206944
  9
$TDUSRTIMER
 40
0.0156206944
  9
$USRTIMER
 70
     1
  9
$ANGBASE
 50
0.0
  9
$ANGDIR
 70
     0
  9
$PDMODE
 70
     1
  9
$PDSIZE
 40
0.0
  9
$PLINEWID
 40
0.0
  9
$COORDS
 70
     1
  9
$SPLFRAME
 70
     0
  9
$SPLINETYPE
 70
     6
  9
$SPLINESEGS
 70
     8
  9
$ATTDIA
 70
     0
  9
$ATTREQ
 70
     1
  9
$HANDLING
 70
 10241
  9
$HANDSEED
  5
5F4
  9
$SURFTAB1
 70
     6
  9
$SURFTAB2
 70
     6
  9
$SURFTYPE
 70
     6
  9
$SURFU
 70
     6
  9
$SURFV
 70
     6
  9
$UCSNAME
  2

  9
$UCSORG
 10
0.0
 20
0.0
 30
0.0
  9
$UCSXDIR
 10
1.0
 20
0.0
 30
0.0
  9
$UCSYDIR
 10
0.0
 20
1.0
 30
0.0
  9
$PUCSNAME
  2

  9
$PUCSORG
 10
0.0
 20
0.0
 30
0.0
  9
$PUCSXDIR
 10
1.0
 20
0.0
 30
0.0
  9
$PUCSYDIR
 10
0.0
 20
1.0
 30
0.0
  9
$USERI1
 70
     0
  9
$USERI2
 70
     0
  9
$USERI3
 70
     0
  9
$USERI4
 70
     0
  9
$USERI5
 70
     0
  9
$USERR1
 40
0.0
  9
$USERR2
 40
0.0
  9
$USERR3
 40
0.0
  9
$USERR4
 40
0.0
  9
$USERR5
 40
0.0
  9
$WORLDVIEW
 70
     1
  9
$SHADEDGE
 70
     3
  9
$SHADEDIF
 70
    70
  9
$TILEMODE
 70
     1
  9
$MAXACTVP
 70
    16
  9
$PINSBASE
 10
0.0
 20
0.0
 30
0.0
  9
$PLIMCHECK
 70
     0
  9
$PEXTMIN
 10
0.0
 20
0.0
 30
0.0
  9
$PEXTMAX
 10
420.0
 20
297.0
 30
0.0
  9
$PLIMMIN
 10
0.0
 20
0.0
  9
$PLIMMAX
 10
420.0
 20
297.0
  9
$UNITMODE
 70
     0
  9
$VISRETAIN
 70
     0
  9
$PLINEGEN
 70
     0
  9
$PSLTSCALE
 70
     1
  9
$TREEDEPTH
 70
  3020
  9
$PICKSTYLE
 70
     1
  9
$CMLSTYLE
  2
STANDARD
  9
$CMLJUST
 70
     0
  9
$CMLSCALE
 40
20.0
  9
$SAVEIMAGES
 70
     1
  0
ENDSEC
  0
SECTION
  2
CLASSES
  0
CLASS
  1
ACDBDICTIONARYWDFLT
  2
AcDbDictionaryWithDefault
  3
AutoCAD 2000
 90
    32768
280
     0
281
     0
  0
CLASS
  1
ACDBPLACEHOLDER
  2
AcDbPlaceHolder
  3
AutoCAD 2000
 90
    32768
280
     0
281
     0
  0
CLASS
  1
LAYOUT
  2
AcDbLayout
  3
AutoCAD 2000
 90
    32768
280
     0
281
     0
  0
CLASS
  1
LONG_TRANSACTION
  2
AcDbLongTransaction
  3
AutoCAD 2000
 90
    32768
280
     0
281
     0
  0
CLASS
  1
LWPOLYLINE
  2
AcDbPolyline
  3
AutoCAD 2000
 90
    32768
280
     0
281
     1
  0
CLASS
  1
HATCH
  2
AcDbHatch
  3
AutoCAD 2000
 90
    32768
280
     0
281
     1
  0
CLASS
  1
XRECORD
  2
AcDbXrecord
  3
AutoCAD 2000
 90
    32768
280
     0
281
     0
  0
CLASS
  1
LONG_TRANSACTION
  2
AcDbLongTransaction
  3
AutoCAD 2000
 90
    32768
280
     0
281
     0
  0
CLASS
  1
LWPOLYLINE
  2
AcDbPolyline
  3
AutoCAD 2000
 90
    32768
280
     0
281
     1
  0
CLASS
  1
HATCH
  2
AcDbHatch
  3
AutoCAD 2000
 90
    32768
280
     0
281
     1
  0
CLASS
  1
XRECORD
  2
AcDbXrecord
  3
AutoCAD 2000
 90
    32768
280
     0
281
     0
  0
CLASS
  1
LONG_TRANSACTION
  2
AcDbLongTransaction
  3
AutoCAD 2000
 90
    32768
280
     0
281
     0
  0
CLASS
  1
LWPOLYLINE
  2
AcDbPolyline
  3
AutoCAD 2000
 90
    32768
280
     0
281
     1
  0
CLASS
  1
HATCH
  2
AcDbHatch
  3
AutoCAD 2000
 90
    32768
280
     0
281
     1
  0
CLASS
  1
XRECORD
  2
AcDbXrecord
  3
AutoCAD 2000
 90
    32768
280
     0
281
     0
  0
ENDSEC
  0
SECTION
  2
TABLES
  0
TABLE
  2
VPORT
  5
8
330
0
100
AcDbSymbolTable
 70
     2
  0
VPORT
  5
5F1
330
8
100
AcDbSymbolTableRecord
100
AcDbViewportTableRecord
  2
*ACTIVE
 70
     0
 10
0.0
 20
0.0
 11
1.0
 21
1.0
 12
1063.574621697902
 22
553.9006818200321
 13
0.0
 23
0.0
 14
10.0
 24
10.0
 15
10.0
 25
10.0
 16
0.0
 26
0.0
 36
1.0
 17
0.0
 27
0.0
 37
0.0
 40
1207.034515776371
 41
2.169459962756052
 42
50.0
 43
0.0
 44
0.0
 50
0.0
 51
0.0
 71
     0
 72
   100
 73
     1
 74
     0
 75
     0
 76
     0
 77
     0
 78
     0
  0
ENDTAB
  0
TABLE
  2
LTYPE
  5
5
330
0
100
AcDbSymbolTable
 70
     2
  0
LTYPE
  5
13
330
5
100
AcDbSymbolTableRecord
100
AcDbLinetypeTableRecord
  2
BYBLOCK
 70
     0
  3

 72
    65
 73
     0
 40
0.0
  0
LTYPE
  5
14
330
5
100
AcDbSymbolTableRecord
100
AcDbLinetypeTableRecord
  2
BYLAYER
 70
     0
  3

 72
    65
 73
     0
 40
0.0
  0
LTYPE
  5
15
330
5
100
AcDbSymbolTableRecord
100
AcDbLinetypeTableRecord
  2
CONTINUOUS
 70
     0
  3
Solid line
 72
    65
 73
     0
 40
0.0
  0
LTYPE
  5
11C
330
5
100
AcDbSymbolTableRecord
100
AcDbLinetypeTableRecord
  2
CENTER
 70
     0
  3
____ _ ____ _ ____ _ ____ _ ____ _ ____ _ ____ 
 72
    65
 73
     4
 40
2.0
 49
1.25
 74
     0
 49
-0.25
 74
     0
 49
0.25
 74
     0
 49
-0.25
 74
     0
  0
ENDTAB
  0
TABLE
  2
LAYER
  5
2
330
0
100
AcDbSymbolTable
 70
     7
  0
LAYER
  5
F
330
2
100
AcDbSymbolTableRecord
100
AcDbLayerTableRecord
  2
0
 70
     0
 62
     7
  6
CONTINUOUS
  0
LAYER
  5
23
330
2
100
AcDbSymbolTableRecord
100
AcDbLayerTableRecord
  2
VIEWPORT
 70
     0
 62
     7
  6
CONTINUOUS
  0
LAYER
  5
2D
330
2
100
AcDbSymbolTableRecord
100
AcDbLayerTableRecord
  2
ZUWAKU
 70
     0
 62
     7
  6
CONTINUOUS
  0
LAYER
  5
A6
330
2
100
AcDbSymbolTableRecord
100
AcDbLayerTableRecord
  2
DEFPOINTS
 70
     0
 62
     7
  6
CONTINUOUS
  0
LAYER
  5
157
330
2
100
AcDbSymbolTableRecord
100
AcDbLayerTableRecord
  2
SEIHIN
 70
     0
 62
     3
  6
CONTINUOUS
  0
LAYER
  5
158
330
2
100
AcDbSymbolTableRecord
100
AcDbLayerTableRecord
  2
SUNPOU
 70
     0
 62
     4
  6
CONTINUOUS
  0
LAYER
  5
159
330
2
100
AcDbSymbolTableRecord
100
AcDbLayerTableRecord
  2
CENTR_L
 70
     0
 62
     1
  6
CENTER
  0
ENDTAB
  0
TABLE
  2
STYLE
  5
3
330
0
100
AcDbSymbolTable
 70
     1
  0
STYLE
  5
10
330
3
100
AcDbSymbolTableRecord
100
AcDbTextStyleTableRecord
  2
STANDARD
 70
     0
 40
0.0
 41
1.0
 50
0.0
 71
     0
 42
19.8
  3
txt
  4
bigfont.shx
  0
ENDTAB
  0
TABLE
  2
VIEW
  5
6
330
0
100
AcDbSymbolTable
 70
     0
  0
ENDTAB
  0
TABLE
  2
UCS
  5
7
330
0
100
AcDbSymbolTable
 70
     0
  0
ENDTAB
  0
TABLE
  2
APPID
  5
9
330
0
100
AcDbSymbolTable
 70
     1
  0
APPID
  5
11
330
9
100
AcDbSymbolTableRecord
100
AcDbRegAppTableRecord
  2
ACAD
 70
     0
  0
ENDTAB
  0
TABLE
  2
DIMSTYLE
  5
A
330
0
100
AcDbSymbolTable
 70
     1
  0
DIMSTYLE
105
1D
102
{ACAD_REACTORS
330
3D2
330
3DF
330
3ED
330
3FA
330
407
330
414
330
421
330
42E
330
4E9
330
4F7
330
507
330
514
102
}
330
A
100
AcDbSymbolTableRecord
100
AcDbDimStyleTableRecord
  2
STANDARD
 70
     0
  3

  4

  5

  6

  7

 40
1.0
 41
0.18
 42
0.0625
 43
0.38
 44
0.18
 45
0.0
 46
0.0
 47
0.0
 48
0.0
140
0.18
141
0.09
142
0.0
143
25.4
144
1.0
145
0.0
146
1.0
147
0.09
 71
     0
 72
     0
 73
     1
 74
     1
 75
     0
 76
     0
 77
     0
 78
     0
170
     0
171
     2
172
     0
173
     0
174
     0
175
     0
176
     0
177
     0
178
     0
270
     2
271
     4
272
     4
273
     2
274
     2
340
10
275
     0
280
     0
281
     0
282
     0
283
     1
284
     0
285
     0
286
     0
287
     3
288
     0
  0
ENDTAB
  0
TABLE
  2
BLOCK_RECORD
  5
1
330
0
100
AcDbSymbolTable
 70
    13
  0
BLOCK_RECORD
  5
19
102
{ACAD_XDICTIONARY
360
5AF
102
}
330
1
100
AcDbSymbolTableRecord
100
AcDbBlockTableRecord
  2
*MODEL_SPACE
  0
BLOCK_RECORD
  5
16
102
{ACAD_XDICTIONARY
360
5AD
102
}
330
1
100
AcDbSymbolTableRecord
100
AcDbBlockTableRecord
  2
*PAPER_SPACE
  0
BLOCK_RECORD
  5
27
330
1
100
AcDbSymbolTableRecord
100
AcDbBlockTableRecord
  2
_OPEN
  0
BLOCK_RECORD
  5
3C6
330
1
100
AcDbSymbolTableRecord
100
AcDbBlockTableRecord
  2
*D1
  0
BLOCK_RECORD
  5
3D3
330
1
100
AcDbSymbolTableRecord
100
AcDbBlockTableRecord
  2
*D2
  0
BLOCK_RECORD
  5
3E1
330
1
100
AcDbSymbolTableRecord
100
AcDbBlockTableRecord
  2
*D3
  0
BLOCK_RECORD
  5
3EE
330
1
100
AcDbSymbolTableRecord
100
AcDbBlockTableRecord
  2
*D4
  0
BLOCK_RECORD
  5
3FB
330
1
100
AcDbSymbolTableRecord
100
AcDbBlockTableRecord
  2
*D5
  0
BLOCK_RECORD
  5
408
330
1
100
AcDbSymbolTableRecord
100
AcDbBlockTableRecord
  2
*D6
  0
BLOCK_RECORD
  5
415
330
1
100
AcDbSymbolTableRecord
100
AcDbBlockTableRecord
  2
*D7
  0
BLOCK_RECORD
  5
422
330
1
100
AcDbSymbolTableRecord
100
AcDbBlockTableRecord
  2
*D8
  0
BLOCK_RECORD
  5
4DD
330
1
100
AcDbSymbolTableRecord
100
AcDbBlockTableRecord
  2
*D9
  0
BLOCK_RECORD
  5
4EA
330
1
100
AcDbSymbolTableRecord
100
AcDbBlockTableRecord
  2
*D10
  0
BLOCK_RECORD
  5
4F8
330
1
100
AcDbSymbolTableRecord
100
AcDbBlockTableRecord
  2
*D11
  0
BLOCK_RECORD
  5
508
330
1
100
AcDbSymbolTableRecord
100
AcDbBlockTableRecord
  2
*D12
  0
ENDTAB
  0
ENDSEC
  0
SECTION
  2
BLOCKS
  0
BLOCK
  5
1A
330
19
100
AcDbEntity
  8
0
100
AcDbBlockBegin
  2
*MODEL_SPACE
 70
     0
 10
0.0
 20
0.0
 30
0.0
  3
*MODEL_SPACE
  1

  0
ENDBLK
  5
1B
330
19
100
AcDbEntity
  8
0
100
AcDbBlockEnd
  0
BLOCK
  5
17
330
16
100
AcDbEntity
 67
     1
  8
0
100
AcDbBlockBegin
  2
*PAPER_SPACE
 70
     0
 10
0.0
 20
0.0
 30
0.0
  3
*PAPER_SPACE
  1

  0
ENDBLK
  5
18
330
16
100
AcDbEntity
 67
     1
  8
0
100
AcDbBlockEnd
  0
BLOCK
  5
28
330
27
100
AcDbEntity
  8
0
100
AcDbBlockBegin
  2
_OPEN
 70
     0
 10
0.0
 20
0.0
 30
0.0
  3
_OPEN
  1

  0
LINE
  5
29
330
27
100
AcDbEntity
  8
0
  6
BYBLOCK
 62
     0
100
AcDbLine
 10
-1.0
 20
0.1666666666666666
 30
0.0
 11
0.0
 21
0.0
 31
0.0
  0
LINE
  5
2A
330
27
100
AcDbEntity
  8
0
  6
BYBLOCK
 62
     0
100
AcDbLine
 10
0.0
 20
0.0
 30
0.0
 11
-1.0
 21
-0.1666666666666666
 31
0.0
  0
LINE
  5
2B
330
27
100
AcDbEntity
  8
0
  6
BYBLOCK
 62
     0
100
AcDbLine
 10
0.0
 20
0.0
 30
0.0
 11
-1.0
 21
0.0
 31
0.0
  0
ENDBLK
  5
2C
330
27
100
AcDbEntity
  8
0
100
AcDbBlockEnd
  0
BLOCK
  5
3C7
330
3C6
100
AcDbEntity
  8
0
100
AcDbBlockBegin
  2
*D1
 70
     1
 10
0.0
 20
0.0
 30
0.0
  3
*D1
  1

  0
LINE
  5
3C8
330
3C6
100
AcDbEntity
  8
0
  6
BYBLOCK
 62
     4
100
AcDbLine
 10
1162.562862113181
 20
579.6605553757777
 30
0.0
 11
1162.562862113181
 21
619.6845151649999
 31
0.0
  0
LINE
  5
3C9
330
3C6
100
AcDbEntity
  8
0
  6
BYBLOCK
 62
     4
100
AcDbLine
 10
990.5628621131816
 20
579.6605553757777
 30
0.0
 11
990.5628621131816
 21
619.6845151649999
 31
0.0
  0
LINE
  5
3CA
330
3C6
100
AcDbEntity
  8
0
  6
BYBLOCK
 62
     4
100
AcDbLine
 10
1148.562862113181
 20
613.684515165
 30
0.0
 11
1004.562862113181
 21
613.684515165
 31
0.0
  0
INSERT
  5
3CB
330
3C6
100
AcDbEntity
  8
0
  6
BYBLOCK
 62
     4
100
AcDbBlockReference
  2
_OPEN
 10
1162.562862113181
 20
613.684515165
 30
0.0
 41
14.0
 42
14.0
 43
14.0
  0
INSERT
  5
3CC
330
3C6
100
AcDbEntity
  8
0
  6
BYBLOCK
 62
     4
100
AcDbBlockReference
  2
_OPEN
 10
990.5628621131816
 20
613.684515165
 30
0.0
 41
14.0
 42
14.0
 43
14.0
 50
180.0
  0
MTEXT
  5
3CD
330
3C6
100
AcDbEntity
  8
0
  6
BYBLOCK
 62
     4
100
AcDbMText
 10
1076.562862113181
 20
623.6845151649999
 30
0.0
 40
12.0
 41
0.0
 71
     5
 72
     1
  1
\A1;172
1001
ACAD
1000
MTEXTBEGIN
1070
    73
1070
     1
1070
    44
1040
1.0
1070
    74
1070
     0
1000
MTEXTEND
1000
MTEXTBEGIN
1070
    73
1070
     1
1070
    44
1040
1.0
1070
    74
1070
     0
1000
MTEXTEND
1000
MTEXTBEGIN
1070
    73
1070
     1
1070
    44
1040
1.0
1070
    74
1070
     0
1000
MTEXTEND
  0
POINT
  5
3CE
330
3C6
100
AcDbEntity
  8
DEFPOINTS
  6
BYBLOCK
 62
     0
100
AcDbPoint
 10
1162.562862113181
 20
567.6605553757777
 30
0.0
  0
POINT
  5
3CF
330
3C6
100
AcDbEntity
  8
DEFPOINTS
  6
BYBLOCK
 62
     0
100
AcDbPoint
 10
990.5628621131816
 20
567.6605553757777
 30
0.0
  0
POINT
  5
3D0
330
3C6
100
AcDbEntity
  8
DEFPOINTS
  6
BYBLOCK
 62
     0
100
AcDbPoint
 10
990.5628621131816
 20
613.684515165
 30
0.0
  0
ENDBLK
  5
3D1
330
3C6
100
AcDbEntity
  8
0
100
AcDbBlockEnd
  0
BLOCK
  5
3D4
330
3D3
100
AcDbEntity
  8
0
100
AcDbBlockBegin
  2
*D2
 70
     1
 10
0.0
 20
0.0
 30
0.0
  3
*D2
  1

  0
LINE
  5
3D5
330
3D3
100
AcDbEntity
  8
0
  6
BYBLOCK
 62
     4
100
AcDbLine
 10
844.4064621131815
 20
579.6605553757777
 30
0.0
 11
844.4064621131815
 21
619.6845151649999
 31
0.0
  0
LINE
  5
3D6
330
3D3
100
AcDbEntity
  8
0
  6
BYBLOCK
 62
     4
100
AcDbLine
 10
614.4064621131818
 20
579.6606553757778
 30
0.0
 11
614.4064621131818
 21
619.6845151649999
 31
0.0
  0
LINE
  5
3D7
330
3D3
100
AcDbEntity
  8
0
  6
BYBLOCK
 62
     4
100
AcDbLine
 10
830.4064621131814
 20
613.684515165
 30
0.0
 11
628.4064621131817
 21
613.684515165
 31
0.0
  0
INSERT
  5
3D8
330
3D3
100
AcDbEntity
  8
0
  6
BYBLOCK
 62
     4
100
AcDbBlockReference
  2
_OPEN
 10
844.4064621131815
 20
613.684515165
 30
0.0
 41
14.0
 42
14.0
 43
14.0
  0
INSERT
  5
3D9
330
3D3
100
AcDbEntity
  8
0
  6
BYBLOCK
 62
     4
100
AcDbBlockReference
  2
_OPEN
 10
614.4064621131818
 20
613.684515165
 30
0.0
 41
14.0
 42
14.0
 43
14.0
 50
180.0
  0
MTEXT
  5
3DA
330
3D3
100
AcDbEntity
  8
0
  6
BYBLOCK
 62
     4
100
AcDbMText
 10
729.4064621131816
 20
623.6845151649999
 30
0.0
 40
12.0
 41
0.0
 71
     5
 72
     1
  1
\A1;230
1001
ACAD
1000
MTEXTBEGIN
1070
    73
1070
     1
1070
    44
1040
1.0
1070
    74
1070
     0
1000
MTEXTEND
1000
MTEXTBEGIN
1070
    73
1070
     1
1070
    44
1040
1.0
1070
    74
1070
     0
1000
MTEXTEND
1000
MTEXTBEGIN
1070
    73
1070
     1
1070
    44
1040
1.0
1070
    74
1070
     0
1000
MTEXTEND
  0
POINT
  5
3DB
330
3D3
100
AcDbEntity
  8
DEFPOINTS
  6
BYBLOCK
 62
     0
100
AcDbPoint
 10
844.4064621131815
 20
567.6605553757777
 30
0.0
  0
POINT
  5
3DC
330
3D3
100
AcDbEntity
  8
DEFPOINTS
  6
BYBLOCK
 62
     0
100
AcDbPoint
 10
614.4064621131818
 20
567.6606553757777
 30
0.0
  0
POINT
  5
3DD
330
3D3
100
AcDbEntity
  8
DEFPOINTS
  6
BYBLOCK
 62
     0
100
AcDbPoint
 10
614.4064621131818
 20
613.684515165
 30
0.0
  0
ENDBLK
  5
3DE
330
3D3
100
AcDbEntity
  8
0
100
AcDbBlockEnd
  0
BLOCK
  5
3E2
330
3E1
100
AcDbEntity
  8
0
100
AcDbBlockBegin
  2
*D3
 70
     1
 10
0.0
 20
0.0
 30
0.0
  3
*D3
  1

  0
LINE
  5
3E3
330
3E1
100
AcDbEntity
  8
0
  6
BYBLOCK
 62
     4
100
AcDbLine
 10
1160.562759021955
 20
325.6605553757779
 30
0.0
 11
1160.562759021955
 21
203.3064694599775
 31
0.0
  0
LINE
  5
3E4
330
3E1
100
AcDbEntity
  8
0
  6
BYBLOCK
 62
     4
100
AcDbLine
 10
1093.062962113181
 20
236.5549266414058
 30
0.0
 11
1093.062962113181
 21
203.3064694599775
 31
0.0
  0
LINE
  5
3E5
330
3E1
100
AcDbEntity
  8
0
  6
BYBLOCK
 62
     4
100
AcDbLine
 10
1146.562759021955
 20
209.3064694599775
 30
0.0
 11
1107.062962113181
 21
209.3064694599775
 31
0.0
  0
INSERT
  5
3E6
330
3E1
100
AcDbEntity
  8
0
  6
BYBLOCK
 62
     4
100
AcDbBlockReference
  2
_OPEN
 10
1160.562759021955
 20
209.3064694599775
 30
0.0
 41
14.0
 42
14.0
 43
14.0
  0
INSERT
  5
3E7
330
3E1
100
AcDbEntity
  8
0
  6
BYBLOCK
 62
     4
100
AcDbBlockReference
  2
_OPEN
 10
1093.062962113181
 20
209.3064694599775
 30
0.0
 41
14.0
 42
14.0
 43
14.0
 50
180.0
  0
MTEXT
  5
3E8
330
3E1
100
AcDbEntity
  8
0
  6
BYBLOCK
 62
     4
100
AcDbMText
 10
1126.812860567568
 20
219.3064694599775
 30
0.0
 40
12.0
 41
0.0
 71
     5
 72
     1
  1
\A1;67
1001
ACAD
1000
MTEXTBEGIN
1070
    73
1070
     1
1070
    44
1040
1.0
1070
    74
1070
     0
1000
MTEXTEND
1000
MTEXTBEGIN
1070
    73
1070
     1
1070
    44
1040
1.0
1070
    74
1070
     0
1000
MTEXTEND
1000
MTEXTBEGIN
1070
    73
1070
     1
1070
    44
1040
1.0
1070
    74
1070
     0
1000
MTEXTEND
  0
POINT
  5
3E9
330
3E1
100
AcDbEntity
  8
DEFPOINTS
  6
BYBLOCK
 62
     0
100
AcDbPoint
 10
1160.562759021955
 20
337.6605553757779
 30
0.0
  0
POINT
  5
3EA
330
3E1
100
AcDbEntity
  8
DEFPOINTS
  6
BYBLOCK
 62
     0
100
AcDbPoint
 10
1093.062962113181
 20
248.5549266414059
 30
0.0
  0
POINT
  5
3EB
330
3E1
100
AcDbEntity
  8
DEFPOINTS
  6
BYBLOCK
 62
     0
100
AcDbPoint
 10
1093.062962113181
 20
209.3064694599775
 30
0.0
  0
ENDBLK
  5
3EC
330
3E1
100
AcDbEntity
  8
0
100
AcDbBlockEnd
  0
BLOCK
  5
3EF
330
3EE
100
AcDbEntity
  8
0
100
AcDbBlockBegin
  2
*D4
 70
     1
 10
0.0
 20
0.0
 30
0.0
  3
*D4
  1

  0
LINE
  5
3F0
330
3EE
100
AcDbEntity
  8
0
  6
BYBLOCK
 62
     4
100
AcDbLine
 10
1160.562759021955
 20
325.6605553757779
 30
0.0
 11
1160.562759021955
 21
159.300622722254
 31
0.0
  0
LINE
  5
3F1
330
3EE
100
AcDbEntity
  8
0
  6
BYBLOCK
 62
     4
100
AcDbLine
 10
1085.562962113181
 20
301.9690237192549
 30
0.0
 11
1085.562962113181
 21
159.300622722254
 31
0.0
  0
LINE
  5
3F2
330
3EE
100
AcDbEntity
  8
0
  6
BYBLOCK
 62
     4
100
AcDbLine
 10
1146.562759021955
 20
165.300622722254
 30
0.0
 11
1099.562962113181
 21
165.300622722254
 31
0.0
  0
INSERT
  5
3F3
330
3EE
100
AcDbEntity
  8
0
  6
BYBLOCK
 62
     4
100
AcDbBlockReference
  2
_OPEN
 10
1160.562759021955
 20
165.300622722254
 30
0.0
 41
14.0
 42
14.0
 43
14.0
  0
INSERT
  5
3F4
330
3EE
100
AcDbEntity
  8
0
  6
BYBLOCK
 62
     4
100
AcDbBlockReference
  2
_OPEN
 10
1085.562962113181
 20
165.300622722254
 30
0.0
 41
14.0
 42
14.0
 43
14.0
 50
180.0
  0
MTEXT
  5
3F5
330
3EE
100
AcDbEntity
  8
0
  6
BYBLOCK
 62
     4
100
AcDbMText
 10
1123.062860567568
 20
175.300622722254
 30
0.0
 40
12.0
 41
0.0
 71
     5
 72
     1
  1
\A1;75
1001
ACAD
1000
MTEXTBEGIN
1070
    73
1070
     1
1070
    44
1040
1.0
1070
    74
1070
     0
1000
MTEXTEND
1000
MTEXTBEGIN
1070
    73
1070
     1
1070
    44
1040
1.0
1070
    74
1070
     0
1000
MTEXTEND
1000
MTEXTBEGIN
1070
    73
1070
     1
1070
    44
1040
1.0
1070
    74
1070
     0
1000
MTEXTEND
  0
POINT
  5
3F6
330
3EE
100
AcDbEntity
  8
DEFPOINTS
  6
BYBLOCK
 62
     0
100
AcDbPoint
 10
1160.562759021955
 20
337.6605553757779
 30
0.0
  0
POINT
  5
3F7
330
3EE
100
AcDbEntity
  8
DEFPOINTS
  6
BYBLOCK
 62
     0
100
AcDbPoint
 10
1085.562962113181
 20
313.9690237192549
 30
0.0
  0
POINT
  5
3F8
330
3EE
100
AcDbEntity
  8
DEFPOINTS
  6
BYBLOCK
 62
     0
100
AcDbPoint
 10
1085.562962113181
 20
165.300622722254
 30
0.0
  0
ENDBLK
  5
3F9
330
3EE
100
AcDbEntity
  8
0
100
AcDbBlockEnd
  0
BLOCK
  5
3FC
330
3FB
100
AcDbEntity
  8
0
100
AcDbBlockBegin
  2
*D5
 70
     1
 10
0.0
 20
0.0
 30
0.0
  3
*D5
  1

  0
LINE
  5
3FD
330
3FB
100
AcDbEntity
  8
0
  6
BYBLOCK
 62
     4
100
AcDbLine
 10
1160.562759021955
 20
325.6605553757779
 30
0.0
 11
1160.562759021955
 21
115.2947786477325
 31
0.0
  0
LINE
  5
3FE
330
3FB
100
AcDbEntity
  8
0
  6
BYBLOCK
 62
     4
100
AcDbLine
 10
1020.562798879037
 20
325.6605553757779
 30
0.0
 11
1020.562798879037
 21
115.2947786477325
 31
0.0
  0
LINE
  5
3FF
330
3FB
100
AcDbEntity
  8
0
  6
BYBLOCK
 62
     4
100
AcDbLine
 10
1146.562759021955
 20
121.2947786477325
 30
0.0
 11
1034.562798879037
 21
121.2947786477325
 31
0.0
  0
INSERT
  5
400
330
3FB
100
AcDbEntity
  8
0
  6
BYBLOCK
 62
     4
100
AcDbBlockReference
  2
_OPEN
 10
1160.562759021955
 20
121.2947786477325
 30
0.0
 41
14.0
 42
14.0
 43
14.0
  0
INSERT
  5
401
330
3FB
100
AcDbEntity
  8
0
  6
BYBLOCK
 62
     4
100
AcDbBlockReference
  2
_OPEN
 10
1020.562798879037
 20
121.2947786477325
 30
0.0
 41
14.0
 42
14.0
 43
14.0
 50
180.0
  0
MTEXT
  5
402
330
3FB
100
AcDbEntity
  8
0
  6
BYBLOCK
 62
     4
100
AcDbMText
 10
1090.562778950496
 20
131.2947786477325
 30
0.0
 40
12.0
 41
0.0
 71
     5
 72
     1
  1
\A1;140
1001
ACAD
1000
MTEXTBEGIN
1070
    73
1070
     1
1070
    44
1040
1.0
1070
    74
1070
     0
1000
MTEXTEND
1000
MTEXTBEGIN
1070
    73
1070
     1
1070
    44
1040
1.0
1070
    74
1070
     0
1000
MTEXTEND
1000
MTEXTBEGIN
1070
    73
1070
     1
1070
    44
1040
1.0
1070
    74
1070
     0
1000
MTEXTEND
  0
POINT
  5
403
330
3FB
100
AcDbEntity
  8
DEFPOINTS
  6
BYBLOCK
 62
     0
100
AcDbPoint
 10
1160.562759021955
 20
337.6605553757779
 30
0.0
  0
POINT
  5
404
330
3FB
100
AcDbEntity
  8
DEFPOINTS
  6
BYBLOCK
 62
     0
100
AcDbPoint
 10
1020.562798879037
 20
337.6605553757779
 30
0.0
  0
POINT
  5
405
330
3FB
100
AcDbEntity
  8
DEFPOINTS
  6
BYBLOCK
 62
     0
100
AcDbPoint
 10
1020.562798879037
 20
121.2947786477325
 30
0.0
  0
ENDBLK
  5
406
330
3FB
100
AcDbEntity
  8
0
100
AcDbBlockEnd
  0
BLOCK
  5
4AD
330
408
100
AcDbEntity
  8
0
100
AcDbBlockBegin
  2
*D6
 70
     1
 10
0.0
 20
0.0
 30
0.0
  3
*D6
  1

  0
LINE
  5
4AE
330
408
100
AcDbEntity
  8
0
  6
BYBLOCK
 62
     4
100
AcDbLine
 10
764.8565621131815
 20
255.6605553757778
 30
0.0
 11
764.8565621131815
 21
203.3064694599775
 31
0.0
  0
LINE
  5
4AF
330
408
100
AcDbEntity
  8
0
  6
BYBLOCK
 62
     4
100
AcDbLine
 10
693.9560621131816
 20
255.6605553757778
 30
0.0
 11
693.9560621131816
 21
203.3064694599775
 31
0.0
  0
LINE
  5
4B0
330
408
100
AcDbEntity
  8
0
  6
BYBLOCK
 62
     4
100
AcDbLine
 10
750.8565621131815
 20
209.3064694599775
 30
0.0
 11
707.9560621131816
 21
209.3064694599775
 31
0.0
  0
INSERT
  5
4B1
330
408
100
AcDbEntity
  8
0
  6
BYBLOCK
 62
     4
100
AcDbBlockReference
  2
_OPEN
 10
764.8565621131815
 20
209.3064694599775
 30
0.0
 41
14.0
 42
14.0
 43
14.0
  0
INSERT
  5
4B2
330
408
100
AcDbEntity
  8
0
  6
BYBLOCK
 62
     4
100
AcDbBlockReference
  2
_OPEN
 10
693.9560621131816
 20
209.3064694599775
 30
0.0
 41
14.0
 42
14.0
 43
14.0
 50
180.0
  0
MTEXT
  5
4B3
330
408
100
AcDbEntity
  8
0
  6
BYBLOCK
 62
     4
100
AcDbMText
 10
729.4063121131816
 20
219.3064694599775
 30
0.0
 40
12.0
 41
0.0
 71
     5
 72
     1
  1
\A1;φ71
1001
ACAD
1000
MTEXTBEGIN
1070
    73
1070
     1
1070
    44
1040
1.0
1070
    74
1070
     0
1000
MTEXTEND
1000
MTEXTBEGIN
1070
    73
1070
     1
1070
    44
1040
1.0
1070
    74
1070
     0
1000
MTEXTEND
1000
MTEXTBEGIN
1070
    73
1070
     1
1070
    44
1040
1.0
1070
    74
1070
     0
1000
MTEXTEND
  0
POINT
  5
4B4
330
408
100
AcDbEntity
  8
DEFPOINTS
  6
BYBLOCK
 62
     0
100
AcDbPoint
 10
764.8565621131815
 20
267.6605553757779
 30
0.0
  0
POINT
  5
4B5
330
408
100
AcDbEntity
  8
DEFPOINTS
  6
BYBLOCK
 62
     0
100
AcDbPoint
 10
693.9560621131816
 20
267.6605553757779
 30
0.0
  0
POINT
  5
4B6
330
408
100
AcDbEntity
  8
DEFPOINTS
  6
BYBLOCK
 62
     0
100
AcDbPoint
 10
693.9560621131816
 20
209.3064694599775
 30
0.0
  0
ENDBLK
  5
4B7
330
408
100
AcDbEntity
  8
0
100
AcDbBlockEnd
  0
BLOCK
  5
4CE
330
415
100
AcDbEntity
  8
0
100
AcDbBlockBegin
  2
*D7
 70
     1
 10
0.0
 20
0.0
 30
0.0
  3
*D7
  1

  0
LINE
  5
4CF
330
415
100
AcDbEntity
  8
0
  6
BYBLOCK
 62
     4
100
AcDbLine
 10
773.8565621131815
 20
284.6605553757779
 30
0.0
 11
773.8565621131815
 21
159.300622722254
 31
0.0
  0
LINE
  5
4D0
330
415
100
AcDbEntity
  8
0
  6
BYBLOCK
 62
     4
100
AcDbLine
 10
684.9560621131815
 20
284.6605553757779
 30
0.0
 11
684.9560621131815
 21
159.300622722254
 31
0.0
  0
LINE
  5
4D1
330
415
100
AcDbEntity
  8
0
  6
BYBLOCK
 62
     4
100
AcDbLine
 10
759.8565621131815
 20
165.300622722254
 30
0.0
 11
698.9560621131816
 21
165.300622722254
 31
0.0
  0
INSERT
  5
4D2
330
415
100
AcDbEntity
  8
0
  6
BYBLOCK
 62
     4
100
AcDbBlockReference
  2
_OPEN
 10
773.8565621131815
 20
165.300622722254
 30
0.0
 41
14.0
 42
14.0
 43
14.0
  0
INSERT
  5
4D3
330
415
100
AcDbEntity
  8
0
  6
BYBLOCK
 62
     4
100
AcDbBlockReference
  2
_OPEN
 10
684.9560621131815
 20
165.300622722254
 30
0.0
 41
14.0
 42
14.0
 43
14.0
 50
180.0
  0
MTEXT
  5
4D4
330
415
100
AcDbEntity
  8
0
  6
BYBLOCK
 62
     4
100
AcDbMText
 10
729.4063121131816
 20
175.300622722254
 30
0.0
 40
12.0
 41
0.0
 71
     5
 72
     1
  1
\A1;φ89
1001
ACAD
1000
MTEXTBEGIN
1070
    73
1070
     1
1070
    44
1040
1.0
1070
    74
1070
     0
1000
MTEXTEND
1000
MTEXTBEGIN
1070
    73
1070
     1
1070
    44
1040
1.0
1070
    74
1070
     0
1000
MTEXTEND
1000
MTEXTBEGIN
1070
    73
1070
     1
1070
    44
1040
1.0
1070
    74
1070
     0
1000
MTEXTEND
  0
POINT
  5
4D5
330
415
100
AcDbEntity
  8
DEFPOINTS
  6
BYBLOCK
 62
     0
100
AcDbPoint
 10
773.8565621131815
 20
296.6605553757779
 30
0.0
  0
POINT
  5
4D6
330
415
100
AcDbEntity
  8
DEFPOINTS
  6
BYBLOCK
 62
     0
100
AcDbPoint
 10
684.9560621131815
 20
296.6605553757779
 30
0.0
  0
POINT
  5
4D7
330
415
100
AcDbEntity
  8
DEFPOINTS
  6
BYBLOCK
 62
     0
100
AcDbPoint
 10
684.9560621131815
 20
165.300622722254
 30
0.0
  0
ENDBLK
  5
4D8
330
415
100
AcDbEntity
  8
0
100
AcDbBlockEnd
  0
BLOCK
  5
423
330
422
100
AcDbEntity
  8
0
100
AcDbBlockBegin
  2
*D8
 70
     1
 10
0.0
 20
0.0
 30
0.0
  3
*D8
  1

  0
LINE
  5
424
330
422
100
AcDbEntity
  8
0
  6
BYBLOCK
 62
     4
100
AcDbLine
 10
821.9063027874451
 20
325.6605553757779
 30
0.0
 11
821.9063027874451
 21
115.2947786477325
 31
0.0
  0
LINE
  5
425
330
422
100
AcDbEntity
  8
0
  6
BYBLOCK
 62
     4
100
AcDbLine
 10
636.9064273904537
 20
325.6605553757779
 30
0.0
 11
636.9064273904537
 21
115.2947786477325
 31
0.0
  0
LINE
  5
426
330
422
100
AcDbEntity
  8
0
  6
BYBLOCK
 62
     4
100
AcDbLine
 10
807.906302787445
 20
121.2947786477325
 30
0.0
 11
650.9064273904536
 21
121.2947786477325
 31
0.0
  0
INSERT
  5
427
330
422
100
AcDbEntity
  8
0
  6
BYBLOCK
 62
     4
100
AcDbBlockReference
  2
_OPEN
 10
821.9063027874451
 20
121.2947786477325
 30
0.0
 41
14.0
 42
14.0
 43
14.0
  0
INSERT
  5
428
330
422
100
AcDbEntity
  8
0
  6
BYBLOCK
 62
     4
100
AcDbBlockReference
  2
_OPEN
 10
636.9064273904537
 20
121.2947786477325
 30
0.0
 41
14.0
 42
14.0
 43
14.0
 50
180.0
  0
MTEXT
  5
429
330
422
100
AcDbEntity
  8
0
  6
BYBLOCK
 62
     4
100
AcDbMText
 10
729.4063650889494
 20
131.2947786477325
 30
0.0
 40
12.0
 41
0.0
 71
     5
 72
     1
  1
\A1;185
1001
ACAD
1000
MTEXTBEGIN
1070
    73
1070
     1
1070
    44
1040
1.0
1070
    74
1070
     0
1000
MTEXTEND
1000
MTEXTBEGIN
1070
    73
1070
     1
1070
    44
1040
1.0
1070
    74
1070
     0
1000
MTEXTEND
1000
MTEXTBEGIN
1070
    73
1070
     1
1070
    44
1040
1.0
1070
    74
1070
     0
1000
MTEXTEND
  0
POINT
  5
42A
330
422
100
AcDbEntity
  8
DEFPOINTS
  6
BYBLOCK
 62
     0
100
AcDbPoint
 10
821.9063027874451
 20
337.6605553757779
 30
0.0
  0
POINT
  5
42B
330
422
100
AcDbEntity
  8
DEFPOINTS
  6
BYBLOCK
 62
     0
100
AcDbPoint
 10
636.9064273904537
 20
337.6605553757779
 30
0.0
  0
POINT
  5
42C
330
422
100
AcDbEntity
  8
DEFPOINTS
  6
BYBLOCK
 62
     0
100
AcDbPoint
 10
636.9064273904537
 20
121.2947786477325
 30
0.0
  0
ENDBLK
  5
42D
330
422
100
AcDbEntity
  8
0
100
AcDbBlockEnd
  0
BLOCK
  5
4DE
330
4DD
100
AcDbEntity
  8
0
100
AcDbBlockBegin
  2
*D9
 70
     1
 10
0.0
 20
0.0
 30
0.0
  3
*D9
  1

  0
LINE
  5
4DF
330
4DD
100
AcDbEntity
  8
0
  6
BYBLOCK
 62
     4
100
AcDbLine
 10
816.4064621131815
 20
637.6605553757777
 30
0.0
 11
856.5099440232925
 21
637.6605553757777
 31
0.0
  0
LINE
  5
4E0
330
4DD
100
AcDbEntity
  8
0
  6
BYBLOCK
 62
     4
100
AcDbLine
 10
789.3056621131815
 20
407.6605553757778
 30
0.0
 11
856.5099440232925
 21
407.6605553757778
 31
0.0
  0
LINE
  5
4E1
330
4DD
100
AcDbEntity
  8
0
  6
BYBLOCK
 62
     4
100
AcDbLine
 10
850.5099440232925
 20
623.6605553757778
 30
0.0
 11
850.5099440232925
 21
421.6605553757778
 31
0.0
  0
INSERT
  5
4E2
330
4DD
100
AcDbEntity
  8
0
  6
BYBLOCK
 62
     4
100
AcDbBlockReference
  2
_OPEN
 10
850.5099440232925
 20
637.6605553757777
 30
0.0
 41
14.0
 42
14.0
 43
14.0
 50
90.0
  0
INSERT
  5
4E3
330
4DD
100
AcDbEntity
  8
0
  6
BYBLOCK
 62
     4
100
AcDbBlockReference
  2
_OPEN
 10
850.5099440232925
 20
407.6605553757778
 30
0.0
 41
14.0
 42
14.0
 43
14.0
 50
270.0
  0
MTEXT
  5
4E4
330
4DD
100
AcDbEntity
  8
0
  6
BYBLOCK
 62
     4
100
AcDbMText
 10
840.5099440232925
 20
522.6605553757779
 30
0.0
 40
12.0
 41
0.0
 71
     5
 72
     1
  1
\A1;230
 11
0.0
 21
1.0
 31
0.0
1001
ACAD
1000
MTEXTBEGIN
1070
    73
1070
     1
1070
    44
1040
1.0
1070
    74
1070
     0
1000
MTEXTEND
1000
MTEXTBEGIN
1070
    73
1070
     1
1070
    44
1040
1.0
1070
    74
1070
     0
1000
MTEXTEND
1000
MTEXTBEGIN
1070
    73
1070
     1
1070
    44
1040
1.0
1070
    74
1070
     0
1000
MTEXTEND
  0
POINT
  5
4E5
330
4DD
100
AcDbEntity
  8
DEFPOINTS
  6
BYBLOCK
 62
     0
100
AcDbPoint
 10
804.4064621131814
 20
637.6605553757777
 30
0.0
  0
POINT
  5
4E6
330
4DD
100
AcDbEntity
  8
DEFPOINTS
  6
BYBLOCK
 62
     0
100
AcDbPoint
 10
777.3056621131815
 20
407.6605553757778
 30
0.0
  0
POINT
  5
4E7
330
4DD
100
AcDbEntity
  8
DEFPOINTS
  6
BYBLOCK
 62
     0
100
AcDbPoint
 10
850.5099440232925
 20
407.6605553757778
 30
0.0
  0
ENDBLK
  5
4E8
330
4DD
100
AcDbEntity
  8
0
100
AcDbBlockEnd
  0
BLOCK
  5
521
330
4EA
100
AcDbEntity
  8
0
100
AcDbBlockBegin
  2
*D10
 70
     1
 10
0.0
 20
0.0
 30
0.0
  3
*D10
  1

  0
LINE
  5
522
330
4EA
100
AcDbEntity
  8
0
  6
BYBLOCK
 62
     4
100
AcDbLine
 10
745.3565621131815
 20
362.6605553757779
 30
0.0
 11
856.5099440232925
 21
362.6605553757779
 31
0.0
  0
LINE
  5
523
330
4EA
100
AcDbEntity
  8
0
  6
BYBLOCK
 62
     4
100
AcDbLine
 10
850.5099440232925
 20
421.6605553757778
 30
0.0
 11
850.5099440232925
 21
435.6605553757779
 31
0.0
  0
LINE
  5
524
330
4EA
100
AcDbEntity
  8
0
  6
BYBLOCK
 62
     4
100
AcDbLine
 10
850.5099440232925
 20
348.6605553757779
 30
0.0
 11
850.5099440232925
 21
334.6605553757779
 31
0.0
  0
LINE
  5
525
330
4EA
100
AcDbEntity
  8
0
  6
BYBLOCK
 62
     4
100
AcDbLine
 10
850.5099440232925
 20
407.6605553757778
 30
0.0
 11
850.5099440232925
 21
362.6605553757779
 31
0.0
  0
INSERT
  5
526
330
4EA
100
AcDbEntity
  8
0
  6
BYBLOCK
 62
     4
100
AcDbBlockReference
  2
_OPEN
 10
850.5099440232925
 20
407.6605553757778
 30
0.0
 41
14.0
 42
14.0
 43
14.0
 50
270.0
  0
INSERT
  5
527
330
4EA
100
AcDbEntity
  8
0
  6
BYBLOCK
 62
     4
100
AcDbBlockReference
  2
_OPEN
 10
850.5099440232925
 20
362.6605553757779
 30
0.0
 41
14.0
 42
14.0
 43
14.0
 50
90.0
  0
MTEXT
  5
528
330
4EA
100
AcDbEntity
  8
0
  6
BYBLOCK
 62
     4
100
AcDbMText
 10
840.5099440232925
 20
385.1605553757778
 30
0.0
 40
12.0
 41
0.0
 71
     5
 72
     1
  1
\A1;45
 11
0.0
 21
1.0
 31
0.0
1001
ACAD
1000
MTEXTBEGIN
1070
    73
1070
     1
1070
    44
1040
1.0
1070
    74
1070
     0
1000
MTEXTEND
1000
MTEXTBEGIN
1070
    73
1070
     1
1070
    44
1040
1.0
1070
    74
1070
     0
1000
MTEXTEND
1000
MTEXTBEGIN
1070
    73
1070
     1
1070
    44
1040
1.0
1070
    74
1070
     0
1000
MTEXTEND
  0
POINT
  5
529
330
4EA
100
AcDbEntity
  8
DEFPOINTS
  6
BYBLOCK
 62
     0
100
AcDbPoint
 10
777.3056621131815
 20
407.6605553757778
 30
0.0
  0
POINT
  5
52A
330
4EA
100
AcDbEntity
  8
DEFPOINTS
  6
BYBLOCK
 62
     0
100
AcDbPoint
 10
733.3565621131815
 20
362.6605553757779
 30
0.0
  0
POINT
  5
52B
330
4EA
100
AcDbEntity
  8
DEFPOINTS
  6
BYBLOCK
 62
     0
100
AcDbPoint
 10
850.5099440232925
 20
362.6605553757779
 30
0.0
  0
ENDBLK
  5
52C
330
4EA
100
AcDbEntity
  8
0
100
AcDbBlockEnd
  0
BLOCK
  5
56D
330
4F8
100
AcDbEntity
  8
0
100
AcDbBlockBegin
  2
*D11
 70
     1
 10
0.0
 20
0.0
 30
0.0
  3
*D11
  1

  0
LINE
  5
56E
330
4F8
100
AcDbEntity
  8
0
  6
BYBLOCK
 62
     4
100
AcDbLine
 10
736.8564621131816
 20
337.6605553757779
 30
0.0
 11
856.5099440232925
 21
337.6605553757779
 31
0.0
  0
LINE
  5
56F
330
4F8
100
AcDbEntity
  8
0
  6
BYBLOCK
 62
     4
100
AcDbLine
 10
850.5099440232925
 20
376.6605553757778
 30
0.0
 11
850.5099440232925
 21
390.6605553757779
 31
0.0
  0
LINE
  5
570
330
4F8
100
AcDbEntity
  8
0
  6
BYBLOCK
 62
     4
100
AcDbLine
 10
850.5099440232925
 20
323.6605553757779
 30
0.0
 11
850.5099440232925
 21
281.6605553757779
 31
0.0
  0
LINE
  5
571
330
4F8
100
AcDbEntity
  8
0
  6
BYBLOCK
 62
     4
100
AcDbLine
 10
850.5099440232925
 20
362.6605553757779
 30
0.0
 11
850.5099440232925
 21
337.6605553757779
 31
0.0
  0
INSERT
  5
572
330
4F8
100
AcDbEntity
  8
0
  6
BYBLOCK
 62
     4
100
AcDbBlockReference
  2
_OPEN
 10
850.5099440232925
 20
362.6605553757779
 30
0.0
 41
14.0
 42
14.0
 43
14.0
 50
270.0
  0
INSERT
  5
573
330
4F8
100
AcDbEntity
  8
0
  6
BYBLOCK
 62
     4
100
AcDbBlockReference
  2
_OPEN
 10
850.5099440232925
 20
337.6605553757779
 30
0.0
 41
14.0
 42
14.0
 43
14.0
 50
90.0
  0
MTEXT
  5
574
330
4F8
100
AcDbEntity
  8
0
  6
BYBLOCK
 62
     4
100
AcDbMText
 10
840.5099440232925
 20
295.6605553757778
 30
0.0
 40
12.0
 41
0.0
 71
     5
 72
     1
  1
\A1;25
 11
0.0
 21
1.0
 31
0.0
1001
ACAD
1000
MTEXTBEGIN
1070
    73
1070
     1
1070
    44
1040
1.0
1070
    74
1070
     0
1000
MTEXTEND
1000
MTEXTBEGIN
1070
    73
1070
     1
1070
    44
1040
1.0
1070
    74
1070
     0
1000
MTEXTEND
1000
MTEXTBEGIN
1070
    73
1070
     1
1070
    44
1040
1.0
1070
    74
1070
     0
1000
MTEXTEND
  0
POINT
  5
575
330
4F8
100
AcDbEntity
  8
DEFPOINTS
  6
BYBLOCK
 62
     0
100
AcDbPoint
 10
733.3565621131815
 20
362.6605553757779
 30
0.0
  0
POINT
  5
576
330
4F8
100
AcDbEntity
  8
DEFPOINTS
  6
BYBLOCK
 62
     0
100
AcDbPoint
 10
724.8564621131816
 20
337.6605553757779
 30
0.0
  0
POINT
  5
577
330
4F8
100
AcDbEntity
  8
DEFPOINTS
  6
BYBLOCK
 62
     0
100
AcDbPoint
 10
850.5099440232925
 20
337.6605553757779
 30
0.0
  0
ENDBLK
  5
578
330
4F8
100
AcDbEntity
  8
0
100
AcDbBlockEnd
  0
BLOCK
  5
509
330
508
100
AcDbEntity
  8
0
100
AcDbBlockBegin
  2
*D12
 70
     1
 10
0.0
 20
0.0
 30
0.0
  3
*D12
  1

  0
LINE
  5
50A
330
508
100
AcDbEntity
  8
0
  6
BYBLOCK
 62
     4
100
AcDbLine
 10
816.4064621131815
 20
637.6605553757777
 30
0.0
 11
898.3613177366688
 21
637.6605553757777
 31
0.0
  0
LINE
  5
50B
330
508
100
AcDbEntity
  8
0
  6
BYBLOCK
 62
     4
100
AcDbLine
 10
736.8564621131816
 20
337.6605553757779
 30
0.0
 11
898.3613177366688
 21
337.6605553757779
 31
0.0
  0
LINE
  5
50C
330
508
100
AcDbEntity
  8
0
  6
BYBLOCK
 62
     4
100
AcDbLine
 10
892.3613177366688
 20
623.6605553757778
 30
0.0
 11
892.3613177366688
 21
351.6605553757778
 31
0.0
  0
INSERT
  5
50D
330
508
100
AcDbEntity
  8
0
  6
BYBLOCK
 62
     4
100
AcDbBlockReference
  2
_OPEN
 10
892.3613177366688
 20
637.6605553757777
 30
0.0
 41
14.0
 42
14.0
 43
14.0
 50
90.0
  0
INSERT
  5
50E
330
508
100
AcDbEntity
  8
0
  6
BYBLOCK
 62
     4
100
AcDbBlockReference
  2
_OPEN
 10
892.3613177366688
 20
337.6605553757779
 30
0.0
 41
14.0
 42
14.0
 43
14.0
 50
270.0
  0
MTEXT
  5
50F
330
508
100
AcDbEntity
  8
0
  6
BYBLOCK
 62
     4
100
AcDbMText
 10
882.3613177366688
 20
487.6605553757778
 30
0.0
 40
12.0
 41
0.0
 71
     5
 72
     1
  1
\A1;300
 11
0.0
 21
1.0
 31
0.0
1001
ACAD
1000
MTEXTBEGIN
1070
    73
1070
     1
1070
    44
1040
1.0
1070
    74
1070
     0
1000
MTEXTEND
1000
MTEXTBEGIN
1070
    73
1070
     1
1070
    44
1040
1.0
1070
    74
1070
     0
1000
MTEXTEND
1000
MTEXTBEGIN
1070
    73
1070
     1
1070
    44
1040
1.0
1070
    74
1070
     0
1000
MTEXTEND
  0
POINT
  5
510
330
508
100
AcDbEntity
  8
DEFPOINTS
  6
BYBLOCK
 62
     0
100
AcDbPoint
 10
804.4064621131814
 20
637.6605553757777
 30
0.0
  0
POINT
  5
511
330
508
100
AcDbEntity
  8
DEFPOINTS
  6
BYBLOCK
 62
     0
100
AcDbPoint
 10
724.8564621131816
 20
337.6605553757779
 30
0.0
  0
POINT
  5
512
330
508
100
AcDbEntity
  8
DEFPOINTS
  6
BYBLOCK
 62
     0
100
AcDbPoint
 10
892.3613177366688
 20
337.6605553757779
 30
0.0
  0
ENDBLK
  5
513
330
508
100
AcDbEntity
  8
0
100
AcDbBlockEnd
  0
ENDSEC
  0
SECTION
  2
ENTITIES
  0
LINE
  5
121
330
19
100
AcDbEntity
  8
ZUWAKU
 62
     7
 48
10.0
100
AcDbLine
 10
19.90074647074652
 20
48.1669006995453
 30
0.0
 11
1611.900746470746
 21
48.16690069954507
 31
0.0
  0
LINE
  5
122
330
19
100
AcDbEntity
  8
ZUWAKU
  6
CONTINUOUS
 62
     7
100
AcDbLine
 10
1611.900746470746
 20
1124.166900699545
 30
0.0
 11
19.90074647074652
 21
1124.166900699545
 31
0.0
  0
LINE
  5
123
330
19
100
AcDbEntity
  8
ZUWAKU
  6
CONTINUOUS
 62
     7
100
AcDbLine
 10
1611.900746470746
 20
24.16690069954529
 30
0.0
 11
19.90074647074652
 21
24.16690069954529
 31
0.0
  0
LINE
  5
124
330
19
100
AcDbEntity
  8
ZUWAKU
  6
CONTINUOUS
 62
     7
100
AcDbLine
 10
19.90074647074652
 20
1124.166900699545
 30
0.0
 11
19.90074647074652
 21
24.16690069954529
 31
0.0
  0
LINE
  5
125
330
19
100
AcDbEntity
  8
ZUWAKU
 62
     7
 48
10.0
100
AcDbLine
 10
88.91574076238157
 20
24.16690069954529
 30
0.0
 11
88.91574076238157
 21
48.1669006995453
 31
0.0
  0
TEXT
  5
126
330
19
100
AcDbEntity
  8
ZUWAKU
 62
     7
100
AcDbText
 10
31.91332132304342
 20
27.64761340998802
 30
0.0
 40
16.0
  1
品 種
100
AcDbText
  0
LINE
  5
127
330
19
100
AcDbEntity
  8
ZUWAKU
 62
     7
 48
10.0
100
AcDbLine
 10
552.0054677130756
 20
24.16690069954529
 30
0.0
 11
552.0054677130756
 21
48.16690069954521
 31
0.0
  0
LINE
  5
128
330
19
100
AcDbEntity
  8
ZUWAKU
 62
     7
 48
10.0
100
AcDbLine
 10
418.8274955845217
 20
24.16690069954529
 30
0.0
 11
418.8274955845218
 21
48.16690069954525
 31
0.0
  0
TEXT
  5
129
330
19
100
AcDbEntity
  8
ZUWAKU
 62
     7
100
AcDbText
 10
564.4260762822405
 20
27.88656214294769
 30
0.0
 40
16.0
  1
へん平型　ＵＴ９０×７５（Ｓ）
100
AcDbText
  0
TEXT
  5
12A
330
19
100
AcDbEntity
  8
ZUWAKU
 62
     7
100
AcDbText
 10
430.711957737576
 20
28.96889043994906
 30
0.0
 40
16.0
  1
品名・ｻ ｲ ｽﾞ
100
AcDbText
  0
TEXT
  5
12B
330
19
100
AcDbEntity
  8
ZUWAKU
 62
     7
100
AcDbText
 10
100.503666760442
 20
28.80785192669509
 30
0.0
 40
16.0
  1
角マス
100
AcDbText
  0
LINE
  5
12C
330
19
100
AcDbEntity
  8
ZUWAKU
 62
     7
 48
10.0
100
AcDbLine
 10
1537.246006285983
 20
24.16690069954474
 30
0.0
 11
1537.246006285983
 21
48.16690069954507
 31
0.0
  0
LINE
  5
12D
330
19
100
AcDbEntity
  8
ZUWAKU
 62
     7
 48
10.0
100
AcDbLine
 10
1467.423590774814
 20
24.16690069954483
 30
0.0
 11
1467.423590774814
 21
48.16690069954509
 31
0.0
  0
TEXT
  5
12E
330
19
100
AcDbEntity
  8
ZUWAKU
 62
     7
100
AcDbText
 10
1479.19091629413
 20
27.08628325011705
 30
0.0
 40
16.0
  1
尺 度
100
AcDbText
  0
TEXT
  5
12F
330
19
100
AcDbEntity
  8
ZUWAKU
 62
     7
100
AcDbText
 10
1559.27471636407
 20
27.71150653553059
 30
0.0
 40
16.0
  1
1/4
100
AcDbText
  0
TEXT
  5
130
330
19
100
AcDbEntity
  8
ZUWAKU
 62
     7
100
AcDbText
 10
1308.30613703518
 20
28.40748782453036
 30
0.0
 40
16.0
  1
ＧＨ１２
100
AcDbText
  0
TEXT
  5
131
330
19
100
AcDbEntity
  8
ZUWAKU
 62
     7
100
AcDbText
 10
1240.472447976041
 20
27.90554632275259
 30
0.0
 40
16.0
  1
品 番
100
AcDbText
  0
LINE
  5
132
330
19
100
AcDbEntity
  8
ZUWAKU
 62
     7
 48
10.0
100
AcDbLine
 10
1228.46999593825
 20
24.16690069954464
 30
0.0
 11
1228.46999593825
 21
48.16690069954512
 31
0.0
  0
LINE
  5
133
330
19
100
AcDbEntity
  8
ZUWAKU
 62
     7
 48
10.0
100
AcDbLine
 10
1297.321307773629
 20
24.16690069954464
 30
0.0
 11
1297.321307773629
 21
48.1669006995451
 31
0.0
  0
TEXT
  5
134
330
19
100
AcDbEntity
  8
ZUWAKU
 62
     7
 48
10.0
100
AcDbText
 10
1292.407013373002
 20
5.798621502208334
 30
0.0
 40
16.0
  1
積水化学工業株式会社  建材
100
AcDbText
  0
LINE
  5
135
330
19
100
AcDbEntity
  8
ZUWAKU
  6
CONTINUOUS
 62
     7
100
AcDbLine
 10
1611.900746470746
 20
1124.166900699545
 30
0.0
 11
1611.900746470746
 21
24.16690069954529
 31
0.0
  0
LINE
  5
289
330
19
100
AcDbEntity
  8
SEIHIN
  6
CONTINUOUS
 62
     3
100
AcDbLine
 10
777.3056621131815
 20
407.6605553757778
 30
0.0
 11
689.4065621131817
 21
407.6605553757778
 31
0.0
  0
LINE
  5
28A
330
19
100
AcDbEntity
  8
SEIHIN
  6
CONTINUOUS
 62
     3
100
AcDbLine
 10
798.7514621131816
 20
605.6604553757778
 30
0.0
 11
689.4066621131817
 21
605.6605553757777
 31
0.0
  0
LINE
  5
28B
330
19
100
AcDbEntity
  8
SEIHIN
  6
CONTINUOUS
 62
     3
100
AcDbLine
 10
803.0313621131815
 20
607.6605553757778
 30
0.0
 11
689.4066621131817
 21
607.6606553757777
 31
0.0
  0
LINE
  5
28C
330
19
100
AcDbEntity
  8
SEIHIN
  6
CONTINUOUS
 62
     3
100
AcDbLine
 10
804.4064621131814
 20
637.6605553757777
 30
0.0
 11
689.4067621131816
 21
637.6605553757777
 31
0.0
  0
LINE
  5
28D
330
19
100
AcDbEntity
  8
SEIHIN
  6
CONTINUOUS
 62
     3
100
AcDbLine
 10
778.3293621131815
 20
604.7367553757778
 30
0.0
 11
762.2883621131816
 21
412.2453553757778
 31
0.0
  0
LINE
  5
28E
330
19
100
AcDbEntity
  8
SEIHIN
  6
CONTINUOUS
 62
     3
100
AcDbLine
 10
764.6938621131816
 20
819.6754553757777
 30
0.0
 11
779.0517621131816
 21
847.5706553757778
 31
0.0
  0
LINE
  5
28F
330
19
100
AcDbEntity
  8
SEIHIN
  6
CONTINUOUS
 62
     3
100
AcDbLine
 10
778.5617621131816
 20
794.6458553757778
 30
0.0
 11
763.2979621131816
 21
816.9636553757777
 31
0.0
  0
LINE
  5
290
330
19
100
AcDbEntity
  8
SEIHIN
  6
CONTINUOUS
 62
     3
100
AcDbLine
 10
689.4065621131817
 20
788.1923553757777
 30
0.0
 11
779.6302621131817
 21
788.1922553757777
 31
0.0
  0
LINE
  5
291
330
19
100
AcDbEntity
  8
SEIHIN
  6
CONTINUOUS
 62
     3
100
AcDbLine
 10
689.4065621131817
 20
787.2495553757778
 30
0.0
 11
780.2256621131816
 21
787.2496553757778
 31
0.0
  0
LINE
  5
292
330
19
100
AcDbEntity
  8
SEIHIN
  6
CONTINUOUS
 62
     3
100
AcDbLine
 10
689.4065621131817
 20
784.7477553757778
 30
0.0
 11
781.2494621131816
 21
784.7476553757778
 31
0.0
  0
LINE
  5
293
330
19
100
AcDbEntity
  8
SEIHIN
  6
CONTINUOUS
 62
     3
100
AcDbLine
 10
689.4067621131816
 20
954.2481553757777
 30
0.0
 11
796.9051621131816
 21
954.2481553757777
 31
0.0
  0
LINE
  5
294
330
19
100
AcDbEntity
  8
SEIHIN
  6
CONTINUOUS
 62
     3
100
AcDbLine
 10
689.4069621131816
 20
956.7481553757778
 30
0.0
 11
799.4068621131816
 21
956.7471553757778
 31
0.0
  0
ARC
  5
295
330
19
100
AcDbEntity
  8
SEIHIN
  6
CONTINUOUS
 62
     3
100
AcDbCircle
 10
776.4949621131815
 20
798.0518553757778
 30
0.0
 40
5.000005999999999
100
AcDbArc
 50
270.0
 51
334.53631
  0
ARC
  5
296
330
19
100
AcDbEntity
  8
SEIHIN
  6
CONTINUOUS
 62
     3
100
AcDbCircle
 10
774.6062621131816
 20
947.2701553757779
 30
0.0
 40
5.0
100
AcDbArc
 50
0.0
 51
90.0
  0
LINE
  5
29B
330
19
100
AcDbEntity
  8
CENTR_L
  6
CENTER
 62
     1
 48
5.0
100
AcDbLine
 10
689.4062621131816
 20
316.7879553757778
 30
0.0
 11
689.4065621131817
 21
656.2510553757777
 31
0.0
  0
LINE
  5
29C
330
19
100
AcDbEntity
  8
SEIHIN
  6
CONTINUOUS
 62
     3
100
AcDbLine
 10
575.3738621131817
 20
608.6396553757777
 30
0.0
 11
574.4064621131817
 21
637.6608553757778
 31
0.0
  0
LINE
  5
29D
330
19
100
AcDbEntity
  8
SEIHIN
  6
CONTINUOUS
 62
     3
100
AcDbLine
 10
595.3738621131815
 20
608.6396553757777
 30
0.0
 11
594.4064621131815
 21
637.6608553757778
 31
0.0
  0
LINE
  5
2C7
330
19
100
AcDbEntity
  8
SEIHIN
  6
CONTINUOUS
 62
     3
100
AcDbLine
 10
580.4834621131817
 20
604.7368553757778
 30
0.0
 11
596.5243621131817
 21
412.2453553757778
 31
0.0
  0
LINE
  5
2C8
330
19
100
AcDbEntity
  8
SEIHIN
  6
CONTINUOUS
 62
     3
100
AcDbLine
 10
600.4834621131815
 20
604.7368553757778
 30
0.0
 11
616.5243621131817
 21
412.2453553757778
 31
0.0
  0
LINE
  5
2C9
330
19
100
AcDbEntity
  8
SEIHIN
  6
CONTINUOUS
 62
     3
100
AcDbLine
 10
601.5070621131817
 20
407.6605553757778
 30
0.0
 11
689.4060621131816
 21
407.6605553757778
 31
0.0
  0
LINE
  5
2CA
330
19
100
AcDbEntity
  8
SEIHIN
  6
CONTINUOUS
 62
     3
100
AcDbLine
 10
689.4060621131816
 20
402.6605553757779
 30
0.0
 11
643.7561621131817
 21
402.6605553757779
 31
0.0
  0
LINE
  5
2CB
330
19
100
AcDbEntity
  8
SEIHIN
  6
CONTINUOUS
 62
     3
100
AcDbLine
 10
689.4060621131816
 20
362.6605553757779
 30
0.0
 11
645.4560621131816
 21
362.6605553757779
 31
0.0
  0
LINE
  5
2CC
330
19
100
AcDbEntity
  8
SEIHIN
  6
CONTINUOUS
 62
     3
100
AcDbLine
 10
689.4060621131816
 20
366.6605553757779
 30
0.0
 11
644.9560621131816
 21
366.6605553757779
 31
0.0
  0
LINE
  5
2CD
330
19
100
AcDbEntity
  8
SEIHIN
  6
CONTINUOUS
 62
     3
100
AcDbLine
 10
644.9560621131816
 20
366.6605553757779
 30
0.0
 11
644.9560621131816
 21
402.6605553757779
 31
0.0
  0
LINE
  5
2CE
330
19
100
AcDbEntity
  8
SEIHIN
  6
CONTINUOUS
 62
     3
100
AcDbLine
 10
645.4560621131816
 20
362.6605553757779
 30
0.0
 11
645.4560621131816
 21
366.6605553757779
 31
0.0
  0
ARC
  5
2CF
330
19
100
AcDbEntity
  8
SEIHIN
  6
CONTINUOUS
 62
     3
100
AcDbCircle
 10
621.5070621131817
 20
412.6605553757778
 30
0.0
 40
4.999984999999999
100
AcDbArc
 50
184.763356
 51
270.0
  0
ARC
  5
2D0
330
19
100
AcDbEntity
  8
SEIHIN
  6
CONTINUOUS
 62
     3
100
AcDbCircle
 10
601.5070621131817
 20
412.6605553757778
 30
0.0
 40
4.999984999999999
100
AcDbArc
 50
184.763356
 51
270.0
  0
ARC
  5
2D1
330
19
100
AcDbEntity
  8
SEIHIN
  6
CONTINUOUS
 62
     3
100
AcDbCircle
 10
638.7560621131815
 20
402.6605553757779
 30
0.0
 40
5.0
100
AcDbArc
 50
0.0
 51
90.0
  0
LINE
  5
2D2
330
19
100
AcDbEntity
  8
SEIHIN
  6
CONTINUOUS
 62
     3
100
AcDbLine
 10
653.9560621131816
 20
337.6605553757779
 30
0.0
 11
653.9560621131816
 21
362.6605553757779
 31
0.0
  0
LINE
  5
2D3
330
19
100
AcDbEntity
  8
SEIHIN
  6
CONTINUOUS
 62
     3
100
AcDbLine
 10
724.8565621131815
 20
337.6605553757779
 30
0.0
 11
724.8565621131815
 21
362.6605553757779
 31
0.0
  0
LINE
  5
2D4
330
19
100
AcDbEntity
  8
SEIHIN
  6
CONTINUOUS
 62
     3
100
AcDbLine
 10
689.4064621131815
 20
337.6606553757778
 30
0.0
 11
724.8564621131816
 21
337.6605553757779
 31
0.0
  0
LINE
  5
2DC
330
19
100
AcDbEntity
  8
SEIHIN
  6
CONTINUOUS
 62
     3
100
AcDbLine
 10
689.4060621131816
 20
337.6605553757779
 30
0.0
 11
653.9560621131816
 21
337.6605553757779
 31
0.0
  0
LINE
  5
2DE
330
19
100
AcDbEntity
  8
SEIHIN
  6
CONTINUOUS
 62
     3
100
AcDbLine
 10
689.4065621131817
 20
366.6605553757779
 30
0.0
 11
733.8565621131815
 21
366.6605553757779
 31
0.0
  0
LINE
  5
2DF
330
19
100
AcDbEntity
  8
SEIHIN
  6
CONTINUOUS
 62
     3
100
AcDbLine
 10
689.4065621131817
 20
402.6605553757779
 30
0.0
 11
735.0565621131815
 21
402.6605553757779
 31
0.0
  0
LINE
  5
2E0
330
19
100
AcDbEntity
  8
SEIHIN
  6
CONTINUOUS
 62
     3
100
AcDbLine
 10
689.4064621131815
 20
362.6606553757778
 30
0.0
 11
733.3565621131815
 21
362.6605553757779
 31
0.0
  0
LINE
  5
2E1
330
19
100
AcDbEntity
  8
SEIHIN
  6
CONTINUOUS
 62
     3
100
AcDbLine
 10
733.8565621131815
 20
366.6605553757779
 30
0.0
 11
733.8565621131815
 21
402.6605553757779
 31
0.0
  0
LINE
  5
2E2
330
19
100
AcDbEntity
  8
SEIHIN
  6
CONTINUOUS
 62
     3
100
AcDbLine
 10
733.3565621131815
 20
362.6605553757779
 30
0.0
 11
733.3565621131815
 21
366.6605553757779
 31
0.0
  0
ARC
  5
2E3
330
19
100
AcDbEntity
  8
SEIHIN
  6
CONTINUOUS
 62
     3
100
AcDbCircle
 10
740.0565621131816
 20
402.6605553757779
 30
0.0
 40
5.0
100
AcDbArc
 50
90.0
 51
180.0
  0
ARC
  5
2E4
330
19
100
AcDbEntity
  8
SEIHIN
  6
CONTINUOUS
 62
     3
100
AcDbCircle
 10
757.3056621131816
 20
412.6605553757778
 30
0.0
 40
4.999984999999999
100
AcDbArc
 50
270.0
 51
355.236644
  0
LINE
  5
2E5
330
19
100
AcDbEntity
  8
SEIHIN
  6
CONTINUOUS
 62
     3
100
AcDbLine
 10
575.7815621131817
 20
607.6606553757777
 30
0.0
 11
689.4060621131816
 21
607.6606553757777
 31
0.0
  0
LINE
  5
2E6
330
19
100
AcDbEntity
  8
SEIHIN
  6
CONTINUOUS
 62
     3
100
AcDbLine
 10
580.0614621131817
 20
605.6606553757777
 30
0.0
 11
689.4060621131816
 21
605.6606553757777
 31
0.0
  0
LINE
  5
2E7
330
19
100
AcDbEntity
  8
SEIHIN
  6
CONTINUOUS
 62
     3
100
AcDbLine
 10
576.3159621131817
 20
607.2969553757777
 30
0.0
 11
579.5457621131816
 21
606.0049553757778
 31
0.0
  0
ARC
  5
2E8
330
19
100
AcDbEntity
  8
SEIHIN
  6
CONTINUOUS
 62
     3
100
AcDbCircle
 10
576.8730621131817
 20
608.6896553757778
 30
0.0
 40
1.500012
100
AcDbArc
 50
181.91017
 51
248.197881
  0
ARC
  5
2E9
330
19
100
AcDbEntity
  8
SEIHIN
  6
CONTINUOUS
 62
     3
100
AcDbCircle
 10
578.9886621131816
 20
604.6122553757778
 30
0.0
 40
1.499987999999999
100
AcDbArc
 50
4.764910999999999
 51
68.19788100000001
  0
LINE
  5
2EA
330
19
100
AcDbEntity
  8
SEIHIN
  6
CONTINUOUS
 62
     3
100
AcDbLine
 10
596.3159621131817
 20
607.2969553757777
 30
0.0
 11
599.5457621131816
 21
606.0049553757778
 31
0.0
  0
ARC
  5
2EB
330
19
100
AcDbEntity
  8
SEIHIN
  6
CONTINUOUS
 62
     3
100
AcDbCircle
 10
596.8730621131817
 20
608.6896553757778
 30
0.0
 40
1.500012
100
AcDbArc
 50
181.91017
 51
248.197881
  0
ARC
  5
2EC
330
19
100
AcDbEntity
  8
SEIHIN
  6
CONTINUOUS
 62
     3
100
AcDbCircle
 10
598.9886621131816
 20
604.6122553757778
 30
0.0
 40
1.499969
100
AcDbArc
 50
4.764910999999999
 51
68.20142800000001
  0
LINE
  5
2ED
330
19
100
AcDbEntity
  8
CENTR_L
  6
CENTER
 62
     1
 48
5.0
100
AcDbLine
 10
689.4063621131815
 20
776.1631553757776
 30
0.0
 11
689.4064621131815
 21
962.8891553757778
 31
0.0
  0
LINE
  5
2EE
330
19
100
AcDbEntity
  8
SEIHIN
  6
CONTINUOUS
 62
     3
100
AcDbLine
 10
576.9080621131815
 20
827.2760553757777
 30
0.0
 11
576.9080621131815
 21
949.2484553757778
 31
0.0
  0
LINE
  5
2EF
330
19
100
AcDbEntity
  8
SEIHIN
  6
CONTINUOUS
 62
     3
100
AcDbLine
 10
577.8508621131816
 20
827.4891553757779
 30
0.0
 11
577.8509621131815
 21
949.2484553757778
 31
0.0
  0
LINE
  5
2F0
330
19
100
AcDbEntity
  8
SEIHIN
  6
CONTINUOUS
 62
     3
100
AcDbLine
 10
582.7697621131817
 20
828.6030553757777
 30
0.0
 11
582.7698621131816
 21
950.7477553757778
 31
0.0
  0
LINE
  5
2F1
330
19
100
AcDbEntity
  8
SEIHIN
  6
CONTINUOUS
 62
     3
100
AcDbLine
 10
599.2069621131816
 20
849.8588553757778
 30
0.0
 11
599.2070621131816
 21
947.2701553757779
 31
0.0
  0
LINE
  5
2F2
330
19
100
AcDbEntity
  8
SEIHIN
  6
CONTINUOUS
 62
     3
100
AcDbLine
 10
574.4064621131817
 20
827.8774553757777
 30
0.0
 11
574.4063621131815
 21
951.7477553757778
 31
0.0
  0
ARC
  5
2F3
330
19
100
AcDbEntity
  8
SEIHIN
  6
CONTINUOUS
 62
     3
100
AcDbCircle
 10
689.4060621131816
 20
879.7477553757778
 30
0.0
 40
41.95
100
AcDbArc
 50
0.0
 51
359.9998629999999
  0
ARC
  5
2F4
330
19
100
AcDbEntity
  8
SEIHIN
  6
CONTINUOUS
 62
     3
100
AcDbCircle
 10
689.4060621131816
 20
887.2477553757779
 30
0.0
 40
32.95
100
AcDbArc
 50
0.0
 51
359.999826
  0
LINE
  5
2FB
330
19
100
AcDbEntity
  8
SEIHIN
  6
CONTINUOUS
 62
     3
100
AcDbLine
 10
574.4064621131817
 20
637.6606553757778
 30
0.0
 11
689.4060621131816
 21
637.6606553757778
 31
0.0
  0
LINE
  5
300
330
19
100
AcDbEntity
  8
CENTR_L
  6
CENTER
 62
     1
 48
5.0
100
AcDbLine
 10
635.5204621131815
 20
879.7477553757778
 30
0.0
 11
689.4063621131815
 21
879.7477553757778
 31
0.0
  0
LINE
  5
301
330
19
100
AcDbEntity
  8
SEIHIN
  6
CONTINUOUS
 62
     3
100
AcDbLine
 10
689.4063621131815
 20
784.7477553757778
 30
0.0
 11
597.5634621131817
 21
784.7477553757778
 31
0.0
  0
LINE
  5
302
330
19
100
AcDbEntity
  8
CENTR_L
  6
CENTER
 62
     1
 48
5.0
100
AcDbLine
 10
636.5919621131816
 20
887.2477553757779
 30
0.0
 11
689.4063621131815
 21
887.2477553757779
 31
0.0
  0
LINE
  5
303
330
19
100
AcDbEntity
  8
SEIHIN
  6
CONTINUOUS
 62
     3
100
AcDbLine
 10
689.4063621131815
 20
787.2495553757778
 30
0.0
 11
598.5872621131816
 21
787.2496553757778
 31
0.0
  0
LINE
  5
304
330
19
100
AcDbEntity
  8
SEIHIN
  6
CONTINUOUS
 62
     3
100
AcDbLine
 10
689.4063621131815
 20
788.1922553757777
 30
0.0
 11
599.1826621131815
 21
788.1923553757777
 31
0.0
  0
LINE
  5
305
330
19
100
AcDbEntity
  8
SEIHIN
  6
CONTINUOUS
 62
     3
100
AcDbLine
 10
689.4063621131815
 20
793.0518553757778
 30
0.0
 11
602.3179621131816
 21
793.0519553757777
 31
0.0
  0
LINE
  5
306
330
19
100
AcDbEntity
  8
SEIHIN
  6
CONTINUOUS
 62
     3
100
AcDbLine
 10
689.4063621131815
 20
816.9635553757778
 30
0.0
 11
618.5648621131815
 21
816.9636553757777
 31
0.0
  0
LINE
  5
307
330
19
100
AcDbEntity
  8
SEIHIN
  6
CONTINUOUS
 62
     3
100
AcDbLine
 10
594.6683621131817
 20
791.0427553757778
 30
0.0
 11
578.3365621131816
 21
825.3394553757777
 31
0.0
  0
LINE
  5
308
330
19
100
AcDbEntity
  8
SEIHIN
  6
CONTINUOUS
 62
     3
100
AcDbLine
 10
597.8036621131816
 20
795.9022553757778
 30
0.0
 11
583.2554621131817
 21
826.4534553757778
 31
0.0
  0
LINE
  5
309
330
19
100
AcDbEntity
  8
SEIHIN
  6
CONTINUOUS
 62
     3
100
AcDbLine
 10
574.8921621131817
 20
825.7278553757778
 30
0.0
 11
593.0491621131816
 21
787.5980553757778
 31
0.0
  0
LINE
  5
30A
330
19
100
AcDbEntity
  8
SEIHIN
  6
CONTINUOUS
 62
     3
100
AcDbLine
 10
594.0728621131816
 20
790.1000553757778
 30
0.0
 11
577.3936621131816
 21
825.1263553757778
 31
0.0
  0
LINE
  5
30B
330
19
100
AcDbEntity
  8
SEIHIN
  6
CONTINUOUS
 62
     3
100
AcDbLine
 10
600.2511621131816
 20
794.6459553757778
 30
0.0
 11
615.5149621131815
 21
816.9636553757777
 31
0.0
  0
ARC
  5
30C
330
19
100
AcDbEntity
  8
SEIHIN
  6
CONTINUOUS
 62
     3
100
AcDbCircle
 10
599.1826621131815
 20
793.1923553757777
 30
0.0
 40
4.999983999999999
100
AcDbArc
 50
205.462655
 51
270.0
  0
ARC
  5
30D
330
19
100
AcDbEntity
  8
SEIHIN
  6
CONTINUOUS
 62
     3
100
AcDbCircle
 10
598.5872621131816
 20
792.2496553757778
 30
0.0
 40
4.999983999999999
100
AcDbArc
 50
205.462655
 51
270.0
  0
ARC
  5
30E
330
19
100
AcDbEntity
  8
SEIHIN
  6
CONTINUOUS
 62
     3
100
AcDbCircle
 10
597.5634621131817
 20
789.7477553757778
 30
0.0
 40
5.000005999999999
100
AcDbArc
 50
205.4636899999999
 51
270.0
  0
ARC
  5
30F
330
19
100
AcDbEntity
  8
SEIHIN
  6
CONTINUOUS
 62
     3
100
AcDbCircle
 10
602.3179621131816
 20
798.0519553757777
 30
0.0
 40
5.000005999999999
100
AcDbArc
 50
205.4636899999999
 51
270.0
  0
LINE
  5
310
330
19
100
AcDbEntity
  8
SEIHIN
  6
CONTINUOUS
 62
     3
100
AcDbLine
 10
599.2069621131816
 20
848.6476553757778
 30
0.0
 11
583.4901621131816
 21
828.2957553757778
 31
0.0
  0
ARC
  5
311
330
19
100
AcDbEntity
  8
SEIHIN
  6
CONTINUOUS
 62
     3
100
AcDbCircle
 10
582.8509621131815
 20
827.4891553757779
 30
0.0
 40
5.000051
100
AcDbArc
 50
180.0
 51
205.4631969999999
  0
ARC
  5
312
330
19
100
AcDbEntity
  8
SEIHIN
  6
CONTINUOUS
 62
     3
100
AcDbCircle
 10
581.9079621131816
 20
827.2760553757777
 30
0.0
 40
5.000005999999999
100
AcDbArc
 50
180.0
 51
205.4636899999999
  0
ARC
  5
313
330
19
100
AcDbEntity
  8
SEIHIN
  6
CONTINUOUS
 62
     3
100
AcDbCircle
 10
579.4064621131817
 20
827.8774553757777
 30
0.0
 40
4.999983999999999
100
AcDbArc
 50
180.0
 51
205.462655
  0
ARC
  5
314
330
19
100
AcDbEntity
  8
SEIHIN
  6
CONTINUOUS
 62
     3
100
AcDbCircle
 10
587.7697621131817
 20
828.6030553757777
 30
0.0
 40
4.999939
100
AcDbArc
 50
180.0
 51
205.4631479999999
  0
LINE
  5
315
330
19
100
AcDbEntity
  8
SEIHIN
  6
CONTINUOUS
 62
     3
100
AcDbLine
 10
582.7697621131817
 20
845.2497553757778
 30
0.0
 11
580.7698621131817
 21
845.2497553757778
 31
0.0
  0
LINE
  5
316
330
19
100
AcDbEntity
  8
SEIHIN
  6
CONTINUOUS
 62
     3
100
AcDbLine
 10
582.7697621131817
 20
833.2497553757777
 30
0.0
 11
580.7697621131817
 21
833.2497553757777
 31
0.0
  0
LINE
  5
317
330
19
100
AcDbEntity
  8
SEIHIN
  6
CONTINUOUS
 62
     3
100
AcDbLine
 10
580.7698621131817
 20
845.2495553757778
 30
0.0
 11
580.7698621131817
 21
833.2497553757777
 31
0.0
  0
ARC
  5
318
330
19
100
AcDbEntity
  8
SEIHIN
  6
CONTINUOUS
 62
     3
100
AcDbCircle
 10
604.2069621131815
 20
849.8588553757778
 30
0.0
 40
4.999960999999999
100
AcDbArc
 50
180.0
 51
207.235386
  0
LINE
  5
319
330
19
100
AcDbEntity
  8
SEIHIN
  6
CONTINUOUS
 62
     3
100
AcDbLine
 10
614.1191621131816
 20
819.6754553757777
 30
0.0
 11
599.7613621131815
 21
847.5706553757778
 31
0.0
  0
ARC
  5
31A
330
19
100
AcDbEntity
  8
SEIHIN
  6
CONTINUOUS
 62
     3
100
AcDbCircle
 10
618.5648621131815
 20
821.9636553757776
 30
0.0
 40
5.000005
100
AcDbArc
 50
207.234862
 51
270.0
  0
LINE
  5
31B
330
19
100
AcDbEntity
  8
SEIHIN
  6
CONTINUOUS
 62
     3
100
AcDbLine
 10
689.4065621131817
 20
793.0518553757778
 30
0.0
 11
776.4949621131815
 21
793.0518553757778
 31
0.0
  0
LINE
  5
31C
330
19
100
AcDbEntity
  8
SEIHIN
  6
CONTINUOUS
 62
     3
100
AcDbLine
 10
689.4065621131817
 20
816.9636553757777
 30
0.0
 11
760.2480621131817
 21
816.9636553757777
 31
0.0
  0
LINE
  5
31D
330
19
100
AcDbEntity
  8
CENTR_L
  6
CENTER
 62
     1
 48
5.0
100
AcDbLine
 10
743.2925621131817
 20
879.7476553757778
 30
0.0
 11
689.4066621131817
 21
879.7478553757779
 31
0.0
  0
LINE
  5
31E
330
19
100
AcDbEntity
  8
CENTR_L
  6
CENTER
 62
     1
 48
5.0
100
AcDbLine
 10
742.2212621131816
 20
887.2476553757778
 30
0.0
 11
689.4068621131816
 21
887.2477553757779
 31
0.0
  0
ARC
  5
31F
330
19
100
AcDbEntity
  8
SEIHIN
  6
CONTINUOUS
 62
     3
100
AcDbCircle
 10
760.2481621131817
 20
821.9634553757778
 30
0.0
 40
5.000005
100
AcDbArc
 50
270.0
 51
332.7651379999999
  0
LINE
  5
320
330
19
100
AcDbEntity
  8
SEIHIN
  6
CONTINUOUS
 62
     3
100
AcDbLine
 10
689.4063621131815
 20
956.7481553757778
 30
0.0
 11
579.4063621131815
 21
956.7481553757778
 31
0.0
  0
LINE
  5
321
330
19
100
AcDbEntity
  8
SEIHIN
  6
CONTINUOUS
 62
     3
100
AcDbLine
 10
689.4065621131817
 20
954.2481553757777
 30
0.0
 11
581.9081621131815
 21
954.2481553757777
 31
0.0
  0
LINE
  5
322
330
19
100
AcDbEntity
  8
SEIHIN
  6
CONTINUOUS
 62
     3
100
AcDbLine
 10
689.4065621131817
 20
952.2700553757777
 30
0.0
 11
615.9066621131817
 21
952.2701553757778
 31
0.0
  0
ARC
  5
323
330
19
100
AcDbEntity
  8
SEIHIN
  6
CONTINUOUS
 62
     3
100
AcDbCircle
 10
579.4063621131815
 20
951.7477553757778
 30
0.0
 40
5.0002
100
AcDbArc
 50
90.0
 51
180.0
  0
LINE
  5
324
330
19
100
AcDbEntity
  8
SEIHIN
  6
CONTINUOUS
 62
     3
100
AcDbLine
 10
580.7698621131817
 20
950.7477553757778
 30
0.0
 11
582.7697621131817
 21
950.7477553757778
 31
0.0
  0
LINE
  5
325
330
19
100
AcDbEntity
  8
SEIHIN
  6
CONTINUOUS
 62
     3
100
AcDbLine
 10
580.7698621131817
 20
938.7477553757777
 30
0.0
 11
582.7697621131817
 21
938.7477553757777
 31
0.0
  0
LINE
  5
326
330
19
100
AcDbEntity
  8
SEIHIN
  6
CONTINUOUS
 62
     3
100
AcDbLine
 10
580.7698621131817
 20
950.7477553757778
 30
0.0
 11
580.7698621131817
 21
938.7477553757777
 31
0.0
  0
ARC
  5
327
330
19
100
AcDbEntity
  8
SEIHIN
  6
CONTINUOUS
 62
     3
100
AcDbCircle
 10
587.7698621131817
 20
949.2484553757778
 30
0.0
 40
4.99985
100
AcDbArc
 50
90.0
 51
180.0
  0
ARC
  5
328
330
19
100
AcDbEntity
  8
SEIHIN
  6
CONTINUOUS
 62
     3
100
AcDbCircle
 10
582.8509621131815
 20
949.2484553757778
 30
0.0
 40
4.99985
100
AcDbArc
 50
90.0
 51
180.0
  0
ARC
  5
329
330
19
100
AcDbEntity
  8
SEIHIN
  6
CONTINUOUS
 62
     3
100
AcDbCircle
 10
581.9081621131815
 20
949.2484553757778
 30
0.0
 40
4.99985
100
AcDbArc
 50
90.0
 51
180.0
  0
LINE
  5
32A
330
19
100
AcDbEntity
  8
SEIHIN
  6
CONTINUOUS
 62
     3
100
AcDbLine
 10
612.9064621131815
 20
952.2701553757778
 30
0.0
 11
604.2070621131816
 21
952.2701553757778
 31
0.0
  0
ARC
  5
32B
330
19
100
AcDbEntity
  8
SEIHIN
  6
CONTINUOUS
 62
     3
100
AcDbCircle
 10
604.2070621131816
 20
947.2701553757779
 30
0.0
 40
5.0
100
AcDbArc
 50
90.0
 51
180.0
  0
LINE
  5
32C
330
19
100
AcDbEntity
  8
SEIHIN
  6
CONTINUOUS
 62
     3
100
AcDbLine
 10
613.4064621131815
 20
952.6614553757777
 30
0.0
 11
613.4064621131815
 21
946.6605553757778
 31
0.0
  0
LINE
  5
32D
330
19
100
AcDbEntity
  8
SEIHIN
  6
CONTINUOUS
 62
     3
100
AcDbLine
 10
612.9064621131815
 20
952.6614553757777
 30
0.0
 11
612.9064621131815
 21
945.6605553757778
 31
0.0
  0
LINE
  5
32E
330
19
100
AcDbEntity
  8
SEIHIN
  6
CONTINUOUS
 62
     3
100
AcDbLine
 10
612.9064621131815
 20
952.6614553757777
 30
0.0
 11
614.4064621131815
 21
952.6614553757777
 31
0.0
  0
LINE
  5
32F
330
19
100
AcDbEntity
  8
SEIHIN
  6
CONTINUOUS
 62
     3
100
AcDbLine
 10
614.4064621131815
 20
946.6614553757777
 30
0.0
 11
613.4064621131815
 21
946.6614553757777
 31
0.0
  0
LINE
  5
330
330
19
100
AcDbEntity
  8
SEIHIN
  6
CONTINUOUS
 62
     3
100
AcDbLine
 10
614.4064621131815
 20
945.6614553757777
 30
0.0
 11
612.9064621131815
 21
945.6614553757777
 31
0.0
  0
LINE
  5
331
330
19
100
AcDbEntity
  8
SEIHIN
  6
CONTINUOUS
 62
     3
100
AcDbLine
 10
613.4064621131815
 20
946.6614553757777
 30
0.0
 11
612.9064621131815
 21
945.6605553757778
 31
0.0
  0
LINE
  5
332
330
19
100
AcDbEntity
  8
SEIHIN
  6
CONTINUOUS
 62
     3
100
AcDbLine
 10
614.4066621131817
 20
946.6615553757778
 30
0.0
 11
615.4066621131817
 21
946.6615553757778
 31
0.0
  0
LINE
  5
333
330
19
100
AcDbEntity
  8
SEIHIN
  6
CONTINUOUS
 62
     3
100
AcDbLine
 10
614.4066621131817
 20
945.6614553757777
 30
0.0
 11
615.9066621131817
 21
945.6614553757777
 31
0.0
  0
LINE
  5
334
330
19
100
AcDbEntity
  8
SEIHIN
  6
CONTINUOUS
 62
     3
100
AcDbLine
 10
615.9066621131817
 20
952.6614553757777
 30
0.0
 11
614.4066621131817
 21
952.6614553757777
 31
0.0
  0
LINE
  5
335
330
19
100
AcDbEntity
  8
SEIHIN
  6
CONTINUOUS
 62
     3
100
AcDbLine
 10
615.4066621131817
 20
952.6614553757777
 30
0.0
 11
615.4066621131817
 21
946.6605553757778
 31
0.0
  0
LINE
  5
336
330
19
100
AcDbEntity
  8
SEIHIN
  6
CONTINUOUS
 62
     3
100
AcDbLine
 10
615.9066621131817
 20
952.6614553757777
 30
0.0
 11
615.9066621131817
 21
945.6605553757778
 31
0.0
  0
LINE
  5
337
330
19
100
AcDbEntity
  8
SEIHIN
  6
CONTINUOUS
 62
     3
100
AcDbLine
 10
615.4066621131817
 20
946.6615553757778
 30
0.0
 11
615.9066621131817
 21
945.6605553757778
 31
0.0
  0
LINE
  5
338
330
19
100
AcDbEntity
  8
SEIHIN
  6
CONTINUOUS
 62
     3
100
AcDbLine
 10
689.4067621131816
 20
952.2700553757777
 30
0.0
 11
762.9065621131817
 21
952.2700553757777
 31
0.0
  0
LINE
  5
339
330
19
100
AcDbEntity
  8
SEIHIN
  6
CONTINUOUS
 62
     3
100
AcDbLine
 10
765.9068621131816
 20
952.2700553757777
 30
0.0
 11
774.6062621131816
 21
952.2700553757777
 31
0.0
  0
LINE
  5
33A
330
19
100
AcDbEntity
  8
SEIHIN
  6
CONTINUOUS
 62
     3
100
AcDbLine
 10
765.4068621131816
 20
946.6614553757777
 30
0.0
 11
765.9068621131816
 21
945.6604553757777
 31
0.0
  0
LINE
  5
33B
330
19
100
AcDbEntity
  8
SEIHIN
  6
CONTINUOUS
 62
     3
100
AcDbLine
 10
765.9068621131816
 20
952.6613553757778
 30
0.0
 11
765.9068621131816
 21
945.6604553757777
 31
0.0
  0
LINE
  5
33C
330
19
100
AcDbEntity
  8
SEIHIN
  6
CONTINUOUS
 62
     3
100
AcDbLine
 10
765.4068621131816
 20
952.6613553757778
 30
0.0
 11
765.4068621131816
 21
946.6604553757777
 31
0.0
  0
LINE
  5
33D
330
19
100
AcDbEntity
  8
SEIHIN
  6
CONTINUOUS
 62
     3
100
AcDbLine
 10
765.9068621131816
 20
952.6613553757778
 30
0.0
 11
764.4068621131816
 21
952.6613553757778
 31
0.0
  0
LINE
  5
33E
330
19
100
AcDbEntity
  8
SEIHIN
  6
CONTINUOUS
 62
     3
100
AcDbLine
 10
764.4068621131816
 20
946.6614553757777
 30
0.0
 11
765.4068621131816
 21
946.6614553757777
 31
0.0
  0
LINE
  5
33F
330
19
100
AcDbEntity
  8
SEIHIN
  6
CONTINUOUS
 62
     3
100
AcDbLine
 10
764.4068621131816
 20
945.6613553757778
 30
0.0
 11
765.9068621131816
 21
945.6613553757778
 31
0.0
  0
LINE
  5
340
330
19
100
AcDbEntity
  8
SEIHIN
  6
CONTINUOUS
 62
     3
100
AcDbLine
 10
763.4065621131817
 20
946.6614553757777
 30
0.0
 11
762.9065621131817
 21
945.6604553757777
 31
0.0
  0
LINE
  5
341
330
19
100
AcDbEntity
  8
SEIHIN
  6
CONTINUOUS
 62
     3
100
AcDbLine
 10
762.9065621131817
 20
952.6613553757778
 30
0.0
 11
762.9065621131817
 21
945.6604553757777
 31
0.0
  0
LINE
  5
342
330
19
100
AcDbEntity
  8
SEIHIN
  6
CONTINUOUS
 62
     3
100
AcDbLine
 10
763.4065621131817
 20
952.6613553757778
 30
0.0
 11
763.4065621131817
 21
946.6604553757777
 31
0.0
  0
LINE
  5
343
330
19
100
AcDbEntity
  8
SEIHIN
  6
CONTINUOUS
 62
     3
100
AcDbLine
 10
764.4065621131817
 20
946.6614553757777
 30
0.0
 11
763.4065621131817
 21
946.6614553757777
 31
0.0
  0
LINE
  5
344
330
19
100
AcDbEntity
  8
SEIHIN
  6
CONTINUOUS
 62
     3
100
AcDbLine
 10
764.4065621131817
 20
945.6613553757778
 30
0.0
 11
762.9065621131817
 21
945.6613553757778
 31
0.0
  0
LINE
  5
345
330
19
100
AcDbEntity
  8
SEIHIN
  6
CONTINUOUS
 62
     3
100
AcDbLine
 10
762.9065621131817
 20
952.6613553757778
 30
0.0
 11
764.4065621131817
 21
952.6613553757778
 31
0.0
  0
LINE
  5
346
330
19
100
AcDbEntity
  8
SEIHIN
  6
CONTINUOUS
 62
     3
100
AcDbLine
 10
803.4389621131815
 20
608.6395553757778
 30
0.0
 11
804.4064621131814
 21
637.6605553757777
 31
0.0
  0
LINE
  5
347
330
19
100
AcDbEntity
  8
SEIHIN
  6
CONTINUOUS
 62
     3
100
AcDbLine
 10
783.4389621131816
 20
608.6395553757778
 30
0.0
 11
784.4064621131815
 21
637.6605553757777
 31
0.0
  0
LINE
  5
348
330
19
100
AcDbEntity
  8
SEIHIN
  6
CONTINUOUS
 62
     3
100
AcDbLine
 10
1032.562862113181
 20
637.6605553757777
 30
0.0
 11
1033.530062113181
 21
608.6395553757778
 31
0.0
  0
LINE
  5
349
330
19
100
AcDbEntity
  8
SEIHIN
  6
CONTINUOUS
 62
     3
100
AcDbLine
 10
990.5628621131816
 20
637.6605553757777
 30
0.0
 11
991.5300621131816
 21
608.6395553757778
 31
0.0
  0
LINE
  5
34A
330
19
100
AcDbEntity
  8
SEIHIN
  6
CONTINUOUS
 62
     3
100
AcDbLine
 10
1162.562862113181
 20
637.6605553757777
 30
0.0
 11
1160.605862113181
 21
412.6171553757778
 31
0.0
  0
LINE
  5
354
330
19
100
AcDbEntity
  8
SEIHIN
  6
CONTINUOUS
 62
     3
100
AcDbLine
 10
991.9376621131815
 20
607.6605553757778
 30
0.0
 11
1162.301862113181
 21
607.6605553757778
 31
0.0
  0
LINE
  5
355
330
19
100
AcDbEntity
  8
SEIHIN
  6
CONTINUOUS
 62
     3
100
AcDbLine
 10
996.2220621131816
 20
605.6604553757778
 30
0.0
 11
1162.284862113181
 21
605.6604553757778
 31
0.0
  0
LINE
  5
356
330
19
100
AcDbEntity
  8
SEIHIN
  6
CONTINUOUS
 62
     3
100
AcDbLine
 10
1024.993362113181
 20
407.6605553757778
 30
0.0
 11
1155.606862113181
 21
407.6605553757778
 31
0.0
  0
LINE
  5
357
330
19
100
AcDbEntity
  8
SEIHIN
  6
CONTINUOUS
 62
     3
100
AcDbLine
 10
1085.562762113181
 20
402.6605553757779
 30
0.0
 11
1039.912662113182
 21
402.6605553757779
 31
0.0
  0
LINE
  5
358
330
19
100
AcDbEntity
  8
SEIHIN
  6
CONTINUOUS
 62
     3
100
AcDbLine
 10
1085.562762113181
 20
366.6605553757779
 30
0.0
 11
1041.112662113181
 21
366.6605553757779
 31
0.0
  0
LINE
  5
359
330
19
100
AcDbEntity
  8
SEIHIN
  6
CONTINUOUS
 62
     3
100
AcDbLine
 10
1085.562762113181
 20
362.6605553757779
 30
0.0
 11
1041.612662113181
 21
362.6605553757779
 31
0.0
  0
LINE
  5
35A
330
19
100
AcDbEntity
  8
SEIHIN
  6
CONTINUOUS
 62
     3
100
AcDbLine
 10
1093.062762113181
 20
337.6605553757779
 30
0.0
 11
1057.612662113181
 21
337.6605553757779
 31
0.0
  0
ARC
  5
35B
330
19
100
AcDbEntity
  8
SEIHIN
  6
CONTINUOUS
 62
     3
100
AcDbCircle
 10
1066.993362113181
 20
412.6605553757778
 30
0.0
 40
5.000011999999999
100
AcDbArc
 50
186.910538
 51
270.0
  0
LINE
  5
35D
330
19
100
AcDbEntity
  8
SEIHIN
  6
CONTINUOUS
 62
     3
100
AcDbLine
 10
798.3293621131815
 20
604.7367553757778
 30
0.0
 11
782.2883621131816
 21
412.2452553757779
 31
0.0
  0
LINE
  5
35E
330
19
100
AcDbEntity
  8
SEIHIN
  6
CONTINUOUS
 62
     3
100
AcDbLine
 10
1062.029662113181
 20
412.0589553757778
 30
0.0
 11
1038.669862113182
 21
604.7782553757778
 31
0.0
  0
LINE
  5
35F
330
19
100
AcDbEntity
  8
SEIHIN
  6
CONTINUOUS
 62
     3
100
AcDbLine
 10
1020.029662113181
 20
412.0589553757778
 30
0.0
 11
996.6698621131815
 21
604.7782553757778
 31
0.0
  0
ARC
  5
360
330
19
100
AcDbEntity
  8
SEIHIN
  6
CONTINUOUS
 62
     3
100
AcDbCircle
 10
777.3056621131815
 20
412.6605553757778
 30
0.0
 40
4.999984999999999
100
AcDbArc
 50
270.0
 51
355.236644
  0
LINE
  5
361
330
19
100
AcDbEntity
  8
SEIHIN
  6
CONTINUOUS
 62
     3
100
AcDbLine
 10
1057.612662113181
 20
337.6605553757779
 30
0.0
 11
1057.612662113181
 21
362.6605553757779
 31
0.0
  0
LINE
  5
362
330
19
100
AcDbEntity
  8
SEIHIN
  6
CONTINUOUS
 62
     3
100
AcDbLine
 10
1041.112662113181
 20
366.6605553757779
 30
0.0
 11
1041.112662113181
 21
402.6605553757779
 31
0.0
  0
LINE
  5
363
330
19
100
AcDbEntity
  8
SEIHIN
  6
CONTINUOUS
 62
     3
100
AcDbLine
 10
1041.612662113181
 20
362.6605553757779
 30
0.0
 11
1041.612662113181
 21
366.6605553757779
 31
0.0
  0
ARC
  5
364
330
19
100
AcDbEntity
  8
SEIHIN
  6
CONTINUOUS
 62
     3
100
AcDbCircle
 10
1034.912662113181
 20
402.6605553757779
 30
0.0
 40
5.0
100
AcDbArc
 50
0.0
 51
90.0
  0
ARC
  5
365
330
19
100
AcDbEntity
  8
SEIHIN
  6
CONTINUOUS
 62
     3
100
AcDbCircle
 10
1024.993362113181
 20
412.6605553757778
 30
0.0
 40
5.000011999999999
100
AcDbArc
 50
186.910538
 51
270.0
  0
LINE
  5
366
330
19
100
AcDbEntity
  8
SEIHIN
  6
CONTINUOUS
 62
     3
100
AcDbLine
 10
782.4969621131815
 20
607.2966553757778
 30
0.0
 11
779.2671621131817
 21
606.0048553757777
 31
0.0
  0
ARC
  5
367
330
19
100
AcDbEntity
  8
SEIHIN
  6
CONTINUOUS
 62
     3
100
AcDbCircle
 10
781.9398621131815
 20
608.6895553757777
 30
0.0
 40
1.499962
100
AcDbArc
 50
291.802119
 51
358.089702
  0
ARC
  5
368
330
19
100
AcDbEntity
  8
SEIHIN
  6
CONTINUOUS
 62
     3
100
AcDbCircle
 10
779.8242621131817
 20
604.6122553757778
 30
0.0
 40
1.499987999999999
100
AcDbArc
 50
111.8021189999999
 51
175.2350889999999
  0
LINE
  5
369
330
19
100
AcDbEntity
  8
SEIHIN
  6
CONTINUOUS
 62
     3
100
AcDbLine
 10
802.4969621131814
 20
607.2966553757778
 30
0.0
 11
799.2671621131817
 21
606.0047553757778
 31
0.0
  0
ARC
  5
36A
330
19
100
AcDbEntity
  8
SEIHIN
  6
CONTINUOUS
 62
     3
100
AcDbCircle
 10
801.9398621131815
 20
608.6895553757777
 30
0.0
 40
1.499962
100
AcDbArc
 50
291.802119
 51
358.089702
  0
ARC
  5
36B
330
19
100
AcDbEntity
  8
SEIHIN
  6
CONTINUOUS
 62
     3
100
AcDbCircle
 10
799.8242621131817
 20
604.6121553757778
 30
0.0
 40
1.499987999999999
100
AcDbArc
 50
111.8021189999999
 51
175.2350889999999
  0
LINE
  5
36C
330
19
100
AcDbEntity
  8
SEIHIN
  6
CONTINUOUS
 62
     3
100
AcDbLine
 10
995.7378621131816
 20
605.9904553757778
 30
0.0
 11
992.4721621131816
 21
607.2968553757777
 31
0.0
  0
ARC
  5
36D
330
19
100
AcDbEntity
  8
SEIHIN
  6
CONTINUOUS
 62
     3
100
AcDbCircle
 10
993.0291621131816
 20
608.6895553757777
 30
0.0
 40
1.499962
100
AcDbArc
 50
181.9102979999999
 51
248.197881
  0
ARC
  5
36E
330
19
100
AcDbEntity
  8
SEIHIN
  6
CONTINUOUS
 62
     3
100
AcDbCircle
 10
995.1807621131816
 20
604.5977553757778
 30
0.0
 40
1.499995
100
AcDbArc
 50
6.911341999999999
 51
68.19788100000001
  0
LINE
  5
36F
330
19
100
AcDbEntity
  8
SEIHIN
  6
CONTINUOUS
 62
     3
100
AcDbLine
 10
1037.737862113181
 20
605.9904553757778
 30
0.0
 11
1034.472162113181
 21
607.2968553757777
 31
0.0
  0
ARC
  5
370
330
19
100
AcDbEntity
  8
SEIHIN
  6
CONTINUOUS
 62
     3
100
AcDbCircle
 10
1035.029162113181
 20
608.6895553757777
 30
0.0
 40
1.499962
100
AcDbArc
 50
181.9102979999999
 51
248.197881
  0
ARC
  5
371
330
19
100
AcDbEntity
  8
SEIHIN
  6
CONTINUOUS
 62
     3
100
AcDbCircle
 10
1037.180762113181
 20
604.5977553757778
 30
0.0
 40
1.499995
100
AcDbArc
 50
6.911341999999999
 51
68.19788100000001
  0
LINE
  5
372
330
19
100
AcDbEntity
  8
CENTR_L
  6
CENTER
 62
     1
 48
5.0
100
AcDbLine
 10
1085.562962113181
 20
383.9690237192549
 30
0.0
 11
1085.562962113181
 21
449.7126553757778
 31
0.0
  0
LINE
  5
374
330
19
100
AcDbEntity
  8
SEIHIN
  6
CONTINUOUS
 62
     3
100
AcDbLine
 10
1128.512862113181
 20
337.6605553757779
 30
0.0
 11
1128.512862113181
 21
362.6605553757779
 31
0.0
  0
LINE
  5
375
330
19
100
AcDbEntity
  8
CENTR_L
  6
CENTER
 62
     1
 48
5.0
100
AcDbLine
 10
1093.062962113181
 20
318.5549266414059
 30
0.0
 11
1093.062962113181
 21
381.7668553757778
 31
0.0
  0
LINE
  5
37C
330
19
100
AcDbEntity
  8
SEIHIN
  6
CONTINUOUS
 62
     3
100
AcDbLine
 10
1093.063062113181
 20
337.6605553757779
 30
0.0
 11
1128.512862113181
 21
337.6605553757779
 31
0.0
  0
LINE
  5
37F
330
19
100
AcDbEntity
  8
SEIHIN
  6
CONTINUOUS
 62
     3
100
AcDbLine
 10
1085.563162113181
 20
402.6605553757779
 30
0.0
 11
1131.212862113181
 21
402.6605553757779
 31
0.0
  0
LINE
  5
380
330
19
100
AcDbEntity
  8
SEIHIN
  6
CONTINUOUS
 62
     3
100
AcDbLine
 10
1085.563162113181
 20
366.6605553757779
 30
0.0
 11
1130.012862113181
 21
366.6605553757779
 31
0.0
  0
LINE
  5
381
330
19
100
AcDbEntity
  8
SEIHIN
  6
CONTINUOUS
 62
     3
100
AcDbLine
 10
1085.563062113181
 20
362.6605553757779
 30
0.0
 11
1129.512862113181
 21
362.6605553757779
 31
0.0
  0
LINE
  5
382
330
19
100
AcDbEntity
  8
SEIHIN
  6
CONTINUOUS
 62
     3
100
AcDbLine
 10
1130.012862113181
 20
366.6605553757779
 30
0.0
 11
1130.012862113181
 21
402.6605553757779
 31
0.0
  0
LINE
  5
383
330
19
100
AcDbEntity
  8
SEIHIN
  6
CONTINUOUS
 62
     3
100
AcDbLine
 10
1129.512862113181
 20
362.6605553757779
 30
0.0
 11
1129.512862113181
 21
366.6605553757779
 31
0.0
  0
ARC
  5
384
330
19
100
AcDbEntity
  8
SEIHIN
  6
CONTINUOUS
 62
     3
100
AcDbCircle
 10
1155.606862113181
 20
412.6605553757778
 30
0.0
 40
4.999594999999999
100
AcDbArc
 50
270.0
 51
359.50144
  0
ARC
  5
385
330
19
100
AcDbEntity
  8
SEIHIN
  6
CONTINUOUS
 62
     3
100
AcDbCircle
 10
1136.212862113181
 20
402.6605553757779
 30
0.0
 40
5.0
100
AcDbArc
 50
90.0
 51
180.0
  0
LINE
  5
38C
330
19
100
AcDbEntity
  8
SEIHIN
  6
CONTINUOUS
 62
     3
100
AcDbLine
 10
779.6060621131816
 20
849.8588553757778
 30
0.0
 11
779.6062621131816
 21
947.2701553757779
 31
0.0
  0
LINE
  5
38D
330
19
100
AcDbEntity
  8
SEIHIN
  6
CONTINUOUS
 62
     3
100
AcDbLine
 10
800.9621621131817
 20
827.4888553757778
 30
0.0
 11
800.9623621131815
 21
949.2482553757778
 31
0.0
  0
LINE
  5
38E
330
19
100
AcDbEntity
  8
SEIHIN
  6
CONTINUOUS
 62
     3
100
AcDbLine
 10
801.9050621131816
 20
827.2758553757778
 30
0.0
 11
801.9052621131816
 21
949.2482553757778
 31
0.0
  0
LINE
  5
38F
330
19
100
AcDbEntity
  8
SEIHIN
  6
CONTINUOUS
 62
     3
100
AcDbLine
 10
804.4066621131817
 20
827.8773553757778
 30
0.0
 11
804.4068621131817
 21
951.7476553757779
 31
0.0
  0
LINE
  5
390
330
19
100
AcDbEntity
  8
SEIHIN
  6
CONTINUOUS
 62
     3
100
AcDbLine
 10
796.0432621131817
 20
828.6029553757778
 30
0.0
 11
796.0434621131817
 21
950.7476553757779
 31
0.0
  0
LINE
  5
392
330
19
100
AcDbEntity
  8
SEIHIN
  6
CONTINUOUS
 62
     3
100
AcDbLine
 10
990.5628621131816
 20
637.6605553757777
 30
0.0
 11
1162.562862113181
 21
637.6605553757777
 31
0.0
  0
LINE
  5
39A
330
19
100
AcDbEntity
  8
SEIHIN
  6
CONTINUOUS
 62
     3
100
AcDbLine
 10
784.1445621131815
 20
791.0425553757778
 30
0.0
 11
800.4764621131817
 21
825.3392553757779
 31
0.0
  0
LINE
  5
39B
330
19
100
AcDbEntity
  8
SEIHIN
  6
CONTINUOUS
 62
     3
100
AcDbLine
 10
784.7400621131817
 20
790.1000553757778
 30
0.0
 11
801.4193621131816
 21
825.1262553757779
 31
0.0
  0
LINE
  5
39C
330
19
100
AcDbEntity
  8
SEIHIN
  6
CONTINUOUS
 62
     3
100
AcDbLine
 10
803.9209621131815
 20
825.7275553757777
 30
0.0
 11
785.7637621131816
 21
787.5979553757778
 31
0.0
  0
LINE
  5
39D
330
19
100
AcDbEntity
  8
SEIHIN
  6
CONTINUOUS
 62
     3
100
AcDbLine
 10
781.0092621131816
 20
795.9021553757779
 30
0.0
 11
795.5575621131815
 21
826.4532553757778
 31
0.0
  0
ARC
  5
39E
330
19
100
AcDbEntity
  8
SEIHIN
  6
CONTINUOUS
 62
     3
100
AcDbCircle
 10
779.6302621131817
 20
793.1923553757777
 30
0.0
 40
4.999983999999999
100
AcDbArc
 50
270.0
 51
334.537345
  0
ARC
  5
39F
330
19
100
AcDbEntity
  8
SEIHIN
  6
CONTINUOUS
 62
     3
100
AcDbCircle
 10
780.2256621131816
 20
792.2495553757778
 30
0.0
 40
4.999983999999999
100
AcDbArc
 50
270.0
 51
334.537345
  0
ARC
  5
3A0
330
19
100
AcDbEntity
  8
SEIHIN
  6
CONTINUOUS
 62
     3
100
AcDbCircle
 10
781.2494621131816
 20
789.7477553757778
 30
0.0
 40
5.000005999999999
100
AcDbArc
 50
270.0
 51
334.53631
  0
LINE
  5
3A1
330
19
100
AcDbEntity
  8
SEIHIN
  6
CONTINUOUS
 62
     3
100
AcDbLine
 10
779.6060621131816
 20
848.6475553757779
 30
0.0
 11
795.3228621131816
 21
828.2955553757778
 31
0.0
  0
ARC
  5
3A2
330
19
100
AcDbEntity
  8
SEIHIN
  6
CONTINUOUS
 62
     3
100
AcDbCircle
 10
774.6060621131817
 20
849.8588553757778
 30
0.0
 40
5.000005
100
AcDbArc
 50
332.7651379999999
 51
0.0
  0
ARC
  5
3A3
330
19
100
AcDbEntity
  8
SEIHIN
  6
CONTINUOUS
 62
     3
100
AcDbCircle
 10
795.9621621131816
 20
827.4890553757778
 30
0.0
 40
4.999960999999999
100
AcDbArc
 50
334.535817
 51
0.0
  0
ARC
  5
3A4
330
19
100
AcDbEntity
  8
SEIHIN
  6
CONTINUOUS
 62
     3
100
AcDbCircle
 10
796.9050621131816
 20
827.2758553757778
 30
0.0
 40
5.000005999999999
100
AcDbArc
 50
334.53631
 51
0.0
  0
ARC
  5
3A5
330
19
100
AcDbEntity
  8
SEIHIN
  6
CONTINUOUS
 62
     3
100
AcDbCircle
 10
799.4066621131817
 20
827.8773553757778
 30
0.0
 40
4.999983999999999
100
AcDbArc
 50
334.537345
 51
0.0
  0
ARC
  5
3A6
330
19
100
AcDbEntity
  8
SEIHIN
  6
CONTINUOUS
 62
     3
100
AcDbCircle
 10
791.0432621131818
 20
828.6029553757778
 30
0.0
 40
5.000005999999999
100
AcDbArc
 50
334.53631
 51
0.0
  0
LINE
  5
3A7
330
19
100
AcDbEntity
  8
SEIHIN
  6
CONTINUOUS
 62
     3
100
AcDbLine
 10
798.0432621131817
 20
845.2494553757778
 30
0.0
 11
798.0432621131817
 21
833.2495553757778
 31
0.0
  0
LINE
  5
3A8
330
19
100
AcDbEntity
  8
SEIHIN
  6
CONTINUOUS
 62
     3
100
AcDbLine
 10
796.0432621131817
 20
833.2496553757778
 30
0.0
 11
798.0432621131817
 21
833.2495553757778
 31
0.0
  0
LINE
  5
3A9
330
19
100
AcDbEntity
  8
SEIHIN
  6
CONTINUOUS
 62
     3
100
AcDbLine
 10
796.0432621131817
 20
845.2497553757778
 30
0.0
 11
798.0432621131817
 21
845.2495553757778
 31
0.0
  0
ARC
  5
3AD
330
19
100
AcDbEntity
  8
SEIHIN
  6
CONTINUOUS
 62
     3
100
AcDbCircle
 10
791.0434621131817
 20
949.2483553757777
 30
0.0
 40
4.9999
100
AcDbArc
 50
0.0
 51
90.0
  0
LINE
  5
3AE
330
19
100
AcDbEntity
  8
SEIHIN
  6
CONTINUOUS
 62
     3
100
AcDbLine
 10
798.0434621131816
 20
950.7474553757777
 30
0.0
 11
798.0432621131817
 21
938.7476553757778
 31
0.0
  0
LINE
  5
3AF
330
19
100
AcDbEntity
  8
SEIHIN
  6
CONTINUOUS
 62
     3
100
AcDbLine
 10
798.0434621131816
 20
950.7474553757777
 30
0.0
 11
796.0434621131817
 21
950.7476553757779
 31
0.0
  0
LINE
  5
3B0
330
19
100
AcDbEntity
  8
SEIHIN
  6
CONTINUOUS
 62
     3
100
AcDbLine
 10
798.0432621131817
 20
938.7476553757778
 30
0.0
 11
796.0433621131817
 21
938.7476553757778
 31
0.0
  0
ARC
  5
3B1
330
19
100
AcDbEntity
  8
SEIHIN
  6
CONTINUOUS
 62
     3
100
AcDbCircle
 10
795.9623621131815
 20
949.2483553757777
 30
0.0
 40
4.9999
100
AcDbArc
 50
0.0
 51
90.0
  0
ARC
  5
3B2
330
19
100
AcDbEntity
  8
SEIHIN
  6
CONTINUOUS
 62
     3
100
AcDbCircle
 10
796.9051621131816
 20
949.2482553757778
 30
0.0
 40
4.99995
100
AcDbArc
 50
0.0
 51
90.0
  0
ARC
  5
3B3
330
19
100
AcDbEntity
  8
SEIHIN
  6
CONTINUOUS
 62
     3
100
AcDbCircle
 10
799.4068621131816
 20
951.7476553757779
 30
0.0
 40
4.999749999999999
100
AcDbArc
 50
0.0
 51
90.0
  0
DIMENSION
  5
3D2
330
19
100
AcDbEntity
  8
SUNPOU
  6
CONTINUOUS
100
AcDbDimension
  2
*D1
 10
990.5628621131816
 20
683.684515165
 30
0.0
 11
1076.562862113181
 21
693.684515165
 31
0.0
 12
0.0
 22
70.0
 32
0.0
 70
    32
  3
STANDARD
100
AcDbAlignedDimension
 13
1162.562862113181
 23
637.6605553757777
 33
0.0
 14
990.5628621131816
 24
637.6605553757777
 34
0.0
100
AcDbRotatedDimension
1001
ACAD
1000
DSTYLE
1002
{
1070
   140
1040
12.0
1070
    74
1070
     0
1070
   172
1070
     1
1070
    73
1070
     0
1070
   272
1070
     2
1070
    77
1070
     3
1070
   173
1070
     1
1070
   147
1040
4.0
1070
    42
1040
12.0
1070
    44
1040
6.0
1070
    43
1040
28.0
1070
   271
1070
     0
1070
   178
1070
     4
1070
   177
1070
     4
1070
   176
1070
     4
1070
   141
1040
150.0
1070
     7
1000
_OPEN
1070
     6
1000
_OPEN
1070
    41
1040
14.0
1070
   143
1040
0.03937
1002
}
  0
DIMENSION
  5
3DF
330
19
100
AcDbEntity
  8
SUNPOU
  6
CONTINUOUS
100
AcDbDimension
  2
*D2
 10
574.4064621131817
 20
683.684515165
 30
0.0
 11
689.4064621131816
 21
693.684515165
 31
0.0
 12
-40.0
 22
70.0
 32
0.0
 70
    32
  3
STANDARD
100
AcDbAlignedDimension
 13
804.4064621131814
 23
637.6605553757777
 33
0.0
 14
574.4064621131817
 24
637.6606553757778
 34
0.0
100
AcDbRotatedDimension
1001
ACAD
1000
DSTYLE
1002
{
1070
   140
1040
12.0
1070
    74
1070
     0
1070
   172
1070
     1
1070
    73
1070
     0
1070
   272
1070
     2
1070
    77
1070
     3
1070
   173
1070
     1
1070
   147
1040
4.0
1070
    42
1040
12.0
1070
    44
1040
6.0
1070
    43
1040
28.0
1070
   271
1070
     0
1070
   178
1070
     4
1070
   177
1070
     4
1070
   176
1070
     4
1070
   141
1040
150.0
1070
     7
1000
_OPEN
1070
     6
1000
_OPEN
1070
    41
1040
14.0
1070
   143
1040
0.03937
1002
}
  0
DIMENSION
  5
3ED
330
19
100
AcDbEntity
  8
SUNPOU
  6
CONTINUOUS
100
AcDbDimension
  2
*D3
 10
1093.062962113181
 20
279.3064694599775
 30
0.0
 11
1126.812860567568
 21
289.3064694599775
 31
0.0
 12
0.0
 22
70.0
 32
0.0
 70
    32
  3
STANDARD
100
AcDbAlignedDimension
 13
1160.562759021955
 23
407.6605553757778
 33
0.0
 14
1093.062962113181
 24
318.5549266414059
 34
0.0
100
AcDbRotatedDimension
1001
ACAD
1000
DSTYLE
1002
{
1070
   140
1040
12.0
1070
    74
1070
     0
1070
   172
1070
     1
1070
    73
1070
     0
1070
   272
1070
     2
1070
    77
1070
     3
1070
   173
1070
     1
1070
   147
1040
4.0
1070
    42
1040
12.0
1070
    44
1040
6.0
1070
    43
1040
28.0
1070
   271
1070
     0
1070
   178
1070
     4
1070
   177
1070
     4
1070
   176
1070
     4
1070
   141
1040
150.0
1070
     7
1000
_OPEN
1070
     6
1000
_OPEN
1070
    41
1040
14.0
1070
   143
1040
0.03937
1002
}
  0
DIMENSION
  5
3FA
330
19
100
AcDbEntity
  8
SUNPOU
  6
CONTINUOUS
100
AcDbDimension
  2
*D4
 10
1085.562962113181
 20
235.300622722254
 30
0.0
 11
1123.062860567568
 21
245.300622722254
 31
0.0
 12
0.0
 22
70.0
 32
0.0
 70
    32
  3
STANDARD
100
AcDbAlignedDimension
 13
1160.562759021955
 23
407.6605553757778
 33
0.0
 14
1085.562962113181
 24
383.9690237192549
 34
0.0
100
AcDbRotatedDimension
1001
ACAD
1000
DSTYLE
1002
{
1070
   140
1040
12.0
1070
    74
1070
     0
1070
   172
1070
     1
1070
    73
1070
     0
1070
   272
1070
     2
1070
    77
1070
     3
1070
   173
1070
     1
1070
   147
1040
4.0
1070
    42
1040
12.0
1070
    44
1040
6.0
1070
    43
1040
28.0
1070
   271
1070
     0
1070
   178
1070
     4
1070
   177
1070
     4
1070
   176
1070
     4
1070
   141
1040
150.0
1070
     7
1000
_OPEN
1070
     6
1000
_OPEN
1070
    41
1040
14.0
1070
   143
1040
0.03937
1002
}
  0
DIMENSION
  5
407
330
19
100
AcDbEntity
  8
SUNPOU
  6
CONTINUOUS
100
AcDbDimension
  2
*D5
 10
1020.562798879037
 20
191.2947786477325
 30
0.0
 11
1090.562778950496
 21
201.2947786477325
 31
0.0
 12
0.0
 22
70.0
 32
0.0
 70
    32
  3
STANDARD
100
AcDbAlignedDimension
 13
1160.562759021955
 23
407.6605553757778
 33
0.0
 14
1020.562798879037
 24
407.6605553757778
 34
0.0
100
AcDbRotatedDimension
1001
ACAD
1000
DSTYLE
1002
{
1070
   140
1040
12.0
1070
    74
1070
     0
1070
   172
1070
     1
1070
    73
1070
     0
1070
   272
1070
     2
1070
    77
1070
     3
1070
   173
1070
     1
1070
   147
1040
4.0
1070
    42
1040
12.0
1070
    44
1040
6.0
1070
    43
1040
28.0
1070
   271
1070
     0
1070
   178
1070
     4
1070
   177
1070
     4
1070
   176
1070
     4
1070
   141
1040
150.0
1070
     7
1000
_OPEN
1070
     6
1000
_OPEN
1070
    41
1040
14.0
1070
   143
1040
0.03937
1002
}
  0
DIMENSION
  5
414
330
19
100
AcDbEntity
  8
SUNPOU
  6
CONTINUOUS
100
AcDbDimension
  2
*D6
 10
653.9560621131816
 20
279.3064694599775
 30
0.0
 11
689.4063121131815
 21
289.3064694599775
 31
0.0
 12
-40.0
 22
70.0
 32
0.0
 70
    32
  1
φ<>
  3
STANDARD
100
AcDbAlignedDimension
 13
724.8565621131815
 23
337.6605553757779
 33
0.0
 14
653.9560621131816
 24
337.6605553757779
 34
0.0
100
AcDbRotatedDimension
1001
ACAD
1000
DSTYLE
1002
{
1070
   140
1040
12.0
1070
    74
1070
     0
1070
   172
1070
     1
1070
    73
1070
     0
1070
   272
1070
     2
1070
    77
1070
     3
1070
   173
1070
     1
1070
   147
1040
4.0
1070
    42
1040
12.0
1070
    44
1040
6.0
1070
    43
1040
28.0
1070
   271
1070
     0
1070
   178
1070
     4
1070
   177
1070
     4
1070
   176
1070
     4
1070
   141
1040
150.0
1070
     7
1000
_OPEN
1070
     6
1000
_OPEN
1070
    41
1040
14.0
1070
   143
1040
0.03937
1002
}
  0
DIMENSION
  5
421
330
19
100
AcDbEntity
  8
SUNPOU
  6
CONTINUOUS
100
AcDbDimension
  2
*D7
 10
644.9560621131816
 20
235.300622722254
 30
0.0
 11
689.4063121131815
 21
245.300622722254
 31
0.0
 12
-40.0
 22
70.0
 32
0.0
 70
    32
  1
φ<>
  3
STANDARD
100
AcDbAlignedDimension
 13
733.8565621131815
 23
366.6605553757779
 33
0.0
 14
644.9560621131816
 24
366.6605553757779
 34
0.0
100
AcDbRotatedDimension
1001
ACAD
1000
DSTYLE
1002
{
1070
   140
1040
12.0
1070
    74
1070
     0
1070
   172
1070
     1
1070
    73
1070
     0
1070
   272
1070
     2
1070
    77
1070
     3
1070
   173
1070
     1
1070
   147
1040
4.0
1070
    42
1040
12.0
1070
    44
1040
6.0
1070
    43
1040
28.0
1070
   271
1070
     0
1070
   178
1070
     4
1070
   177
1070
     4
1070
   176
1070
     4
1070
   141
1040
150.0
1070
     7
1000
_OPEN
1070
     6
1000
_OPEN
1070
    41
1040
14.0
1070
   143
1040
0.03937
1002
}
  0
DIMENSION
  5
42E
330
19
100
AcDbEntity
  8
SUNPOU
  6
CONTINUOUS
100
AcDbDimension
  2
*D8
 10
596.9064273904536
 20
191.2947786477325
 30
0.0
 11
689.4063650889494
 21
201.2947786477325
 31
0.0
 12
-40.0
 22
70.0
 32
0.0
 70
    32
  3
STANDARD
100
AcDbAlignedDimension
 13
781.9063027874451
 23
407.6605553757778
 33
0.0
 14
596.9064273904536
 24
407.6605553757778
 34
0.0
100
AcDbRotatedDimension
1001
ACAD
1000
DSTYLE
1002
{
1070
   140
1040
12.0
1070
    74
1070
     0
1070
   172
1070
     1
1070
    73
1070
     0
1070
   272
1070
     2
1070
    77
1070
     3
1070
   173
1070
     1
1070
   147
1040
4.0
1070
    42
1040
12.0
1070
    44
1040
6.0
1070
    43
1040
28.0
1070
   271
1070
     0
1070
   178
1070
     4
1070
   177
1070
     4
1070
   176
1070
     4
1070
   141
1040
150.0
1070
     7
1000
_OPEN
1070
     6
1000
_OPEN
1070
    41
1040
14.0
1070
   143
1040
0.03937
1002
}
  0
DIMENSION
  5
4E9
330
19
100
AcDbEntity
  8
SUNPOU
  6
CONTINUOUS
100
AcDbDimension
  2
*D9
 10
850.5099440232925
 20
407.6605553757778
 30
0.0
 11
840.5099440232925
 21
522.6605553757779
 31
0.0
 70
    32
  3
STANDARD
100
AcDbAlignedDimension
 13
804.4064621131814
 23
637.6605553757777
 33
0.0
 14
777.3056621131815
 24
407.6605553757778
 34
0.0
 50
90.0
100
AcDbRotatedDimension
1001
ACAD
1000
DSTYLE
1002
{
1070
   140
1040
12.0
1070
    74
1070
     0
1070
   172
1070
     1
1070
    73
1070
     0
1070
   272
1070
     2
1070
    77
1070
     3
1070
   173
1070
     1
1070
   147
1040
4.0
1070
    42
1040
12.0
1070
    44
1040
6.0
1070
    43
1040
28.0
1070
   271
1070
     0
1070
   178
1070
     4
1070
   177
1070
     4
1070
   176
1070
     4
1070
   141
1040
150.0
1070
     7
1000
_OPEN
1070
     6
1000
_OPEN
1070
    41
1040
14.0
1070
   143
1040
0.03937
1002
}
  0
DIMENSION
  5
4F7
330
19
100
AcDbEntity
  8
SUNPOU
  6
CONTINUOUS
100
AcDbDimension
  2
*D10
 10
850.5099440232925
 20
362.6605553757779
 30
0.0
 11
840.5099440232925
 21
385.1605553757778
 31
0.0
 70
    32
  3
STANDARD
100
AcDbAlignedDimension
 13
777.3056621131815
 23
407.6605553757778
 33
0.0
 14
733.3565621131815
 24
362.6605553757779
 34
0.0
 50
90.0
100
AcDbRotatedDimension
1001
ACAD
1000
DSTYLE
1002
{
1070
   140
1040
12.0
1070
    74
1070
     0
1070
   172
1070
     1
1070
    73
1070
     0
1070
   272
1070
     2
1070
    77
1070
     3
1070
    75
1070
     1
1070
   173
1070
     1
1070
   147
1040
4.0
1070
    42
1040
12.0
1070
    44
1040
6.0
1070
    43
1040
28.0
1070
   271
1070
     0
1070
   178
1070
     4
1070
   177
1070
     4
1070
   176
1070
     4
1070
   141
1040
150.0
1070
     7
1000
_OPEN
1070
     6
1000
_OPEN
1070
    41
1040
14.0
1070
   143
1040
0.03937
1002
}
  0
DIMENSION
  5
507
330
19
100
AcDbEntity
  8
SUNPOU
  6
CONTINUOUS
100
AcDbDimension
  2
*D11
 10
850.5099440232925
 20
337.6605553757779
 30
0.0
 11
840.5099440232925
 21
295.6605553757778
 31
0.0
 70
    32
  3
STANDARD
100
AcDbAlignedDimension
 13
733.3565621131815
 23
362.6605553757779
 33
0.0
 14
724.8564621131816
 24
337.6605553757779
 34
0.0
 50
90.0
100
AcDbRotatedDimension
1001
ACAD
1000
DSTYLE
1002
{
1070
   140
1040
12.0
1070
    74
1070
     0
1070
   172
1070
     1
1070
    73
1070
     0
1070
   272
1070
     2
1070
    77
1070
     3
1070
    75
1070
     1
1070
   173
1070
     1
1070
   280
1070
     2
1070
   147
1040
4.0
1070
    42
1040
12.0
1070
    44
1040
6.0
1070
    43
1040
28.0
1070
   271
1070
     0
1070
   178
1070
     4
1070
   177
1070
     4
1070
   176
1070
     4
1070
   141
1040
150.0
1070
     7
1000
_OPEN
1070
     6
1000
_OPEN
1070
    41
1040
14.0
1070
   143
1040
0.03937
1002
}
  0
DIMENSION
  5
514
330
19
100
AcDbEntity
  8
SUNPOU
  6
CONTINUOUS
100
AcDbDimension
  2
*D12
 10
892.3613177366688
 20
337.6605553757779
 30
0.0
 11
882.3613177366688
 21
487.6605553757778
 31
0.0
 70
    32
  3
STANDARD
100
AcDbAlignedDimension
 13
804.4064621131814
 23
637.6605553757777
 33
0.0
 14
724.8564621131816
 24
337.6605553757779
 34
0.0
 50
90.0
100
AcDbRotatedDimension
1001
ACAD
1000
DSTYLE
1002
{
1070
   140
1040
12.0
1070
    74
1070
     0
1070
   172
1070
     1
1070
    73
1070
     0
1070
   272
1070
     2
1070
    77
1070
     3
1070
   173
1070
     1
1070
   147
1040
4.0
1070
    42
1040
12.0
1070
    44
1040
6.0
1070
    43
1040
28.0
1070
   271
1070
     0
1070
   178
1070
     4
1070
   177
1070
     4
1070
   176
1070
     4
1070
   141
1040
150.0
1070
     7
1000
_OPEN
1070
     6
1000
_OPEN
1070
    41
1040
14.0
1070
   143
1040
0.03937
1002
}
  0
VIEWPORT
  5
22
330
16
100
AcDbEntity
 67
     1
  8
0
100
AcDbViewport
 10
313.6808219178082
 20
148.5
 30
0.0
 40
627.3616438356165
 41
297.0
 68
     2
 69
     1
1001
ACAD
1000
MVIEW
1002
{
1070
    16
1010
0.0
1020
0.0
1030
0.0
1010
0.0
1020
0.0
1030
1.0
1040
0.0
1040
297.0
1040
313.6808219178082
1040
148.5
1040
50.0
1040
0.0
1040
0.0
1070
     0
1070
   100
1070
     1
1070
     0
1070
     0
1070
     0
1070
     0
1070
     0
1040
0.0
1040
0.0
1040
0.0
1040
10.0
1040
10.0
1040
10.0
1040
10.0
1070
     0
1002
{
1002
}
1002
}
  0
VIEWPORT
  5
25
330
16
100
AcDbEntity
 67
     1
  8
VIEWPORT
100
AcDbViewport
 10
210.0
 20
148.5
 30
0.0
 40
420.0
 41
297.0
 68
     1
 69
     2
1001
ACAD
1000
MVIEW
1002
{
1070
    16
1010
0.0
1020
0.0
1030
0.0
1010
0.0
1020
0.0
1030
1.0
1040
0.0
1040
1212.607689320388
1040
841.0
1040
594.0
1040
50.0
1040
0.0
1040
0.0
1070
     0
1070
   100
1070
     1
1070
     0
1070
     0
1070
     0
1070
     0
1070
     0
1040
0.0
1040
0.0
1040
0.0
1040
57.0
1040
57.0
1040
57.0
1040
57.0
1070
     0
1002
{
1002
}
1002
}
  0
ENDSEC
  0
SECTION
  2
OBJECTS
  0
DICTIONARY
  5
C
330
0
100
AcDbDictionary
  3
ACAD_GROUP
350
D
  3
ACAD_LAYOUT
350
582
  3
ACAD_MLINESTYLE
350
E
  3
ACAD_PLOTSETTINGS
350
583
1001
ACAD
1000
TREAT_AS_HARD
1070
     0
  0
DICTIONARY
  5
5AF
330
19
100
AcDbDictionary
  3
ACAD_LAYOUTSELFREF
350
5F3
1001
ACAD
1000
TREAT_AS_HARD
1070
     1
  0
DICTIONARY
  5
5AD
330
16
100
AcDbDictionary
  3
ACAD_LAYOUTSELFREF
350
5F2
1001
ACAD
1000
TREAT_AS_HARD
1070
     1
  0
DICTIONARY
  5
D
102
{ACAD_REACTORS
330
C
102
}
330
C
100
AcDbDictionary
1001
ACAD
1000
TREAT_AS_HARD
1070
     0
  0
DICTIONARY
  5
582
102
{ACAD_REACTORS
330
C
102
}
330
C
100
AcDbDictionary
1001
ACAD
1000
TREAT_AS_HARD
1070
     0
  0
DICTIONARY
  5
E
102
{ACAD_REACTORS
330
C
102
}
330
C
100
AcDbDictionary
  3
STANDARD
350
1C
1001
ACAD
1000
TREAT_AS_HARD
1070
     0
  0
DICTIONARY
  5
583
102
{ACAD_REACTORS
330
C
102
}
330
C
100
AcDbDictionary
1001
ACAD
1000
TREAT_AS_HARD
1070
     0
  0
XRECORD
  5
5F3
102
{ACAD_REACTORS
330
5AF
102
}
330
5AF
100
AcDbXrecord
340
19
  0
XRECORD
  5
5F2
102
{ACAD_REACTORS
330
5AD
102
}
330
5AD
100
AcDbXrecord
340
16
  0
MLINESTYLE
  5
1C
102
{ACAD_REACTORS
330
E
102
}
330
E
100
AcDbMlineStyle
  2
STANDARD
 70
     0
  3

 62
     0
 51
90.0
 52
90.0
 71
     2
 49
0.5
 62
   256
  6
BYLAYER
 49
-0.5
 62
   256
  6
BYLAYER
  0
ENDSEC
  0
EOF
