  0
SECTION
  2
HEADER
  9
$ACADVER
  1
AC1012
  9
$DWGCODEPAGE
  3
dos932
  9
$INSBASE
 10
0.0
 20
0.0
 30
0.0
  9
$EXTMIN
 10
10.05047808566086
 20
4.949376903717846
 30
0.0
  9
$EXTMAX
 10
806.2246110975902
 20
563.7825862828226
 30
0.0
  9
$LIMMIN
 10
0.0
 20
0.0
  9
$LIMMAX
 10
840.0
 20
594.0
  9
$ORTHOMODE
 70
     0
  9
$REGENMODE
 70
     1
  9
$FILLMODE
 70
     1
  9
$QTEXTMODE
 70
     0
  9
$MIRRTEXT
 70
     1
  9
$DRAGMODE
 70
     2
  9
$LTSCALE
 40
2.0
  9
$OSMODE
 70
    37
  9
$ATTMODE
 70
     1
  9
$TEXTSIZE
 40
5.0
  9
$TRACEWID
 40
1.0
  9
$TEXTSTYLE
  7
STANDARD
  9
$CLAYER
  8
SUNPOU
  9
$CELTYPE
  6
BYLAYER
  9
$CECOLOR
 62
   256
  9
$CELTSCALE
 40
1.0
  9
$DELOBJ
 70
     1
  9
$DISPSILH
 70
     0
  9
$DIMSCALE
 40
1.0
  9
$DIMASZ
 40
7.0
  9
$DIMEXO
 40
6.0
  9
$DIMDLI
 40
14.0
  9
$DIMRND
 40
0.0
  9
$DIMDLE
 40
0.0
  9
$DIMEXE
 40
3.0
  9
$DIMTP
 40
0.0
  9
$DIMTM
 40
0.0
  9
$DIMTXT
 40
6.0
  9
$DIMCEN
 40
150.0
  9
$DIMTSZ
 40
0.0
  9
$DIMTOL
 70
     0
  9
$DIMLIM
 70
     0
  9
$DIMTIH
 70
     0
  9
$DIMTOH
 70
     0
  9
$DIMSE1
 70
     0
  9
$DIMSE2
 70
     0
  9
$DIMTAD
 70
     3
  9
$DIMZIN
 70
     0
  9
$DIMBLK
  1

  9
$DIMASO
 70
     1
  9
$DIMSHO
 70
     1
  9
$DIMPOST
  1

  9
$DIMAPOST
  1

  9
$DIMALT
 70
     0
  9
$DIMALTD
 70
     2
  9
$DIMALTF
 40
25.4
  9
$DIMLFAC
 40
1.0
  9
$DIMTOFL
 70
     1
  9
$DIMTVP
 40
0.0
  9
$DIMTIX
 70
     0
  9
$DIMSOXD
 70
     0
  9
$DIMSAH
 70
     1
  9
$DIMBLK1
  1
OPEN
  9
$DIMBLK2
  1
OPEN
  9
$DIMSTYLE
  2
STANDARD
  9
$DIMCLRD
 70
   256
  9
$DIMCLRE
 70
   256
  9
$DIMCLRT
 70
   256
  9
$DIMTFAC
 40
1.0
  9
$DIMGAP
 40
2.0
  9
$DIMJUST
 70
     0
  9
$DIMSD1
 70
     0
  9
$DIMSD2
 70
     0
  9
$DIMTOLJ
 70
     1
  9
$DIMTZIN
 70
     0
  9
$DIMALTZ
 70
     0
  9
$DIMALTTZ
 70
     0
  9
$DIMFIT
 70
     3
  9
$DIMUPT
 70
     0
  9
$DIMUNIT
 70
     2
  9
$DIMDEC
 70
     0
  9
$DIMTDEC
 70
     0
  9
$DIMALTU
 70
     2
  9
$DIMALTTD
 70
     2
  9
$DIMTXSTY
  7
STANDARD
  9
$DIMAUNIT
 70
     0
  9
$LUNITS
 70
     2
  9
$LUPREC
 70
     4
  9
$SKETCHINC
 40
1.0
  9
$FILLETRAD
 40
20.0
  9
$AUNITS
 70
     0
  9
$AUPREC
 70
     0
  9
$MENU
  1
.
  9
$ELEVATION
 40
0.0
  9
$PELEVATION
 40
0.0
  9
$THICKNESS
 40
0.0
  9
$LIMCHECK
 70
     0
  9
$BLIPMODE
 70
     0
  9
$CHAMFERA
 40
20.0
  9
$CHAMFERB
 40
20.0
  9
$CHAMFERC
 40
40.0
  9
$CHAMFERD
 40
0.0
  9
$SKPOLY
 70
     0
  9
$TDCREATE
 40
2451275.635728704
  9
$TDUPDATE
 40
2452393.719059907
  9
$TDINDWG
 40
0.0716957060
  9
$TDUSRTIMER
 40
0.0716957060
  9
$USRTIMER
 70
     1
  9
$ANGBASE
 50
0.0
  9
$ANGDIR
 70
     0
  9
$PDMODE
 70
     0
  9
$PDSIZE
 40
0.0
  9
$PLINEWID
 40
0.0
  9
$COORDS
 70
     1
  9
$SPLFRAME
 70
     0
  9
$SPLINETYPE
 70
     6
  9
$SPLINESEGS
 70
     8
  9
$ATTDIA
 70
     0
  9
$ATTREQ
 70
     1
  9
$HANDLING
 70
 10241
  9
$HANDSEED
  5
BF9
  9
$SURFTAB1
 70
     6
  9
$SURFTAB2
 70
     6
  9
$SURFTYPE
 70
     6
  9
$SURFU
 70
     6
  9
$SURFV
 70
     6
  9
$UCSNAME
  2

  9
$UCSORG
 10
0.0
 20
0.0
 30
0.0
  9
$UCSXDIR
 10
1.0
 20
0.0
 30
0.0
  9
$UCSYDIR
 10
0.0
 20
1.0
 30
0.0
  9
$PUCSNAME
  2

  9
$PUCSORG
 10
0.0
 20
0.0
 30
0.0
  9
$PUCSXDIR
 10
1.0
 20
0.0
 30
0.0
  9
$PUCSYDIR
 10
0.0
 20
1.0
 30
0.0
  9
$USERI1
 70
     0
  9
$USERI2
 70
     0
  9
$USERI3
 70
     0
  9
$USERI4
 70
     0
  9
$USERI5
 70
     0
  9
$USERR1
 40
0.0
  9
$USERR2
 40
0.0
  9
$USERR3
 40
0.0
  9
$USERR4
 40
0.0
  9
$USERR5
 40
0.0
  9
$WORLDVIEW
 70
     1
  9
$SHADEDGE
 70
     3
  9
$SHADEDIF
 70
    70
  9
$TILEMODE
 70
     1
  9
$MAXACTVP
 70
    16
  9
$PINSBASE
 10
0.0
 20
0.0
 30
0.0
  9
$PLIMCHECK
 70
     0
  9
$PEXTMIN
 10
0.0
 20
0.0
 30
0.0
  9
$PEXTMAX
 10
420.0
 20
297.0
 30
0.0
  9
$PLIMMIN
 10
0.0
 20
0.0
  9
$PLIMMAX
 10
420.0
 20
297.0
  9
$UNITMODE
 70
     0
  9
$VISRETAIN
 70
     0
  9
$PLINEGEN
 70
     0
  9
$PSLTSCALE
 70
     1
  9
$TREEDEPTH
 70
  3020
  9
$PICKSTYLE
 70
     1
  9
$CMLSTYLE
  2
STANDARD
  9
$CMLJUST
 70
     0
  9
$CMLSCALE
 40
1.0
  9
$SAVEIMAGES
 70
     1
  0
ENDSEC
  0
SECTION
  2
CLASSES
  0
CLASS
  1
ACDBDICTIONARYWDFLT
  2
AcDbDictionaryWithDefault
  3
AutoCAD 2000
 90
    32768
280
     0
281
     0
  0
CLASS
  1
ACDBPLACEHOLDER
  2
AcDbPlaceHolder
  3
AutoCAD 2000
 90
    32768
280
     0
281
     0
  0
CLASS
  1
LAYOUT
  2
AcDbLayout
  3
AutoCAD 2000
 90
    32768
280
     0
281
     0
  0
CLASS
  1
LONG_TRANSACTION
  2
AcDbLongTransaction
  3
AutoCAD 2000
 90
    32768
280
     0
281
     0
  0
CLASS
  1
LWPOLYLINE
  2
AcDbPolyline
  3
AutoCAD 2000
 90
    32768
280
     0
281
     1
  0
CLASS
  1
HATCH
  2
AcDbHatch
  3
AutoCAD 2000
 90
    32768
280
     0
281
     1
  0
CLASS
  1
XRECORD
  2
AcDbXrecord
  3
AutoCAD 2000
 90
    32768
280
     0
281
     0
  0
CLASS
  1
LONG_TRANSACTION
  2
AcDbLongTransaction
  3
AutoCAD 2000
 90
    32768
280
     0
281
     0
  0
CLASS
  1
LWPOLYLINE
  2
AcDbPolyline
  3
AutoCAD 2000
 90
    32768
280
     0
281
     1
  0
CLASS
  1
HATCH
  2
AcDbHatch
  3
AutoCAD 2000
 90
    32768
280
     0
281
     1
  0
CLASS
  1
XRECORD
  2
AcDbXrecord
  3
AutoCAD 2000
 90
    32768
280
     0
281
     0
  0
CLASS
  1
LONG_TRANSACTION
  2
AcDbLongTransaction
  3
AutoCAD 2000
 90
    32768
280
     0
281
     0
  0
CLASS
  1
LWPOLYLINE
  2
AcDbPolyline
  3
AutoCAD 2000
 90
    32768
280
     0
281
     1
  0
CLASS
  1
HATCH
  2
AcDbHatch
  3
AutoCAD 2000
 90
    32768
280
     0
281
     1
  0
CLASS
  1
XRECORD
  2
AcDbXrecord
  3
AutoCAD 2000
 90
    32768
280
     0
281
     0
  0
ENDSEC
  0
SECTION
  2
TABLES
  0
TABLE
  2
VPORT
  5
8
330
0
100
AcDbSymbolTable
 70
     2
  0
VPORT
  5
BF6
330
8
100
AcDbSymbolTableRecord
100
AcDbViewportTableRecord
  2
*ACTIVE
 70
     0
 10
0.0
 20
0.0
 11
1.0
 21
1.0
 12
531.1948183232287
 22
288.5468908502145
 13
0.0
 23
0.0
 14
5.0
 24
5.0
 15
0.0
 25
0.0
 16
0.0
 26
0.0
 36
1.0
 17
0.0
 27
0.0
 37
0.0
 40
575.1899167141969
 41
2.169459962756052
 42
50.0
 43
0.0
 44
0.0
 50
0.0
 51
0.0
 71
     0
 72
   100
 73
     1
 74
     0
 75
     0
 76
     0
 77
     0
 78
     0
  0
ENDTAB
  0
TABLE
  2
LTYPE
  5
5
330
0
100
AcDbSymbolTable
 70
     2
  0
LTYPE
  5
14
330
5
100
AcDbSymbolTableRecord
100
AcDbLinetypeTableRecord
  2
BYBLOCK
 70
     0
  3

 72
    65
 73
     0
 40
0.0
  0
LTYPE
  5
15
330
5
100
AcDbSymbolTableRecord
100
AcDbLinetypeTableRecord
  2
BYLAYER
 70
     0
  3

 72
    65
 73
     0
 40
0.0
  0
LTYPE
  5
16
330
5
100
AcDbSymbolTableRecord
100
AcDbLinetypeTableRecord
  2
CONTINUOUS
 70
     0
  3
Solid line
 72
    65
 73
     0
 40
0.0
  0
LTYPE
  5
135
330
5
100
AcDbSymbolTableRecord
100
AcDbLinetypeTableRecord
  2
CENTER
 70
     0
  3
____ _ ____ _ ____ _ ____ _ ____ _ ____ _ ____ 
 72
    65
 73
     4
 40
2.0
 49
1.25
 74
     0
 49
-0.25
 74
     0
 49
0.25
 74
     0
 49
-0.25
 74
     0
  0
ENDTAB
  0
TABLE
  2
LAYER
  5
2
330
0
100
AcDbSymbolTable
 70
     8
  0
LAYER
  5
F
330
2
100
AcDbSymbolTableRecord
100
AcDbLayerTableRecord
  2
0
 70
     0
 62
     7
  6
CONTINUOUS
  0
LAYER
  5
62
330
2
100
AcDbSymbolTableRecord
100
AcDbLayerTableRecord
  2
VIEWPORT
 70
     0
 62
     7
  6
CONTINUOUS
  0
LAYER
  5
65
330
2
100
AcDbSymbolTableRecord
100
AcDbLayerTableRecord
  2
ZUWAKU
 70
     0
 62
     7
  6
CONTINUOUS
  0
LAYER
  5
143
330
2
100
AcDbSymbolTableRecord
100
AcDbLayerTableRecord
  2
SEIHIN
 70
     0
 62
     3
  6
CONTINUOUS
  0
LAYER
  5
144
330
2
100
AcDbSymbolTableRecord
100
AcDbLayerTableRecord
  2
SUNPOU
 70
     0
 62
     4
  6
CONTINUOUS
  0
LAYER
  5
145
330
2
100
AcDbSymbolTableRecord
100
AcDbLayerTableRecord
  2
CENTER_L
 70
     0
 62
     1
  6
CENTER
  0
LAYER
  5
889
330
2
100
AcDbSymbolTableRecord
100
AcDbLayerTableRecord
  2
DEFPOINTS
 70
     0
 62
     7
  6
CONTINUOUS
  0
LAYER
  5
A0C
330
2
100
AcDbSymbolTableRecord
100
AcDbLayerTableRecord
  2
NOKITOI
 70
     0
 62
     6
  6
CONTINUOUS
  0
ENDTAB
  0
TABLE
  2
STYLE
  5
3
330
0
100
AcDbSymbolTable
 70
     1
  0
STYLE
  5
10
330
3
100
AcDbSymbolTableRecord
100
AcDbTextStyleTableRecord
  2
STANDARD
 70
     0
 40
0.0
 41
1.0
 50
0.0
 71
     0
 42
5.0
  3
TXT
  4
bigfont.shx
  0
ENDTAB
  0
TABLE
  2
VIEW
  5
6
330
0
100
AcDbSymbolTable
 70
     0
  0
ENDTAB
  0
TABLE
  2
UCS
  5
7
330
0
100
AcDbSymbolTable
 70
     0
  0
ENDTAB
  0
TABLE
  2
APPID
  5
9
330
0
100
AcDbSymbolTable
 70
     1
  0
APPID
  5
11
330
9
100
AcDbSymbolTableRecord
100
AcDbRegAppTableRecord
  2
ACAD
 70
     0
  0
ENDTAB
  0
TABLE
  2
DIMSTYLE
  5
A
330
0
100
AcDbSymbolTable
 70
     1
  0
DIMSTYLE
105
1D
102
{ACAD_REACTORS
330
88E
330
8AA
330
8B7
330
8C4
330
8D1
330
8DE
330
96C
330
979
330
993
330
9E2
330
A19
330
A58
330
AB7
102
}
330
A
100
AcDbSymbolTableRecord
100
AcDbDimStyleTableRecord
  2
STANDARD
 70
     0
  3

  4

  5

  6

  7

 40
1.0
 41
0.18
 42
0.0625
 43
0.38
 44
0.18
 45
0.0
 46
0.0
 47
0.0
 48
0.0
140
0.18
141
0.09
142
0.0
143
25.4
144
1.0
145
0.0
146
1.0
147
0.09
 71
     0
 72
     0
 73
     1
 74
     1
 75
     0
 76
     0
 77
     0
 78
     0
170
     0
171
     2
172
     0
173
     0
174
     0
175
     0
176
     0
177
     0
178
     0
270
     2
271
     4
272
     4
273
     2
274
     2
340
10
275
     0
280
     0
281
     0
282
     0
283
     1
284
     0
285
     0
286
     0
287
     3
288
     0
  0
ENDTAB
  0
TABLE
  2
BLOCK_RECORD
  5
1
330
0
100
AcDbSymbolTable
 70
    14
  0
BLOCK_RECORD
  5
1A
102
{ACAD_XDICTIONARY
360
BB4
102
}
330
1
100
AcDbSymbolTableRecord
100
AcDbBlockTableRecord
  2
*MODEL_SPACE
  0
BLOCK_RECORD
  5
17
102
{ACAD_XDICTIONARY
360
BB2
102
}
330
1
100
AcDbSymbolTableRecord
100
AcDbBlockTableRecord
  2
*PAPER_SPACE
  0
BLOCK_RECORD
  5
6D
330
1
100
AcDbSymbolTableRecord
100
AcDbBlockTableRecord
  2
_OPEN
  0
BLOCK_RECORD
  5
881
330
1
100
AcDbSymbolTableRecord
100
AcDbBlockTableRecord
  2
*D1
  0
BLOCK_RECORD
  5
89E
330
1
100
AcDbSymbolTableRecord
100
AcDbBlockTableRecord
  2
*D2
  0
BLOCK_RECORD
  5
8AB
330
1
100
AcDbSymbolTableRecord
100
AcDbBlockTableRecord
  2
*D3
  0
BLOCK_RECORD
  5
8B8
330
1
100
AcDbSymbolTableRecord
100
AcDbBlockTableRecord
  2
*D4
  0
BLOCK_RECORD
  5
8C5
330
1
100
AcDbSymbolTableRecord
100
AcDbBlockTableRecord
  2
*D5
  0
BLOCK_RECORD
  5
8D2
330
1
100
AcDbSymbolTableRecord
100
AcDbBlockTableRecord
  2
*D6
  0
BLOCK_RECORD
  5
95E
330
1
100
AcDbSymbolTableRecord
100
AcDbBlockTableRecord
  2
*D7
  0
BLOCK_RECORD
  5
96D
330
1
100
AcDbSymbolTableRecord
100
AcDbBlockTableRecord
  2
*D8
  0
BLOCK_RECORD
  5
987
330
1
100
AcDbSymbolTableRecord
100
AcDbBlockTableRecord
  2
*D9
  0
BLOCK_RECORD
  5
9D6
330
1
100
AcDbSymbolTableRecord
100
AcDbBlockTableRecord
  2
*D10
  0
BLOCK_RECORD
  5
A0D
330
1
100
AcDbSymbolTableRecord
100
AcDbBlockTableRecord
  2
*D11
  0
BLOCK_RECORD
  5
A4C
330
1
100
AcDbSymbolTableRecord
100
AcDbBlockTableRecord
  2
*D12
  0
BLOCK_RECORD
  5
AAB
330
1
100
AcDbSymbolTableRecord
100
AcDbBlockTableRecord
  2
*D13
  0
ENDTAB
  0
ENDSEC
  0
SECTION
  2
BLOCKS
  0
BLOCK
  5
1B
330
1A
100
AcDbEntity
  8
0
100
AcDbBlockBegin
  2
*MODEL_SPACE
 70
     0
 10
0.0
 20
0.0
 30
0.0
  3
*MODEL_SPACE
  1

  0
ENDBLK
  5
1C
330
1A
100
AcDbEntity
  8
0
100
AcDbBlockEnd
  0
BLOCK
  5
18
330
17
100
AcDbEntity
 67
     1
  8
0
100
AcDbBlockBegin
  2
*PAPER_SPACE
 70
     0
 10
0.0
 20
0.0
 30
0.0
  3
*PAPER_SPACE
  1

  0
ENDBLK
  5
19
330
17
100
AcDbEntity
 67
     1
  8
0
100
AcDbBlockEnd
  0
BLOCK
  5
6E
330
6D
100
AcDbEntity
  8
0
100
AcDbBlockBegin
  2
_OPEN
 70
     0
 10
0.0
 20
0.0
 30
0.0
  3
_OPEN
  1

  0
LINE
  5
6F
330
6D
100
AcDbEntity
  8
0
  6
BYBLOCK
 62
     0
100
AcDbLine
 10
-1.0
 20
0.1666666666666666
 30
0.0
 11
0.0
 21
0.0
 31
0.0
  0
LINE
  5
70
330
6D
100
AcDbEntity
  8
0
  6
BYBLOCK
 62
     0
100
AcDbLine
 10
0.0
 20
0.0
 30
0.0
 11
-1.0
 21
-0.1666666666666666
 31
0.0
  0
LINE
  5
71
330
6D
100
AcDbEntity
  8
0
  6
BYBLOCK
 62
     0
100
AcDbLine
 10
0.0
 20
0.0
 30
0.0
 11
-1.0
 21
0.0
 31
0.0
  0
ENDBLK
  5
72
330
6D
100
AcDbEntity
  8
0
100
AcDbBlockEnd
  0
BLOCK
  5
8F5
330
881
100
AcDbEntity
  8
0
100
AcDbBlockBegin
  2
*D1
 70
     1
 10
0.0
 20
0.0
 30
0.0
  3
*D1
  1

  0
LINE
  5
8F6
330
881
100
AcDbEntity
  8
0
  6
BYBLOCK
 62
     4
100
AcDbLine
 10
196.1964010225656
 20
248.3031525751503
 30
0.0
 11
196.1964010225656
 21
274.0632917592115
 31
0.0
  0
LINE
  5
8F7
330
881
100
AcDbEntity
  8
0
  6
BYBLOCK
 62
     4
100
AcDbLine
 10
86.19630102256559
 20
248.3034525751502
 30
0.0
 11
86.19630102256559
 21
274.0632917592115
 31
0.0
  0
LINE
  5
8F8
330
881
100
AcDbEntity
  8
0
  6
BYBLOCK
 62
     4
100
AcDbLine
 10
189.1964010225656
 20
271.0632917592115
 30
0.0
 11
93.19630102256558
 21
271.0632917592115
 31
0.0
  0
INSERT
  5
8F9
330
881
100
AcDbEntity
  8
0
  6
BYBLOCK
 62
     4
100
AcDbBlockReference
  2
_OPEN
 10
196.1964010225656
 20
271.0632917592115
 30
0.0
 41
7.0
 42
7.0
 43
7.0
  0
INSERT
  5
8FA
330
881
100
AcDbEntity
  8
0
  6
BYBLOCK
 62
     4
100
AcDbBlockReference
  2
_OPEN
 10
86.19630102256559
 20
271.0632917592115
 30
0.0
 41
7.0
 42
7.0
 43
7.0
 50
180.0
  0
MTEXT
  5
8FB
330
881
100
AcDbEntity
  8
0
  6
BYBLOCK
 62
     4
100
AcDbMText
 10
141.1963510225656
 20
276.0632917592115
 30
0.0
 40
6.0
 41
0.0
 71
     5
 72
     1
  1
\A1;φ110
1001
ACAD
1000
MTEXTBEGIN
1070
    73
1070
     1
1070
    44
1040
1.0
1070
    74
1070
     0
1000
MTEXTEND
1000
MTEXTBEGIN
1070
    73
1070
     1
1070
    44
1040
1.0
1070
    74
1070
     0
1000
MTEXTEND
1000
MTEXTBEGIN
1070
    73
1070
     1
1070
    44
1040
1.0
1070
    74
1070
     0
1000
MTEXTEND
  0
POINT
  5
8FC
330
881
100
AcDbEntity
  8
DEFPOINTS
  6
BYBLOCK
 62
     0
100
AcDbPoint
 10
196.1964010225656
 20
242.3031525751503
 30
0.0
  0
POINT
  5
8FD
330
881
100
AcDbEntity
  8
DEFPOINTS
  6
BYBLOCK
 62
     0
100
AcDbPoint
 10
86.19630102256559
 20
242.3034525751503
 30
0.0
  0
POINT
  5
8FE
330
881
100
AcDbEntity
  8
DEFPOINTS
  6
BYBLOCK
 62
     0
100
AcDbPoint
 10
86.19630102256559
 20
271.0632917592115
 30
0.0
  0
ENDBLK
  5
8FF
330
881
100
AcDbEntity
  8
0
100
AcDbBlockEnd
  0
BLOCK
  5
AF7
330
89E
100
AcDbEntity
  8
0
100
AcDbBlockBegin
  2
*D2
 70
     1
 10
0.0
 20
0.0
 30
0.0
  3
*D2
  1

  0
LINE
  5
AF8
330
89E
100
AcDbEntity
  8
0
  6
BYBLOCK
 62
     4
100
AcDbLine
 10
234.8904504732469
 20
183.3086717666711
 30
0.0
 11
269.431858413709
 21
183.3086717666711
 31
0.0
  0
LINE
  5
AF9
330
89E
100
AcDbEntity
  8
0
  6
BYBLOCK
 62
     4
100
AcDbLine
 10
228.7402504732467
 20
148.3086717666711
 30
0.0
 11
269.431858413709
 21
148.3086717666711
 31
0.0
  0
LINE
  5
AFA
330
89E
100
AcDbEntity
  8
0
  6
BYBLOCK
 62
     4
100
AcDbLine
 10
266.431858413709
 20
176.3086717666711
 30
0.0
 11
266.431858413709
 21
155.3086717666711
 31
0.0
  0
INSERT
  5
AFB
330
89E
100
AcDbEntity
  8
0
  6
BYBLOCK
 62
     4
100
AcDbBlockReference
  2
_OPEN
 10
266.431858413709
 20
183.3086717666711
 30
0.0
 41
7.0
 42
7.0
 43
7.0
 50
90.0
  0
INSERT
  5
AFC
330
89E
100
AcDbEntity
  8
0
  6
BYBLOCK
 62
     4
100
AcDbBlockReference
  2
_OPEN
 10
266.431858413709
 20
148.3086717666711
 30
0.0
 41
7.0
 42
7.0
 43
7.0
 50
270.0
  0
MTEXT
  5
AFD
330
89E
100
AcDbEntity
  8
0
  6
BYBLOCK
 62
     4
100
AcDbMText
 10
261.431858413709
 20
165.8086717666711
 30
0.0
 40
6.0
 41
0.0
 71
     5
 72
     1
  1
\A1;35
 11
0.0
 21
1.0
 31
0.0
1001
ACAD
1000
MTEXTBEGIN
1070
    73
1070
     1
1070
    44
1040
1.0
1070
    74
1070
     0
1000
MTEXTEND
1000
MTEXTBEGIN
1070
    73
1070
     1
1070
    44
1040
1.0
1070
    74
1070
     0
1000
MTEXTEND
1000
MTEXTBEGIN
1070
    73
1070
     1
1070
    44
1040
1.0
1070
    74
1070
     0
1000
MTEXTEND
  0
POINT
  5
AFE
330
89E
100
AcDbEntity
  8
DEFPOINTS
  6
BYBLOCK
 62
     0
100
AcDbPoint
 10
228.8904504732469
 20
183.3086717666711
 30
0.0
  0
POINT
  5
AFF
330
89E
100
AcDbEntity
  8
DEFPOINTS
  6
BYBLOCK
 62
     0
100
AcDbPoint
 10
222.7402504732467
 20
148.3086717666711
 30
0.0
  0
POINT
  5
B00
330
89E
100
AcDbEntity
  8
DEFPOINTS
  6
BYBLOCK
 62
     0
100
AcDbPoint
 10
266.431858413709
 20
148.3086717666711
 30
0.0
  0
ENDBLK
  5
B01
330
89E
100
AcDbEntity
  8
0
100
AcDbBlockEnd
  0
BLOCK
  5
AEC
330
8AB
100
AcDbEntity
  8
0
100
AcDbBlockBegin
  2
*D3
 70
     1
 10
0.0
 20
0.0
 30
0.0
  3
*D3
  1

  0
LINE
  5
AED
330
8AB
100
AcDbEntity
  8
0
  6
BYBLOCK
 62
     4
100
AcDbLine
 10
244.2405504732469
 20
224.308771766671
 30
0.0
 11
269.431858413709
 21
224.308771766671
 31
0.0
  0
LINE
  5
AEE
330
8AB
100
AcDbEntity
  8
0
  6
BYBLOCK
 62
     4
100
AcDbLine
 10
234.8904504732469
 20
183.3086717666711
 30
0.0
 11
269.431858413709
 21
183.3086717666711
 31
0.0
  0
LINE
  5
AEF
330
8AB
100
AcDbEntity
  8
0
  6
BYBLOCK
 62
     4
100
AcDbLine
 10
266.431858413709
 20
217.308771766671
 30
0.0
 11
266.431858413709
 21
190.3086717666711
 31
0.0
  0
INSERT
  5
AF0
330
8AB
100
AcDbEntity
  8
0
  6
BYBLOCK
 62
     4
100
AcDbBlockReference
  2
_OPEN
 10
266.431858413709
 20
224.308771766671
 30
0.0
 41
7.0
 42
7.0
 43
7.0
 50
90.0
  0
INSERT
  5
AF1
330
8AB
100
AcDbEntity
  8
0
  6
BYBLOCK
 62
     4
100
AcDbBlockReference
  2
_OPEN
 10
266.431858413709
 20
183.3086717666711
 30
0.0
 41
7.0
 42
7.0
 43
7.0
 50
270.0
  0
MTEXT
  5
AF2
330
8AB
100
AcDbEntity
  8
0
  6
BYBLOCK
 62
     4
100
AcDbMText
 10
261.431858413709
 20
203.808721766671
 30
0.0
 40
6.0
 41
0.0
 71
     5
 72
     1
  1
\A1;41
 11
0.0
 21
1.0
 31
0.0
1001
ACAD
1000
MTEXTBEGIN
1070
    73
1070
     1
1070
    44
1040
1.0
1070
    74
1070
     0
1000
MTEXTEND
1000
MTEXTBEGIN
1070
    73
1070
     1
1070
    44
1040
1.0
1070
    74
1070
     0
1000
MTEXTEND
1000
MTEXTBEGIN
1070
    73
1070
     1
1070
    44
1040
1.0
1070
    74
1070
     0
1000
MTEXTEND
  0
POINT
  5
AF3
330
8AB
100
AcDbEntity
  8
DEFPOINTS
  6
BYBLOCK
 62
     0
100
AcDbPoint
 10
238.2405504732469
 20
224.308771766671
 30
0.0
  0
POINT
  5
AF4
330
8AB
100
AcDbEntity
  8
DEFPOINTS
  6
BYBLOCK
 62
     0
100
AcDbPoint
 10
228.8904504732469
 20
183.3086717666711
 30
0.0
  0
POINT
  5
AF5
330
8AB
100
AcDbEntity
  8
DEFPOINTS
  6
BYBLOCK
 62
     0
100
AcDbPoint
 10
266.431858413709
 20
183.3086717666711
 30
0.0
  0
ENDBLK
  5
AF6
330
8AB
100
AcDbEntity
  8
0
100
AcDbBlockEnd
  0
BLOCK
  5
AE1
330
8B8
100
AcDbEntity
  8
0
100
AcDbBlockBegin
  2
*D4
 70
     1
 10
0.0
 20
0.0
 30
0.0
  3
*D4
  1

  0
LINE
  5
AE2
330
8B8
100
AcDbEntity
  8
0
  6
BYBLOCK
 62
     4
100
AcDbLine
 10
245.7405504732469
 20
227.8086717666711
 30
0.0
 11
287.4924223497719
 21
227.8086717666711
 31
0.0
  0
LINE
  5
AE3
330
8B8
100
AcDbEntity
  8
0
  6
BYBLOCK
 62
     4
100
AcDbLine
 10
228.7402504732467
 20
148.3086717666711
 30
0.0
 11
287.4924223497719
 21
148.3086717666711
 31
0.0
  0
LINE
  5
AE4
330
8B8
100
AcDbEntity
  8
0
  6
BYBLOCK
 62
     4
100
AcDbLine
 10
284.4924223497719
 20
220.8086717666711
 30
0.0
 11
284.4924223497719
 21
155.3086717666711
 31
0.0
  0
INSERT
  5
AE5
330
8B8
100
AcDbEntity
  8
0
  6
BYBLOCK
 62
     4
100
AcDbBlockReference
  2
_OPEN
 10
284.4924223497719
 20
227.8086717666711
 30
0.0
 41
7.0
 42
7.0
 43
7.0
 50
90.0
  0
INSERT
  5
AE6
330
8B8
100
AcDbEntity
  8
0
  6
BYBLOCK
 62
     4
100
AcDbBlockReference
  2
_OPEN
 10
284.4924223497719
 20
148.3086717666711
 30
0.0
 41
7.0
 42
7.0
 43
7.0
 50
270.0
  0
MTEXT
  5
AE7
330
8B8
100
AcDbEntity
  8
0
  6
BYBLOCK
 62
     4
100
AcDbMText
 10
279.4924223497719
 20
188.0586717666711
 30
0.0
 40
6.0
 41
0.0
 71
     5
 72
     1
  1
\A1;80
 11
0.0
 21
1.0
 31
0.0
1001
ACAD
1000
MTEXTBEGIN
1070
    73
1070
     1
1070
    44
1040
1.0
1070
    74
1070
     0
1000
MTEXTEND
1000
MTEXTBEGIN
1070
    73
1070
     1
1070
    44
1040
1.0
1070
    74
1070
     0
1000
MTEXTEND
1000
MTEXTBEGIN
1070
    73
1070
     1
1070
    44
1040
1.0
1070
    74
1070
     0
1000
MTEXTEND
  0
POINT
  5
AE8
330
8B8
100
AcDbEntity
  8
DEFPOINTS
  6
BYBLOCK
 62
     0
100
AcDbPoint
 10
239.7405504732469
 20
227.8086717666711
 30
0.0
  0
POINT
  5
AE9
330
8B8
100
AcDbEntity
  8
DEFPOINTS
  6
BYBLOCK
 62
     0
100
AcDbPoint
 10
222.7402504732467
 20
148.3086717666711
 30
0.0
  0
POINT
  5
AEA
330
8B8
100
AcDbEntity
  8
DEFPOINTS
  6
BYBLOCK
 62
     0
100
AcDbPoint
 10
284.4924223497719
 20
148.3086717666711
 30
0.0
  0
ENDBLK
  5
AEB
330
8B8
100
AcDbEntity
  8
0
100
AcDbBlockEnd
  0
BLOCK
  5
B30
330
8C5
100
AcDbEntity
  8
0
100
AcDbBlockBegin
  2
*D5
 70
     1
 10
0.0
 20
0.0
 30
0.0
  3
*D5
  1

  0
LINE
  5
B31
330
8C5
100
AcDbEntity
  8
0
  6
BYBLOCK
 62
     4
100
AcDbLine
 10
222.7402504732467
 20
142.3086717666711
 30
0.0
 11
222.7402504732467
 21
113.5282029302372
 31
0.0
  0
LINE
  5
B32
330
8C5
100
AcDbEntity
  8
0
  6
BYBLOCK
 62
     4
100
AcDbLine
 10
146.7402504732468
 20
142.308971766671
 30
0.0
 11
146.7402504732468
 21
113.5282029302372
 31
0.0
  0
LINE
  5
B33
330
8C5
100
AcDbEntity
  8
0
  6
BYBLOCK
 62
     4
100
AcDbLine
 10
215.7402504732467
 20
116.5282029302372
 30
0.0
 11
153.7402504732468
 21
116.5282029302372
 31
0.0
  0
INSERT
  5
B34
330
8C5
100
AcDbEntity
  8
0
  6
BYBLOCK
 62
     4
100
AcDbBlockReference
  2
_OPEN
 10
222.7402504732467
 20
116.5282029302372
 30
0.0
 41
7.0
 42
7.0
 43
7.0
  0
INSERT
  5
B35
330
8C5
100
AcDbEntity
  8
0
  6
BYBLOCK
 62
     4
100
AcDbBlockReference
  2
_OPEN
 10
146.7402504732468
 20
116.5282029302372
 30
0.0
 41
7.0
 42
7.0
 43
7.0
 50
180.0
  0
MTEXT
  5
B36
330
8C5
100
AcDbEntity
  8
0
  6
BYBLOCK
 62
     4
100
AcDbMText
 10
184.7402504732468
 20
121.5282029302372
 30
0.0
 40
6.0
 41
0.0
 71
     5
 72
     1
  1
\A1;φ76
1001
ACAD
1000
MTEXTBEGIN
1070
    73
1070
     1
1070
    44
1040
1.0
1070
    74
1070
     0
1000
MTEXTEND
1000
MTEXTBEGIN
1070
    73
1070
     1
1070
    44
1040
1.0
1070
    74
1070
     0
1000
MTEXTEND
1000
MTEXTBEGIN
1070
    73
1070
     1
1070
    44
1040
1.0
1070
    74
1070
     0
1000
MTEXTEND
  0
POINT
  5
B37
330
8C5
100
AcDbEntity
  8
DEFPOINTS
  6
BYBLOCK
 62
     0
100
AcDbPoint
 10
222.7402504732467
 20
148.3086717666711
 30
0.0
  0
POINT
  5
B38
330
8C5
100
AcDbEntity
  8
DEFPOINTS
  6
BYBLOCK
 62
     0
100
AcDbPoint
 10
146.7402504732468
 20
148.308971766671
 30
0.0
  0
POINT
  5
B39
330
8C5
100
AcDbEntity
  8
DEFPOINTS
  6
BYBLOCK
 62
     0
100
AcDbPoint
 10
146.7402504732468
 20
116.5282029302372
 30
0.0
  0
ENDBLK
  5
B3A
330
8C5
100
AcDbEntity
  8
0
100
AcDbBlockEnd
  0
BLOCK
  5
B25
330
8D2
100
AcDbEntity
  8
0
100
AcDbBlockBegin
  2
*D6
 70
     1
 10
0.0
 20
0.0
 30
0.0
  3
*D6
  1

  0
LINE
  5
B26
330
8D2
100
AcDbEntity
  8
0
  6
BYBLOCK
 62
     4
100
AcDbLine
 10
229.3904504732469
 20
181.3086717666711
 30
0.0
 11
229.3904504732469
 21
97.04652946916963
 31
0.0
  0
LINE
  5
B27
330
8D2
100
AcDbEntity
  8
0
  6
BYBLOCK
 62
     4
100
AcDbLine
 10
140.0902504732468
 20
181.309071766671
 30
0.0
 11
140.0902504732468
 21
97.04652946916963
 31
0.0
  0
LINE
  5
B28
330
8D2
100
AcDbEntity
  8
0
  6
BYBLOCK
 62
     4
100
AcDbLine
 10
222.3904504732469
 20
100.0465294691696
 30
0.0
 11
147.0902504732468
 21
100.0465294691696
 31
0.0
  0
INSERT
  5
B29
330
8D2
100
AcDbEntity
  8
0
  6
BYBLOCK
 62
     4
100
AcDbBlockReference
  2
_OPEN
 10
229.3904504732469
 20
100.0465294691696
 30
0.0
 41
7.0
 42
7.0
 43
7.0
  0
INSERT
  5
B2A
330
8D2
100
AcDbEntity
  8
0
  6
BYBLOCK
 62
     4
100
AcDbBlockReference
  2
_OPEN
 10
140.0902504732468
 20
100.0465294691696
 30
0.0
 41
7.0
 42
7.0
 43
7.0
 50
180.0
  0
MTEXT
  5
B2B
330
8D2
100
AcDbEntity
  8
0
  6
BYBLOCK
 62
     4
100
AcDbMText
 10
184.7403504732468
 20
105.0465294691696
 30
0.0
 40
6.0
 41
0.0
 71
     5
 72
     1
  1
\A1;φ89
1001
ACAD
1000
MTEXTBEGIN
1070
    73
1070
     1
1070
    44
1040
1.0
1070
    74
1070
     0
1000
MTEXTEND
1000
MTEXTBEGIN
1070
    73
1070
     1
1070
    44
1040
1.0
1070
    74
1070
     0
1000
MTEXTEND
1000
MTEXTBEGIN
1070
    73
1070
     1
1070
    44
1040
1.0
1070
    74
1070
     0
1000
MTEXTEND
  0
POINT
  5
B2C
330
8D2
100
AcDbEntity
  8
DEFPOINTS
  6
BYBLOCK
 62
     0
100
AcDbPoint
 10
229.3904504732469
 20
187.3086717666711
 30
0.0
  0
POINT
  5
B2D
330
8D2
100
AcDbEntity
  8
DEFPOINTS
  6
BYBLOCK
 62
     0
100
AcDbPoint
 10
140.0902504732468
 20
187.3090717666711
 30
0.0
  0
POINT
  5
B2E
330
8D2
100
AcDbEntity
  8
DEFPOINTS
  6
BYBLOCK
 62
     0
100
AcDbPoint
 10
140.0902504732468
 20
100.0465294691696
 30
0.0
  0
ENDBLK
  5
B2F
330
8D2
100
AcDbEntity
  8
0
100
AcDbBlockEnd
  0
BLOCK
  5
B18
330
95E
100
AcDbEntity
  8
0
100
AcDbBlockBegin
  2
*D7
 70
     1
 10
0.0
 20
0.0
 30
0.0
  3
*D7
  1

  0
LINE
  5
B19
330
95E
100
AcDbEntity
  8
0
  6
BYBLOCK
 62
     4
100
AcDbLine
 10
473.098025556183
 20
230.308771766671
 30
0.0
 11
490.8436566430659
 21
230.308771766671
 31
0.0
  0
LINE
  5
B1A
330
95E
100
AcDbEntity
  8
0
  6
BYBLOCK
 62
     4
100
AcDbLine
 10
469.098025556183
 20
232.308771766671
 30
0.0
 11
490.8436566430659
 21
232.308771766671
 31
0.0
  0
LINE
  5
B1B
330
95E
100
AcDbEntity
  8
0
  6
BYBLOCK
 62
     4
100
AcDbLine
 10
487.8436566430659
 20
223.308771766671
 30
0.0
 11
487.8436566430659
 21
216.308771766671
 31
0.0
  0
LINE
  5
B1C
330
95E
100
AcDbEntity
  8
0
  6
BYBLOCK
 62
     4
100
AcDbLine
 10
487.8436566430659
 20
239.308771766671
 30
0.0
 11
487.8436566430659
 21
254.308771766671
 31
0.0
  0
LINE
  5
B1D
330
95E
100
AcDbEntity
  8
0
  6
BYBLOCK
 62
     4
100
AcDbLine
 10
487.8436566430659
 20
230.308771766671
 30
0.0
 11
487.8436566430659
 21
232.308771766671
 31
0.0
  0
INSERT
  5
B1E
330
95E
100
AcDbEntity
  8
0
  6
BYBLOCK
 62
     4
100
AcDbBlockReference
  2
_OPEN
 10
487.8436566430659
 20
230.308771766671
 30
0.0
 41
7.0
 42
7.0
 43
7.0
 50
90.0
  0
INSERT
  5
B1F
330
95E
100
AcDbEntity
  8
0
  6
BYBLOCK
 62
     4
100
AcDbBlockReference
  2
_OPEN
 10
487.8436566430659
 20
232.308771766671
 30
0.0
 41
7.0
 42
7.0
 43
7.0
 50
270.0
  0
MTEXT
  5
B20
330
95E
100
AcDbEntity
  8
0
  6
BYBLOCK
 62
     4
100
AcDbMText
 10
482.8436566430659
 20
250.308771766671
 30
0.0
 40
6.0
 41
0.0
 71
     5
 72
     1
  1
\A1;2
 11
0.0
 21
1.0
 31
0.0
1001
ACAD
1000
MTEXTBEGIN
1070
    73
1070
     1
1070
    44
1040
1.0
1070
    74
1070
     0
1000
MTEXTEND
1000
MTEXTBEGIN
1070
    73
1070
     1
1070
    44
1040
1.0
1070
    74
1070
     0
1000
MTEXTEND
1000
MTEXTBEGIN
1070
    73
1070
     1
1070
    44
1040
1.0
1070
    74
1070
     0
1000
MTEXTEND
  0
POINT
  5
B21
330
95E
100
AcDbEntity
  8
DEFPOINTS
  6
BYBLOCK
 62
     0
100
AcDbPoint
 10
467.098025556183
 20
230.308771766671
 30
0.0
  0
POINT
  5
B22
330
95E
100
AcDbEntity
  8
DEFPOINTS
  6
BYBLOCK
 62
     0
100
AcDbPoint
 10
463.098025556183
 20
232.308771766671
 30
0.0
  0
POINT
  5
B23
330
95E
100
AcDbEntity
  8
DEFPOINTS
  6
BYBLOCK
 62
     0
100
AcDbPoint
 10
487.8436566430659
 20
232.308771766671
 30
0.0
  0
ENDBLK
  5
B24
330
95E
100
AcDbEntity
  8
0
100
AcDbBlockEnd
  0
BLOCK
  5
B0D
330
96D
100
AcDbEntity
  8
0
100
AcDbBlockBegin
  2
*D8
 70
     1
 10
0.0
 20
0.0
 30
0.0
  3
*D8
  1

  0
LINE
  5
B0E
330
96D
100
AcDbEntity
  8
0
  6
BYBLOCK
 62
     4
100
AcDbLine
 10
473.098025556183
 20
230.308771766671
 30
0.0
 11
507.6732083766569
 21
230.308771766671
 31
0.0
  0
LINE
  5
B0F
330
96D
100
AcDbEntity
  8
0
  6
BYBLOCK
 62
     4
100
AcDbLine
 10
463.4328974968275
 20
190.3087717663835
 30
0.0
 11
507.6732083766569
 21
190.3087717663835
 31
0.0
  0
LINE
  5
B10
330
96D
100
AcDbEntity
  8
0
  6
BYBLOCK
 62
     4
100
AcDbLine
 10
504.6732083766569
 20
223.308771766671
 30
0.0
 11
504.6732083766569
 21
197.3087717663835
 31
0.0
  0
INSERT
  5
B11
330
96D
100
AcDbEntity
  8
0
  6
BYBLOCK
 62
     4
100
AcDbBlockReference
  2
_OPEN
 10
504.6732083766569
 20
230.308771766671
 30
0.0
 41
7.0
 42
7.0
 43
7.0
 50
90.0
  0
INSERT
  5
B12
330
96D
100
AcDbEntity
  8
0
  6
BYBLOCK
 62
     4
100
AcDbBlockReference
  2
_OPEN
 10
504.6732083766569
 20
190.3087717663835
 30
0.0
 41
7.0
 42
7.0
 43
7.0
 50
270.0
  0
MTEXT
  5
B13
330
96D
100
AcDbEntity
  8
0
  6
BYBLOCK
 62
     4
100
AcDbMText
 10
499.6732083766569
 20
210.3087717665273
 30
0.0
 40
6.0
 41
0.0
 71
     5
 72
     1
  1
\A1;40
 11
0.0
 21
1.0
 31
0.0
1001
ACAD
1000
MTEXTBEGIN
1070
    73
1070
     1
1070
    44
1040
1.0
1070
    74
1070
     0
1000
MTEXTEND
1000
MTEXTBEGIN
1070
    73
1070
     1
1070
    44
1040
1.0
1070
    74
1070
     0
1000
MTEXTEND
1000
MTEXTBEGIN
1070
    73
1070
     1
1070
    44
1040
1.0
1070
    74
1070
     0
1000
MTEXTEND
  0
POINT
  5
B14
330
96D
100
AcDbEntity
  8
DEFPOINTS
  6
BYBLOCK
 62
     0
100
AcDbPoint
 10
467.098025556183
 20
230.308771766671
 30
0.0
  0
POINT
  5
B15
330
96D
100
AcDbEntity
  8
DEFPOINTS
  6
BYBLOCK
 62
     0
100
AcDbPoint
 10
457.4328974968274
 20
190.3087717663835
 30
0.0
  0
POINT
  5
B16
330
96D
100
AcDbEntity
  8
DEFPOINTS
  6
BYBLOCK
 62
     0
100
AcDbPoint
 10
504.6732083766569
 20
190.3087717663835
 30
0.0
  0
ENDBLK
  5
B17
330
96D
100
AcDbEntity
  8
0
100
AcDbBlockEnd
  0
BLOCK
  5
A41
330
987
100
AcDbEntity
  8
0
100
AcDbBlockBegin
  2
*D9
 70
     1
 10
0.0
 20
0.0
 30
0.0
  3
*D9
  1

  0
LINE
  5
A42
330
987
100
AcDbEntity
  8
0
  6
BYBLOCK
 62
     4
100
AcDbLine
 10
367.097925556183
 20
251.8034525751503
 30
0.0
 11
367.097925556183
 21
322.5781204958348
 31
0.0
  0
LINE
  5
A43
330
987
100
AcDbEntity
  8
0
  6
BYBLOCK
 62
     4
100
AcDbLine
 10
467.098025556183
 20
251.8031525751502
 30
0.0
 11
467.098025556183
 21
322.5781204958348
 31
0.0
  0
LINE
  5
A44
330
987
100
AcDbEntity
  8
0
  6
BYBLOCK
 62
     4
100
AcDbLine
 10
374.097925556183
 20
319.5781204958348
 30
0.0
 11
460.0980255561831
 21
319.5781204958348
 31
0.0
  0
INSERT
  5
A45
330
987
100
AcDbEntity
  8
0
  6
BYBLOCK
 62
     4
100
AcDbBlockReference
  2
_OPEN
 10
367.097925556183
 20
319.5781204958348
 30
0.0
 41
7.0
 42
7.0
 43
7.0
 50
180.0
  0
INSERT
  5
A46
330
987
100
AcDbEntity
  8
0
  6
BYBLOCK
 62
     4
100
AcDbBlockReference
  2
_OPEN
 10
467.098025556183
 20
319.5781204958348
 30
0.0
 41
7.0
 42
7.0
 43
7.0
  0
MTEXT
  5
A47
330
987
100
AcDbEntity
  8
0
  6
BYBLOCK
 62
     4
100
AcDbMText
 10
417.097975556183
 20
324.5781204958348
 30
0.0
 40
6.0
 41
0.0
 71
     5
 72
     1
  1
\A1;φ100
1001
ACAD
1000
MTEXTBEGIN
1070
    73
1070
     1
1070
    44
1040
1.0
1070
    74
1070
     0
1000
MTEXTEND
1000
MTEXTBEGIN
1070
    73
1070
     1
1070
    44
1040
1.0
1070
    74
1070
     0
1000
MTEXTEND
1000
MTEXTBEGIN
1070
    73
1070
     1
1070
    44
1040
1.0
1070
    74
1070
     0
1000
MTEXTEND
  0
POINT
  5
A48
330
987
100
AcDbEntity
  8
DEFPOINTS
  6
BYBLOCK
 62
     0
100
AcDbPoint
 10
367.097925556183
 20
245.8034525751503
 30
0.0
  0
POINT
  5
A49
330
987
100
AcDbEntity
  8
DEFPOINTS
  6
BYBLOCK
 62
     0
100
AcDbPoint
 10
467.098025556183
 20
245.8031525751503
 30
0.0
  0
POINT
  5
A4A
330
987
100
AcDbEntity
  8
DEFPOINTS
  6
BYBLOCK
 62
     0
100
AcDbPoint
 10
467.098025556183
 20
319.5781204958348
 30
0.0
  0
ENDBLK
  5
A4B
330
987
100
AcDbEntity
  8
0
100
AcDbBlockEnd
  0
BLOCK
  5
B3B
330
9D6
100
AcDbEntity
  8
0
100
AcDbBlockBegin
  2
*D10
 70
     1
 10
0.0
 20
0.0
 30
0.0
  3
*D10
  1

  0
LINE
  5
B3C
330
9D6
100
AcDbEntity
  8
0
  6
BYBLOCK
 62
     4
100
AcDbLine
 10
459.598097496827
 20
188.3087717663835
 30
0.0
 11
459.598097496827
 21
156.719421331652
 31
0.0
  0
LINE
  5
B3D
330
9D6
100
AcDbEntity
  8
0
  6
BYBLOCK
 62
     4
100
AcDbLine
 10
374.5977974968274
 20
188.3089717663835
 30
0.0
 11
374.5977974968274
 21
156.719421331652
 31
0.0
  0
LINE
  5
B3E
330
9D6
100
AcDbEntity
  8
0
  6
BYBLOCK
 62
     4
100
AcDbLine
 10
452.598097496827
 20
159.719421331652
 30
0.0
 11
381.5977974968274
 21
159.719421331652
 31
0.0
  0
INSERT
  5
B3F
330
9D6
100
AcDbEntity
  8
0
  6
BYBLOCK
 62
     4
100
AcDbBlockReference
  2
_OPEN
 10
459.598097496827
 20
159.719421331652
 30
0.0
 41
7.0
 42
7.0
 43
7.0
  0
INSERT
  5
B40
330
9D6
100
AcDbEntity
  8
0
  6
BYBLOCK
 62
     4
100
AcDbBlockReference
  2
_OPEN
 10
374.5977974968274
 20
159.719421331652
 30
0.0
 41
7.0
 42
7.0
 43
7.0
 50
180.0
  0
MTEXT
  5
B41
330
9D6
100
AcDbEntity
  8
0
  6
BYBLOCK
 62
     4
100
AcDbMText
 10
417.0979474968272
 20
164.719421331652
 30
0.0
 40
6.0
 41
0.0
 71
     5
 72
     1
  1
\A1;φ85
1001
ACAD
1000
MTEXTBEGIN
1070
    73
1070
     1
1070
    44
1040
1.0
1070
    74
1070
     0
1000
MTEXTEND
1000
MTEXTBEGIN
1070
    73
1070
     1
1070
    44
1040
1.0
1070
    74
1070
     0
1000
MTEXTEND
1000
MTEXTBEGIN
1070
    73
1070
     1
1070
    44
1040
1.0
1070
    74
1070
     0
1000
MTEXTEND
  0
POINT
  5
B42
330
9D6
100
AcDbEntity
  8
DEFPOINTS
  6
BYBLOCK
 62
     0
100
AcDbPoint
 10
459.598097496827
 20
194.3087717663835
 30
0.0
  0
POINT
  5
B43
330
9D6
100
AcDbEntity
  8
DEFPOINTS
  6
BYBLOCK
 62
     0
100
AcDbPoint
 10
374.5977974968274
 20
194.3089717663836
 30
0.0
  0
POINT
  5
B44
330
9D6
100
AcDbEntity
  8
DEFPOINTS
  6
BYBLOCK
 62
     0
100
AcDbPoint
 10
374.5977974968274
 20
159.719421331652
 30
0.0
  0
ENDBLK
  5
B45
330
9D6
100
AcDbEntity
  8
0
100
AcDbBlockEnd
  0
BLOCK
  5
B46
330
A0D
100
AcDbEntity
  8
0
100
AcDbBlockBegin
  2
*D11
 70
     1
 10
0.0
 20
0.0
 30
0.0
  3
*D11
  1

  0
LINE
  5
B47
330
A0D
100
AcDbEntity
  8
0
  6
BYBLOCK
 62
     4
100
AcDbLine
 10
703.1845906004309
 20
349.7884656614772
 30
0.0
 11
703.1845906004309
 21
287.8785342042803
 31
0.0
  0
LINE
  5
B48
330
A0D
100
AcDbEntity
  8
0
  6
BYBLOCK
 62
     4
100
AcDbLine
 10
617.1845906005982
 20
349.7886376614768
 30
0.0
 11
617.1845906005982
 21
287.8785342042803
 31
0.0
  0
LINE
  5
B49
330
A0D
100
AcDbEntity
  8
0
  6
BYBLOCK
 62
     4
100
AcDbLine
 10
696.184590600431
 20
290.8785342042804
 30
0.0
 11
624.1845906005981
 21
290.8785342042804
 31
0.0
  0
INSERT
  5
B4A
330
A0D
100
AcDbEntity
  8
0
  6
BYBLOCK
 62
     4
100
AcDbBlockReference
  2
_OPEN
 10
703.1845906004309
 20
290.8785342042804
 30
0.0
 41
7.0
 42
7.0
 43
7.0
  0
INSERT
  5
B4B
330
A0D
100
AcDbEntity
  8
0
  6
BYBLOCK
 62
     4
100
AcDbBlockReference
  2
_OPEN
 10
617.1845906005982
 20
290.8785342042804
 30
0.0
 41
7.0
 42
7.0
 43
7.0
 50
180.0
  0
MTEXT
  5
B4C
330
A0D
100
AcDbEntity
  8
0
  6
BYBLOCK
 62
     4
100
AcDbMText
 10
660.1845906005146
 20
295.8785342042803
 30
0.0
 40
6.0
 41
0.0
 71
     5
 72
     1
  1
\A1;穴径　φ86
1001
ACAD
1000
MTEXTBEGIN
1070
    73
1070
     1
1070
    44
1040
1.0
1070
    74
1070
     0
1000
MTEXTEND
1000
MTEXTBEGIN
1070
    73
1070
     1
1070
    44
1040
1.0
1070
    74
1070
     0
1000
MTEXTEND
1000
MTEXTBEGIN
1070
    73
1070
     1
1070
    44
1040
1.0
1070
    74
1070
     0
1000
MTEXTEND
  0
POINT
  5
B4D
330
A0D
100
AcDbEntity
  8
DEFPOINTS
  6
BYBLOCK
 62
     0
100
AcDbPoint
 10
703.1845906004309
 20
355.7884656614772
 30
0.0
  0
POINT
  5
B4E
330
A0D
100
AcDbEntity
  8
DEFPOINTS
  6
BYBLOCK
 62
     0
100
AcDbPoint
 10
617.1845906005982
 20
355.7886376614769
 30
0.0
  0
POINT
  5
B4F
330
A0D
100
AcDbEntity
  8
DEFPOINTS
  6
BYBLOCK
 62
     0
100
AcDbPoint
 10
617.1845906005982
 20
290.8785342042804
 30
0.0
  0
ENDBLK
  5
B50
330
A0D
100
AcDbEntity
  8
0
100
AcDbBlockEnd
  0
BLOCK
  5
A6F
330
A4C
100
AcDbEntity
  8
0
100
AcDbBlockBegin
  2
*D12
 70
     1
 10
0.0
 20
0.0
 30
0.0
  3
*D12
  1

  0
LINE
  5
A70
330
A4C
100
AcDbEntity
  8
0
  6
BYBLOCK
 62
     4
100
AcDbLine
 10
453.8480255561831
 20
268.6511525751502
 30
0.0
 11
453.8480255561831
 21
304.8544553178631
 31
0.0
  0
LINE
  5
A71
330
A4C
100
AcDbEntity
  8
0
  6
BYBLOCK
 62
     4
100
AcDbLine
 10
380.348025556183
 20
268.6513525751502
 30
0.0
 11
380.348025556183
 21
304.8544553178631
 31
0.0
  0
LINE
  5
A72
330
A4C
100
AcDbEntity
  8
0
  6
BYBLOCK
 62
     4
100
AcDbLine
 10
446.848025556183
 20
301.854455317863
 30
0.0
 11
387.348025556183
 21
301.854455317863
 31
0.0
  0
INSERT
  5
A73
330
A4C
100
AcDbEntity
  8
0
  6
BYBLOCK
 62
     4
100
AcDbBlockReference
  2
_OPEN
 10
453.8480255561831
 20
301.854455317863
 30
0.0
 41
7.0
 42
7.0
 43
7.0
  0
INSERT
  5
A74
330
A4C
100
AcDbEntity
  8
0
  6
BYBLOCK
 62
     4
100
AcDbBlockReference
  2
_OPEN
 10
380.348025556183
 20
301.854455317863
 30
0.0
 41
7.0
 42
7.0
 43
7.0
 50
180.0
  0
MTEXT
  5
A75
330
A4C
100
AcDbEntity
  8
0
  6
BYBLOCK
 62
     4
100
AcDbMText
 10
417.098025556183
 20
306.8544553178631
 30
0.0
 40
6.0
 41
0.0
 71
     5
 72
     1
  1
\A1;φ74
1001
ACAD
1000
MTEXTBEGIN
1070
    73
1070
     1
1070
    44
1040
1.0
1070
    74
1070
     0
1000
MTEXTEND
1000
MTEXTBEGIN
1070
    73
1070
     1
1070
    44
1040
1.0
1070
    74
1070
     0
1000
MTEXTEND
1000
MTEXTBEGIN
1070
    73
1070
     1
1070
    44
1040
1.0
1070
    74
1070
     0
1000
MTEXTEND
  0
POINT
  5
A76
330
A4C
100
AcDbEntity
  8
DEFPOINTS
  6
BYBLOCK
 62
     0
100
AcDbPoint
 10
453.8480255561831
 20
262.6511525751502
 30
0.0
  0
POINT
  5
A77
330
A4C
100
AcDbEntity
  8
DEFPOINTS
  6
BYBLOCK
 62
     0
100
AcDbPoint
 10
380.348025556183
 20
262.6513525751502
 30
0.0
  0
POINT
  5
A78
330
A4C
100
AcDbEntity
  8
DEFPOINTS
  6
BYBLOCK
 62
     0
100
AcDbPoint
 10
380.348025556183
 20
301.854455317863
 30
0.0
  0
ENDBLK
  5
A79
330
A4C
100
AcDbEntity
  8
0
100
AcDbBlockEnd
  0
BLOCK
  5
B02
330
AAB
100
AcDbEntity
  8
0
100
AcDbBlockBegin
  2
*D13
 70
     1
 10
0.0
 20
0.0
 30
0.0
  3
*D13
  1

  0
LINE
  5
B03
330
AAB
100
AcDbEntity
  8
0
  6
BYBLOCK
 62
     4
100
AcDbLine
 10
423.0981026295698
 20
262.8087717666128
 30
0.0
 11
528.1774190220025
 21
262.8087717666128
 31
0.0
  0
LINE
  5
B04
330
AAB
100
AcDbEntity
  8
0
  6
BYBLOCK
 62
     4
100
AcDbLine
 10
463.4328974968275
 20
190.3087717663835
 30
0.0
 11
528.1774190220025
 21
190.3087717663835
 31
0.0
  0
LINE
  5
B05
330
AAB
100
AcDbEntity
  8
0
  6
BYBLOCK
 62
     4
100
AcDbLine
 10
525.1774190220025
 20
255.8087717666128
 30
0.0
 11
525.1774190220025
 21
197.3087717663835
 31
0.0
  0
INSERT
  5
B06
330
AAB
100
AcDbEntity
  8
0
  6
BYBLOCK
 62
     4
100
AcDbBlockReference
  2
_OPEN
 10
525.1774190220025
 20
262.8087717666128
 30
0.0
 41
7.0
 42
7.0
 43
7.0
 50
90.0
  0
INSERT
  5
B07
330
AAB
100
AcDbEntity
  8
0
  6
BYBLOCK
 62
     4
100
AcDbBlockReference
  2
_OPEN
 10
525.1774190220025
 20
190.3087717663835
 30
0.0
 41
7.0
 42
7.0
 43
7.0
 50
270.0
  0
MTEXT
  5
B08
330
AAB
100
AcDbEntity
  8
0
  6
BYBLOCK
 62
     4
100
AcDbMText
 10
520.1774190220025
 20
226.5587717664982
 30
0.0
 40
6.0
 41
0.0
 71
     5
 72
     1
  1
\A1;73
 11
0.0
 21
1.0
 31
0.0
1001
ACAD
1000
MTEXTBEGIN
1070
    73
1070
     1
1070
    44
1040
1.0
1070
    74
1070
     0
1000
MTEXTEND
1000
MTEXTBEGIN
1070
    73
1070
     1
1070
    44
1040
1.0
1070
    74
1070
     0
1000
MTEXTEND
1000
MTEXTBEGIN
1070
    73
1070
     1
1070
    44
1040
1.0
1070
    74
1070
     0
1000
MTEXTEND
  0
POINT
  5
B09
330
AAB
100
AcDbEntity
  8
DEFPOINTS
  6
BYBLOCK
 62
     0
100
AcDbPoint
 10
417.0981026295699
 20
262.8087717666128
 30
0.0
  0
POINT
  5
B0A
330
AAB
100
AcDbEntity
  8
DEFPOINTS
  6
BYBLOCK
 62
     0
100
AcDbPoint
 10
457.4328974968274
 20
190.3087717663835
 30
0.0
  0
POINT
  5
B0B
330
AAB
100
AcDbEntity
  8
DEFPOINTS
  6
BYBLOCK
 62
     0
100
AcDbPoint
 10
525.1774190220025
 20
190.3087717663835
 30
0.0
  0
ENDBLK
  5
B0C
330
AAB
100
AcDbEntity
  8
0
100
AcDbBlockEnd
  0
ENDSEC
  0
SECTION
  2
ENTITIES
  0
TEXT
  5
11A
330
1A
100
AcDbEntity
  8
ZUWAKU
 62
     7
 48
10.0
100
AcDbText
 10
795.5579444309237
 20
4.974918402528146
 30
0.0
 40
8.0
  1
A1
100
AcDbText
  0
LINE
  5
11B
330
1A
100
AcDbEntity
  8
ZUWAKU
 62
     7
 48
10.0
100
AcDbLine
 10
10.05047808566086
 20
25.78258628282265
 30
0.0
 11
806.0504780856609
 21
25.78258628282253
 31
0.0
  0
LINE
  5
11C
330
1A
100
AcDbEntity
  8
ZUWAKU
  6
CONTINUOUS
 62
     7
100
AcDbLine
 10
806.0504780856609
 20
563.7825862828226
 30
0.0
 11
10.05047808566086
 21
563.7825862828226
 31
0.0
  0
LINE
  5
11D
330
1A
100
AcDbEntity
  8
ZUWAKU
  6
CONTINUOUS
 62
     7
100
AcDbLine
 10
806.0504780856609
 20
13.78258628282265
 30
0.0
 11
10.05047808566086
 21
13.78258628282265
 31
0.0
  0
LINE
  5
11E
330
1A
100
AcDbEntity
  8
ZUWAKU
  6
CONTINUOUS
 62
     7
100
AcDbLine
 10
10.05047808566086
 20
563.7825862828226
 30
0.0
 11
10.05047808566086
 21
13.78258628282265
 31
0.0
  0
LINE
  5
11F
330
1A
100
AcDbEntity
  8
ZUWAKU
 62
     7
 48
10.0
100
AcDbLine
 10
44.55797523147839
 20
13.78258628282265
 30
0.0
 11
44.5579752314784
 21
25.78258628282265
 31
0.0
  0
TEXT
  5
120
330
1A
100
AcDbEntity
  8
ZUWAKU
 62
     7
100
AcDbText
 10
16.05676551180931
 20
15.52294263804401
 30
0.0
 40
8.0
  1
品 種
100
AcDbText
  0
LINE
  5
121
330
1A
100
AcDbEntity
  8
ZUWAKU
 62
     7
 48
10.0
100
AcDbLine
 10
276.1028387068254
 20
13.78258628282265
 30
0.0
 11
276.1028387068254
 21
25.78258628282261
 31
0.0
  0
LINE
  5
122
330
1A
100
AcDbEntity
  8
ZUWAKU
 62
     7
 48
10.0
100
AcDbLine
 10
209.5138526425484
 20
13.78258628282265
 30
0.0
 11
209.5138526425485
 21
25.78258628282263
 31
0.0
  0
TEXT
  5
124
330
1A
100
AcDbEntity
  8
ZUWAKU
 62
     7
100
AcDbText
 10
215.4560837190756
 20
16.18358115302453
 30
0.0
 40
8.0
  1
品名・ｻ ｲ ｽﾞ
100
AcDbText
  0
LINE
  5
126
330
1A
100
AcDbEntity
  8
ZUWAKU
 62
     7
 48
10.0
100
AcDbLine
 10
768.7231079932794
 20
13.78258628282237
 30
0.0
 11
768.7231079932794
 21
25.78258628282254
 31
0.0
  0
LINE
  5
127
330
1A
100
AcDbEntity
  8
ZUWAKU
 62
     7
 48
10.0
100
AcDbLine
 10
733.8119002376948
 20
13.78258628282242
 30
0.0
 11
733.8119002376946
 21
25.78258628282254
 31
0.0
  0
TEXT
  5
128
330
1A
100
AcDbEntity
  8
ZUWAKU
 62
     7
100
AcDbText
 10
739.6955629973526
 20
15.24227755810852
 30
0.0
 40
8.0
  1
尺 度
100
AcDbText
  0
TEXT
  5
129
330
1A
100
AcDbEntity
  8
ZUWAKU
 62
     7
100
AcDbText
 10
779.7374630323229
 20
15.55488920081529
 30
0.0
 40
8.0
  1
1/2
100
AcDbText
  0
TEXT
  5
12B
330
1A
100
AcDbEntity
  8
ZUWAKU
 62
     7
100
AcDbText
 10
620.3363288383084
 20
15.6519090944263
 30
0.0
 40
8.0
  1
品 番
100
AcDbText
  0
LINE
  5
12C
330
1A
100
AcDbEntity
  8
ZUWAKU
 62
     7
 48
10.0
100
AcDbLine
 10
614.3351028194128
 20
13.78258628282232
 30
0.0
 11
614.3351028194128
 21
25.78258628282256
 31
0.0
  0
LINE
  5
12D
330
1A
100
AcDbEntity
  8
ZUWAKU
 62
     7
 48
10.0
100
AcDbLine
 10
648.7607587371021
 20
13.78258628282232
 30
0.0
 11
648.7607587371021
 21
25.78258628282255
 31
0.0
  0
TEXT
  5
12E
330
1A
100
AcDbEntity
  8
ZUWAKU
 62
     7
 48
10.0
100
AcDbText
 10
646.2758615931216
 20
4.949376903717848
 30
0.0
 40
8.0
  1
積水化学工業株式会社  建材
100
AcDbText
  0
LINE
  5
12F
330
1A
100
AcDbEntity
  8
ZUWAKU
  6
CONTINUOUS
 62
     7
100
AcDbLine
 10
806.0504780856609
 20
563.7825862828226
 30
0.0
 11
806.0504780856609
 21
13.78258628282265
 31
0.0
  0
LINE
  5
40F
330
1A
100
AcDbEntity
  8
SEIHIN
 48
5.0
100
AcDbLine
 10
222.7402504732467
 20
163.3086717666711
 30
0.0
 11
184.7403504732467
 21
163.308771766671
 31
0.0
  0
LINE
  5
410
330
1A
100
AcDbEntity
  8
SEIHIN
 48
5.0
100
AcDbLine
 10
228.8904504732469
 20
198.3086717666711
 30
0.0
 11
184.7404504732468
 21
198.308771766671
 31
0.0
  0
LINE
  5
411
330
1A
100
AcDbEntity
  8
SEIHIN
 48
5.0
100
AcDbLine
 10
184.7404504732468
 20
202.308771766671
 30
0.0
 11
229.3904504732469
 21
202.3086717666711
 31
0.0
  0
LINE
  5
415
330
1A
100
AcDbEntity
  8
SEIHIN
 48
5.0
100
AcDbLine
 10
184.7405504732468
 20
242.8088717666711
 30
0.0
 11
239.7405504732469
 21
242.8087717666711
 31
0.0
  0
LINE
  5
416
330
1A
100
AcDbEntity
  8
SEIHIN
 48
5.0
100
AcDbLine
 10
238.2405504732469
 20
239.308771766671
 30
0.0
 11
184.7405504732468
 21
239.3088717666711
 31
0.0
  0
LINE
  5
417
330
1A
100
AcDbEntity
  8
SEIHIN
 48
5.0
100
AcDbLine
 10
239.7405504732469
 20
240.8086717666711
 30
0.0
 11
184.7405504732468
 21
240.8088717666711
 31
0.0
  0
LINE
  5
41A
330
1A
100
AcDbEntity
  8
SEIHIN
 48
5.0
100
AcDbLine
 10
229.3905504732468
 20
236.9587717666711
 30
0.0
 11
184.7405504732468
 21
236.9588717666711
 31
0.0
  0
TEXT
  5
41E
330
1A
100
AcDbEntity
  8
ZUWAKU
 62
     7
100
AcDbText
 10
50.7879414629869
 20
16.10306189639755
 30
0.0
 40
8.0
  1
自在ドレン
100
AcDbText
  0
LINE
  5
422
330
1A
100
AcDbEntity
  8
SEIHIN
 48
5.0
100
AcDbLine
 10
140.5903504732468
 20
198.3089717666711
 30
0.0
 11
140.5903504732468
 21
202.3089717666711
 31
0.0
  0
LINE
  5
423
330
1A
100
AcDbEntity
  8
CENTER_L
 48
5.0
100
AcDbLine
 10
184.7405425627352
 20
249.8088717666971
 30
0.0
 11
184.7402504732469
 21
153.573271766671
 31
0.0
  0
LINE
  5
42D
330
1A
100
AcDbEntity
  8
SEIHIN
 48
5.0
100
AcDbLine
 10
140.5903504732468
 20
198.3089717666711
 30
0.0
 11
184.7402504732469
 21
198.308771766671
 31
0.0
  0
LINE
  5
42E
330
1A
100
AcDbEntity
  8
SEIHIN
 48
5.0
100
AcDbLine
 10
146.7402504732468
 20
163.308971766671
 30
0.0
 11
184.7400504732468
 21
163.308771766671
 31
0.0
  0
LINE
  5
42F
330
1A
100
AcDbEntity
  8
SEIHIN
 48
5.0
100
AcDbLine
 10
146.7402504732468
 20
163.308971766671
 30
0.0
 11
146.7403504732469
 21
198.3089717666711
 31
0.0
  0
LINE
  5
430
330
1A
100
AcDbEntity
  8
SEIHIN
 48
5.0
100
AcDbLine
 10
184.7404504732468
 20
242.8088717666711
 30
0.0
 11
129.7404504732468
 21
242.809071766671
 31
0.0
  0
LINE
  5
431
330
1A
100
AcDbEntity
  8
SEIHIN
 48
5.0
100
AcDbLine
 10
131.2404504732468
 20
239.309071766671
 30
0.0
 11
184.7404504732468
 21
239.3088717666711
 31
0.0
  0
LINE
  5
432
330
1A
100
AcDbEntity
  8
SEIHIN
 48
5.0
100
AcDbLine
 10
129.7404504732468
 20
240.809071766671
 30
0.0
 11
184.7404504732468
 21
240.8088717666711
 31
0.0
  0
LINE
  5
436
330
1A
100
AcDbEntity
  8
SEIHIN
 48
5.0
100
AcDbLine
 10
129.7404504732468
 20
240.8091717666711
 30
0.0
 11
129.7404504732468
 21
242.809071766671
 31
0.0
  0
LINE
  5
437
330
1A
100
AcDbEntity
  8
SEIHIN
 48
5.0
100
AcDbLine
 10
129.7404504732468
 20
240.8091717666711
 30
0.0
 11
131.2404504732468
 21
239.309071766671
 31
0.0
  0
LINE
  5
43D
330
1A
100
AcDbEntity
  8
SEIHIN
 48
5.0
100
AcDbLine
 10
140.0904504732469
 20
236.959071766671
 30
0.0
 11
184.7404504732468
 21
236.9588717666711
 31
0.0
  0
LINE
  5
43E
330
1A
100
AcDbEntity
  8
SEIHIN
 48
5.0
100
AcDbLine
 10
184.7402504732469
 20
202.308871766671
 30
0.0
 11
140.0902504732468
 21
202.3090717666711
 31
0.0
  0
LINE
  5
440
330
1A
100
AcDbEntity
  8
SEIHIN
 48
5.0
100
AcDbLine
 10
140.0904504732469
 20
236.959071766671
 30
0.0
 11
140.0902504732468
 21
202.3090717666711
 31
0.0
  0
LINE
  5
441
330
1A
100
AcDbEntity
  8
SEIHIN
 48
5.0
100
AcDbLine
 10
137.7404504732468
 20
239.309071766671
 30
0.0
 11
140.0904504732469
 21
236.959071766671
 31
0.0
  0
TEXT
  5
46C
330
1A
100
AcDbEntity
  8
ZUWAKU
 62
     7
100
AcDbText
 10
282.7491462238861
 20
15.64241700452384
 30
0.0
 40
8.0
  1
ＶＵＴ７５－６５
100
AcDbText
  0
LINE
  5
474
330
1A
100
AcDbEntity
  8
SEIHIN
 48
5.0
100
AcDbLine
 10
228.8904504732469
 20
198.3086717666711
 30
0.0
 11
228.8904504732469
 21
202.3086717666711
 31
0.0
  0
LINE
  5
482
330
1A
100
AcDbEntity
  8
SEIHIN
 48
5.0
100
AcDbLine
 10
222.7402504732467
 20
163.3086717666711
 30
0.0
 11
222.7403504732468
 21
198.3086717666711
 31
0.0
  0
LINE
  5
496
330
1A
100
AcDbEntity
  8
SEIHIN
 48
5.0
100
AcDbLine
 10
229.3905504732468
 20
236.9587717666711
 30
0.0
 11
229.3904504732469
 21
202.3086717666711
 31
0.0
  0
LINE
  5
498
330
1A
100
AcDbEntity
  8
SEIHIN
 48
5.0
100
AcDbLine
 10
231.7405504732469
 20
239.308771766671
 30
0.0
 11
229.3905504732468
 21
236.9587717666711
 31
0.0
  0
LINE
  5
4A0
330
1A
100
AcDbEntity
  8
SEIHIN
 48
5.0
100
AcDbLine
 10
239.7405504732469
 20
240.8087717666711
 30
0.0
 11
238.2405504732469
 21
239.308771766671
 31
0.0
  0
LINE
  5
4A2
330
1A
100
AcDbEntity
  8
SEIHIN
 48
5.0
100
AcDbLine
 10
239.7405504732469
 20
240.8087717666711
 30
0.0
 11
239.7405504732469
 21
242.8086717666711
 31
0.0
  0
LINE
  5
4C8
330
1A
100
AcDbEntity
  8
CENTER_L
 48
5.0
100
AcDbLine
 10
247.2409504732467
 20
402.8030525751502
 30
0.0
 11
122.2409504732468
 21
402.8033525751503
 31
0.0
  0
ARC
  5
4CA
330
1A
100
AcDbEntity
  8
SEIHIN
 48
5.0
100
AcDbCircle
 10
184.7409505260652
 20
402.8031525751502
 30
0.0
 40
54.99999994727247
100
AcDbArc
 50
0.0001041741445838
 51
359.9998958258554
  0
LINE
  5
4D0
330
1A
100
AcDbEntity
  8
CENTER_L
 48
5.0
100
AcDbLine
 10
184.7407504732469
 20
340.3032525751503
 30
0.0
 11
184.7410504732469
 21
465.3032525751501
 31
0.0
  0
LINE
  5
518
330
1A
100
AcDbEntity
  8
SEIHIN
 48
5.0
100
AcDbLine
 10
622.1843906467397
 20
184.6937837341508
 30
0.0
 11
660.1842906467395
 21
184.6935837341509
 31
0.0
  0
LINE
  5
519
330
1A
100
AcDbEntity
  8
SEIHIN
 48
5.0
100
AcDbLine
 10
617.6845906467397
 20
221.6937837341509
 30
0.0
 11
660.1844906467397
 21
221.6936837341509
 31
0.0
  0
LINE
  5
51A
330
1A
100
AcDbEntity
  8
SEIHIN
 48
5.0
100
AcDbLine
 10
608.1845906467397
 20
263.1938837341509
 30
0.0
 11
660.1845906467397
 21
263.1936837341509
 31
0.0
  0
LINE
  5
51B
330
1A
100
AcDbEntity
  8
SEIHIN
 48
5.0
100
AcDbLine
 10
660.1845906467397
 20
264.193683734151
 30
0.0
 11
605.1845906467397
 21
264.193983734151
 31
0.0
  0
LINE
  5
51C
330
1A
100
AcDbEntity
  8
SEIHIN
 48
5.0
100
AcDbLine
 10
617.6848906467394
 20
259.021983734151
 30
0.0
 11
660.1845906467397
 21
259.0217837341509
 31
0.0
  0
TEXT
  5
51E
330
1A
100
AcDbEntity
  8
ZUWAKU
 62
     7
100
AcDbText
 10
654.6891766003561
 20
15.90287984531518
 30
0.0
 40
8.0
  1
ＧＨ５３
100
AcDbText
  0
LINE
  5
522
330
1A
100
AcDbEntity
  8
SEIHIN
 48
5.0
100
AcDbLine
 10
615.5346906467396
 20
258.3438837341509
 30
0.0
 11
615.5344906467393
 21
223.693783734151
 31
0.0
  0
LINE
  5
523
330
1A
100
AcDbEntity
  8
SEIHIN
 48
5.0
100
AcDbLine
 10
617.6846906467394
 20
221.6937837341509
 30
0.0
 11
617.6848906467394
 21
259.021983734151
 31
0.0
  0
LINE
  5
524
330
1A
100
AcDbEntity
  8
SEIHIN
 48
5.0
100
AcDbLine
 10
655.9749906467398
 20
238.5050837341509
 30
0.0
 11
625.6640906467396
 21
229.9468837341509
 31
0.0
  0
LINE
  5
525
330
1A
100
AcDbEntity
  8
SEIHIN
 48
5.0
100
AcDbLine
 10
626.8779906467398
 20
228.6496837341509
 30
0.0
 11
657.1888906467397
 21
237.207983734151
 31
0.0
  0
LINE
  5
526
330
1A
100
AcDbEntity
  8
SEIHIN
 48
5.0
100
AcDbLine
 10
657.1888906467397
 20
238.209083734151
 30
0.0
 11
626.8779906467398
 21
229.6509837341509
 31
0.0
  0
LINE
  5
527
330
1A
100
AcDbEntity
  8
SEIHIN
 48
5.0
100
AcDbLine
 10
655.9749906467398
 20
239.003583734151
 30
0.0
 11
625.6640906467396
 21
230.445483734151
 31
0.0
  0
LINE
  5
528
330
1A
100
AcDbEntity
  8
SEIHIN
 48
5.0
100
AcDbLine
 10
626.8779906467398
 20
232.649583734151
 30
0.0
 11
657.1888906467397
 21
241.207883734151
 31
0.0
  0
LINE
  5
529
330
1A
100
AcDbEntity
  8
SEIHIN
 48
5.0
100
AcDbLine
 10
655.9749906467398
 20
235.0037837341509
 30
0.0
 11
625.6640906467396
 21
226.445583734151
 31
0.0
  0
LINE
  5
52A
330
1A
100
AcDbEntity
  8
SEIHIN
 48
5.0
100
AcDbLine
 10
630.5752906467396
 20
225.693783734151
 30
0.0
 11
657.1888906467397
 21
233.2080837341509
 31
0.0
  0
LINE
  5
52B
330
1A
100
AcDbEntity
  8
SEIHIN
 48
5.0
100
AcDbLine
 10
657.1888906467397
 20
234.2091837341509
 30
0.0
 11
627.0289906467397
 21
225.693783734151
 31
0.0
  0
LINE
  5
52C
330
1A
100
AcDbEntity
  8
SEIHIN
 48
5.0
100
AcDbLine
 10
655.9749906467398
 20
234.505183734151
 30
0.0
 11
625.6640906467396
 21
225.946983734151
 31
0.0
  0
LINE
  5
52D
330
1A
100
AcDbEntity
  8
SEIHIN
 48
5.0
100
AcDbLine
 10
626.8779906467398
 20
233.6509837341508
 30
0.0
 11
626.8779906467398
 21
232.649583734151
 31
0.0
  0
LINE
  5
52E
330
1A
100
AcDbEntity
  8
SEIHIN
 48
5.0
100
AcDbLine
 10
657.1888906467397
 20
233.2080837341509
 30
0.0
 11
655.9749906467398
 21
231.0038837341509
 31
0.0
  0
LINE
  5
52F
330
1A
100
AcDbEntity
  8
SEIHIN
 48
5.0
100
AcDbLine
 10
624.7131906467395
 20
221.6937837341509
 30
0.0
 11
624.1843906467397
 21
184.6937837341508
 31
0.0
  0
LINE
  5
530
330
1A
100
AcDbEntity
  8
SEIHIN
 48
5.0
100
AcDbLine
 10
622.1843906467397
 20
184.6937837341508
 30
0.0
 11
622.1845906467397
 21
219.693783734151
 31
0.0
  0
LINE
  5
531
330
1A
100
AcDbEntity
  8
SEIHIN
 48
5.0
100
AcDbLine
 10
626.8779906467398
 20
232.649583734151
 30
0.0
 11
625.6640906467396
 21
230.4453837341509
 31
0.0
  0
LINE
  5
532
330
1A
100
AcDbEntity
  8
SEIHIN
 48
5.0
100
AcDbLine
 10
625.6640906467396
 20
229.9468837341509
 30
0.0
 11
626.8778906467396
 21
229.6510837341509
 31
0.0
  0
LINE
  5
533
330
1A
100
AcDbEntity
  8
SEIHIN
 48
5.0
100
AcDbLine
 10
626.8778906467396
 20
228.6496837341509
 30
0.0
 11
625.6639906467396
 21
226.445483734151
 31
0.0
  0
LINE
  5
534
330
1A
100
AcDbEntity
  8
SEIHIN
 48
5.0
100
AcDbLine
 10
625.6639906467396
 20
225.946983734151
 30
0.0
 11
626.7029906467396
 21
225.693783734151
 31
0.0
  0
LINE
  5
535
330
1A
100
AcDbEntity
  8
SEIHIN
 48
5.0
100
AcDbLine
 10
616.0344906467396
 20
219.693783734151
 30
0.0
 11
616.0344906467396
 21
223.693783734151
 31
0.0
  0
LINE
  5
536
330
1A
100
AcDbEntity
  8
SEIHIN
 48
5.0
100
AcDbLine
 10
616.0344906467396
 20
219.693783734151
 30
0.0
 11
622.1845906467397
 21
219.693783734151
 31
0.0
  0
LINE
  5
537
330
1A
100
AcDbEntity
  8
SEIHIN
 48
5.0
100
AcDbLine
 10
616.0344906467396
 20
223.693783734151
 30
0.0
 11
615.5344906467393
 21
223.693783734151
 31
0.0
  0
LINE
  5
538
330
1A
100
AcDbEntity
  8
SEIHIN
 48
5.0
100
AcDbLine
 10
625.6640906467396
 20
230.4453837341509
 30
0.0
 11
625.6640906467396
 21
229.9468837341509
 31
0.0
  0
LINE
  5
539
330
1A
100
AcDbEntity
  8
SEIHIN
 48
5.0
100
AcDbLine
 10
625.6639906467396
 20
226.445483734151
 30
0.0
 11
625.6639906467396
 21
225.946983734151
 31
0.0
  0
LINE
  5
53A
330
1A
100
AcDbEntity
  8
SEIHIN
 48
5.0
100
AcDbLine
 10
657.1888906467397
 20
225.6936837341509
 30
0.0
 11
626.7029906467396
 21
225.693783734151
 31
0.0
  0
LINE
  5
53B
330
1A
100
AcDbEntity
  8
SEIHIN
 48
5.0
100
AcDbLine
 10
657.1888906467397
 20
230.2092837341509
 30
0.0
 11
641.1955906467396
 21
225.6936837341509
 31
0.0
  0
LINE
  5
53C
330
1A
100
AcDbEntity
  8
SEIHIN
 48
5.0
100
AcDbLine
 10
655.9749906467398
 20
230.5052837341509
 30
0.0
 11
638.9336906467397
 21
225.693783734151
 31
0.0
  0
LINE
  5
53D
330
1A
100
AcDbEntity
  8
SEIHIN
 48
5.0
100
AcDbLine
 10
655.9749906467398
 20
231.0038837341509
 30
0.0
 11
637.1679906467395
 21
225.693783734151
 31
0.0
  0
LINE
  5
53E
330
1A
100
AcDbEntity
  8
SEIHIN
 48
5.0
100
AcDbLine
 10
626.8778906467396
 20
229.6510837341509
 30
0.0
 11
626.8778906467396
 21
228.6496837341509
 31
0.0
  0
LINE
  5
53F
330
1A
100
AcDbEntity
  8
SEIHIN
 48
5.0
100
AcDbLine
 10
644.7414906467397
 20
225.6936837341509
 30
0.0
 11
657.1888906467397
 21
229.2081837341509
 31
0.0
  0
LINE
  5
540
330
1A
100
AcDbEntity
  8
SEIHIN
 48
5.0
100
AcDbLine
 10
655.9749906467398
 20
226.5054837341509
 30
0.0
 11
653.0998906467398
 21
225.6936837341509
 31
0.0
  0
LINE
  5
541
330
1A
100
AcDbEntity
  8
SEIHIN
 48
5.0
100
AcDbLine
 10
655.9749906467398
 20
227.003983734151
 30
0.0
 11
651.3342906467396
 21
225.6936837341509
 31
0.0
  0
LINE
  5
542
330
1A
100
AcDbEntity
  8
SEIHIN
 48
5.0
100
AcDbLine
 10
655.9749906467398
 20
230.5052837341509
 30
0.0
 11
657.1888906467397
 21
230.2092837341509
 31
0.0
  0
LINE
  5
543
330
1A
100
AcDbEntity
  8
SEIHIN
 48
5.0
100
AcDbLine
 10
657.1888906467397
 20
229.2081837341509
 30
0.0
 11
655.9749906467398
 21
227.003983734151
 31
0.0
  0
LINE
  5
544
330
1A
100
AcDbEntity
  8
SEIHIN
 48
5.0
100
AcDbLine
 10
655.9749906467398
 20
231.0038837341509
 30
0.0
 11
655.9749906467398
 21
230.5052837341509
 31
0.0
  0
LINE
  5
545
330
1A
100
AcDbEntity
  8
SEIHIN
 48
5.0
100
AcDbLine
 10
657.1888906467397
 20
230.2092837341509
 30
0.0
 11
657.1888906467397
 21
229.2081837341509
 31
0.0
  0
LINE
  5
546
330
1A
100
AcDbEntity
  8
SEIHIN
 48
5.0
100
AcDbLine
 10
655.9749906467398
 20
227.003983734151
 30
0.0
 11
655.9749906467398
 21
226.5054837341509
 31
0.0
  0
LINE
  5
547
330
1A
100
AcDbEntity
  8
SEIHIN
 48
5.0
100
AcDbLine
 10
657.1888906467397
 20
226.209383734151
 30
0.0
 11
655.3622906467396
 21
225.6936837341509
 31
0.0
  0
LINE
  5
548
330
1A
100
AcDbEntity
  8
SEIHIN
 48
5.0
100
AcDbLine
 10
655.9749906467398
 20
226.5054837341509
 30
0.0
 11
657.1888906467397
 21
226.209383734151
 31
0.0
  0
LINE
  5
549
330
1A
100
AcDbEntity
  8
SEIHIN
 48
5.0
100
AcDbLine
 10
657.1888906467397
 20
226.209383734151
 30
0.0
 11
657.1888906467397
 21
225.6936837341509
 31
0.0
  0
LINE
  5
54A
330
1A
100
AcDbEntity
  8
SEIHIN
 48
5.0
100
AcDbLine
 10
626.8779906467398
 20
236.649483734151
 30
0.0
 11
625.6640906467396
 21
234.4452837341509
 31
0.0
  0
LINE
  5
54B
330
1A
100
AcDbEntity
  8
SEIHIN
 48
5.0
100
AcDbLine
 10
655.9749906467398
 20
242.5049837341509
 30
0.0
 11
625.6640906467396
 21
233.946783734151
 31
0.0
  0
LINE
  5
54C
330
1A
100
AcDbEntity
  8
SEIHIN
 48
5.0
100
AcDbLine
 10
655.9749906467398
 20
243.0034837341509
 30
0.0
 11
625.6640906467396
 21
234.4452837341509
 31
0.0
  0
LINE
  5
54D
330
1A
100
AcDbEntity
  8
SEIHIN
 48
5.0
100
AcDbLine
 10
625.6640906467396
 20
233.946783734151
 30
0.0
 11
626.8779906467398
 21
233.6509837341508
 31
0.0
  0
LINE
  5
54E
330
1A
100
AcDbEntity
  8
SEIHIN
 48
5.0
100
AcDbLine
 10
646.9019906467397
 20
247.9429837341509
 30
0.0
 11
625.6640906467396
 21
241.9464837341509
 31
0.0
  0
LINE
  5
54F
330
1A
100
AcDbEntity
  8
SEIHIN
 48
5.0
100
AcDbLine
 10
645.1363906467395
 20
247.9429837341509
 30
0.0
 11
625.6640906467396
 21
242.445083734151
 31
0.0
  0
LINE
  5
550
330
1A
100
AcDbEntity
  8
SEIHIN
 48
5.0
100
AcDbLine
 10
655.9749906467398
 20
246.504883734151
 30
0.0
 11
625.6640906467396
 21
237.946583734151
 31
0.0
  0
LINE
  5
551
330
1A
100
AcDbEntity
  8
SEIHIN
 48
5.0
100
AcDbLine
 10
655.9749906467398
 20
247.003383734151
 30
0.0
 11
625.6640906467396
 21
238.445183734151
 31
0.0
  0
LINE
  5
552
330
1A
100
AcDbEntity
  8
SEIHIN
 48
5.0
100
AcDbLine
 10
626.4891906467396
 20
247.943083734151
 30
0.0
 11
625.6641906467396
 21
246.444883734151
 31
0.0
  0
LINE
  5
553
330
1A
100
AcDbEntity
  8
SEIHIN
 48
5.0
100
AcDbLine
 10
630.9700906467396
 20
247.9429837341509
 30
0.0
 11
625.6641906467396
 21
246.444883734151
 31
0.0
  0
LINE
  5
554
330
1A
100
AcDbEntity
  8
SEIHIN
 48
5.0
100
AcDbLine
 10
632.7356906467396
 20
247.9429837341509
 30
0.0
 11
625.6641906467396
 21
245.9463837341508
 31
0.0
  0
LINE
  5
555
330
1A
100
AcDbEntity
  8
SEIHIN
 48
5.0
100
AcDbLine
 10
625.6641906467396
 20
245.9463837341508
 30
0.0
 11
626.8779906467398
 21
245.650583734151
 31
0.0
  0
LINE
  5
556
330
1A
100
AcDbEntity
  8
SEIHIN
 48
5.0
100
AcDbLine
 10
625.6640906467396
 20
237.946583734151
 30
0.0
 11
626.8779906467398
 21
237.650783734151
 31
0.0
  0
LINE
  5
557
330
1A
100
AcDbEntity
  8
SEIHIN
 48
5.0
100
AcDbLine
 10
626.8779906467398
 20
240.649383734151
 30
0.0
 11
625.6640906467396
 21
238.445183734151
 31
0.0
  0
LINE
  5
558
330
1A
100
AcDbEntity
  8
SEIHIN
 48
5.0
100
AcDbLine
 10
625.6640906467396
 20
241.9464837341509
 30
0.0
 11
626.8779906467398
 21
241.650683734151
 31
0.0
  0
LINE
  5
559
330
1A
100
AcDbEntity
  8
SEIHIN
 48
5.0
100
AcDbLine
 10
626.8779906467398
 20
244.6492837341509
 30
0.0
 11
625.6640906467396
 21
242.445083734151
 31
0.0
  0
LINE
  5
55A
330
1A
100
AcDbEntity
  8
SEIHIN
 48
5.0
100
AcDbLine
 10
625.6640906467396
 20
234.4452837341509
 30
0.0
 11
625.6640906467396
 21
233.946783734151
 31
0.0
  0
LINE
  5
55B
330
1A
100
AcDbEntity
  8
SEIHIN
 48
5.0
100
AcDbLine
 10
625.6640906467396
 20
238.445183734151
 30
0.0
 11
625.6640906467396
 21
237.946583734151
 31
0.0
  0
LINE
  5
55C
330
1A
100
AcDbEntity
  8
SEIHIN
 48
5.0
100
AcDbLine
 10
625.6640906467396
 20
242.445083734151
 30
0.0
 11
625.6640906467396
 21
241.9464837341509
 31
0.0
  0
LINE
  5
55D
330
1A
100
AcDbEntity
  8
SEIHIN
 48
5.0
100
AcDbLine
 10
625.6641906467396
 20
246.444883734151
 30
0.0
 11
625.6641906467396
 21
245.9463837341508
 31
0.0
  0
LINE
  5
55E
330
1A
100
AcDbEntity
  8
SEIHIN
 48
5.0
100
AcDbLine
 10
606.6845906467396
 20
260.6938837341508
 30
0.0
 11
613.1846906467394
 21
260.6938837341508
 31
0.0
  0
LINE
  5
55F
330
1A
100
AcDbEntity
  8
SEIHIN
 48
5.0
100
AcDbLine
 10
608.1845906467397
 20
264.1938837341509
 30
0.0
 11
608.1845906467397
 21
263.1938837341509
 31
0.0
  0
LINE
  5
560
330
1A
100
AcDbEntity
  8
SEIHIN
 48
5.0
100
AcDbLine
 10
605.1845906467397
 20
262.193983734151
 30
0.0
 11
606.6845906467396
 21
260.6938837341508
 31
0.0
  0
LINE
  5
561
330
1A
100
AcDbEntity
  8
SEIHIN
 48
5.0
100
AcDbLine
 10
605.1845906467397
 20
262.193983734151
 30
0.0
 11
605.1845906467397
 21
264.1938837341509
 31
0.0
  0
LINE
  5
562
330
1A
100
AcDbEntity
  8
SEIHIN
 48
5.0
100
AcDbLine
 10
613.5130906467395
 20
263.1938837341509
 30
0.0
 11
617.6848906467394
 21
259.021983734151
 31
0.0
  0
LINE
  5
563
330
1A
100
AcDbEntity
  8
SEIHIN
 48
5.0
100
AcDbLine
 10
613.1846906467394
 20
260.6938837341508
 30
0.0
 11
615.5346906467396
 21
258.3438837341509
 31
0.0
  0
LINE
  5
564
330
1A
100
AcDbEntity
  8
SEIHIN
 48
5.0
100
AcDbLine
 10
657.1888906467397
 20
242.208883734151
 30
0.0
 11
626.8779906467398
 21
233.650883734151
 31
0.0
  0
LINE
  5
565
330
1A
100
AcDbEntity
  8
SEIHIN
 48
5.0
100
AcDbLine
 10
649.1641906467398
 20
247.9429837341509
 30
0.0
 11
626.8779906467398
 21
241.650683734151
 31
0.0
  0
LINE
  5
566
330
1A
100
AcDbEntity
  8
SEIHIN
 48
5.0
100
AcDbLine
 10
626.8779906467398
 20
240.649383734151
 30
0.0
 11
652.7098906467394
 21
247.9429837341509
 31
0.0
  0
LINE
  5
567
330
1A
100
AcDbEntity
  8
SEIHIN
 48
5.0
100
AcDbLine
 10
626.4891906467396
 20
247.943083734151
 30
0.0
 11
656.4924906467394
 21
247.9429837341509
 31
0.0
  0
LINE
  5
568
330
1A
100
AcDbEntity
  8
SEIHIN
 48
5.0
100
AcDbLine
 10
657.1888906467397
 20
246.208783734151
 30
0.0
 11
626.8779906467398
 21
237.650783734151
 31
0.0
  0
LINE
  5
569
330
1A
100
AcDbEntity
  8
SEIHIN
 48
5.0
100
AcDbLine
 10
626.8779906467398
 20
236.649483734151
 30
0.0
 11
657.1888906467397
 21
245.207683734151
 31
0.0
  0
LINE
  5
56A
330
1A
100
AcDbEntity
  8
SEIHIN
 48
5.0
100
AcDbLine
 10
626.8779906467398
 20
237.650783734151
 30
0.0
 11
626.8779906467398
 21
236.649483734151
 31
0.0
  0
LINE
  5
56B
330
1A
100
AcDbEntity
  8
SEIHIN
 48
5.0
100
AcDbLine
 10
626.8779906467398
 20
241.650683734151
 30
0.0
 11
626.8779906467398
 21
240.649383734151
 31
0.0
  0
LINE
  5
56C
330
1A
100
AcDbEntity
  8
SEIHIN
 48
5.0
100
AcDbLine
 10
626.8779906467398
 20
244.6492837341509
 30
0.0
 11
638.5435906467396
 21
247.9429837341509
 31
0.0
  0
LINE
  5
56D
330
1A
100
AcDbEntity
  8
SEIHIN
 48
5.0
100
AcDbLine
 10
634.9974906467395
 20
247.9429837341509
 30
0.0
 11
626.8779906467398
 21
245.650583734151
 31
0.0
  0
LINE
  5
56E
330
1A
100
AcDbEntity
  8
SEIHIN
 48
5.0
100
AcDbLine
 10
626.8779906467398
 20
245.650583734151
 30
0.0
 11
626.8779906467398
 21
244.6492837341509
 31
0.0
  0
LINE
  5
56F
330
1A
100
AcDbEntity
  8
SEIHIN
 48
5.0
100
AcDbLine
 10
657.1888906467397
 20
245.207683734151
 30
0.0
 11
655.9749906467398
 21
243.0034837341509
 31
0.0
  0
LINE
  5
570
330
1A
100
AcDbEntity
  8
SEIHIN
 48
5.0
100
AcDbLine
 10
657.1888906467397
 20
237.207983734151
 30
0.0
 11
655.9749906467398
 21
235.0037837341509
 31
0.0
  0
LINE
  5
571
330
1A
100
AcDbEntity
  8
SEIHIN
 48
5.0
100
AcDbLine
 10
655.9749906467398
 20
234.505183734151
 30
0.0
 11
657.1888906467397
 21
234.2091837341509
 31
0.0
  0
LINE
  5
572
330
1A
100
AcDbEntity
  8
SEIHIN
 48
5.0
100
AcDbLine
 10
657.1888906467397
 20
234.2091837341509
 30
0.0
 11
657.1888906467397
 21
233.2080837341509
 31
0.0
  0
LINE
  5
573
330
1A
100
AcDbEntity
  8
SEIHIN
 48
5.0
100
AcDbLine
 10
655.9749906467398
 20
235.0037837341509
 30
0.0
 11
655.9749906467398
 21
234.505183734151
 31
0.0
  0
LINE
  5
574
330
1A
100
AcDbEntity
  8
SEIHIN
 48
5.0
100
AcDbLine
 10
657.1888906467397
 20
238.209083734151
 30
0.0
 11
657.1888906467397
 21
237.207983734151
 31
0.0
  0
LINE
  5
575
330
1A
100
AcDbEntity
  8
SEIHIN
 48
5.0
100
AcDbLine
 10
655.9749906467398
 20
238.5050837341509
 30
0.0
 11
657.1888906467397
 21
238.209083734151
 31
0.0
  0
LINE
  5
576
330
1A
100
AcDbEntity
  8
SEIHIN
 48
5.0
100
AcDbLine
 10
655.9749906467398
 20
239.003583734151
 30
0.0
 11
655.9749906467398
 21
238.5050837341509
 31
0.0
  0
LINE
  5
577
330
1A
100
AcDbEntity
  8
SEIHIN
 48
5.0
100
AcDbLine
 10
655.9749906467398
 20
242.5049837341509
 30
0.0
 11
657.1888906467397
 21
242.208883734151
 31
0.0
  0
LINE
  5
578
330
1A
100
AcDbEntity
  8
SEIHIN
 48
5.0
100
AcDbLine
 10
657.1888906467397
 20
241.207883734151
 30
0.0
 11
655.9749906467398
 21
239.003583734151
 31
0.0
  0
LINE
  5
579
330
1A
100
AcDbEntity
  8
SEIHIN
 48
5.0
100
AcDbLine
 10
657.1888906467397
 20
242.208883734151
 30
0.0
 11
657.1888906467397
 21
241.207883734151
 31
0.0
  0
LINE
  5
57A
330
1A
100
AcDbEntity
  8
SEIHIN
 48
5.0
100
AcDbLine
 10
655.9749906467398
 20
243.0034837341509
 30
0.0
 11
655.9749906467398
 21
242.5049837341509
 31
0.0
  0
LINE
  5
57B
330
1A
100
AcDbEntity
  8
SEIHIN
 48
5.0
100
AcDbLine
 10
656.4924906467394
 20
247.9429837341509
 30
0.0
 11
655.9749906467398
 21
247.003383734151
 31
0.0
  0
LINE
  5
57C
330
1A
100
AcDbEntity
  8
SEIHIN
 48
5.0
100
AcDbLine
 10
655.9749906467398
 20
246.504883734151
 30
0.0
 11
657.1888906467397
 21
246.208783734151
 31
0.0
  0
LINE
  5
57D
330
1A
100
AcDbEntity
  8
SEIHIN
 48
5.0
100
AcDbLine
 10
655.9749906467398
 20
247.003383734151
 30
0.0
 11
655.9749906467398
 21
246.504883734151
 31
0.0
  0
LINE
  5
57E
330
1A
100
AcDbEntity
  8
SEIHIN
 48
5.0
100
AcDbLine
 10
657.1888906467397
 20
246.208783734151
 30
0.0
 11
657.1888906467397
 21
245.207683734151
 31
0.0
  0
LINE
  5
582
330
1A
100
AcDbEntity
  8
CENTER_L
 48
5.0
100
AcDbLine
 10
660.1845906467397
 20
270.775483734151
 30
0.0
 11
660.1842906467395
 21
174.9580837341509
 31
0.0
  0
LINE
  5
583
330
1A
100
AcDbEntity
  8
SEIHIN
 48
5.0
100
AcDbLine
 10
704.8345906467398
 20
258.343583734151
 30
0.0
 11
704.8344906467396
 21
223.6935837341509
 31
0.0
  0
LINE
  5
584
330
1A
100
AcDbEntity
  8
SEIHIN
 48
5.0
100
AcDbLine
 10
702.6842906467398
 20
227.6941259981453
 30
0.0
 11
702.6842906467396
 21
228.1927414701567
 31
0.0
  0
LINE
  5
586
330
1A
100
AcDbEntity
  8
SEIHIN
 48
5.0
100
AcDbLine
 10
696.7490906467396
 20
232.378183734151
 30
0.0
 11
696.7490906467396
 21
233.3793837341509
 31
0.0
  0
LINE
  5
587
330
1A
100
AcDbEntity
  8
SEIHIN
 48
5.0
100
AcDbLine
 10
696.7490906467396
 20
232.378183734151
 30
0.0
 11
700.5191906467396
 21
233.4426837341509
 31
0.0
  0
LINE
  5
588
330
1A
100
AcDbEntity
  8
SEIHIN
 48
5.0
100
AcDbLine
 10
700.5191906467396
 20
233.4426837341509
 30
0.0
 11
702.6843906467395
 21
232.192583734151
 31
0.0
  0
LINE
  5
58D
330
1A
100
AcDbEntity
  8
SEIHIN
 48
5.0
100
AcDbLine
 10
698.1842906467398
 20
184.693483734151
 30
0.0
 11
698.1843906467395
 21
219.693483734151
 31
0.0
  0
LINE
  5
58E
330
1A
100
AcDbEntity
  8
SEIHIN
 48
5.0
100
AcDbLine
 10
695.6558906467396
 20
221.6935837341509
 30
0.0
 11
696.1843906467398
 21
184.693483734151
 31
0.0
  0
LINE
  5
58F
330
1A
100
AcDbEntity
  8
SEIHIN
 48
5.0
100
AcDbLine
 10
698.1842906467398
 20
184.693483734151
 30
0.0
 11
660.1843906467395
 21
184.6935837341509
 31
0.0
  0
LINE
  5
590
330
1A
100
AcDbEntity
  8
SEIHIN
 48
5.0
100
AcDbLine
 10
702.6843906467395
 20
221.6935837341509
 30
0.0
 11
660.1844906467397
 21
221.6936837341509
 31
0.0
  0
LINE
  5
591
330
1A
100
AcDbEntity
  8
SEIHIN
 48
5.0
100
AcDbLine
 10
704.3344906467396
 20
219.693483734151
 30
0.0
 11
704.3344906467396
 21
223.6935837341509
 31
0.0
  0
LINE
  5
592
330
1A
100
AcDbEntity
  8
SEIHIN
 48
5.0
100
AcDbLine
 10
704.3344906467396
 20
219.693483734151
 30
0.0
 11
698.1843906467395
 21
219.6935837341509
 31
0.0
  0
LINE
  5
593
330
1A
100
AcDbEntity
  8
SEIHIN
 48
5.0
100
AcDbLine
 10
700.5191906467396
 20
230.443883734151
 30
0.0
 11
696.7490906467396
 21
229.3794837341509
 31
0.0
  0
LINE
  5
594
330
1A
100
AcDbEntity
  8
SEIHIN
 48
5.0
100
AcDbLine
 10
696.7490906467396
 20
228.3783837341509
 30
0.0
 11
700.5191906467396
 21
229.442783734151
 31
0.0
  0
LINE
  5
595
330
1A
100
AcDbEntity
  8
SEIHIN
 48
5.0
100
AcDbLine
 10
700.5191906467396
 20
226.443983734151
 30
0.0
 11
697.8610906467397
 21
225.6935837341509
 31
0.0
  0
LINE
  5
596
330
1A
100
AcDbEntity
  8
SEIHIN
 48
5.0
100
AcDbLine
 10
702.6843906467395
 20
232.192583734151
 30
0.0
 11
698.9143906467397
 21
231.1280837341509
 31
0.0
  0
LINE
  5
597
330
1A
100
AcDbEntity
  8
SEIHIN
 48
5.0
100
AcDbLine
 10
702.6843906467395
 20
231.6939837341509
 30
0.0
 11
698.9143906467397
 21
230.6295837341509
 31
0.0
  0
LINE
  5
598
330
1A
100
AcDbEntity
  8
SEIHIN
 48
5.0
100
AcDbLine
 10
702.6843906467395
 20
228.1926837341509
 30
0.0
 11
698.9143906467397
 21
227.1281837341509
 31
0.0
  0
LINE
  5
599
330
1A
100
AcDbEntity
  8
SEIHIN
 48
5.0
100
AcDbLine
 10
702.6843906467395
 20
227.694183734151
 30
0.0
 11
698.9143906467397
 21
226.6296837341509
 31
0.0
  0
LINE
  5
59A
330
1A
100
AcDbEntity
  8
SEIHIN
 48
5.0
100
AcDbLine
 10
697.2928906467395
 20
225.6935837341509
 30
0.0
 11
702.6843906467395
 21
225.6935837341509
 31
0.0
  0
LINE
  5
59B
330
1A
100
AcDbEntity
  8
SEIHIN
 48
5.0
100
AcDbLine
 10
696.7490906467396
 20
232.378183734151
 30
0.0
 11
698.9143906467397
 21
231.1280837341509
 31
0.0
  0
LINE
  5
59C
330
1A
100
AcDbEntity
  8
SEIHIN
 48
5.0
100
AcDbLine
 10
698.9143906467397
 20
231.1280837341509
 30
0.0
 11
698.9143906467397
 21
230.6295837341509
 31
0.0
  0
LINE
  5
59D
330
1A
100
AcDbEntity
  8
SEIHIN
 48
5.0
100
AcDbLine
 10
696.7490906467396
 20
228.3783837341509
 30
0.0
 11
698.9143906467397
 21
227.1281837341509
 31
0.0
  0
LINE
  5
59E
330
1A
100
AcDbEntity
  8
SEIHIN
 48
5.0
100
AcDbLine
 10
696.7490906467396
 20
228.3783837341509
 30
0.0
 11
696.7490906467396
 21
229.3794837341509
 31
0.0
  0
LINE
  5
59F
330
1A
100
AcDbEntity
  8
SEIHIN
 48
5.0
100
AcDbLine
 10
698.9143906467397
 20
230.6295837341509
 30
0.0
 11
696.7490906467396
 21
229.3794837341509
 31
0.0
  0
LINE
  5
5A0
330
1A
100
AcDbEntity
  8
SEIHIN
 48
5.0
100
AcDbLine
 10
698.9143906467397
 20
227.1281837341509
 30
0.0
 11
698.9143906467397
 21
226.6296837341509
 31
0.0
  0
LINE
  5
5A1
330
1A
100
AcDbEntity
  8
SEIHIN
 48
5.0
100
AcDbLine
 10
698.9143906467397
 20
226.6296837341509
 30
0.0
 11
697.2928906467395
 21
225.6935837341509
 31
0.0
  0
LINE
  5
5A2
330
1A
100
AcDbEntity
  8
SEIHIN
 48
5.0
100
AcDbLine
 10
700.5191906467396
 20
229.442783734151
 30
0.0
 11
700.5191906467396
 21
230.443983734151
 31
0.0
  0
LINE
  5
5A3
330
1A
100
AcDbEntity
  8
SEIHIN
 48
5.0
100
AcDbLine
 10
700.5191906467396
 20
225.6936837341509
 30
0.0
 11
700.5191906467396
 21
226.4440837341509
 31
0.0
  0
LINE
  5
5A4
330
1A
100
AcDbEntity
  8
SEIHIN
 48
5.0
100
AcDbLine
 10
702.6843906467395
 20
231.6939837341509
 30
0.0
 11
700.5191906467396
 21
230.443983734151
 31
0.0
  0
LINE
  5
5A5
330
1A
100
AcDbEntity
  8
SEIHIN
 48
5.0
100
AcDbLine
 10
702.6843906467395
 20
227.694183734151
 30
0.0
 11
700.5191906467396
 21
226.4440837341509
 31
0.0
  0
LINE
  5
5A6
330
1A
100
AcDbEntity
  8
SEIHIN
 48
5.0
100
AcDbLine
 10
700.5191906467396
 20
229.442783734151
 30
0.0
 11
702.6843906467395
 21
228.1926837341509
 31
0.0
  0
LINE
  5
5A7
330
1A
100
AcDbEntity
  8
SEIHIN
 48
5.0
100
AcDbLine
 10
704.3344906467396
 20
223.6935837341509
 30
0.0
 11
704.8344906467396
 21
223.6935837341509
 31
0.0
  0
LINE
  5
5B1
330
1A
100
AcDbEntity
  8
SEIHIN
 48
5.0
100
AcDbLine
 10
660.1845906467397
 20
264.193683734151
 30
0.0
 11
715.1845906467396
 21
264.193583734151
 31
0.0
  0
LINE
  5
5B2
330
1A
100
AcDbEntity
  8
SEIHIN
 48
5.0
100
AcDbLine
 10
702.6842906467398
 20
259.0217837341509
 30
0.0
 11
660.1846906467397
 21
259.0217837341509
 31
0.0
  0
LINE
  5
5B3
330
1A
100
AcDbEntity
  8
SEIHIN
 48
5.0
100
AcDbLine
 10
712.1845906467394
 20
263.1935837341509
 30
0.0
 11
660.1845906467397
 21
263.1936837341509
 31
0.0
  0
LINE
  5
5B4
330
1A
100
AcDbEntity
  8
SEIHIN
 48
5.0
100
AcDbLine
 10
696.7490906467396
 20
244.3778837341509
 30
0.0
 11
698.9143906467397
 21
243.1276837341509
 31
0.0
  0
LINE
  5
5B5
330
1A
100
AcDbEntity
  8
SEIHIN
 48
5.0
100
AcDbLine
 10
700.5191906467396
 20
245.4422837341509
 30
0.0
 11
702.6843906467395
 21
244.192183734151
 31
0.0
  0
LINE
  5
5B6
330
1A
100
AcDbEntity
  8
SEIHIN
 48
5.0
100
AcDbLine
 10
702.6843906467395
 20
236.192483734151
 30
0.0
 11
698.9143906467397
 21
235.127983734151
 31
0.0
  0
LINE
  5
5B7
330
1A
100
AcDbEntity
  8
SEIHIN
 48
5.0
100
AcDbLine
 10
700.5191906467396
 20
234.4437837341509
 30
0.0
 11
696.7490906467396
 21
233.3793837341509
 31
0.0
  0
LINE
  5
5B8
330
1A
100
AcDbEntity
  8
SEIHIN
 48
5.0
100
AcDbLine
 10
702.6843906467395
 20
235.6938837341508
 30
0.0
 11
698.9143906467397
 21
234.6294837341509
 31
0.0
  0
LINE
  5
5B9
330
1A
100
AcDbEntity
  8
SEIHIN
 48
5.0
100
AcDbLine
 10
700.5191906467396
 20
238.4436837341509
 30
0.0
 11
696.7490906467396
 21
237.379183734151
 31
0.0
  0
LINE
  5
5BA
330
1A
100
AcDbEntity
  8
SEIHIN
 48
5.0
100
AcDbLine
 10
696.7490906467396
 20
236.378083734151
 30
0.0
 11
700.5191906467396
 21
237.442583734151
 31
0.0
  0
LINE
  5
5BB
330
1A
100
AcDbEntity
  8
SEIHIN
 48
5.0
100
AcDbLine
 10
700.5191906467396
 20
242.4435837341509
 30
0.0
 11
696.7490906467396
 21
241.3790837341509
 31
0.0
  0
LINE
  5
5BC
330
1A
100
AcDbEntity
  8
SEIHIN
 48
5.0
100
AcDbLine
 10
696.7490906467396
 20
240.3779837341509
 30
0.0
 11
700.5191906467396
 21
241.442483734151
 31
0.0
  0
LINE
  5
5BD
330
1A
100
AcDbEntity
  8
SEIHIN
 48
5.0
100
AcDbLine
 10
702.6843906467395
 20
244.192183734151
 30
0.0
 11
698.9143906467397
 21
243.1276837341509
 31
0.0
  0
LINE
  5
5BE
330
1A
100
AcDbEntity
  8
SEIHIN
 48
5.0
100
AcDbLine
 10
702.6843906467395
 20
243.693683734151
 30
0.0
 11
698.9143906467397
 21
242.629183734151
 31
0.0
  0
LINE
  5
5BF
330
1A
100
AcDbEntity
  8
SEIHIN
 48
5.0
100
AcDbLine
 10
702.6843906467395
 20
240.192283734151
 30
0.0
 11
698.9143906467397
 21
239.127883734151
 31
0.0
  0
LINE
  5
5C0
330
1A
100
AcDbEntity
  8
SEIHIN
 48
5.0
100
AcDbLine
 10
702.6843906467395
 20
239.693783734151
 30
0.0
 11
698.9143906467397
 21
238.629283734151
 31
0.0
  0
LINE
  5
5C1
330
1A
100
AcDbEntity
  8
SEIHIN
 48
5.0
100
AcDbLine
 10
696.7490906467396
 20
236.378083734151
 30
0.0
 11
698.9143906467397
 21
235.127983734151
 31
0.0
  0
LINE
  5
5C2
330
1A
100
AcDbEntity
  8
SEIHIN
 48
5.0
100
AcDbLine
 10
698.9143906467397
 20
234.6294837341509
 30
0.0
 11
696.7490906467396
 21
233.3793837341509
 31
0.0
  0
LINE
  5
5C3
330
1A
100
AcDbEntity
  8
SEIHIN
 48
5.0
100
AcDbLine
 10
698.9143906467397
 20
235.127983734151
 30
0.0
 11
698.9143906467397
 21
234.6294837341509
 31
0.0
  0
LINE
  5
5C4
330
1A
100
AcDbEntity
  8
SEIHIN
 48
5.0
100
AcDbLine
 10
696.7490906467396
 20
240.3779837341509
 30
0.0
 11
698.9143906467397
 21
239.127883734151
 31
0.0
  0
LINE
  5
5C5
330
1A
100
AcDbEntity
  8
SEIHIN
 48
5.0
100
AcDbLine
 10
698.9143906467397
 20
238.629283734151
 30
0.0
 11
696.7490906467396
 21
237.379183734151
 31
0.0
  0
LINE
  5
5C6
330
1A
100
AcDbEntity
  8
SEIHIN
 48
5.0
100
AcDbLine
 10
696.7490906467396
 20
236.378083734151
 30
0.0
 11
696.7490906467396
 21
237.379183734151
 31
0.0
  0
LINE
  5
5C7
330
1A
100
AcDbEntity
  8
SEIHIN
 48
5.0
100
AcDbLine
 10
698.9143906467397
 20
243.1276837341509
 30
0.0
 11
698.9143906467397
 21
242.629183734151
 31
0.0
  0
LINE
  5
5C8
330
1A
100
AcDbEntity
  8
SEIHIN
 48
5.0
100
AcDbLine
 10
698.9143906467397
 20
239.127883734151
 30
0.0
 11
698.9143906467397
 21
238.629283734151
 31
0.0
  0
LINE
  5
5C9
330
1A
100
AcDbEntity
  8
SEIHIN
 48
5.0
100
AcDbLine
 10
696.7490906467396
 20
240.3779837341509
 30
0.0
 11
696.7490906467396
 21
241.3790837341509
 31
0.0
  0
LINE
  5
5CA
330
1A
100
AcDbEntity
  8
SEIHIN
 48
5.0
100
AcDbLine
 10
698.9143906467397
 20
242.629183734151
 30
0.0
 11
696.7490906467396
 21
241.3790837341509
 31
0.0
  0
LINE
  5
5CB
330
1A
100
AcDbEntity
  8
SEIHIN
 48
5.0
100
AcDbLine
 10
700.5191906467396
 20
233.4426837341509
 30
0.0
 11
700.5191906467396
 21
234.4437837341509
 31
0.0
  0
LINE
  5
5CC
330
1A
100
AcDbEntity
  8
SEIHIN
 48
5.0
100
AcDbLine
 10
702.6843906467395
 20
235.6938837341508
 30
0.0
 11
700.5191906467396
 21
234.4437837341509
 31
0.0
  0
LINE
  5
5CD
330
1A
100
AcDbEntity
  8
SEIHIN
 48
5.0
100
AcDbLine
 10
702.6843906467395
 20
244.192183734151
 30
0.0
 11
702.6843906467395
 21
243.693683734151
 31
0.0
  0
LINE
  5
5CE
330
1A
100
AcDbEntity
  8
SEIHIN
 48
5.0
100
AcDbLine
 10
700.5191906467396
 20
241.442483734151
 30
0.0
 11
700.5191906467396
 21
242.4435837341509
 31
0.0
  0
LINE
  5
5CF
330
1A
100
AcDbEntity
  8
SEIHIN
 48
5.0
100
AcDbLine
 10
700.5191906467396
 20
237.442583734151
 30
0.0
 11
700.5191906467396
 21
238.4436837341509
 31
0.0
  0
LINE
  5
5D0
330
1A
100
AcDbEntity
  8
SEIHIN
 48
5.0
100
AcDbLine
 10
702.6843906467395
 20
243.693683734151
 30
0.0
 11
700.5191906467396
 21
242.4435837341509
 31
0.0
  0
LINE
  5
5D1
330
1A
100
AcDbEntity
  8
SEIHIN
 48
5.0
100
AcDbLine
 10
702.6843906467395
 20
239.693783734151
 30
0.0
 11
700.5191906467396
 21
238.4436837341509
 31
0.0
  0
LINE
  5
5D2
330
1A
100
AcDbEntity
  8
SEIHIN
 48
5.0
100
AcDbLine
 10
700.5191906467396
 20
241.442483734151
 30
0.0
 11
702.6843906467395
 21
240.192283734151
 31
0.0
  0
LINE
  5
5D3
330
1A
100
AcDbEntity
  8
SEIHIN
 48
5.0
100
AcDbLine
 10
700.5191906467396
 20
237.442583734151
 30
0.0
 11
702.6843906467395
 21
236.192483734151
 31
0.0
  0
LINE
  5
5D4
330
1A
100
AcDbEntity
  8
SEIHIN
 48
5.0
100
AcDbLine
 10
701.8017906467396
 20
247.9428837341509
 30
0.0
 11
698.9143906467397
 21
247.127583734151
 31
0.0
  0
LINE
  5
5D5
330
1A
100
AcDbEntity
  8
SEIHIN
 48
5.0
100
AcDbLine
 10
702.6843906467395
 20
247.6935837341509
 30
0.0
 11
698.9143906467397
 21
246.629083734151
 31
0.0
  0
LINE
  5
5D6
330
1A
100
AcDbEntity
  8
SEIHIN
 48
5.0
100
AcDbLine
 10
696.7490906467396
 20
244.3778837341509
 30
0.0
 11
700.5191906467396
 21
245.4422837341509
 31
0.0
  0
LINE
  5
5D7
330
1A
100
AcDbEntity
  8
SEIHIN
 48
5.0
100
AcDbLine
 10
700.5191906467396
 20
246.4433837341509
 30
0.0
 11
696.7490906467396
 21
245.3789837341509
 31
0.0
  0
LINE
  5
5D8
330
1A
100
AcDbEntity
  8
SEIHIN
 48
5.0
100
AcDbLine
 10
697.5022906467398
 20
247.9428837341509
 30
0.0
 11
702.6843906467395
 21
247.9428837341509
 31
0.0
  0
LINE
  5
5D9
330
1A
100
AcDbEntity
  8
SEIHIN
 48
5.0
100
AcDbLine
 10
697.5022906467398
 20
247.9428837341509
 30
0.0
 11
698.9143906467397
 21
247.127583734151
 31
0.0
  0
LINE
  5
5DA
330
1A
100
AcDbEntity
  8
SEIHIN
 48
5.0
100
AcDbLine
 10
698.9143906467397
 20
247.127583734151
 30
0.0
 11
698.9143906467397
 21
246.629083734151
 31
0.0
  0
LINE
  5
5DB
330
1A
100
AcDbEntity
  8
SEIHIN
 48
5.0
100
AcDbLine
 10
696.7490906467396
 20
244.3778837341509
 30
0.0
 11
696.7490906467396
 21
245.3789837341509
 31
0.0
  0
LINE
  5
5DC
330
1A
100
AcDbEntity
  8
SEIHIN
 48
5.0
100
AcDbLine
 10
698.9143906467397
 20
246.629083734151
 30
0.0
 11
696.7490906467396
 21
245.3789837341509
 31
0.0
  0
LINE
  5
5DD
330
1A
100
AcDbEntity
  8
SEIHIN
 48
5.0
100
AcDbLine
 10
702.6843906467395
 20
247.9429837341509
 30
0.0
 11
702.6843906467395
 21
247.6935837341509
 31
0.0
  0
LINE
  5
5DE
330
1A
100
AcDbEntity
  8
SEIHIN
 48
5.0
100
AcDbLine
 10
702.6843906467395
 20
247.6935837341509
 30
0.0
 11
700.5191906467396
 21
246.443483734151
 31
0.0
  0
LINE
  5
5DF
330
1A
100
AcDbEntity
  8
SEIHIN
 48
5.0
100
AcDbLine
 10
700.5191906467396
 20
245.4422837341509
 30
0.0
 11
700.5191906467396
 21
246.443483734151
 31
0.0
  0
LINE
  5
5E0
330
1A
100
AcDbEntity
  8
SEIHIN
 48
5.0
100
AcDbLine
 10
713.6845906467394
 20
260.6935837341509
 30
0.0
 11
707.1845906467395
 21
260.6935837341509
 31
0.0
  0
LINE
  5
5E1
330
1A
100
AcDbEntity
  8
SEIHIN
 48
5.0
100
AcDbLine
 10
706.8561906467396
 20
263.1935837341509
 30
0.0
 11
702.6842906467398
 21
259.0217837341509
 31
0.0
  0
LINE
  5
5E2
330
1A
100
AcDbEntity
  8
SEIHIN
 48
5.0
100
AcDbLine
 10
707.1845906467395
 20
260.6935837341509
 30
0.0
 11
704.8345906467398
 21
258.343583734151
 31
0.0
  0
LINE
  5
5E3
330
1A
100
AcDbEntity
  8
SEIHIN
 48
5.0
100
AcDbLine
 10
715.1845906467396
 20
262.193583734151
 30
0.0
 11
715.1845906467396
 21
264.193583734151
 31
0.0
  0
LINE
  5
5E4
330
1A
100
AcDbEntity
  8
SEIHIN
 48
5.0
100
AcDbLine
 10
715.1845906467396
 20
262.193583734151
 30
0.0
 11
713.6845906467394
 21
260.6935837341509
 31
0.0
  0
LINE
  5
5E5
330
1A
100
AcDbEntity
  8
SEIHIN
 48
5.0
100
AcDbLine
 10
712.1845906467394
 20
264.193583734151
 30
0.0
 11
712.1845906467394
 21
263.1935837341509
 31
0.0
  0
LINE
  5
5E8
330
1A
100
AcDbEntity
  8
SEIHIN
 48
5.0
100
AcDbLine
 10
700.5194906467397
 20
336.0885516614824
 30
0.0
 11
655.1422906467396
 21
322.5885516614826
 31
0.0
  0
LINE
  5
5E9
330
1A
100
AcDbEntity
  8
SEIHIN
 48
5.0
100
AcDbLine
 10
617.6843906467397
 20
322.5886516614826
 30
0.0
 11
702.6846906467397
 21
322.5884516614826
 31
0.0
  0
LINE
  5
5EA
330
1A
100
AcDbEntity
  8
SEIHIN
 48
5.0
100
AcDbLine
 10
702.6846906467397
 20
354.3391516614826
 30
0.0
 11
617.6843906467397
 21
330.3393516614826
 31
0.0
  0
LINE
  5
5EB
330
1A
100
AcDbEntity
  8
SEIHIN
 48
5.0
100
AcDbLine
 10
702.6846906467397
 20
350.3392516614826
 30
0.0
 11
617.6843906467397
 21
326.3394516614826
 31
0.0
  0
LINE
  5
5EC
330
1A
100
AcDbEntity
  8
SEIHIN
 48
5.0
100
AcDbLine
 10
702.6846906467397
 20
350.8377516614826
 30
0.0
 11
617.6843906467397
 21
326.8379516614826
 31
0.0
  0
LINE
  5
5ED
330
1A
100
AcDbEntity
  8
SEIHIN
 48
5.0
100
AcDbLine
 10
702.6846906467397
 20
346.8379516614827
 30
0.0
 11
617.6843906467397
 21
322.8381516614826
 31
0.0
  0
LINE
  5
5EE
330
1A
100
AcDbEntity
  8
SEIHIN
 48
5.0
100
AcDbLine
 10
702.6846906467397
 20
346.3393516614826
 30
0.0
 11
618.5663906467396
 21
322.5886516614826
 31
0.0
  0
LINE
  5
5EF
330
1A
100
AcDbEntity
  8
SEIHIN
 48
5.0
100
AcDbLine
 10
695.4802906467396
 20
354.5884516614826
 30
0.0
 11
619.8495906467394
 21
332.0878516614825
 31
0.0
  0
LINE
  5
5F0
330
1A
100
AcDbEntity
  8
SEIHIN
 48
5.0
100
AcDbLine
 10
619.8495906467394
 20
333.0889516614826
 30
0.0
 11
692.1152906467396
 21
354.5884516614826
 31
0.0
  0
LINE
  5
5F1
330
1A
100
AcDbEntity
  8
SEIHIN
 48
5.0
100
AcDbLine
 10
702.6846906467397
 20
342.8380516614826
 30
0.0
 11
630.9670906467395
 21
322.5886516614826
 31
0.0
  0
LINE
  5
5F2
330
1A
100
AcDbEntity
  8
SEIHIN
 48
5.0
100
AcDbLine
 10
702.6846906467397
 20
342.3394516614824
 30
0.0
 11
632.7326906467394
 21
322.5886516614826
 31
0.0
  0
LINE
  5
5F3
330
1A
100
AcDbEntity
  8
SEIHIN
 48
5.0
100
AcDbLine
 10
682.0358906467395
 20
354.5884516614826
 30
0.0
 11
619.8495906467394
 21
336.0876516614826
 31
0.0
  0
LINE
  5
5F4
330
1A
100
AcDbEntity
  8
SEIHIN
 48
5.0
100
AcDbLine
 10
619.8495906467394
 20
337.0887516614826
 30
0.0
 11
678.6708906467397
 21
354.5885516614826
 31
0.0
  0
LINE
  5
5F5
330
1A
100
AcDbEntity
  8
SEIHIN
 48
5.0
100
AcDbLine
 10
702.6846906467397
 20
338.8381516614825
 30
0.0
 11
645.1333906467398
 21
322.5885516614826
 31
0.0
  0
LINE
  5
5F6
330
1A
100
AcDbEntity
  8
SEIHIN
 48
5.0
100
AcDbLine
 10
702.6846906467397
 20
338.3396516614826
 30
0.0
 11
646.8989906467397
 21
322.5885516614826
 31
0.0
  0
LINE
  5
5F7
330
1A
100
AcDbEntity
  8
SEIHIN
 48
5.0
100
AcDbLine
 10
701.8020906467397
 20
354.5884516614826
 30
0.0
 11
617.6843906467397
 21
330.8378516614826
 31
0.0
  0
LINE
  5
5F8
330
1A
100
AcDbEntity
  8
SEIHIN
 48
5.0
100
AcDbLine
 10
619.8495906467394
 20
329.0891516614826
 30
0.0
 11
700.5194906467397
 21
353.0889516614826
 31
0.0
  0
LINE
  5
5F9
330
1A
100
AcDbEntity
  8
SEIHIN
 48
5.0
100
AcDbLine
 10
700.5194906467397
 20
352.0878516614826
 30
0.0
 11
619.8495906467394
 21
328.0879516614827
 31
0.0
  0
LINE
  5
5FA
330
1A
100
AcDbEntity
  8
SEIHIN
 48
5.0
100
AcDbLine
 10
689.4013906467396
 20
354.5884516614826
 30
0.0
 11
617.6843906467397
 21
334.3392516614826
 31
0.0
  0
LINE
  5
5FB
330
1A
100
AcDbEntity
  8
SEIHIN
 48
5.0
100
AcDbLine
 10
687.6357906467396
 20
354.5884516614826
 30
0.0
 11
617.6843906467397
 21
334.8377516614827
 31
0.0
  0
LINE
  5
5FC
330
1A
100
AcDbEntity
  8
SEIHIN
 48
5.0
100
AcDbLine
 10
619.8495906467394
 20
325.0893516614826
 30
0.0
 11
700.5194906467397
 21
349.0891516614826
 31
0.0
  0
LINE
  5
5FD
330
1A
100
AcDbEntity
  8
SEIHIN
 48
5.0
100
AcDbLine
 10
700.5194906467397
 20
348.0880516614826
 30
0.0
 11
619.8495906467394
 21
324.0881516614825
 31
0.0
  0
LINE
  5
5FE
330
1A
100
AcDbEntity
  8
SEIHIN
 48
5.0
100
AcDbLine
 10
675.2350906467397
 20
354.5885516614826
 30
0.0
 11
617.6843906467397
 21
338.3390516614825
 31
0.0
  0
LINE
  5
5FF
330
1A
100
AcDbEntity
  8
SEIHIN
 48
5.0
100
AcDbLine
 10
673.4694906467396
 20
354.5885516614826
 30
0.0
 11
617.6843906467397
 21
338.8376516614824
 31
0.0
  0
LINE
  5
600
330
1A
100
AcDbEntity
  8
SEIHIN
 48
5.0
100
AcDbLine
 10
624.8885906467396
 20
322.5886516614826
 30
0.0
 11
700.5194906467397
 21
345.0893516614826
 31
0.0
  0
LINE
  5
601
330
1A
100
AcDbEntity
  8
SEIHIN
 48
5.0
100
AcDbLine
 10
700.5194906467397
 20
344.0882516614826
 30
0.0
 11
628.2535906467396
 21
322.5886516614826
 31
0.0
  0
LINE
  5
602
330
1A
100
AcDbEntity
  8
SEIHIN
 48
5.0
100
AcDbLine
 10
638.3328906467395
 20
322.5886516614826
 30
0.0
 11
700.5194906467397
 21
341.0895516614826
 31
0.0
  0
LINE
  5
603
330
1A
100
AcDbEntity
  8
SEIHIN
 48
5.0
100
AcDbLine
 10
700.5194906467397
 20
340.0883516614825
 30
0.0
 11
641.6979906467395
 21
322.5885516614826
 31
0.0
  0
LINE
  5
604
330
1A
100
AcDbEntity
  8
SEIHIN
 48
5.0
100
AcDbLine
 10
651.7772906467396
 20
322.5885516614826
 30
0.0
 11
700.5194906467397
 21
337.0897516614825
 31
0.0
  0
LINE
  5
60B
330
1A
100
AcDbEntity
  8
SEIHIN
 48
5.0
100
AcDbLine
 10
668.5915906467396
 20
354.5885516614826
 30
0.0
 11
619.8495906467394
 21
340.0874516614825
 31
0.0
  0
LINE
  5
60C
330
1A
100
AcDbEntity
  8
SEIHIN
 48
5.0
100
AcDbLine
 10
619.8495906467394
 20
341.0885516614825
 30
0.0
 11
665.2265906467396
 21
354.5885516614826
 31
0.0
  0
LINE
  5
60D
330
1A
100
AcDbEntity
  8
SEIHIN
 48
5.0
100
AcDbLine
 10
660.1843906467395
 20
354.5885516614826
 30
0.0
 11
617.6843906467397
 21
354.5886516614826
 31
0.0
  0
LINE
  5
60E
330
1A
100
AcDbEntity
  8
SEIHIN
 48
5.0
100
AcDbLine
 10
659.3033906467397
 20
354.5885516614826
 30
0.0
 11
617.6843906467397
 21
342.8374516614826
 31
0.0
  0
LINE
  5
60F
330
1A
100
AcDbEntity
  8
SEIHIN
 48
5.0
100
AcDbLine
 10
661.0689906467396
 20
354.5885516614826
 30
0.0
 11
617.6843906467397
 21
342.3389516614826
 31
0.0
  0
LINE
  5
611
330
1A
100
AcDbEntity
  8
SEIHIN
 48
5.0
100
AcDbLine
 10
660.1846906467397
 20
378.5885516614825
 30
0.0
 11
647.1846906467394
 21
378.5885516614825
 31
0.0
  0
LINE
  5
614
330
1A
100
AcDbEntity
  8
SEIHIN
 48
5.0
100
AcDbLine
 10
614.1845906467397
 20
360.5887516614824
 30
0.0
 11
610.1845906467397
 21
359.5887516614826
 31
0.0
  0
ARC
  5
615
330
1A
100
AcDbEntity
  8
SEIHIN
 48
5.0
100
AcDbCircle
 10
621.4346906467397
 20
362.5888516614824
 30
0.0
 40
1.999999999999914
100
AcDbArc
 50
270.0000000000024
 51
0.0000000000024427
  0
ARC
  5
616
330
1A
100
AcDbEntity
  8
SEIHIN
 48
5.0
100
AcDbCircle
 10
655.6845906467397
 20
362.5885516614825
 30
0.0
 40
1.999999999999914
100
AcDbArc
 50
270.0000000000024
 51
0.0000000000024427
  0
LINE
  5
61A
330
1A
100
AcDbEntity
  8
SEIHIN
 48
5.0
100
AcDbLine
 10
619.8495906467394
 20
345.0883516614826
 30
0.0
 11
651.7821906467395
 21
354.5885516614826
 31
0.0
  0
LINE
  5
61B
330
1A
100
AcDbEntity
  8
SEIHIN
 48
5.0
100
AcDbLine
 10
641.7027906467397
 20
354.5885516614826
 30
0.0
 11
619.8495906467394
 21
348.0870516614826
 31
0.0
  0
LINE
  5
61C
330
1A
100
AcDbEntity
  8
SEIHIN
 48
5.0
100
AcDbLine
 10
619.8495906467394
 20
349.0882516614826
 30
0.0
 11
638.3378906467396
 21
354.5886516614826
 31
0.0
  0
LINE
  5
61D
330
1A
100
AcDbEntity
  8
SEIHIN
 48
5.0
100
AcDbLine
 10
645.1372906467398
 20
354.5885516614826
 30
0.0
 11
617.6843906467397
 21
346.8372516614825
 31
0.0
  0
LINE
  5
61E
330
1A
100
AcDbEntity
  8
SEIHIN
 48
5.0
100
AcDbLine
 10
646.9028906467396
 20
354.5885516614826
 30
0.0
 11
617.6843906467397
 21
346.3387516614825
 31
0.0
  0
LINE
  5
61F
330
1A
100
AcDbEntity
  8
SEIHIN
 48
5.0
100
AcDbLine
 10
655.1471906467398
 20
354.5885516614826
 30
0.0
 11
619.8495906467394
 21
344.0872516614826
 31
0.0
  0
LINE
  5
620
330
1A
100
AcDbEntity
  8
SEIHIN
 48
5.0
100
AcDbLine
 10
628.2584906467397
 20
354.5886516614826
 30
0.0
 11
619.8495906467394
 21
352.0868516614827
 31
0.0
  0
LINE
  5
621
330
1A
100
AcDbEntity
  8
SEIHIN
 48
5.0
100
AcDbLine
 10
630.9711906467396
 20
354.5886516614826
 30
0.0
 11
617.6843906467397
 21
350.8370516614827
 31
0.0
  0
LINE
  5
622
330
1A
100
AcDbEntity
  8
SEIHIN
 48
5.0
100
AcDbLine
 10
632.7367906467397
 20
354.5886516614826
 30
0.0
 11
617.6843906467397
 21
350.3385516614826
 31
0.0
  0
LINE
  5
623
330
1A
100
AcDbEntity
  8
SEIHIN
 48
5.0
100
AcDbLine
 10
619.8495906467394
 20
336.0876516614826
 30
0.0
 11
619.8495906467394
 21
337.0887516614826
 31
0.0
  0
LINE
  5
624
330
1A
100
AcDbEntity
  8
SEIHIN
 48
5.0
100
AcDbLine
 10
617.6843906467397
 20
326.3393516614826
 30
0.0
 11
619.8495906467394
 21
325.0893516614826
 31
0.0
  0
LINE
  5
625
330
1A
100
AcDbEntity
  8
SEIHIN
 48
5.0
100
AcDbLine
 10
619.8495906467394
 20
324.0881516614825
 30
0.0
 11
617.6843906467397
 21
322.8381516614826
 31
0.0
  0
LINE
  5
626
330
1A
100
AcDbEntity
  8
SEIHIN
 48
5.0
100
AcDbLine
 10
617.6843906467397
 20
322.8381516614826
 30
0.0
 11
617.6843906467397
 21
322.5886516614826
 31
0.0
  0
LINE
  5
627
330
1A
100
AcDbEntity
  8
SEIHIN
 48
5.0
100
AcDbLine
 10
619.8495906467394
 20
324.0881516614825
 30
0.0
 11
619.8495906467394
 21
325.0893516614826
 31
0.0
  0
LINE
  5
628
330
1A
100
AcDbEntity
  8
SEIHIN
 48
5.0
100
AcDbLine
 10
619.8493906467395
 20
322.5887516614826
 30
0.0
 11
619.8493906467395
 21
318.5886516614826
 31
0.0
  0
LINE
  5
629
330
1A
100
AcDbEntity
  8
SEIHIN
 48
5.0
100
AcDbLine
 10
619.8494906467397
 20
320.0883516614826
 30
0.0
 11
619.8495906467394
 21
321.0894516614824
 31
0.0
  0
LINE
  5
62A
330
1A
100
AcDbEntity
  8
SEIHIN
 48
5.0
100
AcDbLine
 10
619.8495906467394
 20
328.0879516614827
 30
0.0
 11
617.6843906467397
 21
326.8379516614826
 31
0.0
  0
LINE
  5
62B
330
1A
100
AcDbEntity
  8
SEIHIN
 48
5.0
100
AcDbLine
 10
617.6843906467397
 20
334.3390516614825
 30
0.0
 11
619.8495906467394
 21
333.0889516614826
 31
0.0
  0
LINE
  5
62C
330
1A
100
AcDbEntity
  8
SEIHIN
 48
5.0
100
AcDbLine
 10
619.8495906467394
 20
336.0876516614826
 30
0.0
 11
617.6843906467397
 21
334.8375516614826
 31
0.0
  0
LINE
  5
62D
330
1A
100
AcDbEntity
  8
SEIHIN
 48
5.0
100
AcDbLine
 10
617.6843906467397
 20
330.3392516614825
 30
0.0
 11
619.8495906467394
 21
329.0891516614826
 31
0.0
  0
LINE
  5
62E
330
1A
100
AcDbEntity
  8
SEIHIN
 48
5.0
100
AcDbLine
 10
619.8495906467394
 20
332.0878516614825
 30
0.0
 11
617.6843906467397
 21
330.8377516614827
 31
0.0
  0
LINE
  5
62F
330
1A
100
AcDbEntity
  8
SEIHIN
 48
5.0
100
AcDbLine
 10
617.6843906467397
 20
326.8379516614826
 30
0.0
 11
617.6843906467397
 21
326.3393516614826
 31
0.0
  0
LINE
  5
630
330
1A
100
AcDbEntity
  8
SEIHIN
 48
5.0
100
AcDbLine
 10
617.6843906467397
 20
334.8375516614826
 30
0.0
 11
617.6843906467397
 21
334.3390516614825
 31
0.0
  0
LINE
  5
631
330
1A
100
AcDbEntity
  8
SEIHIN
 48
5.0
100
AcDbLine
 10
617.6843906467397
 20
330.8377516614827
 30
0.0
 11
617.6843906467397
 21
330.3392516614825
 31
0.0
  0
LINE
  5
632
330
1A
100
AcDbEntity
  8
SEIHIN
 48
5.0
100
AcDbLine
 10
619.8495906467394
 20
328.0879516614827
 30
0.0
 11
619.8495906467394
 21
329.0891516614826
 31
0.0
  0
LINE
  5
633
330
1A
100
AcDbEntity
  8
SEIHIN
 48
5.0
100
AcDbLine
 10
619.8495906467394
 20
332.0878516614825
 30
0.0
 11
619.8495906467394
 21
333.0889516614826
 31
0.0
  0
LINE
  5
634
330
1A
100
AcDbEntity
  8
SEIHIN
 48
5.0
100
AcDbLine
 10
619.8495906467394
 20
348.0870516614826
 30
0.0
 11
619.8495906467394
 21
349.0882516614826
 31
0.0
  0
LINE
  5
635
330
1A
100
AcDbEntity
  8
SEIHIN
 48
5.0
100
AcDbLine
 10
617.6843906467397
 20
338.3388516614825
 30
0.0
 11
619.8495906467394
 21
337.0887516614826
 31
0.0
  0
LINE
  5
636
330
1A
100
AcDbEntity
  8
SEIHIN
 48
5.0
100
AcDbLine
 10
619.8495906467394
 20
340.0874516614825
 30
0.0
 11
617.6843906467397
 21
338.8373516614825
 31
0.0
  0
LINE
  5
637
330
1A
100
AcDbEntity
  8
SEIHIN
 48
5.0
100
AcDbLine
 10
619.8495906467394
 20
344.0872516614826
 30
0.0
 11
617.6843906467397
 21
342.8372516614825
 31
0.0
  0
LINE
  5
638
330
1A
100
AcDbEntity
  8
SEIHIN
 48
5.0
100
AcDbLine
 10
617.6843906467397
 20
346.3384516614826
 30
0.0
 11
619.8495906467394
 21
345.0883516614826
 31
0.0
  0
LINE
  5
639
330
1A
100
AcDbEntity
  8
SEIHIN
 48
5.0
100
AcDbLine
 10
619.8495906467394
 20
348.0870516614826
 30
0.0
 11
617.6843906467397
 21
346.8370516614827
 31
0.0
  0
LINE
  5
63A
330
1A
100
AcDbEntity
  8
SEIHIN
 48
5.0
100
AcDbLine
 10
617.6843906467397
 20
342.3386516614826
 30
0.0
 11
619.8495906467394
 21
341.0885516614825
 31
0.0
  0
LINE
  5
63B
330
1A
100
AcDbEntity
  8
SEIHIN
 48
5.0
100
AcDbLine
 10
617.6843906467397
 20
338.8373516614825
 30
0.0
 11
617.6843906467397
 21
338.3388516614825
 31
0.0
  0
LINE
  5
63C
330
1A
100
AcDbEntity
  8
SEIHIN
 48
5.0
100
AcDbLine
 10
617.6843906467397
 20
342.8372516614825
 30
0.0
 11
617.6843906467397
 21
342.3386516614826
 31
0.0
  0
LINE
  5
63D
330
1A
100
AcDbEntity
  8
SEIHIN
 48
5.0
100
AcDbLine
 10
617.6843906467397
 20
346.8370516614827
 30
0.0
 11
617.6843906467397
 21
346.3384516614826
 31
0.0
  0
LINE
  5
63E
330
1A
100
AcDbEntity
  8
SEIHIN
 48
5.0
100
AcDbLine
 10
619.8495906467394
 20
340.0874516614825
 30
0.0
 11
619.8495906467394
 21
341.0885516614825
 31
0.0
  0
LINE
  5
63F
330
1A
100
AcDbEntity
  8
SEIHIN
 48
5.0
100
AcDbLine
 10
619.8495906467394
 20
344.0872516614826
 30
0.0
 11
619.8495906467394
 21
345.0883516614826
 31
0.0
  0
LINE
  5
640
330
1A
100
AcDbEntity
  8
SEIHIN
 48
5.0
100
AcDbLine
 10
619.8495906467394
 20
352.0868516614827
 30
0.0
 11
617.6843906467397
 21
350.8368516614826
 31
0.0
  0
LINE
  5
641
330
1A
100
AcDbEntity
  8
SEIHIN
 48
5.0
100
AcDbLine
 10
617.6843906467397
 20
350.3382516614826
 30
0.0
 11
619.8495906467394
 21
349.0882516614826
 31
0.0
  0
LINE
  5
642
330
1A
100
AcDbEntity
  8
SEIHIN
 48
5.0
100
AcDbLine
 10
618.5706906467394
 20
354.5886516614826
 30
0.0
 11
617.6843906467397
 21
354.3383516614825
 31
0.0
  0
LINE
  5
643
330
1A
100
AcDbEntity
  8
SEIHIN
 48
5.0
100
AcDbLine
 10
617.6843906467397
 20
354.3381516614826
 30
0.0
 11
619.8495906467394
 21
353.0880516614826
 31
0.0
  0
LINE
  5
644
330
1A
100
AcDbEntity
  8
SEIHIN
 48
5.0
100
AcDbLine
 10
617.6843906467397
 20
350.8368516614826
 30
0.0
 11
617.6843906467397
 21
350.3382516614826
 31
0.0
  0
LINE
  5
645
330
1A
100
AcDbEntity
  8
SEIHIN
 48
5.0
100
AcDbLine
 10
610.1845906467397
 20
359.5887516614826
 30
0.0
 11
610.1845906467397
 21
358.5887516614825
 31
0.0
  0
LINE
  5
646
330
1A
100
AcDbEntity
  8
SEIHIN
 48
5.0
100
AcDbLine
 10
617.6843906467397
 20
354.5888516614826
 30
0.0
 11
617.6843906467397
 21
354.3393516614826
 31
0.0
  0
LINE
  5
647
330
1A
100
AcDbEntity
  8
SEIHIN
 48
5.0
100
AcDbLine
 10
619.8495906467394
 20
353.0880516614826
 30
0.0
 11
624.8934906467395
 21
354.5886516614826
 31
0.0
  0
LINE
  5
648
330
1A
100
AcDbEntity
  8
SEIHIN
 48
5.0
100
AcDbLine
 10
619.8496906467394
 20
358.5888516614825
 30
0.0
 11
619.8495906467394
 21
354.5888516614826
 31
0.0
  0
LINE
  5
649
330
1A
100
AcDbEntity
  8
SEIHIN
 48
5.0
100
AcDbLine
 10
619.8495906467394
 20
352.0868516614827
 30
0.0
 11
619.8495906467394
 21
353.0880516614826
 31
0.0
  0
LINE
  5
64A
330
1A
100
AcDbEntity
  8
SEIHIN
 48
5.0
100
AcDbLine
 10
623.4346906467394
 20
374.5887516614826
 30
0.0
 11
655.6846906467397
 21
374.5885516614825
 31
0.0
  0
LINE
  5
64B
330
1A
100
AcDbEntity
  8
SEIHIN
 48
5.0
100
AcDbLine
 10
626.8058906467397
 20
378.5886516614825
 30
0.0
 11
623.9214906467395
 21
378.5887516614826
 31
0.0
  0
LINE
  5
64C
330
1A
100
AcDbEntity
  8
SEIHIN
 48
5.0
100
AcDbLine
 10
623.4346906467394
 20
376.4366516614826
 30
0.0
 11
623.4346906467394
 21
362.5888516614825
 31
0.0
  0
LINE
  5
64D
330
1A
100
AcDbEntity
  8
SEIHIN
 48
5.0
100
AcDbLine
 10
625.9346906467396
 20
374.5887516614826
 30
0.0
 11
625.9345906467395
 21
360.5886516614826
 31
0.0
  0
ARC
  5
64E
330
1A
100
AcDbEntity
  8
SEIHIN
 48
5.0
100
AcDbCircle
 10
628.4347160791107
 20
376.43666408401
 30
0.0
 40
5.000025433635097
100
AcDbArc
 50
154.5073488511373
 51
180.0012882607157
  0
ARC
  5
64F
330
1A
100
AcDbEntity
  8
SEIHIN
 48
5.0
100
AcDbCircle
 10
659.9725635233408
 20
341.5889965349983
 30
0.0
 40
48.49999946615611
100
AcDbArc
 50
114.6195618325927
 51
128.625721328236
  0
ARC
  5
650
330
1A
100
AcDbEntity
  8
SEIHIN
 48
5.0
100
AcDbCircle
 10
659.972649385189
 20
341.5890505535077
 30
0.0
 40
49.49997025734753
100
AcDbArc
 50
113.0694034631308
 51
130.7757814631141
  0
ARC
  5
651
330
1A
100
AcDbEntity
  8
SEIHIN
 48
5.0
100
AcDbCircle
 10
647.1846854667265
 20
383.1668446486027
 30
0.0
 40
1.999994819999011
100
AcDbArc
 50
107.0974730747484
 51
179.9997990952741
  0
LINE
  5
652
330
1A
100
AcDbEntity
  8
SEIHIN
 48
5.0
100
AcDbLine
 10
641.1846906467395
 20
384.7710516614824
 30
0.0
 11
641.1846906467395
 21
380.5886516614826
 31
0.0
  0
LINE
  5
653
330
1A
100
AcDbEntity
  8
SEIHIN
 48
5.0
100
AcDbLine
 10
645.1846906467396
 20
386.2338516614826
 30
0.0
 11
645.1846906467396
 21
380.5886516614826
 31
0.0
  0
LINE
  5
654
330
1A
100
AcDbEntity
  8
SEIHIN
 48
5.0
100
AcDbLine
 10
639.1846906467397
 20
378.5886516614825
 30
0.0
 11
630.0096906467397
 21
378.5886516614825
 31
0.0
  0
ARC
  5
655
330
1A
100
AcDbEntity
  8
SEIHIN
 48
5.0
100
AcDbCircle
 10
659.9722533767699
 20
341.5888147259773
 30
0.0
 40
45.49998243536535
100
AcDbArc
 50
114.3882726469291
 51
125.5920676663367
  0
ARC
  5
656
330
1A
100
AcDbEntity
  8
SEIHIN
 48
5.0
100
AcDbCircle
 10
626.3381464834728
 20
380.5886352475976
 30
0.0
 40
1.999983586602752
100
AcDbArc
 50
270.0012651947811
 51
310.7778147051774
  0
ARC
  5
657
330
1A
100
AcDbEntity
  8
SEIHIN
 48
5.0
100
AcDbCircle
 10
630.0096950677507
 20
379.0886390461642
 30
0.0
 40
0.4999873847012399
100
AcDbArc
 50
128.6252971426394
 51
269.9994933766747
  0
ARC
  5
658
330
1A
100
AcDbEntity
  8
SEIHIN
 48
5.0
100
AcDbCircle
 10
639.1846906467394
 20
380.5886516614825
 30
0.0
 40
2.0
100
AcDbArc
 50
270.0000000000049
 51
0.0000000000048853
  0
LINE
  5
659
330
1A
100
AcDbEntity
  8
SEIHIN
 48
5.0
100
AcDbLine
 10
657.6846906467396
 20
372.5886516614826
 30
0.0
 11
657.6845906467394
 21
362.5885516614826
 31
0.0
  0
ARC
  5
65A
330
1A
100
AcDbEntity
  8
SEIHIN
 48
5.0
100
AcDbCircle
 10
647.1846906467397
 20
380.5885516614825
 30
0.0
 40
2.0
100
AcDbArc
 50
179.9999999999951
 51
269.9999999999951
  0
ARC
  5
65B
330
1A
100
AcDbEntity
  8
SEIHIN
 48
5.0
100
AcDbCircle
 10
655.6846906467397
 20
372.5886516614825
 30
0.0
 40
1.999999999999914
100
AcDbArc
 50
0.0000000000024427
 51
90.00000000000245
  0
ARC
  5
65C
330
1A
100
AcDbEntity
  8
SEIHIN
 48
5.0
100
AcDbCircle
 10
659.9723870450307
 20
341.5889162890256
 30
0.0
 40
51.99997158784751
100
AcDbArc
 50
106.5219578262191
 51
111.1804173281649
  0
ARC
  5
65D
330
1A
100
AcDbEntity
  8
SEIHIN
 48
5.0
100
AcDbCircle
 10
640.1847315084092
 20
384.7710254399657
 30
0.0
 40
0.9999591386741519
100
AcDbArc
 50
0.0015024436292254
 51
114.623764983928
  0
LINE
  5
65E
330
1A
100
AcDbEntity
  8
SEIHIN
 48
5.0
100
AcDbLine
 10
641.1846906467395
 20
390.0762516614826
 30
0.0
 11
641.1846906467395
 21
388.0506516614825
 31
0.0
  0
ARC
  5
65F
330
1A
100
AcDbEntity
  8
SEIHIN
 48
5.0
100
AcDbCircle
 10
640.1847138372772
 20
388.0506867435638
 30
0.0
 40
0.9999768100775462
100
AcDbArc
 50
293.0656687291017
 51
359.9979898981873
  0
ARC
  5
660
330
1A
100
AcDbEntity
  8
SEIHIN
 48
5.0
100
AcDbCircle
 10
647.1846961979743
 20
386.2960590231289
 30
0.0
 40
2.000005551248057
100
AcDbArc
 50
105.9621340836856
 51
180.0002108950506
  0
ARC
  5
661
330
1A
100
AcDbEntity
  8
SEIHIN
 48
5.0
100
AcDbCircle
 10
646.1846838966941
 20
390.1702567625138
 30
0.0
 40
0.999993249967439
100
AcDbArc
 50
180.0002922695304
 51
285.8433743872198
  0
LINE
  5
662
330
1A
100
AcDbEntity
  8
SEIHIN
 48
5.0
100
AcDbLine
 10
645.1846906467396
 20
391.4419516614825
 30
0.0
 11
645.1846906467396
 21
390.1703516614825
 31
0.0
  0
LINE
  5
663
330
1A
100
AcDbEntity
  8
CENTER_L
 48
5.0
100
AcDbLine
 10
660.1846906467397
 20
398.6421516614826
 30
0.0
 11
660.1844906467397
 21
312.9745516614826
 31
0.0
  0
ARC
  5
664
330
1A
100
AcDbEntity
  8
SEIHIN
 48
5.0
100
AcDbCircle
 10
664.6846906467397
 20
362.5885516614827
 30
0.0
 40
2.000000000000113
100
AcDbArc
 50
180.0000000000024
 51
270.0000000000016
  0
ARC
  5
665
330
1A
100
AcDbEntity
  8
SEIHIN
 48
5.0
100
AcDbCircle
 10
698.9345906467394
 20
362.5884516614827
 30
0.0
 40
2.0
100
AcDbArc
 50
180.0
 51
270.0
  0
LINE
  5
666
330
1A
100
AcDbEntity
  8
SEIHIN
 48
5.0
100
AcDbLine
 10
706.1846906467397
 20
360.5884516614827
 30
0.0
 11
710.1845906467395
 21
359.5884516614826
 31
0.0
  0
LINE
  5
66D
330
1A
100
AcDbEntity
  8
SEIHIN
 48
5.0
100
AcDbLine
 10
660.1845906467397
 20
354.5885516614826
 30
0.0
 11
702.6846906467397
 21
354.5884516614826
 31
0.0
  0
LINE
  5
66E
330
1A
100
AcDbEntity
  8
SEIHIN
 48
5.0
100
AcDbLine
 10
610.1845906467396
 20
358.5886516614822
 30
0.0
 11
710.1845906467395
 21
358.5884516614826
 31
0.0
  0
LINE
  5
66F
330
1A
100
AcDbEntity
  8
SEIHIN
 48
5.0
100
AcDbLine
 10
610.1845906467396
 20
359.5886516614823
 30
0.0
 11
710.1845906467395
 21
359.5884516614826
 31
0.0
  0
LINE
  5
670
330
1A
100
AcDbEntity
  8
SEIHIN
 48
5.0
100
AcDbLine
 10
700.5194906467397
 20
318.5884516614827
 30
0.0
 11
619.8493906467393
 21
318.5886516617305
 31
0.0
  0
LINE
  5
671
330
1A
100
AcDbEntity
  8
SEIHIN
 48
5.0
100
AcDbLine
 10
702.6846906467397
 20
334.8382516614826
 30
0.0
 11
660.1845906467397
 21
322.8383516614825
 31
0.0
  0
LINE
  5
672
330
1A
100
AcDbEntity
  8
SEIHIN
 48
5.0
100
AcDbLine
 10
702.6846906467397
 20
334.3397516614825
 30
0.0
 11
661.0652906467396
 21
322.5885516614826
 31
0.0
  0
LINE
  5
673
330
1A
100
AcDbEntity
  8
SEIHIN
 48
5.0
100
AcDbLine
 10
665.2215906467397
 20
322.5885516614826
 30
0.0
 11
700.5194906467397
 21
333.0898516614826
 31
0.0
  0
LINE
  5
674
330
1A
100
AcDbEntity
  8
SEIHIN
 48
5.0
100
AcDbLine
 10
700.5194906467397
 20
332.0887516614826
 30
0.0
 11
668.5866906467397
 21
322.5885516614826
 31
0.0
  0
LINE
  5
675
330
1A
100
AcDbEntity
  8
SEIHIN
 48
5.0
100
AcDbLine
 10
702.6846906467397
 20
330.8383516614825
 30
0.0
 11
673.4659906467397
 21
322.5885516614826
 31
0.0
  0
LINE
  5
676
330
1A
100
AcDbEntity
  8
SEIHIN
 48
5.0
100
AcDbLine
 10
702.6846906467397
 20
330.3398516614825
 30
0.0
 11
675.2316906467394
 21
322.5885516614826
 31
0.0
  0
LINE
  5
677
330
1A
100
AcDbEntity
  8
SEIHIN
 48
5.0
100
AcDbLine
 10
678.6659906467396
 20
322.5885516614826
 30
0.0
 11
700.5194906467397
 21
329.0900516614826
 31
0.0
  0
LINE
  5
678
330
1A
100
AcDbEntity
  8
SEIHIN
 48
5.0
100
AcDbLine
 10
700.5194906467397
 20
328.0889516614826
 30
0.0
 11
682.0310906467396
 21
322.5884516614826
 31
0.0
  0
LINE
  5
679
330
1A
100
AcDbEntity
  8
SEIHIN
 48
5.0
100
AcDbLine
 10
702.6846906467397
 20
326.8385516614826
 30
0.0
 11
687.6322906467396
 21
322.5884516614826
 31
0.0
  0
LINE
  5
67A
330
1A
100
AcDbEntity
  8
SEIHIN
 48
5.0
100
AcDbLine
 10
702.6846906467397
 20
326.3399516614826
 30
0.0
 11
689.3978906467395
 21
322.5884516614826
 31
0.0
  0
LINE
  5
67B
330
1A
100
AcDbEntity
  8
SEIHIN
 48
5.0
100
AcDbLine
 10
661.0687906467396
 20
354.5885516614826
 30
0.0
 11
660.1845906467397
 21
354.3388516614825
 31
0.0
  0
LINE
  5
67C
330
1A
100
AcDbEntity
  8
SEIHIN
 48
5.0
100
AcDbLine
 10
700.5194906467397
 20
336.0883516614825
 30
0.0
 11
700.5194906467397
 21
337.0895516614826
 31
0.0
  0
LINE
  5
67D
330
1A
100
AcDbEntity
  8
SEIHIN
 48
5.0
100
AcDbLine
 10
702.6846906467397
 20
326.3399516614826
 30
0.0
 11
700.5194906467397
 21
325.0898516614826
 31
0.0
  0
LINE
  5
67E
330
1A
100
AcDbEntity
  8
SEIHIN
 48
5.0
100
AcDbLine
 10
692.1115906467396
 20
322.5884516614826
 30
0.0
 11
700.5194906467397
 21
325.0898516614826
 31
0.0
  0
LINE
  5
67F
330
1A
100
AcDbEntity
  8
SEIHIN
 48
5.0
100
AcDbLine
 10
700.5194906467397
 20
324.0887516614826
 30
0.0
 11
695.4765906467396
 21
322.5884516614826
 31
0.0
  0
LINE
  5
680
330
1A
100
AcDbEntity
  8
SEIHIN
 48
5.0
100
AcDbLine
 10
702.6846906467397
 20
322.8386516614826
 30
0.0
 11
702.6846906467397
 21
322.5885516614826
 31
0.0
  0
LINE
  5
681
330
1A
100
AcDbEntity
  8
SEIHIN
 48
5.0
100
AcDbLine
 10
702.6846906467397
 20
322.8386516614826
 30
0.0
 11
701.7985906467394
 21
322.5884516614826
 31
0.0
  0
LINE
  5
682
330
1A
100
AcDbEntity
  8
SEIHIN
 48
5.0
100
AcDbLine
 10
700.5194906467397
 20
324.0887516614826
 30
0.0
 11
700.5194906467397
 21
325.0898516614826
 31
0.0
  0
LINE
  5
683
330
1A
100
AcDbEntity
  8
SEIHIN
 48
5.0
100
AcDbLine
 10
700.5194906467397
 20
324.0887516614826
 30
0.0
 11
702.6846906467397
 21
322.8386516614826
 31
0.0
  0
LINE
  5
684
330
1A
100
AcDbEntity
  8
SEIHIN
 48
5.0
100
AcDbLine
 10
700.5194906467397
 20
322.5885516614826
 30
0.0
 11
700.5194906467397
 21
318.5884516614827
 31
0.0
  0
LINE
  5
685
330
1A
100
AcDbEntity
  8
SEIHIN
 48
5.0
100
AcDbLine
 10
700.5194906467397
 20
328.0886516614827
 30
0.0
 11
700.5194906467397
 21
329.0897516614825
 31
0.0
  0
LINE
  5
686
330
1A
100
AcDbEntity
  8
SEIHIN
 48
5.0
100
AcDbLine
 10
702.6846906467397
 20
326.8385516614826
 30
0.0
 11
702.6846906467397
 21
326.3399516614826
 31
0.0
  0
LINE
  5
687
330
1A
100
AcDbEntity
  8
SEIHIN
 48
5.0
100
AcDbLine
 10
700.5194906467397
 20
328.0886516614827
 30
0.0
 11
702.6846906467397
 21
326.8385516614826
 31
0.0
  0
LINE
  5
688
330
1A
100
AcDbEntity
  8
SEIHIN
 48
5.0
100
AcDbLine
 10
702.6846906467397
 20
334.8382516614826
 30
0.0
 11
702.6846906467397
 21
334.3397516614825
 31
0.0
  0
LINE
  5
689
330
1A
100
AcDbEntity
  8
SEIHIN
 48
5.0
100
AcDbLine
 10
702.6846906467397
 20
330.8383516614825
 30
0.0
 11
702.6846906467397
 21
330.3398516614825
 31
0.0
  0
LINE
  5
68A
330
1A
100
AcDbEntity
  8
SEIHIN
 48
5.0
100
AcDbLine
 10
700.5194906467397
 20
332.0885516614824
 30
0.0
 11
700.5194906467397
 21
333.0896516614824
 31
0.0
  0
LINE
  5
68B
330
1A
100
AcDbEntity
  8
SEIHIN
 48
5.0
100
AcDbLine
 10
700.5194906467397
 20
332.0885516614824
 30
0.0
 11
702.6846906467397
 21
330.8383516614825
 31
0.0
  0
LINE
  5
68C
330
1A
100
AcDbEntity
  8
SEIHIN
 48
5.0
100
AcDbLine
 10
700.5194906467397
 20
336.0883516614825
 30
0.0
 11
702.6846906467397
 21
334.8382516614826
 31
0.0
  0
LINE
  5
68D
330
1A
100
AcDbEntity
  8
SEIHIN
 48
5.0
100
AcDbLine
 10
702.6846906467397
 20
334.3397516614825
 30
0.0
 11
700.5194906467397
 21
333.0896516614824
 31
0.0
  0
LINE
  5
68E
330
1A
100
AcDbEntity
  8
SEIHIN
 48
5.0
100
AcDbLine
 10
702.6846906467397
 20
330.3398516614825
 30
0.0
 11
700.5194906467397
 21
329.0897516614825
 31
0.0
  0
LINE
  5
68F
330
1A
100
AcDbEntity
  8
SEIHIN
 48
5.0
100
AcDbLine
 10
700.5194906467397
 20
348.0880516614826
 30
0.0
 11
700.5194906467397
 21
349.0891516614826
 31
0.0
  0
LINE
  5
690
330
1A
100
AcDbEntity
  8
SEIHIN
 48
5.0
100
AcDbLine
 10
700.5194906467397
 20
340.0882516614826
 30
0.0
 11
700.5194906467397
 21
341.0893516614827
 31
0.0
  0
LINE
  5
691
330
1A
100
AcDbEntity
  8
SEIHIN
 48
5.0
100
AcDbLine
 10
702.6846906467397
 20
338.8381516614825
 30
0.0
 11
702.6846906467397
 21
338.3396516614826
 31
0.0
  0
LINE
  5
692
330
1A
100
AcDbEntity
  8
SEIHIN
 48
5.0
100
AcDbLine
 10
700.5194906467397
 20
340.0882516614826
 30
0.0
 11
702.6846906467397
 21
338.8381516614825
 31
0.0
  0
LINE
  5
693
330
1A
100
AcDbEntity
  8
SEIHIN
 48
5.0
100
AcDbLine
 10
702.6846906467397
 20
338.3396516614826
 30
0.0
 11
700.5194906467397
 21
337.0895516614826
 31
0.0
  0
LINE
  5
694
330
1A
100
AcDbEntity
  8
SEIHIN
 48
5.0
100
AcDbLine
 10
702.6846906467397
 20
342.8380516614826
 30
0.0
 11
702.6846906467397
 21
342.3394516614824
 31
0.0
  0
LINE
  5
695
330
1A
100
AcDbEntity
  8
SEIHIN
 48
5.0
100
AcDbLine
 10
702.6846906467397
 20
346.8379516614827
 30
0.0
 11
702.6846906467397
 21
346.3393516614826
 31
0.0
  0
LINE
  5
696
330
1A
100
AcDbEntity
  8
SEIHIN
 48
5.0
100
AcDbLine
 10
700.5194906467397
 20
344.0881516614825
 30
0.0
 11
700.5194906467397
 21
345.0892516614825
 31
0.0
  0
LINE
  5
697
330
1A
100
AcDbEntity
  8
SEIHIN
 48
5.0
100
AcDbLine
 10
702.6846906467397
 20
346.3393516614826
 30
0.0
 11
700.5194906467397
 21
345.0892516614825
 31
0.0
  0
LINE
  5
698
330
1A
100
AcDbEntity
  8
SEIHIN
 48
5.0
100
AcDbLine
 10
700.5194906467397
 20
344.0881516614825
 30
0.0
 11
702.6846906467397
 21
342.8380516614826
 31
0.0
  0
LINE
  5
699
330
1A
100
AcDbEntity
  8
SEIHIN
 48
5.0
100
AcDbLine
 10
700.5194906467397
 20
348.0880516614826
 30
0.0
 11
702.6846906467397
 21
346.8379516614827
 31
0.0
  0
LINE
  5
69A
330
1A
100
AcDbEntity
  8
SEIHIN
 48
5.0
100
AcDbLine
 10
702.6846906467397
 20
342.3394516614824
 30
0.0
 11
700.5194906467397
 21
341.0893516614827
 31
0.0
  0
LINE
  5
69B
330
1A
100
AcDbEntity
  8
SEIHIN
 48
5.0
100
AcDbLine
 10
700.5194906467397
 20
352.0879516614826
 30
0.0
 11
702.6846906467397
 21
350.8377516614826
 31
0.0
  0
LINE
  5
69C
330
1A
100
AcDbEntity
  8
SEIHIN
 48
5.0
100
AcDbLine
 10
702.6846906467397
 20
350.8377516614826
 30
0.0
 11
702.6846906467397
 21
350.3392516614826
 31
0.0
  0
LINE
  5
69D
330
1A
100
AcDbEntity
  8
SEIHIN
 48
5.0
100
AcDbLine
 10
702.6846906467397
 20
350.3392516614826
 30
0.0
 11
700.5194906467397
 21
349.0891516614826
 31
0.0
  0
LINE
  5
69E
330
1A
100
AcDbEntity
  8
SEIHIN
 48
5.0
100
AcDbLine
 10
702.6846906467397
 20
354.5885516614826
 30
0.0
 11
702.6846906467397
 21
354.3391516614826
 31
0.0
  0
LINE
  5
69F
330
1A
100
AcDbEntity
  8
SEIHIN
 48
5.0
100
AcDbLine
 10
700.5194906467397
 20
358.5885516614824
 30
0.0
 11
700.5194906467397
 21
354.5885516614826
 31
0.0
  0
LINE
  5
6A0
330
1A
100
AcDbEntity
  8
SEIHIN
 48
5.0
100
AcDbLine
 10
700.5194906467397
 20
352.0879516614826
 30
0.0
 11
700.5194906467397
 21
353.0890516614825
 31
0.0
  0
LINE
  5
6A1
330
1A
100
AcDbEntity
  8
SEIHIN
 48
5.0
100
AcDbLine
 10
702.6846906467397
 20
354.3391516614826
 30
0.0
 11
700.5194906467397
 21
353.0890516614825
 31
0.0
  0
LINE
  5
6A2
330
1A
100
AcDbEntity
  8
SEIHIN
 48
5.0
100
AcDbLine
 10
710.1845906467395
 20
359.5884516614826
 30
0.0
 11
710.1845906467395
 21
358.5884516614826
 31
0.0
  0
LINE
  5
6A8
330
1A
100
AcDbEntity
  8
SEIHIN
 48
5.0
100
AcDbLine
 10
706.1846906467397
 20
360.5884516614827
 30
0.0
 11
614.1841906493488
 21
360.5886516621348
 31
0.0
  0
LINE
  5
6A9
330
1A
100
AcDbEntity
  8
SEIHIN
 48
5.0
100
AcDbLine
 10
696.9346906467396
 20
374.5884516614826
 30
0.0
 11
664.6846906467397
 21
374.5885516614825
 31
0.0
  0
ARC
  5
6AA
330
1A
100
AcDbEntity
  8
SEIHIN
 48
5.0
100
AcDbCircle
 10
660.3963319082899
 20
341.5890505535077
 30
0.0
 40
49.49997025734752
100
AcDbArc
 50
49.22421853688579
 51
66.93059653686917
  0
ARC
  5
6AB
330
1A
100
AcDbEntity
  8
SEIHIN
 48
5.0
100
AcDbCircle
 10
660.3965897558407
 20
341.5888906352088
 30
0.0
 40
48.49997484105639
100
AcDbArc
 50
51.37451549605325
 51
65.3805183810264
  0
ARC
  5
6AC
330
1A
100
AcDbEntity
  8
SEIHIN
 48
5.0
100
AcDbCircle
 10
673.1846627346292
 20
383.1667894473845
 30
0.0
 40
2.000027912467506
100
AcDbArc
 50
359.9989175287504
 51
72.90482388115184
  0
LINE
  5
6AD
330
1A
100
AcDbEntity
  8
SEIHIN
 48
5.0
100
AcDbLine
 10
675.1846906467396
 20
386.2337516614825
 30
0.0
 11
675.1846906467396
 21
380.5885516614826
 31
0.0
  0
LINE
  5
6AE
330
1A
100
AcDbEntity
  8
SEIHIN
 48
5.0
100
AcDbLine
 10
679.1846906467396
 20
384.7708516614826
 30
0.0
 11
679.1846906467396
 21
380.5884516614826
 31
0.0
  0
ARC
  5
6AF
330
1A
100
AcDbEntity
  8
SEIHIN
 48
5.0
100
AcDbCircle
 10
673.1846906467397
 20
380.5885516614825
 30
0.0
 40
2.000000000000085
100
AcDbArc
 50
270.0000000000032
 51
0.0000000000024427
  0
LINE
  5
6B0
330
1A
100
AcDbEntity
  8
SEIHIN
 48
5.0
100
AcDbLine
 10
662.6846906467394
 20
372.5885516614826
 30
0.0
 11
662.6846906467394
 21
362.5885516614826
 31
0.0
  0
LINE
  5
6B1
330
1A
100
AcDbEntity
  8
SEIHIN
 48
5.0
100
AcDbLine
 10
660.1846906467397
 20
378.5885516614825
 30
0.0
 11
673.1846906467397
 21
378.5885516614825
 31
0.0
  0
ARC
  5
6B2
330
1A
100
AcDbEntity
  8
SEIHIN
 48
5.0
100
AcDbCircle
 10
664.6846906467394
 20
372.5885516614825
 30
0.0
 40
2.0
100
AcDbArc
 50
89.99999999999511
 51
179.9999999999951
  0
LINE
  5
6B3
330
1A
100
AcDbEntity
  8
SEIHIN
 48
5.0
100
AcDbLine
 10
681.1846906467397
 20
378.5884516614826
 30
0.0
 11
690.3595906467396
 21
378.5884516614826
 31
0.0
  0
ARC
  5
6B4
330
1A
100
AcDbEntity
  8
SEIHIN
 48
5.0
100
AcDbCircle
 10
660.3965447312227
 20
341.5889204476576
 30
0.0
 40
45.50000308081156
100
AcDbArc
 50
54.4076672693802
 51
65.61134760079784
  0
ARC
  5
6B5
330
1A
100
AcDbEntity
  8
SEIHIN
 48
5.0
100
AcDbCircle
 10
681.1846906467397
 20
380.5884516614826
 30
0.0
 40
2.0
100
AcDbArc
 50
180.0
 51
270.0
  0
ARC
  5
6B6
330
1A
100
AcDbEntity
  8
SEIHIN
 48
5.0
100
AcDbCircle
 10
690.3595999137412
 20
379.0884781100836
 30
0.0
 40
0.5000264486867928
100
AcDbArc
 50
269.9989381360298
 51
51.38028677947679
  0
ARC
  5
6B7
330
1A
100
AcDbEntity
  8
SEIHIN
 48
5.0
100
AcDbCircle
 10
673.1846850955051
 20
386.295959023129
 30
0.0
 40
2.000005551248213
100
AcDbArc
 50
359.9997891049525
 51
74.03786591631879
  0
ARC
  5
6B8
330
1A
100
AcDbEntity
  8
SEIHIN
 48
5.0
100
AcDbCircle
 10
660.3966838081732
 20
341.5888857104942
 30
0.0
 40
52.0000038728509
100
AcDbArc
 50
68.81958411877045
 51
73.47804072684552
  0
ARC
  5
6B9
330
1A
100
AcDbEntity
  8
SEIHIN
 48
5.0
100
AcDbCircle
 10
674.1846973967853
 20
390.1702567625138
 30
0.0
 40
0.9999932499674484
100
AcDbArc
 50
254.1566256127786
 51
359.9997077304695
  0
LINE
  5
6BD
330
1A
100
AcDbEntity
  8
SEIHIN
 48
5.0
100
AcDbLine
 10
675.1846906467396
 20
391.4418516614825
 30
0.0
 11
675.1846906467396
 21
390.1702516614826
 31
0.0
  0
ARC
  5
6BE
330
1A
100
AcDbEntity
  8
SEIHIN
 48
5.0
100
AcDbCircle
 10
680.1846952392186
 20
384.7708546086769
 30
0.0
 40
1.000004592483148
100
AcDbArc
 50
65.38029343606007
 51
180.0001688610178
  0
LINE
  5
6BF
330
1A
100
AcDbEntity
  8
SEIHIN
 48
5.0
100
AcDbLine
 10
679.1846906467396
 20
390.0760516614827
 30
0.0
 11
679.1846906467396
 21
388.0505516614825
 31
0.0
  0
ARC
  5
6C0
330
1A
100
AcDbEntity
  8
SEIHIN
 48
5.0
100
AcDbCircle
 10
680.1847330499417
 20
388.0504875112673
 30
0.0
 40
1.000042405259454
100
AcDbArc
 50
179.996324619269
 51
246.9256195415459
  0
LINE
  5
6C1
330
1A
100
AcDbEntity
  8
SEIHIN
 48
5.0
100
AcDbLine
 10
696.9346906467396
 20
376.4364516614825
 30
0.0
 11
696.9345906467395
 21
362.5884516614827
 31
0.0
  0
LINE
  5
6C2
330
1A
100
AcDbEntity
  8
SEIHIN
 48
5.0
100
AcDbLine
 10
694.4346906467396
 20
374.5884516614826
 30
0.0
 11
694.4346906467396
 21
360.5884516614827
 31
0.0
  0
LINE
  5
6C3
330
1A
100
AcDbEntity
  8
SEIHIN
 48
5.0
100
AcDbLine
 10
693.5634906467396
 20
378.5884516614826
 30
0.0
 11
696.4478906467395
 21
378.5884516614826
 31
0.0
  0
ARC
  5
6C4
330
1A
100
AcDbEntity
  8
SEIHIN
 48
5.0
100
AcDbCircle
 10
694.0312348100064
 20
380.5884352475978
 30
0.0
 40
1.999983586602769
100
AcDbArc
 50
229.222185294822
 51
269.998734805218
  0
ARC
  5
6C5
330
1A
100
AcDbEntity
  8
SEIHIN
 48
5.0
100
AcDbCircle
 10
691.934686735587
 20
376.4364689520592
 30
0.0
 40
5.000003912528296
100
AcDbArc
 50
359.9986559500466
 51
25.49270693810751
  0
ARC
  5
6C9
330
1A
100
AcDbEntity
  8
SEIHIN
 48
5.0
100
AcDbCircle
 10
447.2730348231845
 20
230.8087982152719
 30
0.0
 40
0.5000264486867751
100
AcDbArc
 50
269.9989381360298
 51
51.38028677947399
  0
ARC
  5
6CA
330
1A
100
AcDbEntity
  8
SEIHIN
 48
5.0
100
AcDbCircle
 10
438.0981255561829
 20
232.3087717666711
 30
0.0
 40
2.0
100
AcDbArc
 50
180.0
 51
270.0
  0
ARC
  5
6CB
330
1A
100
AcDbEntity
  8
SEIHIN
 48
5.0
100
AcDbCircle
 10
417.310137840408
 20
193.3090915374351
 30
0.0
 40
45.50003218298304
100
AcDbArc
 50
54.40793847810843
 51
65.61172120862548
  0
ARC
  5
6CC
330
1A
100
AcDbEntity
  8
SEIHIN
 48
5.0
100
AcDbCircle
 10
450.9445697194497
 20
232.3087553527862
 30
0.0
 40
1.999983586602739
100
AcDbArc
 50
229.2221852948223
 51
269.9987348052188
  0
ARC
  5
6CE
330
1A
100
AcDbEntity
  8
SEIHIN
 48
5.0
100
AcDbCircle
 10
430.0981255561829
 20
232.308871766671
 30
0.0
 40
2.0
100
AcDbArc
 50
270.0
 51
0.0
  0
ARC
  5
6CF
330
1A
100
AcDbEntity
  8
SEIHIN
 48
5.0
100
AcDbCircle
 10
404.098025556183
 20
232.308871766671
 30
0.0
 40
2.0
100
AcDbArc
 50
180.0
 51
270.0
  0
ARC
  5
6D0
330
1A
100
AcDbEntity
  8
SEIHIN
 48
5.0
100
AcDbCircle
 10
396.098025556183
 20
232.308971766671
 30
0.0
 40
2.0
100
AcDbArc
 50
270.0
 51
0.0
  0
ARC
  5
6D1
330
1A
100
AcDbEntity
  8
SEIHIN
 48
5.0
100
AcDbCircle
 10
386.923129977194
 20
230.8089591513527
 30
0.0
 40
0.4999873847012105
100
AcDbArc
 50
128.6252971426437
 51
269.9994933766767
  0
ARC
  5
6D2
330
1A
100
AcDbEntity
  8
SEIHIN
 48
5.0
100
AcDbCircle
 10
416.8858714717003
 20
193.3092405528469
 30
0.0
 40
45.50000308081115
100
AcDbArc
 50
114.388652399203
 51
125.5923327306206
  0
ARC
  5
6D3
330
1A
100
AcDbEntity
  8
SEIHIN
 48
5.0
100
AcDbCircle
 10
383.2515813929163
 20
232.3089553527862
 30
0.0
 40
1.999983586602777
100
AcDbArc
 50
270.0012651947806
 51
310.7778147051771
  0
LINE
  5
6D4
330
1A
100
AcDbEntity
  8
CENTER_L
 48
5.0
100
AcDbLine
 10
417.0981255561829
 20
250.362471766671
 30
0.0
 11
417.0978613354427
 21
163.3088717664517
 31
0.0
  0
LINE
  5
6D7
330
1A
100
AcDbEntity
  8
SEIHIN
 48
5.0
100
AcDbLine
 10
453.8480255561831
 20
226.3087717666711
 30
0.0
 11
421.598025556183
 21
226.308871766671
 31
0.0
  0
LINE
  5
6D9
330
1A
100
AcDbEntity
  8
SEIHIN
 48
5.0
100
AcDbLine
 10
367.097925556183
 20
211.3089717668709
 30
0.0
 11
467.098025556183
 21
211.308771766671
 31
0.0
  0
LINE
  5
6DA
330
1A
100
AcDbEntity
  8
SEIHIN
 48
5.0
100
AcDbLine
 10
367.097925556183
 20
210.3089717668712
 30
0.0
 11
467.098025556183
 21
210.308771766671
 31
0.0
  0
LINE
  5
6DE
330
1A
100
AcDbEntity
  8
SEIHIN
 48
5.0
100
AcDbLine
 10
463.098025556183
 20
212.308771766671
 30
0.0
 11
371.0975255605317
 21
212.3089717677582
 31
0.0
  0
LINE
  5
6F3
330
1A
100
AcDbEntity
  8
SEIHIN
 48
5.0
100
AcDbLine
 10
371.097925556183
 20
212.309071766671
 30
0.0
 11
367.097925556183
 21
211.309071766671
 31
0.0
  0
LINE
  5
6FB
330
1A
100
AcDbEntity
  8
SEIHIN
 48
5.0
100
AcDbLine
 10
367.097925556183
 20
211.309071766671
 30
0.0
 11
367.097925556183
 21
210.309071766671
 31
0.0
  0
LINE
  5
700
330
1A
100
AcDbEntity
  8
SEIHIN
 48
5.0
100
AcDbLine
 10
380.348025556183
 20
226.309071766671
 30
0.0
 11
412.598025556183
 21
226.308871766671
 31
0.0
  0
LINE
  5
704
330
1A
100
AcDbEntity
  8
SEIHIN
 48
5.0
100
AcDbLine
 10
380.348025556183
 20
228.156971766671
 30
0.0
 11
380.348025556183
 21
214.3091717666711
 31
0.0
  0
LINE
  5
705
330
1A
100
AcDbEntity
  8
SEIHIN
 48
5.0
100
AcDbLine
 10
382.848025556183
 20
226.309071766671
 30
0.0
 11
382.847925556183
 21
212.308971766671
 31
0.0
  0
ARC
  5
707
330
1A
100
AcDbEntity
  8
SEIHIN
 48
5.0
100
AcDbCircle
 10
378.348025556183
 20
214.3091717666711
 30
0.0
 40
2.0
100
AcDbArc
 50
270.0
 51
0.0
  0
ARC
  5
708
330
1A
100
AcDbEntity
  8
SEIHIN
 48
5.0
100
AcDbCircle
 10
385.3480058571063
 20
228.1567846896209
 30
0.0
 40
4.999980301681577
100
AcDbArc
 50
154.5045695331398
 51
179.9990021665756
  0
LINE
  5
709
330
1A
100
AcDbEntity
  8
SEIHIN
 48
5.0
100
AcDbLine
 10
383.719325556183
 20
230.3089717666711
 30
0.0
 11
380.834925556183
 21
230.3090717666711
 31
0.0
  0
LINE
  5
70A
330
1A
100
AcDbEntity
  8
SEIHIN
 48
5.0
100
AcDbLine
 10
396.098025556183
 20
230.3089717666711
 30
0.0
 11
386.923125556183
 21
230.3089717666711
 31
0.0
  0
LINE
  5
70B
330
1A
100
AcDbEntity
  8
SEIHIN
 48
5.0
100
AcDbLine
 10
417.098025556183
 20
230.308871766671
 30
0.0
 11
404.098025556183
 21
230.308871766671
 31
0.0
  0
LINE
  5
70C
330
1A
100
AcDbEntity
  8
SEIHIN
 48
5.0
100
AcDbLine
 10
414.598025556183
 20
224.3089717666711
 30
0.0
 11
414.598025556183
 21
214.3088717666711
 31
0.0
  0
ARC
  5
70D
330
1A
100
AcDbEntity
  8
SEIHIN
 48
5.0
100
AcDbCircle
 10
412.598025556183
 20
214.3088717666711
 30
0.0
 40
2.0
100
AcDbArc
 50
270.0
 51
0.0
  0
ARC
  5
70E
330
1A
100
AcDbEntity
  8
SEIHIN
 48
5.0
100
AcDbCircle
 10
412.598025556183
 20
224.3089717666711
 30
0.0
 40
2.0
100
AcDbArc
 50
0.0
 51
90.0
  0
LINE
  5
70F
330
1A
100
AcDbEntity
  8
SEIHIN
 48
5.0
100
AcDbLine
 10
419.598025556183
 20
224.308871766671
 30
0.0
 11
419.598025556183
 21
214.3088717666711
 31
0.0
  0
ARC
  5
710
330
1A
100
AcDbEntity
  8
SEIHIN
 48
5.0
100
AcDbCircle
 10
421.598025556183
 20
214.3088717666711
 30
0.0
 40
2.0
100
AcDbArc
 50
180.0
 51
270.0
  0
LINE
  5
711
330
1A
100
AcDbEntity
  8
SEIHIN
 48
5.0
100
AcDbLine
 10
417.098025556183
 20
230.308871766671
 30
0.0
 11
430.0981255561829
 21
230.308871766671
 31
0.0
  0
ARC
  5
712
330
1A
100
AcDbEntity
  8
SEIHIN
 48
5.0
100
AcDbCircle
 10
421.598025556183
 20
224.308871766671
 30
0.0
 40
2.0
100
AcDbArc
 50
90.0
 51
180.0
  0
LINE
  5
738
330
1A
100
AcDbEntity
  8
SEIHIN
 48
5.0
100
AcDbLine
 10
463.098025556183
 20
212.308771766671
 30
0.0
 11
467.098025556183
 21
211.308771766671
 31
0.0
  0
LINE
  5
73A
330
1A
100
AcDbEntity
  8
SEIHIN
 48
5.0
100
AcDbLine
 10
438.0981255561829
 20
230.3087717666711
 30
0.0
 11
447.273025556183
 21
230.3087717666711
 31
0.0
  0
LINE
  5
73B
330
1A
100
AcDbEntity
  8
SEIHIN
 48
5.0
100
AcDbLine
 10
453.8480255561831
 20
228.1567717666709
 30
0.0
 11
453.8480255561831
 21
214.308771766671
 31
0.0
  0
LINE
  5
73C
330
1A
100
AcDbEntity
  8
SEIHIN
 48
5.0
100
AcDbLine
 10
451.3480255561829
 20
226.3087717666711
 30
0.0
 11
451.3480255561829
 21
212.308771766671
 31
0.0
  0
ARC
  5
73E
330
1A
100
AcDbEntity
  8
SEIHIN
 48
5.0
100
AcDbCircle
 10
455.848025556183
 20
214.308771766671
 30
0.0
 40
2.0
100
AcDbArc
 50
180.0
 51
270.0
  0
ARC
  5
73F
330
1A
100
AcDbEntity
  8
SEIHIN
 48
5.0
100
AcDbCircle
 10
448.8480216450309
 20
228.156789057248
 30
0.0
 40
5.000003912527841
100
AcDbArc
 50
359.9986559500447
 51
25.49270693810569
  0
LINE
  5
740
330
1A
100
AcDbEntity
  8
SEIHIN
 48
5.0
100
AcDbLine
 10
450.476825556183
 20
230.3087717666711
 30
0.0
 11
453.3612255561829
 21
230.3087717666711
 31
0.0
  0
LINE
  5
74B
330
1A
100
AcDbEntity
  8
SEIHIN
 48
5.0
100
AcDbLine
 10
467.098025556183
 20
211.308771766671
 30
0.0
 11
467.098025556183
 21
210.308771766671
 31
0.0
  0
ARC
  5
759
330
1A
100
AcDbEntity
  8
SEIHIN
 48
5.0
100
AcDbCircle
 10
417.0984255561828
 20
402.8032525751503
 30
0.0
 40
36.75000000000006
100
AcDbArc
 50
359.9999999999998
 51
89.99999999999984
  0
ARC
  5
75A
330
1A
100
AcDbEntity
  8
SEIHIN
 48
5.0
100
AcDbCircle
 10
417.0984255561829
 20
402.8032525751501
 30
0.0
 40
36.75000000013605
100
AcDbArc
 50
269.9998440931172
 51
359.9998440931172
  0
ARC
  5
75C
330
1A
100
AcDbEntity
  8
SEIHIN
 48
5.0
100
AcDbCircle
 10
417.0984256248394
 20
402.8032025751502
 30
0.0
 40
45.99999993137062
100
AcDbArc
 50
0.000062278021181
 51
359.9999377219788
  0
ARC
  5
75E
330
1A
100
AcDbEntity
  8
SEIHIN
 48
5.0
100
AcDbCircle
 10
417.0984256165956
 20
402.8032025751502
 30
0.0
 40
49.99999993961219
100
AcDbArc
 50
0.0000572957794702
 51
359.9999427042205
  0
LINE
  5
75F
330
1A
100
AcDbEntity
  8
CENTER_L
 48
5.0
100
AcDbLine
 10
474.0984255560436
 20
402.8030657751503
 30
0.0
 11
360.0984256771476
 21
402.80333937515
 31
0.0
  0
ARC
  5
761
330
1A
100
AcDbEntity
  8
SEIHIN
 48
5.0
100
AcDbCircle
 10
417.3100187176174
 20
193.309205815682
 30
0.0
 40
52.00000387285135
100
AcDbArc
 50
68.81958411877139
 51
73.47804072684645
  0
LINE
  5
764
330
1A
100
AcDbEntity
  8
CENTER_L
 48
5.0
100
AcDbLine
 10
417.0982387560631
 20
345.8032026358444
 30
0.0
 11
417.0985123560629
 21
459.8032025146965
 31
0.0
  0
ARC
  5
767
330
1A
100
AcDbEntity
  8
SEIHIN
 48
5.0
100
AcDbCircle
 10
416.8858219544735
 20
193.3092363942142
 30
0.0
 40
51.99997158784729
100
AcDbArc
 50
106.5219578262184
 51
111.1804173281641
  0
ARC
  5
769
330
1A
100
AcDbEntity
  8
SEIHIN
 48
5.0
100
AcDbCircle
 10
416.8859984327845
 20
193.3093166401876
 30
0.0
 40
48.49999946615548
100
AcDbArc
 50
114.6195618325937
 51
128.6257213282368
  0
ARC
  5
76A
330
1A
100
AcDbEntity
  8
SEIHIN
 48
5.0
100
AcDbCircle
 10
416.886084294633
 20
193.3093706586963
 30
0.0
 40
49.49997025734777
100
AcDbArc
 50
113.0694034631313
 51
130.7757814631147
  0
LINE
  5
76B
330
1A
100
AcDbEntity
  8
SEIHIN
 48
5.0
100
AcDbLine
 10
398.0981255561829
 20
241.7965717666711
 30
0.0
 11
398.0981255561829
 21
239.770971766671
 31
0.0
  0
ARC
  5
76C
330
1A
100
AcDbEntity
  8
SEIHIN
 48
5.0
100
AcDbCircle
 10
397.0981664178527
 20
236.4913455451543
 30
0.0
 40
0.9999591386740879
100
AcDbArc
 50
0.001502443634111
 51
114.6237649839318
  0
ARC
  5
76D
330
1A
100
AcDbEntity
  8
SEIHIN
 48
5.0
100
AcDbCircle
 10
397.0981487467207
 20
239.7710068487524
 30
0.0
 40
0.9999768100776156
100
AcDbArc
 50
293.0656687291053
 51
359.9979898981883
  0
LINE
  5
76E
330
1A
100
AcDbEntity
  8
SEIHIN
 48
5.0
100
AcDbLine
 10
398.0981255561829
 20
236.491371766671
 30
0.0
 11
398.098025556183
 21
232.308971766671
 31
0.0
  0
LINE
  5
772
330
1A
100
AcDbEntity
  8
SEIHIN
 48
5.0
100
AcDbLine
 10
402.098125556183
 20
243.162271766671
 30
0.0
 11
402.098125556183
 21
241.890671766671
 31
0.0
  0
ARC
  5
775
330
1A
100
AcDbEntity
  8
SEIHIN
 48
5.0
100
AcDbCircle
 10
403.0981188061374
 20
241.8905768677022
 30
0.0
 40
0.9999932499674123
100
AcDbArc
 50
180.0002922695296
 51
285.8433743872168
  0
ARC
  5
776
330
1A
100
AcDbEntity
  8
SEIHIN
 48
5.0
100
AcDbCircle
 10
404.0981448584968
 20
238.0163973652853
 30
0.0
 40
2.000019302477577
100
AcDbArc
 50
105.9654108107452
 51
180.0007333392027
  0
ARC
  5
777
330
1A
100
AcDbEntity
  8
SEIHIN
 48
5.0
100
AcDbCircle
 10
404.0980056772355
 20
234.8871448552156
 30
0.0
 40
1.999980121233547
100
AcDbArc
 50
107.0941647814836
 51
179.99922903593
  0
LINE
  5
778
330
1A
100
AcDbEntity
  8
SEIHIN
 48
5.0
100
AcDbLine
 10
402.098125556183
 20
237.9541717666711
 30
0.0
 11
402.098025556183
 21
232.308971766671
 31
0.0
  0
LINE
  5
779
330
1A
100
AcDbEntity
  8
SEIHIN
 48
5.0
100
AcDbLine
 10
432.098125556183
 20
243.162171766671
 30
0.0
 11
432.098125556183
 21
241.8905717666711
 31
0.0
  0
ARC
  5
77D
330
1A
100
AcDbEntity
  8
SEIHIN
 48
5.0
100
AcDbCircle
 10
431.0981186537306
 20
241.8905665509871
 30
0.0
 40
1.00000690246595
100
AcDbArc
 50
254.1517048646055
 51
0.0002988346115853
  0
ARC
  5
77E
330
1A
100
AcDbEntity
  8
SEIHIN
 48
5.0
100
AcDbCircle
 10
430.0981200049483
 20
238.0162791283174
 30
0.0
 40
2.000005551248191
100
AcDbArc
 50
359.9997891049497
 51
74.03786591631433
  0
LINE
  5
77F
330
1A
100
AcDbEntity
  8
SEIHIN
 48
5.0
100
AcDbLine
 10
432.098125556183
 20
237.954071766671
 30
0.0
 11
432.098125556183
 21
232.308871766671
 31
0.0
  0
ARC
  5
780
330
1A
100
AcDbEntity
  8
SEIHIN
 48
5.0
100
AcDbCircle
 10
430.0980976440724
 20
234.887109552573
 30
0.0
 40
2.000027912467428
100
AcDbArc
 50
359.9989175287499
 51
72.90482388115179
  0
LINE
  5
783
330
1A
100
AcDbEntity
  8
SEIHIN
 48
5.0
100
AcDbLine
 10
432.0984255561829
 20
402.8032525751501
 30
0.0
 11
432.0985255561829
 21
415.8032525751501
 31
0.0
  0
LINE
  5
784
330
1A
100
AcDbEntity
  8
SEIHIN
 48
5.0
100
AcDbLine
 10
402.0984255561829
 20
415.8032525751501
 30
0.0
 11
402.0984255561829
 21
402.8032525751501
 31
0.0
  0
LINE
  5
785
330
1A
100
AcDbEntity
  8
SEIHIN
 48
5.0
100
AcDbLine
 10
398.0984255561829
 20
415.8033525751504
 30
0.0
 11
398.0984255561829
 21
402.8033525751503
 31
0.0
  0
ARC
  5
787
330
1A
100
AcDbEntity
  8
SEIHIN
 48
5.0
100
AcDbCircle
 10
417.0984255561149
 20
402.8032525750823
 30
0.0
 40
36.75000000006798
100
AcDbArc
 50
89.99999999989402
 51
179.9998440930109
  0
ARC
  5
788
330
1A
100
AcDbEntity
  8
SEIHIN
 48
5.0
100
AcDbCircle
 10
417.0984255561831
 20
402.8032525751503
 30
0.0
 40
36.75000000013614
100
AcDbArc
 50
179.9998440931168
 51
269.9998440931168
  0
LINE
  5
78A
330
1A
100
AcDbEntity
  8
SEIHIN
 48
5.0
100
AcDbLine
 10
398.0983255561829
 20
381.8033525751503
 30
0.0
 11
398.0983255561829
 21
371.3460525751503
 31
0.0
  0
LINE
  5
78B
330
1A
100
AcDbEntity
  8
SEIHIN
 48
5.0
100
AcDbLine
 10
383.548925556183
 20
387.8033525751503
 30
0.0
 11
396.098325556183
 21
387.8033525751503
 31
0.0
  0
LINE
  5
78D
330
1A
100
AcDbEntity
  8
SEIHIN
 48
5.0
100
AcDbLine
 10
398.0984255561829
 20
402.8033525751503
 30
0.0
 11
398.0983255561829
 21
389.8033525751504
 31
0.0
  0
LINE
  5
78E
330
1A
100
AcDbEntity
  8
SEIHIN
 48
5.0
100
AcDbLine
 10
385.641025556183
 20
383.8033525751503
 30
0.0
 11
396.098325556183
 21
383.8033525751503
 31
0.0
  0
ARC
  5
78F
330
1A
100
AcDbEntity
  8
SEIHIN
 48
5.0
100
AcDbCircle
 10
396.098325556183
 20
389.8033525751502
 30
0.0
 40
1.999999999999943
100
AcDbArc
 50
270.0000000000012
 51
0.0000000000016284
  0
ARC
  5
790
330
1A
100
AcDbEntity
  8
SEIHIN
 48
5.0
100
AcDbCircle
 10
396.098325556183
 20
381.8033525751504
 30
0.0
 40
1.999999999999957
100
AcDbArc
 50
359.9999999999987
 51
89.99999999999877
  0
LINE
  5
791
330
1A
100
AcDbEntity
  8
SEIHIN
 48
5.0
100
AcDbLine
 10
432.0982255561831
 20
369.2537525751503
 30
0.0
 11
432.098325556183
 21
381.8031525751501
 31
0.0
  0
LINE
  5
792
330
1A
100
AcDbEntity
  8
SEIHIN
 48
5.0
100
AcDbLine
 10
402.0983255561829
 20
381.8033525751503
 30
0.0
 11
402.0982255561831
 21
369.2539525751502
 31
0.0
  0
LINE
  5
795
330
1A
100
AcDbEntity
  8
SEIHIN
 48
5.0
100
AcDbLine
 10
404.0983255561829
 20
387.8033525751503
 30
0.0
 11
417.098325556183
 21
387.8032525751501
 31
0.0
  0
LINE
  5
796
330
1A
100
AcDbEntity
  8
SEIHIN
 48
5.0
100
AcDbLine
 10
404.0983255561829
 20
383.8033525751503
 30
0.0
 11
417.098325556183
 21
383.8032525751503
 31
0.0
  0
LINE
  5
797
330
1A
100
AcDbEntity
  8
SEIHIN
 48
5.0
100
AcDbLine
 10
402.0984255561829
 20
402.8032525751501
 30
0.0
 11
402.0983255561829
 21
389.8033525751504
 31
0.0
  0
ARC
  5
798
330
1A
100
AcDbEntity
  8
SEIHIN
 48
5.0
100
AcDbCircle
 10
404.0983255561829
 20
389.8033525751504
 30
0.0
 40
2.0
100
AcDbArc
 50
180.0
 51
270.0
  0
ARC
  5
799
330
1A
100
AcDbEntity
  8
SEIHIN
 48
5.0
100
AcDbCircle
 10
404.0983255561829
 20
381.8033525751503
 30
0.0
 40
2.0
100
AcDbArc
 50
90.0
 51
180.0
  0
LINE
  5
79A
330
1A
100
AcDbEntity
  8
SEIHIN
 48
5.0
100
AcDbLine
 10
432.0984255561829
 20
389.8031525751503
 30
0.0
 11
432.0984255561829
 21
402.8031525751504
 31
0.0
  0
LINE
  5
79B
330
1A
100
AcDbEntity
  8
SEIHIN
 48
5.0
100
AcDbLine
 10
417.098325556183
 20
387.8032525751501
 30
0.0
 11
430.098425556183
 21
387.8031525751503
 31
0.0
  0
LINE
  5
79C
330
1A
100
AcDbEntity
  8
SEIHIN
 48
5.0
100
AcDbLine
 10
417.098325556183
 20
383.8032525751503
 30
0.0
 11
430.098325556183
 21
383.8031525751503
 31
0.0
  0
ARC
  5
79D
330
1A
100
AcDbEntity
  8
SEIHIN
 48
5.0
100
AcDbCircle
 10
430.098425556183
 20
389.8031525751503
 30
0.0
 40
2.0
100
AcDbArc
 50
270.0
 51
0.0
  0
ARC
  5
79E
330
1A
100
AcDbEntity
  8
SEIHIN
 48
5.0
100
AcDbCircle
 10
430.0983255561829
 20
381.8031525751503
 30
0.0
 40
2.000000000000085
100
AcDbArc
 50
359.9999999999975
 51
89.99999999999756
  0
LINE
  5
7A0
330
1A
100
AcDbEntity
  8
SEIHIN
 48
5.0
100
AcDbLine
 10
398.098525556183
 20
434.2605525751501
 30
0.0
 11
398.0984255561829
 21
423.8033525751503
 31
0.0
  0
LINE
  5
7A1
330
1A
100
AcDbEntity
  8
SEIHIN
 48
5.0
100
AcDbLine
 10
396.0984255561829
 20
417.8033525751503
 30
0.0
 11
383.549025556183
 21
417.8033525751503
 31
0.0
  0
LINE
  5
7A2
330
1A
100
AcDbEntity
  8
SEIHIN
 48
5.0
100
AcDbLine
 10
396.0984255561829
 20
421.8033525751503
 30
0.0
 11
385.641125556183
 21
421.8033525751503
 31
0.0
  0
ARC
  5
7A3
330
1A
100
AcDbEntity
  8
SEIHIN
 48
5.0
100
AcDbCircle
 10
396.0984255561829
 20
423.8033525751503
 30
0.0
 40
2.0
100
AcDbArc
 50
270.0
 51
0.0
  0
ARC
  5
7A4
330
1A
100
AcDbEntity
  8
SEIHIN
 48
5.0
100
AcDbCircle
 10
396.0984255561829
 20
415.8033525751504
 30
0.0
 40
2.0
100
AcDbArc
 50
0.0
 51
90.0
  0
LINE
  5
7A5
330
1A
100
AcDbEntity
  8
SEIHIN
 48
5.0
100
AcDbLine
 10
432.0985255561829
 20
423.8031525751503
 30
0.0
 11
432.0985255561829
 21
436.3525525751503
 31
0.0
  0
LINE
  5
7A6
330
1A
100
AcDbEntity
  8
SEIHIN
 48
5.0
100
AcDbLine
 10
402.098525556183
 20
436.3526525751503
 30
0.0
 11
402.0984255561829
 21
423.8033525751503
 31
0.0
  0
LINE
  5
7A7
330
1A
100
AcDbEntity
  8
SEIHIN
 48
5.0
100
AcDbLine
 10
417.098425556183
 20
421.8032525751503
 30
0.0
 11
404.098425556183
 21
421.8033525751503
 31
0.0
  0
LINE
  5
7A8
330
1A
100
AcDbEntity
  8
SEIHIN
 48
5.0
100
AcDbLine
 10
417.098425556183
 20
417.8032525751503
 30
0.0
 11
404.098425556183
 21
417.8032525751503
 31
0.0
  0
ARC
  5
7A9
330
1A
100
AcDbEntity
  8
SEIHIN
 48
5.0
100
AcDbCircle
 10
404.098425556183
 20
423.8033525751504
 30
0.0
 40
2.000000000000042
100
AcDbArc
 50
180.0000000000016
 51
270.0000000000012
  0
ARC
  5
7AA
330
1A
100
AcDbEntity
  8
SEIHIN
 48
5.0
100
AcDbCircle
 10
404.0984255561831
 20
415.8032525751502
 30
0.0
 40
2.000000000000113
100
AcDbArc
 50
90.00000000000122
 51
180.0000000000016
  0
LINE
  5
7AB
330
1A
100
AcDbEntity
  8
SEIHIN
 48
5.0
100
AcDbLine
 10
430.098525556183
 20
421.8031525751501
 30
0.0
 11
417.098525556183
 21
421.8032525751503
 31
0.0
  0
LINE
  5
7AC
330
1A
100
AcDbEntity
  8
SEIHIN
 48
5.0
100
AcDbLine
 10
430.098525556183
 20
417.8032525751503
 30
0.0
 11
417.098525556183
 21
417.8032525751503
 31
0.0
  0
ARC
  5
7AD
330
1A
100
AcDbEntity
  8
SEIHIN
 48
5.0
100
AcDbCircle
 10
430.0985255561829
 20
423.8031525751503
 30
0.0
 40
2.000000000000085
100
AcDbArc
 50
270.0000000000024
 51
0.0000000000024427
  0
ARC
  5
7AE
330
1A
100
AcDbEntity
  8
SEIHIN
 48
5.0
100
AcDbCircle
 10
430.0985255561829
 20
415.8032525751503
 30
0.0
 40
2.000000000000085
100
AcDbArc
 50
359.9999999999975
 51
89.99999999999756
  0
ARC
  5
7B2
330
1A
100
AcDbEntity
  8
SEIHIN
 48
5.0
100
AcDbCircle
 10
417.3097388578977
 20
193.3093257787988
 30
0.0
 40
49.50002250418588
100
AcDbArc
 50
49.22422795643338
 51
66.93058711732001
  0
ARC
  5
7B3
330
1A
100
AcDbEntity
  8
SEIHIN
 48
5.0
100
AcDbCircle
 10
417.3101426495093
 20
193.3090765165982
 30
0.0
 40
48.50000605380927
100
AcDbArc
 50
51.37472336804231
 51
65.3808185453624
  0
ARC
  5
7B4
330
1A
100
AcDbEntity
  8
SEIHIN
 48
5.0
100
AcDbCircle
 10
437.0981679593849
 20
239.770807616456
 30
0.0
 40
1.000042405259479
100
AcDbArc
 50
179.9963246192798
 51
246.9256195415625
  0
LINE
  5
7B5
330
1A
100
AcDbEntity
  8
SEIHIN
 48
5.0
100
AcDbLine
 10
436.098125556183
 20
241.796371766671
 30
0.0
 11
436.098125556183
 21
239.770871766671
 31
0.0
  0
ARC
  5
7B6
330
1A
100
AcDbEntity
  8
SEIHIN
 48
5.0
100
AcDbCircle
 10
437.0981301486619
 20
236.4911747138653
 30
0.0
 40
1.000004592483313
100
AcDbArc
 50
65.38029343605879
 51
180.0001688610229
  0
LINE
  5
7B7
330
1A
100
AcDbEntity
  8
SEIHIN
 48
5.0
100
AcDbLine
 10
436.098125556183
 20
236.491171766671
 30
0.0
 11
436.098125556183
 21
232.3087717666711
 31
0.0
  0
LINE
  5
7C1
330
1A
100
AcDbEntity
  8
SEIHIN
 48
5.0
100
AcDbLine
 10
436.0984255561829
 20
402.8031525751504
 30
0.0
 11
436.0985255561829
 21
415.8031525751503
 31
0.0
  0
LINE
  5
7C3
330
1A
100
AcDbEntity
  8
SEIHIN
 48
5.0
100
AcDbLine
 10
436.098325556183
 20
371.3458525751502
 30
0.0
 11
436.098325556183
 21
381.8031525751501
 31
0.0
  0
LINE
  5
7C4
330
1A
100
AcDbEntity
  8
SEIHIN
 48
5.0
100
AcDbLine
 10
438.098425556183
 20
387.8031525751503
 30
0.0
 11
450.647725556183
 21
387.8030525751502
 31
0.0
  0
LINE
  5
7C6
330
1A
100
AcDbEntity
  8
SEIHIN
 48
5.0
100
AcDbLine
 10
436.0984255561829
 20
389.8031525751503
 30
0.0
 11
436.0984255561829
 21
402.8031525751504
 31
0.0
  0
LINE
  5
7C7
330
1A
100
AcDbEntity
  8
SEIHIN
 48
5.0
100
AcDbLine
 10
438.098325556183
 20
383.8031525751503
 30
0.0
 11
448.5556255561829
 21
383.8030525751502
 31
0.0
  0
ARC
  5
7C8
330
1A
100
AcDbEntity
  8
SEIHIN
 48
5.0
100
AcDbCircle
 10
438.098425556183
 20
389.8031525751503
 30
0.0
 40
2.0
100
AcDbArc
 50
180.0
 51
270.0
  0
ARC
  5
7C9
330
1A
100
AcDbEntity
  8
SEIHIN
 48
5.0
100
AcDbCircle
 10
438.0983255561831
 20
381.8031525751503
 30
0.0
 40
2.000000000000085
100
AcDbArc
 50
90.00000000000245
 51
180.0000000000024
  0
LINE
  5
7CB
330
1A
100
AcDbEntity
  8
SEIHIN
 48
5.0
100
AcDbLine
 10
436.0985255561829
 20
423.8031525751503
 30
0.0
 11
436.0985255561829
 21
434.2604525751501
 31
0.0
  0
LINE
  5
7CC
330
1A
100
AcDbEntity
  8
SEIHIN
 48
5.0
100
AcDbLine
 10
450.6478255561829
 20
417.8031525751501
 30
0.0
 11
438.0985255561831
 21
417.8031525751501
 31
0.0
  0
LINE
  5
7CD
330
1A
100
AcDbEntity
  8
SEIHIN
 48
5.0
100
AcDbLine
 10
448.555725556183
 20
421.8031525751501
 30
0.0
 11
438.0985255561831
 21
421.8031525751501
 31
0.0
  0
ARC
  5
7CE
330
1A
100
AcDbEntity
  8
SEIHIN
 48
5.0
100
AcDbCircle
 10
438.0985255561831
 20
423.8031525751503
 30
0.0
 40
2.000000000000113
100
AcDbArc
 50
179.9999999999983
 51
269.9999999999983
  0
ARC
  5
7CF
330
1A
100
AcDbEntity
  8
SEIHIN
 48
5.0
100
AcDbCircle
 10
438.0985255561829
 20
415.8031525751502
 30
0.0
 40
1.999999999999943
100
AcDbArc
 50
89.99999999999674
 51
179.9999999999967
  0
CIRCLE
  5
7DA
330
1A
100
AcDbEntity
  8
SEIHIN
100
AcDbCircle
 10
184.7409004731269
 20
402.8032025752703
 30
0.0
 40
51.9996420897578
  0
CIRCLE
  5
7DB
330
1A
100
AcDbEntity
  8
SEIHIN
100
AcDbCircle
 10
184.7409004731269
 20
402.8032025752703
 30
0.0
 40
46.67124208974258
  0
CIRCLE
  5
7DC
330
1A
100
AcDbEntity
  8
SEIHIN
100
AcDbCircle
 10
184.7409004731269
 20
402.8032025752703
 30
0.0
 40
42.49934208973074
  0
ARC
  5
7DD
330
1A
100
AcDbEntity
  8
SEIHIN
100
AcDbCircle
 10
184.7409004731269
 20
402.8032025752703
 30
0.0
 40
40.33424208972435
100
AcDbArc
 50
95.68500721146079
 51
141.6010886436008
  0
CIRCLE
  5
7DE
330
1A
100
AcDbEntity
  8
SEIHIN
100
AcDbCircle
 10
184.7409004731269
 20
402.8032025752703
 30
0.0
 40
35.47094208971035
  0
LINE
  5
7DF
330
1A
100
AcDbEntity
  8
SEIHIN
100
AcDbLine
 10
180.5309425627352
 20
445.0935127237274
 30
0.0
 11
180.7454159974668
 21
442.9390617134182
 31
0.0
  0
LINE
  5
7E0
330
1A
100
AcDbEntity
  8
SEIHIN
100
AcDbLine
 10
151.4339425627353
 20
429.2009417363303
 30
0.0
 11
153.1307428195427
 21
427.8561269169124
 31
0.0
  0
LINE
  5
7E1
330
1A
100
AcDbEntity
  8
SEIHIN
100
AcDbLine
 10
150.221396505836
 20
378.0121170017794
 30
0.0
 11
151.979969094607
 21
379.2750819498484
 31
0.0
  0
LINE
  5
7E2
330
1A
100
AcDbEntity
  8
SEIHIN
100
AcDbLine
 10
178.5332667123694
 20
360.7596613215621
 30
0.0
 11
178.8495103809673
 21
362.9015408588143
 31
0.0
  0
LINE
  5
7E3
330
1A
100
AcDbEntity
  8
SEIHIN
100
AcDbLine
 10
223.4703623508095
 20
385.3039780003041
 30
0.0
 11
221.4973163273068
 21
386.1954640625443
 31
0.0
  0
LINE
  5
7E4
330
1A
100
AcDbEntity
  8
SEIHIN
100
AcDbLine
 10
224.255492144276
 20
418.4490046679185
 30
0.0
 11
222.2424482188706
 21
417.6519399500842
 31
0.0
  0
ARC
  5
7E5
330
1A
100
AcDbEntity
  8
SEIHIN
100
AcDbCircle
 10
184.7409004731269
 20
402.8032025752703
 30
0.0
 40
40.33424208972435
100
AcDbArc
 50
215.6850072114607
 51
261.6010886436007
  0
ARC
  5
7E6
330
1A
100
AcDbEntity
  8
SEIHIN
100
AcDbCircle
 10
184.7409004731269
 20
402.8032025752703
 30
0.0
 40
40.33424208972435
100
AcDbArc
 50
335.6850072114624
 51
21.6010886436006
  0
LINE
  5
7E9
330
1A
100
AcDbEntity
  8
SEIHIN
 48
5.0
100
AcDbLine
 10
417.0977974968272
 20
206.3088717663835
 30
0.0
 11
374.5977974968274
 21
206.3089717663836
 31
0.0
  0
LINE
  5
808
330
1A
100
AcDbEntity
  8
SEIHIN
 48
5.0
100
AcDbLine
 10
374.5977974968274
 20
174.3089717663836
 30
0.0
 11
459.5980974968274
 21
174.3087717663835
 31
0.0
  0
LINE
  5
80C
330
1A
100
AcDbEntity
  8
SEIHIN
 48
5.0
100
AcDbLine
 10
376.7627974968271
 20
174.3090717663835
 30
0.0
 11
376.7627974968271
 21
170.3089717663836
 31
0.0
  0
LINE
  5
843
330
1A
100
AcDbEntity
  8
SEIHIN
 48
5.0
100
AcDbLine
 10
457.4328974968274
 20
170.3087717663835
 30
0.0
 11
376.7627974968271
 21
170.3089717666314
 31
0.0
  0
LINE
  5
844
330
1A
100
AcDbEntity
  8
SEIHIN
 48
5.0
100
AcDbLine
 10
457.4328974968274
 20
174.3088717663835
 30
0.0
 11
457.4328974968274
 21
170.3087717663835
 31
0.0
  0
LINE
  5
851
330
1A
100
AcDbEntity
  8
SEIHIN
 48
5.0
100
AcDbLine
 10
417.0979974968274
 20
206.3088717663835
 30
0.0
 11
459.5980974968274
 21
206.3087717663835
 31
0.0
  0
LINE
  5
863
330
1A
100
AcDbEntity
  8
SEIHIN
 48
5.0
100
AcDbLine
 10
459.5980974968274
 20
206.3087717663835
 30
0.0
 11
459.598097496827
 21
174.3087717663836
 31
0.0
  0
LINE
  5
86A
330
1A
100
AcDbEntity
  8
SEIHIN
 48
5.0
100
AcDbLine
 10
457.4328974968274
 20
210.3088717663833
 30
0.0
 11
457.4328974968274
 21
206.3088717663835
 31
0.0
  0
LINE
  5
86B
330
1A
100
AcDbEntity
  8
SEIHIN
 48
5.0
100
AcDbLine
 10
376.7630974968271
 20
210.3091717663834
 30
0.0
 11
376.7629974968271
 21
206.3091717663835
 31
0.0
  0
LINE
  5
86D
330
1A
100
AcDbEntity
  8
SEIHIN
  6
CONTINUOUS
 62
     4
100
AcDbLine
 10
457.4328974968274
 20
206.3088717663835
 30
0.0
 11
457.4328974968274
 21
174.3088717663835
 31
0.0
  0
LINE
  5
86E
330
1A
100
AcDbEntity
  8
SEIHIN
 62
     4
100
AcDbLine
 10
376.7630861977071
 20
206.309116611367
 30
0.0
 11
376.7628919481026
 21
174.3091166119566
 31
0.0
  0
LINE
  5
86F
330
1A
100
AcDbEntity
  8
SEIHIN
 48
5.0
100
AcDbLine
 10
374.59788619714
 20
206.3090297547808
 30
0.0
 11
374.5976919475359
 21
174.3090297553705
 31
0.0
  0
ARC
  5
873
330
1A
100
AcDbEntity
  8
SEIHIN
100
AcDbCircle
 10
417.0980755561828
 20
191.7598651748962
 30
0.0
 40
51.04890659172381
100
AcDbArc
 50
74.39170603831285
 51
105.6081047544811
  0
ARC
  5
874
330
1A
100
AcDbEntity
  8
SEIHIN
100
AcDbCircle
 10
417.0978978152237
 20
191.7712440461411
 30
0.0
 40
50.03756521576625
100
AcDbArc
 50
74.28805743317636
 51
105.7115197212889
  0
ARC
  5
875
330
1A
100
AcDbEntity
  8
SEIHIN
100
AcDbCircle
 10
417.098075556183
 20
191.8754770124252
 30
0.0
 40
46.93330157552688
100
AcDbArc
 50
73.17100759158924
 51
106.8289924084059
  0
ARC
  5
876
330
1A
100
AcDbEntity
  8
SEIHIN
100
AcDbCircle
 10
660.1846546951921
 20
340.1551569072366
 30
0.0
 40
46.93330157552688
100
AcDbArc
 50
73.17100759158924
 51
106.8289924084059
  0
ARC
  5
877
330
1A
100
AcDbEntity
  8
SEIHIN
100
AcDbCircle
 10
660.1844769542327
 20
340.0509239409525
 30
0.0
 40
50.03756521576625
100
AcDbArc
 50
74.28805743317636
 51
105.7115197212889
  0
ARC
  5
878
330
1A
100
AcDbEntity
  8
SEIHIN
100
AcDbCircle
 10
660.1846546951919
 20
340.0395450697077
 30
0.0
 40
51.04890659172381
100
AcDbArc
 50
74.39170603831285
 51
105.6081047544811
  0
LINE
  5
879
330
1A
100
AcDbEntity
  8
SEIHIN
 48
5.0
100
AcDbLine
 10
702.6842906467396
 20
247.6935259981451
 30
0.0
 11
702.6842906467398
 21
259.0217837341509
 31
0.0
  0
LINE
  5
87A
330
1A
100
AcDbEntity
  8
SEIHIN
 48
5.0
100
AcDbLine
 10
702.6842906467396
 20
243.6936259981452
 30
0.0
 11
702.6842906467396
 21
244.1922414701566
 31
0.0
  0
LINE
  5
87B
330
1A
100
AcDbEntity
  8
SEIHIN
 48
5.0
100
AcDbLine
 10
702.6842906467395
 20
239.693725998145
 30
0.0
 11
702.6842906467396
 21
240.1923414747753
 31
0.0
  0
LINE
  5
87C
330
1A
100
AcDbEntity
  8
SEIHIN
 48
5.0
100
AcDbLine
 10
702.6842906467395
 20
235.693825998145
 30
0.0
 11
702.6842906467396
 21
236.1925414701568
 31
0.0
  0
LINE
  5
87D
330
1A
100
AcDbEntity
  8
SEIHIN
 48
5.0
100
AcDbLine
 10
702.6842906467395
 20
231.6939260027635
 30
0.0
 11
702.6842906467395
 21
232.1926414701569
 31
0.0
  0
LINE
  5
87E
330
1A
100
AcDbEntity
  8
SEIHIN
100
AcDbLine
 10
702.6843906467395
 20
225.6935837341509
 30
0.0
 11
702.6843812349526
 21
221.6935837341731
 31
0.0
  0
DIMENSION
  5
88E
330
1A
100
AcDbEntity
  8
SUNPOU
100
AcDbDimension
  2
*D1
 10
129.7404504732468
 20
271.5689109507323
 30
0.0
 11
184.7405004732469
 21
276.5689109507322
 31
0.0
 12
43.54414945068128
 22
0.5056191915207365
 32
0.0
 70
    32
  1
φ<>
  3
STANDARD
100
AcDbAlignedDimension
 13
239.7405504732469
 23
242.8087717666711
 33
0.0
 14
129.7404504732468
 24
242.809071766671
 34
0.0
100
AcDbRotatedDimension
1001
ACAD
1000
DSTYLE
1002
{
1070
   140
1040
6.0
1070
    74
1070
     0
1070
   172
1070
     1
1070
    73
1070
     0
1070
   272
1070
     2
1070
    77
1070
     3
1070
   173
1070
     1
1070
   147
1040
2.0
1070
    42
1040
6.0
1070
    44
1040
3.0
1070
    43
1040
14.0
1070
   271
1070
     0
1070
   178
1070
     4
1070
   177
1070
     4
1070
   176
1070
     4
1070
   141
1040
150.0
1070
     7
1000
_OPEN
1070
     6
1000
_OPEN
1070
    41
1040
7.0
1002
}
  0
DIMENSION
  5
8AA
330
1A
100
AcDbEntity
  8
SUNPOU
100
AcDbDimension
  2
*D2
 10
266.431858413709
 20
163.3086717666711
 30
0.0
 11
261.431858413709
 21
180.8086717666711
 31
0.0
 12
0.0
 22
15.0
 32
0.0
 70
    32
  3
STANDARD
100
AcDbAlignedDimension
 13
228.8904504732469
 23
198.3086717666711
 33
0.0
 14
222.7402504732467
 24
163.3086717666711
 34
0.0
 50
90.0
100
AcDbRotatedDimension
1001
ACAD
1000
DSTYLE
1002
{
1070
   140
1040
6.0
1070
    74
1070
     0
1070
   172
1070
     1
1070
    73
1070
     0
1070
   272
1070
     2
1070
    77
1070
     3
1070
   173
1070
     1
1070
   147
1040
2.0
1070
    42
1040
6.0
1070
    44
1040
3.0
1070
    43
1040
14.0
1070
   271
1070
     0
1070
   178
1070
     4
1070
   177
1070
     4
1070
   176
1070
     4
1070
   141
1040
150.0
1070
     7
1000
_OPEN
1070
     6
1000
_OPEN
1070
    41
1040
7.0
1002
}
  0
DIMENSION
  5
8B7
330
1A
100
AcDbEntity
  8
SUNPOU
100
AcDbDimension
  2
*D3
 10
266.431858413709
 20
198.3086717666711
 30
0.0
 11
261.431858413709
 21
218.808721766671
 31
0.0
 12
0.0
 22
15.0
 32
0.0
 70
    32
  3
STANDARD
100
AcDbAlignedDimension
 13
238.2405504732469
 23
239.308771766671
 33
0.0
 14
228.8904504732469
 24
198.3086717666711
 34
0.0
 50
90.0
100
AcDbRotatedDimension
1001
ACAD
1000
DSTYLE
1002
{
1070
   140
1040
6.0
1070
    74
1070
     0
1070
   172
1070
     1
1070
    73
1070
     0
1070
   272
1070
     2
1070
    77
1070
     3
1070
   173
1070
     1
1070
   147
1040
2.0
1070
    42
1040
6.0
1070
    44
1040
3.0
1070
    43
1040
14.0
1070
   271
1070
     0
1070
   178
1070
     4
1070
   177
1070
     4
1070
   176
1070
     4
1070
   141
1040
150.0
1070
     7
1000
_OPEN
1070
     6
1000
_OPEN
1070
    41
1040
7.0
1002
}
  0
DIMENSION
  5
8C4
330
1A
100
AcDbEntity
  8
SUNPOU
100
AcDbDimension
  2
*D4
 10
284.4924223497719
 20
163.3086717666711
 30
0.0
 11
279.4924223497719
 21
203.0586717666711
 31
0.0
 12
0.0
 22
15.0
 32
0.0
 70
    32
  3
STANDARD
100
AcDbAlignedDimension
 13
239.7405504732469
 23
242.8086717666711
 33
0.0
 14
222.7402504732467
 24
163.3086717666711
 34
0.0
 50
90.0
100
AcDbRotatedDimension
1001
ACAD
1000
DSTYLE
1002
{
1070
   140
1040
6.0
1070
    74
1070
     0
1070
   172
1070
     1
1070
    73
1070
     0
1070
   272
1070
     2
1070
    77
1070
     3
1070
   173
1070
     1
1070
   147
1040
2.0
1070
    42
1040
6.0
1070
    44
1040
3.0
1070
    43
1040
14.0
1070
   271
1070
     0
1070
   178
1070
     4
1070
   177
1070
     4
1070
   176
1070
     4
1070
   141
1040
150.0
1070
     7
1000
_OPEN
1070
     6
1000
_OPEN
1070
    41
1040
7.0
1002
}
  0
DIMENSION
  5
8D1
330
1A
100
AcDbEntity
  8
SUNPOU
100
AcDbDimension
  2
*D5
 10
146.7402504732468
 20
131.5282029302372
 30
0.0
 11
184.7402504732468
 21
136.5282029302372
 31
0.0
 12
0.0
 22
15.0
 32
0.0
 70
    32
  1
φ<>
  3
STANDARD
100
AcDbAlignedDimension
 13
222.7402504732467
 23
163.3086717666711
 33
0.0
 14
146.7402504732468
 24
163.308971766671
 34
0.0
100
AcDbRotatedDimension
1001
ACAD
1000
DSTYLE
1002
{
1070
   140
1040
6.0
1070
    74
1070
     0
1070
   172
1070
     1
1070
    73
1070
     0
1070
   272
1070
     2
1070
    77
1070
     3
1070
   173
1070
     1
1070
   147
1040
2.0
1070
    42
1040
6.0
1070
    44
1040
3.0
1070
    43
1040
14.0
1070
   271
1070
     0
1070
   178
1070
     4
1070
   177
1070
     4
1070
   176
1070
     4
1070
   141
1040
150.0
1070
     7
1000
_OPEN
1070
     6
1000
_OPEN
1070
    41
1040
7.0
1002
}
  0
DIMENSION
  5
8DE
330
1A
100
AcDbEntity
  8
SUNPOU
100
AcDbDimension
  2
*D6
 10
140.0902504732468
 20
115.0465294691696
 30
0.0
 11
184.7403504732468
 21
120.0465294691696
 31
0.0
 12
0.0
 22
15.0
 32
0.0
 70
    32
  1
φ<>
  3
STANDARD
100
AcDbAlignedDimension
 13
229.3904504732469
 23
202.3086717666711
 33
0.0
 14
140.0902504732468
 24
202.3090717666711
 34
0.0
100
AcDbRotatedDimension
1001
ACAD
1000
DSTYLE
1002
{
1070
   140
1040
6.0
1070
    74
1070
     0
1070
   172
1070
     1
1070
    73
1070
     0
1070
   272
1070
     2
1070
    77
1070
     3
1070
   173
1070
     1
1070
   147
1040
2.0
1070
    42
1040
6.0
1070
    44
1040
3.0
1070
    43
1040
14.0
1070
   271
1070
     0
1070
   178
1070
     4
1070
   177
1070
     4
1070
   176
1070
     4
1070
   141
1040
150.0
1070
     7
1000
_OPEN
1070
     6
1000
_OPEN
1070
    41
1040
7.0
1002
}
  0
DIMENSION
  5
96C
330
1A
100
AcDbEntity
  8
SUNPOU
100
AcDbDimension
  2
*D7
 10
487.8436566430659
 20
212.308771766671
 30
0.0
 11
482.8436566430659
 21
230.308771766671
 31
0.0
 12
0.0
 22
-20.0
 32
0.0
 70
    32
  3
STANDARD
100
AcDbAlignedDimension
 13
467.098025556183
 23
210.308771766671
 33
0.0
 14
463.098025556183
 24
212.308771766671
 34
0.0
 50
90.0
100
AcDbRotatedDimension
1001
ACAD
1000
DSTYLE
1002
{
1070
   140
1040
6.0
1070
    74
1070
     0
1070
   172
1070
     1
1070
    73
1070
     0
1070
   272
1070
     2
1070
    77
1070
     3
1070
   173
1070
     1
1070
   147
1040
2.0
1070
    42
1040
6.0
1070
    44
1040
3.0
1070
    43
1040
14.0
1070
   271
1070
     0
1070
   178
1070
     4
1070
   177
1070
     4
1070
   176
1070
     4
1070
   141
1040
150.0
1070
     7
1000
_OPEN
1070
     6
1000
_OPEN
1070
    41
1040
7.0
1002
}
  0
DIMENSION
  5
979
330
1A
100
AcDbEntity
  8
SUNPOU
100
AcDbDimension
  2
*D8
 10
504.6732083766569
 20
170.3087717663835
 30
0.0
 11
499.6732083766569
 21
190.3087717665273
 31
0.0
 12
0.0
 22
-20.0
 32
0.0
 70
    32
  3
STANDARD
100
AcDbAlignedDimension
 13
467.098025556183
 23
210.308771766671
 33
0.0
 14
457.4328974968274
 24
170.3087717663835
 34
0.0
 50
90.0
100
AcDbRotatedDimension
1001
ACAD
1000
DSTYLE
1002
{
1070
   140
1040
6.0
1070
    74
1070
     0
1070
   172
1070
     1
1070
    73
1070
     0
1070
   272
1070
     2
1070
    77
1070
     3
1070
   173
1070
     1
1070
   147
1040
2.0
1070
    42
1040
6.0
1070
    44
1040
3.0
1070
    43
1040
14.0
1070
   271
1070
     0
1070
   178
1070
     4
1070
   177
1070
     4
1070
   176
1070
     4
1070
   141
1040
150.0
1070
     7
1000
_OPEN
1070
     6
1000
_OPEN
1070
    41
1040
7.0
1002
}
  0
DIMENSION
  5
993
330
1A
100
AcDbEntity
  8
SUNPOU
100
AcDbDimension
  2
*D9
 10
467.098025556183
 20
285.0837396873555
 30
0.0
 11
417.097975556183
 21
290.0837396873555
 31
0.0
 12
0.0
 22
-34.49438080847926
 32
0.0
 70
    32
  1
φ<>
  3
STANDARD
100
AcDbAlignedDimension
 13
367.097925556183
 23
211.309071766671
 33
0.0
 14
467.098025556183
 24
211.308771766671
 34
0.0
100
AcDbRotatedDimension
1001
ACAD
1000
DSTYLE
1002
{
1070
   140
1040
6.0
1070
    74
1070
     0
1070
   172
1070
     1
1070
    73
1070
     0
1070
   272
1070
     2
1070
    77
1070
     3
1070
   173
1070
     1
1070
   147
1040
2.0
1070
    42
1040
6.0
1070
    44
1040
3.0
1070
    43
1040
14.0
1070
   271
1070
     0
1070
   178
1070
     4
1070
   177
1070
     4
1070
   176
1070
     4
1070
   141
1040
150.0
1070
     7
1000
_OPEN
1070
     6
1000
_OPEN
1070
    41
1040
7.0
1002
}
  0
DIMENSION
  5
9E2
330
1A
100
AcDbEntity
  8
SUNPOU
100
AcDbDimension
  2
*D10
 10
374.5977974968274
 20
139.719421331652
 30
0.0
 11
417.0979474968272
 21
144.719421331652
 31
0.0
 12
0.0
 22
-20.0
 32
0.0
 70
    32
  1
φ<>
  3
STANDARD
100
AcDbAlignedDimension
 13
459.598097496827
 23
174.3087717663835
 33
0.0
 14
374.5977974968274
 24
174.3089717663836
 34
0.0
100
AcDbRotatedDimension
1001
ACAD
1000
DSTYLE
1002
{
1070
   140
1040
6.0
1070
    74
1070
     0
1070
   172
1070
     1
1070
    73
1070
     0
1070
   272
1070
     2
1070
    77
1070
     3
1070
   173
1070
     1
1070
   147
1040
2.0
1070
    42
1040
6.0
1070
    44
1040
3.0
1070
    43
1040
14.0
1070
   271
1070
     0
1070
   178
1070
     4
1070
   177
1070
     4
1070
   176
1070
     4
1070
   141
1040
150.0
1070
     7
1000
_OPEN
1070
     6
1000
_OPEN
1070
    41
1040
7.0
1002
}
  0
LINE
  5
A06
330
1A
100
AcDbEntity
  8
NOKITOI
 48
5.0
100
AcDbLine
 10
703.1845964369432
 20
358.2884656614705
 30
0.0
 11
703.1845906004309
 21
355.7884656614772
 31
0.0
  0
LINE
  5
A07
330
1A
100
AcDbEntity
  8
NOKITOI
 48
5.0
100
AcDbLine
 10
617.1845964371104
 20
358.28863766147
 30
0.0
 11
617.1845906005982
 21
355.7886376614769
 31
0.0
  0
LINE
  5
A08
330
1A
100
AcDbEntity
  8
NOKITOI
  6
CONTINUOUS
100
AcDbLine
 10
590.184596437163
 20
358.28869166147
 30
0.0
 11
617.1845964371104
 21
358.28863766147
 31
0.0
  0
LINE
  5
A09
330
1A
100
AcDbEntity
  8
NOKITOI
  6
CONTINUOUS
100
AcDbLine
 10
590.1845906006506
 20
355.7886916614767
 30
0.0
 11
617.184590600598
 21
355.7886376614768
 31
0.0
  0
LINE
  5
A0A
330
1A
100
AcDbEntity
  8
NOKITOI
  6
CONTINUOUS
100
AcDbLine
 10
703.1845964369431
 20
358.2884656614705
 30
0.0
 11
730.1845964368907
 21
358.2884116614706
 31
0.0
  0
LINE
  5
A0B
330
1A
100
AcDbEntity
  8
NOKITOI
 48
5.0
100
AcDbLine
 10
703.1845906004309
 20
355.7884656614772
 30
0.0
 11
730.1845906003784
 21
355.7884116614772
 31
0.0
  0
DIMENSION
  5
A19
330
1A
100
AcDbEntity
  8
SUNPOU
100
AcDbDimension
  2
*D11
 10
617.1845906005982
 20
290.8785342042804
 30
0.0
 11
660.1845906005146
 21
295.8785342042803
 31
0.0
 70
    32
  1
穴径　φ<>
  3
STANDARD
100
AcDbAlignedDimension
 13
703.1845906004309
 23
355.7884656614772
 33
0.0
 14
617.1845906005982
 24
355.7886376614769
 34
0.0
100
AcDbRotatedDimension
1001
ACAD
1000
DSTYLE
1002
{
1070
   140
1040
6.0
1070
    74
1070
     0
1070
   172
1070
     1
1070
    73
1070
     0
1070
   272
1070
     2
1070
    77
1070
     3
1070
   173
1070
     1
1070
   147
1040
2.0
1070
    42
1040
6.0
1070
    44
1040
3.0
1070
    43
1040
14.0
1070
   271
1070
     0
1070
   178
1070
     4
1070
   177
1070
     4
1070
   176
1070
     4
1070
   141
1040
150.0
1070
     7
1000
_OPEN
1070
     6
1000
_OPEN
1070
    41
1040
7.0
1002
}
  0
DIMENSION
  5
A58
330
1A
100
AcDbEntity
  8
SUNPOU
100
AcDbDimension
  2
*D12
 10
380.348025556183
 20
267.3600745093838
 30
0.0
 11
417.098025556183
 21
272.3600745093838
 31
0.0
 12
0.0
 22
-34.49438080847926
 32
0.0
 70
    32
  1
φ<>
  3
STANDARD
100
AcDbAlignedDimension
 13
453.8480255561831
 23
228.1567717666709
 33
0.0
 14
380.348025556183
 24
228.156971766671
 34
0.0
100
AcDbRotatedDimension
1001
ACAD
1000
DSTYLE
1002
{
1070
   140
1040
6.0
1070
    74
1070
     0
1070
   172
1070
     1
1070
    73
1070
     0
1070
   272
1070
     2
1070
    77
1070
     3
1070
   173
1070
     1
1070
   147
1040
2.0
1070
    42
1040
6.0
1070
    44
1040
3.0
1070
    43
1040
14.0
1070
   271
1070
     0
1070
   178
1070
     4
1070
   177
1070
     4
1070
   176
1070
     4
1070
   141
1040
150.0
1070
     7
1000
_OPEN
1070
     6
1000
_OPEN
1070
    41
1040
7.0
1002
}
  0
DIMENSION
  5
AB7
330
1A
100
AcDbEntity
  8
SUNPOU
100
AcDbDimension
  2
*D13
 10
525.1774190220025
 20
170.3087717663835
 30
0.0
 11
520.1774190220025
 21
206.5587717664981
 31
0.0
 12
0.0
 22
-20.0
 32
0.0
 70
    32
  3
STANDARD
100
AcDbAlignedDimension
 13
417.0981026295699
 23
242.8087717666128
 33
0.0
 14
457.4328974968274
 24
170.3087717663835
 34
0.0
 50
90.0
100
AcDbRotatedDimension
1001
ACAD
1000
DSTYLE
1002
{
1070
   140
1040
6.0
1070
    74
1070
     0
1070
   172
1070
     1
1070
    73
1070
     0
1070
   272
1070
     2
1070
    77
1070
     3
1070
   173
1070
     1
1070
   147
1040
2.0
1070
    42
1040
6.0
1070
    44
1040
3.0
1070
    43
1040
14.0
1070
   271
1070
     0
1070
   178
1070
     4
1070
   177
1070
     4
1070
   176
1070
     4
1070
   141
1040
150.0
1070
     7
1000
_OPEN
1070
     6
1000
_OPEN
1070
    41
1040
7.0
1002
}
  0
VIEWPORT
  5
22
330
17
100
AcDbEntity
 67
     1
  8
0
100
AcDbViewport
 10
313.6808219178082
 20
148.5
 30
0.0
 40
627.3616438356165
 41
297.0
 68
     2
 69
     1
1001
ACAD
1000
MVIEW
1002
{
1070
    16
1010
0.0
1020
0.0
1030
0.0
1010
0.0
1020
0.0
1030
1.0
1040
0.0
1040
297.0
1040
313.6808219178082
1040
148.5
1040
50.0
1040
0.0
1040
0.0
1070
     0
1070
   100
1070
     1
1070
     0
1070
     0
1070
     0
1070
     0
1070
     0
1040
0.0
1040
0.0
1040
0.0
1040
1.0
1040
1.0
1040
10.0
1040
10.0
1070
     0
1002
{
1002
}
1002
}
  0
VIEWPORT
  5
64
330
17
100
AcDbEntity
 67
     1
  8
VIEWPORT
100
AcDbViewport
 10
210.0
 20
148.5
 30
0.0
 40
420.0
 41
297.0
 68
     1
 69
     2
1001
ACAD
1000
MVIEW
1002
{
1070
    16
1010
0.0
1020
0.0
1030
0.0
1010
0.0
1020
0.0
1030
1.0
1040
0.0
1040
605.8799999999998
1040
420.0
1040
297.0
1040
50.0
1040
0.0
1040
0.0
1070
     0
1070
   100
1070
     1
1070
     0
1070
     0
1070
     0
1070
     0
1070
     0
1040
0.0
1040
0.0
1040
0.0
1040
10.0
1040
10.0
1040
0.0
1040
0.0
1070
     0
1002
{
1002
}
1002
}
  0
ENDSEC
  0
SECTION
  2
OBJECTS
  0
DICTIONARY
  5
C
330
0
100
AcDbDictionary
  3
ACAD_GROUP
350
D
  3
ACAD_LAYOUT
350
B87
  3
ACAD_MLINESTYLE
350
E
  3
ACAD_PLOTSETTINGS
350
B88
1001
ACAD
1000
TREAT_AS_HARD
1070
     0
  0
DICTIONARY
  5
BB4
330
1A
100
AcDbDictionary
  3
ACAD_LAYOUTSELFREF
350
BF8
1001
ACAD
1000
TREAT_AS_HARD
1070
     1
  0
DICTIONARY
  5
BB2
330
17
100
AcDbDictionary
  3
ACAD_LAYOUTSELFREF
350
BF7
1001
ACAD
1000
TREAT_AS_HARD
1070
     1
  0
DICTIONARY
  5
D
102
{ACAD_REACTORS
330
C
102
}
330
C
100
AcDbDictionary
1001
ACAD
1000
TREAT_AS_HARD
1070
     0
  0
DICTIONARY
  5
B87
102
{ACAD_REACTORS
330
C
102
}
330
C
100
AcDbDictionary
1001
ACAD
1000
TREAT_AS_HARD
1070
     0
  0
DICTIONARY
  5
E
102
{ACAD_REACTORS
330
C
102
}
330
C
100
AcDbDictionary
  3
STANDARD
350
13
1001
ACAD
1000
TREAT_AS_HARD
1070
     0
  0
DICTIONARY
  5
B88
102
{ACAD_REACTORS
330
C
102
}
330
C
100
AcDbDictionary
1001
ACAD
1000
TREAT_AS_HARD
1070
     0
  0
XRECORD
  5
BF8
102
{ACAD_REACTORS
330
BB4
102
}
330
BB4
100
AcDbXrecord
340
1A
  0
XRECORD
  5
BF7
102
{ACAD_REACTORS
330
BB2
102
}
330
BB2
100
AcDbXrecord
340
17
  0
MLINESTYLE
  5
13
102
{ACAD_REACTORS
330
E
102
}
330
E
100
AcDbMlineStyle
  2
STANDARD
 70
     0
  3

 62
     0
 51
90.0
 52
90.0
 71
     2
 49
0.5
 62
   256
  6
BYLAYER
 49
-0.5
 62
   256
  6
BYLAYER
  0
ENDSEC
  0
EOF
