  0
SECTION
  2
HEADER
  9
$ACADVER
  1
AC1012
  9
$DWGCODEPAGE
  3
dos932
  9
$INSBASE
 10
0.0
 20
0.0
 30
0.0
  9
$EXTMIN
 10
19.90074647074652
 20
5.798621502208327
 30
0.0
  9
$EXTMAX
 10
1611.900746470746
 20
1124.166900699545
 30
0.0
  9
$LIMMIN
 10
0.0
 20
0.0
  9
$LIMMAX
 10
1682.0
 20
1188.0
  9
$ORTHOMODE
 70
     0
  9
$REGENMODE
 70
     1
  9
$FILLMODE
 70
     1
  9
$QTEXTMODE
 70
     0
  9
$MIRRTEXT
 70
     1
  9
$DRAGMODE
 70
     2
  9
$LTSCALE
 40
5.657142857142857
  9
$OSMODE
 70
    37
  9
$ATTMODE
 70
     1
  9
$TEXTSIZE
 40
19.8
  9
$TRACEWID
 40
0.05
  9
$TEXTSTYLE
  7
STANDARD
  9
$CLAYER
  8
ZUWAKU
  9
$CELTYPE
  6
BYLAYER
  9
$CECOLOR
 62
   256
  9
$CELTSCALE
 40
1.0
  9
$DELOBJ
 70
     1
  9
$DISPSILH
 70
     0
  9
$DIMSCALE
 40
1.0
  9
$DIMASZ
 40
14.0
  9
$DIMEXO
 40
12.0
  9
$DIMDLI
 40
28.0
  9
$DIMRND
 40
0.0
  9
$DIMDLE
 40
0.0
  9
$DIMEXE
 40
6.0
  9
$DIMTP
 40
0.0
  9
$DIMTM
 40
0.0
  9
$DIMTXT
 40
12.0
  9
$DIMCEN
 40
150.0
  9
$DIMTSZ
 40
0.0
  9
$DIMTOL
 70
     0
  9
$DIMLIM
 70
     0
  9
$DIMTIH
 70
     0
  9
$DIMTOH
 70
     0
  9
$DIMSE1
 70
     0
  9
$DIMSE2
 70
     0
  9
$DIMTAD
 70
     3
  9
$DIMZIN
 70
     0
  9
$DIMBLK
  1

  9
$DIMASO
 70
     1
  9
$DIMSHO
 70
     1
  9
$DIMPOST
  1

  9
$DIMAPOST
  1

  9
$DIMALT
 70
     0
  9
$DIMALTD
 70
     2
  9
$DIMALTF
 40
0.03937
  9
$DIMLFAC
 40
1.0
  9
$DIMTOFL
 70
     1
  9
$DIMTVP
 40
0.0
  9
$DIMTIX
 70
     0
  9
$DIMSOXD
 70
     0
  9
$DIMSAH
 70
     1
  9
$DIMBLK1
  1
OPEN
  9
$DIMBLK2
  1
OPEN
  9
$DIMSTYLE
  2
STANDARD
  9
$DIMCLRD
 70
     4
  9
$DIMCLRE
 70
   256
  9
$DIMCLRT
 70
   256
  9
$DIMTFAC
 40
1.0
  9
$DIMGAP
 40
4.0
  9
$DIMJUST
 70
     0
  9
$DIMSD1
 70
     0
  9
$DIMSD2
 70
     0
  9
$DIMTOLJ
 70
     1
  9
$DIMTZIN
 70
     0
  9
$DIMALTZ
 70
     0
  9
$DIMALTTZ
 70
     0
  9
$DIMFIT
 70
     3
  9
$DIMUPT
 70
     0
  9
$DIMUNIT
 70
     2
  9
$DIMDEC
 70
     0
  9
$DIMTDEC
 70
     0
  9
$DIMALTU
 70
     2
  9
$DIMALTTD
 70
     2
  9
$DIMTXSTY
  7
STANDARD
  9
$DIMAUNIT
 70
     0
  9
$LUNITS
 70
     2
  9
$LUPREC
 70
     4
  9
$SKETCHINC
 40
0.1
  9
$FILLETRAD
 40
56.57142857142858
  9
$AUNITS
 70
     0
  9
$AUPREC
 70
     0
  9
$MENU
  1
acad
  9
$ELEVATION
 40
0.0
  9
$PELEVATION
 40
0.0
  9
$THICKNESS
 40
0.0
  9
$LIMCHECK
 70
     0
  9
$BLIPMODE
 70
     0
  9
$CHAMFERA
 40
56.57142857142858
  9
$CHAMFERB
 40
56.57142857142858
  9
$CHAMFERC
 40
113.1428571428571
  9
$CHAMFERD
 40
0.0
  9
$SKPOLY
 70
     0
  9
$TDCREATE
 40
2450994.355304167
  9
$TDUPDATE
 40
2452393.707834051
  9
$TDINDWG
 40
0.0289610880
  9
$TDUSRTIMER
 40
0.0289610880
  9
$USRTIMER
 70
     1
  9
$ANGBASE
 50
0.0
  9
$ANGDIR
 70
     0
  9
$PDMODE
 70
     1
  9
$PDSIZE
 40
0.0
  9
$PLINEWID
 40
0.0
  9
$COORDS
 70
     1
  9
$SPLFRAME
 70
     0
  9
$SPLINETYPE
 70
     6
  9
$SPLINESEGS
 70
     8
  9
$ATTDIA
 70
     0
  9
$ATTREQ
 70
     1
  9
$HANDLING
 70
 10241
  9
$HANDSEED
  5
A6C
  9
$SURFTAB1
 70
     6
  9
$SURFTAB2
 70
     6
  9
$SURFTYPE
 70
     6
  9
$SURFU
 70
     6
  9
$SURFV
 70
     6
  9
$UCSNAME
  2

  9
$UCSORG
 10
0.0
 20
0.0
 30
0.0
  9
$UCSXDIR
 10
1.0
 20
0.0
 30
0.0
  9
$UCSYDIR
 10
0.0
 20
1.0
 30
0.0
  9
$PUCSNAME
  2

  9
$PUCSORG
 10
0.0
 20
0.0
 30
0.0
  9
$PUCSXDIR
 10
1.0
 20
0.0
 30
0.0
  9
$PUCSYDIR
 10
0.0
 20
1.0
 30
0.0
  9
$USERI1
 70
     0
  9
$USERI2
 70
     0
  9
$USERI3
 70
     0
  9
$USERI4
 70
     0
  9
$USERI5
 70
     0
  9
$USERR1
 40
0.0
  9
$USERR2
 40
0.0
  9
$USERR3
 40
0.0
  9
$USERR4
 40
0.0
  9
$USERR5
 40
0.0
  9
$WORLDVIEW
 70
     1
  9
$SHADEDGE
 70
     3
  9
$SHADEDIF
 70
    70
  9
$TILEMODE
 70
     1
  9
$MAXACTVP
 70
    16
  9
$PINSBASE
 10
0.0
 20
0.0
 30
0.0
  9
$PLIMCHECK
 70
     0
  9
$PEXTMIN
 10
0.0
 20
0.0
 30
0.0
  9
$PEXTMAX
 10
420.0
 20
297.0
 30
0.0
  9
$PLIMMIN
 10
0.0
 20
0.0
  9
$PLIMMAX
 10
420.0
 20
297.0
  9
$UNITMODE
 70
     0
  9
$VISRETAIN
 70
     0
  9
$PLINEGEN
 70
     0
  9
$PSLTSCALE
 70
     1
  9
$TREEDEPTH
 70
  3020
  9
$PICKSTYLE
 70
     1
  9
$CMLSTYLE
  2
STANDARD
  9
$CMLJUST
 70
     0
  9
$CMLSCALE
 40
20.0
  9
$SAVEIMAGES
 70
     1
  0
ENDSEC
  0
SECTION
  2
CLASSES
  0
CLASS
  1
ACDBDICTIONARYWDFLT
  2
AcDbDictionaryWithDefault
  3
AutoCAD 2000
 90
    32768
280
     0
281
     0
  0
CLASS
  1
ACDBPLACEHOLDER
  2
AcDbPlaceHolder
  3
AutoCAD 2000
 90
    32768
280
     0
281
     0
  0
CLASS
  1
LAYOUT
  2
AcDbLayout
  3
AutoCAD 2000
 90
    32768
280
     0
281
     0
  0
CLASS
  1
LONG_TRANSACTION
  2
AcDbLongTransaction
  3
AutoCAD 2000
 90
    32768
280
     0
281
     0
  0
CLASS
  1
LWPOLYLINE
  2
AcDbPolyline
  3
AutoCAD 2000
 90
    32768
280
     0
281
     1
  0
CLASS
  1
HATCH
  2
AcDbHatch
  3
AutoCAD 2000
 90
    32768
280
     0
281
     1
  0
CLASS
  1
XRECORD
  2
AcDbXrecord
  3
AutoCAD 2000
 90
    32768
280
     0
281
     0
  0
CLASS
  1
LONG_TRANSACTION
  2
AcDbLongTransaction
  3
AutoCAD 2000
 90
    32768
280
     0
281
     0
  0
CLASS
  1
LWPOLYLINE
  2
AcDbPolyline
  3
AutoCAD 2000
 90
    32768
280
     0
281
     1
  0
CLASS
  1
HATCH
  2
AcDbHatch
  3
AutoCAD 2000
 90
    32768
280
     0
281
     1
  0
CLASS
  1
XRECORD
  2
AcDbXrecord
  3
AutoCAD 2000
 90
    32768
280
     0
281
     0
  0
CLASS
  1
LONG_TRANSACTION
  2
AcDbLongTransaction
  3
AutoCAD 2000
 90
    32768
280
     0
281
     0
  0
CLASS
  1
LWPOLYLINE
  2
AcDbPolyline
  3
AutoCAD 2000
 90
    32768
280
     0
281
     1
  0
CLASS
  1
HATCH
  2
AcDbHatch
  3
AutoCAD 2000
 90
    32768
280
     0
281
     1
  0
CLASS
  1
XRECORD
  2
AcDbXrecord
  3
AutoCAD 2000
 90
    32768
280
     0
281
     0
  0
ENDSEC
  0
SECTION
  2
TABLES
  0
TABLE
  2
VPORT
  5
8
330
0
100
AcDbSymbolTable
 70
     2
  0
VPORT
  5
A69
330
8
100
AcDbSymbolTableRecord
100
AcDbViewportTableRecord
  2
*ACTIVE
 70
     0
 10
0.0
 20
0.0
 11
1.0
 21
1.0
 12
1038.868373714202
 22
594.0
 13
0.0
 23
0.0
 14
10.0
 24
10.0
 15
10.0
 25
10.0
 16
0.0
 26
0.0
 36
1.0
 17
0.0
 27
0.0
 37
0.0
 40
1202.031496062992
 41
2.169459962756052
 42
50.0
 43
0.0
 44
0.0
 50
0.0
 51
0.0
 71
     0
 72
   100
 73
     1
 74
     0
 75
     0
 76
     0
 77
     0
 78
     0
  0
ENDTAB
  0
TABLE
  2
LTYPE
  5
5
330
0
100
AcDbSymbolTable
 70
     2
  0
LTYPE
  5
13
330
5
100
AcDbSymbolTableRecord
100
AcDbLinetypeTableRecord
  2
BYBLOCK
 70
     0
  3

 72
    65
 73
     0
 40
0.0
  0
LTYPE
  5
14
330
5
100
AcDbSymbolTableRecord
100
AcDbLinetypeTableRecord
  2
BYLAYER
 70
     0
  3

 72
    65
 73
     0
 40
0.0
  0
LTYPE
  5
15
330
5
100
AcDbSymbolTableRecord
100
AcDbLinetypeTableRecord
  2
CONTINUOUS
 70
     0
  3
Solid line
 72
    65
 73
     0
 40
0.0
  0
LTYPE
  5
11C
330
5
100
AcDbSymbolTableRecord
100
AcDbLinetypeTableRecord
  2
CENTER
 70
     0
  3
____ _ ____ _ ____ _ ____ _ ____ _ ____ _ ____ 
 72
    65
 73
     4
 40
2.0
 49
1.25
 74
     0
 49
-0.25
 74
     0
 49
0.25
 74
     0
 49
-0.25
 74
     0
  0
ENDTAB
  0
TABLE
  2
LAYER
  5
2
330
0
100
AcDbSymbolTable
 70
     7
  0
LAYER
  5
F
330
2
100
AcDbSymbolTableRecord
100
AcDbLayerTableRecord
  2
0
 70
     0
 62
     7
  6
CONTINUOUS
  0
LAYER
  5
23
330
2
100
AcDbSymbolTableRecord
100
AcDbLayerTableRecord
  2
VIEWPORT
 70
     0
 62
     7
  6
CONTINUOUS
  0
LAYER
  5
2D
330
2
100
AcDbSymbolTableRecord
100
AcDbLayerTableRecord
  2
ZUWAKU
 70
     0
 62
     7
  6
CONTINUOUS
  0
LAYER
  5
A6
330
2
100
AcDbSymbolTableRecord
100
AcDbLayerTableRecord
  2
DEFPOINTS
 70
     0
 62
     7
  6
CONTINUOUS
  0
LAYER
  5
219
330
2
100
AcDbSymbolTableRecord
100
AcDbLayerTableRecord
  2
SEIHIN
 70
     0
 62
     3
  6
CONTINUOUS
  0
LAYER
  5
21A
330
2
100
AcDbSymbolTableRecord
100
AcDbLayerTableRecord
  2
SUNPOU
 70
     0
 62
     4
  6
CONTINUOUS
  0
LAYER
  5
21B
330
2
100
AcDbSymbolTableRecord
100
AcDbLayerTableRecord
  2
CENTER_L
 70
     0
 62
     1
  6
CENTER
  0
ENDTAB
  0
TABLE
  2
STYLE
  5
3
330
0
100
AcDbSymbolTable
 70
     1
  0
STYLE
  5
10
330
3
100
AcDbSymbolTableRecord
100
AcDbTextStyleTableRecord
  2
STANDARD
 70
     0
 40
0.0
 41
1.0
 50
0.0
 71
     0
 42
19.8
  3
txt
  4
bigfont.shx
  0
ENDTAB
  0
TABLE
  2
VIEW
  5
6
330
0
100
AcDbSymbolTable
 70
     0
  0
ENDTAB
  0
TABLE
  2
UCS
  5
7
330
0
100
AcDbSymbolTable
 70
     0
  0
ENDTAB
  0
TABLE
  2
APPID
  5
9
330
0
100
AcDbSymbolTable
 70
     1
  0
APPID
  5
11
330
9
100
AcDbSymbolTableRecord
100
AcDbRegAppTableRecord
  2
ACAD
 70
     0
  0
ENDTAB
  0
TABLE
  2
DIMSTYLE
  5
A
330
0
100
AcDbSymbolTable
 70
     1
  0
DIMSTYLE
105
1D
102
{ACAD_REACTORS
330
328
330
350
330
3EB
330
404
330
733
330
7B9
330
880
330
90F
330
94D
330
967
330
981
330
9A6
330
9B3
330
9C2
330
9D1
102
}
330
A
100
AcDbSymbolTableRecord
100
AcDbDimStyleTableRecord
  2
STANDARD
 70
     0
  3

  4

  5

  6

  7

 40
1.0
 41
0.18
 42
0.0625
 43
0.38
 44
0.18
 45
0.0
 46
0.0
 47
0.0
 48
0.0
140
0.18
141
0.09
142
0.0
143
25.4
144
1.0
145
0.0
146
1.0
147
0.09
 71
     0
 72
     0
 73
     1
 74
     1
 75
     0
 76
     0
 77
     0
 78
     0
170
     0
171
     2
172
     0
173
     0
174
     0
175
     0
176
     0
177
     0
178
     0
270
     2
271
     4
272
     4
273
     2
274
     2
340
10
275
     0
280
     0
281
     0
282
     0
283
     1
284
     0
285
     0
286
     0
287
     3
288
     0
  0
ENDTAB
  0
TABLE
  2
BLOCK_RECORD
  5
1
330
0
100
AcDbSymbolTable
 70
    16
  0
BLOCK_RECORD
  5
19
102
{ACAD_XDICTIONARY
360
A27
102
}
330
1
100
AcDbSymbolTableRecord
100
AcDbBlockTableRecord
  2
*MODEL_SPACE
  0
BLOCK_RECORD
  5
16
102
{ACAD_XDICTIONARY
360
A25
102
}
330
1
100
AcDbSymbolTableRecord
100
AcDbBlockTableRecord
  2
*PAPER_SPACE
  0
BLOCK_RECORD
  5
27
330
1
100
AcDbSymbolTableRecord
100
AcDbBlockTableRecord
  2
_OPEN
  0
BLOCK_RECORD
  5
439
330
1
100
AcDbSymbolTableRecord
100
AcDbBlockTableRecord
  2
*D1
  0
BLOCK_RECORD
  5
476
330
1
100
AcDbSymbolTableRecord
100
AcDbBlockTableRecord
  2
*D2
  0
BLOCK_RECORD
  5
4B3
330
1
100
AcDbSymbolTableRecord
100
AcDbBlockTableRecord
  2
*D3
  0
BLOCK_RECORD
  5
4BF
330
1
100
AcDbSymbolTableRecord
100
AcDbBlockTableRecord
  2
*D4
  0
BLOCK_RECORD
  5
725
330
1
100
AcDbSymbolTableRecord
100
AcDbBlockTableRecord
  2
*D5
  0
BLOCK_RECORD
  5
7AD
330
1
100
AcDbSymbolTableRecord
100
AcDbBlockTableRecord
  2
*D6
  0
BLOCK_RECORD
  5
874
330
1
100
AcDbSymbolTableRecord
100
AcDbBlockTableRecord
  2
*D7
  0
BLOCK_RECORD
  5
902
330
1
100
AcDbSymbolTableRecord
100
AcDbBlockTableRecord
  2
*D8
  0
BLOCK_RECORD
  5
941
330
1
100
AcDbSymbolTableRecord
100
AcDbBlockTableRecord
  2
*D9
  0
BLOCK_RECORD
  5
95A
330
1
100
AcDbSymbolTableRecord
100
AcDbBlockTableRecord
  2
*D10
  0
BLOCK_RECORD
  5
975
330
1
100
AcDbSymbolTableRecord
100
AcDbBlockTableRecord
  2
*D11
  0
BLOCK_RECORD
  5
99A
330
1
100
AcDbSymbolTableRecord
100
AcDbBlockTableRecord
  2
*D12
  0
BLOCK_RECORD
  5
9A7
330
1
100
AcDbSymbolTableRecord
100
AcDbBlockTableRecord
  2
*D13
  0
BLOCK_RECORD
  5
9B4
330
1
100
AcDbSymbolTableRecord
100
AcDbBlockTableRecord
  2
*D14
  0
BLOCK_RECORD
  5
9C3
330
1
100
AcDbSymbolTableRecord
100
AcDbBlockTableRecord
  2
*D15
  0
ENDTAB
  0
ENDSEC
  0
SECTION
  2
BLOCKS
  0
BLOCK
  5
1A
330
19
100
AcDbEntity
  8
0
100
AcDbBlockBegin
  2
*MODEL_SPACE
 70
     0
 10
0.0
 20
0.0
 30
0.0
  3
*MODEL_SPACE
  1

  0
ENDBLK
  5
1B
330
19
100
AcDbEntity
  8
0
100
AcDbBlockEnd
  0
BLOCK
  5
17
330
16
100
AcDbEntity
 67
     1
  8
0
100
AcDbBlockBegin
  2
*PAPER_SPACE
 70
     0
 10
0.0
 20
0.0
 30
0.0
  3
*PAPER_SPACE
  1

  0
ENDBLK
  5
18
330
16
100
AcDbEntity
 67
     1
  8
0
100
AcDbBlockEnd
  0
BLOCK
  5
28
330
27
100
AcDbEntity
  8
0
100
AcDbBlockBegin
  2
_OPEN
 70
     0
 10
0.0
 20
0.0
 30
0.0
  3
_OPEN
  1

  0
LINE
  5
29
330
27
100
AcDbEntity
  8
0
  6
BYBLOCK
 62
     0
100
AcDbLine
 10
-1.0
 20
0.1666666666666666
 30
0.0
 11
0.0
 21
0.0
 31
0.0
  0
LINE
  5
2A
330
27
100
AcDbEntity
  8
0
  6
BYBLOCK
 62
     0
100
AcDbLine
 10
0.0
 20
0.0
 30
0.0
 11
-1.0
 21
-0.1666666666666666
 31
0.0
  0
LINE
  5
2B
330
27
100
AcDbEntity
  8
0
  6
BYBLOCK
 62
     0
100
AcDbLine
 10
0.0
 20
0.0
 30
0.0
 11
-1.0
 21
0.0
 31
0.0
  0
ENDBLK
  5
2C
330
27
100
AcDbEntity
  8
0
100
AcDbBlockEnd
  0
BLOCK
  5
934
330
439
100
AcDbEntity
  8
0
100
AcDbBlockBegin
  2
*D1
 70
     1
 10
0.0
 20
0.0
 30
0.0
  3
*D1
  1

  0
LINE
  5
935
330
439
100
AcDbEntity
  8
0
  6
BYBLOCK
 62
     4
100
AcDbLine
 10
564.2643943305698
 20
304.3764671441085
 30
0.0
 11
564.2643943305698
 21
186.2728671406575
 31
0.0
  0
LINE
  5
936
330
439
100
AcDbEntity
  8
0
  6
BYBLOCK
 62
     4
100
AcDbLine
 10
343.3976099330009
 20
304.3764671441085
 30
0.0
 11
343.3976099330009
 21
186.2728671406575
 31
0.0
  0
LINE
  5
937
330
439
100
AcDbEntity
  8
0
  6
BYBLOCK
 62
     4
100
AcDbLine
 10
552.2643943305697
 20
194.2728671406575
 30
0.0
 11
355.3976099330009
 21
194.2728671406575
 31
0.0
  0
INSERT
  5
938
330
439
100
AcDbEntity
  8
0
  6
BYBLOCK
 62
     4
100
AcDbBlockReference
  2
_OPEN
 10
564.2643943305698
 20
194.2728671406575
 30
0.0
 41
12.0
 42
12.0
 43
12.0
  0
INSERT
  5
939
330
439
100
AcDbEntity
  8
0
  6
BYBLOCK
 62
     4
100
AcDbBlockReference
  2
_OPEN
 10
343.3976099330009
 20
194.2728671406575
 30
0.0
 41
12.0
 42
12.0
 43
12.0
 50
180.0
  0
MTEXT
  5
93A
330
439
100
AcDbEntity
  8
0
  6
BYBLOCK
 62
     4
100
AcDbMText
 10
453.8310021317853
 20
204.2728671406575
 30
0.0
 40
12.0
 41
0.0
 71
     5
 72
     1
  1
\A1;221
1001
ACAD
1000
MTEXTBEGIN
1070
    73
1070
     1
1070
    44
1040
1.0
1070
    74
1070
     0
1000
MTEXTEND
1000
MTEXTBEGIN
1070
    73
1070
     1
1070
    44
1040
1.0
1070
    74
1070
     0
1000
MTEXTEND
1000
MTEXTBEGIN
1070
    73
1070
     1
1070
    44
1040
1.0
1070
    74
1070
     0
1000
MTEXTEND
  0
POINT
  5
93B
330
439
100
AcDbEntity
  8
DEFPOINTS
  6
BYBLOCK
 62
     0
100
AcDbPoint
 10
564.2643943305698
 20
324.3764671441085
 30
0.0
  0
POINT
  5
93C
330
439
100
AcDbEntity
  8
DEFPOINTS
  6
BYBLOCK
 62
     0
100
AcDbPoint
 10
343.3976099330009
 20
324.3764671441085
 30
0.0
  0
POINT
  5
93D
330
439
100
AcDbEntity
  8
DEFPOINTS
  6
BYBLOCK
 62
     0
100
AcDbPoint
 10
343.3976099330009
 20
194.2728671406575
 30
0.0
  0
ENDBLK
  5
93E
330
439
100
AcDbEntity
  8
0
100
AcDbBlockEnd
  0
BLOCK
  5
7E7
330
476
100
AcDbEntity
  8
0
100
AcDbBlockBegin
  2
*D2
 70
     1
 10
0.0
 20
0.0
 30
0.0
  3
*D2
  1

  0
LINE
  5
7E8
330
476
100
AcDbEntity
  8
0
  6
BYBLOCK
 62
     4
100
AcDbLine
 10
598.9019663469216
 20
643.4404710652714
 30
0.0
 11
598.9019663469216
 21
684.7896838654815
 31
0.0
  0
LINE
  5
7E9
330
476
100
AcDbEntity
  8
0
  6
BYBLOCK
 62
     4
100
AcDbLine
 10
326.9027663469216
 20
643.4404710652714
 30
0.0
 11
326.9027663469216
 21
684.7896838654815
 31
0.0
  0
LINE
  5
7EA
330
476
100
AcDbEntity
  8
0
  6
BYBLOCK
 62
     4
100
AcDbLine
 10
586.9019663469216
 20
676.7896838654815
 30
0.0
 11
338.9027663469216
 21
676.7896838654815
 31
0.0
  0
INSERT
  5
7EB
330
476
100
AcDbEntity
  8
0
  6
BYBLOCK
 62
     4
100
AcDbBlockReference
  2
_OPEN
 10
598.9019663469216
 20
676.7896838654815
 30
0.0
 41
12.0
 42
12.0
 43
12.0
  0
INSERT
  5
7EC
330
476
100
AcDbEntity
  8
0
  6
BYBLOCK
 62
     4
100
AcDbBlockReference
  2
_OPEN
 10
326.9027663469216
 20
676.7896838654815
 30
0.0
 41
12.0
 42
12.0
 43
12.0
 50
180.0
  0
MTEXT
  5
7ED
330
476
100
AcDbEntity
  8
0
  6
BYBLOCK
 62
     4
100
AcDbMText
 10
462.9023663469216
 20
686.7896838654814
 30
0.0
 40
12.0
 41
0.0
 71
     5
 72
     1
  1
\A1;272
1001
ACAD
1000
MTEXTBEGIN
1070
    73
1070
     1
1070
    44
1040
1.0
1070
    74
1070
     0
1000
MTEXTEND
1000
MTEXTBEGIN
1070
    73
1070
     1
1070
    44
1040
1.0
1070
    74
1070
     0
1000
MTEXTEND
1000
MTEXTBEGIN
1070
    73
1070
     1
1070
    44
1040
1.0
1070
    74
1070
     0
1000
MTEXTEND
  0
POINT
  5
7EE
330
476
100
AcDbEntity
  8
DEFPOINTS
  6
BYBLOCK
 62
     0
100
AcDbPoint
 10
598.9019663469216
 20
623.4404710652714
 30
0.0
  0
POINT
  5
7EF
330
476
100
AcDbEntity
  8
DEFPOINTS
  6
BYBLOCK
 62
     0
100
AcDbPoint
 10
326.9027663469216
 20
623.4404710652714
 30
0.0
  0
POINT
  5
7F0
330
476
100
AcDbEntity
  8
DEFPOINTS
  6
BYBLOCK
 62
     0
100
AcDbPoint
 10
326.9027663469216
 20
676.7896838654815
 30
0.0
  0
ENDBLK
  5
7F1
330
476
100
AcDbEntity
  8
0
100
AcDbBlockEnd
  0
BLOCK
  5
881
330
4B3
100
AcDbEntity
  8
0
100
AcDbBlockBegin
  2
*D3
 70
     1
 10
0.0
 20
0.0
 30
0.0
  3
*D3
  1

  0
LINE
  5
882
330
4B3
100
AcDbEntity
  8
0
  6
BYBLOCK
 62
     4
100
AcDbLine
 10
778.0494750497064
 20
304.3764671441085
 30
0.0
 11
778.0494750497064
 21
104.5283274290091
 31
0.0
  0
LINE
  5
883
330
4B3
100
AcDbEntity
  8
0
  6
BYBLOCK
 62
     4
100
AcDbLine
 10
1020.049215736196
 20
304.3764671441085
 30
0.0
 11
1020.049215736196
 21
104.5283274290091
 31
0.0
  0
LINE
  5
884
330
4B3
100
AcDbEntity
  8
0
  6
BYBLOCK
 62
     4
100
AcDbLine
 10
790.0494750497064
 20
112.528327429009
 30
0.0
 11
1008.049215736195
 21
112.528327429009
 31
0.0
  0
INSERT
  5
885
330
4B3
100
AcDbEntity
  8
0
  6
BYBLOCK
 62
     4
100
AcDbBlockReference
  2
_OPEN
 10
778.0494750497064
 20
112.528327429009
 30
0.0
 41
12.0
 42
12.0
 43
12.0
 50
180.0
  0
INSERT
  5
886
330
4B3
100
AcDbEntity
  8
0
  6
BYBLOCK
 62
     4
100
AcDbBlockReference
  2
_OPEN
 10
1020.049215736196
 20
112.528327429009
 30
0.0
 41
12.0
 42
12.0
 43
12.0
  0
MTEXT
  5
887
330
4B3
100
AcDbEntity
  8
0
  6
BYBLOCK
 62
     4
100
AcDbMText
 10
899.0493453929511
 20
122.528327429009
 30
0.0
 40
12.0
 41
0.0
 71
     5
 72
     1
  1
\A1;242
1001
ACAD
1000
MTEXTBEGIN
1070
    73
1070
     1
1070
    44
1040
1.0
1070
    74
1070
     0
1000
MTEXTEND
1000
MTEXTBEGIN
1070
    73
1070
     1
1070
    44
1040
1.0
1070
    74
1070
     0
1000
MTEXTEND
1000
MTEXTBEGIN
1070
    73
1070
     1
1070
    44
1040
1.0
1070
    74
1070
     0
1000
MTEXTEND
  0
POINT
  5
888
330
4B3
100
AcDbEntity
  8
DEFPOINTS
  6
BYBLOCK
 62
     0
100
AcDbPoint
 10
778.0494750497064
 20
324.3764671441085
 30
0.0
  0
POINT
  5
889
330
4B3
100
AcDbEntity
  8
DEFPOINTS
  6
BYBLOCK
 62
     0
100
AcDbPoint
 10
1020.049215736196
 20
324.3764671441085
 30
0.0
  0
POINT
  5
88A
330
4B3
100
AcDbEntity
  8
DEFPOINTS
  6
BYBLOCK
 62
     0
100
AcDbPoint
 10
1020.049215736196
 20
112.528327429009
 30
0.0
  0
ENDBLK
  5
88B
330
4B3
100
AcDbEntity
  8
0
100
AcDbBlockEnd
  0
BLOCK
  5
7DC
330
4BF
100
AcDbEntity
  8
0
100
AcDbBlockBegin
  2
*D4
 70
     1
 10
0.0
 20
0.0
 30
0.0
  3
*D4
  1

  0
LINE
  5
7DD
330
4BF
100
AcDbEntity
  8
0
  6
BYBLOCK
 62
     4
100
AcDbLine
 10
982.1210663469216
 20
643.4404710652714
 30
0.0
 11
982.1210663469216
 21
684.8835812759812
 31
0.0
  0
LINE
  5
7DE
330
4BF
100
AcDbEntity
  8
0
  6
BYBLOCK
 62
     4
100
AcDbLine
 10
711.1208663469217
 20
643.4404710652714
 30
0.0
 11
711.1208663469217
 21
684.8835812759812
 31
0.0
  0
LINE
  5
7DF
330
4BF
100
AcDbEntity
  8
0
  6
BYBLOCK
 62
     4
100
AcDbLine
 10
970.1210663469217
 20
676.8835812759812
 30
0.0
 11
723.1208663469217
 21
676.8835812759812
 31
0.0
  0
INSERT
  5
7E0
330
4BF
100
AcDbEntity
  8
0
  6
BYBLOCK
 62
     4
100
AcDbBlockReference
  2
_OPEN
 10
982.1210663469216
 20
676.8835812759812
 30
0.0
 41
12.0
 42
12.0
 43
12.0
  0
INSERT
  5
7E1
330
4BF
100
AcDbEntity
  8
0
  6
BYBLOCK
 62
     4
100
AcDbBlockReference
  2
_OPEN
 10
711.1208663469217
 20
676.8835812759812
 30
0.0
 41
12.0
 42
12.0
 43
12.0
 50
180.0
  0
MTEXT
  5
7E2
330
4BF
100
AcDbEntity
  8
0
  6
BYBLOCK
 62
     4
100
AcDbMText
 10
846.6209663469216
 20
686.8835812759812
 30
0.0
 40
12.0
 41
0.0
 71
     5
 72
     1
  1
\A1;271
1001
ACAD
1000
MTEXTBEGIN
1070
    73
1070
     1
1070
    44
1040
1.0
1070
    74
1070
     0
1000
MTEXTEND
1000
MTEXTBEGIN
1070
    73
1070
     1
1070
    44
1040
1.0
1070
    74
1070
     0
1000
MTEXTEND
1000
MTEXTBEGIN
1070
    73
1070
     1
1070
    44
1040
1.0
1070
    74
1070
     0
1000
MTEXTEND
  0
POINT
  5
7E3
330
4BF
100
AcDbEntity
  8
DEFPOINTS
  6
BYBLOCK
 62
     0
100
AcDbPoint
 10
982.1210663469216
 20
623.4404710652714
 30
0.0
  0
POINT
  5
7E4
330
4BF
100
AcDbEntity
  8
DEFPOINTS
  6
BYBLOCK
 62
     0
100
AcDbPoint
 10
711.1208663469217
 20
623.4404710652714
 30
0.0
  0
POINT
  5
7E5
330
4BF
100
AcDbEntity
  8
DEFPOINTS
  6
BYBLOCK
 62
     0
100
AcDbPoint
 10
711.1208663469217
 20
676.8835812759812
 30
0.0
  0
ENDBLK
  5
7E6
330
4BF
100
AcDbEntity
  8
0
100
AcDbBlockEnd
  0
BLOCK
  5
75D
330
725
100
AcDbEntity
  8
0
100
AcDbBlockBegin
  2
*D5
 70
     1
 10
0.0
 20
0.0
 30
0.0
  3
*D5
  1

  0
LINE
  5
75E
330
725
100
AcDbEntity
  8
0
  6
BYBLOCK
 62
     4
100
AcDbLine
 10
1266.402366346921
 20
614.9404710652714
 30
0.0
 11
1266.402366346921
 21
654.7076689363629
 31
0.0
  0
LINE
  5
75F
330
725
100
AcDbEntity
  8
0
  6
BYBLOCK
 62
     4
100
AcDbLine
 10
1259.402366346921
 20
614.9404710652714
 30
0.0
 11
1259.402366346921
 21
654.7076689363629
 31
0.0
  0
LINE
  5
760
330
725
100
AcDbEntity
  8
0
  6
BYBLOCK
 62
     4
100
AcDbLine
 10
1245.402366346921
 20
648.707668936363
 30
0.0
 11
1231.402366346921
 21
648.707668936363
 31
0.0
  0
LINE
  5
761
330
725
100
AcDbEntity
  8
0
  6
BYBLOCK
 62
     4
100
AcDbLine
 10
1280.402366346921
 20
648.707668936363
 30
0.0
 11
1310.402366346921
 21
648.707668936363
 31
0.0
  0
LINE
  5
762
330
725
100
AcDbEntity
  8
0
  6
BYBLOCK
 62
     4
100
AcDbLine
 10
1259.402366346921
 20
648.707668936363
 30
0.0
 11
1266.402366346921
 21
648.707668936363
 31
0.0
  0
INSERT
  5
763
330
725
100
AcDbEntity
  8
0
  6
BYBLOCK
 62
     4
100
AcDbBlockReference
  2
_OPEN
 10
1259.402366346921
 20
648.707668936363
 30
0.0
 41
14.0
 42
14.0
 43
14.0
  0
INSERT
  5
764
330
725
100
AcDbEntity
  8
0
  6
BYBLOCK
 62
     4
100
AcDbBlockReference
  2
_OPEN
 10
1266.402366346921
 20
648.707668936363
 30
0.0
 41
14.0
 42
14.0
 43
14.0
 50
180.0
  0
MTEXT
  5
765
330
725
100
AcDbEntity
  8
0
  6
BYBLOCK
 62
     4
100
AcDbMText
 10
1302.402366346921
 20
658.7076689363629
 30
0.0
 40
12.0
 41
0.0
 71
     5
 72
     1
  1
\A1;7
1001
ACAD
1000
MTEXTBEGIN
1070
    73
1070
     1
1070
    44
1040
1.0
1070
    74
1070
     0
1000
MTEXTEND
1000
MTEXTBEGIN
1070
    73
1070
     1
1070
    44
1040
1.0
1070
    74
1070
     0
1000
MTEXTEND
1000
MTEXTBEGIN
1070
    73
1070
     1
1070
    44
1040
1.0
1070
    74
1070
     0
1000
MTEXTEND
  0
POINT
  5
766
330
725
100
AcDbEntity
  8
DEFPOINTS
  6
BYBLOCK
 62
     0
100
AcDbPoint
 10
1266.402366346921
 20
602.9404710652713
 30
0.0
  0
POINT
  5
767
330
725
100
AcDbEntity
  8
DEFPOINTS
  6
BYBLOCK
 62
     0
100
AcDbPoint
 10
1259.402366346921
 20
602.9404710652713
 30
0.0
  0
POINT
  5
768
330
725
100
AcDbEntity
  8
DEFPOINTS
  6
BYBLOCK
 62
     0
100
AcDbPoint
 10
1259.402366346921
 20
648.707668936363
 30
0.0
  0
ENDBLK
  5
769
330
725
100
AcDbEntity
  8
0
100
AcDbBlockEnd
  0
BLOCK
  5
88C
330
7AD
100
AcDbEntity
  8
0
100
AcDbBlockBegin
  2
*D6
 70
     1
 10
0.0
 20
0.0
 30
0.0
  3
*D6
  1

  0
LINE
  5
88D
330
7AD
100
AcDbEntity
  8
0
  6
BYBLOCK
 62
     4
100
AcDbLine
 10
1020.049215736196
 20
312.3764671441085
 30
0.0
 11
1020.049215736196
 21
147.3757458768714
 31
0.0
  0
LINE
  5
88E
330
7AD
100
AcDbEntity
  8
0
  6
BYBLOCK
 62
     4
100
AcDbLine
 10
896.0493511827282
 20
222.6243671441085
 30
0.0
 11
896.0493511827282
 21
147.3757458768714
 31
0.0
  0
LINE
  5
88F
330
7AD
100
AcDbEntity
  8
0
  6
BYBLOCK
 62
     4
100
AcDbLine
 10
1006.049215736195
 20
153.3757458768714
 30
0.0
 11
910.0493511827282
 21
153.3757458768714
 31
0.0
  0
INSERT
  5
890
330
7AD
100
AcDbEntity
  8
0
  6
BYBLOCK
 62
     4
100
AcDbBlockReference
  2
_OPEN
 10
1020.049215736196
 20
153.3757458768714
 30
0.0
 41
14.0
 42
14.0
 43
14.0
  0
INSERT
  5
891
330
7AD
100
AcDbEntity
  8
0
  6
BYBLOCK
 62
     4
100
AcDbBlockReference
  2
_OPEN
 10
896.0493511827282
 20
153.3757458768714
 30
0.0
 41
14.0
 42
14.0
 43
14.0
 50
180.0
  0
MTEXT
  5
892
330
7AD
100
AcDbEntity
  8
0
  6
BYBLOCK
 62
     4
100
AcDbMText
 10
958.049283459462
 20
163.3757458768713
 30
0.0
 40
12.0
 41
0.0
 71
     5
 72
     1
  1
\A1;124
1001
ACAD
1000
MTEXTBEGIN
1070
    73
1070
     1
1070
    44
1040
1.0
1070
    74
1070
     0
1000
MTEXTEND
1000
MTEXTBEGIN
1070
    73
1070
     1
1070
    44
1040
1.0
1070
    74
1070
     0
1000
MTEXTEND
1000
MTEXTBEGIN
1070
    73
1070
     1
1070
    44
1040
1.0
1070
    74
1070
     0
1000
MTEXTEND
  0
POINT
  5
893
330
7AD
100
AcDbEntity
  8
DEFPOINTS
  6
BYBLOCK
 62
     0
100
AcDbPoint
 10
1020.049215736196
 20
324.3764671441085
 30
0.0
  0
POINT
  5
894
330
7AD
100
AcDbEntity
  8
DEFPOINTS
  6
BYBLOCK
 62
     0
100
AcDbPoint
 10
896.0493511827282
 20
234.6243671441085
 30
0.0
  0
POINT
  5
895
330
7AD
100
AcDbEntity
  8
DEFPOINTS
  6
BYBLOCK
 62
     0
100
AcDbPoint
 10
896.0493511827282
 20
153.3757458768714
 30
0.0
  0
ENDBLK
  5
896
330
7AD
100
AcDbEntity
  8
0
100
AcDbBlockEnd
  0
BLOCK
  5
875
330
874
100
AcDbEntity
  8
0
100
AcDbBlockBegin
  2
*D7
 70
     1
 10
0.0
 20
0.0
 30
0.0
  3
*D7
  1

  0
LINE
  5
876
330
874
100
AcDbEntity
  8
0
  6
BYBLOCK
 62
     4
100
AcDbLine
 10
1029.049851610772
 20
1029.069964430355
 30
0.0
 11
1082.013261273058
 21
1029.069964430355
 31
0.0
  0
LINE
  5
877
330
874
100
AcDbEntity
  8
0
  6
BYBLOCK
 62
     4
100
AcDbLine
 10
1029.048851610772
 20
757.070564430355
 30
0.0
 11
1082.013261273058
 21
757.070564430355
 31
0.0
  0
LINE
  5
878
330
874
100
AcDbEntity
  8
0
  6
BYBLOCK
 62
     4
100
AcDbLine
 10
1076.013261273058
 20
1015.069964430355
 30
0.0
 11
1076.013261273058
 21
771.070564430355
 31
0.0
  0
INSERT
  5
879
330
874
100
AcDbEntity
  8
0
  6
BYBLOCK
 62
     4
100
AcDbBlockReference
  2
_OPEN
 10
1076.013261273058
 20
1029.069964430355
 30
0.0
 41
14.0
 42
14.0
 43
14.0
 50
90.0
  0
INSERT
  5
87A
330
874
100
AcDbEntity
  8
0
  6
BYBLOCK
 62
     4
100
AcDbBlockReference
  2
_OPEN
 10
1076.013261273058
 20
757.070564430355
 30
0.0
 41
14.0
 42
14.0
 43
14.0
 50
270.0
  0
MTEXT
  5
87B
330
874
100
AcDbEntity
  8
0
  6
BYBLOCK
 62
     4
100
AcDbMText
 10
1066.013261273058
 20
893.0702644303551
 30
0.0
 40
12.0
 41
0.0
 71
     5
 72
     1
  1
\A1;272
 11
0.0
 21
1.0
 31
0.0
1001
ACAD
1000
MTEXTBEGIN
1070
    73
1070
     1
1070
    44
1040
1.0
1070
    74
1070
     0
1000
MTEXTEND
1000
MTEXTBEGIN
1070
    73
1070
     1
1070
    44
1040
1.0
1070
    74
1070
     0
1000
MTEXTEND
1000
MTEXTBEGIN
1070
    73
1070
     1
1070
    44
1040
1.0
1070
    74
1070
     0
1000
MTEXTEND
  0
POINT
  5
87C
330
874
100
AcDbEntity
  8
DEFPOINTS
  6
BYBLOCK
 62
     0
100
AcDbPoint
 10
1017.049851610771
 20
1029.069964430355
 30
0.0
  0
POINT
  5
87D
330
874
100
AcDbEntity
  8
DEFPOINTS
  6
BYBLOCK
 62
     0
100
AcDbPoint
 10
1017.048851610772
 20
757.070564430355
 30
0.0
  0
POINT
  5
87E
330
874
100
AcDbEntity
  8
DEFPOINTS
  6
BYBLOCK
 62
     0
100
AcDbPoint
 10
1076.013261273058
 20
757.070564430355
 30
0.0
  0
ENDBLK
  5
87F
330
874
100
AcDbEntity
  8
0
100
AcDbBlockEnd
  0
BLOCK
  5
928
330
902
100
AcDbEntity
  8
0
100
AcDbBlockBegin
  2
*D8
 70
     1
 10
0.0
 20
0.0
 30
0.0
  3
*D8
  1

  0
LINE
  5
929
330
902
100
AcDbEntity
  8
0
  6
BYBLOCK
 62
     4
100
AcDbLine
 10
835.0495511827285
 20
266.3764671441085
 30
0.0
 11
835.0495511827285
 21
188.1841870788994
 31
0.0
  0
LINE
  5
92A
330
902
100
AcDbEntity
  8
0
  6
BYBLOCK
 62
     4
100
AcDbLine
 10
957.0492511827286
 20
266.3764671441085
 30
0.0
 11
957.0492511827286
 21
188.1841870788994
 31
0.0
  0
LINE
  5
92B
330
902
100
AcDbEntity
  8
0
  6
BYBLOCK
 62
     4
100
AcDbLine
 10
849.0495511827285
 20
194.1841870788994
 30
0.0
 11
943.0492511827285
 21
194.1841870788994
 31
0.0
  0
LINE
  5
92C
330
902
100
AcDbEntity
  8
0
  6
BYBLOCK
 62
     4
100
AcDbLine
 10
957.0492511827286
 20
194.1841870788994
 30
0.0
 11
1011.449251182728
 21
194.1841870788994
 31
0.0
  0
INSERT
  5
92D
330
902
100
AcDbEntity
  8
0
  6
BYBLOCK
 62
     4
100
AcDbBlockReference
  2
_OPEN
 10
835.0495511827285
 20
194.1841870788994
 30
0.0
 41
14.0
 42
14.0
 43
14.0
 50
180.0
  0
INSERT
  5
92E
330
902
100
AcDbEntity
  8
0
  6
BYBLOCK
 62
     4
100
AcDbBlockReference
  2
_OPEN
 10
957.0492511827286
 20
194.1841870788994
 30
0.0
 41
14.0
 42
14.0
 43
14.0
  0
MTEXT
  5
92F
330
902
100
AcDbEntity
  8
0
  6
BYBLOCK
 62
     4
100
AcDbMText
 10
986.2492511827285
 20
204.1841870788994
 30
0.0
 40
12.0
 41
0.0
 71
     5
 72
     1
  1
\A1;φ122
1001
ACAD
1000
MTEXTBEGIN
1070
    73
1070
     1
1070
    44
1040
1.0
1070
    74
1070
     0
1000
MTEXTEND
1000
MTEXTBEGIN
1070
    73
1070
     1
1070
    44
1040
1.0
1070
    74
1070
     0
1000
MTEXTEND
1000
MTEXTBEGIN
1070
    73
1070
     1
1070
    44
1040
1.0
1070
    74
1070
     0
1000
MTEXTEND
  0
POINT
  5
930
330
902
100
AcDbEntity
  8
DEFPOINTS
  6
BYBLOCK
 62
     0
100
AcDbPoint
 10
835.0495511827285
 20
278.3764671441085
 30
0.0
  0
POINT
  5
931
330
902
100
AcDbEntity
  8
DEFPOINTS
  6
BYBLOCK
 62
     0
100
AcDbPoint
 10
957.0492511827286
 20
278.3764671441085
 30
0.0
  0
POINT
  5
932
330
902
100
AcDbEntity
  8
DEFPOINTS
  6
BYBLOCK
 62
     0
100
AcDbPoint
 10
957.0492511827286
 20
194.1841870788994
 30
0.0
  0
ENDBLK
  5
933
330
902
100
AcDbEntity
  8
0
100
AcDbBlockEnd
  0
BLOCK
  5
942
330
941
100
AcDbEntity
  8
0
100
AcDbBlockBegin
  2
*D9
 70
     1
 10
0.0
 20
0.0
 30
0.0
  3
*D9
  1

  0
LINE
  5
943
330
941
100
AcDbEntity
  8
0
  6
BYBLOCK
 62
     4
100
AcDbLine
 10
740.0494511827284
 20
614.3765671441085
 30
0.0
 11
705.6014328788242
 21
614.3765671441085
 31
0.0
  0
LINE
  5
944
330
941
100
AcDbEntity
  8
0
  6
BYBLOCK
 62
     4
100
AcDbLine
 10
771.6244511827285
 20
324.3764671441085
 30
0.0
 11
705.6014328788242
 21
324.3764671441085
 31
0.0
  0
LINE
  5
945
330
941
100
AcDbEntity
  8
0
  6
BYBLOCK
 62
     4
100
AcDbLine
 10
711.6014328788241
 20
600.3765671441085
 30
0.0
 11
711.6014328788241
 21
338.3764671441085
 31
0.0
  0
INSERT
  5
946
330
941
100
AcDbEntity
  8
0
  6
BYBLOCK
 62
     4
100
AcDbBlockReference
  2
_OPEN
 10
711.6014328788241
 20
614.3765671441085
 30
0.0
 41
14.0
 42
14.0
 43
14.0
 50
90.0
  0
INSERT
  5
947
330
941
100
AcDbEntity
  8
0
  6
BYBLOCK
 62
     4
100
AcDbBlockReference
  2
_OPEN
 10
711.6014328788241
 20
324.3764671441085
 30
0.0
 41
14.0
 42
14.0
 43
14.0
 50
270.0
  0
MTEXT
  5
948
330
941
100
AcDbEntity
  8
0
  6
BYBLOCK
 62
     4
100
AcDbMText
 10
701.6014328788242
 20
463.4615121623191
 30
0.0
 40
12.0
 41
0.0
 71
     5
 72
     1
  1
\A1;290
 11
0.0
 21
1.0
 31
0.0
1001
ACAD
1000
MTEXTBEGIN
1070
    73
1070
     1
1070
    44
1040
1.0
1070
    74
1070
     0
1000
MTEXTEND
1000
MTEXTBEGIN
1070
    73
1070
     1
1070
    44
1040
1.0
1070
    74
1070
     0
1000
MTEXTEND
1000
MTEXTBEGIN
1070
    73
1070
     1
1070
    44
1040
1.0
1070
    74
1070
     0
1000
MTEXTEND
  0
POINT
  5
949
330
941
100
AcDbEntity
  8
DEFPOINTS
  6
BYBLOCK
 62
     0
100
AcDbPoint
 10
752.0494511827284
 20
614.3765671441085
 30
0.0
  0
POINT
  5
94A
330
941
100
AcDbEntity
  8
DEFPOINTS
  6
BYBLOCK
 62
     0
100
AcDbPoint
 10
783.6244511827285
 20
324.3764671441085
 30
0.0
  0
POINT
  5
94B
330
941
100
AcDbEntity
  8
DEFPOINTS
  6
BYBLOCK
 62
     0
100
AcDbPoint
 10
711.6014328788241
 20
324.3764671441085
 30
0.0
  0
ENDBLK
  5
94C
330
941
100
AcDbEntity
  8
0
100
AcDbBlockEnd
  0
BLOCK
  5
98E
330
95A
100
AcDbEntity
  8
0
100
AcDbBlockBegin
  2
*D10
 70
     1
 10
0.0
 20
0.0
 30
0.0
  3
*D10
  1

  0
LINE
  5
98F
330
95A
100
AcDbEntity
  8
0
  6
BYBLOCK
 62
     4
100
AcDbLine
 10
825.6560511827283
 20
274.3764671441085
 30
0.0
 11
705.6014328788242
 21
274.3764671441085
 31
0.0
  0
LINE
  5
990
330
95A
100
AcDbEntity
  8
0
  6
BYBLOCK
 62
     4
100
AcDbLine
 10
711.6014328788241
 20
338.3764671441085
 30
0.0
 11
711.6014328788241
 21
352.3764671441085
 31
0.0
  0
LINE
  5
991
330
95A
100
AcDbEntity
  8
0
  6
BYBLOCK
 62
     4
100
AcDbLine
 10
711.6014328788241
 20
260.3764671441085
 30
0.0
 11
711.6014328788241
 21
246.3764671441085
 31
0.0
  0
LINE
  5
992
330
95A
100
AcDbEntity
  8
0
  6
BYBLOCK
 62
     4
100
AcDbLine
 10
711.6014328788241
 20
324.3764671441085
 30
0.0
 11
711.6014328788241
 21
274.3764671441085
 31
0.0
  0
INSERT
  5
993
330
95A
100
AcDbEntity
  8
0
  6
BYBLOCK
 62
     4
100
AcDbBlockReference
  2
_OPEN
 10
711.6014328788241
 20
324.3764671441085
 30
0.0
 41
14.0
 42
14.0
 43
14.0
 50
270.0
  0
INSERT
  5
994
330
95A
100
AcDbEntity
  8
0
  6
BYBLOCK
 62
     4
100
AcDbBlockReference
  2
_OPEN
 10
711.6014328788241
 20
274.3764671441085
 30
0.0
 41
14.0
 42
14.0
 43
14.0
 50
90.0
  0
MTEXT
  5
995
330
95A
100
AcDbEntity
  8
0
  6
BYBLOCK
 62
     4
100
AcDbMText
 10
701.6014328788242
 20
299.3764671441086
 30
0.0
 40
12.0
 41
0.0
 71
     5
 72
     1
  1
\A1;50
 11
0.0
 21
1.0
 31
0.0
1001
ACAD
1000
MTEXTBEGIN
1070
    73
1070
     1
1070
    44
1040
1.0
1070
    74
1070
     0
1000
MTEXTEND
1000
MTEXTBEGIN
1070
    73
1070
     1
1070
    44
1040
1.0
1070
    74
1070
     0
1000
MTEXTEND
1000
MTEXTBEGIN
1070
    73
1070
     1
1070
    44
1040
1.0
1070
    74
1070
     0
1000
MTEXTEND
  0
POINT
  5
996
330
95A
100
AcDbEntity
  8
DEFPOINTS
  6
BYBLOCK
 62
     0
100
AcDbPoint
 10
783.6244511827285
 20
324.3764671441085
 30
0.0
  0
POINT
  5
997
330
95A
100
AcDbEntity
  8
DEFPOINTS
  6
BYBLOCK
 62
     0
100
AcDbPoint
 10
837.6560511827284
 20
274.3764671441085
 30
0.0
  0
POINT
  5
998
330
95A
100
AcDbEntity
  8
DEFPOINTS
  6
BYBLOCK
 62
     0
100
AcDbPoint
 10
711.6014328788241
 20
274.3764671441085
 30
0.0
  0
ENDBLK
  5
999
330
95A
100
AcDbEntity
  8
0
100
AcDbBlockEnd
  0
BLOCK
  5
976
330
975
100
AcDbEntity
  8
0
100
AcDbBlockBegin
  2
*D11
 70
     1
 10
0.0
 20
0.0
 30
0.0
  3
*D11
  1

  0
LINE
  5
977
330
975
100
AcDbEntity
  8
0
  6
BYBLOCK
 62
     4
100
AcDbLine
 10
740.0494511827284
 20
614.3765671441085
 30
0.0
 11
668.3836444807075
 21
614.3765671441085
 31
0.0
  0
LINE
  5
978
330
975
100
AcDbEntity
  8
0
  6
BYBLOCK
 62
     4
100
AcDbLine
 10
835.0495511827285
 20
254.3764671441085
 30
0.0
 11
668.3836444807075
 21
254.3764671441085
 31
0.0
  0
LINE
  5
979
330
975
100
AcDbEntity
  8
0
  6
BYBLOCK
 62
     4
100
AcDbLine
 10
674.3836444807075
 20
600.3765671441085
 30
0.0
 11
674.3836444807075
 21
268.3764671441085
 31
0.0
  0
INSERT
  5
97A
330
975
100
AcDbEntity
  8
0
  6
BYBLOCK
 62
     4
100
AcDbBlockReference
  2
_OPEN
 10
674.3836444807075
 20
614.3765671441085
 30
0.0
 41
14.0
 42
14.0
 43
14.0
 50
90.0
  0
INSERT
  5
97B
330
975
100
AcDbEntity
  8
0
  6
BYBLOCK
 62
     4
100
AcDbBlockReference
  2
_OPEN
 10
674.3836444807075
 20
254.3764671441085
 30
0.0
 41
14.0
 42
14.0
 43
14.0
 50
270.0
  0
MTEXT
  5
97C
330
975
100
AcDbEntity
  8
0
  6
BYBLOCK
 62
     4
100
AcDbMText
 10
664.3836444807075
 20
434.3765171441085
 30
0.0
 40
12.0
 41
0.0
 71
     5
 72
     1
  1
\A1;360
 11
0.0
 21
1.0
 31
0.0
1001
ACAD
1000
MTEXTBEGIN
1070
    73
1070
     1
1070
    44
1040
1.0
1070
    74
1070
     0
1000
MTEXTEND
1000
MTEXTBEGIN
1070
    73
1070
     1
1070
    44
1040
1.0
1070
    74
1070
     0
1000
MTEXTEND
1000
MTEXTBEGIN
1070
    73
1070
     1
1070
    44
1040
1.0
1070
    74
1070
     0
1000
MTEXTEND
  0
POINT
  5
97D
330
975
100
AcDbEntity
  8
DEFPOINTS
  6
BYBLOCK
 62
     0
100
AcDbPoint
 10
752.0494511827284
 20
614.3765671441085
 30
0.0
  0
POINT
  5
97E
330
975
100
AcDbEntity
  8
DEFPOINTS
  6
BYBLOCK
 62
     0
100
AcDbPoint
 10
847.0495511827284
 20
254.3764671441085
 30
0.0
  0
POINT
  5
97F
330
975
100
AcDbEntity
  8
DEFPOINTS
  6
BYBLOCK
 62
     0
100
AcDbPoint
 10
674.3836444807075
 20
254.3764671441085
 30
0.0
  0
ENDBLK
  5
980
330
975
100
AcDbEntity
  8
0
100
AcDbBlockEnd
  0
BLOCK
  5
99B
330
99A
100
AcDbEntity
  8
0
100
AcDbBlockBegin
  2
*D12
 70
     1
 10
0.0
 20
0.0
 30
0.0
  3
*D12
  1

  0
LINE
  5
99C
330
99A
100
AcDbEntity
  8
0
  6
BYBLOCK
 62
     4
100
AcDbLine
 10
1403.830951182728
 20
612.9200671441085
 30
0.0
 11
1403.830951182728
 21
673.9856271379085
 31
0.0
  0
LINE
  5
99D
330
99A
100
AcDbEntity
  8
0
  6
BYBLOCK
 62
     4
100
AcDbLine
 10
1203.830951182728
 20
612.9200671441085
 30
0.0
 11
1203.830951182728
 21
673.9856271379085
 31
0.0
  0
LINE
  5
99E
330
99A
100
AcDbEntity
  8
0
  6
BYBLOCK
 62
     4
100
AcDbLine
 10
1389.830951182728
 20
667.9856271379085
 30
0.0
 11
1217.830951182728
 21
667.9856271379085
 31
0.0
  0
INSERT
  5
99F
330
99A
100
AcDbEntity
  8
0
  6
BYBLOCK
 62
     4
100
AcDbBlockReference
  2
_OPEN
 10
1403.830951182728
 20
667.9856271379085
 30
0.0
 41
14.0
 42
14.0
 43
14.0
  0
INSERT
  5
9A0
330
99A
100
AcDbEntity
  8
0
  6
BYBLOCK
 62
     4
100
AcDbBlockReference
  2
_OPEN
 10
1203.830951182728
 20
667.9856271379085
 30
0.0
 41
14.0
 42
14.0
 43
14.0
 50
180.0
  0
MTEXT
  5
9A1
330
99A
100
AcDbEntity
  8
0
  6
BYBLOCK
 62
     4
100
AcDbMText
 10
1303.830951182728
 20
677.9856271379085
 30
0.0
 40
12.0
 41
0.0
 71
     5
 72
     1
  1
\A1;200
1001
ACAD
1000
MTEXTBEGIN
1070
    73
1070
     1
1070
    44
1040
1.0
1070
    74
1070
     0
1000
MTEXTEND
1000
MTEXTBEGIN
1070
    73
1070
     1
1070
    44
1040
1.0
1070
    74
1070
     0
1000
MTEXTEND
1000
MTEXTBEGIN
1070
    73
1070
     1
1070
    44
1040
1.0
1070
    74
1070
     0
1000
MTEXTEND
  0
POINT
  5
9A2
330
99A
100
AcDbEntity
  8
DEFPOINTS
  6
BYBLOCK
 62
     0
100
AcDbPoint
 10
1403.830951182728
 20
600.9200671441085
 30
0.0
  0
POINT
  5
9A3
330
99A
100
AcDbEntity
  8
DEFPOINTS
  6
BYBLOCK
 62
     0
100
AcDbPoint
 10
1203.830951182728
 20
600.9200671441085
 30
0.0
  0
POINT
  5
9A4
330
99A
100
AcDbEntity
  8
DEFPOINTS
  6
BYBLOCK
 62
     0
100
AcDbPoint
 10
1203.830951182728
 20
667.9856271379085
 30
0.0
  0
ENDBLK
  5
9A5
330
99A
100
AcDbEntity
  8
0
100
AcDbBlockEnd
  0
BLOCK
  5
9A8
330
9A7
100
AcDbEntity
  8
0
100
AcDbBlockBegin
  2
*D13
 70
     1
 10
0.0
 20
0.0
 30
0.0
  3
*D13
  1

  0
LINE
  5
9A9
330
9A7
100
AcDbEntity
  8
0
  6
BYBLOCK
 62
     4
100
AcDbLine
 10
1439.830551182728
 20
626.3765671441085
 30
0.0
 11
1439.830551182728
 21
711.4904503090047
 31
0.0
  0
LINE
  5
9AA
330
9A7
100
AcDbEntity
  8
0
  6
BYBLOCK
 62
     4
100
AcDbLine
 10
1167.831351182728
 20
626.3765671441085
 30
0.0
 11
1167.831351182728
 21
711.4904503090047
 31
0.0
  0
LINE
  5
9AB
330
9A7
100
AcDbEntity
  8
0
  6
BYBLOCK
 62
     4
100
AcDbLine
 10
1425.830551182728
 20
705.4904503090047
 30
0.0
 11
1181.831351182728
 21
705.4904503090047
 31
0.0
  0
INSERT
  5
9AC
330
9A7
100
AcDbEntity
  8
0
  6
BYBLOCK
 62
     4
100
AcDbBlockReference
  2
_OPEN
 10
1439.830551182728
 20
705.4904503090047
 30
0.0
 41
14.0
 42
14.0
 43
14.0
  0
INSERT
  5
9AD
330
9A7
100
AcDbEntity
  8
0
  6
BYBLOCK
 62
     4
100
AcDbBlockReference
  2
_OPEN
 10
1167.831351182728
 20
705.4904503090047
 30
0.0
 41
14.0
 42
14.0
 43
14.0
 50
180.0
  0
MTEXT
  5
9AE
330
9A7
100
AcDbEntity
  8
0
  6
BYBLOCK
 62
     4
100
AcDbMText
 10
1303.830951182728
 20
715.4904503090047
 30
0.0
 40
12.0
 41
0.0
 71
     5
 72
     1
  1
\A1;272
1001
ACAD
1000
MTEXTBEGIN
1070
    73
1070
     1
1070
    44
1040
1.0
1070
    74
1070
     0
1000
MTEXTEND
1000
MTEXTBEGIN
1070
    73
1070
     1
1070
    44
1040
1.0
1070
    74
1070
     0
1000
MTEXTEND
1000
MTEXTBEGIN
1070
    73
1070
     1
1070
    44
1040
1.0
1070
    74
1070
     0
1000
MTEXTEND
  0
POINT
  5
9AF
330
9A7
100
AcDbEntity
  8
DEFPOINTS
  6
BYBLOCK
 62
     0
100
AcDbPoint
 10
1439.830551182728
 20
614.3765671441085
 30
0.0
  0
POINT
  5
9B0
330
9A7
100
AcDbEntity
  8
DEFPOINTS
  6
BYBLOCK
 62
     0
100
AcDbPoint
 10
1167.831351182728
 20
614.3765671441085
 30
0.0
  0
POINT
  5
9B1
330
9A7
100
AcDbEntity
  8
DEFPOINTS
  6
BYBLOCK
 62
     0
100
AcDbPoint
 10
1167.831351182728
 20
705.4904503090047
 30
0.0
  0
ENDBLK
  5
9B2
330
9A7
100
AcDbEntity
  8
0
100
AcDbBlockEnd
  0
BLOCK
  5
9DF
330
9B4
100
AcDbEntity
  8
0
100
AcDbBlockBegin
  2
*D14
 70
     1
 10
0.0
 20
0.0
 30
0.0
  3
*D14
  1

  0
LINE
  5
9E0
330
9B4
100
AcDbEntity
  8
0
  6
BYBLOCK
 62
     4
100
AcDbLine
 10
1191.830951182728
 20
581.3765671441085
 30
0.0
 11
1132.936423899064
 21
581.3765671441085
 31
0.0
  0
LINE
  5
9E1
330
9B4
100
AcDbEntity
  8
0
  6
BYBLOCK
 62
     4
100
AcDbLine
 10
1191.830951182728
 20
597.3765671441086
 30
0.0
 11
1132.936423899064
 21
597.3765671441086
 31
0.0
  0
LINE
  5
9E2
330
9B4
100
AcDbEntity
  8
0
  6
BYBLOCK
 62
     4
100
AcDbLine
 10
1138.936423899064
 20
611.3765671441085
 30
0.0
 11
1138.936423899064
 21
625.3765671441085
 31
0.0
  0
LINE
  5
9E3
330
9B4
100
AcDbEntity
  8
0
  6
BYBLOCK
 62
     4
100
AcDbLine
 10
1138.936423899064
 20
567.3765671441085
 30
0.0
 11
1138.936423899064
 21
529.3765671441085
 31
0.0
  0
LINE
  5
9E4
330
9B4
100
AcDbEntity
  8
0
  6
BYBLOCK
 62
     4
100
AcDbLine
 10
1138.936423899064
 20
597.3765671441086
 30
0.0
 11
1138.936423899064
 21
581.3765671441085
 31
0.0
  0
INSERT
  5
9E5
330
9B4
100
AcDbEntity
  8
0
  6
BYBLOCK
 62
     4
100
AcDbBlockReference
  2
_OPEN
 10
1138.936423899064
 20
597.3765671441086
 30
0.0
 41
14.0
 42
14.0
 43
14.0
 50
270.0
  0
INSERT
  5
9E6
330
9B4
100
AcDbEntity
  8
0
  6
BYBLOCK
 62
     4
100
AcDbBlockReference
  2
_OPEN
 10
1138.936423899064
 20
581.3765671441085
 30
0.0
 41
14.0
 42
14.0
 43
14.0
 50
90.0
  0
MTEXT
  5
9E7
330
9B4
100
AcDbEntity
  8
0
  6
BYBLOCK
 62
     4
100
AcDbMText
 10
1128.936423899064
 20
541.3765671441085
 30
0.0
 40
12.0
 41
0.0
 71
     5
 72
     1
  1
\A1;16
 11
0.0
 21
1.0
 31
0.0
1001
ACAD
1000
MTEXTBEGIN
1070
    73
1070
     1
1070
    44
1040
1.0
1070
    74
1070
     0
1000
MTEXTEND
1000
MTEXTBEGIN
1070
    73
1070
     1
1070
    44
1040
1.0
1070
    74
1070
     0
1000
MTEXTEND
1000
MTEXTBEGIN
1070
    73
1070
     1
1070
    44
1040
1.0
1070
    74
1070
     0
1000
MTEXTEND
  0
POINT
  5
9E8
330
9B4
100
AcDbEntity
  8
DEFPOINTS
  6
BYBLOCK
 62
     0
100
AcDbPoint
 10
1203.830951182728
 20
581.3765671441085
 30
0.0
  0
POINT
  5
9E9
330
9B4
100
AcDbEntity
  8
DEFPOINTS
  6
BYBLOCK
 62
     0
100
AcDbPoint
 10
1203.830951182728
 20
597.3765671441086
 30
0.0
  0
POINT
  5
9EA
330
9B4
100
AcDbEntity
  8
DEFPOINTS
  6
BYBLOCK
 62
     0
100
AcDbPoint
 10
1138.936423899064
 20
597.3765671441086
 30
0.0
  0
ENDBLK
  5
9EB
330
9B4
100
AcDbEntity
  8
0
100
AcDbBlockEnd
  0
BLOCK
  5
9C4
330
9C3
100
AcDbEntity
  8
0
100
AcDbBlockBegin
  2
*D15
 70
     1
 10
0.0
 20
0.0
 30
0.0
  3
*D15
  1

  0
LINE
  5
9C5
330
9C3
100
AcDbEntity
  8
0
  6
BYBLOCK
 62
     4
100
AcDbLine
 10
1155.831351182728
 20
614.3765671441085
 30
0.0
 11
1094.128128043318
 21
614.3765671441085
 31
0.0
  0
LINE
  5
9C6
330
9C3
100
AcDbEntity
  8
0
  6
BYBLOCK
 62
     4
100
AcDbLine
 10
1180.231551182728
 20
589.3765671441085
 30
0.0
 11
1094.128128043318
 21
589.3765671441085
 31
0.0
  0
LINE
  5
9C7
330
9C3
100
AcDbEntity
  8
0
  6
BYBLOCK
 62
     4
100
AcDbLine
 10
1100.128128043318
 20
628.3765671441085
 30
0.0
 11
1100.128128043318
 21
642.3765671441085
 31
0.0
  0
LINE
  5
9C8
330
9C3
100
AcDbEntity
  8
0
  6
BYBLOCK
 62
     4
100
AcDbLine
 10
1100.128128043318
 20
575.3765671441085
 30
0.0
 11
1100.128128043318
 21
533.3765671441085
 31
0.0
  0
LINE
  5
9C9
330
9C3
100
AcDbEntity
  8
0
  6
BYBLOCK
 62
     4
100
AcDbLine
 10
1100.128128043318
 20
614.3765671441085
 30
0.0
 11
1100.128128043318
 21
589.3765671441085
 31
0.0
  0
INSERT
  5
9CA
330
9C3
100
AcDbEntity
  8
0
  6
BYBLOCK
 62
     4
100
AcDbBlockReference
  2
_OPEN
 10
1100.128128043318
 20
614.3765671441085
 30
0.0
 41
14.0
 42
14.0
 43
14.0
 50
270.0
  0
INSERT
  5
9CB
330
9C3
100
AcDbEntity
  8
0
  6
BYBLOCK
 62
     4
100
AcDbBlockReference
  2
_OPEN
 10
1100.128128043318
 20
589.3765671441085
 30
0.0
 41
14.0
 42
14.0
 43
14.0
 50
90.0
  0
MTEXT
  5
9CC
330
9C3
100
AcDbEntity
  8
0
  6
BYBLOCK
 62
     4
100
AcDbMText
 10
1090.128128043318
 20
547.3765671441085
 30
0.0
 40
12.0
 41
0.0
 71
     5
 72
     1
  1
\A1;25
 11
0.0
 21
1.0
 31
0.0
1001
ACAD
1000
MTEXTBEGIN
1070
    73
1070
     1
1070
    44
1040
1.0
1070
    74
1070
     0
1000
MTEXTEND
1000
MTEXTBEGIN
1070
    73
1070
     1
1070
    44
1040
1.0
1070
    74
1070
     0
1000
MTEXTEND
1000
MTEXTBEGIN
1070
    73
1070
     1
1070
    44
1040
1.0
1070
    74
1070
     0
1000
MTEXTEND
  0
POINT
  5
9CD
330
9C3
100
AcDbEntity
  8
DEFPOINTS
  6
BYBLOCK
 62
     0
100
AcDbPoint
 10
1167.831351182728
 20
614.3765671441085
 30
0.0
  0
POINT
  5
9CE
330
9C3
100
AcDbEntity
  8
DEFPOINTS
  6
BYBLOCK
 62
     0
100
AcDbPoint
 10
1192.231551182728
 20
589.3765671441085
 30
0.0
  0
POINT
  5
9CF
330
9C3
100
AcDbEntity
  8
DEFPOINTS
  6
BYBLOCK
 62
     0
100
AcDbPoint
 10
1100.128128043318
 20
589.3765671441085
 30
0.0
  0
ENDBLK
  5
9D0
330
9C3
100
AcDbEntity
  8
0
100
AcDbBlockEnd
  0
ENDSEC
  0
SECTION
  2
ENTITIES
  0
LINE
  5
121
330
19
100
AcDbEntity
  8
ZUWAKU
 62
     7
 48
10.0
100
AcDbLine
 10
19.90074647074652
 20
48.1669006995453
 30
0.0
 11
1611.900746470746
 21
48.16690069954507
 31
0.0
  0
LINE
  5
122
330
19
100
AcDbEntity
  8
ZUWAKU
  6
CONTINUOUS
 62
     7
100
AcDbLine
 10
1611.900746470746
 20
1124.166900699545
 30
0.0
 11
19.90074647074652
 21
1124.166900699545
 31
0.0
  0
LINE
  5
123
330
19
100
AcDbEntity
  8
ZUWAKU
  6
CONTINUOUS
 62
     7
100
AcDbLine
 10
1611.900746470746
 20
24.16690069954529
 30
0.0
 11
19.90074647074652
 21
24.16690069954529
 31
0.0
  0
LINE
  5
124
330
19
100
AcDbEntity
  8
ZUWAKU
  6
CONTINUOUS
 62
     7
100
AcDbLine
 10
19.90074647074652
 20
1124.166900699545
 30
0.0
 11
19.90074647074652
 21
24.16690069954529
 31
0.0
  0
LINE
  5
125
330
19
100
AcDbEntity
  8
ZUWAKU
 62
     7
 48
10.0
100
AcDbLine
 10
88.91574076238157
 20
24.16690069954529
 30
0.0
 11
88.91574076238157
 21
48.1669006995453
 31
0.0
  0
TEXT
  5
126
330
19
100
AcDbEntity
  8
ZUWAKU
 62
     7
100
AcDbText
 10
31.91332132304342
 20
27.64761340998802
 30
0.0
 40
16.0
  1
品 種
100
AcDbText
  0
LINE
  5
127
330
19
100
AcDbEntity
  8
ZUWAKU
 62
     7
 48
10.0
100
AcDbLine
 10
552.0054677130756
 20
24.16690069954529
 30
0.0
 11
552.0054677130756
 21
48.16690069954521
 31
0.0
  0
LINE
  5
128
330
19
100
AcDbEntity
  8
ZUWAKU
 62
     7
 48
10.0
100
AcDbLine
 10
418.8274955845217
 20
24.16690069954529
 30
0.0
 11
418.8274955845218
 21
48.16690069954525
 31
0.0
  0
TEXT
  5
129
330
19
100
AcDbEntity
  8
ZUWAKU
 62
     7
100
AcDbText
 10
564.4260762822405
 20
27.88656214294769
 30
0.0
 40
16.0
  1
Ｂ型　ＶＵ．ＶＰ１００
100
AcDbText
  0
TEXT
  5
12A
330
19
100
AcDbEntity
  8
ZUWAKU
 62
     7
100
AcDbText
 10
430.711957737576
 20
28.96889043994906
 30
0.0
 40
16.0
  1
品名・ｻ ｲ ｽﾞ
100
AcDbText
  0
TEXT
  5
12B
330
19
100
AcDbEntity
  8
ZUWAKU
 62
     7
100
AcDbText
 10
100.503666760442
 20
28.80785192669509
 30
0.0
 40
16.0
  1
ビルマス
100
AcDbText
  0
LINE
  5
12C
330
19
100
AcDbEntity
  8
ZUWAKU
 62
     7
 48
10.0
100
AcDbLine
 10
1537.246006285983
 20
24.16690069954474
 30
0.0
 11
1537.246006285983
 21
48.16690069954507
 31
0.0
  0
LINE
  5
12D
330
19
100
AcDbEntity
  8
ZUWAKU
 62
     7
 48
10.0
100
AcDbLine
 10
1467.423590774814
 20
24.16690069954483
 30
0.0
 11
1467.423590774814
 21
48.16690069954509
 31
0.0
  0
TEXT
  5
12E
330
19
100
AcDbEntity
  8
ZUWAKU
 62
     7
100
AcDbText
 10
1479.19091629413
 20
27.08628325011705
 30
0.0
 40
16.0
  1
尺 度
100
AcDbText
  0
TEXT
  5
12F
330
19
100
AcDbEntity
  8
ZUWAKU
 62
     7
100
AcDbText
 10
1559.27471636407
 20
27.71150653553059
 30
0.0
 40
16.0
  1
1/4
100
AcDbText
  0
TEXT
  5
130
330
19
100
AcDbEntity
  8
ZUWAKU
 62
     7
100
AcDbText
 10
1308.30613703518
 20
28.40748782453036
 30
0.0
 40
16.0
  1
ＧＨ８５
100
AcDbText
  0
TEXT
  5
131
330
19
100
AcDbEntity
  8
ZUWAKU
 62
     7
100
AcDbText
 10
1240.472447976041
 20
27.90554632275259
 30
0.0
 40
16.0
  1
品 番
100
AcDbText
  0
LINE
  5
132
330
19
100
AcDbEntity
  8
ZUWAKU
 62
     7
 48
10.0
100
AcDbLine
 10
1228.46999593825
 20
24.16690069954464
 30
0.0
 11
1228.46999593825
 21
48.16690069954512
 31
0.0
  0
LINE
  5
133
330
19
100
AcDbEntity
  8
ZUWAKU
 62
     7
 48
10.0
100
AcDbLine
 10
1297.321307773629
 20
24.16690069954464
 30
0.0
 11
1297.321307773629
 21
48.1669006995451
 31
0.0
  0
TEXT
  5
134
330
19
100
AcDbEntity
  8
ZUWAKU
 62
     7
 48
10.0
100
AcDbText
 10
1292.407013373002
 20
5.798621502208334
 30
0.0
 40
16.0
  1
積水化学工業株式会社  建材
100
AcDbText
  0
LINE
  5
135
330
19
100
AcDbEntity
  8
ZUWAKU
  6
CONTINUOUS
 62
     7
100
AcDbLine
 10
1611.900746470746
 20
1124.166900699545
 30
0.0
 11
1611.900746470746
 21
24.16690069954529
 31
0.0
  0
LINE
  5
323
330
19
100
AcDbEntity
  8
CENTER_L
  6
CENTER
 62
     1
 48
5.0
100
AcDbLine
 10
395.0359409035791
 20
246.6984657603723
 30
0.0
 11
395.0359409035791
 21
641.8658657603722
 31
0.0
  0
LINE
  5
324
330
19
100
AcDbEntity
  8
SEIHIN
  6
CONTINUOUS
 62
     3
100
AcDbLine
 10
474.8338409035791
 20
336.3349657603722
 30
0.0
 11
494.0348409035791
 21
603.2683657603723
 31
0.0
  0
LINE
  5
325
330
19
100
AcDbEntity
  8
SEIHIN
  6
CONTINUOUS
 62
     3
100
AcDbLine
 10
505.8338409035791
 20
336.3349657603722
 30
0.0
 11
525.0348409035791
 21
603.2683657603723
 31
0.0
  0
LINE
  5
326
330
19
100
AcDbEntity
  8
SEIHIN
  6
CONTINUOUS
 62
     3
100
AcDbLine
 10
284.2381409035792
 20
336.3349657603722
 30
0.0
 11
265.0370409035792
 21
603.2683657603723
 31
0.0
  0
LINE
  5
327
330
19
100
AcDbEntity
  8
SEIHIN
  6
CONTINUOUS
 62
     3
100
AcDbLine
 10
315.2381409035792
 20
336.3349657603722
 30
0.0
 11
296.0370409035792
 21
603.2683657603723
 31
0.0
  0
DIMENSION
  5
328
330
19
100
AcDbEntity
  8
SUNPOU
  6
CONTINUOUS
 62
     4
100
AcDbDimension
  2
*D1
 10
284.6025996538516
 20
201.1646657569213
 30
0.0
 11
395.0359918526361
 21
211.1646657569212
 31
0.0
 12
-58.79501027914921
 22
6.891798616263713
 32
0.0
 70
    32
  3
STANDARD
100
AcDbAlignedDimension
 13
505.4693840514205
 23
331.2682657603723
 33
0.0
 14
284.6025996538516
 24
331.2682657603723
 34
0.0
100
AcDbRotatedDimension
1001
ACAD
1000
DSTYLE
1002
{
1070
   140
1040
12.0
1070
    74
1070
     0
1070
    73
1070
     0
1070
   272
1070
     0
1070
    77
1070
     3
1070
   173
1070
     1
1070
   147
1040
4.0
1070
    42
1040
20.0
1070
    44
1040
8.0
1070
    43
1040
32.0
1070
   271
1070
     0
1070
   178
1070
     4
1070
   177
1070
     4
1070
   176
1070
     4
1070
   141
1040
12.0
1070
     7
1000
_OPEN
1070
     6
1000
_OPEN
1070
    41
1040
12.0
1002
}
  0
LINE
  5
32D
330
19
100
AcDbEntity
  8
SEIHIN
  6
CONTINUOUS
 62
     3
100
AcDbLine
 10
290.1650409035791
 20
331.2682657603723
 30
0.0
 11
395.0359409035791
 21
331.2682657603723
 31
0.0
  0
ARC
  5
32E
330
19
100
AcDbEntity
  8
SEIHIN
  6
CONTINUOUS
 62
     3
100
AcDbCircle
 10
328.0360409035793
 20
325.2682657603723
 30
0.0
 40
6.0
100
AcDbArc
 50
0.0
 51
90.0
  0
ARC
  5
330
330
19
100
AcDbEntity
  8
SEIHIN
  6
CONTINUOUS
 62
     3
100
AcDbCircle
 10
290.1650409035791
 20
337.2682657603722
 30
0.0
 40
6.000016
100
AcDbArc
 50
188.948648
 51
270.0
  0
ARC
  5
331
330
19
100
AcDbEntity
  8
SEIHIN
  6
CONTINUOUS
 62
     3
100
AcDbCircle
 10
321.1651409035791
 20
337.2682657603722
 30
0.0
 40
6.000016
100
AcDbArc
 50
188.948648
 51
270.0
  0
LINE
  5
332
330
19
100
AcDbEntity
  8
SEIHIN
  6
CONTINUOUS
 62
     3
100
AcDbLine
 10
499.9068409035792
 20
331.2682657603723
 30
0.0
 11
395.0359409035791
 21
331.2682657603723
 31
0.0
  0
ARC
  5
333
330
19
100
AcDbEntity
  8
SEIHIN
  6
CONTINUOUS
 62
     3
100
AcDbCircle
 10
462.0358409035794
 20
325.2682657603723
 30
0.0
 40
6.0
100
AcDbArc
 50
90.0
 51
180.0
  0
LINE
  5
334
330
19
100
AcDbEntity
  8
SEIHIN
  6
CONTINUOUS
 62
     3
100
AcDbLine
 10
456.0358409035793
 20
285.2682657603722
 30
0.0
 11
456.0358409035793
 21
325.2682657603723
 31
0.0
  0
LINE
  5
335
330
19
100
AcDbEntity
  8
SEIHIN
  6
CONTINUOUS
 62
     3
100
AcDbLine
 10
334.0360409035793
 20
285.2682657603722
 30
0.0
 11
334.0360409035793
 21
325.2682657603723
 31
0.0
  0
LINE
  5
336
330
19
100
AcDbEntity
  8
SEIHIN
  6
CONTINUOUS
 62
     3
100
AcDbLine
 10
334.0360409035793
 20
285.2682657603722
 30
0.0
 11
395.0359409035791
 21
285.2682657603722
 31
0.0
  0
LINE
  5
337
330
19
100
AcDbEntity
  8
SEIHIN
  6
CONTINUOUS
 62
     3
100
AcDbLine
 10
336.6425409035791
 20
281.2682657603722
 30
0.0
 11
395.0359409035791
 21
281.2682657603722
 31
0.0
  0
LINE
  5
338
330
19
100
AcDbEntity
  8
SEIHIN
  6
CONTINUOUS
 62
     3
100
AcDbLine
 10
346.0360409035793
 20
261.2682657603722
 30
0.0
 11
395.0359409035791
 21
261.2682657603722
 31
0.0
  0
LINE
  5
339
330
19
100
AcDbEntity
  8
SEIHIN
  6
CONTINUOUS
 62
     3
100
AcDbLine
 10
346.0360409035793
 20
261.2682657603722
 30
0.0
 11
346.0360409035793
 21
281.2682657603722
 31
0.0
  0
LINE
  5
33A
330
19
100
AcDbEntity
  8
SEIHIN
  6
CONTINUOUS
 62
     3
100
AcDbLine
 10
334.7106409035791
 20
282.7505657603722
 30
0.0
 11
334.0360409035793
 21
285.2682657603722
 31
0.0
  0
ARC
  5
33B
330
19
100
AcDbEntity
  8
SEIHIN
  6
CONTINUOUS
 62
     3
100
AcDbCircle
 10
336.6425409035791
 20
283.2682657603722
 30
0.0
 40
2.000031
100
AcDbArc
 50
195.001355
 51
270.0
  0
LINE
  5
33C
330
19
100
AcDbEntity
  8
SEIHIN
  6
CONTINUOUS
 62
     3
100
AcDbLine
 10
444.0358409035793
 20
261.2682657603722
 30
0.0
 11
395.0359409035791
 21
261.2682657603722
 31
0.0
  0
LINE
  5
33D
330
19
100
AcDbEntity
  8
SEIHIN
  6
CONTINUOUS
 62
     3
100
AcDbLine
 10
453.4293409035792
 20
281.2682657603722
 30
0.0
 11
395.0359409035791
 21
281.2682657603722
 31
0.0
  0
LINE
  5
33E
330
19
100
AcDbEntity
  8
SEIHIN
  6
CONTINUOUS
 62
     3
100
AcDbLine
 10
456.0358409035793
 20
285.2682657603722
 30
0.0
 11
395.0359409035791
 21
285.2682657603722
 31
0.0
  0
LINE
  5
33F
330
19
100
AcDbEntity
  8
SEIHIN
  6
CONTINUOUS
 62
     3
100
AcDbLine
 10
444.0358409035793
 20
261.2682657603722
 30
0.0
 11
444.0358409035793
 21
281.2682657603722
 31
0.0
  0
LINE
  5
340
330
19
100
AcDbEntity
  8
SEIHIN
  6
CONTINUOUS
 62
     3
100
AcDbLine
 10
455.3612409035791
 20
282.7505657603722
 30
0.0
 11
456.0358409035793
 21
285.2682657603722
 31
0.0
  0
ARC
  5
341
330
19
100
AcDbEntity
  8
SEIHIN
  6
CONTINUOUS
 62
     3
100
AcDbCircle
 10
453.4293409035792
 20
283.2682657603722
 30
0.0
 40
2.000031
100
AcDbArc
 50
270.0
 51
344.998645
  0
ARC
  5
342
330
19
100
AcDbEntity
  8
SEIHIN
  6
CONTINUOUS
 62
     3
100
AcDbCircle
 10
468.9068409035792
 20
337.2682657603722
 30
0.0
 40
6.000023999999999
100
AcDbArc
 50
270.0
 51
351.050408
  0
ARC
  5
343
330
19
100
AcDbEntity
  8
SEIHIN
  6
CONTINUOUS
 62
     3
100
AcDbCircle
 10
499.9068409035792
 20
337.2682657603722
 30
0.0
 40
6.000023999999999
100
AcDbArc
 50
270.0
 51
351.050408
  0
DIMENSION
  5
350
330
19
100
AcDbEntity
  8
SUNPOU
  6
CONTINUOUS
 62
     4
100
AcDbDimension
  2
*D2
 10
259.0363409035792
 20
674.6175785605823
 30
0.0
 11
395.0359409035792
 21
684.6175785605823
 31
0.0
 12
-67.86642544334245
 22
-2.172105304899105
 32
0.0
 70
    32
  3
STANDARD
100
AcDbAlignedDimension
 13
531.0355409035792
 23
621.2683657603722
 33
0.0
 14
259.0363409035792
 24
621.2683657603722
 34
0.0
100
AcDbRotatedDimension
1001
ACAD
1000
DSTYLE
1002
{
1070
   140
1040
12.0
1070
    74
1070
     0
1070
    73
1070
     0
1070
   272
1070
     0
1070
    77
1070
     3
1070
   173
1070
     1
1070
   147
1040
4.0
1070
    42
1040
20.0
1070
    44
1040
8.0
1070
    43
1040
32.0
1070
   271
1070
     0
1070
   178
1070
     4
1070
   177
1070
     4
1070
   176
1070
     4
1070
   141
1040
12.0
1070
     7
1000
_OPEN
1070
     6
1000
_OPEN
1070
    41
1040
12.0
1002
}
  0
LINE
  5
352
330
19
100
AcDbEntity
  8
SEIHIN
  6
CONTINUOUS
 62
     3
100
AcDbLine
 10
395.0359409035791
 20
621.2683657603722
 30
0.0
 11
259.0363409035792
 21
621.2683657603722
 31
0.0
  0
LINE
  5
353
330
19
100
AcDbEntity
  8
SEIHIN
  6
CONTINUOUS
 62
     3
100
AcDbLine
 10
260.0363409035792
 20
606.2683657603722
 30
0.0
 11
395.0359409035791
 21
606.2683657603722
 31
0.0
  0
LINE
  5
354
330
19
100
AcDbEntity
  8
SEIHIN
  6
CONTINUOUS
 62
     3
100
AcDbLine
 10
265.0370409035792
 20
603.2683657603723
 30
0.0
 11
395.0359409035791
 21
603.2683657603723
 31
0.0
  0
LINE
  5
35B
330
19
100
AcDbEntity
  8
SEIHIN
  6
CONTINUOUS
 62
     3
100
AcDbLine
 10
260.0363409035792
 20
606.2683657603722
 30
0.0
 11
259.0363409035792
 21
621.2683657603722
 31
0.0
  0
LINE
  5
35C
330
19
100
AcDbEntity
  8
SEIHIN
  6
CONTINUOUS
 62
     3
100
AcDbLine
 10
265.0370409035792
 20
603.2683657603723
 30
0.0
 11
260.0363409035792
 21
606.2683657603722
 31
0.0
  0
LINE
  5
35D
330
19
100
AcDbEntity
  8
SEIHIN
  6
CONTINUOUS
 62
     3
100
AcDbLine
 10
291.0363409035792
 20
606.2683657603722
 30
0.0
 11
290.0363409035792
 21
621.2683657603722
 31
0.0
  0
LINE
  5
35E
330
19
100
AcDbEntity
  8
SEIHIN
  6
CONTINUOUS
 62
     3
100
AcDbLine
 10
285.2049409035791
 20
606.2683657603722
 30
0.0
 11
284.6533409035791
 21
614.5425657603722
 31
0.0
  0
LINE
  5
35F
330
19
100
AcDbEntity
  8
SEIHIN
  6
CONTINUOUS
 62
     3
100
AcDbLine
 10
279.3734409035792
 20
606.2683657603722
 30
0.0
 11
278.8178409035793
 21
614.6020657603722
 31
0.0
  0
LINE
  5
364
330
19
100
AcDbEntity
  8
SEIHIN
  6
CONTINUOUS
 62
     3
100
AcDbLine
 10
285.2049409035791
 20
606.2683657603722
 30
0.0
 11
290.2055409035792
 21
603.2683657603723
 31
0.0
  0
LINE
  5
365
330
19
100
AcDbEntity
  8
SEIHIN
  6
CONTINUOUS
 62
     3
100
AcDbLine
 10
284.3740409035792
 20
603.2683657603723
 30
0.0
 11
279.3734409035792
 21
606.2683657603722
 31
0.0
  0
LINE
  5
366
330
19
100
AcDbEntity
  8
SEIHIN
  6
CONTINUOUS
 62
     3
100
AcDbLine
 10
296.0370409035792
 20
603.2683657603723
 30
0.0
 11
291.0363409035792
 21
606.2683657603722
 31
0.0
  0
LINE
  5
371
330
19
100
AcDbEntity
  8
SEIHIN
  6
CONTINUOUS
 62
     3
100
AcDbLine
 10
281.3123409035792
 20
617.2683657603722
 30
0.0
 11
281.7397409035793
 21
617.2683657603722
 31
0.0
  0
ARC
  5
372
330
19
100
AcDbEntity
  8
SEIHIN
  6
CONTINUOUS
 62
     3
100
AcDbCircle
 10
281.7397409035793
 20
614.3483657603722
 30
0.0
 40
2.919933
100
AcDbArc
 50
3.813422
 51
90.0
  0
ARC
  5
373
330
19
100
AcDbEntity
  8
SEIHIN
  6
CONTINUOUS
 62
     3
100
AcDbCircle
 10
281.3123409035792
 20
614.7683657603722
 30
0.0
 40
2.500018999999999
100
AcDbArc
 50
90.0
 51
183.814075
  0
LINE
  5
380
330
19
100
AcDbEntity
  8
SEIHIN
  6
CONTINUOUS
 62
     3
100
AcDbLine
 10
395.0359409035791
 20
621.2683657603722
 30
0.0
 11
531.0355409035792
 21
621.2683657603722
 31
0.0
  0
LINE
  5
381
330
19
100
AcDbEntity
  8
SEIHIN
  6
CONTINUOUS
 62
     3
100
AcDbLine
 10
530.0355409035792
 20
606.2683657603722
 30
0.0
 11
395.0359409035791
 21
606.2683657603722
 31
0.0
  0
LINE
  5
382
330
19
100
AcDbEntity
  8
SEIHIN
  6
CONTINUOUS
 62
     3
100
AcDbLine
 10
525.0348409035791
 20
603.2683657603723
 30
0.0
 11
395.0359409035791
 21
603.2683657603723
 31
0.0
  0
LINE
  5
383
330
19
100
AcDbEntity
  8
SEIHIN
  6
CONTINUOUS
 62
     3
100
AcDbLine
 10
499.0355409035792
 20
606.2683657603722
 30
0.0
 11
500.0355409035791
 21
621.2683657603722
 31
0.0
  0
LINE
  5
384
330
19
100
AcDbEntity
  8
SEIHIN
  6
CONTINUOUS
 62
     3
100
AcDbLine
 10
504.8669409035792
 20
606.2683657603722
 30
0.0
 11
505.4185409035792
 21
614.5425657603722
 31
0.0
  0
LINE
  5
385
330
19
100
AcDbEntity
  8
SEIHIN
  6
CONTINUOUS
 62
     3
100
AcDbLine
 10
510.6984409035792
 20
606.2683657603722
 30
0.0
 11
511.2540409035791
 21
614.6020657603722
 31
0.0
  0
LINE
  5
38A
330
19
100
AcDbEntity
  8
SEIHIN
  6
CONTINUOUS
 62
     3
100
AcDbLine
 10
504.8669409035792
 20
606.2683657603722
 30
0.0
 11
499.8663409035794
 21
603.2683657603723
 31
0.0
  0
LINE
  5
38B
330
19
100
AcDbEntity
  8
SEIHIN
  6
CONTINUOUS
 62
     3
100
AcDbLine
 10
494.0348409035791
 20
603.2683657603723
 30
0.0
 11
499.0355409035792
 21
606.2683657603722
 31
0.0
  0
LINE
  5
396
330
19
100
AcDbEntity
  8
SEIHIN
  6
CONTINUOUS
 62
     3
100
AcDbLine
 10
505.6978409035791
 20
603.2683657603723
 30
0.0
 11
510.6984409035792
 21
606.2683657603722
 31
0.0
  0
LINE
  5
397
330
19
100
AcDbEntity
  8
SEIHIN
  6
CONTINUOUS
 62
     3
100
AcDbLine
 10
508.7595409035793
 20
617.2683657603722
 30
0.0
 11
508.3321409035793
 21
617.2683657603722
 31
0.0
  0
ARC
  5
398
330
19
100
AcDbEntity
  8
SEIHIN
  6
CONTINUOUS
 62
     3
100
AcDbCircle
 10
508.3321409035793
 20
614.3483657603722
 30
0.0
 40
2.919933
100
AcDbArc
 50
90.0
 51
176.186578
  0
ARC
  5
399
330
19
100
AcDbEntity
  8
SEIHIN
  6
CONTINUOUS
 62
     3
100
AcDbCircle
 10
508.7595409035793
 20
614.7683657603722
 30
0.0
 40
2.500018999999999
100
AcDbArc
 50
356.1859249999999
 51
90.0
  0
LINE
  5
39A
330
19
100
AcDbEntity
  8
SEIHIN
  6
CONTINUOUS
 62
     3
100
AcDbLine
 10
530.0355409035792
 20
606.2683657603722
 30
0.0
 11
531.0355409035792
 21
621.2683657603722
 31
0.0
  0
LINE
  5
39B
330
19
100
AcDbEntity
  8
SEIHIN
  6
CONTINUOUS
 62
     3
100
AcDbLine
 10
525.0348409035791
 20
603.2683657603723
 30
0.0
 11
530.0355409035792
 21
606.2683657603722
 31
0.0
  0
LINE
  5
3E8
330
19
100
AcDbEntity
  8
SEIHIN
  6
CONTINUOUS
 62
     3
100
AcDbLine
 10
979.2546409035791
 20
621.2683657603722
 30
0.0
 11
976.3156409035794
 21
337.2061657603723
 31
0.0
  0
LINE
  5
3E9
330
19
100
AcDbEntity
  8
SEIHIN
  6
CONTINUOUS
 62
     3
100
AcDbLine
 10
714.2544409035792
 20
603.2683657603723
 30
0.0
 11
733.8456409035793
 21
336.8282657603722
 31
0.0
  0
LINE
  5
3EA
330
19
100
AcDbEntity
  8
SEIHIN
  6
CONTINUOUS
 62
     3
100
AcDbLine
 10
941.2236019269043
 20
618.2683657603722
 30
0.0
 11
941.13048499688
 21
609.2683657603722
 31
0.0
  0
DIMENSION
  5
3EB
330
19
100
AcDbEntity
  8
SUNPOU
  6
CONTINUOUS
 62
     4
100
AcDbDimension
  2
*D3
 10
976.2542054570467
 20
119.4201260452728
 30
0.0
 11
855.254335113802
 21
129.4201260452728
 31
0.0
 12
-43.79501027914921
 22
6.891798616263713
 32
0.0
 70
    32
  3
STANDARD
100
AcDbAlignedDimension
 13
734.2544647705572
 23
331.2682657603723
 33
0.0
 14
976.2542054570467
 24
331.2682657603723
 34
0.0
100
AcDbRotatedDimension
1001
ACAD
1000
DSTYLE
1002
{
1070
   140
1040
12.0
1070
    74
1070
     0
1070
    73
1070
     0
1070
   272
1070
     0
1070
    77
1070
     3
1070
   173
1070
     1
1070
   147
1040
4.0
1070
    42
1040
20.0
1070
    44
1040
8.0
1070
    43
1040
32.0
1070
   271
1070
     0
1070
   178
1070
     4
1070
   177
1070
     4
1070
   176
1070
     4
1070
   141
1040
12.0
1070
     7
1000
_OPEN
1070
     6
1000
_OPEN
1070
    41
1040
12.0
1002
}
  0
LINE
  5
3EF
330
19
100
AcDbEntity
  8
SEIHIN
  6
CONTINUOUS
 62
     3
100
AcDbLine
 10
739.8294409035793
 20
331.2682657603723
 30
0.0
 11
970.3166409035791
 21
331.2682657603723
 31
0.0
  0
LINE
  5
3F0
330
19
100
AcDbEntity
  8
SEIHIN
  6
CONTINUOUS
 62
     3
100
AcDbLine
 10
901.2542409035793
 20
261.2682657603722
 30
0.0
 11
852.254340903579
 21
261.2682657603722
 31
0.0
  0
LINE
  5
3F1
330
19
100
AcDbEntity
  8
SEIHIN
  6
CONTINUOUS
 62
     3
100
AcDbLine
 10
910.6477409035791
 20
281.2682657603722
 30
0.0
 11
852.254340903579
 21
281.2682657603722
 31
0.0
  0
LINE
  5
3F2
330
19
100
AcDbEntity
  8
SEIHIN
  6
CONTINUOUS
 62
     3
100
AcDbLine
 10
913.2542409035792
 20
285.2682657603722
 30
0.0
 11
852.254340903579
 21
285.2681657603723
 31
0.0
  0
ARC
  5
3F3
330
19
100
AcDbEntity
  8
SEIHIN
  6
CONTINUOUS
 62
     3
100
AcDbCircle
 10
739.8294409035793
 20
337.2682657603722
 30
0.0
 40
5.999977999999999
100
AcDbArc
 50
184.205497
 51
270.0
  0
LINE
  5
3F4
330
19
100
AcDbEntity
  8
CENTER_L
  6
CENTER
 62
     1
 48
5.0
100
AcDbLine
 10
852.254340903579
 20
241.5161657603722
 30
0.0
 11
852.2543409035792
 21
639.9105970339137
 31
0.0
  0
LINE
  5
3F5
330
19
100
AcDbEntity
  8
SEIHIN
  6
CONTINUOUS
 62
     3
100
AcDbLine
 10
791.2545409035792
 20
285.2682657603722
 30
0.0
 11
791.2545409035792
 21
325.2682657603723
 31
0.0
  0
LINE
  5
3F6
330
19
100
AcDbEntity
  8
SEIHIN
  6
CONTINUOUS
 62
     3
100
AcDbLine
 10
791.2545409035792
 20
285.2682657603722
 30
0.0
 11
852.2544409035793
 21
285.2681657603723
 31
0.0
  0
LINE
  5
3F7
330
19
100
AcDbEntity
  8
SEIHIN
  6
CONTINUOUS
 62
     3
100
AcDbLine
 10
793.8610409035791
 20
281.2682657603722
 30
0.0
 11
852.2544409035793
 21
281.2681657603723
 31
0.0
  0
LINE
  5
3F8
330
19
100
AcDbEntity
  8
SEIHIN
  6
CONTINUOUS
 62
     3
100
AcDbLine
 10
803.2545409035792
 20
261.2682657603722
 30
0.0
 11
852.2544409035793
 21
261.2681657603723
 31
0.0
  0
LINE
  5
3F9
330
19
100
AcDbEntity
  8
SEIHIN
  6
CONTINUOUS
 62
     3
100
AcDbLine
 10
803.2545409035792
 20
261.2682657603722
 30
0.0
 11
803.2545409035792
 21
281.2682657603722
 31
0.0
  0
LINE
  5
3FA
330
19
100
AcDbEntity
  8
SEIHIN
  6
CONTINUOUS
 62
     3
100
AcDbLine
 10
791.9291409035791
 20
282.7506657603722
 30
0.0
 11
791.2545409035792
 21
285.2682657603722
 31
0.0
  0
ARC
  5
3FB
330
19
100
AcDbEntity
  8
SEIHIN
  6
CONTINUOUS
 62
     3
100
AcDbCircle
 10
793.8610409035791
 20
283.2682657603722
 30
0.0
 40
1.99997
100
AcDbArc
 50
194.999329
 51
270.0
  0
ARC
  5
3FC
330
19
100
AcDbEntity
  8
SEIHIN
  6
CONTINUOUS
 62
     3
100
AcDbCircle
 10
785.2545409035792
 20
325.2682657603723
 30
0.0
 40
6.0
100
AcDbArc
 50
0.0
 51
90.0
  0
LINE
  5
3FD
330
19
100
AcDbEntity
  8
SEIHIN
  6
CONTINUOUS
 62
     3
100
AcDbLine
 10
913.2542409035792
 20
285.2682657603722
 30
0.0
 11
913.2540409035794
 21
325.2682657603723
 31
0.0
  0
LINE
  5
3FE
330
19
100
AcDbEntity
  8
SEIHIN
  6
CONTINUOUS
 62
     3
100
AcDbLine
 10
901.2542409035793
 20
261.2682657603722
 30
0.0
 11
901.2542409035793
 21
281.2682657603722
 31
0.0
  0
LINE
  5
3FF
330
19
100
AcDbEntity
  8
SEIHIN
  6
CONTINUOUS
 62
     3
100
AcDbLine
 10
912.5796409035791
 20
282.7506657603722
 30
0.0
 11
913.2542409035792
 21
285.2682657603722
 31
0.0
  0
ARC
  5
400
330
19
100
AcDbEntity
  8
SEIHIN
  6
CONTINUOUS
 62
     3
100
AcDbCircle
 10
910.6477409035791
 20
283.2682657603722
 30
0.0
 40
1.99997
100
AcDbArc
 50
270.0
 51
345.000671
  0
ARC
  5
401
330
19
100
AcDbEntity
  8
SEIHIN
  6
CONTINUOUS
 62
     3
100
AcDbCircle
 10
919.2540409035794
 20
325.2682657603723
 30
0.0
 40
6.0
100
AcDbArc
 50
90.0
 51
180.0
  0
ARC
  5
403
330
19
100
AcDbEntity
  8
SEIHIN
  6
CONTINUOUS
 62
     3
100
AcDbCircle
 10
970.3166409035791
 20
337.2682657603722
 30
0.0
 40
5.999660999999999
100
AcDbArc
 50
270.0
 51
359.406911
  0
DIMENSION
  5
404
330
19
100
AcDbEntity
  8
SUNPOU
  6
CONTINUOUS
 62
     4
100
AcDbDimension
  2
*D4
 10
708.2544409035793
 20
674.7114759710821
 30
0.0
 11
843.7545409035791
 21
684.711475971082
 31
0.0
 12
-2.86642544334245
 22
-2.172105304899105
 32
0.0
 70
    32
  3
STANDARD
100
AcDbAlignedDimension
 13
979.2546409035791
 23
621.2683657603722
 33
0.0
 14
708.2544409035793
 24
621.2683657603722
 34
0.0
100
AcDbRotatedDimension
1001
ACAD
1000
DSTYLE
1002
{
1070
   140
1040
12.0
1070
    74
1070
     0
1070
    73
1070
     0
1070
   272
1070
     0
1070
    77
1070
     3
1070
   173
1070
     1
1070
   147
1040
4.0
1070
    42
1040
20.0
1070
    44
1040
8.0
1070
    43
1040
32.0
1070
   271
1070
     0
1070
   178
1070
     4
1070
   177
1070
     4
1070
   176
1070
     4
1070
   141
1040
12.0
1070
     7
1000
_OPEN
1070
     6
1000
_OPEN
1070
    41
1040
12.0
1002
}
  0
LINE
  5
405
330
19
100
AcDbEntity
  8
SEIHIN
  6
CONTINUOUS
 62
     3
100
AcDbLine
 10
708.2544409035793
 20
621.2683657603722
 30
0.0
 11
979.2546409035791
 21
621.2683657603722
 31
0.0
  0
LINE
  5
406
330
19
100
AcDbEntity
  8
SEIHIN
  6
CONTINUOUS
 62
     3
100
AcDbLine
 10
726.2545409035793
 20
606.2683657603722
 30
0.0
 11
979.0996409035789
 21
606.2683657603722
 31
0.0
  0
LINE
  5
407
330
19
100
AcDbEntity
  8
SEIHIN
  6
CONTINUOUS
 62
     3
100
AcDbLine
 10
726.2545409035793
 20
603.2683657603723
 30
0.0
 11
979.0686409035791
 21
603.2683657603723
 31
0.0
  0
LINE
  5
408
330
19
100
AcDbEntity
  8
SEIHIN
  6
CONTINUOUS
 62
     3
100
AcDbLine
 10
709.2544409035792
 20
606.2683657603722
 30
0.0
 11
720.2545409035792
 21
606.2683657603722
 31
0.0
  0
LINE
  5
409
330
19
100
AcDbEntity
  8
SEIHIN
  6
CONTINUOUS
 62
     3
100
AcDbLine
 10
709.2544409035792
 20
606.2683657603722
 30
0.0
 11
714.2544409035792
 21
603.2683657603723
 31
0.0
  0
LINE
  5
40A
330
19
100
AcDbEntity
  8
SEIHIN
  6
CONTINUOUS
 62
     3
100
AcDbLine
 10
708.2544409035793
 20
621.2683657603722
 30
0.0
 11
709.2544409035792
 21
606.2683657603722
 31
0.0
  0
LINE
  5
40B
330
19
100
AcDbEntity
  8
SEIHIN
  6
CONTINUOUS
 62
     3
100
AcDbLine
 10
720.2544409035793
 20
603.2683657603723
 30
0.0
 11
720.2544409035793
 21
614.2683657603722
 31
0.0
  0
LINE
  5
40C
330
19
100
AcDbEntity
  8
SEIHIN
  6
CONTINUOUS
 62
     3
100
AcDbLine
 10
726.2544409035792
 20
603.2683657603723
 30
0.0
 11
726.2544409035792
 21
614.2683657603722
 31
0.0
  0
LINE
  5
40D
330
19
100
AcDbEntity
  8
SEIHIN
  6
CONTINUOUS
 62
     3
100
AcDbLine
 10
714.2544409035792
 20
603.2683657603723
 30
0.0
 11
726.2545409035793
 21
603.2683657603723
 31
0.0
  0
ARC
  5
40E
330
19
100
AcDbEntity
  8
SEIHIN
  6
CONTINUOUS
 62
     3
100
AcDbCircle
 10
723.2544409035792
 20
614.2683657603722
 30
0.0
 40
3.0
100
AcDbArc
 50
0.0
 51
90.0
  0
ARC
  5
40F
330
19
100
AcDbEntity
  8
SEIHIN
  6
CONTINUOUS
 62
     3
100
AcDbCircle
 10
723.2544409035792
 20
614.2683657603722
 30
0.0
 40
3.0
100
AcDbArc
 50
90.0
 51
180.0
  0
LINE
  5
411
330
19
100
AcDbEntity
  8
CENTER_L
  6
CENTER
 62
     1
 48
5.0
100
AcDbLine
 10
992.6076834094073
 20
596.2683657603722
 30
0.0
 11
956.2094605844823
 21
596.2683657603723
 31
0.0
  0
LINE
  5
651
330
19
100
AcDbEntity
  8
CENTER_L
  6
CENTER
 62
     1
 48
5.0
100
AcDbLine
 10
1290.035940903579
 20
246.6984657603723
 30
0.0
 11
1290.035940903579
 21
641.8658657603722
 31
0.0
  0
LINE
  5
653
330
19
100
AcDbEntity
  8
SEIHIN
  6
CONTINUOUS
 62
     3
100
AcDbLine
 10
1400.833840903579
 20
336.3349657603722
 30
0.0
 11
1420.034840903579
 21
603.2683657603723
 31
0.0
  0
LINE
  5
654
330
19
100
AcDbEntity
  8
SEIHIN
  6
CONTINUOUS
 62
     3
100
AcDbLine
 10
1179.238140903579
 20
336.3349657603722
 30
0.0
 11
1160.037040903579
 21
603.2683657603723
 31
0.0
  0
LINE
  5
656
330
19
100
AcDbEntity
  8
CENTER_L
  6
CENTER
 62
     1
 48
5.0
100
AcDbLine
 10
1190.035940903579
 20
584.6810657603722
 30
0.0
 11
1190.035940903579
 21
607.8118657603722
 31
0.0
  0
LINE
  5
657
330
19
100
AcDbEntity
  8
SEIHIN
  6
CONTINUOUS
 62
     3
100
AcDbLine
 10
1193.535940903579
 20
592.7683657603722
 30
0.0
 11
1193.535940903579
 21
591.7683657603722
 31
0.0
  0
LINE
  5
658
330
19
100
AcDbEntity
  8
SEIHIN
  6
CONTINUOUS
 62
     3
100
AcDbLine
 10
1186.535940903579
 20
592.7683657603722
 30
0.0
 11
1186.535940903579
 21
591.7683657603722
 31
0.0
  0
LINE
  5
659
330
19
100
AcDbEntity
  8
CENTER_L
  6
CENTER
 62
     1
 48
5.0
100
AcDbLine
 10
1390.035940903579
 20
584.6810657603722
 30
0.0
 11
1390.035940903579
 21
607.8118657603722
 31
0.0
  0
LINE
  5
65A
330
19
100
AcDbEntity
  8
SEIHIN
  6
CONTINUOUS
 62
     3
100
AcDbLine
 10
1393.535940903579
 20
592.7683657603722
 30
0.0
 11
1393.535940903579
 21
591.7683657603722
 31
0.0
  0
LINE
  5
65B
330
19
100
AcDbEntity
  8
SEIHIN
  6
CONTINUOUS
 62
     3
100
AcDbLine
 10
1386.535940903579
 20
592.7683657603722
 30
0.0
 11
1386.535940903579
 21
591.7683657603722
 31
0.0
  0
LINE
  5
662
330
19
100
AcDbEntity
  8
SEIHIN
  6
CONTINUOUS
 62
     3
100
AcDbLine
 10
1229.036040903579
 20
285.2682657603722
 30
0.0
 11
1290.035940903579
 21
285.2682657603722
 31
0.0
  0
LINE
  5
663
330
19
100
AcDbEntity
  8
SEIHIN
  6
CONTINUOUS
 62
     3
100
AcDbLine
 10
1231.642540903579
 20
281.2682657603722
 30
0.0
 11
1290.035940903579
 21
281.2682657603722
 31
0.0
  0
LINE
  5
664
330
19
100
AcDbEntity
  8
SEIHIN
  6
CONTINUOUS
 62
     3
100
AcDbLine
 10
1241.036040903579
 20
261.2682657603722
 30
0.0
 11
1290.035940903579
 21
261.2682657603722
 31
0.0
  0
LINE
  5
665
330
19
100
AcDbEntity
  8
SEIHIN
  6
CONTINUOUS
 62
     3
100
AcDbLine
 10
1185.165040903579
 20
331.2682657603723
 30
0.0
 11
1290.035940903579
 21
331.2682657603723
 31
0.0
  0
LINE
  5
666
330
19
100
AcDbEntity
  8
SEIHIN
  6
CONTINUOUS
 62
     3
100
AcDbLine
 10
1229.036040903579
 20
285.2682657603722
 30
0.0
 11
1229.036040903579
 21
325.2682657603723
 31
0.0
  0
LINE
  5
667
330
19
100
AcDbEntity
  8
SEIHIN
  6
CONTINUOUS
 62
     3
100
AcDbLine
 10
1241.036040903579
 20
261.2682657603722
 30
0.0
 11
1241.036040903579
 21
281.2682657603722
 31
0.0
  0
LINE
  5
668
330
19
100
AcDbEntity
  8
SEIHIN
  6
CONTINUOUS
 62
     3
100
AcDbLine
 10
1229.710640903579
 20
282.7505657603722
 30
0.0
 11
1229.036040903579
 21
285.2682657603722
 31
0.0
  0
ARC
  5
669
330
19
100
AcDbEntity
  8
SEIHIN
  6
CONTINUOUS
 62
     3
100
AcDbCircle
 10
1231.642540903579
 20
283.2682657603722
 30
0.0
 40
2.000031
100
AcDbArc
 50
195.001355
 51
270.0
  0
ARC
  5
66A
330
19
100
AcDbEntity
  8
SEIHIN
  6
CONTINUOUS
 62
     3
100
AcDbCircle
 10
1185.165040903579
 20
337.2682657603722
 30
0.0
 40
6.000016
100
AcDbArc
 50
188.948648
 51
270.0
  0
ARC
  5
66B
330
19
100
AcDbEntity
  8
SEIHIN
  6
CONTINUOUS
 62
     3
100
AcDbCircle
 10
1223.036040903579
 20
325.2682657603723
 30
0.0
 40
6.0
100
AcDbArc
 50
0.0
 51
90.0
  0
LINE
  5
66D
330
19
100
AcDbEntity
  8
SEIHIN
  6
CONTINUOUS
 62
     3
100
AcDbLine
 10
1351.035840903579
 20
285.2682657603722
 30
0.0
 11
1351.035840903579
 21
325.2682657603723
 31
0.0
  0
LINE
  5
66E
330
19
100
AcDbEntity
  8
SEIHIN
  6
CONTINUOUS
 62
     3
100
AcDbLine
 10
1348.429340903579
 20
281.2682657603722
 30
0.0
 11
1290.035940903579
 21
281.2682657603722
 31
0.0
  0
LINE
  5
66F
330
19
100
AcDbEntity
  8
SEIHIN
  6
CONTINUOUS
 62
     3
100
AcDbLine
 10
1351.035840903579
 20
285.2682657603722
 30
0.0
 11
1290.035940903579
 21
285.2682657603722
 31
0.0
  0
LINE
  5
670
330
19
100
AcDbEntity
  8
SEIHIN
  6
CONTINUOUS
 62
     3
100
AcDbLine
 10
1339.035840903579
 20
261.2682657603722
 30
0.0
 11
1339.035840903579
 21
281.2682657603722
 31
0.0
  0
LINE
  5
671
330
19
100
AcDbEntity
  8
SEIHIN
  6
CONTINUOUS
 62
     3
100
AcDbLine
 10
1339.035840903579
 20
261.2682657603722
 30
0.0
 11
1290.035940903579
 21
261.2682657603722
 31
0.0
  0
LINE
  5
672
330
19
100
AcDbEntity
  8
SEIHIN
  6
CONTINUOUS
 62
     3
100
AcDbLine
 10
1350.361240903579
 20
282.7505657603722
 30
0.0
 11
1351.035840903579
 21
285.2682657603722
 31
0.0
  0
ARC
  5
673
330
19
100
AcDbEntity
  8
SEIHIN
  6
CONTINUOUS
 62
     3
100
AcDbCircle
 10
1348.429340903579
 20
283.2682657603722
 30
0.0
 40
2.000031
100
AcDbArc
 50
270.0
 51
344.998645
  0
LINE
  5
674
330
19
100
AcDbEntity
  8
SEIHIN
  6
CONTINUOUS
 62
     3
100
AcDbLine
 10
1394.906840903579
 20
331.2682657603723
 30
0.0
 11
1290.035940903579
 21
331.2682657603723
 31
0.0
  0
ARC
  5
675
330
19
100
AcDbEntity
  8
SEIHIN
  6
CONTINUOUS
 62
     3
100
AcDbCircle
 10
1357.035840903579
 20
325.2682657603723
 30
0.0
 40
6.0
100
AcDbArc
 50
90.0
 51
180.0
  0
ARC
  5
677
330
19
100
AcDbEntity
  8
SEIHIN
  6
CONTINUOUS
 62
     3
100
AcDbCircle
 10
1394.906840903579
 20
337.2682657603722
 30
0.0
 40
6.000023999999999
100
AcDbArc
 50
270.0
 51
351.050408
  0
ARC
  5
678
330
19
100
AcDbEntity
  8
SEIHIN
  6
CONTINUOUS
 62
     3
100
AcDbCircle
 10
1190.035940903579
 20
591.7683657603722
 30
0.0
 40
3.5
100
AcDbArc
 50
180.0
 51
0.0
  0
ARC
  5
679
330
19
100
AcDbEntity
  8
SEIHIN
  6
CONTINUOUS
 62
     3
100
AcDbCircle
 10
1390.035940903579
 20
591.7683657603722
 30
0.0
 40
3.5
100
AcDbArc
 50
180.0
 51
0.0
  0
LINE
  5
67C
330
19
100
AcDbEntity
  8
SEIHIN
  6
CONTINUOUS
 62
     3
100
AcDbLine
 10
1290.035940903579
 20
621.2683657603722
 30
0.0
 11
1426.035540903579
 21
621.2683657603722
 31
0.0
  0
LINE
  5
681
330
19
100
AcDbEntity
  8
SEIHIN
  6
CONTINUOUS
 62
     3
100
AcDbLine
 10
1290.035940903579
 20
621.2683657603722
 30
0.0
 11
1154.036340903579
 21
621.2683657603722
 31
0.0
  0
LINE
  5
686
330
19
100
AcDbEntity
  8
SEIHIN
  6
CONTINUOUS
 62
     3
100
AcDbLine
 10
1155.036340903579
 20
606.2683657603722
 30
0.0
 11
1154.036340903579
 21
621.2683657603722
 31
0.0
  0
LINE
  5
687
330
19
100
AcDbEntity
  8
SEIHIN
  6
CONTINUOUS
 62
     3
100
AcDbLine
 10
1160.037040903579
 20
603.2683657603723
 30
0.0
 11
1155.036340903579
 21
606.2683657603722
 31
0.0
  0
LINE
  5
68B
330
19
100
AcDbEntity
  8
CENTER_L
  6
CENTER
 62
     1
 48
5.0
100
AcDbLine
 10
1178.436540903579
 20
596.2683657603722
 30
0.0
 11
1202.299040903579
 21
596.2683657603722
 31
0.0
  0
ARC
  5
68C
330
19
100
AcDbEntity
  8
SEIHIN
  6
CONTINUOUS
 62
     3
100
AcDbCircle
 10
1190.035940903579
 20
600.7683657603722
 30
0.0
 40
3.5
100
AcDbArc
 50
0.0
 51
180.0
  0
LINE
  5
690
330
19
100
AcDbEntity
  8
SEIHIN
  6
CONTINUOUS
 62
     3
100
AcDbLine
 10
1186.535940903579
 20
599.7683657603722
 30
0.0
 11
1186.535940903579
 21
600.7683657603722
 31
0.0
  0
LINE
  5
691
330
19
100
AcDbEntity
  8
SEIHIN
  6
CONTINUOUS
 62
     3
100
AcDbLine
 10
1186.535940903579
 20
592.7683657603722
 30
0.0
 11
1185.535940903579
 21
592.7683657603722
 31
0.0
  0
LINE
  5
692
330
19
100
AcDbEntity
  8
SEIHIN
  6
CONTINUOUS
 62
     3
100
AcDbLine
 10
1186.535940903579
 20
599.7683657603722
 30
0.0
 11
1185.535940903579
 21
599.7683657603722
 31
0.0
  0
ARC
  5
693
330
19
100
AcDbEntity
  8
SEIHIN
  6
CONTINUOUS
 62
     3
100
AcDbCircle
 10
1185.535940903579
 20
596.2683657603722
 30
0.0
 40
3.5
100
AcDbArc
 50
90.0
 51
270.0
  0
ARC
  5
694
330
19
100
AcDbEntity
  8
SEIHIN
  6
CONTINUOUS
 62
     3
100
AcDbCircle
 10
1194.535940903579
 20
596.2683657603722
 30
0.0
 40
3.5
100
AcDbArc
 50
270.0
 51
90.0
  0
LINE
  5
695
330
19
100
AcDbEntity
  8
SEIHIN
  6
CONTINUOUS
 62
     3
100
AcDbLine
 10
1193.535940903579
 20
599.7683657603722
 30
0.0
 11
1194.535940903579
 21
599.7683657603722
 31
0.0
  0
LINE
  5
696
330
19
100
AcDbEntity
  8
SEIHIN
  6
CONTINUOUS
 62
     3
100
AcDbLine
 10
1193.535940903579
 20
592.7683657603722
 30
0.0
 11
1194.535940903579
 21
592.7683657603722
 31
0.0
  0
LINE
  5
697
330
19
100
AcDbEntity
  8
SEIHIN
  6
CONTINUOUS
 62
     3
100
AcDbLine
 10
1193.535940903579
 20
599.7683657603722
 30
0.0
 11
1193.535940903579
 21
600.7683657603722
 31
0.0
  0
LINE
  5
69B
330
19
100
AcDbEntity
  8
CENTER_L
  6
CENTER
 62
     1
 48
5.0
100
AcDbLine
 10
1378.436540903579
 20
596.2683657603722
 30
0.0
 11
1402.299040903579
 21
596.2683657603722
 31
0.0
  0
ARC
  5
69C
330
19
100
AcDbEntity
  8
SEIHIN
  6
CONTINUOUS
 62
     3
100
AcDbCircle
 10
1390.035940903579
 20
600.7683657603722
 30
0.0
 40
3.5
100
AcDbArc
 50
0.0
 51
180.0
  0
ARC
  5
69D
330
19
100
AcDbEntity
  8
SEIHIN
  6
CONTINUOUS
 62
     3
100
AcDbCircle
 10
1385.535940903579
 20
596.2683657603722
 30
0.0
 40
3.5
100
AcDbArc
 50
90.0
 51
270.0
  0
LINE
  5
69E
330
19
100
AcDbEntity
  8
SEIHIN
  6
CONTINUOUS
 62
     3
100
AcDbLine
 10
1386.535940903579
 20
599.7683657603722
 30
0.0
 11
1386.535940903579
 21
600.7683657603722
 31
0.0
  0
LINE
  5
69F
330
19
100
AcDbEntity
  8
SEIHIN
  6
CONTINUOUS
 62
     3
100
AcDbLine
 10
1386.535940903579
 20
592.7683657603722
 30
0.0
 11
1385.535940903579
 21
592.7683657603722
 31
0.0
  0
LINE
  5
6A0
330
19
100
AcDbEntity
  8
SEIHIN
  6
CONTINUOUS
 62
     3
100
AcDbLine
 10
1386.535940903579
 20
599.7683657603722
 30
0.0
 11
1385.535940903579
 21
599.7683657603722
 31
0.0
  0
LINE
  5
6A3
330
19
100
AcDbEntity
  8
SEIHIN
  6
CONTINUOUS
 62
     3
100
AcDbLine
 10
1393.535940903579
 20
599.7683657603722
 30
0.0
 11
1394.535940903579
 21
599.7683657603722
 31
0.0
  0
LINE
  5
6A4
330
19
100
AcDbEntity
  8
SEIHIN
  6
CONTINUOUS
 62
     3
100
AcDbLine
 10
1393.535940903579
 20
592.7683657603722
 30
0.0
 11
1394.535940903579
 21
592.7683657603722
 31
0.0
  0
LINE
  5
6A5
330
19
100
AcDbEntity
  8
SEIHIN
  6
CONTINUOUS
 62
     3
100
AcDbLine
 10
1393.535940903579
 20
599.7683657603722
 30
0.0
 11
1393.535940903579
 21
600.7683657603722
 31
0.0
  0
ARC
  5
6A6
330
19
100
AcDbEntity
  8
SEIHIN
  6
CONTINUOUS
 62
     3
100
AcDbCircle
 10
1394.535940903579
 20
596.2683657603722
 30
0.0
 40
3.5
100
AcDbArc
 50
270.0
 51
90.0
  0
LINE
  5
6A9
330
19
100
AcDbEntity
  8
SEIHIN
  6
CONTINUOUS
 62
     3
100
AcDbLine
 10
1425.035540903579
 20
606.2683657603722
 30
0.0
 11
1426.035540903579
 21
621.2683657603722
 31
0.0
  0
LINE
  5
6AA
330
19
100
AcDbEntity
  8
SEIHIN
  6
CONTINUOUS
 62
     3
100
AcDbLine
 10
1420.034840903579
 20
603.2683657603723
 30
0.0
 11
1425.035540903579
 21
606.2683657603722
 31
0.0
  0
DIMENSION
  5
733
330
19
100
AcDbEntity
  8
SUNPOU
  6
CONTINUOUS
 62
     4
100
AcDbDimension
  2
*D5
 10
1186.535940903579
 20
646.5355636314638
 30
0.0
 11
1229.535940903579
 21
656.5355636314639
 31
0.0
 12
-72.86642544334245
 22
-2.172105304899105
 32
0.0
 70
    32
  3
STANDARD
100
AcDbAlignedDimension
 13
1193.535940903579
 23
600.7683657603722
 33
0.0
 14
1186.535940903579
 24
600.7683657603722
 34
0.0
100
AcDbRotatedDimension
1001
ACAD
1000
DSTYLE
1002
{
1070
   140
1040
12.0
1070
    74
1070
     0
1070
   172
1070
     1
1070
    73
1070
     0
1070
   272
1070
     2
1070
    77
1070
     3
1070
   173
1070
     1
1070
   280
1070
     1
1070
   147
1040
4.0
1070
    42
1040
12.0
1070
    44
1040
6.0
1070
    43
1040
28.0
1070
   271
1070
     0
1070
   178
1070
     4
1070
   177
1070
     4
1070
   176
1070
     4
1070
   141
1040
150.0
1070
     7
1000
_OPEN
1070
     6
1000
_OPEN
1070
    41
1040
14.0
1070
   143
1040
0.03937
1002
}
  0
MTEXT
  5
76A
330
19
100
AcDbEntity
  8
SUNPOU
  6
CONTINUOUS
100
AcDbMText
 10
360.1002048753207
 20
616.1352705185227
 30
0.0
 40
19.8
 41
4.138731783448747
 71
     1
 72
     1
  1

1001
ACAD
1000
MTEXTBEGIN
1070
    73
1070
     1
1070
    44
1040
1.0
1070
    74
1070
     0
1000
MTEXTEND
1000
MTEXTBEGIN
1070
    73
1070
     1
1070
    44
1040
1.0
1070
    74
1070
     0
1000
MTEXTEND
1000
MTEXTBEGIN
1070
    73
1070
     1
1070
    44
1040
1.0
1070
    74
1070
     0
1000
MTEXTEND
  0
DIMENSION
  5
7B9
330
19
100
AcDbEntity
  8
SUNPOU
  6
CONTINUOUS
 62
     4
100
AcDbDimension
  2
*D6
 10
852.254340903579
 20
160.2675444931351
 30
0.0
 11
914.2542731803128
 21
170.2675444931351
 31
0.0
 12
-43.79501027914921
 22
6.891798616263713
 32
0.0
 70
    32
  3
STANDARD
100
AcDbAlignedDimension
 13
976.2542054570467
 23
331.2682657603723
 33
0.0
 14
852.254340903579
 24
241.5161657603722
 34
0.0
100
AcDbRotatedDimension
1001
ACAD
1000
DSTYLE
1002
{
1070
   140
1040
12.0
1070
    74
1070
     0
1070
   172
1070
     1
1070
    73
1070
     0
1070
   272
1070
     2
1070
    77
1070
     3
1070
   173
1070
     1
1070
   147
1040
4.0
1070
    42
1040
12.0
1070
    44
1040
6.0
1070
    43
1040
28.0
1070
   271
1070
     0
1070
   178
1070
     4
1070
   177
1070
     4
1070
   176
1070
     4
1070
   141
1040
150.0
1070
     7
1000
_OPEN
1070
     6
1000
_OPEN
1070
    41
1040
14.0
1070
   143
1040
0.03937
1002
}
  0
LINE
  5
7FB
330
19
100
AcDbEntity
  8
SEIHIN
  6
CONTINUOUS
 62
     3
100
AcDbLine
 10
938.877441331623
 20
772.8434630466188
 30
0.0
 11
726.2549413316229
 21
805.6947630466186
 31
0.0
  0
LINE
  5
7FC
330
19
100
AcDbEntity
  8
SEIHIN
  6
CONTINUOUS
 62
     3
100
AcDbLine
 10
726.2549413316229
 20
800.6454630466189
 30
0.0
 11
938.507641331623
 21
767.8514630466188
 31
0.0
  0
LINE
  5
7FD
330
19
100
AcDbEntity
  8
SEIHIN
  6
CONTINUOUS
 62
     3
100
AcDbLine
 10
718.0393413316229
 20
801.0218630466187
 30
0.0
 11
938.4396413316228
 21
766.9689630466189
 31
0.0
  0
LINE
  5
7FE
330
19
100
AcDbEntity
  8
SEIHIN
  6
CONTINUOUS
 62
     3
100
AcDbLine
 10
938.252241331623
 20
763.9623630466187
 30
0.0
 11
717.5751413316229
 21
798.0580630466188
 31
0.0
  0
LINE
  5
7FF
330
19
100
AcDbEntity
  8
SEIHIN
  6
CONTINUOUS
 62
     3
100
AcDbLine
 10
940.391741331623
 20
792.3207630466188
 30
0.0
 11
739.583541331623
 21
823.3465630466186
 31
0.0
  0
LINE
  5
800
330
19
100
AcDbEntity
  8
SEIHIN
  6
CONTINUOUS
 62
     3
100
AcDbLine
 10
726.2549413316229
 20
999.2788630466188
 30
0.0
 11
938.5078413316231
 21
1032.072663046618
 31
0.0
  0
LINE
  5
801
330
19
100
AcDbEntity
  8
SEIHIN
  6
CONTINUOUS
 62
     3
100
AcDbLine
 10
940.391841331623
 20
1007.603463046618
 30
0.0
 11
739.583641331623
 21
976.5777630466189
 31
0.0
  0
LINE
  5
802
330
19
100
AcDbEntity
  8
SEIHIN
  6
CONTINUOUS
 62
     3
100
AcDbLine
 10
938.877541331623
 20
1027.080663046618
 30
0.0
 11
726.2549413316229
 21
994.2296630466186
 31
0.0
  0
LINE
  5
803
330
19
100
AcDbEntity
  8
SEIHIN
  6
CONTINUOUS
 62
     3
100
AcDbLine
 10
718.0393413316229
 20
998.9023630466189
 30
0.0
 11
938.4399413316229
 21
1032.955163046618
 31
0.0
  0
LINE
  5
804
330
19
100
AcDbEntity
  8
SEIHIN
  6
CONTINUOUS
 62
     3
100
AcDbLine
 10
938.2524413316231
 20
1035.961763046618
 30
0.0
 11
717.575241331623
 21
1001.866263046618
 31
0.0
  0
LINE
  5
805
330
19
100
AcDbEntity
  8
CENTER_L
  6
CENTER
 62
     1
 48
5.0
100
AcDbLine
 10
694.591541331623
 20
899.9621630466188
 30
0.0
 11
990.2928413316228
 21
899.9620630466187
 31
0.0
  0
ARC
  5
806
330
19
100
AcDbEntity
  8
SEIHIN
  6
CONTINUOUS
 62
     3
100
AcDbCircle
 10
740.0415413316229
 20
826.3114630466187
 30
0.0
 40
3.000033
100
AcDbArc
 50
180.0
 51
261.218699
  0
LINE
  5
807
330
19
100
AcDbEntity
  8
SEIHIN
  6
CONTINUOUS
 62
     3
100
AcDbLine
 10
712.1430413316229
 20
899.9628630466188
 30
0.0
 11
712.143241331623
 21
809.6847630466188
 31
0.0
  0
LINE
  5
808
330
19
100
AcDbEntity
  8
SEIHIN
  6
CONTINUOUS
 62
     3
100
AcDbLine
 10
711.2607413316229
 20
899.9628630466188
 30
0.0
 11
711.2607413316229
 21
808.9281630466187
 31
0.0
  0
LINE
  5
809
330
19
100
AcDbEntity
  8
SEIHIN
  6
CONTINUOUS
 62
     3
100
AcDbLine
 10
708.254741331623
 20
899.9628630466188
 30
0.0
 11
708.2549413316229
 21
808.9291630466188
 31
0.0
  0
LINE
  5
80A
330
19
100
AcDbEntity
  8
SEIHIN
  6
CONTINUOUS
 62
     3
100
AcDbLine
 10
717.131641331623
 20
899.9626630466188
 30
0.0
 11
717.1318413316229
 21
809.6761630466186
 31
0.0
  0
LINE
  5
80B
330
19
100
AcDbEntity
  8
SEIHIN
  6
CONTINUOUS
 62
     3
100
AcDbLine
 10
719.118041331623
 20
991.1606630466188
 30
0.0
 11
737.041741331623
 21
976.1850630466188
 31
0.0
  0
LINE
  5
80C
330
19
100
AcDbEntity
  8
SEIHIN
  6
CONTINUOUS
 62
     3
100
AcDbLine
 10
711.260541331623
 20
899.9617630466188
 30
0.0
 11
711.260841331623
 21
990.9962630466189
 31
0.0
  0
LINE
  5
80D
330
19
100
AcDbEntity
  8
SEIHIN
  6
CONTINUOUS
 62
     3
100
AcDbLine
 10
708.2546413316229
 20
899.9617630466188
 30
0.0
 11
708.2549413316229
 21
990.995263046619
 31
0.0
  0
LINE
  5
80E
330
19
100
AcDbEntity
  8
SEIHIN
  6
CONTINUOUS
 62
     3
100
AcDbLine
 10
712.142941331623
 20
899.9617630466188
 30
0.0
 11
712.143241331623
 21
990.2396630466189
 31
0.0
  0
LINE
  5
80F
330
19
100
AcDbEntity
  8
SEIHIN
  6
CONTINUOUS
 62
     3
100
AcDbLine
 10
717.131641331623
 20
899.9617630466188
 30
0.0
 11
717.131941331623
 21
990.2480630466188
 31
0.0
  0
ARC
  5
810
330
19
100
AcDbEntity
  8
SEIHIN
  6
CONTINUOUS
 62
     3
100
AcDbCircle
 10
719.260841331623
 20
990.9961630466188
 30
0.0
 40
8.000002
100
AcDbArc
 50
98.78269900000002
 51
180.0
  0
ARC
  5
811
330
19
100
AcDbEntity
  8
SEIHIN
  6
CONTINUOUS
 62
     3
100
AcDbCircle
 10
720.143241331623
 20
990.2395630466187
 30
0.0
 40
8.000010000000001
100
AcDbArc
 50
98.78340700000002
 51
180.0
  0
ARC
  5
812
330
19
100
AcDbEntity
  8
SEIHIN
  6
CONTINUOUS
 62
     3
100
AcDbCircle
 10
719.2549413316229
 20
990.995263046619
 30
0.0
 40
11.00000099999999
100
AcDbArc
 50
98.78342699999999
 51
179.999479
  0
ARC
  5
813
330
19
100
AcDbEntity
  8
SEIHIN
  6
CONTINUOUS
 62
     3
100
AcDbCircle
 10
720.1319413316229
 20
990.2479630466189
 30
0.0
 40
2.999983999999999
100
AcDbArc
 50
98.781592
 51
180.0
  0
LINE
  5
814
330
19
100
AcDbEntity
  8
SEIHIN
  6
CONTINUOUS
 62
     3
100
AcDbLine
 10
720.2549413316229
 20
993.3026630466187
 30
0.0
 11
719.673941331623
 21
993.2128630466188
 31
0.0
  0
LINE
  5
815
330
19
100
AcDbEntity
  8
SEIHIN
  6
CONTINUOUS
 62
     3
100
AcDbLine
 10
720.2549413316229
 20
996.2168630466187
 30
0.0
 11
726.2549413316229
 21
997.1438630466188
 31
0.0
  0
LINE
  5
816
330
19
100
AcDbEntity
  8
SEIHIN
  6
CONTINUOUS
 62
     3
100
AcDbLine
 10
726.2549413316229
 20
1000.171663046618
 30
0.0
 11
726.2549413316229
 21
994.0980630466187
 31
0.0
  0
LINE
  5
817
330
19
100
AcDbEntity
  8
SEIHIN
  6
CONTINUOUS
 62
     3
100
AcDbLine
 10
718.9216413316231
 20
998.1457630466188
 30
0.0
 11
720.2549413316229
 21
998.3517630466188
 31
0.0
  0
LINE
  5
818
330
19
100
AcDbEntity
  8
SEIHIN
  6
CONTINUOUS
 62
     3
100
AcDbLine
 10
720.2549413316229
 20
993.1710630466188
 30
0.0
 11
726.2549413316229
 21
994.0980630466187
 31
0.0
  0
LINE
  5
819
330
19
100
AcDbEntity
  8
SEIHIN
  6
CONTINUOUS
 62
     3
100
AcDbLine
 10
720.2549413316229
 20
999.2446630466188
 30
0.0
 11
720.2549413316229
 21
993.1710630466188
 31
0.0
  0
LINE
  5
81A
330
19
100
AcDbEntity
  8
SEIHIN
  6
CONTINUOUS
 62
     3
100
AcDbLine
 10
737.041441331623
 20
899.9615630466189
 30
0.0
 11
737.041741331623
 21
973.6129630466187
 31
0.0
  0
LINE
  5
81B
330
19
100
AcDbEntity
  8
CENTER_L
  6
CENTER
 62
     1
 48
5.0
100
AcDbLine
 10
852.254241331623
 20
830.4076630466187
 30
0.0
 11
852.2544413316229
 21
970.1145630466188
 31
0.0
  0
ARC
  5
81C
330
19
100
AcDbEntity
  8
SEIHIN
  6
CONTINUOUS
 62
     3
100
AcDbCircle
 10
740.041741331623
 20
973.6129630466187
 30
0.0
 40
2.999990999999999
100
AcDbArc
 50
98.78348000000002
 51
180.0
  0
ARC
  5
81D
330
19
100
AcDbEntity
  8
SEIHIN
  6
CONTINUOUS
 62
     3
100
AcDbCircle
 10
852.254041331623
 20
899.962463046619
 30
0.0
 40
46.5
100
AcDbArc
 50
270.0
 51
269.999877
  0
LINE
  5
81E
330
19
100
AcDbEntity
  8
SEIHIN
  6
CONTINUOUS
 62
     3
100
AcDbLine
 10
737.041441331623
 20
899.9626630466188
 30
0.0
 11
737.041741331623
 21
826.3114630466187
 31
0.0
  0
LINE
  5
81F
330
19
100
AcDbEntity
  8
SEIHIN
  6
CONTINUOUS
 62
     3
100
AcDbLine
 10
719.118041331623
 20
808.7635630466188
 30
0.0
 11
737.041741331623
 21
823.7391630466188
 31
0.0
  0
ARC
  5
820
330
19
100
AcDbEntity
  8
SEIHIN
  6
CONTINUOUS
 62
     3
100
AcDbCircle
 10
720.143241331623
 20
809.6847630466188
 30
0.0
 40
8.000010000000001
100
AcDbArc
 50
180.0
 51
261.2165929999999
  0
ARC
  5
821
330
19
100
AcDbEntity
  8
SEIHIN
  6
CONTINUOUS
 62
     3
100
AcDbCircle
 10
719.260841331623
 20
808.9281630466187
 30
0.0
 40
8.000002
100
AcDbArc
 50
180.0
 51
261.2173009999999
  0
ARC
  5
822
330
19
100
AcDbEntity
  8
SEIHIN
  6
CONTINUOUS
 62
     3
100
AcDbCircle
 10
719.254741331623
 20
808.9291630466188
 30
0.0
 40
11.00004299999999
100
AcDbArc
 50
180.0
 51
261.217167
  0
ARC
  5
823
330
19
100
AcDbEntity
  8
SEIHIN
  6
CONTINUOUS
 62
     3
100
AcDbCircle
 10
720.1319413316229
 20
809.6764630466189
 30
0.0
 40
3.000033
100
AcDbArc
 50
180.0
 51
261.218699
  0
LINE
  5
824
330
19
100
AcDbEntity
  8
SEIHIN
  6
CONTINUOUS
 62
     3
100
AcDbLine
 10
726.2549413316229
 20
799.7526630466189
 30
0.0
 11
726.2549413316229
 21
805.8263630466187
 31
0.0
  0
LINE
  5
825
330
19
100
AcDbEntity
  8
SEIHIN
  6
CONTINUOUS
 62
     3
100
AcDbLine
 10
720.2549413316229
 20
803.7074630466188
 30
0.0
 11
726.2549413316229
 21
802.7804630466187
 31
0.0
  0
LINE
  5
826
330
19
100
AcDbEntity
  8
SEIHIN
  6
CONTINUOUS
 62
     3
100
AcDbLine
 10
718.9216413316231
 20
801.7784630466188
 30
0.0
 11
720.2549413316229
 21
801.5726630466188
 31
0.0
  0
LINE
  5
827
330
19
100
AcDbEntity
  8
SEIHIN
  6
CONTINUOUS
 62
     3
100
AcDbLine
 10
720.2549413316229
 20
806.6217630466187
 30
0.0
 11
719.673941331623
 21
806.7115630466188
 31
0.0
  0
LINE
  5
828
330
19
100
AcDbEntity
  8
SEIHIN
  6
CONTINUOUS
 62
     3
100
AcDbLine
 10
720.2549413316229
 20
800.6796630466187
 30
0.0
 11
720.2549413316229
 21
806.7533630466188
 31
0.0
  0
LINE
  5
829
330
19
100
AcDbEntity
  8
SEIHIN
  6
CONTINUOUS
 62
     3
100
AcDbLine
 10
720.2549413316229
 20
806.7533630466188
 30
0.0
 11
726.2549413316229
 21
805.8263630466187
 31
0.0
  0
LINE
  5
82A
330
19
100
AcDbEntity
  8
SEIHIN
  6
CONTINUOUS
 62
     3
100
AcDbLine
 10
975.7538413316231
 20
899.9626630466188
 30
0.0
 11
975.7538413316231
 21
769.9689630466189
 31
0.0
  0
LINE
  5
82B
330
19
100
AcDbEntity
  8
SEIHIN
  6
CONTINUOUS
 62
     3
100
AcDbLine
 10
979.2538413316231
 20
899.9628630466188
 30
0.0
 11
979.2538413316231
 21
769.9623630466187
 31
0.0
  0
LINE
  5
82C
330
19
100
AcDbEntity
  8
SEIHIN
  6
CONTINUOUS
 62
     3
100
AcDbLine
 10
972.784841331623
 20
899.9626630466188
 30
0.0
 11
972.784841331623
 21
795.3207630466188
 31
0.0
  0
LINE
  5
82D
330
19
100
AcDbEntity
  8
SEIHIN
  6
CONTINUOUS
 62
     3
100
AcDbLine
 10
975.7538413316231
 20
899.9613630466187
 30
0.0
 11
975.7538413316231
 21
1029.955163046618
 31
0.0
  0
LINE
  5
82E
330
19
100
AcDbEntity
  8
SEIHIN
  6
CONTINUOUS
 62
     3
100
AcDbLine
 10
972.784841331623
 20
899.9613630466187
 30
0.0
 11
972.784841331623
 21
1004.603463046618
 31
0.0
  0
LINE
  5
82F
330
19
100
AcDbEntity
  8
SEIHIN
  6
CONTINUOUS
 62
     3
100
AcDbLine
 10
979.2538413316231
 20
899.9613630466187
 30
0.0
 11
979.2548413316229
 21
1029.961763046618
 31
0.0
  0
LINE
  5
830
330
19
100
AcDbEntity
  8
SEIHIN
  6
CONTINUOUS
 62
     3
100
AcDbLine
 10
938.877541331623
 20
1027.080663046618
 30
0.0
 11
940.391841331623
 21
1007.603463046618
 31
0.0
  0
ARC
  5
831
330
19
100
AcDbEntity
  8
SEIHIN
  6
CONTINUOUS
 62
     3
100
AcDbCircle
 10
965.2548413316228
 20
1028.824163046618
 30
0.0
 40
2.0
100
AcDbArc
 50
0.0
 51
90.0
  0
LINE
  5
832
330
19
100
AcDbEntity
  8
SEIHIN
  6
CONTINUOUS
 62
     3
100
AcDbLine
 10
957.2548413316228
 20
1027.816463046618
 30
0.0
 11
967.2548413316228
 21
1027.816463046618
 31
0.0
  0
LINE
  5
833
330
19
100
AcDbEntity
  8
SEIHIN
  6
CONTINUOUS
 62
     3
100
AcDbLine
 10
938.5078413316231
 20
1032.072663046618
 30
0.0
 11
972.7538413316231
 21
1032.072663046618
 31
0.0
  0
LINE
  5
834
330
19
100
AcDbEntity
  8
SEIHIN
  6
CONTINUOUS
 62
     3
100
AcDbLine
 10
938.4399413316229
 20
1032.955163046618
 30
0.0
 11
972.7538413316231
 21
1032.955163046618
 31
0.0
  0
LINE
  5
835
330
19
100
AcDbEntity
  8
SEIHIN
  6
CONTINUOUS
 62
     3
100
AcDbLine
 10
938.2524413316231
 20
1035.961763046618
 30
0.0
 11
973.2548413316228
 21
1035.961763046618
 31
0.0
  0
LINE
  5
836
330
19
100
AcDbEntity
  8
SEIHIN
  6
CONTINUOUS
 62
     3
100
AcDbLine
 10
938.877541331623
 20
1027.080663046618
 30
0.0
 11
957.2548413316228
 21
1027.080663046618
 31
0.0
  0
ARC
  5
837
330
19
100
AcDbEntity
  8
SEIHIN
  6
CONTINUOUS
 62
     3
100
AcDbCircle
 10
959.2548413316228
 20
1028.824163046618
 30
0.0
 40
2.0
100
AcDbArc
 50
90.0
 51
180.0
  0
LINE
  5
838
330
19
100
AcDbEntity
  8
SEIHIN
  6
CONTINUOUS
 62
     3
100
AcDbLine
 10
957.2548413316228
 20
1028.824163046618
 30
0.0
 11
957.2548413316228
 21
1027.080763046618
 31
0.0
  0
LINE
  5
839
330
19
100
AcDbEntity
  8
SEIHIN
  6
CONTINUOUS
 62
     3
100
AcDbLine
 10
959.2548413316228
 20
1030.824163046618
 30
0.0
 11
965.2548413316228
 21
1030.824163046618
 31
0.0
  0
ARC
  5
83A
330
19
100
AcDbEntity
  8
SEIHIN
  6
CONTINUOUS
 62
     3
100
AcDbCircle
 10
972.7538413316231
 20
1029.955163046618
 30
0.0
 40
3.0
100
AcDbArc
 50
0.0
 51
90.0
  0
ARC
  5
83B
330
19
100
AcDbEntity
  8
SEIHIN
  6
CONTINUOUS
 62
     3
100
AcDbCircle
 10
972.7538413316231
 20
1029.072663046618
 30
0.0
 40
3.0
100
AcDbArc
 50
0.0
 51
90.0
  0
LINE
  5
83C
330
19
100
AcDbEntity
  8
SEIHIN
  6
CONTINUOUS
 62
     3
100
AcDbLine
 10
967.2548413316228
 20
1028.824163046618
 30
0.0
 11
967.2548413316228
 21
1027.080663046618
 31
0.0
  0
LINE
  5
83D
330
19
100
AcDbEntity
  8
SEIHIN
  6
CONTINUOUS
 62
     3
100
AcDbLine
 10
967.2548413316228
 20
1027.080663046618
 30
0.0
 11
972.7538413316231
 21
1027.080663046618
 31
0.0
  0
ARC
  5
83E
330
19
100
AcDbEntity
  8
SEIHIN
  6
CONTINUOUS
 62
     3
100
AcDbCircle
 10
973.2548413316228
 20
1029.961763046618
 30
0.0
 40
5.9995
100
AcDbArc
 50
359.999045
 51
90.0
  0
ARC
  5
83F
330
19
100
AcDbEntity
  8
SEIHIN
  6
CONTINUOUS
 62
     3
100
AcDbCircle
 10
972.7538413316231
 20
1024.080663046618
 30
0.0
 40
3.0
100
AcDbArc
 50
0.0
 51
90.0
  0
LINE
  5
840
330
19
100
AcDbEntity
  8
SEIHIN
  6
CONTINUOUS
 62
     3
100
AcDbLine
 10
940.391841331623
 20
1007.603463046618
 30
0.0
 11
969.7848413316231
 21
1007.603463046618
 31
0.0
  0
ARC
  5
841
330
19
100
AcDbEntity
  8
SEIHIN
  6
CONTINUOUS
 62
     3
100
AcDbCircle
 10
969.7848413316231
 20
1004.603463046618
 30
0.0
 40
3.0
100
AcDbArc
 50
0.0
 51
90.0
  0
LINE
  5
842
330
19
100
AcDbEntity
  8
SEIHIN
  6
CONTINUOUS
 62
     3
100
AcDbLine
 10
975.0458413316231
 20
1022.434363046619
 30
0.0
 11
972.784841331623
 21
1007.603363046618
 31
0.0
  0
LINE
  5
843
330
19
100
AcDbEntity
  8
SEIHIN
  6
CONTINUOUS
 62
     3
100
AcDbLine
 10
979.2538413316231
 20
976.9620630466189
 30
0.0
 11
975.7538413316231
 21
976.9620630466189
 31
0.0
  0
LINE
  5
844
330
19
100
AcDbEntity
  8
SEIHIN
  6
CONTINUOUS
 62
     3
100
AcDbLine
 10
979.2538413316231
 20
960.4620630466188
 30
0.0
 11
975.7538413316231
 21
960.4620630466188
 31
0.0
  0
LINE
  5
845
330
19
100
AcDbEntity
  8
SEIHIN
  6
CONTINUOUS
 62
     3
100
AcDbLine
 10
979.2538413316231
 20
972.9620630466188
 30
0.0
 11
975.7538413316231
 21
972.9620630466188
 31
0.0
  0
LINE
  5
846
330
19
100
AcDbEntity
  8
SEIHIN
  6
CONTINUOUS
 62
     3
100
AcDbLine
 10
979.2538413316231
 20
964.4620630466189
 30
0.0
 11
975.7538413316231
 21
964.4620630466189
 31
0.0
  0
LINE
  5
847
330
19
100
AcDbEntity
  8
SEIHIN
  6
CONTINUOUS
 62
     3
100
AcDbLine
 10
979.2538413316231
 20
951.9620630466189
 30
0.0
 11
975.7538413316231
 21
951.9620630466189
 31
0.0
  0
LINE
  5
848
330
19
100
AcDbEntity
  8
SEIHIN
  6
CONTINUOUS
 62
     3
100
AcDbLine
 10
979.2538413316231
 20
947.9620630466188
 30
0.0
 11
975.7538413316231
 21
947.9620630466188
 31
0.0
  0
LINE
  5
849
330
19
100
AcDbEntity
  8
SEIHIN
  6
CONTINUOUS
 62
     3
100
AcDbLine
 10
979.2538413316231
 20
851.9620630466189
 30
0.0
 11
975.7538413316231
 21
851.9620630466189
 31
0.0
  0
LINE
  5
84A
330
19
100
AcDbEntity
  8
SEIHIN
  6
CONTINUOUS
 62
     3
100
AcDbLine
 10
979.2538413316231
 20
847.9620630466188
 30
0.0
 11
975.7538413316231
 21
847.9620630466188
 31
0.0
  0
LINE
  5
84B
330
19
100
AcDbEntity
  8
SEIHIN
  6
CONTINUOUS
 62
     3
100
AcDbLine
 10
979.2538413316231
 20
835.4620630466188
 30
0.0
 11
975.7538413316231
 21
835.4620630466188
 31
0.0
  0
LINE
  5
84C
330
19
100
AcDbEntity
  8
SEIHIN
  6
CONTINUOUS
 62
     3
100
AcDbLine
 10
979.2538413316231
 20
826.9620630466189
 30
0.0
 11
975.7538413316231
 21
826.9620630466189
 31
0.0
  0
LINE
  5
84D
330
19
100
AcDbEntity
  8
SEIHIN
  6
CONTINUOUS
 62
     3
100
AcDbLine
 10
979.2538413316231
 20
839.4620630466189
 30
0.0
 11
975.7538413316231
 21
839.4620630466189
 31
0.0
  0
ARC
  5
84E
330
19
100
AcDbEntity
  8
SEIHIN
  6
CONTINUOUS
 62
     3
100
AcDbCircle
 10
965.253841331623
 20
771.1000630466189
 30
0.0
 40
2.0
100
AcDbArc
 50
270.0
 51
0.0
  0
LINE
  5
84F
330
19
100
AcDbEntity
  8
SEIHIN
  6
CONTINUOUS
 62
     3
100
AcDbLine
 10
957.253841331623
 20
772.1075630466186
 30
0.0
 11
967.253841331623
 21
772.1075630466186
 31
0.0
  0
LINE
  5
850
330
19
100
AcDbEntity
  8
SEIHIN
  6
CONTINUOUS
 62
     3
100
AcDbLine
 10
938.252241331623
 20
763.9623630466187
 30
0.0
 11
973.253841331623
 21
763.9623630466187
 31
0.0
  0
LINE
  5
851
330
19
100
AcDbEntity
  8
SEIHIN
  6
CONTINUOUS
 62
     3
100
AcDbLine
 10
938.4396413316228
 20
766.9689630466189
 30
0.0
 11
972.7538413316231
 21
766.9689630466189
 31
0.0
  0
LINE
  5
852
330
19
100
AcDbEntity
  8
SEIHIN
  6
CONTINUOUS
 62
     3
100
AcDbLine
 10
938.507641331623
 20
767.8514630466188
 30
0.0
 11
972.7538413316231
 21
767.8514630466188
 31
0.0
  0
LINE
  5
853
330
19
100
AcDbEntity
  8
SEIHIN
  6
CONTINUOUS
 62
     3
100
AcDbLine
 10
940.391741331623
 20
792.3207630466188
 30
0.0
 11
969.7848413316231
 21
792.3207630466188
 31
0.0
  0
LINE
  5
854
330
19
100
AcDbEntity
  8
SEIHIN
  6
CONTINUOUS
 62
     3
100
AcDbLine
 10
938.877441331623
 20
772.8434630466188
 30
0.0
 11
957.253841331623
 21
772.8434630466188
 31
0.0
  0
LINE
  5
855
330
19
100
AcDbEntity
  8
SEIHIN
  6
CONTINUOUS
 62
     3
100
AcDbLine
 10
938.877441331623
 20
772.8434630466188
 30
0.0
 11
940.391741331623
 21
792.3207630466188
 31
0.0
  0
ARC
  5
856
330
19
100
AcDbEntity
  8
SEIHIN
  6
CONTINUOUS
 62
     3
100
AcDbCircle
 10
959.2538413316232
 20
771.1000630466189
 30
0.0
 40
2.0
100
AcDbArc
 50
180.0
 51
270.0
  0
LINE
  5
857
330
19
100
AcDbEntity
  8
SEIHIN
  6
CONTINUOUS
 62
     3
100
AcDbLine
 10
957.253841331623
 20
771.1000630466189
 30
0.0
 11
957.253841331623
 21
772.8434630466188
 31
0.0
  0
LINE
  5
858
330
19
100
AcDbEntity
  8
SEIHIN
  6
CONTINUOUS
 62
     3
100
AcDbLine
 10
959.2538413316232
 20
769.100063046619
 30
0.0
 11
965.253841331623
 21
769.100063046619
 31
0.0
  0
ARC
  5
859
330
19
100
AcDbEntity
  8
SEIHIN
  6
CONTINUOUS
 62
     3
100
AcDbCircle
 10
969.7848413316231
 20
795.3207630466188
 30
0.0
 40
3.0
100
AcDbArc
 50
270.0
 51
0.0
  0
LINE
  5
85A
330
19
100
AcDbEntity
  8
SEIHIN
  6
CONTINUOUS
 62
     3
100
AcDbLine
 10
979.2538413316231
 20
822.9620630466188
 30
0.0
 11
975.7538413316231
 21
822.9620630466188
 31
0.0
  0
LINE
  5
85B
330
19
100
AcDbEntity
  8
SEIHIN
  6
CONTINUOUS
 62
     3
100
AcDbLine
 10
975.0458413316231
 20
777.4896630466189
 30
0.0
 11
972.784841331623
 21
792.3207630466188
 31
0.0
  0
ARC
  5
85C
330
19
100
AcDbEntity
  8
SEIHIN
  6
CONTINUOUS
 62
     3
100
AcDbCircle
 10
972.7538413316231
 20
769.9689630466189
 30
0.0
 40
3.0
100
AcDbArc
 50
270.0
 51
0.0
  0
ARC
  5
85D
330
19
100
AcDbEntity
  8
SEIHIN
  6
CONTINUOUS
 62
     3
100
AcDbCircle
 10
972.7538413316231
 20
770.8514630466188
 30
0.0
 40
3.0
100
AcDbArc
 50
270.0
 51
0.0
  0
LINE
  5
85E
330
19
100
AcDbEntity
  8
SEIHIN
  6
CONTINUOUS
 62
     3
100
AcDbLine
 10
967.253841331623
 20
771.1000630466189
 30
0.0
 11
967.253841331623
 21
772.8434630466188
 31
0.0
  0
LINE
  5
85F
330
19
100
AcDbEntity
  8
SEIHIN
  6
CONTINUOUS
 62
     3
100
AcDbLine
 10
967.253841331623
 20
772.8434630466188
 30
0.0
 11
972.7538413316231
 21
772.8434630466188
 31
0.0
  0
ARC
  5
860
330
19
100
AcDbEntity
  8
SEIHIN
  6
CONTINUOUS
 62
     3
100
AcDbCircle
 10
973.253841331623
 20
769.9623630466187
 30
0.0
 40
6.0
100
AcDbArc
 50
270.0
 51
0.0
  0
ARC
  5
861
330
19
100
AcDbEntity
  8
SEIHIN
  6
CONTINUOUS
 62
     3
100
AcDbCircle
 10
972.7538413316231
 20
775.8434630466187
 30
0.0
 40
3.0
100
AcDbArc
 50
270.0
 51
0.0
  0
LINE
  5
862
330
19
100
AcDbEntity
  8
CENTER_L
  6
CENTER
 48
5.0
100
AcDbLine
 10
992.6076834094072
 20
999.961954130765
 30
0.0
 11
956.2094605844823
 21
999.961954130765
 31
0.0
  0
LINE
  5
864
330
19
100
AcDbEntity
  8
CENTER_L
  6
CENTER
 48
5.0
100
AcDbLine
 10
992.6076834094072
 20
799.961954130765
 30
0.0
 11
956.2094605844823
 21
799.961954130765
 31
0.0
  0
DIMENSION
  5
880
330
19
100
AcDbEntity
  8
SUNPOU
  6
CONTINUOUS
100
AcDbDimension
  2
*D7
 10
1032.218250993909
 20
763.9623630466187
 30
0.0
 11
1022.218250993909
 21
899.9620630466187
 31
0.0
 12
-43.79501027914921
 22
6.891798616263713
 32
0.0
 70
    32
  3
STANDARD
100
AcDbAlignedDimension
 13
973.2548413316228
 23
1035.961763046618
 33
0.0
 14
973.253841331623
 24
763.9623630466187
 34
0.0
 50
90.0
100
AcDbRotatedDimension
1001
ACAD
1000
DSTYLE
1002
{
1070
   140
1040
12.0
1070
    74
1070
     0
1070
   172
1070
     1
1070
    73
1070
     0
1070
   272
1070
     2
1070
    77
1070
     3
1070
   173
1070
     1
1070
   147
1040
4.0
1070
    42
1040
12.0
1070
    44
1040
6.0
1070
    43
1040
28.0
1070
   271
1070
     0
1070
   178
1070
     4
1070
   177
1070
     4
1070
   176
1070
     4
1070
   141
1040
150.0
1070
     7
1000
_OPEN
1070
     6
1000
_OPEN
1070
    41
1040
14.0
1070
   143
1040
0.03937
1002
}
  0
DIMENSION
  5
90F
330
19
100
AcDbEntity
  8
SUNPOU
  6
CONTINUOUS
100
AcDbDimension
  2
*D8
 10
913.2542409035792
 20
201.0759856951631
 30
0.0
 11
942.4542409035794
 21
201.0759856951631
 31
0.0
 12
-43.79501027914921
 22
6.891798616263713
 32
0.0
 70
   160
  1
φ<>
  3
STANDARD
100
AcDbAlignedDimension
 13
791.2545409035792
 23
285.2682657603722
 33
0.0
 14
913.2542409035792
 24
285.2682657603722
 34
0.0
100
AcDbRotatedDimension
1001
ACAD
1000
DSTYLE
1002
{
1070
   288
1070
     1
1070
   140
1040
12.0
1070
    74
1070
     0
1070
   172
1070
     1
1070
    73
1070
     0
1070
   272
1070
     2
1070
    77
1070
     3
1070
   173
1070
     1
1070
   147
1040
4.0
1070
    42
1040
12.0
1070
    44
1040
6.0
1070
    43
1040
28.0
1070
   271
1070
     0
1070
   178
1070
     4
1070
   177
1070
     4
1070
   176
1070
     4
1070
   141
1040
150.0
1070
     7
1000
_OPEN
1070
     6
1000
_OPEN
1070
    41
1040
14.0
1070
   143
1040
0.03937
1002
}
  0
DIMENSION
  5
94D
330
19
100
AcDbEntity
  8
SUNPOU
  6
CONTINUOUS
100
AcDbDimension
  2
*D9
 10
667.806422599675
 20
331.2682657603723
 30
0.0
 11
667.806422599675
 21
470.3533107785829
 31
0.0
 12
-43.79501027914921
 22
6.891798616263713
 32
0.0
 70
   160
  3
STANDARD
100
AcDbAlignedDimension
 13
708.2544409035793
 23
621.2683657603722
 33
0.0
 14
739.8294409035793
 24
331.2682657603723
 34
0.0
 50
90.0
100
AcDbRotatedDimension
1001
ACAD
1000
DSTYLE
1002
{
1070
   288
1070
     1
1070
   140
1040
12.0
1070
    74
1070
     0
1070
   172
1070
     1
1070
    73
1070
     0
1070
   272
1070
     2
1070
    77
1070
     3
1070
   173
1070
     1
1070
   147
1040
4.0
1070
    42
1040
12.0
1070
    44
1040
6.0
1070
    43
1040
28.0
1070
   271
1070
     0
1070
   178
1070
     4
1070
   177
1070
     4
1070
   176
1070
     4
1070
   141
1040
150.0
1070
     7
1000
_OPEN
1070
     6
1000
_OPEN
1070
    41
1040
14.0
1070
   143
1040
0.03937
1002
}
  0
DIMENSION
  5
967
330
19
100
AcDbEntity
  8
SUNPOU
  6
CONTINUOUS
100
AcDbDimension
  2
*D10
 10
667.806422599675
 20
281.2682657603722
 30
0.0
 11
657.8064225996749
 21
306.2682657603723
 31
0.0
 12
-43.79501027914921
 22
6.891798616263713
 32
0.0
 70
    32
  3
STANDARD
100
AcDbAlignedDimension
 13
739.8294409035793
 23
331.2682657603723
 33
0.0
 14
793.8610409035791
 24
281.2682657603722
 34
0.0
 50
90.0
100
AcDbRotatedDimension
1001
ACAD
1000
DSTYLE
1002
{
1070
   140
1040
12.0
1070
    74
1070
     0
1070
   172
1070
     1
1070
    73
1070
     0
1070
   272
1070
     2
1070
    77
1070
     3
1070
    75
1070
     1
1070
   173
1070
     1
1070
   147
1040
4.0
1070
    42
1040
12.0
1070
    44
1040
6.0
1070
    43
1040
28.0
1070
   271
1070
     0
1070
   178
1070
     4
1070
   177
1070
     4
1070
   176
1070
     4
1070
   141
1040
150.0
1070
     7
1000
_OPEN
1070
     6
1000
_OPEN
1070
    41
1040
14.0
1070
   143
1040
0.03937
1002
}
  0
DIMENSION
  5
981
330
19
100
AcDbEntity
  8
SUNPOU
  6
CONTINUOUS
100
AcDbDimension
  2
*D11
 10
630.5886342015583
 20
261.2682657603722
 30
0.0
 11
620.5886342015583
 21
441.2683157603722
 31
0.0
 12
-43.79501027914921
 22
6.891798616263713
 32
0.0
 70
    32
  3
STANDARD
100
AcDbAlignedDimension
 13
708.2544409035793
 23
621.2683657603722
 33
0.0
 14
803.2545409035792
 24
261.2682657603722
 34
0.0
 50
90.0
100
AcDbRotatedDimension
1001
ACAD
1000
DSTYLE
1002
{
1070
   140
1040
12.0
1070
    74
1070
     0
1070
   172
1070
     1
1070
    73
1070
     0
1070
   272
1070
     2
1070
    77
1070
     3
1070
   173
1070
     1
1070
   147
1040
4.0
1070
    42
1040
12.0
1070
    44
1040
6.0
1070
    43
1040
28.0
1070
   271
1070
     0
1070
   178
1070
     4
1070
   177
1070
     4
1070
   176
1070
     4
1070
   141
1040
150.0
1070
     7
1000
_OPEN
1070
     6
1000
_OPEN
1070
    41
1040
14.0
1070
   143
1040
0.03937
1002
}
  0
DIMENSION
  5
9A6
330
19
100
AcDbEntity
  8
SUNPOU
  6
CONTINUOUS
100
AcDbDimension
  2
*D12
 10
1190.035940903579
 20
674.8774257541722
 30
0.0
 11
1290.035940903579
 21
684.8774257541722
 31
0.0
 12
-13.79501027914921
 22
6.891798616263713
 32
0.0
 70
    32
  3
STANDARD
100
AcDbAlignedDimension
 13
1390.035940903579
 23
607.8118657603722
 33
0.0
 14
1190.035940903579
 24
607.8118657603722
 34
0.0
100
AcDbRotatedDimension
1001
ACAD
1000
DSTYLE
1002
{
1070
   140
1040
12.0
1070
    74
1070
     0
1070
   172
1070
     1
1070
    73
1070
     0
1070
   272
1070
     2
1070
    77
1070
     3
1070
   173
1070
     1
1070
   147
1040
4.0
1070
    42
1040
12.0
1070
    44
1040
6.0
1070
    43
1040
28.0
1070
   271
1070
     0
1070
   178
1070
     4
1070
   177
1070
     4
1070
   176
1070
     4
1070
   141
1040
150.0
1070
     7
1000
_OPEN
1070
     6
1000
_OPEN
1070
    41
1040
14.0
1070
   143
1040
0.03937
1002
}
  0
DIMENSION
  5
9B3
330
19
100
AcDbEntity
  8
SUNPOU
  6
CONTINUOUS
100
AcDbDimension
  2
*D13
 10
1154.036340903579
 20
712.3822489252684
 30
0.0
 11
1290.035940903579
 21
722.3822489252683
 31
0.0
 12
-13.79501027914921
 22
6.891798616263713
 32
0.0
 70
    32
  3
STANDARD
100
AcDbAlignedDimension
 13
1426.035540903579
 23
621.2683657603722
 33
0.0
 14
1154.036340903579
 24
621.2683657603722
 34
0.0
100
AcDbRotatedDimension
1001
ACAD
1000
DSTYLE
1002
{
1070
   140
1040
12.0
1070
    74
1070
     0
1070
   172
1070
     1
1070
    73
1070
     0
1070
   272
1070
     2
1070
    77
1070
     3
1070
   173
1070
     1
1070
   147
1040
4.0
1070
    42
1040
12.0
1070
    44
1040
6.0
1070
    43
1040
28.0
1070
   271
1070
     0
1070
   178
1070
     4
1070
   177
1070
     4
1070
   176
1070
     4
1070
   141
1040
150.0
1070
     7
1000
_OPEN
1070
     6
1000
_OPEN
1070
    41
1040
14.0
1070
   143
1040
0.03937
1002
}
  0
DIMENSION
  5
9C2
330
19
100
AcDbEntity
  8
SUNPOU
  6
CONTINUOUS
100
AcDbDimension
  2
*D14
 10
1125.141413619915
 20
604.2683657603722
 30
0.0
 11
1115.141413619915
 21
548.2683657603722
 31
0.0
 12
-13.79501027914921
 22
6.891798616263713
 32
0.0
 70
    32
  3
STANDARD
100
AcDbAlignedDimension
 13
1190.035940903579
 23
588.2683657603722
 33
0.0
 14
1190.035940903579
 24
604.2683657603722
 34
0.0
 50
90.0
100
AcDbRotatedDimension
1001
ACAD
1000
DSTYLE
1002
{
1070
   140
1040
12.0
1070
    74
1070
     0
1070
   172
1070
     1
1070
    73
1070
     0
1070
   272
1070
     2
1070
    77
1070
     3
1070
   173
1070
     1
1070
   280
1070
     1
1070
   147
1040
4.0
1070
    42
1040
12.0
1070
    44
1040
6.0
1070
    43
1040
28.0
1070
   271
1070
     0
1070
   178
1070
     4
1070
   177
1070
     4
1070
   176
1070
     4
1070
   141
1040
150.0
1070
     7
1000
_OPEN
1070
     6
1000
_OPEN
1070
    41
1040
14.0
1070
   143
1040
0.03937
1002
}
  0
DIMENSION
  5
9D1
330
19
100
AcDbEntity
  8
SUNPOU
  6
CONTINUOUS
100
AcDbDimension
  2
*D15
 10
1086.333117764169
 20
596.2683657603722
 30
0.0
 11
1076.333117764169
 21
554.2683657603722
 31
0.0
 12
-13.79501027914921
 22
6.891798616263713
 32
0.0
 70
    32
  3
STANDARD
100
AcDbAlignedDimension
 13
1154.036340903579
 23
621.2683657603722
 33
0.0
 14
1178.436540903579
 24
596.2683657603722
 34
0.0
 50
90.0
100
AcDbRotatedDimension
1001
ACAD
1000
DSTYLE
1002
{
1070
   140
1040
12.0
1070
    74
1070
     0
1070
   172
1070
     1
1070
    73
1070
     0
1070
   272
1070
     2
1070
    77
1070
     3
1070
   173
1070
     1
1070
   147
1040
4.0
1070
    42
1040
12.0
1070
    44
1040
6.0
1070
    43
1040
28.0
1070
   271
1070
     0
1070
   178
1070
     4
1070
   177
1070
     4
1070
   176
1070
     4
1070
   141
1040
150.0
1070
     7
1000
_OPEN
1070
     6
1000
_OPEN
1070
    41
1040
14.0
1070
   143
1040
0.03937
1002
}
  0
LINE
  5
9F3
330
19
100
AcDbEntity
  8
SEIHIN
  6
CONTINUOUS
 62
     3
100
AcDbLine
 10
941.0373680668557
 20
600.2683657603723
 30
0.0
 11
938.2852444337217
 21
334.2682657603722
 31
0.0
  0
VIEWPORT
  5
22
330
16
100
AcDbEntity
 67
     1
  8
0
100
AcDbViewport
 10
313.6808219178082
 20
148.5
 30
0.0
 40
627.3616438356165
 41
297.0
 68
     2
 69
     1
1001
ACAD
1000
MVIEW
1002
{
1070
    16
1010
0.0
1020
0.0
1030
0.0
1010
0.0
1020
0.0
1030
1.0
1040
0.0
1040
297.0
1040
313.6808219178082
1040
148.5
1040
50.0
1040
0.0
1040
0.0
1070
     0
1070
   100
1070
     1
1070
     0
1070
     0
1070
     0
1070
     0
1070
     0
1040
0.0
1040
0.0
1040
0.0
1040
10.0
1040
10.0
1040
10.0
1040
10.0
1070
     0
1002
{
1002
}
1002
}
  0
VIEWPORT
  5
25
330
16
100
AcDbEntity
 67
     1
  8
VIEWPORT
100
AcDbViewport
 10
210.0
 20
148.5
 30
0.0
 40
420.0
 41
297.0
 68
     1
 69
     2
1001
ACAD
1000
MVIEW
1002
{
1070
    16
1010
0.0
1020
0.0
1030
0.0
1010
0.0
1020
0.0
1030
1.0
1040
0.0
1040
1212.607689320388
1040
841.0
1040
594.0
1040
50.0
1040
0.0
1040
0.0
1070
     0
1070
   100
1070
     1
1070
     0
1070
     0
1070
     0
1070
     0
1070
     0
1040
0.0
1040
0.0
1040
0.0
1040
57.0
1040
57.0
1040
57.0
1040
57.0
1070
     0
1002
{
1002
}
1002
}
  0
ENDSEC
  0
SECTION
  2
OBJECTS
  0
DICTIONARY
  5
C
330
0
100
AcDbDictionary
  3
ACAD_GROUP
350
D
  3
ACAD_LAYOUT
350
9FA
  3
ACAD_MLINESTYLE
350
E
  3
ACAD_PLOTSETTINGS
350
9FB
1001
ACAD
1000
TREAT_AS_HARD
1070
     0
  0
DICTIONARY
  5
A27
330
19
100
AcDbDictionary
  3
ACAD_LAYOUTSELFREF
350
A6B
1001
ACAD
1000
TREAT_AS_HARD
1070
     1
  0
DICTIONARY
  5
A25
330
16
100
AcDbDictionary
  3
ACAD_LAYOUTSELFREF
350
A6A
1001
ACAD
1000
TREAT_AS_HARD
1070
     1
  0
DICTIONARY
  5
D
102
{ACAD_REACTORS
330
C
102
}
330
C
100
AcDbDictionary
1001
ACAD
1000
TREAT_AS_HARD
1070
     0
  0
DICTIONARY
  5
9FA
102
{ACAD_REACTORS
330
C
102
}
330
C
100
AcDbDictionary
1001
ACAD
1000
TREAT_AS_HARD
1070
     0
  0
DICTIONARY
  5
E
102
{ACAD_REACTORS
330
C
102
}
330
C
100
AcDbDictionary
  3
STANDARD
350
1C
1001
ACAD
1000
TREAT_AS_HARD
1070
     0
  0
DICTIONARY
  5
9FB
102
{ACAD_REACTORS
330
C
102
}
330
C
100
AcDbDictionary
1001
ACAD
1000
TREAT_AS_HARD
1070
     0
  0
XRECORD
  5
A6B
102
{ACAD_REACTORS
330
A27
102
}
330
A27
100
AcDbXrecord
340
19
  0
XRECORD
  5
A6A
102
{ACAD_REACTORS
330
A25
102
}
330
A25
100
AcDbXrecord
340
16
  0
MLINESTYLE
  5
1C
102
{ACAD_REACTORS
330
E
102
}
330
E
100
AcDbMlineStyle
  2
STANDARD
 70
     0
  3

 62
     0
 51
90.0
 52
90.0
 71
     2
 49
0.5
 62
   256
  6
BYLAYER
 49
-0.5
 62
   256
  6
BYLAYER
  0
ENDSEC
  0
EOF
