  0
SECTION
  2
HEADER
  9
$ACADVER
  1
AC1012
  9
$DWGCODEPAGE
  3
dos932
  9
$INSBASE
 10
0.0
 20
0.0
 30
0.0
  9
$EXTMIN
 10
10.05047808566086
 20
4.949376903717846
 30
0.0
  9
$EXTMAX
 10
806.2246110975902
 20
563.7825862828226
 30
0.0
  9
$LIMMIN
 10
0.0
 20
0.0
  9
$LIMMAX
 10
840.0
 20
594.0
  9
$ORTHOMODE
 70
     0
  9
$REGENMODE
 70
     1
  9
$FILLMODE
 70
     1
  9
$QTEXTMODE
 70
     0
  9
$MIRRTEXT
 70
     1
  9
$DRAGMODE
 70
     2
  9
$LTSCALE
 40
2.0
  9
$OSMODE
 70
    37
  9
$ATTMODE
 70
     1
  9
$TEXTSIZE
 40
5.0
  9
$TRACEWID
 40
1.0
  9
$TEXTSTYLE
  7
STANDARD
  9
$CLAYER
  8
ZUWAKU
  9
$CELTYPE
  6
BYLAYER
  9
$CECOLOR
 62
   256
  9
$CELTSCALE
 40
1.0
  9
$DELOBJ
 70
     1
  9
$DISPSILH
 70
     0
  9
$DIMSCALE
 40
1.0
  9
$DIMASZ
 40
7.0
  9
$DIMEXO
 40
6.0
  9
$DIMDLI
 40
14.0
  9
$DIMRND
 40
0.0
  9
$DIMDLE
 40
0.0
  9
$DIMEXE
 40
3.0
  9
$DIMTP
 40
0.0
  9
$DIMTM
 40
0.0
  9
$DIMTXT
 40
6.0
  9
$DIMCEN
 40
150.0
  9
$DIMTSZ
 40
0.0
  9
$DIMTOL
 70
     0
  9
$DIMLIM
 70
     0
  9
$DIMTIH
 70
     0
  9
$DIMTOH
 70
     0
  9
$DIMSE1
 70
     0
  9
$DIMSE2
 70
     0
  9
$DIMTAD
 70
     3
  9
$DIMZIN
 70
     0
  9
$DIMBLK
  1

  9
$DIMASO
 70
     1
  9
$DIMSHO
 70
     1
  9
$DIMPOST
  1

  9
$DIMAPOST
  1

  9
$DIMALT
 70
     0
  9
$DIMALTD
 70
     2
  9
$DIMALTF
 40
25.4
  9
$DIMLFAC
 40
1.0
  9
$DIMTOFL
 70
     1
  9
$DIMTVP
 40
0.0
  9
$DIMTIX
 70
     0
  9
$DIMSOXD
 70
     0
  9
$DIMSAH
 70
     1
  9
$DIMBLK1
  1
OPEN
  9
$DIMBLK2
  1
OPEN
  9
$DIMSTYLE
  2
STANDARD
  9
$DIMCLRD
 70
   256
  9
$DIMCLRE
 70
   256
  9
$DIMCLRT
 70
   256
  9
$DIMTFAC
 40
1.0
  9
$DIMGAP
 40
2.0
  9
$DIMJUST
 70
     0
  9
$DIMSD1
 70
     0
  9
$DIMSD2
 70
     0
  9
$DIMTOLJ
 70
     1
  9
$DIMTZIN
 70
     0
  9
$DIMALTZ
 70
     0
  9
$DIMALTTZ
 70
     0
  9
$DIMFIT
 70
     3
  9
$DIMUPT
 70
     0
  9
$DIMUNIT
 70
     2
  9
$DIMDEC
 70
     0
  9
$DIMTDEC
 70
     0
  9
$DIMALTU
 70
     2
  9
$DIMALTTD
 70
     2
  9
$DIMTXSTY
  7
STANDARD
  9
$DIMAUNIT
 70
     0
  9
$LUNITS
 70
     2
  9
$LUPREC
 70
     4
  9
$SKETCHINC
 40
1.0
  9
$FILLETRAD
 40
20.0
  9
$AUNITS
 70
     0
  9
$AUPREC
 70
     0
  9
$MENU
  1
.
  9
$ELEVATION
 40
0.0
  9
$PELEVATION
 40
0.0
  9
$THICKNESS
 40
0.0
  9
$LIMCHECK
 70
     0
  9
$BLIPMODE
 70
     0
  9
$CHAMFERA
 40
20.0
  9
$CHAMFERB
 40
20.0
  9
$CHAMFERC
 40
40.0
  9
$CHAMFERD
 40
0.0
  9
$SKPOLY
 70
     0
  9
$TDCREATE
 40
2450994.354346065
  9
$TDUPDATE
 40
2452393.709649386
  9
$TDINDWG
 40
0.0089674421
  9
$TDUSRTIMER
 40
0.0089674421
  9
$USRTIMER
 70
     1
  9
$ANGBASE
 50
0.0
  9
$ANGDIR
 70
     0
  9
$PDMODE
 70
     1
  9
$PDSIZE
 40
0.0
  9
$PLINEWID
 40
0.0
  9
$COORDS
 70
     1
  9
$SPLFRAME
 70
     0
  9
$SPLINETYPE
 70
     6
  9
$SPLINESEGS
 70
     8
  9
$ATTDIA
 70
     0
  9
$ATTREQ
 70
     1
  9
$HANDLING
 70
 10241
  9
$HANDSEED
  5
C61
  9
$SURFTAB1
 70
     6
  9
$SURFTAB2
 70
     6
  9
$SURFTYPE
 70
     6
  9
$SURFU
 70
     6
  9
$SURFV
 70
     6
  9
$UCSNAME
  2

  9
$UCSORG
 10
0.0
 20
0.0
 30
0.0
  9
$UCSXDIR
 10
1.0
 20
0.0
 30
0.0
  9
$UCSYDIR
 10
0.0
 20
1.0
 30
0.0
  9
$PUCSNAME
  2

  9
$PUCSORG
 10
0.0
 20
0.0
 30
0.0
  9
$PUCSXDIR
 10
1.0
 20
0.0
 30
0.0
  9
$PUCSYDIR
 10
0.0
 20
1.0
 30
0.0
  9
$USERI1
 70
     0
  9
$USERI2
 70
     0
  9
$USERI3
 70
     0
  9
$USERI4
 70
     0
  9
$USERI5
 70
     0
  9
$USERR1
 40
0.0
  9
$USERR2
 40
0.0
  9
$USERR3
 40
0.0
  9
$USERR4
 40
0.0
  9
$USERR5
 40
0.0
  9
$WORLDVIEW
 70
     1
  9
$SHADEDGE
 70
     3
  9
$SHADEDIF
 70
    70
  9
$TILEMODE
 70
     1
  9
$MAXACTVP
 70
    16
  9
$PINSBASE
 10
0.0
 20
0.0
 30
0.0
  9
$PLIMCHECK
 70
     0
  9
$PEXTMIN
 10
0.0
 20
0.0
 30
0.0
  9
$PEXTMAX
 10
420.0
 20
297.0
 30
0.0
  9
$PLIMMIN
 10
0.0
 20
0.0
  9
$PLIMMAX
 10
420.0
 20
297.0
  9
$UNITMODE
 70
     0
  9
$VISRETAIN
 70
     0
  9
$PLINEGEN
 70
     0
  9
$PSLTSCALE
 70
     1
  9
$TREEDEPTH
 70
  3020
  9
$PICKSTYLE
 70
     1
  9
$CMLSTYLE
  2
STANDARD
  9
$CMLJUST
 70
     0
  9
$CMLSCALE
 40
1.0
  9
$SAVEIMAGES
 70
     1
  0
ENDSEC
  0
SECTION
  2
CLASSES
  0
CLASS
  1
ACDBDICTIONARYWDFLT
  2
AcDbDictionaryWithDefault
  3
AutoCAD 2000
 90
    32768
280
     0
281
     0
  0
CLASS
  1
ACDBPLACEHOLDER
  2
AcDbPlaceHolder
  3
AutoCAD 2000
 90
    32768
280
     0
281
     0
  0
CLASS
  1
LAYOUT
  2
AcDbLayout
  3
AutoCAD 2000
 90
    32768
280
     0
281
     0
  0
CLASS
  1
LONG_TRANSACTION
  2
AcDbLongTransaction
  3
AutoCAD 2000
 90
    32768
280
     0
281
     0
  0
CLASS
  1
LWPOLYLINE
  2
AcDbPolyline
  3
AutoCAD 2000
 90
    32768
280
     0
281
     1
  0
CLASS
  1
HATCH
  2
AcDbHatch
  3
AutoCAD 2000
 90
    32768
280
     0
281
     1
  0
CLASS
  1
XRECORD
  2
AcDbXrecord
  3
AutoCAD 2000
 90
    32768
280
     0
281
     0
  0
CLASS
  1
LONG_TRANSACTION
  2
AcDbLongTransaction
  3
AutoCAD 2000
 90
    32768
280
     0
281
     0
  0
CLASS
  1
LWPOLYLINE
  2
AcDbPolyline
  3
AutoCAD 2000
 90
    32768
280
     0
281
     1
  0
CLASS
  1
HATCH
  2
AcDbHatch
  3
AutoCAD 2000
 90
    32768
280
     0
281
     1
  0
CLASS
  1
XRECORD
  2
AcDbXrecord
  3
AutoCAD 2000
 90
    32768
280
     0
281
     0
  0
CLASS
  1
LONG_TRANSACTION
  2
AcDbLongTransaction
  3
AutoCAD 2000
 90
    32768
280
     0
281
     0
  0
CLASS
  1
LWPOLYLINE
  2
AcDbPolyline
  3
AutoCAD 2000
 90
    32768
280
     0
281
     1
  0
CLASS
  1
HATCH
  2
AcDbHatch
  3
AutoCAD 2000
 90
    32768
280
     0
281
     1
  0
CLASS
  1
XRECORD
  2
AcDbXrecord
  3
AutoCAD 2000
 90
    32768
280
     0
281
     0
  0
ENDSEC
  0
SECTION
  2
TABLES
  0
TABLE
  2
VPORT
  5
8
330
0
100
AcDbSymbolTable
 70
     2
  0
VPORT
  5
C5E
330
8
100
AcDbSymbolTableRecord
100
AcDbViewportTableRecord
  2
*ACTIVE
 70
     0
 10
0.0
 20
0.0
 11
1.0
 21
1.0
 12
529.1329541346641
 22
280.8184807290958
 13
0.0
 23
0.0
 14
5.0
 24
5.0
 15
0.0
 25
0.0
 16
0.0
 26
0.0
 36
1.0
 17
0.0
 27
0.0
 37
0.0
 40
602.0721542408673
 41
2.169459962756052
 42
50.0
 43
0.0
 44
0.0
 50
0.0
 51
0.0
 71
     0
 72
   100
 73
     1
 74
     0
 75
     0
 76
     0
 77
     0
 78
     0
  0
ENDTAB
  0
TABLE
  2
LTYPE
  5
5
330
0
100
AcDbSymbolTable
 70
     2
  0
LTYPE
  5
14
330
5
100
AcDbSymbolTableRecord
100
AcDbLinetypeTableRecord
  2
BYBLOCK
 70
     0
  3

 72
    65
 73
     0
 40
0.0
  0
LTYPE
  5
15
330
5
100
AcDbSymbolTableRecord
100
AcDbLinetypeTableRecord
  2
BYLAYER
 70
     0
  3

 72
    65
 73
     0
 40
0.0
  0
LTYPE
  5
16
330
5
100
AcDbSymbolTableRecord
100
AcDbLinetypeTableRecord
  2
CONTINUOUS
 70
     0
  3
Solid line
 72
    65
 73
     0
 40
0.0
  0
LTYPE
  5
135
330
5
100
AcDbSymbolTableRecord
100
AcDbLinetypeTableRecord
  2
CENTER
 70
     0
  3
____ _ ____ _ ____ _ ____ _ ____ _ ____ _ ____ 
 72
    65
 73
     4
 40
2.0
 49
1.25
 74
     0
 49
-0.25
 74
     0
 49
0.25
 74
     0
 49
-0.25
 74
     0
  0
ENDTAB
  0
TABLE
  2
LAYER
  5
2
330
0
100
AcDbSymbolTable
 70
     7
  0
LAYER
  5
F
330
2
100
AcDbSymbolTableRecord
100
AcDbLayerTableRecord
  2
0
 70
     0
 62
     7
  6
CONTINUOUS
  0
LAYER
  5
62
330
2
100
AcDbSymbolTableRecord
100
AcDbLayerTableRecord
  2
VIEWPORT
 70
     0
 62
     7
  6
CONTINUOUS
  0
LAYER
  5
65
330
2
100
AcDbSymbolTableRecord
100
AcDbLayerTableRecord
  2
ZUWAKU
 70
     0
 62
     7
  6
CONTINUOUS
  0
LAYER
  5
189
330
2
100
AcDbSymbolTableRecord
100
AcDbLayerTableRecord
  2
DEFPOINTS
 70
     0
 62
     7
  6
CONTINUOUS
  0
LAYER
  5
18A
330
2
100
AcDbSymbolTableRecord
100
AcDbLayerTableRecord
  2
SEIHIN
 70
     0
 62
     3
  6
CONTINUOUS
  0
LAYER
  5
18B
330
2
100
AcDbSymbolTableRecord
100
AcDbLayerTableRecord
  2
CENTER_L
 70
     0
 62
     1
  6
CENTER
  0
LAYER
  5
18C
330
2
100
AcDbSymbolTableRecord
100
AcDbLayerTableRecord
  2
SUNPOU
 70
     0
 62
     4
  6
CONTINUOUS
  0
ENDTAB
  0
TABLE
  2
STYLE
  5
3
330
0
100
AcDbSymbolTable
 70
     1
  0
STYLE
  5
10
330
3
100
AcDbSymbolTableRecord
100
AcDbTextStyleTableRecord
  2
STANDARD
 70
     0
 40
0.0
 41
1.0
 50
0.0
 71
     0
 42
5.0
  3
TXT
  4
bigfont.shx
  0
ENDTAB
  0
TABLE
  2
VIEW
  5
6
330
0
100
AcDbSymbolTable
 70
     0
  0
ENDTAB
  0
TABLE
  2
UCS
  5
7
330
0
100
AcDbSymbolTable
 70
     0
  0
ENDTAB
  0
TABLE
  2
APPID
  5
9
330
0
100
AcDbSymbolTable
 70
     1
  0
APPID
  5
11
330
9
100
AcDbSymbolTableRecord
100
AcDbRegAppTableRecord
  2
ACAD
 70
     0
  0
ENDTAB
  0
TABLE
  2
DIMSTYLE
  5
A
330
0
100
AcDbSymbolTable
 70
     1
  0
DIMSTYLE
105
1D
102
{ACAD_REACTORS
330
BC0
330
BCD
330
BDA
330
BE9
102
}
330
A
100
AcDbSymbolTableRecord
100
AcDbDimStyleTableRecord
  2
STANDARD
 70
     0
  3

  4

  5

  6

  7

 40
1.0
 41
0.18
 42
0.0625
 43
0.38
 44
0.18
 45
0.0
 46
0.0
 47
0.0
 48
0.0
140
0.18
141
0.09
142
0.0
143
25.4
144
1.0
145
0.0
146
1.0
147
0.09
 71
     0
 72
     0
 73
     1
 74
     1
 75
     0
 76
     0
 77
     0
 78
     0
170
     0
171
     2
172
     0
173
     0
174
     0
175
     0
176
     0
177
     0
178
     0
270
     2
271
     4
272
     4
273
     2
274
     2
340
10
275
     0
280
     0
281
     0
282
     0
283
     1
284
     0
285
     0
286
     0
287
     3
288
     0
  0
ENDTAB
  0
TABLE
  2
BLOCK_RECORD
  5
1
330
0
100
AcDbSymbolTable
 70
     5
  0
BLOCK_RECORD
  5
1A
102
{ACAD_XDICTIONARY
360
C1C
102
}
330
1
100
AcDbSymbolTableRecord
100
AcDbBlockTableRecord
  2
*MODEL_SPACE
  0
BLOCK_RECORD
  5
17
102
{ACAD_XDICTIONARY
360
C1A
102
}
330
1
100
AcDbSymbolTableRecord
100
AcDbBlockTableRecord
  2
*PAPER_SPACE
  0
BLOCK_RECORD
  5
6D
330
1
100
AcDbSymbolTableRecord
100
AcDbBlockTableRecord
  2
_OPEN
  0
BLOCK_RECORD
  5
BB4
330
1
100
AcDbSymbolTableRecord
100
AcDbBlockTableRecord
  2
*D1
  0
BLOCK_RECORD
  5
BC1
330
1
100
AcDbSymbolTableRecord
100
AcDbBlockTableRecord
  2
*D2
  0
BLOCK_RECORD
  5
BCE
330
1
100
AcDbSymbolTableRecord
100
AcDbBlockTableRecord
  2
*D3
  0
BLOCK_RECORD
  5
BDB
330
1
100
AcDbSymbolTableRecord
100
AcDbBlockTableRecord
  2
*D4
  0
ENDTAB
  0
ENDSEC
  0
SECTION
  2
BLOCKS
  0
BLOCK
  5
1B
330
1A
100
AcDbEntity
  8
0
100
AcDbBlockBegin
  2
*MODEL_SPACE
 70
     0
 10
0.0
 20
0.0
 30
0.0
  3
*MODEL_SPACE
  1

  0
ENDBLK
  5
1C
330
1A
100
AcDbEntity
  8
0
100
AcDbBlockEnd
  0
BLOCK
  5
18
330
17
100
AcDbEntity
 67
     1
  8
0
100
AcDbBlockBegin
  2
*PAPER_SPACE
 70
     0
 10
0.0
 20
0.0
 30
0.0
  3
*PAPER_SPACE
  1

  0
ENDBLK
  5
19
330
17
100
AcDbEntity
 67
     1
  8
0
100
AcDbBlockEnd
  0
BLOCK
  5
6E
330
6D
100
AcDbEntity
  8
0
100
AcDbBlockBegin
  2
_OPEN
 70
     0
 10
0.0
 20
0.0
 30
0.0
  3
_OPEN
  1

  0
LINE
  5
6F
330
6D
100
AcDbEntity
  8
0
  6
BYBLOCK
 62
     0
100
AcDbLine
 10
-1.0
 20
0.1666666666666666
 30
0.0
 11
0.0
 21
0.0
 31
0.0
  0
LINE
  5
70
330
6D
100
AcDbEntity
  8
0
  6
BYBLOCK
 62
     0
100
AcDbLine
 10
0.0
 20
0.0
 30
0.0
 11
-1.0
 21
-0.1666666666666666
 31
0.0
  0
LINE
  5
71
330
6D
100
AcDbEntity
  8
0
  6
BYBLOCK
 62
     0
100
AcDbLine
 10
0.0
 20
0.0
 30
0.0
 11
-1.0
 21
0.0
 31
0.0
  0
ENDBLK
  5
72
330
6D
100
AcDbEntity
  8
0
100
AcDbBlockEnd
  0
BLOCK
  5
BB5
330
BB4
100
AcDbEntity
  8
0
100
AcDbBlockBegin
  2
*D1
 70
     1
 10
0.0
 20
0.0
 30
0.0
  3
*D1
  1

  0
LINE
  5
BB6
330
BB4
100
AcDbEntity
  8
0
  6
BYBLOCK
 62
     4
100
AcDbLine
 10
545.8001588985102
 20
510.2638503212699
 30
0.0
 11
591.0163874070044
 21
510.2638503212699
 31
0.0
  0
LINE
  5
BB7
330
BB4
100
AcDbEntity
  8
0
  6
BYBLOCK
 62
     4
100
AcDbLine
 10
545.7998588985101
 20
250.2637503212699
 30
0.0
 11
591.0163874070044
 21
250.2637503212699
 31
0.0
  0
LINE
  5
BB8
330
BB4
100
AcDbEntity
  8
0
  6
BYBLOCK
 62
     4
100
AcDbLine
 10
588.0163874070044
 20
503.2638503212699
 30
0.0
 11
588.0163874070044
 21
257.2637503212699
 31
0.0
  0
INSERT
  5
BB9
330
BB4
100
AcDbEntity
  8
0
  6
BYBLOCK
 62
     4
100
AcDbBlockReference
  2
_OPEN
 10
588.0163874070044
 20
510.2638503212699
 30
0.0
 41
7.0
 42
7.0
 43
7.0
 50
90.0
  0
INSERT
  5
BBA
330
BB4
100
AcDbEntity
  8
0
  6
BYBLOCK
 62
     4
100
AcDbBlockReference
  2
_OPEN
 10
588.0163874070044
 20
250.2637503212699
 30
0.0
 41
7.0
 42
7.0
 43
7.0
 50
270.0
  0
MTEXT
  5
BBB
330
BB4
100
AcDbEntity
  8
0
  6
BYBLOCK
 62
     4
100
AcDbMText
 10
583.0163874070044
 20
380.2638003212699
 30
0.0
 40
6.0
 41
0.0
 71
     5
 72
     1
  1
\A1;260
 11
0.0
 21
1.0
 31
0.0
1001
ACAD
1000
MTEXTBEGIN
1070
    73
1070
     1
1070
    44
1040
1.0
1070
    74
1070
     0
1000
MTEXTEND
1000
MTEXTBEGIN
1070
    73
1070
     1
1070
    44
1040
1.0
1070
    74
1070
     0
1000
MTEXTEND
1000
MTEXTBEGIN
1070
    73
1070
     1
1070
    44
1040
1.0
1070
    74
1070
     0
1000
MTEXTEND
  0
POINT
  5
BBC
330
BB4
100
AcDbEntity
  8
DEFPOINTS
  6
BYBLOCK
 62
     0
100
AcDbPoint
 10
539.8001588985103
 20
510.2638503212699
 30
0.0
  0
POINT
  5
BBD
330
BB4
100
AcDbEntity
  8
DEFPOINTS
  6
BYBLOCK
 62
     0
100
AcDbPoint
 10
539.7998588985101
 20
250.2637503212699
 30
0.0
  0
POINT
  5
BBE
330
BB4
100
AcDbEntity
  8
DEFPOINTS
  6
BYBLOCK
 62
     0
100
AcDbPoint
 10
588.0163874070044
 20
250.2637503212699
 30
0.0
  0
ENDBLK
  5
BBF
330
BB4
100
AcDbEntity
  8
0
100
AcDbBlockEnd
  0
BLOCK
  5
BC2
330
BC1
100
AcDbEntity
  8
0
100
AcDbBlockBegin
  2
*D2
 70
     1
 10
0.0
 20
0.0
 30
0.0
  3
*D2
  1

  0
LINE
  5
BC3
330
BC1
100
AcDbEntity
  8
0
  6
BYBLOCK
 62
     4
100
AcDbLine
 10
282.80015889851
 20
477.2645503212697
 30
0.0
 11
260.0686534386031
 21
477.2645503212697
 31
0.0
  0
LINE
  5
BC4
330
BC1
100
AcDbEntity
  8
0
  6
BYBLOCK
 62
     4
100
AcDbLine
 10
282.7998588985101
 20
283.2638503212699
 30
0.0
 11
260.0686534386031
 21
283.2638503212699
 31
0.0
  0
LINE
  5
BC5
330
BC1
100
AcDbEntity
  8
0
  6
BYBLOCK
 62
     4
100
AcDbLine
 10
263.0686534386031
 20
470.2645503212697
 30
0.0
 11
263.0686534386031
 21
290.2638503212699
 31
0.0
  0
INSERT
  5
BC6
330
BC1
100
AcDbEntity
  8
0
  6
BYBLOCK
 62
     4
100
AcDbBlockReference
  2
_OPEN
 10
263.0686534386031
 20
477.2645503212697
 30
0.0
 41
7.0
 42
7.0
 43
7.0
 50
90.0
  0
INSERT
  5
BC7
330
BC1
100
AcDbEntity
  8
0
  6
BYBLOCK
 62
     4
100
AcDbBlockReference
  2
_OPEN
 10
263.0686534386031
 20
283.2638503212699
 30
0.0
 41
7.0
 42
7.0
 43
7.0
 50
270.0
  0
MTEXT
  5
BC8
330
BC1
100
AcDbEntity
  8
0
  6
BYBLOCK
 62
     4
100
AcDbMText
 10
258.0686534386031
 20
380.2642003212698
 30
0.0
 40
6.0
 41
0.0
 71
     5
 72
     1
  1
\A1;194
 11
0.0
 21
1.0
 31
0.0
1001
ACAD
1000
MTEXTBEGIN
1070
    73
1070
     1
1070
    44
1040
1.0
1070
    74
1070
     0
1000
MTEXTEND
1000
MTEXTBEGIN
1070
    73
1070
     1
1070
    44
1040
1.0
1070
    74
1070
     0
1000
MTEXTEND
1000
MTEXTBEGIN
1070
    73
1070
     1
1070
    44
1040
1.0
1070
    74
1070
     0
1000
MTEXTEND
  0
POINT
  5
BC9
330
BC1
100
AcDbEntity
  8
DEFPOINTS
  6
BYBLOCK
 62
     0
100
AcDbPoint
 10
288.80015889851
 20
477.2645503212697
 30
0.0
  0
POINT
  5
BCA
330
BC1
100
AcDbEntity
  8
DEFPOINTS
  6
BYBLOCK
 62
     0
100
AcDbPoint
 10
288.7998588985101
 20
283.2638503212699
 30
0.0
  0
POINT
  5
BCB
330
BC1
100
AcDbEntity
  8
DEFPOINTS
  6
BYBLOCK
 62
     0
100
AcDbPoint
 10
263.0686534386031
 20
283.2638503212699
 30
0.0
  0
ENDBLK
  5
BCC
330
BC1
100
AcDbEntity
  8
0
100
AcDbBlockEnd
  0
BLOCK
  5
BCF
330
BCE
100
AcDbEntity
  8
0
100
AcDbBlockBegin
  2
*D3
 70
     1
 10
0.0
 20
0.0
 30
0.0
  3
*D3
  1

  0
LINE
  5
BD0
330
BCE
100
AcDbEntity
  8
0
  6
BYBLOCK
 62
     4
100
AcDbLine
 10
542.7998588985101
 20
247.2637503212699
 30
0.0
 11
542.7998588985101
 21
214.0479232954644
 31
0.0
  0
LINE
  5
BD1
330
BCE
100
AcDbEntity
  8
0
  6
BYBLOCK
 62
     4
100
AcDbLine
 10
288.7998588985101
 20
274.2315503212698
 30
0.0
 11
288.7998588985101
 21
214.0479232954644
 31
0.0
  0
LINE
  5
BD2
330
BCE
100
AcDbEntity
  8
0
  6
BYBLOCK
 62
     4
100
AcDbLine
 10
535.7998588985101
 20
217.0479232954644
 30
0.0
 11
295.7998588985101
 21
217.0479232954644
 31
0.0
  0
INSERT
  5
BD3
330
BCE
100
AcDbEntity
  8
0
  6
BYBLOCK
 62
     4
100
AcDbBlockReference
  2
_OPEN
 10
542.7998588985101
 20
217.0479232954644
 30
0.0
 41
7.0
 42
7.0
 43
7.0
  0
INSERT
  5
BD4
330
BCE
100
AcDbEntity
  8
0
  6
BYBLOCK
 62
     4
100
AcDbBlockReference
  2
_OPEN
 10
288.7998588985101
 20
217.0479232954644
 30
0.0
 41
7.0
 42
7.0
 43
7.0
 50
180.0
  0
MTEXT
  5
BD5
330
BCE
100
AcDbEntity
  8
0
  6
BYBLOCK
 62
     4
100
AcDbMText
 10
415.7998588985101
 20
222.0479232954644
 30
0.0
 40
6.0
 41
0.0
 71
     5
 72
     1
  1
\A1;254
1001
ACAD
1000
MTEXTBEGIN
1070
    73
1070
     1
1070
    44
1040
1.0
1070
    74
1070
     0
1000
MTEXTEND
1000
MTEXTBEGIN
1070
    73
1070
     1
1070
    44
1040
1.0
1070
    74
1070
     0
1000
MTEXTEND
1000
MTEXTBEGIN
1070
    73
1070
     1
1070
    44
1040
1.0
1070
    74
1070
     0
1000
MTEXTEND
  0
POINT
  5
BD6
330
BCE
100
AcDbEntity
  8
DEFPOINTS
  6
BYBLOCK
 62
     0
100
AcDbPoint
 10
542.7998588985101
 20
253.2637503212699
 30
0.0
  0
POINT
  5
BD7
330
BCE
100
AcDbEntity
  8
DEFPOINTS
  6
BYBLOCK
 62
     0
100
AcDbPoint
 10
288.7998588985101
 20
280.2315503212698
 30
0.0
  0
POINT
  5
BD8
330
BCE
100
AcDbEntity
  8
DEFPOINTS
  6
BYBLOCK
 62
     0
100
AcDbPoint
 10
288.7998588985101
 20
217.0479232954644
 30
0.0
  0
ENDBLK
  5
BD9
330
BCE
100
AcDbEntity
  8
0
100
AcDbBlockEnd
  0
BLOCK
  5
BDC
330
BDB
100
AcDbEntity
  8
0
100
AcDbBlockBegin
  2
*D4
 70
     1
 10
0.0
 20
0.0
 30
0.0
  3
*D4
  1

  0
LINE
  5
BDD
330
BDB
100
AcDbEntity
  8
0
  6
BYBLOCK
 62
     4
100
AcDbLine
 10
550.7998588985101
 20
114.4290503212698
 30
0.0
 11
591.1119072437127
 21
114.4290503212698
 31
0.0
  0
LINE
  5
BDE
330
BDB
100
AcDbEntity
  8
0
  6
BYBLOCK
 62
     4
100
AcDbLine
 10
548.7998588985101
 20
101.42935032127
 30
0.0
 11
591.1119072437127
 21
101.42935032127
 31
0.0
  0
LINE
  5
BDF
330
BDB
100
AcDbEntity
  8
0
  6
BYBLOCK
 62
     4
100
AcDbLine
 10
588.1119072437127
 20
121.4290503212698
 30
0.0
 11
588.1119072437127
 21
128.4290503212698
 31
0.0
  0
LINE
  5
BE0
330
BDB
100
AcDbEntity
  8
0
  6
BYBLOCK
 62
     4
100
AcDbLine
 10
588.1119072437127
 20
94.42935032127001
 30
0.0
 11
588.1119072437127
 21
87.42935032127002
 31
0.0
  0
LINE
  5
BE1
330
BDB
100
AcDbEntity
  8
0
  6
BYBLOCK
 62
     4
100
AcDbLine
 10
588.1119072437127
 20
114.4290503212698
 30
0.0
 11
588.1119072437127
 21
101.42935032127
 31
0.0
  0
INSERT
  5
BE2
330
BDB
100
AcDbEntity
  8
0
  6
BYBLOCK
 62
     4
100
AcDbBlockReference
  2
_OPEN
 10
588.1119072437127
 20
114.4290503212698
 30
0.0
 41
7.0
 42
7.0
 43
7.0
 50
270.0
  0
INSERT
  5
BE3
330
BDB
100
AcDbEntity
  8
0
  6
BYBLOCK
 62
     4
100
AcDbBlockReference
  2
_OPEN
 10
588.1119072437127
 20
101.42935032127
 30
0.0
 41
7.0
 42
7.0
 43
7.0
 50
90.0
  0
MTEXT
  5
BE4
330
BDB
100
AcDbEntity
  8
0
  6
BYBLOCK
 62
     4
100
AcDbMText
 10
583.1119072437127
 20
107.9292003212699
 30
0.0
 40
6.0
 41
0.0
 71
     5
 72
     1
  1
\A1;13
 11
0.0
 21
1.0
 31
0.0
1001
ACAD
1000
MTEXTBEGIN
1070
    73
1070
     1
1070
    44
1040
1.0
1070
    74
1070
     0
1000
MTEXTEND
1000
MTEXTBEGIN
1070
    73
1070
     1
1070
    44
1040
1.0
1070
    74
1070
     0
1000
MTEXTEND
1000
MTEXTBEGIN
1070
    73
1070
     1
1070
    44
1040
1.0
1070
    74
1070
     0
1000
MTEXTEND
  0
POINT
  5
BE5
330
BDB
100
AcDbEntity
  8
DEFPOINTS
  6
BYBLOCK
 62
     0
100
AcDbPoint
 10
544.7998588985101
 20
114.4290503212698
 30
0.0
  0
POINT
  5
BE6
330
BDB
100
AcDbEntity
  8
DEFPOINTS
  6
BYBLOCK
 62
     0
100
AcDbPoint
 10
542.7998588985101
 20
101.42935032127
 30
0.0
  0
POINT
  5
BE7
330
BDB
100
AcDbEntity
  8
DEFPOINTS
  6
BYBLOCK
 62
     0
100
AcDbPoint
 10
588.1119072437127
 20
101.42935032127
 30
0.0
  0
ENDBLK
  5
BE8
330
BDB
100
AcDbEntity
  8
0
100
AcDbBlockEnd
  0
ENDSEC
  0
SECTION
  2
ENTITIES
  0
TEXT
  5
11A
330
1A
100
AcDbEntity
  8
ZUWAKU
 62
     7
 48
10.0
100
AcDbText
 10
795.5579444309237
 20
4.974918402528146
 30
0.0
 40
8.0
  1
A1
100
AcDbText
  0
LINE
  5
11B
330
1A
100
AcDbEntity
  8
ZUWAKU
 62
     7
 48
10.0
100
AcDbLine
 10
10.05047808566086
 20
25.78258628282265
 30
0.0
 11
806.0504780856609
 21
25.78258628282253
 31
0.0
  0
LINE
  5
11C
330
1A
100
AcDbEntity
  8
ZUWAKU
  6
CONTINUOUS
 62
     7
100
AcDbLine
 10
806.0504780856609
 20
563.7825862828226
 30
0.0
 11
10.05047808566086
 21
563.7825862828226
 31
0.0
  0
LINE
  5
11D
330
1A
100
AcDbEntity
  8
ZUWAKU
  6
CONTINUOUS
 62
     7
100
AcDbLine
 10
806.0504780856609
 20
13.78258628282265
 30
0.0
 11
10.05047808566086
 21
13.78258628282265
 31
0.0
  0
LINE
  5
11E
330
1A
100
AcDbEntity
  8
ZUWAKU
  6
CONTINUOUS
 62
     7
100
AcDbLine
 10
10.05047808566086
 20
563.7825862828226
 30
0.0
 11
10.05047808566086
 21
13.78258628282265
 31
0.0
  0
LINE
  5
11F
330
1A
100
AcDbEntity
  8
ZUWAKU
 62
     7
 48
10.0
100
AcDbLine
 10
44.55797523147839
 20
13.78258628282265
 30
0.0
 11
44.5579752314784
 21
25.78258628282265
 31
0.0
  0
TEXT
  5
120
330
1A
100
AcDbEntity
  8
ZUWAKU
 62
     7
100
AcDbText
 10
16.05676551180931
 20
15.52294263804401
 30
0.0
 40
8.0
  1
品 種
100
AcDbText
  0
LINE
  5
121
330
1A
100
AcDbEntity
  8
ZUWAKU
 62
     7
 48
10.0
100
AcDbLine
 10
276.1028387068254
 20
13.78258628282265
 30
0.0
 11
276.1028387068254
 21
25.78258628282261
 31
0.0
  0
LINE
  5
122
330
1A
100
AcDbEntity
  8
ZUWAKU
 62
     7
 48
10.0
100
AcDbLine
 10
209.5138526425484
 20
13.78258628282265
 30
0.0
 11
209.5138526425485
 21
25.78258628282263
 31
0.0
  0
TEXT
  5
123
330
1A
100
AcDbEntity
  8
ZUWAKU
 62
     7
100
AcDbText
 10
282.3131429914078
 20
15.64241700452384
 30
0.0
 40
8.0
  1
Ｂ型　フタ（ビルマスＢ・７５・１００・１２５）
100
AcDbText
  0
TEXT
  5
124
330
1A
100
AcDbEntity
  8
ZUWAKU
 62
     7
100
AcDbText
 10
215.4560837190756
 20
16.18358115302453
 30
0.0
 40
8.0
  1
品名・ｻ ｲ ｽﾞ
100
AcDbText
  0
TEXT
  5
125
330
1A
100
AcDbEntity
  8
ZUWAKU
 62
     7
100
AcDbText
 10
50.3519382305086
 20
16.10306189639755
 30
0.0
 40
8.0
  1
ビルマス
100
AcDbText
  0
LINE
  5
126
330
1A
100
AcDbEntity
  8
ZUWAKU
 62
     7
 48
10.0
100
AcDbLine
 10
768.7231079932794
 20
13.78258628282237
 30
0.0
 11
768.7231079932794
 21
25.78258628282254
 31
0.0
  0
LINE
  5
127
330
1A
100
AcDbEntity
  8
ZUWAKU
 62
     7
 48
10.0
100
AcDbLine
 10
733.8119002376948
 20
13.78258628282242
 30
0.0
 11
733.8119002376946
 21
25.78258628282254
 31
0.0
  0
TEXT
  5
128
330
1A
100
AcDbEntity
  8
ZUWAKU
 62
     7
100
AcDbText
 10
739.6955629973526
 20
15.24227755810852
 30
0.0
 40
8.0
  1
尺 度
100
AcDbText
  0
TEXT
  5
129
330
1A
100
AcDbEntity
  8
ZUWAKU
 62
     7
100
AcDbText
 10
779.7374630323229
 20
15.55488920081529
 30
0.0
 40
8.0
  1
1/2
100
AcDbText
  0
TEXT
  5
12A
330
1A
100
AcDbEntity
  8
ZUWAKU
 62
     7
100
AcDbText
 10
654.2531733678779
 20
15.90287984531518
 30
0.0
 40
8.0
  1
ＧＨ８６
100
AcDbText
  0
TEXT
  5
12B
330
1A
100
AcDbEntity
  8
ZUWAKU
 62
     7
100
AcDbText
 10
620.3363288383084
 20
15.6519090944263
 30
0.0
 40
8.0
  1
品 番
100
AcDbText
  0
LINE
  5
12C
330
1A
100
AcDbEntity
  8
ZUWAKU
 62
     7
 48
10.0
100
AcDbLine
 10
614.3351028194128
 20
13.78258628282232
 30
0.0
 11
614.3351028194128
 21
25.78258628282256
 31
0.0
  0
LINE
  5
12D
330
1A
100
AcDbEntity
  8
ZUWAKU
 62
     7
 48
10.0
100
AcDbLine
 10
648.7607587371021
 20
13.78258628282232
 30
0.0
 11
648.7607587371021
 21
25.78258628282255
 31
0.0
  0
TEXT
  5
12E
330
1A
100
AcDbEntity
  8
ZUWAKU
 62
     7
 48
10.0
100
AcDbText
 10
646.2758615931216
 20
4.949376903717848
 30
0.0
 40
8.0
  1
積水化学工業株式会社  建材
100
AcDbText
  0
LINE
  5
12F
330
1A
100
AcDbEntity
  8
ZUWAKU
  6
CONTINUOUS
 62
     7
100
AcDbLine
 10
806.0504780856609
 20
563.7825862828226
 30
0.0
 11
806.0504780856609
 21
13.78258628282265
 31
0.0
  0
ARC
  5
65A
330
1A
100
AcDbEntity
  8
SEIHIN
  6
CONTINUOUS
 62
     3
100
AcDbCircle
 10
417.6363109778483
 20
347.4788584361315
 30
0.0
 40
64.00000005007716
100
AcDbArc
 50
229.3198115690706
 51
233.3920531194938
  0
ARC
  5
65B
330
1A
100
AcDbEntity
  8
SEIHIN
  6
CONTINUOUS
 62
     3
100
AcDbCircle
 10
417.6370020283806
 20
347.4783130634321
 30
0.0
 40
62.00004880238212
100
AcDbArc
 50
228.6010580215106
 51
235.3435441923841
  0
LINE
  5
65C
330
1A
100
AcDbEntity
  8
SEIHIN
  6
CONTINUOUS
 62
     3
100
AcDbLine
 10
541.6365929066387
 20
220.4784330174902
 30
0.0
 11
541.6365929066387
 21
347.4784330174902
 31
0.0
  0
LINE
  5
65D
330
1A
100
AcDbEntity
  8
SEIHIN
  6
CONTINUOUS
 62
     3
100
AcDbLine
 10
295.6365929066387
 20
253.1324330174902
 30
0.0
 11
295.6365929066387
 21
347.4784330174902
 31
0.0
  0
ARC
  5
660
330
1A
100
AcDbEntity
  8
SEIHIN
  6
CONTINUOUS
 62
     3
100
AcDbCircle
 10
462.6365929066385
 20
300.4785330174902
 30
0.0
 40
1.999999999999943
100
AcDbArc
 50
180.0000000000032
 51
270.0000000000016
  0
ARC
  5
661
330
1A
100
AcDbEntity
  8
SEIHIN
  6
CONTINUOUS
 62
     3
100
AcDbCircle
 10
462.6365929066387
 20
320.4785330174902
 30
0.0
 40
2.0
100
AcDbArc
 50
180.0
 51
270.0
  0
ARC
  5
662
330
1A
100
AcDbEntity
  8
SEIHIN
  6
CONTINUOUS
 62
     3
100
AcDbCircle
 10
462.6365929066387
 20
314.4785330174902
 30
0.0
 40
2.0
100
AcDbArc
 50
90.0
 51
180.0
  0
ARC
  5
663
330
1A
100
AcDbEntity
  8
SEIHIN
  6
CONTINUOUS
 62
     3
100
AcDbCircle
 10
462.6365929066387
 20
340.4785330174902
 30
0.0
 40
2.0
100
AcDbArc
 50
180.0
 51
270.0
  0
ARC
  5
664
330
1A
100
AcDbEntity
  8
SEIHIN
  6
CONTINUOUS
 62
     3
100
AcDbCircle
 10
462.6365929066387
 20
334.4785330174902
 30
0.0
 40
2.0
100
AcDbArc
 50
90.00000000000161
 51
180.0000000000032
  0
ARC
  5
665
330
1A
100
AcDbEntity
  8
SEIHIN
  6
CONTINUOUS
 62
     3
100
AcDbCircle
 10
462.6365929066387
 20
354.4787330174901
 30
0.0
 40
2.000000000000056
100
AcDbArc
 50
90.00000000000161
 51
180.0000000000016
  0
ARC
  5
666
330
1A
100
AcDbEntity
  8
SEIHIN
  6
CONTINUOUS
 62
     3
100
AcDbCircle
 10
462.6365929066385
 20
360.4787330174902
 30
0.0
 40
1.999999999999943
100
AcDbArc
 50
180.0000000000016
 51
270.0000000000016
  0
ARC
  5
667
330
1A
100
AcDbEntity
  8
SEIHIN
  6
CONTINUOUS
 62
     3
100
AcDbCircle
 10
462.6365929066387
 20
380.4787330174901
 30
0.0
 40
2.0
100
AcDbArc
 50
180.0
 51
270.0
  0
ARC
  5
668
330
1A
100
AcDbEntity
  8
SEIHIN
  6
CONTINUOUS
 62
     3
100
AcDbCircle
 10
462.6366929066387
 20
400.4787330174901
 30
0.0
 40
2.0
100
AcDbArc
 50
180.0
 51
270.0
  0
ARC
  5
669
330
1A
100
AcDbEntity
  8
SEIHIN
  6
CONTINUOUS
 62
     3
100
AcDbCircle
 10
462.6366929066387
 20
394.4787330174901
 30
0.0
 40
2.0
100
AcDbArc
 50
90.0
 51
180.0
  0
LINE
  5
66A
330
1A
100
AcDbEntity
  8
SEIHIN
  6
CONTINUOUS
 62
     3
100
AcDbLine
 10
460.6366929066386
 20
409.4788330174901
 30
0.0
 11
458.6366929066387
 21
409.4788330174901
 31
0.0
  0
LINE
  5
66B
330
1A
100
AcDbEntity
  8
SEIHIN
  6
CONTINUOUS
 62
     3
100
AcDbLine
 10
460.6366929066386
 20
411.4788330174901
 30
0.0
 11
458.6366929066387
 21
411.4788330174901
 31
0.0
  0
ARC
  5
66C
330
1A
100
AcDbEntity
  8
SEIHIN
  6
CONTINUOUS
 62
     3
100
AcDbCircle
 10
462.6366929066387
 20
414.4787330174901
 30
0.0
 40
2.0
100
AcDbArc
 50
90.0
 51
180.0
  0
ARC
  5
66D
330
1A
100
AcDbEntity
  8
SEIHIN
  6
CONTINUOUS
 62
     3
100
AcDbCircle
 10
462.6366929066387
 20
420.4787330174902
 30
0.0
 40
2.0
100
AcDbArc
 50
180.0
 51
270.0
  0
ARC
  5
66E
330
1A
100
AcDbEntity
  8
SEIHIN
  6
CONTINUOUS
 62
     3
100
AcDbCircle
 10
462.6367929066386
 20
434.4787330174901
 30
0.0
 40
2.0
100
AcDbArc
 50
90.0
 51
180.0
  0
ARC
  5
66F
330
1A
100
AcDbEntity
  8
SEIHIN
  6
CONTINUOUS
 62
     3
100
AcDbCircle
 10
462.6365929066387
 20
374.4787330174901
 30
0.0
 40
2.0
100
AcDbArc
 50
90.0
 51
180.0
  0
ARC
  5
670
330
1A
100
AcDbEntity
  8
SEIHIN
  6
CONTINUOUS
 62
     3
100
AcDbCircle
 10
462.6367929066386
 20
440.4787330174902
 30
0.0
 40
2.0
100
AcDbArc
 50
180.0
 51
270.0
  0
ARC
  5
671
330
1A
100
AcDbEntity
  8
SEIHIN
  6
CONTINUOUS
 62
     3
100
AcDbCircle
 10
462.6368929066386
 20
460.4787330174901
 30
0.0
 40
1.999999999999943
100
AcDbArc
 50
180.0000000000016
 51
270.0000000000016
  0
ARC
  5
672
330
1A
100
AcDbEntity
  8
SEIHIN
  6
CONTINUOUS
 62
     3
100
AcDbCircle
 10
462.6368929066388
 20
454.4787330174901
 30
0.0
 40
2.0
100
AcDbArc
 50
90.00000000000161
 51
180.0000000000016
  0
ARC
  5
673
330
1A
100
AcDbEntity
  8
SEIHIN
  6
CONTINUOUS
 62
     3
100
AcDbCircle
 10
462.6368716826634
 20
467.2277084375657
 30
0.0
 40
1.99997877617584
100
AcDbArc
 50
98.3801874171246
 51
179.9992958295645
  0
LINE
  5
674
330
1A
100
AcDbEntity
  8
CENTER_L
  6
CENTER
 62
     1
 48
5.0
100
AcDbLine
 10
559.4819805765491
 20
347.4784639575486
 30
0.0
 11
279.4844211306219
 21
347.4789160690884
 31
0.0
  0
LINE
  5
675
330
1A
100
AcDbEntity
  8
SEIHIN
  6
CONTINUOUS
 62
     3
100
AcDbLine
 10
287.6368929066386
 20
444.47923301749
 30
0.0
 11
511.6368929066388
 21
477.4787330174901
 31
0.0
  0
LINE
  5
676
330
1A
100
AcDbEntity
  8
SEIHIN
  6
CONTINUOUS
 62
     3
100
AcDbLine
 10
458.6366929066387
 20
420.4787330174902
 30
0.0
 11
458.6367929066386
 21
434.4787330174901
 31
0.0
  0
LINE
  5
677
330
1A
100
AcDbEntity
  8
SEIHIN
  6
CONTINUOUS
 62
     3
100
AcDbLine
 10
440.1367929066386
 20
434.4788330174901
 30
0.0
 11
440.1366929066386
 21
422.3778330174902
 31
0.0
  0
LINE
  5
678
330
1A
100
AcDbEntity
  8
SEIHIN
  6
CONTINUOUS
 62
     3
100
AcDbLine
 10
438.1366929066387
 20
422.3778330174902
 30
0.0
 11
438.1367929066386
 21
434.4788330174901
 31
0.0
  0
LINE
  5
679
330
1A
100
AcDbEntity
  8
SEIHIN
  6
CONTINUOUS
 62
     3
100
AcDbLine
 10
419.6367929066386
 20
434.4789330174901
 30
0.0
 11
419.6367929066386
 21
420.4789330174901
 31
0.0
  0
LINE
  5
67A
330
1A
100
AcDbEntity
  8
SEIHIN
  6
CONTINUOUS
 62
     3
100
AcDbLine
 10
417.6366929066387
 20
420.4789330174901
 30
0.0
 11
417.6367929066386
 21
434.4789330174901
 31
0.0
  0
LINE
  5
67B
330
1A
100
AcDbEntity
  8
SEIHIN
  6
CONTINUOUS
 62
     3
100
AcDbLine
 10
399.1367929066386
 20
434.4789330174901
 30
0.0
 11
399.1367929066386
 21
420.4789330174901
 31
0.0
  0
LINE
  5
67C
330
1A
100
AcDbEntity
  8
SEIHIN
  6
CONTINUOUS
 62
     3
100
AcDbLine
 10
397.1367929066386
 20
420.4789330174901
 30
0.0
 11
397.1367929066386
 21
434.4789330174901
 31
0.0
  0
LINE
  5
67D
330
1A
100
AcDbEntity
  8
SEIHIN
  6
CONTINUOUS
 62
     3
100
AcDbLine
 10
378.6367929066386
 20
434.4790330174903
 30
0.0
 11
378.6367929066386
 21
420.4790330174903
 31
0.0
  0
LINE
  5
67E
330
1A
100
AcDbEntity
  8
SEIHIN
  6
CONTINUOUS
 62
     3
100
AcDbLine
 10
376.6367929066386
 20
420.4790330174903
 30
0.0
 11
376.6367929066386
 21
434.4790330174903
 31
0.0
  0
LINE
  5
67F
330
1A
100
AcDbEntity
  8
SEIHIN
  6
CONTINUOUS
 62
     3
100
AcDbLine
 10
358.1367929066386
 20
434.4790330174903
 30
0.0
 11
358.1367929066386
 21
420.4790330174903
 31
0.0
  0
LINE
  5
680
330
1A
100
AcDbEntity
  8
SEIHIN
  6
CONTINUOUS
 62
     3
100
AcDbLine
 10
356.1367929066386
 20
420.4790330174903
 30
0.0
 11
356.1367929066386
 21
434.4790330174903
 31
0.0
  0
LINE
  5
681
330
1A
100
AcDbEntity
  8
SEIHIN
  6
CONTINUOUS
 62
     3
100
AcDbLine
 10
337.6367929066386
 20
434.4792330174903
 30
0.0
 11
337.6367929066386
 21
420.4792330174901
 31
0.0
  0
LINE
  5
682
330
1A
100
AcDbEntity
  8
SEIHIN
  6
CONTINUOUS
 62
     3
100
AcDbLine
 10
335.6367929066387
 20
420.4792330174901
 30
0.0
 11
335.6367929066387
 21
434.4792330174903
 31
0.0
  0
LINE
  5
683
330
1A
100
AcDbEntity
  8
SEIHIN
  6
CONTINUOUS
 62
     3
100
AcDbLine
 10
317.1367929066386
 20
434.4792330174903
 30
0.0
 11
317.1367929066386
 21
420.4792330174901
 31
0.0
  0
LINE
  5
684
330
1A
100
AcDbEntity
  8
SEIHIN
  6
CONTINUOUS
 62
     3
100
AcDbLine
 10
315.1367929066386
 20
420.4792330174901
 30
0.0
 11
315.1367929066386
 21
434.4792330174903
 31
0.0
  0
LINE
  5
685
330
1A
100
AcDbEntity
  8
SEIHIN
  6
CONTINUOUS
 62
     3
100
AcDbLine
 10
296.6367929066386
 20
434.4792330174903
 30
0.0
 11
296.6367929066386
 21
420.4792330174901
 31
0.0
  0
LINE
  5
686
330
1A
100
AcDbEntity
  8
SEIHIN
  6
CONTINUOUS
 62
     3
100
AcDbLine
 10
295.6367929066386
 20
441.8253330174902
 30
0.0
 11
295.6365929066387
 21
347.4793330174902
 31
0.0
  0
LINE
  5
687
330
1A
100
AcDbEntity
  8
SEIHIN
  6
CONTINUOUS
 62
     3
100
AcDbLine
 10
360.1367929066386
 20
436.4790330174903
 30
0.0
 11
374.6367929066386
 21
436.4790330174903
 31
0.0
  0
LINE
  5
688
330
1A
100
AcDbEntity
  8
SEIHIN
  6
CONTINUOUS
 62
     3
100
AcDbLine
 10
360.1367929066386
 20
438.4790330174903
 30
0.0
 11
374.6367929066386
 21
438.4790330174903
 31
0.0
  0
LINE
  5
689
330
1A
100
AcDbEntity
  8
SEIHIN
  6
CONTINUOUS
 62
     3
100
AcDbLine
 10
374.3453929066386
 20
456.2422330174902
 30
0.0
 11
359.8453929066386
 21
454.1061330174902
 31
0.0
  0
LINE
  5
68A
330
1A
100
AcDbEntity
  8
SEIHIN
  6
CONTINUOUS
 62
     3
100
AcDbLine
 10
319.1367929066386
 20
436.47923301749
 30
0.0
 11
333.6367929066387
 21
436.47923301749
 31
0.0
  0
LINE
  5
68B
330
1A
100
AcDbEntity
  8
SEIHIN
  6
CONTINUOUS
 62
     3
100
AcDbLine
 10
333.3453929066386
 20
450.2022330174902
 30
0.0
 11
318.8453929066386
 21
448.0660330174901
 31
0.0
  0
LINE
  5
68C
330
1A
100
AcDbEntity
  8
SEIHIN
  6
CONTINUOUS
 62
     3
100
AcDbLine
 10
319.1368929066386
 20
438.47923301749
 30
0.0
 11
333.6367929066387
 21
438.47923301749
 31
0.0
  0
ARC
  5
68D
330
1A
100
AcDbEntity
  8
SEIHIN
  6
CONTINUOUS
 62
     3
100
AcDbCircle
 10
298.6367929066386
 20
434.4792330174903
 30
0.0
 40
1.999999999999943
100
AcDbArc
 50
90.00000000000078
 51
180.0
  0
ARC
  5
68E
330
1A
100
AcDbEntity
  8
SEIHIN
  6
CONTINUOUS
 62
     3
100
AcDbCircle
 10
298.6368716826634
 20
443.0674084375657
 30
0.0
 40
1.99997877617584
100
AcDbArc
 50
98.3801874171246
 51
179.9992958295645
  0
ARC
  5
68F
330
1A
100
AcDbEntity
  8
SEIHIN
  6
CONTINUOUS
 62
     3
100
AcDbCircle
 10
298.6368929066386
 20
440.4792330174903
 30
0.0
 40
2.000000000000056
100
AcDbArc
 50
180.0000000000016
 51
270.0000000000008
  0
LINE
  5
690
330
1A
100
AcDbEntity
  8
SEIHIN
  6
CONTINUOUS
 62
     3
100
AcDbLine
 10
287.6368929066386
 20
447.5116330174901
 30
0.0
 11
287.6368929066386
 21
442.9630330174902
 31
0.0
  0
LINE
  5
691
330
1A
100
AcDbEntity
  8
SEIHIN
  6
CONTINUOUS
 62
     3
100
AcDbLine
 10
292.6368929066386
 20
448.2481330174903
 30
0.0
 11
292.6368929066386
 21
445.2158330174902
 31
0.0
  0
LINE
  5
692
330
1A
100
AcDbEntity
  8
SEIHIN
  6
CONTINUOUS
 62
     3
100
AcDbLine
 10
287.6368929066386
 20
447.5116330174901
 30
0.0
 11
292.6368929066386
 21
448.2481330174903
 31
0.0
  0
LINE
  5
693
330
1A
100
AcDbEntity
  8
SEIHIN
  6
CONTINUOUS
 62
     3
100
AcDbLine
 10
296.6368929066386
 20
443.0674330174902
 30
0.0
 11
296.6368929066386
 21
440.47923301749
 31
0.0
  0
ARC
  5
694
330
1A
100
AcDbEntity
  8
SEIHIN
  6
CONTINUOUS
 62
     3
100
AcDbCircle
 10
293.6367646645376
 20
441.8253574038171
 30
0.0
 40
2.000028242249865
100
AcDbArc
 50
359.9993013930585
 51
98.37977544055526
  0
LINE
  5
695
330
1A
100
AcDbEntity
  8
SEIHIN
  6
CONTINUOUS
 62
     3
100
AcDbLine
 10
287.6368929066386
 20
442.9630330174902
 30
0.0
 11
293.3453929066386
 21
443.8040330174901
 31
0.0
  0
LINE
  5
696
330
1A
100
AcDbEntity
  8
SEIHIN
  6
CONTINUOUS
 62
     3
100
AcDbLine
 10
317.1368929066386
 20
446.0874330174902
 30
0.0
 11
317.1368929066386
 21
440.47923301749
 31
0.0
  0
LINE
  5
697
330
1A
100
AcDbEntity
  8
SEIHIN
  6
CONTINUOUS
 62
     3
100
AcDbLine
 10
315.1368929066386
 20
440.47923301749
 30
0.0
 11
315.1368929066386
 21
445.2035330174901
 31
0.0
  0
ARC
  5
698
330
1A
100
AcDbEntity
  8
SEIHIN
  6
CONTINUOUS
 62
     3
100
AcDbCircle
 10
319.1368716826634
 20
446.0874084375659
 30
0.0
 40
1.999978776175724
100
AcDbArc
 50
98.38018741712428
 51
179.9992958295645
  0
LINE
  5
699
330
1A
100
AcDbEntity
  8
SEIHIN
  6
CONTINUOUS
 62
     3
100
AcDbLine
 10
312.8452929066388
 20
447.1821330174901
 30
0.0
 11
298.3453929066385
 21
445.0460330174901
 31
0.0
  0
ARC
  5
69A
330
1A
100
AcDbEntity
  8
SEIHIN
  6
CONTINUOUS
 62
     3
100
AcDbCircle
 10
313.1368141306138
 20
445.2035146912692
 30
0.0
 40
1.999978776108639
100
AcDbArc
 50
0.0005250131297517
 51
98.38141660068826
  0
ARC
  5
69B
330
1A
100
AcDbEntity
  8
SEIHIN
  6
CONTINUOUS
 62
     3
100
AcDbCircle
 10
319.1367929066386
 20
434.4792330174903
 30
0.0
 40
1.999999999999943
100
AcDbArc
 50
89.9999999999992
 51
180.0
  0
LINE
  5
69C
330
1A
100
AcDbEntity
  8
SEIHIN
  6
CONTINUOUS
 62
     3
100
AcDbLine
 10
298.6367929066386
 20
436.47923301749
 30
0.0
 11
313.1367929066386
 21
436.47923301749
 31
0.0
  0
ARC
  5
69D
330
1A
100
AcDbEntity
  8
SEIHIN
  6
CONTINUOUS
 62
     3
100
AcDbCircle
 10
313.1367929066386
 20
434.4792330174903
 30
0.0
 40
1.999999999999971
100
AcDbArc
 50
0.0
 51
90.00000000000078
  0
ARC
  5
69E
330
1A
100
AcDbEntity
  8
SEIHIN
  6
CONTINUOUS
 62
     3
100
AcDbCircle
 10
319.1368929066386
 20
440.47923301749
 30
0.0
 40
2.0
100
AcDbArc
 50
180.0
 51
270.0
  0
LINE
  5
69F
330
1A
100
AcDbEntity
  8
SEIHIN
  6
CONTINUOUS
 62
     3
100
AcDbLine
 10
298.6368929066386
 20
438.47923301749
 30
0.0
 11
313.1367929066386
 21
438.47923301749
 31
0.0
  0
ARC
  5
6A0
330
1A
100
AcDbEntity
  8
SEIHIN
  6
CONTINUOUS
 62
     3
100
AcDbCircle
 10
313.1367929066386
 20
440.47923301749
 30
0.0
 40
2.0
100
AcDbArc
 50
270.0
 51
0.0
  0
LINE
  5
6A1
330
1A
100
AcDbEntity
  8
SEIHIN
  6
CONTINUOUS
 62
     3
100
AcDbLine
 10
339.6367929066386
 20
436.4791330174901
 30
0.0
 11
354.1367929066386
 21
436.4790330174903
 31
0.0
  0
LINE
  5
6A2
330
1A
100
AcDbEntity
  8
SEIHIN
  6
CONTINUOUS
 62
     3
100
AcDbLine
 10
354.9910929066386
 20
453.3910330174901
 30
0.0
 11
339.3453929066386
 21
451.0860330174903
 31
0.0
  0
LINE
  5
6A3
330
1A
100
AcDbEntity
  8
SEIHIN
  6
CONTINUOUS
 62
     3
100
AcDbLine
 10
339.6368929066386
 20
438.47913301749
 30
0.0
 11
354.1368929066386
 21
438.4790330174903
 31
0.0
  0
LINE
  5
6A4
330
1A
100
AcDbEntity
  8
SEIHIN
  6
CONTINUOUS
 62
     3
100
AcDbLine
 10
337.6368929066386
 20
449.1075330174901
 30
0.0
 11
337.6368929066386
 21
440.47923301749
 31
0.0
  0
LINE
  5
6A5
330
1A
100
AcDbEntity
  8
SEIHIN
  6
CONTINUOUS
 62
     3
100
AcDbLine
 10
335.6367929066387
 20
440.47923301749
 30
0.0
 11
335.6367929066387
 21
448.22353301749
 31
0.0
  0
ARC
  5
6A6
330
1A
100
AcDbEntity
  8
SEIHIN
  6
CONTINUOUS
 62
     3
100
AcDbCircle
 10
333.6367646645376
 20
448.223557403817
 30
0.0
 40
2.000028242249865
100
AcDbArc
 50
359.9993013930601
 51
98.37977544055506
  0
ARC
  5
6A7
330
1A
100
AcDbEntity
  8
SEIHIN
  6
CONTINUOUS
 62
     3
100
AcDbCircle
 10
339.6368716826634
 20
449.1074084375659
 30
0.0
 40
1.999978776175832
100
AcDbArc
 50
98.38018741712298
 51
179.9992958295645
  0
ARC
  5
6A8
330
1A
100
AcDbEntity
  8
SEIHIN
  6
CONTINUOUS
 62
     3
100
AcDbCircle
 10
333.6367929066387
 20
434.47923301749
 30
0.0
 40
2.0
100
AcDbArc
 50
0.0000000000016157
 51
90.00000000000245
  0
ARC
  5
6A9
330
1A
100
AcDbEntity
  8
SEIHIN
  6
CONTINUOUS
 62
     3
100
AcDbCircle
 10
339.6367929066386
 20
434.47913301749
 30
0.0
 40
2.000000000000056
100
AcDbArc
 50
89.99999999999836
 51
179.9999999999983
  0
ARC
  5
6AA
330
1A
100
AcDbEntity
  8
SEIHIN
  6
CONTINUOUS
 62
     3
100
AcDbCircle
 10
333.6367929066387
 20
440.4792330174903
 30
0.0
 40
2.000000000000056
100
AcDbArc
 50
269.9999999999992
 51
359.9999999999983
  0
ARC
  5
6AB
330
1A
100
AcDbEntity
  8
SEIHIN
  6
CONTINUOUS
 62
     3
100
AcDbCircle
 10
339.6368929066386
 20
440.4791330174901
 30
0.0
 40
2.0
100
AcDbArc
 50
180.0
 51
270.0
  0
LINE
  5
6AC
330
1A
100
AcDbEntity
  8
SEIHIN
  6
CONTINUOUS
 62
     3
100
AcDbLine
 10
358.1368929066386
 20
452.12753301749
 30
0.0
 11
358.1368929066386
 21
440.4790330174903
 31
0.0
  0
LINE
  5
6AD
330
1A
100
AcDbEntity
  8
SEIHIN
  6
CONTINUOUS
 62
     3
100
AcDbLine
 10
356.1367929066386
 20
440.4790330174903
 30
0.0
 11
356.1368929066386
 21
452.4016330174902
 31
0.0
  0
ARC
  5
6AE
330
1A
100
AcDbEntity
  8
SEIHIN
  6
CONTINUOUS
 62
     3
100
AcDbCircle
 10
355.1368504084448
 20
452.4016697120216
 30
0.0
 40
1.000042498867079
100
AcDbArc
 50
359.9978976475641
 51
98.38078815739789
  0
ARC
  5
6AF
330
1A
100
AcDbEntity
  8
SEIHIN
  6
CONTINUOUS
 62
     3
100
AcDbCircle
 10
360.1368716826634
 20
452.1275084375658
 30
0.0
 40
1.999978776175832
100
AcDbArc
 50
98.38018741712298
 51
179.9992958295645
  0
ARC
  5
6B0
330
1A
100
AcDbEntity
  8
SEIHIN
  6
CONTINUOUS
 62
     3
100
AcDbCircle
 10
354.1367929066386
 20
434.4790330174903
 30
0.0
 40
2.0
100
AcDbArc
 50
0.0
 51
90.0
  0
ARC
  5
6B1
330
1A
100
AcDbEntity
  8
SEIHIN
  6
CONTINUOUS
 62
     3
100
AcDbCircle
 10
360.1367929066386
 20
434.4790330174903
 30
0.0
 40
2.0
100
AcDbArc
 50
90.0
 51
180.0
  0
ARC
  5
6B2
330
1A
100
AcDbEntity
  8
SEIHIN
  6
CONTINUOUS
 62
     3
100
AcDbCircle
 10
354.1368929066386
 20
440.4790330174903
 30
0.0
 40
2.0
100
AcDbArc
 50
270.0
 51
0.0
  0
ARC
  5
6B3
330
1A
100
AcDbEntity
  8
SEIHIN
  6
CONTINUOUS
 62
     3
100
AcDbCircle
 10
360.1367929066386
 20
440.4790330174903
 30
0.0
 40
2.0
100
AcDbArc
 50
180.0
 51
270.0
  0
LINE
  5
6B4
330
1A
100
AcDbEntity
  8
SEIHIN
  6
CONTINUOUS
 62
     3
100
AcDbLine
 10
401.1367929066386
 20
436.4789330174901
 30
0.0
 11
415.6368929066388
 21
436.4789330174901
 31
0.0
  0
LINE
  5
6B5
330
1A
100
AcDbEntity
  8
SEIHIN
  6
CONTINUOUS
 62
     3
100
AcDbLine
 10
415.9181929066387
 20
462.36693301749
 30
0.0
 11
409.8910929066387
 21
461.4789330174901
 31
0.0
  0
LINE
  5
6B6
330
1A
100
AcDbEntity
  8
SEIHIN
  6
CONTINUOUS
 62
     3
100
AcDbLine
 10
409.8910929066387
 20
458.4789330174901
 30
0.0
 11
416.1368929066388
 21
458.4789330174901
 31
0.0
  0
LINE
  5
6B7
330
1A
100
AcDbEntity
  8
SEIHIN
  6
CONTINUOUS
 62
     3
100
AcDbLine
 10
401.1368929066386
 20
456.4789330174901
 30
0.0
 11
415.6368929066388
 21
456.4789330174901
 31
0.0
  0
LINE
  5
6B8
330
1A
100
AcDbEntity
  8
SEIHIN
  6
CONTINUOUS
 62
     3
100
AcDbLine
 10
401.1367929066386
 20
438.4789330174901
 30
0.0
 11
415.6368929066388
 21
438.4789330174901
 31
0.0
  0
ARC
  5
6B9
330
1A
100
AcDbEntity
  8
SEIHIN
  6
CONTINUOUS
 62
     3
100
AcDbCircle
 10
409.8910929066387
 20
459.9789330174901
 30
0.0
 40
1.5
100
AcDbArc
 50
90.0
 51
270.0
  0
LINE
  5
6BA
330
1A
100
AcDbEntity
  8
SEIHIN
  6
CONTINUOUS
 62
     3
100
AcDbLine
 10
380.6367929066386
 20
436.4790330174903
 30
0.0
 11
395.1367929066386
 21
436.4789330174901
 31
0.0
  0
LINE
  5
6BB
330
1A
100
AcDbEntity
  8
SEIHIN
  6
CONTINUOUS
 62
     3
100
AcDbLine
 10
394.8453929066386
 20
459.2622330174902
 30
0.0
 11
380.3453929066386
 21
457.1261330174902
 31
0.0
  0
LINE
  5
6BC
330
1A
100
AcDbEntity
  8
SEIHIN
  6
CONTINUOUS
 62
     3
100
AcDbLine
 10
380.6367929066386
 20
438.4790330174903
 30
0.0
 11
395.1367929066386
 21
438.4789330174901
 31
0.0
  0
LINE
  5
6BD
330
1A
100
AcDbEntity
  8
SEIHIN
  6
CONTINUOUS
 62
     3
100
AcDbLine
 10
378.6368929066386
 20
455.1475330174901
 30
0.0
 11
378.6368929066386
 21
440.4790330174903
 31
0.0
  0
LINE
  5
6BE
330
1A
100
AcDbEntity
  8
SEIHIN
  6
CONTINUOUS
 62
     3
100
AcDbLine
 10
376.6367929066386
 20
440.4790330174903
 30
0.0
 11
376.6368929066386
 21
454.26363301749
 31
0.0
  0
ARC
  5
6BF
330
1A
100
AcDbEntity
  8
SEIHIN
  6
CONTINUOUS
 62
     3
100
AcDbCircle
 10
380.6368716826634
 20
455.1475084375659
 30
0.0
 40
1.999978776175849
100
AcDbArc
 50
98.38018741712623
 51
179.9992958295661
  0
ARC
  5
6C0
330
1A
100
AcDbEntity
  8
SEIHIN
  6
CONTINUOUS
 62
     3
100
AcDbCircle
 10
374.636914130614
 20
454.2636146912691
 30
0.0
 40
1.999978776108724
100
AcDbArc
 50
0.0005250131297517
 51
98.38141660068966
  0
ARC
  5
6C1
330
1A
100
AcDbEntity
  8
SEIHIN
  6
CONTINUOUS
 62
     3
100
AcDbCircle
 10
380.6367929066386
 20
434.4790330174903
 30
0.0
 40
2.0
100
AcDbArc
 50
90.0
 51
180.0
  0
ARC
  5
6C2
330
1A
100
AcDbEntity
  8
SEIHIN
  6
CONTINUOUS
 62
     3
100
AcDbCircle
 10
374.6367929066386
 20
434.4790330174903
 30
0.0
 40
2.0
100
AcDbArc
 50
0.0
 51
90.0
  0
ARC
  5
6C3
330
1A
100
AcDbEntity
  8
SEIHIN
  6
CONTINUOUS
 62
     3
100
AcDbCircle
 10
380.6367929066386
 20
440.4790330174903
 30
0.0
 40
2.0
100
AcDbArc
 50
180.0
 51
270.0
  0
ARC
  5
6C4
330
1A
100
AcDbEntity
  8
SEIHIN
  6
CONTINUOUS
 62
     3
100
AcDbCircle
 10
374.6367929066386
 20
440.4790330174903
 30
0.0
 40
2.0
100
AcDbArc
 50
270.0
 51
0.0
  0
LINE
  5
6C5
330
1A
100
AcDbEntity
  8
SEIHIN
  6
CONTINUOUS
 62
     3
100
AcDbLine
 10
399.1368929066386
 20
454.4789330174901
 30
0.0
 11
399.1368929066386
 21
440.4789330174901
 31
0.0
  0
LINE
  5
6C6
330
1A
100
AcDbEntity
  8
SEIHIN
  6
CONTINUOUS
 62
     3
100
AcDbLine
 10
397.1368929066386
 20
440.4789330174901
 30
0.0
 11
397.1368929066386
 21
457.2836330174903
 31
0.0
  0
ARC
  5
6C7
330
1A
100
AcDbEntity
  8
SEIHIN
  6
CONTINUOUS
 62
     3
100
AcDbCircle
 10
401.1368929066386
 20
454.4789330174901
 30
0.0
 40
2.0
100
AcDbArc
 50
90.0
 51
180.0
  0
ARC
  5
6C8
330
1A
100
AcDbEntity
  8
SEIHIN
  6
CONTINUOUS
 62
     3
100
AcDbCircle
 10
395.1369141306138
 20
457.2836146912693
 30
0.0
 40
1.999978776108781
100
AcDbArc
 50
0.000525013128136
 51
98.38141660068803
  0
ARC
  5
6C9
330
1A
100
AcDbEntity
  8
SEIHIN
  6
CONTINUOUS
 62
     3
100
AcDbCircle
 10
401.1367929066386
 20
434.4789330174901
 30
0.0
 40
2.000000000000056
100
AcDbArc
 50
89.99999999999836
 51
179.9999999999983
  0
ARC
  5
6CA
330
1A
100
AcDbEntity
  8
SEIHIN
  6
CONTINUOUS
 62
     3
100
AcDbCircle
 10
395.1367929066386
 20
434.4789330174901
 30
0.0
 40
2.0
100
AcDbArc
 50
0.0
 51
90.0
  0
ARC
  5
6CB
330
1A
100
AcDbEntity
  8
SEIHIN
  6
CONTINUOUS
 62
     3
100
AcDbCircle
 10
401.1367929066386
 20
440.4789330174903
 30
0.0
 40
2.000000000000056
100
AcDbArc
 50
180.0000000000016
 51
270.0000000000016
  0
ARC
  5
6CC
330
1A
100
AcDbEntity
  8
SEIHIN
  6
CONTINUOUS
 62
     3
100
AcDbCircle
 10
395.1367929066386
 20
440.4789330174901
 30
0.0
 40
2.0
100
AcDbArc
 50
270.0
 51
0.0
  0
LINE
  5
6CD
330
1A
100
AcDbEntity
  8
SEIHIN
  6
CONTINUOUS
 62
     3
100
AcDbLine
 10
458.6368929066388
 20
460.4787330174901
 30
0.0
 11
458.6369929066388
 21
466.3438330174901
 31
0.0
  0
ARC
  5
6CE
330
1A
100
AcDbEntity
  8
SEIHIN
  6
CONTINUOUS
 62
     3
100
AcDbCircle
 10
439.1368929066389
 20
457.4788330174901
 30
0.0
 40
5.0
100
AcDbArc
 50
270.0
 51
90.0
  0
ARC
  5
6CF
330
1A
100
AcDbEntity
  8
SEIHIN
  6
CONTINUOUS
 62
     3
100
AcDbCircle
 10
439.1368929066389
 20
457.4788330174901
 30
0.0
 40
5.0
100
AcDbArc
 50
90.0
 51
270.0
  0
ARC
  5
6D0
330
1A
100
AcDbEntity
  8
SEIHIN
  6
CONTINUOUS
 62
     3
100
AcDbCircle
 10
416.1368786251079
 20
460.8828453485773
 30
0.0
 40
1.50001428158138
100
AcDbArc
 50
359.9995289916557
 51
98.38297635853074
  0
ARC
  5
6D1
330
1A
100
AcDbEntity
  8
SEIHIN
  6
CONTINUOUS
 62
     3
100
AcDbCircle
 10
421.6368716826634
 20
461.1877084375658
 30
0.0
 40
1.99997877617584
100
AcDbArc
 50
98.3801874171246
 51
179.9992958295629
  0
ARC
  5
6D2
330
1A
100
AcDbEntity
  8
SEIHIN
  6
CONTINUOUS
 62
     3
100
AcDbCircle
 10
436.136914130614
 20
463.3238146912693
 30
0.0
 40
1.999978776108724
100
AcDbArc
 50
0.0005250131313929
 51
98.38141660069291
  0
LINE
  5
6D3
330
1A
100
AcDbEntity
  8
SEIHIN
  6
CONTINUOUS
 62
     3
100
AcDbLine
 10
435.8453929066386
 20
465.3024330174901
 30
0.0
 11
421.3454929066387
 21
463.1663330174901
 31
0.0
  0
ARC
  5
6D4
330
1A
100
AcDbEntity
  8
SEIHIN
  6
CONTINUOUS
 62
     3
100
AcDbCircle
 10
456.636914130614
 20
466.3438146912692
 30
0.0
 40
1.999978776108724
100
AcDbArc
 50
0.0005250131297517
 51
98.38141660068966
  0
LINE
  5
6D5
330
1A
100
AcDbEntity
  8
SEIHIN
  6
CONTINUOUS
 62
     3
100
AcDbLine
 10
440.1368929066388
 20
464.2077330174902
 30
0.0
 11
440.1368929066388
 21
462.3778330174903
 31
0.0
  0
LINE
  5
6D6
330
1A
100
AcDbEntity
  8
SEIHIN
  6
CONTINUOUS
 62
     3
100
AcDbLine
 10
438.1368929066389
 20
462.3778330174903
 30
0.0
 11
438.1368929066389
 21
463.3238330174902
 31
0.0
  0
ARC
  5
6D7
330
1A
100
AcDbEntity
  8
SEIHIN
  6
CONTINUOUS
 62
     3
100
AcDbCircle
 10
442.1368716826634
 20
464.2077084375658
 30
0.0
 40
1.99997877617584
100
AcDbArc
 50
98.3801874171246
 51
179.9992958295645
  0
LINE
  5
6D8
330
1A
100
AcDbEntity
  8
SEIHIN
  6
CONTINUOUS
 62
     3
100
AcDbLine
 10
456.3454929066388
 20
468.32243301749
 30
0.0
 11
441.8454929066387
 21
466.1863330174901
 31
0.0
  0
ARC
  5
6D9
330
1A
100
AcDbEntity
  8
SEIHIN
  6
CONTINUOUS
 62
     3
100
AcDbCircle
 10
436.1368929066388
 20
434.4788330174901
 30
0.0
 40
2.0
100
AcDbArc
 50
0.0
 51
90.0
  0
ARC
  5
6DA
330
1A
100
AcDbEntity
  8
SEIHIN
  6
CONTINUOUS
 62
     3
100
AcDbCircle
 10
436.1368929066388
 20
440.4788330174901
 30
0.0
 40
2.0
100
AcDbArc
 50
270.0
 51
0.0
  0
LINE
  5
6DB
330
1A
100
AcDbEntity
  8
SEIHIN
  6
CONTINUOUS
 62
     3
100
AcDbLine
 10
419.6368929066388
 20
454.4789330174901
 30
0.0
 11
419.6367929066386
 21
440.4789330174901
 31
0.0
  0
LINE
  5
6DC
330
1A
100
AcDbEntity
  8
SEIHIN
  6
CONTINUOUS
 62
     3
100
AcDbLine
 10
417.6367929066386
 20
440.4789330174901
 30
0.0
 11
417.6368929066389
 21
454.4789330174901
 31
0.0
  0
LINE
  5
6DD
330
1A
100
AcDbEntity
  8
SEIHIN
  6
CONTINUOUS
 62
     3
100
AcDbLine
 10
419.6368929066388
 20
461.1877330174902
 30
0.0
 11
419.6368929066388
 21
460.4789330174901
 31
0.0
  0
LINE
  5
6DE
330
1A
100
AcDbEntity
  8
SEIHIN
  6
CONTINUOUS
 62
     3
100
AcDbLine
 10
417.6368929066389
 20
459.9789330174901
 30
0.0
 11
417.6368929066389
 21
460.8828330174901
 31
0.0
  0
ARC
  5
6DF
330
1A
100
AcDbEntity
  8
SEIHIN
  6
CONTINUOUS
 62
     3
100
AcDbCircle
 10
415.6368929066388
 20
454.4789330174901
 30
0.0
 40
2.0
100
AcDbArc
 50
0.0
 51
90.0
  0
ARC
  5
6E0
330
1A
100
AcDbEntity
  8
SEIHIN
  6
CONTINUOUS
 62
     3
100
AcDbCircle
 10
416.1368929066388
 20
459.9789330174901
 30
0.0
 40
1.499999999999943
100
AcDbArc
 50
269.9999999999977
 51
0.0
  0
ARC
  5
6E1
330
1A
100
AcDbEntity
  8
SEIHIN
  6
CONTINUOUS
 62
     3
100
AcDbCircle
 10
421.6368929066389
 20
454.4789330174901
 30
0.0
 40
2.0
100
AcDbArc
 50
90.0
 51
180.0
  0
ARC
  5
6E2
330
1A
100
AcDbEntity
  8
SEIHIN
  6
CONTINUOUS
 62
     3
100
AcDbCircle
 10
421.6368929066389
 20
460.4789330174901
 30
0.0
 40
2.0
100
AcDbArc
 50
180.0
 51
270.0
  0
LINE
  5
6E3
330
1A
100
AcDbEntity
  8
SEIHIN
  6
CONTINUOUS
 62
     3
100
AcDbLine
 10
421.6368929066389
 20
456.4789330174901
 30
0.0
 11
434.2378929066387
 21
456.4788330174901
 31
0.0
  0
LINE
  5
6E4
330
1A
100
AcDbEntity
  8
SEIHIN
  6
CONTINUOUS
 62
     3
100
AcDbLine
 10
421.6368929066389
 20
458.4789330174901
 30
0.0
 11
434.2378929066387
 21
458.4788330174901
 31
0.0
  0
ARC
  5
6E5
330
1A
100
AcDbEntity
  8
SEIHIN
  6
CONTINUOUS
 62
     3
100
AcDbCircle
 10
415.6368929066388
 20
434.4789330174901
 30
0.0
 40
2.0
100
AcDbArc
 50
0.0
 51
90.0
  0
ARC
  5
6E6
330
1A
100
AcDbEntity
  8
SEIHIN
  6
CONTINUOUS
 62
     3
100
AcDbCircle
 10
421.6367929066386
 20
434.4789330174901
 30
0.0
 40
2.0
100
AcDbArc
 50
90.0
 51
180.0
  0
LINE
  5
6E7
330
1A
100
AcDbEntity
  8
SEIHIN
  6
CONTINUOUS
 62
     3
100
AcDbLine
 10
421.6367929066386
 20
436.4789330174901
 30
0.0
 11
436.1368929066388
 21
436.4788330174901
 31
0.0
  0
ARC
  5
6E8
330
1A
100
AcDbEntity
  8
SEIHIN
  6
CONTINUOUS
 62
     3
100
AcDbCircle
 10
415.6368929066388
 20
440.4789330174901
 30
0.0
 40
2.0
100
AcDbArc
 50
270.0
 51
0.0
  0
ARC
  5
6E9
330
1A
100
AcDbEntity
  8
SEIHIN
  6
CONTINUOUS
 62
     3
100
AcDbCircle
 10
421.6367929066386
 20
440.4789330174901
 30
0.0
 40
2.0
100
AcDbArc
 50
180.0
 51
270.0
  0
LINE
  5
6EA
330
1A
100
AcDbEntity
  8
SEIHIN
  6
CONTINUOUS
 62
     3
100
AcDbLine
 10
421.6367929066386
 20
438.4789330174901
 30
0.0
 11
436.1368929066388
 21
438.4788330174901
 31
0.0
  0
LINE
  5
6EB
330
1A
100
AcDbEntity
  8
SEIHIN
  6
CONTINUOUS
 62
     3
100
AcDbLine
 10
458.6367929066386
 20
440.4787330174902
 30
0.0
 11
458.6368929066388
 21
454.4787330174901
 31
0.0
  0
LINE
  5
6EC
330
1A
100
AcDbEntity
  8
SEIHIN
  6
CONTINUOUS
 62
     3
100
AcDbLine
 10
440.1368929066388
 20
452.5798330174902
 30
0.0
 11
440.1367929066386
 21
440.4788330174901
 31
0.0
  0
LINE
  5
6ED
330
1A
100
AcDbEntity
  8
SEIHIN
  6
CONTINUOUS
 62
     3
100
AcDbLine
 10
438.1367929066386
 20
440.4788330174901
 30
0.0
 11
438.1368929066389
 21
452.5798330174902
 31
0.0
  0
ARC
  5
6EE
330
1A
100
AcDbEntity
  8
SEIHIN
  6
CONTINUOUS
 62
     3
100
AcDbCircle
 10
456.6368929066388
 20
460.4787330174901
 30
0.0
 40
2.0
100
AcDbArc
 50
269.9999999999983
 51
359.9999999999983
  0
ARC
  5
6EF
330
1A
100
AcDbEntity
  8
SEIHIN
  6
CONTINUOUS
 62
     3
100
AcDbCircle
 10
456.6368929066386
 20
454.4787330174901
 30
0.0
 40
2.000000000000056
100
AcDbArc
 50
359.9999999999983
 51
89.99999999999836
  0
LINE
  5
6F0
330
1A
100
AcDbEntity
  8
SEIHIN
  6
CONTINUOUS
 62
     3
100
AcDbLine
 10
444.0358929066388
 20
456.4788330174901
 30
0.0
 11
456.6368929066388
 21
456.4787330174901
 31
0.0
  0
LINE
  5
6F1
330
1A
100
AcDbEntity
  8
SEIHIN
  6
CONTINUOUS
 62
     3
100
AcDbLine
 10
444.0358929066388
 20
458.4788330174901
 30
0.0
 11
456.6368929066388
 21
458.4787330174902
 31
0.0
  0
ARC
  5
6F2
330
1A
100
AcDbEntity
  8
SEIHIN
  6
CONTINUOUS
 62
     3
100
AcDbCircle
 10
456.6368929066388
 20
434.4787330174901
 30
0.0
 40
2.0
100
AcDbArc
 50
0.0
 51
90.0
  0
ARC
  5
6F3
330
1A
100
AcDbEntity
  8
SEIHIN
  6
CONTINUOUS
 62
     3
100
AcDbCircle
 10
456.6368929066388
 20
440.4787330174902
 30
0.0
 40
2.0
100
AcDbArc
 50
270.0
 51
0.0
  0
ARC
  5
6F4
330
1A
100
AcDbEntity
  8
SEIHIN
  6
CONTINUOUS
 62
     3
100
AcDbCircle
 10
442.1367929066386
 20
434.4788330174901
 30
0.0
 40
2.0
100
AcDbArc
 50
90.0
 51
180.0
  0
ARC
  5
6F5
330
1A
100
AcDbEntity
  8
SEIHIN
  6
CONTINUOUS
 62
     3
100
AcDbCircle
 10
442.1367929066386
 20
440.4788330174901
 30
0.0
 40
2.0
100
AcDbArc
 50
180.0
 51
270.0
  0
LINE
  5
6F6
330
1A
100
AcDbEntity
  8
SEIHIN
  6
CONTINUOUS
 62
     3
100
AcDbLine
 10
442.1367929066386
 20
436.4788330174901
 30
0.0
 11
456.6368929066388
 21
436.4787330174902
 31
0.0
  0
LINE
  5
6F7
330
1A
100
AcDbEntity
  8
SEIHIN
  6
CONTINUOUS
 62
     3
100
AcDbLine
 10
442.1367929066386
 20
438.4788330174901
 30
0.0
 11
456.6368929066388
 21
438.4787330174901
 31
0.0
  0
LINE
  5
6F8
330
1A
100
AcDbEntity
  8
SEIHIN
  6
CONTINUOUS
 62
     3
100
AcDbLine
 10
360.1365929066387
 20
298.4785330174902
 30
0.0
 11
374.6365929066387
 21
298.4785330174902
 31
0.0
  0
LINE
  5
6F9
330
1A
100
AcDbEntity
  8
SEIHIN
  6
CONTINUOUS
 62
     3
100
AcDbLine
 10
362.0355929066386
 20
318.4785330174902
 30
0.0
 11
374.6365929066387
 21
318.4785330174902
 31
0.0
  0
LINE
  5
6FA
330
1A
100
AcDbEntity
  8
SEIHIN
  6
CONTINUOUS
 62
     3
100
AcDbLine
 10
362.0355929066386
 20
316.4785330174902
 30
0.0
 11
374.6365929066387
 21
316.4785330174902
 31
0.0
  0
LINE
  5
6FB
330
1A
100
AcDbEntity
  8
SEIHIN
  6
CONTINUOUS
 62
     3
100
AcDbLine
 10
360.1365929066387
 20
338.4785330174902
 30
0.0
 11
374.6365929066387
 21
338.4785330174902
 31
0.0
  0
LINE
  5
6FC
330
1A
100
AcDbEntity
  8
SEIHIN
  6
CONTINUOUS
 62
     3
100
AcDbLine
 10
360.1365929066387
 20
336.4785330174902
 30
0.0
 11
374.6365929066387
 21
336.4785330174902
 31
0.0
  0
LINE
  5
6FD
330
1A
100
AcDbEntity
  8
SEIHIN
  6
CONTINUOUS
 62
     3
100
AcDbLine
 10
360.1365929066387
 20
356.4790330174901
 30
0.0
 11
374.6365929066387
 21
356.4790330174901
 31
0.0
  0
LINE
  5
6FE
330
1A
100
AcDbEntity
  8
SEIHIN
  6
CONTINUOUS
 62
     3
100
AcDbLine
 10
360.1365929066387
 20
358.4790330174901
 30
0.0
 11
374.6365929066387
 21
358.4790330174901
 31
0.0
  0
LINE
  5
6FF
330
1A
100
AcDbEntity
  8
SEIHIN
  6
CONTINUOUS
 62
     3
100
AcDbLine
 10
362.0355929066386
 20
376.4790330174901
 30
0.0
 11
374.6366929066387
 21
376.4790330174901
 31
0.0
  0
LINE
  5
700
330
1A
100
AcDbEntity
  8
SEIHIN
  6
CONTINUOUS
 62
     3
100
AcDbLine
 10
362.0355929066386
 20
378.4790330174901
 30
0.0
 11
374.6366929066387
 21
378.4790330174901
 31
0.0
  0
LINE
  5
701
330
1A
100
AcDbEntity
  8
SEIHIN
  6
CONTINUOUS
 62
     3
100
AcDbLine
 10
360.1366929066387
 20
396.4790330174901
 30
0.0
 11
374.6366929066387
 21
396.4790330174901
 31
0.0
  0
LINE
  5
702
330
1A
100
AcDbEntity
  8
SEIHIN
  6
CONTINUOUS
 62
     3
100
AcDbLine
 10
360.1366929066387
 20
398.4790330174901
 30
0.0
 11
374.6366929066387
 21
398.4790330174901
 31
0.0
  0
LINE
  5
703
330
1A
100
AcDbEntity
  8
SEIHIN
  6
CONTINUOUS
 62
     3
100
AcDbLine
 10
360.1366929066387
 20
416.4790330174903
 30
0.0
 11
374.6367929066386
 21
416.4790330174903
 31
0.0
  0
LINE
  5
704
330
1A
100
AcDbEntity
  8
SEIHIN
  6
CONTINUOUS
 62
     3
100
AcDbLine
 10
360.1367929066386
 20
418.4790330174903
 30
0.0
 11
374.6367929066386
 21
418.4790330174903
 31
0.0
  0
LINE
  5
705
330
1A
100
AcDbEntity
  8
SEIHIN
  6
CONTINUOUS
 62
     3
100
AcDbLine
 10
358.1365929066387
 20
372.5800330174902
 30
0.0
 11
358.1365929066387
 21
360.4790330174901
 31
0.0
  0
LINE
  5
706
330
1A
100
AcDbEntity
  8
SEIHIN
  6
CONTINUOUS
 62
     3
100
AcDbLine
 10
356.1365929066387
 20
360.4790330174901
 30
0.0
 11
356.1366929066386
 21
372.5800330174902
 31
0.0
  0
LINE
  5
707
330
1A
100
AcDbEntity
  8
SEIHIN
  6
CONTINUOUS
 62
     3
100
AcDbLine
 10
337.6365929066387
 20
374.47923301749
 30
0.0
 11
337.6365929066387
 21
360.47923301749
 31
0.0
  0
ARC
  5
708
330
1A
100
AcDbEntity
  8
SEIHIN
  6
CONTINUOUS
 62
     3
100
AcDbCircle
 10
417.63653244246
 20
347.478538802379
 30
0.0
 40
62.00004574642743
100
AcDbArc
 50
163.673573070408
 51
173.0995301805866
  0
LINE
  5
709
330
1A
100
AcDbEntity
  8
SEIHIN
  6
CONTINUOUS
 62
     3
100
AcDbLine
 10
335.6365929066387
 20
360.47923301749
 30
0.0
 11
335.6365929066387
 21
374.47923301749
 31
0.0
  0
LINE
  5
70A
330
1A
100
AcDbEntity
  8
SEIHIN
  6
CONTINUOUS
 62
     3
100
AcDbLine
 10
317.1366929066387
 20
372.5802330174901
 30
0.0
 11
317.1365929066387
 21
360.47923301749
 31
0.0
  0
LINE
  5
70B
330
1A
100
AcDbEntity
  8
SEIHIN
  6
CONTINUOUS
 62
     3
100
AcDbLine
 10
315.1365929066387
 20
360.47923301749
 30
0.0
 11
315.1365929066387
 21
372.5802330174901
 31
0.0
  0
LINE
  5
70C
330
1A
100
AcDbEntity
  8
SEIHIN
  6
CONTINUOUS
 62
     3
100
AcDbLine
 10
296.6366929066387
 20
374.47923301749
 30
0.0
 11
296.6365929066387
 21
360.47923301749
 31
0.0
  0
LINE
  5
70D
330
1A
100
AcDbEntity
  8
SEIHIN
  6
CONTINUOUS
 62
     3
100
AcDbLine
 10
321.0356929066386
 20
376.4792330174902
 30
0.0
 11
333.6366929066386
 21
376.4792330174902
 31
0.0
  0
LINE
  5
70E
330
1A
100
AcDbEntity
  8
SEIHIN
  6
CONTINUOUS
 62
     3
100
AcDbLine
 10
321.0356929066386
 20
378.4792330174902
 30
0.0
 11
333.6366929066386
 21
378.4792330174902
 31
0.0
  0
LINE
  5
70F
330
1A
100
AcDbEntity
  8
SEIHIN
  6
CONTINUOUS
 62
     3
100
AcDbLine
 10
319.1366929066386
 20
396.47923301749
 30
0.0
 11
333.6366929066386
 21
396.47923301749
 31
0.0
  0
LINE
  5
710
330
1A
100
AcDbEntity
  8
SEIHIN
  6
CONTINUOUS
 62
     3
100
AcDbLine
 10
319.1366929066386
 20
398.47923301749
 30
0.0
 11
333.6366929066386
 21
398.47923301749
 31
0.0
  0
LINE
  5
711
330
1A
100
AcDbEntity
  8
SEIHIN
  6
CONTINUOUS
 62
     3
100
AcDbLine
 10
319.1367929066386
 20
416.4792330174901
 30
0.0
 11
333.6366929066386
 21
416.4792330174901
 31
0.0
  0
LINE
  5
712
330
1A
100
AcDbEntity
  8
SEIHIN
  6
CONTINUOUS
 62
     3
100
AcDbLine
 10
319.1367929066386
 20
418.47923301749
 30
0.0
 11
333.6367929066387
 21
418.47923301749
 31
0.0
  0
ARC
  5
713
330
1A
100
AcDbEntity
  8
SEIHIN
  6
CONTINUOUS
 62
     3
100
AcDbCircle
 10
319.1366929066386
 20
394.47923301749
 30
0.0
 40
2.0
100
AcDbArc
 50
90.0
 51
180.0
  0
ARC
  5
714
330
1A
100
AcDbEntity
  8
SEIHIN
  6
CONTINUOUS
 62
     3
100
AcDbCircle
 10
298.6366929066387
 20
394.47923301749
 30
0.0
 40
2.0
100
AcDbArc
 50
90.0
 51
180.0
  0
ARC
  5
715
330
1A
100
AcDbEntity
  8
SEIHIN
  6
CONTINUOUS
 62
     3
100
AcDbCircle
 10
313.1366929066387
 20
394.47923301749
 30
0.0
 40
2.0
100
AcDbArc
 50
0.0
 51
90.0
  0
ARC
  5
716
330
1A
100
AcDbEntity
  8
SEIHIN
  6
CONTINUOUS
 62
     3
100
AcDbCircle
 10
298.6366929066387
 20
400.47923301749
 30
0.0
 40
2.0
100
AcDbArc
 50
180.0
 51
270.0
  0
ARC
  5
717
330
1A
100
AcDbEntity
  8
SEIHIN
  6
CONTINUOUS
 62
     3
100
AcDbCircle
 10
298.6366929066387
 20
414.47923301749
 30
0.0
 40
2.0
100
AcDbArc
 50
90.0
 51
180.0
  0
ARC
  5
718
330
1A
100
AcDbEntity
  8
SEIHIN
  6
CONTINUOUS
 62
     3
100
AcDbCircle
 10
298.6367929066386
 20
420.4792330174901
 30
0.0
 40
1.999999999999943
100
AcDbArc
 50
179.9999999999983
 51
269.9999999999992
  0
LINE
  5
719
330
1A
100
AcDbEntity
  8
SEIHIN
  6
CONTINUOUS
 62
     3
100
AcDbLine
 10
296.6367929066386
 20
414.47923301749
 30
0.0
 11
296.6366929066387
 21
400.47923301749
 31
0.0
  0
LINE
  5
71A
330
1A
100
AcDbEntity
  8
SEIHIN
  6
CONTINUOUS
 62
     3
100
AcDbLine
 10
317.1367929066386
 20
414.47923301749
 30
0.0
 11
317.1366929066387
 21
400.47923301749
 31
0.0
  0
LINE
  5
71B
330
1A
100
AcDbEntity
  8
SEIHIN
  6
CONTINUOUS
 62
     3
100
AcDbLine
 10
315.1366929066387
 20
400.47923301749
 30
0.0
 11
315.1367929066386
 21
414.47923301749
 31
0.0
  0
ARC
  5
71C
330
1A
100
AcDbEntity
  8
SEIHIN
  6
CONTINUOUS
 62
     3
100
AcDbCircle
 10
319.1367929066386
 20
414.47923301749
 30
0.0
 40
2.0
100
AcDbArc
 50
90.0
 51
180.0
  0
ARC
  5
71D
330
1A
100
AcDbEntity
  8
SEIHIN
  6
CONTINUOUS
 62
     3
100
AcDbCircle
 10
319.1367929066386
 20
420.4792330174901
 30
0.0
 40
2.0
100
AcDbArc
 50
180.0
 51
270.0
  0
LINE
  5
71E
330
1A
100
AcDbEntity
  8
SEIHIN
  6
CONTINUOUS
 62
     3
100
AcDbLine
 10
298.6366929066387
 20
416.4792330174901
 30
0.0
 11
313.1366929066387
 21
416.4792330174901
 31
0.0
  0
LINE
  5
71F
330
1A
100
AcDbEntity
  8
SEIHIN
  6
CONTINUOUS
 62
     3
100
AcDbLine
 10
298.6367929066386
 20
418.47923301749
 30
0.0
 11
313.1367929066386
 21
418.47923301749
 31
0.0
  0
ARC
  5
720
330
1A
100
AcDbEntity
  8
SEIHIN
  6
CONTINUOUS
 62
     3
100
AcDbCircle
 10
313.1366929066387
 20
414.47923301749
 30
0.0
 40
2.0
100
AcDbArc
 50
0.0
 51
90.0
  0
ARC
  5
721
330
1A
100
AcDbEntity
  8
SEIHIN
  6
CONTINUOUS
 62
     3
100
AcDbCircle
 10
313.1367929066386
 20
420.4792330174901
 30
0.0
 40
2.0
100
AcDbArc
 50
270.0
 51
0.0
  0
ARC
  5
722
330
1A
100
AcDbEntity
  8
SEIHIN
  6
CONTINUOUS
 62
     3
100
AcDbCircle
 10
319.1366929066386
 20
400.47923301749
 30
0.0
 40
2.0
100
AcDbArc
 50
180.0
 51
270.0
  0
LINE
  5
723
330
1A
100
AcDbEntity
  8
SEIHIN
  6
CONTINUOUS
 62
     3
100
AcDbLine
 10
298.6366929066387
 20
396.47923301749
 30
0.0
 11
313.1366929066387
 21
396.47923301749
 31
0.0
  0
LINE
  5
724
330
1A
100
AcDbEntity
  8
SEIHIN
  6
CONTINUOUS
 62
     3
100
AcDbLine
 10
298.6366929066387
 20
398.47923301749
 30
0.0
 11
313.1366929066387
 21
398.47923301749
 31
0.0
  0
ARC
  5
725
330
1A
100
AcDbEntity
  8
SEIHIN
  6
CONTINUOUS
 62
     3
100
AcDbCircle
 10
313.1366929066387
 20
400.47923301749
 30
0.0
 40
2.0
100
AcDbArc
 50
270.0
 51
0.0
  0
ARC
  5
726
330
1A
100
AcDbEntity
  8
SEIHIN
  6
CONTINUOUS
 62
     3
100
AcDbCircle
 10
298.6366929066387
 20
380.4792330174903
 30
0.0
 40
2.0
100
AcDbArc
 50
180.0
 51
270.0
  0
ARC
  5
727
330
1A
100
AcDbEntity
  8
SEIHIN
  6
CONTINUOUS
 62
     3
100
AcDbCircle
 10
298.6366929066387
 20
374.4792330174902
 30
0.0
 40
2.0
100
AcDbArc
 50
90.00000000000078
 51
180.0000000000016
  0
LINE
  5
728
330
1A
100
AcDbEntity
  8
SEIHIN
  6
CONTINUOUS
 62
     3
100
AcDbLine
 10
296.6366929066387
 20
394.47923301749
 30
0.0
 11
296.6366929066387
 21
380.4792330174903
 31
0.0
  0
ARC
  5
729
330
1A
100
AcDbEntity
  8
SEIHIN
  6
CONTINUOUS
 62
     3
100
AcDbCircle
 10
316.1366429066386
 20
377.4792330176787
 30
0.0
 40
5.000000000438606
100
AcDbArc
 50
270.0005729577949
 51
269.9994270422047
  0
LINE
  5
72A
330
1A
100
AcDbEntity
  8
SEIHIN
  6
CONTINUOUS
 62
     3
100
AcDbLine
 10
317.1366929066387
 20
394.47923301749
 30
0.0
 11
317.1366929066387
 21
382.3781330174901
 31
0.0
  0
LINE
  5
72B
330
1A
100
AcDbEntity
  8
SEIHIN
  6
CONTINUOUS
 62
     3
100
AcDbLine
 10
315.1366929066387
 20
382.3781330174901
 30
0.0
 11
315.1366929066387
 21
394.47923301749
 31
0.0
  0
LINE
  5
72C
330
1A
100
AcDbEntity
  8
SEIHIN
  6
CONTINUOUS
 62
     3
100
AcDbLine
 10
298.6366929066387
 20
376.4792330174902
 30
0.0
 11
311.2376929066385
 21
376.4792330174902
 31
0.0
  0
LINE
  5
72D
330
1A
100
AcDbEntity
  8
SEIHIN
  6
CONTINUOUS
 62
     3
100
AcDbLine
 10
298.6366929066387
 20
378.4792330174902
 30
0.0
 11
311.2376929066385
 21
378.4792330174902
 31
0.0
  0
ARC
  5
72E
330
1A
100
AcDbEntity
  8
SEIHIN
  6
CONTINUOUS
 62
     3
100
AcDbCircle
 10
354.1366929066386
 20
394.47903301749
 30
0.0
 40
2.0
100
AcDbArc
 50
0.0
 51
90.0
  0
ARC
  5
72F
330
1A
100
AcDbEntity
  8
SEIHIN
  6
CONTINUOUS
 62
     3
100
AcDbCircle
 10
333.6366929066386
 20
394.47923301749
 30
0.0
 40
2.0
100
AcDbArc
 50
0.0
 51
90.00000000000078
  0
ARC
  5
730
330
1A
100
AcDbEntity
  8
SEIHIN
  6
CONTINUOUS
 62
     3
100
AcDbCircle
 10
339.6366929066386
 20
394.4791330174903
 30
0.0
 40
2.0
100
AcDbArc
 50
90.0
 51
180.0
  0
ARC
  5
731
330
1A
100
AcDbEntity
  8
SEIHIN
  6
CONTINUOUS
 62
     3
100
AcDbCircle
 10
360.1366929066387
 20
394.47903301749
 30
0.0
 40
2.0
100
AcDbArc
 50
90.0
 51
180.0
  0
LINE
  5
732
330
1A
100
AcDbEntity
  8
SEIHIN
  6
CONTINUOUS
 62
     3
100
AcDbLine
 10
339.6366929066386
 20
396.4791330174903
 30
0.0
 11
354.1366929066386
 21
396.4790330174901
 31
0.0
  0
LINE
  5
733
330
1A
100
AcDbEntity
  8
SEIHIN
  6
CONTINUOUS
 62
     3
100
AcDbLine
 10
339.6366929066386
 20
398.47913301749
 30
0.0
 11
354.1366929066386
 21
398.4790330174901
 31
0.0
  0
LINE
  5
734
330
1A
100
AcDbEntity
  8
SEIHIN
  6
CONTINUOUS
 62
     3
100
AcDbLine
 10
339.6367929066386
 20
416.47913301749
 30
0.0
 11
354.1367929066386
 21
416.4790330174903
 31
0.0
  0
LINE
  5
735
330
1A
100
AcDbEntity
  8
SEIHIN
  6
CONTINUOUS
 62
     3
100
AcDbLine
 10
339.6367929066386
 20
418.4791330174901
 30
0.0
 11
354.1367929066386
 21
418.4790330174903
 31
0.0
  0
LINE
  5
736
330
1A
100
AcDbEntity
  8
SEIHIN
  6
CONTINUOUS
 62
     3
100
AcDbLine
 10
337.6367929066386
 20
414.47923301749
 30
0.0
 11
337.6366929066386
 21
400.47923301749
 31
0.0
  0
LINE
  5
737
330
1A
100
AcDbEntity
  8
SEIHIN
  6
CONTINUOUS
 62
     3
100
AcDbLine
 10
335.6366929066386
 20
400.47923301749
 30
0.0
 11
335.6366929066386
 21
414.47923301749
 31
0.0
  0
ARC
  5
738
330
1A
100
AcDbEntity
  8
SEIHIN
  6
CONTINUOUS
 62
     3
100
AcDbCircle
 10
333.6366929066386
 20
414.47923301749
 30
0.0
 40
2.0
100
AcDbArc
 50
0.0
 51
90.00000000000078
  0
ARC
  5
739
330
1A
100
AcDbEntity
  8
SEIHIN
  6
CONTINUOUS
 62
     3
100
AcDbCircle
 10
333.6367929066387
 20
420.4792330174902
 30
0.0
 40
2.000000000000056
100
AcDbArc
 50
269.9999999999992
 51
359.9999999999983
  0
ARC
  5
73A
330
1A
100
AcDbEntity
  8
SEIHIN
  6
CONTINUOUS
 62
     3
100
AcDbCircle
 10
339.6367929066386
 20
414.4791330174901
 30
0.0
 40
2.000000000000056
100
AcDbArc
 50
89.99999999999836
 51
179.9999999999983
  0
ARC
  5
73B
330
1A
100
AcDbEntity
  8
SEIHIN
  6
CONTINUOUS
 62
     3
100
AcDbCircle
 10
339.6367929066386
 20
420.47913301749
 30
0.0
 40
2.000000000000056
100
AcDbArc
 50
180.0000000000016
 51
270.0000000000016
  0
ARC
  5
73C
330
1A
100
AcDbEntity
  8
SEIHIN
  6
CONTINUOUS
 62
     3
100
AcDbCircle
 10
333.6366929066386
 20
400.47923301749
 30
0.0
 40
2.0
100
AcDbArc
 50
269.9999999999992
 51
0.0
  0
ARC
  5
73D
330
1A
100
AcDbEntity
  8
SEIHIN
  6
CONTINUOUS
 62
     3
100
AcDbCircle
 10
339.6366929066386
 20
400.47913301749
 30
0.0
 40
2.0
100
AcDbArc
 50
180.0
 51
270.0
  0
LINE
  5
73E
330
1A
100
AcDbEntity
  8
SEIHIN
  6
CONTINUOUS
 62
     3
100
AcDbLine
 10
358.1367929066386
 20
414.4790330174903
 30
0.0
 11
358.1366929066386
 21
400.4790330174901
 31
0.0
  0
LINE
  5
73F
330
1A
100
AcDbEntity
  8
SEIHIN
  6
CONTINUOUS
 62
     3
100
AcDbLine
 10
356.1366929066386
 20
400.4790330174901
 30
0.0
 11
356.1366929066386
 21
414.4790330174903
 31
0.0
  0
ARC
  5
740
330
1A
100
AcDbEntity
  8
SEIHIN
  6
CONTINUOUS
 62
     3
100
AcDbCircle
 10
354.1367929066386
 20
414.4790330174903
 30
0.0
 40
2.0
100
AcDbArc
 50
0.0
 51
90.0
  0
ARC
  5
741
330
1A
100
AcDbEntity
  8
SEIHIN
  6
CONTINUOUS
 62
     3
100
AcDbCircle
 10
354.1367929066386
 20
420.4790330174903
 30
0.0
 40
2.0
100
AcDbArc
 50
270.0
 51
0.0
  0
ARC
  5
742
330
1A
100
AcDbEntity
  8
SEIHIN
  6
CONTINUOUS
 62
     3
100
AcDbCircle
 10
360.1366929066387
 20
414.4790330174903
 30
0.0
 40
2.0
100
AcDbArc
 50
90.0
 51
180.0
  0
ARC
  5
743
330
1A
100
AcDbEntity
  8
SEIHIN
  6
CONTINUOUS
 62
     3
100
AcDbCircle
 10
360.1367929066386
 20
420.4790330174903
 30
0.0
 40
2.0
100
AcDbArc
 50
180.0
 51
270.0
  0
ARC
  5
744
330
1A
100
AcDbEntity
  8
SEIHIN
  6
CONTINUOUS
 62
     3
100
AcDbCircle
 10
354.1366929066386
 20
400.4790330174901
 30
0.0
 40
2.0
100
AcDbArc
 50
270.0
 51
0.0
  0
ARC
  5
745
330
1A
100
AcDbEntity
  8
SEIHIN
  6
CONTINUOUS
 62
     3
100
AcDbCircle
 10
360.1366929066387
 20
400.4790330174901
 30
0.0
 40
2.0
100
AcDbArc
 50
180.0
 51
270.0
  0
LINE
  5
746
330
1A
100
AcDbEntity
  8
SEIHIN
  6
CONTINUOUS
 62
     3
100
AcDbLine
 10
339.6366929066386
 20
376.4791330174903
 30
0.0
 11
352.2376929066388
 21
376.4791330174903
 31
0.0
  0
LINE
  5
747
330
1A
100
AcDbEntity
  8
SEIHIN
  6
CONTINUOUS
 62
     3
100
AcDbLine
 10
339.6366929066386
 20
378.4791330174903
 30
0.0
 11
352.2376929066388
 21
378.4791330174903
 31
0.0
  0
ARC
  5
748
330
1A
100
AcDbEntity
  8
SEIHIN
  6
CONTINUOUS
 62
     3
100
AcDbCircle
 10
333.6366929066386
 20
380.4792330174903
 30
0.0
 40
2.0
100
AcDbArc
 50
269.9999999999992
 51
0.0
  0
ARC
  5
749
330
1A
100
AcDbEntity
  8
SEIHIN
  6
CONTINUOUS
 62
     3
100
AcDbCircle
 10
339.6366929066386
 20
380.4791330174903
 30
0.0
 40
2.0
100
AcDbArc
 50
180.0000000000016
 51
270.0
  0
LINE
  5
74A
330
1A
100
AcDbEntity
  8
SEIHIN
  6
CONTINUOUS
 62
     3
100
AcDbLine
 10
337.6366929066386
 20
394.47923301749
 30
0.0
 11
337.6366929066386
 21
380.4792330174903
 31
0.0
  0
LINE
  5
74B
330
1A
100
AcDbEntity
  8
SEIHIN
  6
CONTINUOUS
 62
     3
100
AcDbLine
 10
335.6366929066386
 20
380.4792330174903
 30
0.0
 11
335.6366929066386
 21
394.47923301749
 31
0.0
  0
ARC
  5
74C
330
1A
100
AcDbEntity
  8
SEIHIN
  6
CONTINUOUS
 62
     3
100
AcDbCircle
 10
339.6366929066386
 20
374.4791330174903
 30
0.0
 40
2.0
100
AcDbArc
 50
90.0
 51
180.0
  0
ARC
  5
74D
330
1A
100
AcDbEntity
  8
SEIHIN
  6
CONTINUOUS
 62
     3
100
AcDbCircle
 10
333.6365929066387
 20
374.4792330174902
 30
0.0
 40
2.000000000000028
100
AcDbArc
 50
359.9999999999983
 51
89.9999999999992
  0
ARC
  5
74E
330
1A
100
AcDbEntity
  8
SEIHIN
  6
CONTINUOUS
 62
     3
100
AcDbCircle
 10
357.1366929066387
 20
377.4790330174901
 30
0.0
 40
5.0
100
AcDbArc
 50
90.0
 51
270.0
  0
ARC
  5
74F
330
1A
100
AcDbEntity
  8
SEIHIN
  6
CONTINUOUS
 62
     3
100
AcDbCircle
 10
357.1366929066387
 20
377.4790330174901
 30
0.0
 40
5.0
100
AcDbArc
 50
270.0
 51
90.0
  0
LINE
  5
750
330
1A
100
AcDbEntity
  8
SEIHIN
  6
CONTINUOUS
 62
     3
100
AcDbLine
 10
358.1366929066386
 20
394.47903301749
 30
0.0
 11
358.1366929066386
 21
382.3780330174902
 31
0.0
  0
LINE
  5
751
330
1A
100
AcDbEntity
  8
SEIHIN
  6
CONTINUOUS
 62
     3
100
AcDbLine
 10
356.1366929066386
 20
382.3780330174902
 30
0.0
 11
356.1366929066386
 21
394.47903301749
 31
0.0
  0
ARC
  5
752
330
1A
100
AcDbEntity
  8
SEIHIN
  6
CONTINUOUS
 62
     3
100
AcDbCircle
 10
417.6362310325321
 20
347.478178674464
 30
0.0
 40
62.00004880484994
100
AcDbArc
 50
149.9991143769359
 51
152.1113103686888
  0
ARC
  5
753
330
1A
100
AcDbEntity
  8
SEIHIN
  6
CONTINUOUS
 62
     3
100
AcDbCircle
 10
417.6365518103668
 20
347.4787125779194
 30
0.0
 40
64.00002440234757
100
AcDbArc
 50
158.3859992312446
 51
163.9325393638244
  0
LINE
  5
754
330
1A
100
AcDbEntity
  8
SEIHIN
  6
CONTINUOUS
 62
     3
100
AcDbLine
 10
319.1365929066387
 20
298.4785330174902
 30
0.0
 11
333.6365929066387
 21
298.4785330174902
 31
0.0
  0
LINE
  5
755
330
1A
100
AcDbEntity
  8
SEIHIN
  6
CONTINUOUS
 62
     3
100
AcDbLine
 10
321.0355929066386
 20
318.4785330174902
 30
0.0
 11
333.6365929066387
 21
318.4785330174902
 31
0.0
  0
LINE
  5
756
330
1A
100
AcDbEntity
  8
SEIHIN
  6
CONTINUOUS
 62
     3
100
AcDbLine
 10
321.0355929066386
 20
316.4785330174902
 30
0.0
 11
333.6365929066387
 21
316.4785330174902
 31
0.0
  0
LINE
  5
757
330
1A
100
AcDbEntity
  8
SEIHIN
  6
CONTINUOUS
 62
     3
100
AcDbLine
 10
319.1365929066387
 20
338.4785330174902
 30
0.0
 11
333.6365929066387
 21
338.4785330174902
 31
0.0
  0
LINE
  5
758
330
1A
100
AcDbEntity
  8
SEIHIN
  6
CONTINUOUS
 62
     3
100
AcDbLine
 10
319.1365929066387
 20
336.4785330174902
 30
0.0
 11
333.6365929066387
 21
336.4785330174902
 31
0.0
  0
LINE
  5
759
330
1A
100
AcDbEntity
  8
SEIHIN
  6
CONTINUOUS
 62
     3
100
AcDbLine
 10
319.1365929066387
 20
356.47923301749
 30
0.0
 11
333.6365929066387
 21
356.47923301749
 31
0.0
  0
LINE
  5
75A
330
1A
100
AcDbEntity
  8
SEIHIN
  6
CONTINUOUS
 62
     3
100
AcDbLine
 10
319.1365929066387
 20
358.47923301749
 30
0.0
 11
333.6365929066387
 21
358.47923301749
 31
0.0
  0
LINE
  5
75B
330
1A
100
AcDbEntity
  8
SEIHIN
  6
CONTINUOUS
 62
     3
100
AcDbLine
 10
317.1365929066387
 20
322.3775330174901
 30
0.0
 11
317.1365929066387
 21
334.4785330174902
 31
0.0
  0
LINE
  5
75C
330
1A
100
AcDbEntity
  8
SEIHIN
  6
CONTINUOUS
 62
     3
100
AcDbLine
 10
315.1365929066387
 20
334.4785330174902
 30
0.0
 11
315.1365929066387
 21
322.3775330174901
 31
0.0
  0
LINE
  5
75D
330
1A
100
AcDbEntity
  8
SEIHIN
  6
CONTINUOUS
 62
     3
100
AcDbLine
 10
296.6365929066387
 20
320.4785330174902
 30
0.0
 11
296.6365929066387
 21
334.4785330174902
 31
0.0
  0
ARC
  5
75E
330
1A
100
AcDbEntity
  8
SEIHIN
  6
CONTINUOUS
 62
     3
100
AcDbCircle
 10
298.6365929066387
 20
340.4785330174902
 30
0.0
 40
1.999999999999943
100
AcDbArc
 50
180.0
 51
269.9999999999992
  0
ARC
  5
75F
330
1A
100
AcDbEntity
  8
SEIHIN
  6
CONTINUOUS
 62
     3
100
AcDbCircle
 10
298.6365929066387
 20
334.4785330174902
 30
0.0
 40
2.0
100
AcDbArc
 50
90.00000000000245
 51
180.0000000000032
  0
ARC
  5
760
330
1A
100
AcDbEntity
  8
SEIHIN
  6
CONTINUOUS
 62
     3
100
AcDbCircle
 10
298.6365929066387
 20
354.4792330174903
 30
0.0
 40
1.999999999999943
100
AcDbArc
 50
90.00000000000078
 51
180.0000000000016
  0
ARC
  5
761
330
1A
100
AcDbEntity
  8
SEIHIN
  6
CONTINUOUS
 62
     3
100
AcDbCircle
 10
298.6365929066387
 20
360.47923301749
 30
0.0
 40
1.999999999999943
100
AcDbArc
 50
179.9999999999983
 51
269.9999999999992
  0
LINE
  5
762
330
1A
100
AcDbEntity
  8
SEIHIN
  6
CONTINUOUS
 62
     3
100
AcDbLine
 10
296.6365929066387
 20
340.4785330174902
 30
0.0
 11
296.6365929066387
 21
347.4784330174902
 31
0.0
  0
LINE
  5
763
330
1A
100
AcDbEntity
  8
SEIHIN
  6
CONTINUOUS
 62
     3
100
AcDbLine
 10
296.6365929066387
 20
354.47923301749
 30
0.0
 11
296.6365929066387
 21
347.4793330174902
 31
0.0
  0
LINE
  5
764
330
1A
100
AcDbEntity
  8
SEIHIN
  6
CONTINUOUS
 62
     3
100
AcDbLine
 10
317.1365929066387
 20
340.4785330174902
 30
0.0
 11
317.1365929066387
 21
347.4784330174902
 31
0.0
  0
LINE
  5
765
330
1A
100
AcDbEntity
  8
SEIHIN
  6
CONTINUOUS
 62
     3
100
AcDbLine
 10
315.1365929066387
 20
347.4784330174902
 30
0.0
 11
315.1365929066387
 21
340.4785330174902
 31
0.0
  0
LINE
  5
766
330
1A
100
AcDbEntity
  8
SEIHIN
  6
CONTINUOUS
 62
     3
100
AcDbLine
 10
317.1365929066387
 20
354.47923301749
 30
0.0
 11
317.1365929066387
 21
347.47923301749
 31
0.0
  0
ARC
  5
767
330
1A
100
AcDbEntity
  8
SEIHIN
  6
CONTINUOUS
 62
     3
100
AcDbCircle
 10
319.1365929066387
 20
354.47923301749
 30
0.0
 40
2.0
100
AcDbArc
 50
90.0
 51
180.0
  0
ARC
  5
768
330
1A
100
AcDbEntity
  8
SEIHIN
  6
CONTINUOUS
 62
     3
100
AcDbCircle
 10
319.1365929066387
 20
360.47923301749
 30
0.0
 40
2.0
100
AcDbArc
 50
180.0
 51
270.0
  0
LINE
  5
769
330
1A
100
AcDbEntity
  8
SEIHIN
  6
CONTINUOUS
 62
     3
100
AcDbLine
 10
298.6365929066387
 20
356.47923301749
 30
0.0
 11
313.1365929066387
 21
356.47923301749
 31
0.0
  0
LINE
  5
76A
330
1A
100
AcDbEntity
  8
SEIHIN
  6
CONTINUOUS
 62
     3
100
AcDbLine
 10
298.6365929066387
 20
358.47923301749
 30
0.0
 11
313.1365929066387
 21
358.47923301749
 31
0.0
  0
LINE
  5
76B
330
1A
100
AcDbEntity
  8
SEIHIN
  6
CONTINUOUS
 62
     3
100
AcDbLine
 10
315.1365929066387
 20
347.47923301749
 30
0.0
 11
315.1365929066387
 21
354.47923301749
 31
0.0
  0
ARC
  5
76C
330
1A
100
AcDbEntity
  8
SEIHIN
  6
CONTINUOUS
 62
     3
100
AcDbCircle
 10
313.1365929066387
 20
354.47923301749
 30
0.0
 40
2.0
100
AcDbArc
 50
0.0
 51
90.0
  0
ARC
  5
76D
330
1A
100
AcDbEntity
  8
SEIHIN
  6
CONTINUOUS
 62
     3
100
AcDbCircle
 10
313.1365929066387
 20
360.47923301749
 30
0.0
 40
2.0
100
AcDbArc
 50
270.0
 51
0.0
  0
ARC
  5
76E
330
1A
100
AcDbEntity
  8
SEIHIN
  6
CONTINUOUS
 62
     3
100
AcDbCircle
 10
319.1365929066387
 20
340.4785330174902
 30
0.0
 40
2.0
100
AcDbArc
 50
180.0
 51
270.0
  0
ARC
  5
76F
330
1A
100
AcDbEntity
  8
SEIHIN
  6
CONTINUOUS
 62
     3
100
AcDbCircle
 10
319.1365929066387
 20
334.4785330174902
 30
0.0
 40
2.0
100
AcDbArc
 50
90.00000000000161
 51
180.0000000000032
  0
LINE
  5
770
330
1A
100
AcDbEntity
  8
SEIHIN
  6
CONTINUOUS
 62
     3
100
AcDbLine
 10
298.6365929066387
 20
338.4785330174902
 30
0.0
 11
313.1365929066387
 21
338.4785330174902
 31
0.0
  0
LINE
  5
771
330
1A
100
AcDbEntity
  8
SEIHIN
  6
CONTINUOUS
 62
     3
100
AcDbLine
 10
298.6365929066387
 20
336.4785330174902
 30
0.0
 11
313.1365929066387
 21
336.4785330174902
 31
0.0
  0
ARC
  5
772
330
1A
100
AcDbEntity
  8
SEIHIN
  6
CONTINUOUS
 62
     3
100
AcDbCircle
 10
313.1365929066387
 20
340.4785330174902
 30
0.0
 40
2.0
100
AcDbArc
 50
270.0
 51
0.0
  0
ARC
  5
773
330
1A
100
AcDbEntity
  8
SEIHIN
  6
CONTINUOUS
 62
     3
100
AcDbCircle
 10
313.1365929066384
 20
334.4785330174902
 30
0.0
 40
2.000000000000056
100
AcDbArc
 50
359.9999999999967
 51
89.99999999999836
  0
ARC
  5
774
330
1A
100
AcDbEntity
  8
SEIHIN
  6
CONTINUOUS
 62
     3
100
AcDbCircle
 10
298.6365929066387
 20
300.4785330174902
 30
0.0
 40
1.999999999999886
100
AcDbArc
 50
180.0
 51
270.0000000000008
  0
ARC
  5
775
330
1A
100
AcDbEntity
  8
SEIHIN
  6
CONTINUOUS
 62
     3
100
AcDbCircle
 10
298.6365929066387
 20
320.47853301749
 30
0.0
 40
1.999999999999943
100
AcDbArc
 50
179.9999999999967
 51
269.9999999999992
  0
ARC
  5
776
330
1A
100
AcDbEntity
  8
SEIHIN
  6
CONTINUOUS
 62
     3
100
AcDbCircle
 10
298.6365929066387
 20
314.4785330174902
 30
0.0
 40
1.999999999999886
100
AcDbArc
 50
90.00000000000078
 51
180.0000000000032
  0
LINE
  5
777
330
1A
100
AcDbEntity
  8
SEIHIN
  6
CONTINUOUS
 62
     3
100
AcDbLine
 10
296.6365929066387
 20
300.4785330174902
 30
0.0
 11
296.6365929066387
 21
314.4785330174902
 31
0.0
  0
ARC
  5
778
330
1A
100
AcDbEntity
  8
SEIHIN
  6
CONTINUOUS
 62
     3
100
AcDbCircle
 10
316.1365429066386
 20
317.4785330176787
 30
0.0
 40
5.000000000438606
100
AcDbArc
 50
270.0005729577952
 51
269.999427042205
  0
LINE
  5
779
330
1A
100
AcDbEntity
  8
SEIHIN
  6
CONTINUOUS
 62
     3
100
AcDbLine
 10
298.6365929066387
 20
318.4785330174902
 30
0.0
 11
311.2375929066386
 21
318.4785330174902
 31
0.0
  0
LINE
  5
77A
330
1A
100
AcDbEntity
  8
SEIHIN
  6
CONTINUOUS
 62
     3
100
AcDbLine
 10
298.6365929066387
 20
316.4785330174902
 30
0.0
 11
311.2375929066386
 21
316.4785330174902
 31
0.0
  0
LINE
  5
77B
330
1A
100
AcDbEntity
  8
SEIHIN
  6
CONTINUOUS
 62
     3
100
AcDbLine
 10
317.1365929066387
 20
300.4785330174902
 30
0.0
 11
317.1365929066387
 21
312.5795330174901
 31
0.0
  0
ARC
  5
77C
330
1A
100
AcDbEntity
  8
SEIHIN
  6
CONTINUOUS
 62
     3
100
AcDbCircle
 10
319.1365929066384
 20
300.4785330174902
 30
0.0
 40
1.999999999999943
100
AcDbArc
 50
180.0000000000032
 51
270.0000000000016
  0
LINE
  5
77D
330
1A
100
AcDbEntity
  8
SEIHIN
  6
CONTINUOUS
 62
     3
100
AcDbLine
 10
298.6365929066387
 20
298.4785330174902
 30
0.0
 11
313.1365929066387
 21
298.4785330174902
 31
0.0
  0
LINE
  5
77E
330
1A
100
AcDbEntity
  8
SEIHIN
  6
CONTINUOUS
 62
     3
100
AcDbLine
 10
315.1365929066387
 20
312.5795330174901
 30
0.0
 11
315.1365929066387
 21
300.4785330174902
 31
0.0
  0
ARC
  5
77F
330
1A
100
AcDbEntity
  8
SEIHIN
  6
CONTINUOUS
 62
     3
100
AcDbCircle
 10
313.1365929066387
 20
300.4785330174902
 30
0.0
 40
2.0
100
AcDbArc
 50
269.9999999999983
 51
359.9999999999967
  0
LINE
  5
780
330
1A
100
AcDbEntity
  8
SEIHIN
  6
CONTINUOUS
 62
     3
100
AcDbLine
 10
358.1365929066387
 20
322.3775330174901
 30
0.0
 11
358.1365929066387
 21
334.4785330174902
 31
0.0
  0
LINE
  5
781
330
1A
100
AcDbEntity
  8
SEIHIN
  6
CONTINUOUS
 62
     3
100
AcDbLine
 10
356.1365929066387
 20
334.4785330174902
 30
0.0
 11
356.1365929066387
 21
322.3775330174901
 31
0.0
  0
LINE
  5
782
330
1A
100
AcDbEntity
  8
SEIHIN
  6
CONTINUOUS
 62
     3
100
AcDbLine
 10
337.6365929066387
 20
320.4785330174902
 30
0.0
 11
337.6365929066387
 21
334.4785330174902
 31
0.0
  0
LINE
  5
783
330
1A
100
AcDbEntity
  8
SEIHIN
  6
CONTINUOUS
 62
     3
100
AcDbLine
 10
335.6365929066387
 20
334.4785330174902
 30
0.0
 11
335.6365929066387
 21
320.4785330174902
 31
0.0
  0
LINE
  5
784
330
1A
100
AcDbEntity
  8
SEIHIN
  6
CONTINUOUS
 62
     3
100
AcDbLine
 10
339.6365929066387
 20
338.4785330174902
 30
0.0
 11
354.1365929066387
 21
338.4785330174902
 31
0.0
  0
LINE
  5
785
330
1A
100
AcDbEntity
  8
SEIHIN
  6
CONTINUOUS
 62
     3
100
AcDbLine
 10
339.6365929066387
 20
336.4785330174902
 30
0.0
 11
354.1365929066387
 21
336.4785330174902
 31
0.0
  0
LINE
  5
786
330
1A
100
AcDbEntity
  8
SEIHIN
  6
CONTINUOUS
 62
     3
100
AcDbLine
 10
339.6365929066387
 20
356.4791330174903
 30
0.0
 11
354.1365929066387
 21
356.4790330174901
 31
0.0
  0
LINE
  5
787
330
1A
100
AcDbEntity
  8
SEIHIN
  6
CONTINUOUS
 62
     3
100
AcDbLine
 10
339.6365929066387
 20
358.4791330174903
 30
0.0
 11
354.1365929066387
 21
358.4790330174901
 31
0.0
  0
LINE
  5
788
330
1A
100
AcDbEntity
  8
SEIHIN
  6
CONTINUOUS
 62
     3
100
AcDbLine
 10
337.6365929066387
 20
340.4785330174902
 30
0.0
 11
337.6365929066387
 21
347.4784330174902
 31
0.0
  0
LINE
  5
789
330
1A
100
AcDbEntity
  8
SEIHIN
  6
CONTINUOUS
 62
     3
100
AcDbLine
 10
335.6365929066387
 20
347.4784330174902
 30
0.0
 11
335.6365929066387
 21
340.4785330174902
 31
0.0
  0
LINE
  5
78A
330
1A
100
AcDbEntity
  8
SEIHIN
  6
CONTINUOUS
 62
     3
100
AcDbLine
 10
337.6365929066387
 20
354.47923301749
 30
0.0
 11
337.6365929066387
 21
347.47923301749
 31
0.0
  0
LINE
  5
78B
330
1A
100
AcDbEntity
  8
SEIHIN
  6
CONTINUOUS
 62
     3
100
AcDbLine
 10
335.6365929066387
 20
347.47923301749
 30
0.0
 11
335.6365929066387
 21
354.47923301749
 31
0.0
  0
ARC
  5
78C
330
1A
100
AcDbEntity
  8
SEIHIN
  6
CONTINUOUS
 62
     3
100
AcDbCircle
 10
333.6365929066387
 20
354.47923301749
 30
0.0
 40
2.0
100
AcDbArc
 50
0.0
 51
90.0
  0
ARC
  5
78D
330
1A
100
AcDbEntity
  8
SEIHIN
  6
CONTINUOUS
 62
     3
100
AcDbCircle
 10
333.6365929066387
 20
360.47923301749
 30
0.0
 40
2.0
100
AcDbArc
 50
270.0
 51
0.0
  0
ARC
  5
78E
330
1A
100
AcDbEntity
  8
SEIHIN
  6
CONTINUOUS
 62
     3
100
AcDbCircle
 10
339.6365929066387
 20
354.4791330174902
 30
0.0
 40
1.999999999999943
100
AcDbArc
 50
90.0
 51
180.0000000000016
  0
ARC
  5
78F
330
1A
100
AcDbEntity
  8
SEIHIN
  6
CONTINUOUS
 62
     3
100
AcDbCircle
 10
339.6365929066387
 20
360.4791330174903
 30
0.0
 40
1.999999999999943
100
AcDbArc
 50
179.9999999999983
 51
270.0
  0
ARC
  5
790
330
1A
100
AcDbEntity
  8
SEIHIN
  6
CONTINUOUS
 62
     3
100
AcDbCircle
 10
333.6365929066387
 20
340.4785330174902
 30
0.0
 40
2.0
100
AcDbArc
 50
270.0
 51
0.0
  0
ARC
  5
791
330
1A
100
AcDbEntity
  8
SEIHIN
  6
CONTINUOUS
 62
     3
100
AcDbCircle
 10
333.6365929066387
 20
334.4785330174902
 30
0.0
 40
2.000000000000056
100
AcDbArc
 50
359.9999999999967
 51
89.99999999999836
  0
ARC
  5
792
330
1A
100
AcDbEntity
  8
SEIHIN
  6
CONTINUOUS
 62
     3
100
AcDbCircle
 10
339.6365929066387
 20
340.4785330174902
 30
0.0
 40
1.999999999999943
100
AcDbArc
 50
180.0
 51
270.0
  0
ARC
  5
793
330
1A
100
AcDbEntity
  8
SEIHIN
  6
CONTINUOUS
 62
     3
100
AcDbCircle
 10
339.6365929066387
 20
334.4785330174902
 30
0.0
 40
2.0
100
AcDbArc
 50
90.00000000000323
 51
180.0000000000032
  0
LINE
  5
794
330
1A
100
AcDbEntity
  8
SEIHIN
  6
CONTINUOUS
 62
     3
100
AcDbLine
 10
358.1365929066387
 20
340.4785330174902
 30
0.0
 11
358.1365929066387
 21
347.4784330174902
 31
0.0
  0
LINE
  5
795
330
1A
100
AcDbEntity
  8
SEIHIN
  6
CONTINUOUS
 62
     3
100
AcDbLine
 10
356.1365929066387
 20
347.4784330174902
 30
0.0
 11
356.1365929066387
 21
340.4785330174902
 31
0.0
  0
LINE
  5
796
330
1A
100
AcDbEntity
  8
SEIHIN
  6
CONTINUOUS
 62
     3
100
AcDbLine
 10
358.1365929066387
 20
354.4790330174903
 30
0.0
 11
358.1365929066387
 21
347.4791330174903
 31
0.0
  0
LINE
  5
797
330
1A
100
AcDbEntity
  8
SEIHIN
  6
CONTINUOUS
 62
     3
100
AcDbLine
 10
356.1365929066387
 20
347.4791330174903
 30
0.0
 11
356.1365929066387
 21
354.4790330174903
 31
0.0
  0
ARC
  5
798
330
1A
100
AcDbEntity
  8
SEIHIN
  6
CONTINUOUS
 62
     3
100
AcDbCircle
 10
417.6362838270669
 20
347.4768844628358
 30
0.0
 40
64.00002903303988
100
AcDbArc
 50
170.0520301212366
 51
171.9181160301399
  0
ARC
  5
799
330
1A
100
AcDbEntity
  8
SEIHIN
  6
CONTINUOUS
 62
     3
100
AcDbCircle
 10
354.1365929066387
 20
354.4790330174901
 30
0.0
 40
1.999999999999943
100
AcDbArc
 50
0.0000000000032569
 51
90.00000000000323
  0
ARC
  5
79A
330
1A
100
AcDbEntity
  8
SEIHIN
  6
CONTINUOUS
 62
     3
100
AcDbCircle
 10
354.1365929066387
 20
360.4790330174901
 30
0.0
 40
2.0
100
AcDbArc
 50
270.0
 51
0.0
  0
ARC
  5
79B
330
1A
100
AcDbEntity
  8
SEIHIN
  6
CONTINUOUS
 62
     3
100
AcDbCircle
 10
360.1365929066387
 20
354.4790330174901
 30
0.0
 40
1.999999999999943
100
AcDbArc
 50
89.99999999999836
 51
179.9999999999983
  0
ARC
  5
79C
330
1A
100
AcDbEntity
  8
SEIHIN
  6
CONTINUOUS
 62
     3
100
AcDbCircle
 10
360.1365929066387
 20
360.4790330174901
 30
0.0
 40
2.0
100
AcDbArc
 50
180.0
 51
270.0
  0
ARC
  5
79D
330
1A
100
AcDbEntity
  8
SEIHIN
  6
CONTINUOUS
 62
     3
100
AcDbCircle
 10
417.6366105666804
 20
347.4785470833007
 30
0.0
 40
62.00005360548121
100
AcDbArc
 50
186.8999288986153
 51
196.325866145236
  0
ARC
  5
79E
330
1A
100
AcDbEntity
  8
SEIHIN
  6
CONTINUOUS
 62
     3
100
AcDbCircle
 10
417.6367942795947
 20
347.4773634533339
 30
0.0
 40
64.00003990859251
100
AcDbArc
 50
188.0787014231478
 51
189.9448614185794
  0
ARC
  5
79F
330
1A
100
AcDbEntity
  8
SEIHIN
  6
CONTINUOUS
 62
     3
100
AcDbCircle
 10
354.1365929066387
 20
340.4785330174902
 30
0.0
 40
2.0
100
AcDbArc
 50
270.0
 51
0.0
  0
ARC
  5
7A0
330
1A
100
AcDbEntity
  8
SEIHIN
  6
CONTINUOUS
 62
     3
100
AcDbCircle
 10
354.1365929066387
 20
334.4785330174902
 30
0.0
 40
2.000000000000056
100
AcDbArc
 50
359.9999999999967
 51
90.0
  0
ARC
  5
7A1
330
1A
100
AcDbEntity
  8
SEIHIN
  6
CONTINUOUS
 62
     3
100
AcDbCircle
 10
360.1365929066387
 20
340.4785330174902
 30
0.0
 40
2.0
100
AcDbArc
 50
180.0
 51
270.0
  0
ARC
  5
7A2
330
1A
100
AcDbEntity
  8
SEIHIN
  6
CONTINUOUS
 62
     3
100
AcDbCircle
 10
360.1365929066387
 20
334.4785330174902
 30
0.0
 40
2.0
100
AcDbArc
 50
90.00000000000161
 51
180.0000000000032
  0
LINE
  5
7A3
330
1A
100
AcDbEntity
  8
SEIHIN
  6
CONTINUOUS
 62
     3
100
AcDbLine
 10
339.6365929066387
 20
298.4785330174902
 30
0.0
 11
354.1365929066387
 21
298.4785330174902
 31
0.0
  0
LINE
  5
7A4
330
1A
100
AcDbEntity
  8
SEIHIN
  6
CONTINUOUS
 62
     3
100
AcDbLine
 10
339.6365929066387
 20
318.4785330174902
 30
0.0
 11
352.2375929066386
 21
318.4785330174902
 31
0.0
  0
LINE
  5
7A5
330
1A
100
AcDbEntity
  8
SEIHIN
  6
CONTINUOUS
 62
     3
100
AcDbLine
 10
339.6365929066387
 20
316.4785330174902
 30
0.0
 11
352.2375929066386
 21
316.4785330174902
 31
0.0
  0
LINE
  5
7A6
330
1A
100
AcDbEntity
  8
SEIHIN
  6
CONTINUOUS
 62
     3
100
AcDbLine
 10
337.6365929066387
 20
300.4785330174902
 30
0.0
 11
337.6365929066387
 21
314.4785330174902
 31
0.0
  0
LINE
  5
7A7
330
1A
100
AcDbEntity
  8
SEIHIN
  6
CONTINUOUS
 62
     3
100
AcDbLine
 10
335.6365929066387
 20
314.4785330174902
 30
0.0
 11
335.6365929066387
 21
300.4785330174902
 31
0.0
  0
ARC
  5
7A8
330
1A
100
AcDbEntity
  8
SEIHIN
  6
CONTINUOUS
 62
     3
100
AcDbCircle
 10
333.6365929066387
 20
320.4785330174902
 30
0.0
 40
2.0
100
AcDbArc
 50
270.0
 51
0.0
  0
ARC
  5
7A9
330
1A
100
AcDbEntity
  8
SEIHIN
  6
CONTINUOUS
 62
     3
100
AcDbCircle
 10
333.6365929066387
 20
314.4785330174902
 30
0.0
 40
2.0
100
AcDbArc
 50
0.0
 51
90.0
  0
ARC
  5
7AA
330
1A
100
AcDbEntity
  8
SEIHIN
  6
CONTINUOUS
 62
     3
100
AcDbCircle
 10
339.6365929066387
 20
320.47853301749
 30
0.0
 40
1.999999999999943
100
AcDbArc
 50
179.9999999999967
 51
270.0
  0
ARC
  5
7AB
330
1A
100
AcDbEntity
  8
SEIHIN
  6
CONTINUOUS
 62
     3
100
AcDbCircle
 10
339.6365929066387
 20
314.4785330174902
 30
0.0
 40
1.999999999999886
100
AcDbArc
 50
90.0
 51
180.0000000000032
  0
ARC
  5
7AC
330
1A
100
AcDbEntity
  8
SEIHIN
  6
CONTINUOUS
 62
     3
100
AcDbCircle
 10
333.6365929066387
 20
300.4785330174902
 30
0.0
 40
2.0
100
AcDbArc
 50
269.9999999999983
 51
359.9999999999967
  0
ARC
  5
7AD
330
1A
100
AcDbEntity
  8
SEIHIN
  6
CONTINUOUS
 62
     3
100
AcDbCircle
 10
339.6365929066387
 20
300.4785330174902
 30
0.0
 40
1.999999999999943
100
AcDbArc
 50
180.0
 51
270.0
  0
ARC
  5
7AE
330
1A
100
AcDbEntity
  8
SEIHIN
  6
CONTINUOUS
 62
     3
100
AcDbCircle
 10
357.1365429066386
 20
317.4785330134154
 30
0.0
 40
4.99999999617535
100
AcDbArc
 50
270.0005729577954
 51
269.9994270422052
  0
ARC
  5
7AF
330
1A
100
AcDbEntity
  8
SEIHIN
  6
CONTINUOUS
 62
     3
100
AcDbCircle
 10
417.6361229130654
 20
347.4794828700451
 30
0.0
 40
62.00003952795283
100
AcDbArc
 50
207.888689473272
 51
210.0008857811028
  0
ARC
  5
7B0
330
1A
100
AcDbEntity
  8
SEIHIN
  6
CONTINUOUS
 62
     3
100
AcDbCircle
 10
417.6364802558928
 20
347.4789631632786
 30
0.0
 40
64.0000544230712
100
AcDbArc
 50
196.0674619380601
 51
201.6139994668716
  0
LINE
  5
7B1
330
1A
100
AcDbEntity
  8
SEIHIN
  6
CONTINUOUS
 62
     3
100
AcDbLine
 10
358.1365929066387
 20
300.4785330174902
 30
0.0
 11
358.1365929066387
 21
312.5795330174901
 31
0.0
  0
LINE
  5
7B2
330
1A
100
AcDbEntity
  8
SEIHIN
  6
CONTINUOUS
 62
     3
100
AcDbLine
 10
356.1365929066387
 20
312.5795330174901
 30
0.0
 11
356.1365929066387
 21
300.4785330174902
 31
0.0
  0
ARC
  5
7B3
330
1A
100
AcDbEntity
  8
SEIHIN
  6
CONTINUOUS
 62
     3
100
AcDbCircle
 10
354.1365929066387
 20
300.4785330174902
 30
0.0
 40
2.0
100
AcDbArc
 50
269.9999999999967
 51
359.9999999999967
  0
ARC
  5
7B4
330
1A
100
AcDbEntity
  8
SEIHIN
  6
CONTINUOUS
 62
     3
100
AcDbCircle
 10
360.1365929066387
 20
300.4785330174902
 30
0.0
 40
1.999999999999943
100
AcDbArc
 50
180.0000000000032
 51
270.0000000000016
  0
LINE
  5
7B5
330
1A
100
AcDbEntity
  8
SEIHIN
  6
CONTINUOUS
 62
     3
100
AcDbLine
 10
458.6365929066387
 20
360.4787330174902
 30
0.0
 11
458.6365929066387
 21
374.4787330174901
 31
0.0
  0
LINE
  5
7B6
330
1A
100
AcDbEntity
  8
SEIHIN
  6
CONTINUOUS
 62
     3
100
AcDbLine
 10
440.1365929066387
 20
372.57983301749
 30
0.0
 11
440.1365929066387
 21
360.4788330174901
 31
0.0
  0
LINE
  5
7B7
330
1A
100
AcDbEntity
  8
SEIHIN
  6
CONTINUOUS
 62
     3
100
AcDbLine
 10
438.1365929066387
 20
360.4788330174901
 30
0.0
 11
438.1365929066387
 21
372.57983301749
 31
0.0
  0
LINE
  5
7B8
330
1A
100
AcDbEntity
  8
SEIHIN
  6
CONTINUOUS
 62
     3
100
AcDbLine
 10
419.6365929066387
 20
374.4789330174901
 30
0.0
 11
419.6365929066387
 21
360.4789330174901
 31
0.0
  0
LINE
  5
7B9
330
1A
100
AcDbEntity
  8
SEIHIN
  6
CONTINUOUS
 62
     3
100
AcDbLine
 10
417.6365929066387
 20
360.4789330174901
 30
0.0
 11
417.6365929066387
 21
374.4789330174901
 31
0.0
  0
LINE
  5
7BA
330
1A
100
AcDbEntity
  8
SEIHIN
  6
CONTINUOUS
 62
     3
100
AcDbLine
 10
399.1366929066387
 20
372.5799330174902
 30
0.0
 11
399.1365929066387
 21
360.4789330174901
 31
0.0
  0
LINE
  5
7BB
330
1A
100
AcDbEntity
  8
SEIHIN
  6
CONTINUOUS
 62
     3
100
AcDbLine
 10
397.1365929066387
 20
360.4789330174901
 30
0.0
 11
397.1365929066387
 21
372.5799330174902
 31
0.0
  0
LINE
  5
7BC
330
1A
100
AcDbEntity
  8
SEIHIN
  6
CONTINUOUS
 62
     3
100
AcDbLine
 10
378.6365929066387
 20
374.4790330174901
 30
0.0
 11
378.6365929066387
 21
360.4790330174901
 31
0.0
  0
LINE
  5
7BD
330
1A
100
AcDbEntity
  8
SEIHIN
  6
CONTINUOUS
 62
     3
100
AcDbLine
 10
376.6365929066387
 20
360.4790330174901
 30
0.0
 11
376.6366929066387
 21
374.4790330174901
 31
0.0
  0
LINE
  5
7BE
330
1A
100
AcDbEntity
  8
SEIHIN
  6
CONTINUOUS
 62
     3
100
AcDbLine
 10
403.0355929066386
 20
376.4789330174901
 30
0.0
 11
415.6365929066387
 21
376.4789330174901
 31
0.0
  0
LINE
  5
7BF
330
1A
100
AcDbEntity
  8
SEIHIN
  6
CONTINUOUS
 62
     3
100
AcDbLine
 10
401.1366929066387
 20
396.4789330174901
 30
0.0
 11
415.6366929066386
 21
396.4789330174901
 31
0.0
  0
LINE
  5
7C0
330
1A
100
AcDbEntity
  8
SEIHIN
  6
CONTINUOUS
 62
     3
100
AcDbLine
 10
403.0355929066386
 20
378.4789330174901
 30
0.0
 11
415.6365929066387
 21
378.4789330174901
 31
0.0
  0
LINE
  5
7C1
330
1A
100
AcDbEntity
  8
SEIHIN
  6
CONTINUOUS
 62
     3
100
AcDbLine
 10
401.1366929066387
 20
416.4789330174901
 30
0.0
 11
415.6366929066386
 21
416.4789330174901
 31
0.0
  0
LINE
  5
7C2
330
1A
100
AcDbEntity
  8
SEIHIN
  6
CONTINUOUS
 62
     3
100
AcDbLine
 10
401.1366929066387
 20
398.4789330174901
 30
0.0
 11
415.6366929066386
 21
398.4789330174901
 31
0.0
  0
LINE
  5
7C3
330
1A
100
AcDbEntity
  8
SEIHIN
  6
CONTINUOUS
 62
     3
100
AcDbLine
 10
401.1367929066386
 20
418.4789330174901
 30
0.0
 11
415.6366929066386
 21
418.4789330174901
 31
0.0
  0
ARC
  5
7C4
330
1A
100
AcDbEntity
  8
SEIHIN
  6
CONTINUOUS
 62
     3
100
AcDbCircle
 10
401.1366929066387
 20
394.4789330174901
 30
0.0
 40
2.0
100
AcDbArc
 50
90.0
 51
180.0
  0
ARC
  5
7C5
330
1A
100
AcDbEntity
  8
SEIHIN
  6
CONTINUOUS
 62
     3
100
AcDbCircle
 10
395.1366929066387
 20
394.4789330174901
 30
0.0
 40
2.0
100
AcDbArc
 50
0.0
 51
90.0
  0
ARC
  5
7C6
330
1A
100
AcDbEntity
  8
SEIHIN
  6
CONTINUOUS
 62
     3
100
AcDbCircle
 10
380.6366929066387
 20
394.47903301749
 30
0.0
 40
2.0
100
AcDbArc
 50
90.0
 51
180.0
  0
ARC
  5
7C7
330
1A
100
AcDbEntity
  8
SEIHIN
  6
CONTINUOUS
 62
     3
100
AcDbCircle
 10
374.6366929066387
 20
394.47903301749
 30
0.0
 40
1.999999999999943
100
AcDbArc
 50
359.9999999999983
 51
89.99999999999836
  0
ARC
  5
7C8
330
1A
100
AcDbEntity
  8
SEIHIN
  6
CONTINUOUS
 62
     3
100
AcDbCircle
 10
417.6371746559375
 20
347.4792879717874
 30
0.0
 40
62.00000444654558
100
AcDbArc
 50
124.6564533929848
 51
131.3989443931198
  0
LINE
  5
7C9
330
1A
100
AcDbEntity
  8
SEIHIN
  6
CONTINUOUS
 62
     3
100
AcDbLine
 10
380.6366929066387
 20
396.4790330174901
 30
0.0
 11
395.1366929066387
 21
396.4789330174901
 31
0.0
  0
LINE
  5
7CA
330
1A
100
AcDbEntity
  8
SEIHIN
  6
CONTINUOUS
 62
     3
100
AcDbLine
 10
380.6366929066387
 20
398.4790330174901
 30
0.0
 11
395.1366929066387
 21
398.4789330174901
 31
0.0
  0
LINE
  5
7CB
330
1A
100
AcDbEntity
  8
SEIHIN
  6
CONTINUOUS
 62
     3
100
AcDbLine
 10
380.6366929066387
 20
416.4790330174903
 30
0.0
 11
395.1366929066387
 21
416.4789330174901
 31
0.0
  0
LINE
  5
7CC
330
1A
100
AcDbEntity
  8
SEIHIN
  6
CONTINUOUS
 62
     3
100
AcDbLine
 10
380.6367929066386
 20
418.4790330174903
 30
0.0
 11
395.1367929066386
 21
418.4789330174901
 31
0.0
  0
LINE
  5
7CD
330
1A
100
AcDbEntity
  8
SEIHIN
  6
CONTINUOUS
 62
     3
100
AcDbLine
 10
378.6367929066386
 20
414.4790330174903
 30
0.0
 11
378.6366929066387
 21
400.4790330174901
 31
0.0
  0
LINE
  5
7CE
330
1A
100
AcDbEntity
  8
SEIHIN
  6
CONTINUOUS
 62
     3
100
AcDbLine
 10
376.6366929066387
 20
400.4790330174901
 30
0.0
 11
376.6366929066387
 21
414.4790330174903
 31
0.0
  0
ARC
  5
7CF
330
1A
100
AcDbEntity
  8
SEIHIN
  6
CONTINUOUS
 62
     3
100
AcDbCircle
 10
380.6366929066387
 20
414.4790330174903
 30
0.0
 40
2.0
100
AcDbArc
 50
90.0
 51
180.0
  0
ARC
  5
7D0
330
1A
100
AcDbEntity
  8
SEIHIN
  6
CONTINUOUS
 62
     3
100
AcDbCircle
 10
380.6367929066386
 20
420.4790330174903
 30
0.0
 40
2.0
100
AcDbArc
 50
180.0
 51
270.0
  0
ARC
  5
7D1
330
1A
100
AcDbEntity
  8
SEIHIN
  6
CONTINUOUS
 62
     3
100
AcDbCircle
 10
374.6367929066386
 20
414.4790330174903
 30
0.0
 40
2.0
100
AcDbArc
 50
0.0
 51
90.0
  0
ARC
  5
7D2
330
1A
100
AcDbEntity
  8
SEIHIN
  6
CONTINUOUS
 62
     3
100
AcDbCircle
 10
374.6367929066386
 20
420.4790330174903
 30
0.0
 40
2.0
100
AcDbArc
 50
270.0
 51
0.0
  0
ARC
  5
7D3
330
1A
100
AcDbEntity
  8
SEIHIN
  6
CONTINUOUS
 62
     3
100
AcDbCircle
 10
417.636530530363
 20
347.4787831444382
 30
0.0
 40
64.00003134035543
100
AcDbArc
 50
126.6079478764071
 51
130.6801874350307
  0
ARC
  5
7D4
330
1A
100
AcDbEntity
  8
SEIHIN
  6
CONTINUOUS
 62
     3
100
AcDbCircle
 10
380.6366929066387
 20
400.4790330174901
 30
0.0
 40
2.0
100
AcDbArc
 50
180.0
 51
270.0
  0
ARC
  5
7D5
330
1A
100
AcDbEntity
  8
SEIHIN
  6
CONTINUOUS
 62
     3
100
AcDbCircle
 10
374.6366929066387
 20
400.4790330174901
 30
0.0
 40
1.999999999999943
100
AcDbArc
 50
270.0000000000016
 51
0.0000000000016157
  0
LINE
  5
7D6
330
1A
100
AcDbEntity
  8
SEIHIN
  6
CONTINUOUS
 62
     3
100
AcDbLine
 10
399.1367929066386
 20
414.4789330174901
 30
0.0
 11
399.1366929066387
 21
400.4789330174901
 31
0.0
  0
LINE
  5
7D7
330
1A
100
AcDbEntity
  8
SEIHIN
  6
CONTINUOUS
 62
     3
100
AcDbLine
 10
397.1366929066387
 20
400.4789330174901
 30
0.0
 11
397.1367929066386
 21
414.4789330174901
 31
0.0
  0
ARC
  5
7D8
330
1A
100
AcDbEntity
  8
SEIHIN
  6
CONTINUOUS
 62
     3
100
AcDbCircle
 10
401.1366929066387
 20
414.4789330174901
 30
0.0
 40
2.0
100
AcDbArc
 50
90.0
 51
180.0
  0
ARC
  5
7D9
330
1A
100
AcDbEntity
  8
SEIHIN
  6
CONTINUOUS
 62
     3
100
AcDbCircle
 10
401.1367929066386
 20
420.4789330174901
 30
0.0
 40
2.000000000000056
100
AcDbArc
 50
180.0000000000016
 51
270.0000000000016
  0
ARC
  5
7DA
330
1A
100
AcDbEntity
  8
SEIHIN
  6
CONTINUOUS
 62
     3
100
AcDbCircle
 10
395.1366929066387
 20
414.4789330174901
 30
0.0
 40
2.0
100
AcDbArc
 50
0.0
 51
90.0
  0
ARC
  5
7DB
330
1A
100
AcDbEntity
  8
SEIHIN
  6
CONTINUOUS
 62
     3
100
AcDbCircle
 10
395.1367929066386
 20
420.4789330174901
 30
0.0
 40
2.0
100
AcDbArc
 50
270.0
 51
0.0
  0
ARC
  5
7DC
330
1A
100
AcDbEntity
  8
SEIHIN
  6
CONTINUOUS
 62
     3
100
AcDbCircle
 10
417.6374650116258
 20
347.4791220187414
 30
0.0
 40
61.99999758422364
100
AcDbArc
 50
107.3615992480722
 51
109.3087935737284
  0
ARC
  5
7DD
330
1A
100
AcDbEntity
  8
SEIHIN
  6
CONTINUOUS
 62
     3
100
AcDbCircle
 10
401.1366929066387
 20
400.4789330174901
 30
0.0
 40
2.0
100
AcDbArc
 50
180.0
 51
270.0
  0
ARC
  5
7DE
330
1A
100
AcDbEntity
  8
SEIHIN
  6
CONTINUOUS
 62
     3
100
AcDbCircle
 10
395.1366929066387
 20
400.4789330174901
 30
0.0
 40
2.0
100
AcDbArc
 50
270.0
 51
0.0
  0
ARC
  5
7DF
330
1A
100
AcDbEntity
  8
SEIHIN
  6
CONTINUOUS
 62
     3
100
AcDbCircle
 10
417.6368619664433
 20
347.4789191018647
 30
0.0
 40
64.00003888502624
100
AcDbArc
 50
106.8020786982551
 51
108.6820671089106
  0
LINE
  5
7E0
330
1A
100
AcDbEntity
  8
SEIHIN
  6
CONTINUOUS
 62
     3
100
AcDbLine
 10
380.6366929066387
 20
376.4790330174901
 30
0.0
 11
393.2376929066386
 21
376.4789330174901
 31
0.0
  0
LINE
  5
7E1
330
1A
100
AcDbEntity
  8
SEIHIN
  6
CONTINUOUS
 62
     3
100
AcDbLine
 10
380.6366929066387
 20
378.4790330174901
 30
0.0
 11
393.2376929066386
 21
378.4789330174901
 31
0.0
  0
ARC
  5
7E2
330
1A
100
AcDbEntity
  8
SEIHIN
  6
CONTINUOUS
 62
     3
100
AcDbCircle
 10
380.6366929066387
 20
380.4790330174901
 30
0.0
 40
2.0
100
AcDbArc
 50
180.0
 51
270.0
  0
ARC
  5
7E3
330
1A
100
AcDbEntity
  8
SEIHIN
  6
CONTINUOUS
 62
     3
100
AcDbCircle
 10
374.6366929066387
 20
380.4790330174901
 30
0.0
 40
1.999999999999943
100
AcDbArc
 50
270.0000000000016
 51
0.0000000000016157
  0
LINE
  5
7E4
330
1A
100
AcDbEntity
  8
SEIHIN
  6
CONTINUOUS
 62
     3
100
AcDbLine
 10
378.6366929066387
 20
394.47903301749
 30
0.0
 11
378.6366929066387
 21
380.4790330174901
 31
0.0
  0
LINE
  5
7E5
330
1A
100
AcDbEntity
  8
SEIHIN
  6
CONTINUOUS
 62
     3
100
AcDbLine
 10
376.6366929066387
 20
380.4790330174901
 30
0.0
 11
376.6366929066387
 21
394.47903301749
 31
0.0
  0
ARC
  5
7E6
330
1A
100
AcDbEntity
  8
SEIHIN
  6
CONTINUOUS
 62
     3
100
AcDbCircle
 10
380.6366929066387
 20
374.4790330174901
 30
0.0
 40
2.0
100
AcDbArc
 50
90.0
 51
180.0
  0
ARC
  5
7E7
330
1A
100
AcDbEntity
  8
SEIHIN
  6
CONTINUOUS
 62
     3
100
AcDbCircle
 10
374.6366929066387
 20
374.4790330174901
 30
0.0
 40
1.999999999999943
100
AcDbArc
 50
359.9999999999983
 51
89.99999999999836
  0
ARC
  5
7E8
330
1A
100
AcDbEntity
  8
SEIHIN
  6
CONTINUOUS
 62
     3
100
AcDbCircle
 10
398.1366429066388
 20
377.4789330219421
 30
0.0
 40
5.000000004701862
100
AcDbArc
 50
270.000572957795
 51
269.9994270422048
  0
LINE
  5
7E9
330
1A
100
AcDbEntity
  8
SEIHIN
  6
CONTINUOUS
 62
     3
100
AcDbLine
 10
399.1366929066387
 20
394.4789330174901
 30
0.0
 11
399.1366929066387
 21
382.3779330174902
 31
0.0
  0
LINE
  5
7EA
330
1A
100
AcDbEntity
  8
SEIHIN
  6
CONTINUOUS
 62
     3
100
AcDbLine
 10
397.1366929066387
 20
382.3779330174902
 30
0.0
 11
397.1366929066387
 21
394.4789330174901
 31
0.0
  0
ARC
  5
7EB
330
1A
100
AcDbEntity
  8
SEIHIN
  6
CONTINUOUS
 62
     3
100
AcDbCircle
 10
456.6366929066386
 20
394.4787330174901
 30
0.0
 40
2.0
100
AcDbArc
 50
0.0
 51
90.0
  0
ARC
  5
7EC
330
1A
100
AcDbEntity
  8
SEIHIN
  6
CONTINUOUS
 62
     3
100
AcDbCircle
 10
436.1366929066386
 20
394.4788330174901
 30
0.0
 40
2.0
100
AcDbArc
 50
0.0
 51
90.0
  0
ARC
  5
7ED
330
1A
100
AcDbEntity
  8
SEIHIN
  6
CONTINUOUS
 62
     3
100
AcDbCircle
 10
442.1366929066387
 20
394.4788330174901
 30
0.0
 40
2.0
100
AcDbArc
 50
90.0
 51
180.0
  0
ARC
  5
7EE
330
1A
100
AcDbEntity
  8
SEIHIN
  6
CONTINUOUS
 62
     3
100
AcDbCircle
 10
415.6366929066386
 20
394.4789330174901
 30
0.0
 40
2.0
100
AcDbArc
 50
0.0
 51
90.0
  0
ARC
  5
7EF
330
1A
100
AcDbEntity
  8
SEIHIN
  6
CONTINUOUS
 62
     3
100
AcDbCircle
 10
421.6366929066387
 20
394.4789330174901
 30
0.0
 40
2.0
100
AcDbArc
 50
90.0
 51
180.0
  0
ARC
  5
7F0
330
1A
100
AcDbEntity
  8
SEIHIN
  6
CONTINUOUS
 62
     3
100
AcDbCircle
 10
436.1366929066386
 20
400.4788330174902
 30
0.0
 40
2.0
100
AcDbArc
 50
270.0
 51
0.0
  0
ARC
  5
7F1
330
1A
100
AcDbEntity
  8
SEIHIN
  6
CONTINUOUS
 62
     3
100
AcDbCircle
 10
439.1366929066387
 20
417.4788330174902
 30
0.0
 40
5.0
100
AcDbArc
 50
90.0
 51
270.0
  0
LINE
  5
7F2
330
1A
100
AcDbEntity
  8
SEIHIN
  6
CONTINUOUS
 62
     3
100
AcDbLine
 10
419.6367929066386
 20
414.4789330174901
 30
0.0
 11
419.6366929066386
 21
400.4789330174901
 31
0.0
  0
LINE
  5
7F3
330
1A
100
AcDbEntity
  8
SEIHIN
  6
CONTINUOUS
 62
     3
100
AcDbLine
 10
417.6366929066387
 20
400.4789330174901
 30
0.0
 11
417.6366929066387
 21
414.4789330174901
 31
0.0
  0
ARC
  5
7F4
330
1A
100
AcDbEntity
  8
SEIHIN
  6
CONTINUOUS
 62
     3
100
AcDbCircle
 10
415.6366929066386
 20
414.4789330174901
 30
0.0
 40
2.0
100
AcDbArc
 50
0.0
 51
90.0
  0
ARC
  5
7F5
330
1A
100
AcDbEntity
  8
SEIHIN
  6
CONTINUOUS
 62
     3
100
AcDbCircle
 10
415.6366929066386
 20
420.4789330174901
 30
0.0
 40
2.0
100
AcDbArc
 50
270.0
 51
0.0
  0
ARC
  5
7F6
330
1A
100
AcDbEntity
  8
SEIHIN
  6
CONTINUOUS
 62
     3
100
AcDbCircle
 10
421.6366929066387
 20
414.4789330174901
 30
0.0
 40
2.0
100
AcDbArc
 50
90.0
 51
180.0
  0
ARC
  5
7F7
330
1A
100
AcDbEntity
  8
SEIHIN
  6
CONTINUOUS
 62
     3
100
AcDbCircle
 10
421.6366929066387
 20
420.4789330174901
 30
0.0
 40
2.0
100
AcDbArc
 50
180.0
 51
270.0
  0
LINE
  5
7F8
330
1A
100
AcDbEntity
  8
SEIHIN
  6
CONTINUOUS
 62
     3
100
AcDbLine
 10
421.6366929066387
 20
416.4789330174901
 30
0.0
 11
434.2377929066388
 21
416.4788330174901
 31
0.0
  0
LINE
  5
7F9
330
1A
100
AcDbEntity
  8
SEIHIN
  6
CONTINUOUS
 62
     3
100
AcDbLine
 10
421.6366929066387
 20
418.4789330174901
 30
0.0
 11
434.2377929066388
 21
418.4788330174901
 31
0.0
  0
ARC
  5
7FA
330
1A
100
AcDbEntity
  8
SEIHIN
  6
CONTINUOUS
 62
     3
100
AcDbCircle
 10
415.6366929066386
 20
400.4789330174901
 30
0.0
 40
2.0
100
AcDbArc
 50
270.0
 51
0.0
  0
ARC
  5
7FB
330
1A
100
AcDbEntity
  8
SEIHIN
  6
CONTINUOUS
 62
     3
100
AcDbCircle
 10
421.6366929066387
 20
400.4789330174901
 30
0.0
 40
2.0
100
AcDbArc
 50
180.0
 51
270.0
  0
LINE
  5
7FC
330
1A
100
AcDbEntity
  8
SEIHIN
  6
CONTINUOUS
 62
     3
100
AcDbLine
 10
421.6366929066387
 20
396.4789330174901
 30
0.0
 11
436.1366929066386
 21
396.4788330174901
 31
0.0
  0
LINE
  5
7FD
330
1A
100
AcDbEntity
  8
SEIHIN
  6
CONTINUOUS
 62
     3
100
AcDbLine
 10
421.6366929066387
 20
398.4789330174901
 30
0.0
 11
436.1366929066386
 21
398.4788330174901
 31
0.0
  0
ARC
  5
7FE
330
1A
100
AcDbEntity
  8
SEIHIN
  6
CONTINUOUS
 62
     3
100
AcDbCircle
 10
417.6355539454069
 20
347.4788497801398
 30
0.0
 40
61.99998324781198
100
AcDbArc
 50
88.1504672241196
 51
89.99894745662489
  0
ARC
  5
7FF
330
1A
100
AcDbEntity
  8
SEIHIN
  6
CONTINUOUS
 62
     3
100
AcDbCircle
 10
417.6352381604961
 20
347.4788541905834
 30
0.0
 40
63.9999788412453
100
AcDbArc
 50
88.20800132317733
 51
89.9987871677821
  0
LINE
  5
800
330
1A
100
AcDbEntity
  8
SEIHIN
  6
CONTINUOUS
 62
     3
100
AcDbLine
 10
458.6366929066387
 20
400.4787330174901
 30
0.0
 11
458.6366929066387
 21
414.4787330174901
 31
0.0
  0
LINE
  5
801
330
1A
100
AcDbEntity
  8
SEIHIN
  6
CONTINUOUS
 62
     3
100
AcDbLine
 10
440.1366929066386
 20
412.5798330174903
 30
0.0
 11
440.1366929066386
 21
400.4788330174902
 31
0.0
  0
LINE
  5
802
330
1A
100
AcDbEntity
  8
SEIHIN
  6
CONTINUOUS
 62
     3
100
AcDbLine
 10
438.1366929066387
 20
400.4788330174902
 30
0.0
 11
438.1366929066387
 21
412.5798330174903
 31
0.0
  0
ARC
  5
803
330
1A
100
AcDbEntity
  8
SEIHIN
  6
CONTINUOUS
 62
     3
100
AcDbCircle
 10
456.6366929066386
 20
420.4787330174902
 30
0.0
 40
2.0
100
AcDbArc
 50
270.0
 51
0.0
  0
ARC
  5
804
330
1A
100
AcDbEntity
  8
SEIHIN
  6
CONTINUOUS
 62
     3
100
AcDbCircle
 10
456.6366929066386
 20
414.4787330174901
 30
0.0
 40
2.0
100
AcDbArc
 50
0.0
 51
90.0
  0
ARC
  5
805
330
1A
100
AcDbEntity
  8
SEIHIN
  6
CONTINUOUS
 62
     3
100
AcDbCircle
 10
439.1366929066387
 20
417.4788330174902
 30
0.0
 40
5.0
100
AcDbArc
 50
270.0
 51
90.0
  0
LINE
  5
806
330
1A
100
AcDbEntity
  8
SEIHIN
  6
CONTINUOUS
 62
     3
100
AcDbLine
 10
444.0356929066388
 20
416.4788330174901
 30
0.0
 11
456.6366929066386
 21
416.4787330174902
 31
0.0
  0
LINE
  5
807
330
1A
100
AcDbEntity
  8
SEIHIN
  6
CONTINUOUS
 62
     3
100
AcDbLine
 10
444.0356929066388
 20
418.4788330174901
 30
0.0
 11
456.6366929066386
 21
418.4787330174901
 31
0.0
  0
ARC
  5
808
330
1A
100
AcDbEntity
  8
SEIHIN
  6
CONTINUOUS
 62
     3
100
AcDbCircle
 10
456.6366929066386
 20
400.4787330174901
 30
0.0
 40
2.0
100
AcDbArc
 50
270.0
 51
0.0
  0
ARC
  5
809
330
1A
100
AcDbEntity
  8
SEIHIN
  6
CONTINUOUS
 62
     3
100
AcDbCircle
 10
442.1366929066387
 20
400.4788330174902
 30
0.0
 40
2.0
100
AcDbArc
 50
180.0
 51
270.0
  0
LINE
  5
80A
330
1A
100
AcDbEntity
  8
SEIHIN
  6
CONTINUOUS
 62
     3
100
AcDbLine
 10
440.1366929066386
 20
409.4788330174901
 30
0.0
 11
438.1366929066387
 21
409.4788330174901
 31
0.0
  0
LINE
  5
80B
330
1A
100
AcDbEntity
  8
SEIHIN
  6
CONTINUOUS
 62
     3
100
AcDbLine
 10
440.1366929066386
 20
411.4788330174901
 30
0.0
 11
438.1366929066387
 21
411.4788330174901
 31
0.0
  0
LINE
  5
80C
330
1A
100
AcDbEntity
  8
SEIHIN
  6
CONTINUOUS
 62
     3
100
AcDbLine
 10
442.1366929066387
 20
396.4788330174901
 30
0.0
 11
456.6366929066386
 21
396.4787330174901
 31
0.0
  0
LINE
  5
80D
330
1A
100
AcDbEntity
  8
SEIHIN
  6
CONTINUOUS
 62
     3
100
AcDbLine
 10
442.1366929066387
 20
398.4788330174901
 30
0.0
 11
456.6366929066386
 21
398.4787330174901
 31
0.0
  0
ARC
  5
80E
330
1A
100
AcDbEntity
  8
SEIHIN
  6
CONTINUOUS
 62
     3
100
AcDbCircle
 10
439.1366929066387
 20
377.4788330174901
 30
0.0
 40
5.0
100
AcDbArc
 50
90.0
 51
270.0
  0
ARC
  5
80F
330
1A
100
AcDbEntity
  8
SEIHIN
  6
CONTINUOUS
 62
     3
100
AcDbCircle
 10
415.6365929066387
 20
380.4789330174901
 30
0.0
 40
2.0
100
AcDbArc
 50
270.0
 51
0.0
  0
ARC
  5
810
330
1A
100
AcDbEntity
  8
SEIHIN
  6
CONTINUOUS
 62
     3
100
AcDbCircle
 10
421.6366929066387
 20
380.4789330174901
 30
0.0
 40
2.0
100
AcDbArc
 50
180.0
 51
270.0
  0
LINE
  5
811
330
1A
100
AcDbEntity
  8
SEIHIN
  6
CONTINUOUS
 62
     3
100
AcDbLine
 10
419.6366929066386
 20
394.4789330174901
 30
0.0
 11
419.6365929066387
 21
380.4789330174901
 31
0.0
  0
LINE
  5
812
330
1A
100
AcDbEntity
  8
SEIHIN
  6
CONTINUOUS
 62
     3
100
AcDbLine
 10
417.6365929066387
 20
380.4789330174901
 30
0.0
 11
417.6366929066387
 21
394.4789330174901
 31
0.0
  0
LINE
  5
813
330
1A
100
AcDbEntity
  8
SEIHIN
  6
CONTINUOUS
 62
     3
100
AcDbLine
 10
421.6366929066387
 20
376.4789330174901
 30
0.0
 11
434.2375929066386
 21
376.4788330174901
 31
0.0
  0
LINE
  5
814
330
1A
100
AcDbEntity
  8
SEIHIN
  6
CONTINUOUS
 62
     3
100
AcDbLine
 10
421.6366929066387
 20
378.4789330174901
 30
0.0
 11
434.2375929066386
 21
378.4788330174901
 31
0.0
  0
ARC
  5
815
330
1A
100
AcDbEntity
  8
SEIHIN
  6
CONTINUOUS
 62
     3
100
AcDbCircle
 10
415.6365929066387
 20
374.4789330174901
 30
0.0
 40
2.0
100
AcDbArc
 50
0.0
 51
90.0
  0
ARC
  5
816
330
1A
100
AcDbEntity
  8
SEIHIN
  6
CONTINUOUS
 62
     3
100
AcDbCircle
 10
421.6366929066387
 20
374.4789330174901
 30
0.0
 40
2.0
100
AcDbArc
 50
90.0
 51
180.0
  0
ARC
  5
817
330
1A
100
AcDbEntity
  8
SEIHIN
  6
CONTINUOUS
 62
     3
100
AcDbCircle
 10
456.6366929066386
 20
380.4787330174901
 30
0.0
 40
2.0
100
AcDbArc
 50
270.0
 51
0.0
  0
ARC
  5
818
330
1A
100
AcDbEntity
  8
SEIHIN
  6
CONTINUOUS
 62
     3
100
AcDbCircle
 10
439.1366929066387
 20
377.4788330174901
 30
0.0
 40
5.0
100
AcDbArc
 50
270.0
 51
90.0
  0
LINE
  5
819
330
1A
100
AcDbEntity
  8
SEIHIN
  6
CONTINUOUS
 62
     3
100
AcDbLine
 10
458.6365929066387
 20
380.4787330174901
 30
0.0
 11
458.6366929066387
 21
394.4787330174901
 31
0.0
  0
LINE
  5
81A
330
1A
100
AcDbEntity
  8
SEIHIN
  6
CONTINUOUS
 62
     3
100
AcDbLine
 10
440.1366929066386
 20
394.4788330174901
 30
0.0
 11
440.1366929066386
 21
382.37783301749
 31
0.0
  0
LINE
  5
81B
330
1A
100
AcDbEntity
  8
SEIHIN
  6
CONTINUOUS
 62
     3
100
AcDbLine
 10
438.1366929066387
 20
382.37783301749
 30
0.0
 11
438.1366929066387
 21
394.4788330174901
 31
0.0
  0
ARC
  5
81C
330
1A
100
AcDbEntity
  8
SEIHIN
  6
CONTINUOUS
 62
     3
100
AcDbCircle
 10
456.6366929066386
 20
374.4787330174901
 30
0.0
 40
2.0
100
AcDbArc
 50
0.0
 51
90.0
  0
LINE
  5
81D
330
1A
100
AcDbEntity
  8
SEIHIN
  6
CONTINUOUS
 62
     3
100
AcDbLine
 10
444.0355929066385
 20
376.4788330174901
 30
0.0
 11
456.6366929066386
 21
376.4787330174901
 31
0.0
  0
LINE
  5
81E
330
1A
100
AcDbEntity
  8
SEIHIN
  6
CONTINUOUS
 62
     3
100
AcDbLine
 10
444.0355929066385
 20
378.4788330174901
 30
0.0
 11
456.6366929066386
 21
378.4787330174901
 31
0.0
  0
LINE
  5
81F
330
1A
100
AcDbEntity
  8
SEIHIN
  6
CONTINUOUS
 62
     3
100
AcDbLine
 10
401.1365929066387
 20
298.4785330174902
 30
0.0
 11
415.6365929066387
 21
298.4785330174902
 31
0.0
  0
LINE
  5
820
330
1A
100
AcDbEntity
  8
SEIHIN
  6
CONTINUOUS
 62
     3
100
AcDbLine
 10
401.1365929066387
 20
338.4785330174902
 30
0.0
 11
415.6365929066387
 21
338.4785330174902
 31
0.0
  0
LINE
  5
821
330
1A
100
AcDbEntity
  8
SEIHIN
  6
CONTINUOUS
 62
     3
100
AcDbLine
 10
403.0355929066386
 20
318.4785330174902
 30
0.0
 11
415.6365929066387
 21
318.4785330174902
 31
0.0
  0
LINE
  5
822
330
1A
100
AcDbEntity
  8
SEIHIN
  6
CONTINUOUS
 62
     3
100
AcDbLine
 10
401.1365929066387
 20
336.4785330174902
 30
0.0
 11
415.6365929066387
 21
336.4785330174902
 31
0.0
  0
LINE
  5
823
330
1A
100
AcDbEntity
  8
SEIHIN
  6
CONTINUOUS
 62
     3
100
AcDbLine
 10
403.0355929066386
 20
316.4785330174902
 30
0.0
 11
415.6365929066387
 21
316.4785330174902
 31
0.0
  0
LINE
  5
824
330
1A
100
AcDbEntity
  8
SEIHIN
  6
CONTINUOUS
 62
     3
100
AcDbLine
 10
401.1365929066387
 20
356.4789330174901
 30
0.0
 11
415.6365929066387
 21
356.4789330174901
 31
0.0
  0
LINE
  5
825
330
1A
100
AcDbEntity
  8
SEIHIN
  6
CONTINUOUS
 62
     3
100
AcDbLine
 10
401.1365929066387
 20
358.4789330174901
 30
0.0
 11
415.6365929066387
 21
358.4789330174901
 31
0.0
  0
LINE
  5
826
330
1A
100
AcDbEntity
  8
SEIHIN
  6
CONTINUOUS
 62
     3
100
AcDbLine
 10
399.1365929066387
 20
322.3775330174901
 30
0.0
 11
399.1365929066387
 21
334.4785330174902
 31
0.0
  0
LINE
  5
827
330
1A
100
AcDbEntity
  8
SEIHIN
  6
CONTINUOUS
 62
     3
100
AcDbLine
 10
397.1365929066387
 20
334.4785330174902
 30
0.0
 11
397.1365929066387
 21
322.3775330174901
 31
0.0
  0
LINE
  5
828
330
1A
100
AcDbEntity
  8
SEIHIN
  6
CONTINUOUS
 62
     3
100
AcDbLine
 10
378.6365929066387
 20
320.4785330174902
 30
0.0
 11
378.6365929066387
 21
334.4785330174902
 31
0.0
  0
LINE
  5
829
330
1A
100
AcDbEntity
  8
SEIHIN
  6
CONTINUOUS
 62
     3
100
AcDbLine
 10
376.6365929066387
 20
334.4785330174902
 30
0.0
 11
376.6365929066387
 21
320.4785330174902
 31
0.0
  0
LINE
  5
82A
330
1A
100
AcDbEntity
  8
SEIHIN
  6
CONTINUOUS
 62
     3
100
AcDbLine
 10
380.6365929066387
 20
338.4785330174902
 30
0.0
 11
395.1365929066387
 21
338.4785330174902
 31
0.0
  0
LINE
  5
82B
330
1A
100
AcDbEntity
  8
SEIHIN
  6
CONTINUOUS
 62
     3
100
AcDbLine
 10
380.6365929066387
 20
336.4785330174902
 30
0.0
 11
395.1365929066387
 21
336.4785330174902
 31
0.0
  0
LINE
  5
82C
330
1A
100
AcDbEntity
  8
SEIHIN
  6
CONTINUOUS
 62
     3
100
AcDbLine
 10
380.6365929066387
 20
356.4790330174901
 30
0.0
 11
395.1365929066387
 21
356.4789330174901
 31
0.0
  0
LINE
  5
82D
330
1A
100
AcDbEntity
  8
SEIHIN
  6
CONTINUOUS
 62
     3
100
AcDbLine
 10
380.6365929066387
 20
358.4790330174901
 30
0.0
 11
395.1365929066387
 21
358.4789330174901
 31
0.0
  0
LINE
  5
82E
330
1A
100
AcDbEntity
  8
SEIHIN
  6
CONTINUOUS
 62
     3
100
AcDbLine
 10
378.6365929066387
 20
340.4785330174902
 30
0.0
 11
378.6365929066387
 21
347.4784330174902
 31
0.0
  0
LINE
  5
82F
330
1A
100
AcDbEntity
  8
SEIHIN
  6
CONTINUOUS
 62
     3
100
AcDbLine
 10
376.6365929066387
 20
347.4784330174902
 30
0.0
 11
376.6365929066387
 21
340.4785330174902
 31
0.0
  0
LINE
  5
830
330
1A
100
AcDbEntity
  8
SEIHIN
  6
CONTINUOUS
 62
     3
100
AcDbLine
 10
378.6365929066387
 20
354.4790330174903
 30
0.0
 11
378.6365929066387
 21
347.4790330174901
 31
0.0
  0
LINE
  5
831
330
1A
100
AcDbEntity
  8
SEIHIN
  6
CONTINUOUS
 62
     3
100
AcDbLine
 10
376.6365929066387
 20
347.4790330174901
 30
0.0
 11
376.6365929066387
 21
354.4790330174903
 31
0.0
  0
ARC
  5
832
330
1A
100
AcDbEntity
  8
SEIHIN
  6
CONTINUOUS
 62
     3
100
AcDbCircle
 10
380.6365929066387
 20
354.4790330174901
 30
0.0
 40
1.999999999999943
100
AcDbArc
 50
89.99999999999836
 51
179.9999999999983
  0
ARC
  5
833
330
1A
100
AcDbEntity
  8
SEIHIN
  6
CONTINUOUS
 62
     3
100
AcDbCircle
 10
374.6365929066387
 20
354.4790330174901
 30
0.0
 40
1.999999999999943
100
AcDbArc
 50
0.0000000000016157
 51
90.00000000000161
  0
ARC
  5
834
330
1A
100
AcDbEntity
  8
SEIHIN
  6
CONTINUOUS
 62
     3
100
AcDbCircle
 10
380.6365929066387
 20
360.4790330174901
 30
0.0
 40
2.0
100
AcDbArc
 50
180.0
 51
270.0
  0
ARC
  5
835
330
1A
100
AcDbEntity
  8
SEIHIN
  6
CONTINUOUS
 62
     3
100
AcDbCircle
 10
374.6365929066387
 20
360.4790330174901
 30
0.0
 40
2.0
100
AcDbArc
 50
270.0
 51
0.0
  0
ARC
  5
836
330
1A
100
AcDbEntity
  8
SEIHIN
  6
CONTINUOUS
 62
     3
100
AcDbCircle
 10
380.6365929066387
 20
340.4785330174902
 30
0.0
 40
2.0
100
AcDbArc
 50
180.0
 51
270.0
  0
ARC
  5
837
330
1A
100
AcDbEntity
  8
SEIHIN
  6
CONTINUOUS
 62
     3
100
AcDbCircle
 10
380.6365929066387
 20
334.4785330174902
 30
0.0
 40
2.0
100
AcDbArc
 50
90.00000000000161
 51
180.0000000000032
  0
ARC
  5
838
330
1A
100
AcDbEntity
  8
SEIHIN
  6
CONTINUOUS
 62
     3
100
AcDbCircle
 10
374.6365929066387
 20
340.4785330174902
 30
0.0
 40
2.0
100
AcDbArc
 50
270.0
 51
0.0
  0
ARC
  5
839
330
1A
100
AcDbEntity
  8
SEIHIN
  6
CONTINUOUS
 62
     3
100
AcDbCircle
 10
374.6365929066387
 20
334.4785330174902
 30
0.0
 40
2.000000000000056
100
AcDbArc
 50
359.9999999999967
 51
89.99999999999836
  0
LINE
  5
83A
330
1A
100
AcDbEntity
  8
SEIHIN
  6
CONTINUOUS
 62
     3
100
AcDbLine
 10
399.1365929066387
 20
340.4785330174902
 30
0.0
 11
399.1365929066387
 21
347.4784330174902
 31
0.0
  0
LINE
  5
83B
330
1A
100
AcDbEntity
  8
SEIHIN
  6
CONTINUOUS
 62
     3
100
AcDbLine
 10
397.1365929066387
 20
347.4784330174902
 30
0.0
 11
397.1365929066387
 21
340.4785330174902
 31
0.0
  0
LINE
  5
83C
330
1A
100
AcDbEntity
  8
SEIHIN
  6
CONTINUOUS
 62
     3
100
AcDbLine
 10
399.1365929066387
 20
354.4789330174901
 30
0.0
 11
399.1365929066387
 21
347.4790330174901
 31
0.0
  0
LINE
  5
83D
330
1A
100
AcDbEntity
  8
SEIHIN
  6
CONTINUOUS
 62
     3
100
AcDbLine
 10
397.1365929066387
 20
347.4790330174901
 30
0.0
 11
397.1365929066387
 21
354.4789330174901
 31
0.0
  0
ARC
  5
83E
330
1A
100
AcDbEntity
  8
SEIHIN
  6
CONTINUOUS
 62
     3
100
AcDbCircle
 10
401.1365929066387
 20
354.4789330174901
 30
0.0
 40
2.0
100
AcDbArc
 50
90.0
 51
180.0
  0
ARC
  5
83F
330
1A
100
AcDbEntity
  8
SEIHIN
  6
CONTINUOUS
 62
     3
100
AcDbCircle
 10
395.1365929066387
 20
354.4789330174901
 30
0.0
 40
2.0
100
AcDbArc
 50
0.0
 51
90.0
  0
ARC
  5
840
330
1A
100
AcDbEntity
  8
SEIHIN
  6
CONTINUOUS
 62
     3
100
AcDbCircle
 10
401.1365929066387
 20
360.4789330174901
 30
0.0
 40
1.999999999999943
100
AcDbArc
 50
180.0
 51
270.0
  0
ARC
  5
841
330
1A
100
AcDbEntity
  8
SEIHIN
  6
CONTINUOUS
 62
     3
100
AcDbCircle
 10
395.1365929066387
 20
360.4789330174901
 30
0.0
 40
2.0
100
AcDbArc
 50
270.0
 51
0.0
  0
ARC
  5
842
330
1A
100
AcDbEntity
  8
SEIHIN
  6
CONTINUOUS
 62
     3
100
AcDbCircle
 10
401.1365929066387
 20
340.4785330174902
 30
0.0
 40
1.999999999999943
100
AcDbArc
 50
180.0
 51
270.0
  0
ARC
  5
843
330
1A
100
AcDbEntity
  8
SEIHIN
  6
CONTINUOUS
 62
     3
100
AcDbCircle
 10
401.1365929066387
 20
334.4785330174902
 30
0.0
 40
2.0
100
AcDbArc
 50
90.00000000000323
 51
180.0000000000032
  0
ARC
  5
844
330
1A
100
AcDbEntity
  8
SEIHIN
  6
CONTINUOUS
 62
     3
100
AcDbCircle
 10
395.1365929066387
 20
340.4785330174902
 30
0.0
 40
2.0
100
AcDbArc
 50
270.0
 51
0.0
  0
ARC
  5
845
330
1A
100
AcDbEntity
  8
SEIHIN
  6
CONTINUOUS
 62
     3
100
AcDbCircle
 10
395.1365929066387
 20
334.4785330174902
 30
0.0
 40
2.000000000000056
100
AcDbArc
 50
359.9999999999967
 51
89.99999999999836
  0
LINE
  5
846
330
1A
100
AcDbEntity
  8
SEIHIN
  6
CONTINUOUS
 62
     3
100
AcDbLine
 10
380.6365929066387
 20
298.4785330174902
 30
0.0
 11
395.1365929066387
 21
298.4785330174902
 31
0.0
  0
LINE
  5
847
330
1A
100
AcDbEntity
  8
SEIHIN
  6
CONTINUOUS
 62
     3
100
AcDbLine
 10
380.6365929066387
 20
318.4785330174902
 30
0.0
 11
393.2375929066388
 21
318.4785330174902
 31
0.0
  0
LINE
  5
848
330
1A
100
AcDbEntity
  8
SEIHIN
  6
CONTINUOUS
 62
     3
100
AcDbLine
 10
380.6365929066387
 20
316.4785330174902
 30
0.0
 11
393.2375929066388
 21
316.4785330174902
 31
0.0
  0
LINE
  5
849
330
1A
100
AcDbEntity
  8
SEIHIN
  6
CONTINUOUS
 62
     3
100
AcDbLine
 10
378.6365929066387
 20
300.4785330174902
 30
0.0
 11
378.6365929066387
 21
314.4785330174902
 31
0.0
  0
LINE
  5
84A
330
1A
100
AcDbEntity
  8
SEIHIN
  6
CONTINUOUS
 62
     3
100
AcDbLine
 10
376.6365929066387
 20
314.4785330174902
 30
0.0
 11
376.6365929066387
 21
300.4785330174902
 31
0.0
  0
ARC
  5
84B
330
1A
100
AcDbEntity
  8
SEIHIN
  6
CONTINUOUS
 62
     3
100
AcDbCircle
 10
380.6365929066387
 20
320.4785330174902
 30
0.0
 40
2.0
100
AcDbArc
 50
180.0
 51
270.0
  0
ARC
  5
84C
330
1A
100
AcDbEntity
  8
SEIHIN
  6
CONTINUOUS
 62
     3
100
AcDbCircle
 10
380.6365929066387
 20
314.4785330174902
 30
0.0
 40
2.0
100
AcDbArc
 50
90.0
 51
180.0
  0
ARC
  5
84D
330
1A
100
AcDbEntity
  8
SEIHIN
  6
CONTINUOUS
 62
     3
100
AcDbCircle
 10
374.6365929066387
 20
320.4785330174902
 30
0.0
 40
2.0
100
AcDbArc
 50
270.0
 51
0.0
  0
ARC
  5
84E
330
1A
100
AcDbEntity
  8
SEIHIN
  6
CONTINUOUS
 62
     3
100
AcDbCircle
 10
374.6365929066387
 20
314.4785330174902
 30
0.0
 40
2.0
100
AcDbArc
 50
0.0
 51
90.0
  0
ARC
  5
84F
330
1A
100
AcDbEntity
  8
SEIHIN
  6
CONTINUOUS
 62
     3
100
AcDbCircle
 10
380.6365929066387
 20
300.4785330174902
 30
0.0
 40
1.999999999999943
100
AcDbArc
 50
180.0000000000032
 51
270.0000000000016
  0
ARC
  5
850
330
1A
100
AcDbEntity
  8
SEIHIN
  6
CONTINUOUS
 62
     3
100
AcDbCircle
 10
374.6365929066387
 20
300.4785330174902
 30
0.0
 40
2.0
100
AcDbArc
 50
269.9999999999983
 51
359.9999999999967
  0
ARC
  5
851
330
1A
100
AcDbEntity
  8
SEIHIN
  6
CONTINUOUS
 62
     3
100
AcDbCircle
 10
398.1365429066386
 20
317.4785330162576
 30
0.0
 40
4.999999999017521
100
AcDbArc
 50
270.000572957795
 51
269.9994270422048
  0
LINE
  5
852
330
1A
100
AcDbEntity
  8
SEIHIN
  6
CONTINUOUS
 62
     3
100
AcDbLine
 10
399.1365929066387
 20
300.4785330174902
 30
0.0
 11
399.1365929066387
 21
312.5795330174901
 31
0.0
  0
LINE
  5
853
330
1A
100
AcDbEntity
  8
SEIHIN
  6
CONTINUOUS
 62
     3
100
AcDbLine
 10
397.1365929066387
 20
312.5795330174901
 30
0.0
 11
397.1365929066387
 21
300.4785330174902
 31
0.0
  0
ARC
  5
854
330
1A
100
AcDbEntity
  8
SEIHIN
  6
CONTINUOUS
 62
     3
100
AcDbCircle
 10
401.1365929066387
 20
300.4785330174902
 30
0.0
 40
1.999999999999943
100
AcDbArc
 50
180.0
 51
270.0
  0
ARC
  5
855
330
1A
100
AcDbEntity
  8
SEIHIN
  6
CONTINUOUS
 62
     3
100
AcDbCircle
 10
395.1365929066387
 20
300.4785330174902
 30
0.0
 40
2.0
100
AcDbArc
 50
269.9999999999983
 51
359.9999999999967
  0
LINE
  5
856
330
1A
100
AcDbEntity
  8
SEIHIN
  6
CONTINUOUS
 62
     3
100
AcDbLine
 10
458.6365929066387
 20
334.4785330174902
 30
0.0
 11
458.6365929066387
 21
320.4785330174902
 31
0.0
  0
LINE
  5
857
330
1A
100
AcDbEntity
  8
SEIHIN
  6
CONTINUOUS
 62
     3
100
AcDbLine
 10
440.1365929066387
 20
322.3775330174901
 30
0.0
 11
440.1365929066387
 21
334.4785330174902
 31
0.0
  0
LINE
  5
858
330
1A
100
AcDbEntity
  8
SEIHIN
  6
CONTINUOUS
 62
     3
100
AcDbLine
 10
438.1365929066387
 20
334.4785330174902
 30
0.0
 11
438.1365929066387
 21
322.3775330174901
 31
0.0
  0
LINE
  5
859
330
1A
100
AcDbEntity
  8
SEIHIN
  6
CONTINUOUS
 62
     3
100
AcDbLine
 10
419.6365929066387
 20
320.4785330174902
 30
0.0
 11
419.6365929066387
 21
334.4785330174902
 31
0.0
  0
LINE
  5
85A
330
1A
100
AcDbEntity
  8
SEIHIN
  6
CONTINUOUS
 62
     3
100
AcDbLine
 10
417.6365929066387
 20
334.4785330174902
 30
0.0
 11
417.6365929066387
 21
320.4785330174902
 31
0.0
  0
ARC
  5
85B
330
1A
100
AcDbEntity
  8
SEIHIN
  6
CONTINUOUS
 62
     3
100
AcDbCircle
 10
436.1365929066387
 20
340.4785330174902
 30
0.0
 40
2.0
100
AcDbArc
 50
270.0
 51
0.0
  0
ARC
  5
85C
330
1A
100
AcDbEntity
  8
SEIHIN
  6
CONTINUOUS
 62
     3
100
AcDbCircle
 10
436.1365929066384
 20
334.4785330174902
 30
0.0
 40
2.000000000000056
100
AcDbArc
 50
359.9999999999967
 51
89.99999999999836
  0
ARC
  5
85D
330
1A
100
AcDbEntity
  8
SEIHIN
  6
CONTINUOUS
 62
     3
100
AcDbCircle
 10
436.1365929066387
 20
354.4788330174901
 30
0.0
 40
2.0
100
AcDbArc
 50
0.0
 51
90.0
  0
ARC
  5
85E
330
1A
100
AcDbEntity
  8
SEIHIN
  6
CONTINUOUS
 62
     3
100
AcDbCircle
 10
436.1365929066387
 20
360.4788330174901
 30
0.0
 40
2.0
100
AcDbArc
 50
270.0
 51
0.0
  0
LINE
  5
85F
330
1A
100
AcDbEntity
  8
SEIHIN
  6
CONTINUOUS
 62
     3
100
AcDbLine
 10
419.6365929066387
 20
340.4785330174902
 30
0.0
 11
419.6365929066387
 21
347.4784330174902
 31
0.0
  0
LINE
  5
860
330
1A
100
AcDbEntity
  8
SEIHIN
  6
CONTINUOUS
 62
     3
100
AcDbLine
 10
417.6365929066387
 20
347.4784330174902
 30
0.0
 11
417.6365929066387
 21
340.4785330174902
 31
0.0
  0
LINE
  5
861
330
1A
100
AcDbEntity
  8
SEIHIN
  6
CONTINUOUS
 62
     3
100
AcDbLine
 10
419.6365929066387
 20
354.4789330174901
 30
0.0
 11
419.6365929066387
 21
347.4789330174901
 31
0.0
  0
LINE
  5
862
330
1A
100
AcDbEntity
  8
SEIHIN
  6
CONTINUOUS
 62
     3
100
AcDbLine
 10
417.6365929066387
 20
347.4790330174901
 30
0.0
 11
417.6365929066387
 21
354.4789330174901
 31
0.0
  0
ARC
  5
863
330
1A
100
AcDbEntity
  8
SEIHIN
  6
CONTINUOUS
 62
     3
100
AcDbCircle
 10
415.6365929066387
 20
354.4789330174901
 30
0.0
 40
2.0
100
AcDbArc
 50
0.0
 51
90.0
  0
ARC
  5
864
330
1A
100
AcDbEntity
  8
SEIHIN
  6
CONTINUOUS
 62
     3
100
AcDbCircle
 10
421.6365929066387
 20
354.4789330174901
 30
0.0
 40
2.0
100
AcDbArc
 50
90.0
 51
180.0
  0
ARC
  5
865
330
1A
100
AcDbEntity
  8
SEIHIN
  6
CONTINUOUS
 62
     3
100
AcDbCircle
 10
415.6365929066387
 20
360.4789330174901
 30
0.0
 40
2.0
100
AcDbArc
 50
270.0
 51
0.0
  0
ARC
  5
866
330
1A
100
AcDbEntity
  8
SEIHIN
  6
CONTINUOUS
 62
     3
100
AcDbCircle
 10
421.6365929066387
 20
360.4789330174901
 30
0.0
 40
2.0
100
AcDbArc
 50
180.0
 51
270.0
  0
LINE
  5
867
330
1A
100
AcDbEntity
  8
SEIHIN
  6
CONTINUOUS
 62
     3
100
AcDbLine
 10
421.6365929066387
 20
356.4789330174901
 30
0.0
 11
436.1365929066387
 21
356.4788330174901
 31
0.0
  0
LINE
  5
868
330
1A
100
AcDbEntity
  8
SEIHIN
  6
CONTINUOUS
 62
     3
100
AcDbLine
 10
421.6365929066387
 20
358.4789330174901
 30
0.0
 11
436.1365929066387
 21
358.4788330174901
 31
0.0
  0
ARC
  5
869
330
1A
100
AcDbEntity
  8
SEIHIN
  6
CONTINUOUS
 62
     3
100
AcDbCircle
 10
421.6365929066387
 20
340.4785330174902
 30
0.0
 40
2.0
100
AcDbArc
 50
180.0
 51
270.0
  0
ARC
  5
86A
330
1A
100
AcDbEntity
  8
SEIHIN
  6
CONTINUOUS
 62
     3
100
AcDbCircle
 10
421.6365929066387
 20
334.4785330174902
 30
0.0
 40
2.0
100
AcDbArc
 50
90.00000000000161
 51
180.0000000000032
  0
ARC
  5
86B
330
1A
100
AcDbEntity
  8
SEIHIN
  6
CONTINUOUS
 62
     3
100
AcDbCircle
 10
415.6365929066387
 20
340.4785330174902
 30
0.0
 40
2.0
100
AcDbArc
 50
270.0
 51
0.0
  0
ARC
  5
86C
330
1A
100
AcDbEntity
  8
SEIHIN
  6
CONTINUOUS
 62
     3
100
AcDbCircle
 10
415.6365929066387
 20
334.4785330174902
 30
0.0
 40
2.000000000000056
100
AcDbArc
 50
359.9999999999967
 51
89.99999999999836
  0
LINE
  5
86D
330
1A
100
AcDbEntity
  8
SEIHIN
  6
CONTINUOUS
 62
     3
100
AcDbLine
 10
421.6365929066387
 20
338.4785330174902
 30
0.0
 11
436.1365929066387
 21
338.4785330174902
 31
0.0
  0
LINE
  5
86E
330
1A
100
AcDbEntity
  8
SEIHIN
  6
CONTINUOUS
 62
     3
100
AcDbLine
 10
421.6365929066387
 20
336.4785330174902
 30
0.0
 11
436.1365929066387
 21
336.4785330174902
 31
0.0
  0
LINE
  5
86F
330
1A
100
AcDbEntity
  8
SEIHIN
  6
CONTINUOUS
 62
     3
100
AcDbLine
 10
458.6365929066387
 20
347.4784330174902
 30
0.0
 11
458.6365929066387
 21
340.4785330174902
 31
0.0
  0
LINE
  5
870
330
1A
100
AcDbEntity
  8
SEIHIN
  6
CONTINUOUS
 62
     3
100
AcDbLine
 10
440.1365929066387
 20
340.4785330174902
 30
0.0
 11
440.1365929066387
 21
347.4784330174902
 31
0.0
  0
LINE
  5
871
330
1A
100
AcDbEntity
  8
SEIHIN
  6
CONTINUOUS
 62
     3
100
AcDbLine
 10
438.1365929066387
 20
347.4784330174902
 30
0.0
 11
438.1365929066387
 21
340.4785330174902
 31
0.0
  0
LINE
  5
872
330
1A
100
AcDbEntity
  8
SEIHIN
  6
CONTINUOUS
 62
     3
100
AcDbLine
 10
458.6365929066387
 20
347.4788330174901
 30
0.0
 11
458.6365929066387
 21
354.4787330174901
 31
0.0
  0
ARC
  5
873
330
1A
100
AcDbEntity
  8
SEIHIN
  6
CONTINUOUS
 62
     3
100
AcDbCircle
 10
456.6365929066384
 20
354.4787330174901
 30
0.0
 40
2.000000000000056
100
AcDbArc
 50
359.9999999999983
 51
89.99999999999836
  0
ARC
  5
874
330
1A
100
AcDbEntity
  8
SEIHIN
  6
CONTINUOUS
 62
     3
100
AcDbCircle
 10
456.6365929066387
 20
360.4787330174902
 30
0.0
 40
1.999999999999943
100
AcDbArc
 50
269.9999999999983
 51
359.9999999999983
  0
LINE
  5
875
330
1A
100
AcDbEntity
  8
SEIHIN
  6
CONTINUOUS
 62
     3
100
AcDbLine
 10
440.1365929066387
 20
354.4788330174901
 30
0.0
 11
440.1365929066387
 21
347.4789330174901
 31
0.0
  0
LINE
  5
876
330
1A
100
AcDbEntity
  8
SEIHIN
  6
CONTINUOUS
 62
     3
100
AcDbLine
 10
438.1365929066387
 20
347.4789330174901
 30
0.0
 11
438.1365929066387
 21
354.4788330174901
 31
0.0
  0
ARC
  5
877
330
1A
100
AcDbEntity
  8
SEIHIN
  6
CONTINUOUS
 62
     3
100
AcDbCircle
 10
442.1365929066387
 20
354.4788330174901
 30
0.0
 40
2.0
100
AcDbArc
 50
90.0
 51
180.0
  0
ARC
  5
878
330
1A
100
AcDbEntity
  8
SEIHIN
  6
CONTINUOUS
 62
     3
100
AcDbCircle
 10
442.1365929066387
 20
360.4788330174901
 30
0.0
 40
2.0
100
AcDbArc
 50
180.0
 51
270.0
  0
LINE
  5
879
330
1A
100
AcDbEntity
  8
SEIHIN
  6
CONTINUOUS
 62
     3
100
AcDbLine
 10
442.1365929066387
 20
356.4788330174901
 30
0.0
 11
456.6365929066387
 21
356.4787330174902
 31
0.0
  0
LINE
  5
87A
330
1A
100
AcDbEntity
  8
SEIHIN
  6
CONTINUOUS
 62
     3
100
AcDbLine
 10
442.1365929066387
 20
358.4788330174901
 30
0.0
 11
456.6365929066387
 21
358.4787330174902
 31
0.0
  0
ARC
  5
87B
330
1A
100
AcDbEntity
  8
SEIHIN
  6
CONTINUOUS
 62
     3
100
AcDbCircle
 10
456.6365929066387
 20
340.4785330174902
 30
0.0
 40
2.0
100
AcDbArc
 50
270.0
 51
0.0
  0
ARC
  5
87C
330
1A
100
AcDbEntity
  8
SEIHIN
  6
CONTINUOUS
 62
     3
100
AcDbCircle
 10
456.6365929066384
 20
334.4785330174902
 30
0.0
 40
2.000000000000056
100
AcDbArc
 50
359.9999999999967
 51
89.99999999999836
  0
ARC
  5
87D
330
1A
100
AcDbEntity
  8
SEIHIN
  6
CONTINUOUS
 62
     3
100
AcDbCircle
 10
442.1365929066387
 20
340.4785330174902
 30
0.0
 40
2.0
100
AcDbArc
 50
180.0
 51
270.0
  0
ARC
  5
87E
330
1A
100
AcDbEntity
  8
SEIHIN
  6
CONTINUOUS
 62
     3
100
AcDbCircle
 10
442.1365929066387
 20
334.4785330174902
 30
0.0
 40
2.0
100
AcDbArc
 50
90.00000000000161
 51
180.0000000000032
  0
LINE
  5
87F
330
1A
100
AcDbEntity
  8
SEIHIN
  6
CONTINUOUS
 62
     3
100
AcDbLine
 10
442.1365929066387
 20
338.4785330174902
 30
0.0
 11
456.6365929066387
 21
338.4785330174902
 31
0.0
  0
LINE
  5
880
330
1A
100
AcDbEntity
  8
SEIHIN
  6
CONTINUOUS
 62
     3
100
AcDbLine
 10
442.1365929066387
 20
336.4785330174902
 30
0.0
 11
456.6365929066387
 21
336.4785330174902
 31
0.0
  0
ARC
  5
881
330
1A
100
AcDbEntity
  8
SEIHIN
  6
CONTINUOUS
 62
     3
100
AcDbCircle
 10
436.1365929066387
 20
300.4785330174902
 30
0.0
 40
2.0
100
AcDbArc
 50
269.9999999999983
 51
359.9999999999967
  0
ARC
  5
882
330
1A
100
AcDbEntity
  8
SEIHIN
  6
CONTINUOUS
 62
     3
100
AcDbCircle
 10
439.1365929066387
 20
317.4785330174902
 30
0.0
 40
5.0
100
AcDbArc
 50
90.0
 51
270.0
  0
LINE
  5
883
330
1A
100
AcDbEntity
  8
SEIHIN
  6
CONTINUOUS
 62
     3
100
AcDbLine
 10
419.6365929066387
 20
300.4785330174902
 30
0.0
 11
419.6365929066387
 21
314.4785330174902
 31
0.0
  0
LINE
  5
884
330
1A
100
AcDbEntity
  8
SEIHIN
  6
CONTINUOUS
 62
     3
100
AcDbLine
 10
417.6365929066387
 20
314.4785330174902
 30
0.0
 11
417.6365929066387
 21
300.4785330174902
 31
0.0
  0
ARC
  5
885
330
1A
100
AcDbEntity
  8
SEIHIN
  6
CONTINUOUS
 62
     3
100
AcDbCircle
 10
421.6365929066387
 20
320.4785330174902
 30
0.0
 40
2.0
100
AcDbArc
 50
180.0
 51
270.0
  0
ARC
  5
886
330
1A
100
AcDbEntity
  8
SEIHIN
  6
CONTINUOUS
 62
     3
100
AcDbCircle
 10
421.6365929066387
 20
314.4785330174902
 30
0.0
 40
2.0
100
AcDbArc
 50
90.0
 51
180.0
  0
ARC
  5
887
330
1A
100
AcDbEntity
  8
SEIHIN
  6
CONTINUOUS
 62
     3
100
AcDbCircle
 10
415.6365929066387
 20
320.4785330174902
 30
0.0
 40
2.0
100
AcDbArc
 50
270.0
 51
0.0
  0
ARC
  5
888
330
1A
100
AcDbEntity
  8
SEIHIN
  6
CONTINUOUS
 62
     3
100
AcDbCircle
 10
415.6365929066387
 20
314.4785330174902
 30
0.0
 40
2.0
100
AcDbArc
 50
0.0
 51
90.0
  0
LINE
  5
889
330
1A
100
AcDbEntity
  8
SEIHIN
  6
CONTINUOUS
 62
     3
100
AcDbLine
 10
421.6365929066387
 20
318.4785330174902
 30
0.0
 11
434.2375929066386
 21
318.4785330174902
 31
0.0
  0
LINE
  5
88A
330
1A
100
AcDbEntity
  8
SEIHIN
  6
CONTINUOUS
 62
     3
100
AcDbLine
 10
421.6365929066387
 20
316.4785330174902
 30
0.0
 11
434.2375929066386
 21
316.4785330174902
 31
0.0
  0
ARC
  5
88B
330
1A
100
AcDbEntity
  8
SEIHIN
  6
CONTINUOUS
 62
     3
100
AcDbCircle
 10
421.6365929066387
 20
300.4785330174902
 30
0.0
 40
1.999999999999943
100
AcDbArc
 50
180.0000000000032
 51
270.0000000000016
  0
ARC
  5
88C
330
1A
100
AcDbEntity
  8
SEIHIN
  6
CONTINUOUS
 62
     3
100
AcDbCircle
 10
415.6365929066387
 20
300.4785330174902
 30
0.0
 40
2.0
100
AcDbArc
 50
269.9999999999983
 51
359.9999999999967
  0
LINE
  5
88D
330
1A
100
AcDbEntity
  8
SEIHIN
  6
CONTINUOUS
 62
     3
100
AcDbLine
 10
421.6365929066387
 20
298.4785330174902
 30
0.0
 11
436.1365929066387
 21
298.4785330174902
 31
0.0
  0
LINE
  5
88E
330
1A
100
AcDbEntity
  8
SEIHIN
  6
CONTINUOUS
 62
     3
100
AcDbLine
 10
458.6365929066387
 20
314.4785330174902
 30
0.0
 11
458.6365929066387
 21
300.4785330174902
 31
0.0
  0
ARC
  5
88F
330
1A
100
AcDbEntity
  8
SEIHIN
  6
CONTINUOUS
 62
     3
100
AcDbCircle
 10
439.1365929066387
 20
317.4785330174902
 30
0.0
 40
5.0
100
AcDbArc
 50
270.0
 51
90.0
  0
ARC
  5
890
330
1A
100
AcDbEntity
  8
SEIHIN
  6
CONTINUOUS
 62
     3
100
AcDbCircle
 10
456.6365929066387
 20
320.4785330174902
 30
0.0
 40
2.0
100
AcDbArc
 50
270.0
 51
0.0
  0
ARC
  5
891
330
1A
100
AcDbEntity
  8
SEIHIN
  6
CONTINUOUS
 62
     3
100
AcDbCircle
 10
456.6365929066387
 20
314.4785330174902
 30
0.0
 40
2.0
100
AcDbArc
 50
0.0
 51
90.0
  0
LINE
  5
892
330
1A
100
AcDbEntity
  8
SEIHIN
  6
CONTINUOUS
 62
     3
100
AcDbLine
 10
444.0355929066385
 20
318.4785330174902
 30
0.0
 11
456.6365929066387
 21
318.4785330174902
 31
0.0
  0
LINE
  5
893
330
1A
100
AcDbEntity
  8
SEIHIN
  6
CONTINUOUS
 62
     3
100
AcDbLine
 10
444.0355929066385
 20
316.4785330174902
 30
0.0
 11
456.6365929066387
 21
316.4785330174902
 31
0.0
  0
ARC
  5
894
330
1A
100
AcDbEntity
  8
SEIHIN
  6
CONTINUOUS
 62
     3
100
AcDbCircle
 10
456.6365929066387
 20
300.4785330174902
 30
0.0
 40
2.0
100
AcDbArc
 50
269.9999999999983
 51
359.9999999999967
  0
LINE
  5
895
330
1A
100
AcDbEntity
  8
SEIHIN
  6
CONTINUOUS
 62
     3
100
AcDbLine
 10
440.1365929066387
 20
300.4785330174902
 30
0.0
 11
440.1365929066387
 21
312.5795330174901
 31
0.0
  0
LINE
  5
896
330
1A
100
AcDbEntity
  8
SEIHIN
  6
CONTINUOUS
 62
     3
100
AcDbLine
 10
438.1365929066387
 20
312.5795330174901
 30
0.0
 11
438.1365929066387
 21
300.4785330174902
 31
0.0
  0
ARC
  5
897
330
1A
100
AcDbEntity
  8
SEIHIN
  6
CONTINUOUS
 62
     3
100
AcDbCircle
 10
442.1365929066385
 20
300.4785330174902
 30
0.0
 40
1.999999999999943
100
AcDbArc
 50
180.0000000000032
 51
270.0000000000016
  0
LINE
  5
898
330
1A
100
AcDbEntity
  8
SEIHIN
  6
CONTINUOUS
 62
     3
100
AcDbLine
 10
442.1365929066387
 20
298.4785330174902
 30
0.0
 11
456.6365929066387
 21
298.4785330174902
 31
0.0
  0
LINE
  5
899
330
1A
100
AcDbEntity
  8
SEIHIN
  6
CONTINUOUS
 62
     3
100
AcDbLine
 10
540.6367929066386
 20
420.4785330174902
 30
0.0
 11
540.6367929066386
 21
434.4785330174902
 31
0.0
  0
LINE
  5
89A
330
1A
100
AcDbEntity
  8
SEIHIN
  6
CONTINUOUS
 62
     3
100
AcDbLine
 10
522.1367929066387
 20
434.4785330174902
 30
0.0
 11
522.1366929066387
 21
422.3775330174901
 31
0.0
  0
LINE
  5
89B
330
1A
100
AcDbEntity
  8
SEIHIN
  6
CONTINUOUS
 62
     3
100
AcDbLine
 10
520.1367929066386
 20
422.3775330174901
 30
0.0
 11
520.1367929066386
 21
434.4785330174902
 31
0.0
  0
LINE
  5
89C
330
1A
100
AcDbEntity
  8
SEIHIN
  6
CONTINUOUS
 62
     3
100
AcDbLine
 10
499.6367929066386
 20
420.4786330174901
 30
0.0
 11
499.6367929066386
 21
434.4786330174902
 31
0.0
  0
LINE
  5
89D
330
1A
100
AcDbEntity
  8
SEIHIN
  6
CONTINUOUS
 62
     3
100
AcDbLine
 10
501.6368929066389
 20
434.4786330174902
 30
0.0
 11
501.6366929066387
 21
420.4786330174901
 31
0.0
  0
LINE
  5
89E
330
1A
100
AcDbEntity
  8
SEIHIN
  6
CONTINUOUS
 62
     3
100
AcDbLine
 10
481.1368929066389
 20
434.4787330174901
 30
0.0
 11
481.1366929066386
 21
422.3777330174902
 31
0.0
  0
LINE
  5
89F
330
1A
100
AcDbEntity
  8
SEIHIN
  6
CONTINUOUS
 62
     3
100
AcDbLine
 10
479.1366929066387
 20
422.3777330174902
 30
0.0
 11
479.1367929066386
 21
434.4787330174901
 31
0.0
  0
LINE
  5
8A0
330
1A
100
AcDbEntity
  8
SEIHIN
  6
CONTINUOUS
 62
     3
100
AcDbLine
 10
460.6368929066388
 20
434.4787330174901
 30
0.0
 11
460.6366929066386
 21
420.4787330174902
 31
0.0
  0
LINE
  5
8A1
330
1A
100
AcDbEntity
  8
SEIHIN
  6
CONTINUOUS
 62
     3
100
AcDbLine
 10
541.6369929066388
 20
474.4785330174902
 30
0.0
 11
541.6365929066387
 21
347.4785330174902
 31
0.0
  0
LINE
  5
8A2
330
1A
100
AcDbEntity
  8
SEIHIN
  6
CONTINUOUS
 62
     3
100
AcDbLine
 10
503.6367929066386
 20
436.4786330174902
 30
0.0
 11
518.1367929066387
 21
436.4785330174902
 31
0.0
  0
LINE
  5
8A3
330
1A
100
AcDbEntity
  8
SEIHIN
  6
CONTINUOUS
 62
     3
100
AcDbLine
 10
503.6368929066388
 20
456.4786330174902
 30
0.0
 11
516.2378929066387
 21
456.4785330174902
 31
0.0
  0
LINE
  5
8A4
330
1A
100
AcDbEntity
  8
SEIHIN
  6
CONTINUOUS
 62
     3
100
AcDbLine
 10
503.6367929066386
 20
438.4786330174902
 30
0.0
 11
518.1367929066387
 21
438.4785330174902
 31
0.0
  0
LINE
  5
8A5
330
1A
100
AcDbEntity
  8
SEIHIN
  6
CONTINUOUS
 62
     3
100
AcDbLine
 10
503.6368929066388
 20
458.4786330174901
 30
0.0
 11
516.2378929066387
 21
458.4785330174902
 31
0.0
  0
LINE
  5
8A6
330
1A
100
AcDbEntity
  8
SEIHIN
  6
CONTINUOUS
 62
     3
100
AcDbLine
 10
511.7826929066386
 20
476.4893330174902
 30
0.0
 11
503.3453929066386
 21
475.24643301749
 31
0.0
  0
LINE
  5
8A7
330
1A
100
AcDbEntity
  8
SEIHIN
  6
CONTINUOUS
 62
     3
100
AcDbLine
 10
499.6368929066388
 20
460.4786330174902
 30
0.0
 11
499.6369929066388
 21
472.3838330174901
 31
0.0
  0
LINE
  5
8A8
330
1A
100
AcDbEntity
  8
SEIHIN
  6
CONTINUOUS
 62
     3
100
AcDbLine
 10
501.6368929066389
 20
473.2677330174901
 30
0.0
 11
501.6368929066389
 21
460.4786330174902
 31
0.0
  0
ARC
  5
8A9
330
1A
100
AcDbEntity
  8
SEIHIN
  6
CONTINUOUS
 62
     3
100
AcDbCircle
 10
480.1368929066389
 20
457.4787330174902
 30
0.0
 40
5.000000000000056
100
AcDbArc
 50
270.0
 51
90.0
  0
ARC
  5
8AA
330
1A
100
AcDbEntity
  8
SEIHIN
  6
CONTINUOUS
 62
     3
100
AcDbCircle
 10
480.1368929066389
 20
457.4787330174902
 30
0.0
 40
5.0
100
AcDbArc
 50
90.0
 51
270.0
  0
LINE
  5
8AB
330
1A
100
AcDbEntity
  8
SEIHIN
  6
CONTINUOUS
 62
     3
100
AcDbLine
 10
460.6368929066388
 20
460.4787330174901
 30
0.0
 11
460.6368929066388
 21
467.2277330174901
 31
0.0
  0
LINE
  5
8AC
330
1A
100
AcDbEntity
  8
SEIHIN
  6
CONTINUOUS
 62
     3
100
AcDbLine
 10
497.3454929066388
 20
474.3625330174902
 30
0.0
 11
482.8453929066386
 21
472.2263330174901
 31
0.0
  0
ARC
  5
8AD
330
1A
100
AcDbEntity
  8
SEIHIN
  6
CONTINUOUS
 62
     3
100
AcDbCircle
 10
483.1368716826634
 20
470.2477084375659
 30
0.0
 40
1.999978776175728
100
AcDbArc
 50
98.38018741712511
 51
179.9992958295645
  0
ARC
  5
8AE
330
1A
100
AcDbEntity
  8
SEIHIN
  6
CONTINUOUS
 62
     3
100
AcDbCircle
 10
477.136914130614
 20
469.3638146912692
 30
0.0
 40
1.999978776108781
100
AcDbArc
 50
0.0005250131313929
 51
98.38141660069101
  0
LINE
  5
8AF
330
1A
100
AcDbEntity
  8
SEIHIN
  6
CONTINUOUS
 62
     3
100
AcDbLine
 10
481.1368929066389
 20
470.2478330174901
 30
0.0
 11
481.1368929066389
 21
462.3777330174902
 31
0.0
  0
LINE
  5
8B0
330
1A
100
AcDbEntity
  8
SEIHIN
  6
CONTINUOUS
 62
     3
100
AcDbLine
 10
476.8453929066386
 20
471.3425330174902
 30
0.0
 11
462.3454929066387
 21
469.2063330174901
 31
0.0
  0
LINE
  5
8B1
330
1A
100
AcDbEntity
  8
SEIHIN
  6
CONTINUOUS
 62
     3
100
AcDbLine
 10
479.1368929066388
 20
462.3777330174902
 30
0.0
 11
479.1369929066388
 21
469.3638330174901
 31
0.0
  0
ARC
  5
8B2
330
1A
100
AcDbEntity
  8
SEIHIN
  6
CONTINUOUS
 62
     3
100
AcDbCircle
 10
497.6368646645376
 20
472.383857403817
 30
0.0
 40
2.000028242249894
100
AcDbArc
 50
359.9993013930617
 51
98.37977544055888
  0
ARC
  5
8B3
330
1A
100
AcDbEntity
  8
SEIHIN
  6
CONTINUOUS
 62
     3
100
AcDbCircle
 10
503.6370211487398
 20
473.2677657250103
 30
0.0
 40
2.000028242368665
100
AcDbArc
 50
98.38141103569672
 51
180.0009369881993
  0
LINE
  5
8B4
330
1A
100
AcDbEntity
  8
SEIHIN
  6
CONTINUOUS
 62
     3
100
AcDbLine
 10
483.1367929066386
 20
436.4787330174902
 30
0.0
 11
497.6367929066387
 21
436.4787330174902
 31
0.0
  0
LINE
  5
8B5
330
1A
100
AcDbEntity
  8
SEIHIN
  6
CONTINUOUS
 62
     3
100
AcDbLine
 10
483.1367929066386
 20
438.4787330174901
 30
0.0
 11
497.6367929066387
 21
438.4787330174901
 31
0.0
  0
LINE
  5
8B6
330
1A
100
AcDbEntity
  8
SEIHIN
  6
CONTINUOUS
 62
     3
100
AcDbLine
 10
481.1368929066389
 20
452.57973301749
 30
0.0
 11
481.1368929066389
 21
440.4787330174902
 31
0.0
  0
LINE
  5
8B7
330
1A
100
AcDbEntity
  8
SEIHIN
  6
CONTINUOUS
 62
     3
100
AcDbLine
 10
479.1367929066386
 20
440.4787330174902
 30
0.0
 11
479.1368929066388
 21
452.57973301749
 31
0.0
  0
LINE
  5
8B8
330
1A
100
AcDbEntity
  8
SEIHIN
  6
CONTINUOUS
 62
     3
100
AcDbLine
 10
460.6368929066388
 20
454.4787330174901
 30
0.0
 11
460.6368929066388
 21
440.4787330174902
 31
0.0
  0
LINE
  5
8B9
330
1A
100
AcDbEntity
  8
SEIHIN
  6
CONTINUOUS
 62
     3
100
AcDbLine
 10
462.6368929066388
 20
456.4787330174901
 30
0.0
 11
475.2378929066387
 21
456.4787330174901
 31
0.0
  0
LINE
  5
8BA
330
1A
100
AcDbEntity
  8
SEIHIN
  6
CONTINUOUS
 62
     3
100
AcDbLine
 10
462.6368929066388
 20
458.4787330174902
 30
0.0
 11
475.2378929066387
 21
458.4787330174902
 31
0.0
  0
ARC
  5
8BB
330
1A
100
AcDbEntity
  8
SEIHIN
  6
CONTINUOUS
 62
     3
100
AcDbCircle
 10
477.1367929066387
 20
434.4787330174901
 30
0.0
 40
1.999999999999943
100
AcDbArc
 50
359.9999999999983
 51
89.99999999999836
  0
ARC
  5
8BC
330
1A
100
AcDbEntity
  8
SEIHIN
  6
CONTINUOUS
 62
     3
100
AcDbCircle
 10
483.1367929066386
 20
434.4787330174901
 30
0.0
 40
2.0
100
AcDbArc
 50
90.0
 51
180.0
  0
LINE
  5
8BD
330
1A
100
AcDbEntity
  8
SEIHIN
  6
CONTINUOUS
 62
     3
100
AcDbLine
 10
462.6367929066386
 20
436.4787330174902
 30
0.0
 11
477.1367929066387
 21
436.4787330174902
 31
0.0
  0
ARC
  5
8BE
330
1A
100
AcDbEntity
  8
SEIHIN
  6
CONTINUOUS
 62
     3
100
AcDbCircle
 10
483.1367929066386
 20
440.4787330174902
 30
0.0
 40
2.0
100
AcDbArc
 50
180.0
 51
270.0
  0
ARC
  5
8BF
330
1A
100
AcDbEntity
  8
SEIHIN
  6
CONTINUOUS
 62
     3
100
AcDbCircle
 10
477.1367929066387
 20
440.4787330174902
 30
0.0
 40
1.999999999999943
100
AcDbArc
 50
270.0000000000016
 51
0.0000000000016157
  0
LINE
  5
8C0
330
1A
100
AcDbEntity
  8
SEIHIN
  6
CONTINUOUS
 62
     3
100
AcDbLine
 10
462.6367929066386
 20
438.4787330174901
 30
0.0
 11
477.1367929066387
 21
438.4787330174901
 31
0.0
  0
LINE
  5
8C1
330
1A
100
AcDbEntity
  8
SEIHIN
  6
CONTINUOUS
 62
     3
100
AcDbLine
 10
499.6367929066386
 20
440.4786330174902
 30
0.0
 11
499.6368929066388
 21
454.4786330174901
 31
0.0
  0
LINE
  5
8C2
330
1A
100
AcDbEntity
  8
SEIHIN
  6
CONTINUOUS
 62
     3
100
AcDbLine
 10
501.6368929066389
 20
454.4786330174901
 30
0.0
 11
501.6368929066389
 21
440.4786330174902
 31
0.0
  0
ARC
  5
8C3
330
1A
100
AcDbEntity
  8
SEIHIN
  6
CONTINUOUS
 62
     3
100
AcDbCircle
 10
503.6368929066388
 20
454.4786330174901
 30
0.0
 40
2.0
100
AcDbArc
 50
90.0
 51
180.0
  0
ARC
  5
8C4
330
1A
100
AcDbEntity
  8
SEIHIN
  6
CONTINUOUS
 62
     3
100
AcDbCircle
 10
497.6368929066389
 20
460.4787330174901
 30
0.0
 40
2.0
100
AcDbArc
 50
269.9999999999983
 51
359.9999999999983
  0
ARC
  5
8C5
330
1A
100
AcDbEntity
  8
SEIHIN
  6
CONTINUOUS
 62
     3
100
AcDbCircle
 10
497.6368929066386
 20
454.4787330174901
 30
0.0
 40
2.000000000000056
100
AcDbArc
 50
359.9999999999983
 51
89.99999999999836
  0
ARC
  5
8C6
330
1A
100
AcDbEntity
  8
SEIHIN
  6
CONTINUOUS
 62
     3
100
AcDbCircle
 10
503.6368929066388
 20
460.4786330174902
 30
0.0
 40
2.000000000000056
100
AcDbArc
 50
179.9999999999983
 51
269.9999999999983
  0
LINE
  5
8C7
330
1A
100
AcDbEntity
  8
SEIHIN
  6
CONTINUOUS
 62
     3
100
AcDbLine
 10
485.0358929066385
 20
456.4787330174901
 30
0.0
 11
497.6368929066389
 21
456.4787330174901
 31
0.0
  0
LINE
  5
8C8
330
1A
100
AcDbEntity
  8
SEIHIN
  6
CONTINUOUS
 62
     3
100
AcDbLine
 10
485.0358929066385
 20
458.4787330174902
 30
0.0
 11
497.6368929066389
 21
458.4787330174902
 31
0.0
  0
ARC
  5
8C9
330
1A
100
AcDbEntity
  8
SEIHIN
  6
CONTINUOUS
 62
     3
100
AcDbCircle
 10
503.6367929066386
 20
434.4786330174902
 30
0.0
 40
2.0
100
AcDbArc
 50
90.0
 51
180.0
  0
ARC
  5
8CA
330
1A
100
AcDbEntity
  8
SEIHIN
  6
CONTINUOUS
 62
     3
100
AcDbCircle
 10
497.6367929066387
 20
434.4787330174901
 30
0.0
 40
2.0
100
AcDbArc
 50
0.0
 51
90.0
  0
ARC
  5
8CB
330
1A
100
AcDbEntity
  8
SEIHIN
  6
CONTINUOUS
 62
     3
100
AcDbCircle
 10
497.6367929066387
 20
440.4787330174902
 30
0.0
 40
2.0
100
AcDbArc
 50
270.0
 51
0.0
  0
ARC
  5
8CC
330
1A
100
AcDbEntity
  8
SEIHIN
  6
CONTINUOUS
 62
     3
100
AcDbCircle
 10
503.6367929066386
 20
440.4786330174902
 30
0.0
 40
2.0
100
AcDbArc
 50
180.0
 51
270.0
  0
LINE
  5
8CD
330
1A
100
AcDbEntity
  8
SEIHIN
  6
CONTINUOUS
 62
     3
100
AcDbLine
 10
540.6368929066388
 20
460.4785330174902
 30
0.0
 11
540.6368929066388
 21
474.4785330174902
 31
0.0
  0
ARC
  5
8CE
330
1A
100
AcDbEntity
  8
SEIHIN
  6
CONTINUOUS
 62
     3
100
AcDbCircle
 10
521.1368929066388
 20
457.4785330174902
 30
0.0
 40
4.999999999999943
100
AcDbArc
 50
270.0
 51
90.0
  0
ARC
  5
8CF
330
1A
100
AcDbEntity
  8
SEIHIN
  6
CONTINUOUS
 62
     3
100
AcDbCircle
 10
521.1368929066388
 20
457.4785330174902
 30
0.0
 40
4.999999999999943
100
AcDbArc
 50
90.0
 51
270.0
  0
LINE
  5
8D0
330
1A
100
AcDbEntity
  8
SEIHIN
  6
CONTINUOUS
 62
     3
100
AcDbLine
 10
538.6368929066389
 20
477.4785330174902
 30
0.0
 11
511.6368929066388
 21
477.4787330174901
 31
0.0
  0
LINE
  5
8D1
330
1A
100
AcDbEntity
  8
SEIHIN
  6
CONTINUOUS
 62
     3
100
AcDbLine
 10
524.1369929066388
 20
476.4785330174902
 30
0.0
 11
538.6368929066389
 21
476.4785330174902
 31
0.0
  0
ARC
  5
8D2
330
1A
100
AcDbEntity
  8
SEIHIN
  6
CONTINUOUS
 62
     3
100
AcDbCircle
 10
524.1369929066388
 20
474.4785330174902
 30
0.0
 40
2.0
100
AcDbArc
 50
90.0
 51
180.0
  0
ARC
  5
8D3
330
1A
100
AcDbEntity
  8
SEIHIN
  6
CONTINUOUS
 62
     3
100
AcDbCircle
 10
518.1368929066389
 20
474.4785330174902
 30
0.0
 40
2.0
100
AcDbArc
 50
0.0
 51
90.0
  0
LINE
  5
8D4
330
1A
100
AcDbEntity
  8
SEIHIN
  6
CONTINUOUS
 62
     3
100
AcDbLine
 10
511.7097929066385
 20
476.4786330174902
 30
0.0
 11
518.1368929066389
 21
476.4785330174902
 31
0.0
  0
LINE
  5
8D5
330
1A
100
AcDbEntity
  8
SEIHIN
  6
CONTINUOUS
 62
     3
100
AcDbLine
 10
522.1368929066389
 20
474.4785330174902
 30
0.0
 11
522.1368929066389
 21
462.37753301749
 31
0.0
  0
LINE
  5
8D6
330
1A
100
AcDbEntity
  8
SEIHIN
  6
CONTINUOUS
 62
     3
100
AcDbLine
 10
520.1368929066388
 20
462.37753301749
 30
0.0
 11
520.1368929066388
 21
474.4785330174902
 31
0.0
  0
ARC
  5
8D7
330
1A
100
AcDbEntity
  8
SEIHIN
  6
CONTINUOUS
 62
     3
100
AcDbCircle
 10
538.6368929066389
 20
474.4785330174902
 30
0.0
 40
3.0
100
AcDbArc
 50
0.0
 51
90.0
  0
ARC
  5
8D8
330
1A
100
AcDbEntity
  8
SEIHIN
  6
CONTINUOUS
 62
     3
100
AcDbCircle
 10
538.6368929066389
 20
474.4785330174902
 30
0.0
 40
2.0
100
AcDbArc
 50
0.0
 51
90.0
  0
LINE
  5
8D9
330
1A
100
AcDbEntity
  8
SEIHIN
  6
CONTINUOUS
 62
     3
100
AcDbLine
 10
524.1367929066386
 20
436.4785330174902
 30
0.0
 11
538.6367929066387
 21
436.4785330174902
 31
0.0
  0
LINE
  5
8DA
330
1A
100
AcDbEntity
  8
SEIHIN
  6
CONTINUOUS
 62
     3
100
AcDbLine
 10
526.0358929066385
 20
456.4785330174902
 30
0.0
 11
538.6368929066389
 21
456.4785330174902
 31
0.0
  0
LINE
  5
8DB
330
1A
100
AcDbEntity
  8
SEIHIN
  6
CONTINUOUS
 62
     3
100
AcDbLine
 10
526.0358929066385
 20
458.4785330174902
 30
0.0
 11
538.6368929066389
 21
458.4785330174902
 31
0.0
  0
LINE
  5
8DC
330
1A
100
AcDbEntity
  8
SEIHIN
  6
CONTINUOUS
 62
     3
100
AcDbLine
 10
524.1367929066386
 20
438.4785330174902
 30
0.0
 11
538.6367929066387
 21
438.4785330174902
 31
0.0
  0
LINE
  5
8DD
330
1A
100
AcDbEntity
  8
SEIHIN
  6
CONTINUOUS
 62
     3
100
AcDbLine
 10
522.1368929066389
 20
452.5796330174901
 30
0.0
 11
522.1367929066387
 21
440.4785330174902
 31
0.0
  0
LINE
  5
8DE
330
1A
100
AcDbEntity
  8
SEIHIN
  6
CONTINUOUS
 62
     3
100
AcDbLine
 10
520.1367929066386
 20
440.4785330174902
 30
0.0
 11
520.1368929066388
 21
452.5796330174901
 31
0.0
  0
ARC
  5
8DF
330
1A
100
AcDbEntity
  8
SEIHIN
  6
CONTINUOUS
 62
     3
100
AcDbCircle
 10
524.1367929066386
 20
434.4785330174902
 30
0.0
 40
2.000000000000056
100
AcDbArc
 50
90.00000000000161
 51
180.0000000000016
  0
ARC
  5
8E0
330
1A
100
AcDbEntity
  8
SEIHIN
  6
CONTINUOUS
 62
     3
100
AcDbCircle
 10
518.1367929066384
 20
434.4785330174902
 30
0.0
 40
2.000000000000056
100
AcDbArc
 50
359.9999999999983
 51
89.99999999999836
  0
ARC
  5
8E1
330
1A
100
AcDbEntity
  8
SEIHIN
  6
CONTINUOUS
 62
     3
100
AcDbCircle
 10
524.1367929066386
 20
440.4785330174902
 30
0.0
 40
2.0
100
AcDbArc
 50
180.0
 51
270.0
  0
ARC
  5
8E2
330
1A
100
AcDbEntity
  8
SEIHIN
  6
CONTINUOUS
 62
     3
100
AcDbCircle
 10
518.1367929066387
 20
440.4785330174902
 30
0.0
 40
2.0
100
AcDbArc
 50
270.0
 51
0.0
  0
LINE
  5
8E3
330
1A
100
AcDbEntity
  8
SEIHIN
  6
CONTINUOUS
 62
     3
100
AcDbLine
 10
540.6367929066386
 20
440.4785330174902
 30
0.0
 11
540.6368929066388
 21
454.4785330174902
 31
0.0
  0
ARC
  5
8E4
330
1A
100
AcDbEntity
  8
SEIHIN
  6
CONTINUOUS
 62
     3
100
AcDbCircle
 10
538.6368929066386
 20
454.4785330174902
 30
0.0
 40
2.000000000000056
100
AcDbArc
 50
359.9999999999983
 51
89.99999999999836
  0
ARC
  5
8E5
330
1A
100
AcDbEntity
  8
SEIHIN
  6
CONTINUOUS
 62
     3
100
AcDbCircle
 10
538.6368929066386
 20
460.4785330174902
 30
0.0
 40
2.000000000000056
100
AcDbArc
 50
270.0000000000016
 51
0.0000000000016157
  0
LINE
  5
8E6
330
1A
100
AcDbEntity
  8
SEIHIN
  6
CONTINUOUS
 62
     3
100
AcDbLine
 10
543.6368929066389
 20
433.4785330174902
 30
0.0
 11
541.6367929066386
 21
433.4785330174902
 31
0.0
  0
LINE
  5
8E7
330
1A
100
AcDbEntity
  8
SEIHIN
  6
CONTINUOUS
 62
     3
100
AcDbLine
 10
543.6368929066389
 20
433.4785330174902
 30
0.0
 11
543.6368929066389
 21
431.4785330174902
 31
0.0
  0
LINE
  5
8E8
330
1A
100
AcDbEntity
  8
SEIHIN
  6
CONTINUOUS
 62
     3
100
AcDbLine
 10
543.6368929066389
 20
431.4785330174902
 30
0.0
 11
541.6367929066386
 21
431.4785330174902
 31
0.0
  0
ARC
  5
8E9
330
1A
100
AcDbEntity
  8
SEIHIN
  6
CONTINUOUS
 62
     3
100
AcDbCircle
 10
538.6367929066387
 20
434.4785330174902
 30
0.0
 40
2.000000000000056
100
AcDbArc
 50
359.9999999999983
 51
89.99999999999836
  0
ARC
  5
8EA
330
1A
100
AcDbEntity
  8
SEIHIN
  6
CONTINUOUS
 62
     3
100
AcDbCircle
 10
538.6367929066387
 20
440.4785330174902
 30
0.0
 40
2.0
100
AcDbArc
 50
270.0
 51
0.0
  0
LINE
  5
8EB
330
1A
100
AcDbEntity
  8
SEIHIN
  6
CONTINUOUS
 62
     3
100
AcDbLine
 10
540.6365929066387
 20
360.4785330174902
 30
0.0
 11
540.6365929066387
 21
374.4785330174902
 31
0.0
  0
LINE
  5
8EC
330
1A
100
AcDbEntity
  8
SEIHIN
  6
CONTINUOUS
 62
     3
100
AcDbLine
 10
522.1366929066387
 20
372.5796330174903
 30
0.0
 11
522.1365929066386
 21
360.4785330174902
 31
0.0
  0
LINE
  5
8ED
330
1A
100
AcDbEntity
  8
SEIHIN
  6
CONTINUOUS
 62
     3
100
AcDbLine
 10
520.1365929066387
 20
360.4785330174902
 30
0.0
 11
520.1365929066387
 21
372.5796330174903
 31
0.0
  0
LINE
  5
8EE
330
1A
100
AcDbEntity
  8
SEIHIN
  6
CONTINUOUS
 62
     3
100
AcDbLine
 10
501.6366929066387
 20
374.4786330174902
 30
0.0
 11
501.6365929066387
 21
360.4786330174902
 31
0.0
  0
LINE
  5
8EF
330
1A
100
AcDbEntity
  8
SEIHIN
  6
CONTINUOUS
 62
     3
100
AcDbLine
 10
499.6365929066387
 20
360.4786330174902
 30
0.0
 11
499.6365929066387
 21
374.4786330174902
 31
0.0
  0
LINE
  5
8F0
330
1A
100
AcDbEntity
  8
SEIHIN
  6
CONTINUOUS
 62
     3
100
AcDbLine
 10
479.1365929066387
 20
360.4787330174902
 30
0.0
 11
479.1365929066387
 21
372.5797330174902
 31
0.0
  0
LINE
  5
8F1
330
1A
100
AcDbEntity
  8
SEIHIN
  6
CONTINUOUS
 62
     3
100
AcDbLine
 10
481.1365929066387
 20
372.5797330174902
 30
0.0
 11
481.1365929066387
 21
360.4787330174902
 31
0.0
  0
LINE
  5
8F2
330
1A
100
AcDbEntity
  8
SEIHIN
  6
CONTINUOUS
 62
     3
100
AcDbLine
 10
460.6365929066387
 20
374.4787330174901
 30
0.0
 11
460.6365929066387
 21
360.4787330174902
 31
0.0
  0
LINE
  5
8F3
330
1A
100
AcDbEntity
  8
SEIHIN
  6
CONTINUOUS
 62
     3
100
AcDbLine
 10
503.6365929066387
 20
376.4786330174902
 30
0.0
 11
516.2376929066388
 21
376.4785330174902
 31
0.0
  0
LINE
  5
8F4
330
1A
100
AcDbEntity
  8
SEIHIN
  6
CONTINUOUS
 62
     3
100
AcDbLine
 10
503.6366929066387
 20
396.4786330174902
 30
0.0
 11
518.1366929066387
 21
396.4785330174902
 31
0.0
  0
LINE
  5
8F5
330
1A
100
AcDbEntity
  8
SEIHIN
  6
CONTINUOUS
 62
     3
100
AcDbLine
 10
503.6365929066387
 20
378.4786330174902
 30
0.0
 11
516.2376929066388
 21
378.4785330174902
 31
0.0
  0
LINE
  5
8F6
330
1A
100
AcDbEntity
  8
SEIHIN
  6
CONTINUOUS
 62
     3
100
AcDbLine
 10
503.6366929066387
 20
398.4786330174902
 30
0.0
 11
518.1366929066387
 21
398.4785330174902
 31
0.0
  0
LINE
  5
8F7
330
1A
100
AcDbEntity
  8
SEIHIN
  6
CONTINUOUS
 62
     3
100
AcDbLine
 10
503.6366929066387
 20
416.4786330174901
 30
0.0
 11
516.2377929066385
 21
416.4785330174902
 31
0.0
  0
LINE
  5
8F8
330
1A
100
AcDbEntity
  8
SEIHIN
  6
CONTINUOUS
 62
     3
100
AcDbLine
 10
503.6366929066387
 20
418.4786330174902
 30
0.0
 11
516.2377929066385
 21
418.4785330174902
 31
0.0
  0
ARC
  5
8F9
330
1A
100
AcDbEntity
  8
SEIHIN
  6
CONTINUOUS
 62
     3
100
AcDbCircle
 10
503.6366929066387
 20
394.4786330174902
 30
0.0
 40
2.0
100
AcDbArc
 50
90.0
 51
180.0
  0
ARC
  5
8FA
330
1A
100
AcDbEntity
  8
SEIHIN
  6
CONTINUOUS
 62
     3
100
AcDbCircle
 10
497.6366929066387
 20
394.4787330174901
 30
0.0
 40
2.0
100
AcDbArc
 50
0.0
 51
90.0
  0
ARC
  5
8FB
330
1A
100
AcDbEntity
  8
SEIHIN
  6
CONTINUOUS
 62
     3
100
AcDbCircle
 10
477.1366929066386
 20
394.4787330174901
 30
0.0
 40
2.0
100
AcDbArc
 50
0.0
 51
90.0
  0
ARC
  5
8FC
330
1A
100
AcDbEntity
  8
SEIHIN
  6
CONTINUOUS
 62
     3
100
AcDbCircle
 10
483.1366929066387
 20
394.4787330174901
 30
0.0
 40
2.0
100
AcDbArc
 50
90.0
 51
180.0
  0
ARC
  5
8FD
330
1A
100
AcDbEntity
  8
SEIHIN
  6
CONTINUOUS
 62
     3
100
AcDbCircle
 10
480.1366929066387
 20
417.4787330174901
 30
0.0
 40
5.0
100
AcDbArc
 50
270.0
 51
90.0
  0
LINE
  5
8FE
330
1A
100
AcDbEntity
  8
SEIHIN
  6
CONTINUOUS
 62
     3
100
AcDbLine
 10
483.1366929066387
 20
398.4787330174901
 30
0.0
 11
497.6366929066387
 21
398.4787330174901
 31
0.0
  0
LINE
  5
8FF
330
1A
100
AcDbEntity
  8
SEIHIN
  6
CONTINUOUS
 62
     3
100
AcDbLine
 10
483.1366929066387
 20
396.4787330174901
 30
0.0
 11
497.6366929066387
 21
396.4787330174901
 31
0.0
  0
LINE
  5
900
330
1A
100
AcDbEntity
  8
SEIHIN
  6
CONTINUOUS
 62
     3
100
AcDbLine
 10
481.1366929066386
 20
412.5797330174902
 30
0.0
 11
481.1366929066386
 21
400.4787330174901
 31
0.0
  0
LINE
  5
901
330
1A
100
AcDbEntity
  8
SEIHIN
  6
CONTINUOUS
 62
     3
100
AcDbLine
 10
479.1366929066387
 20
400.4787330174901
 30
0.0
 11
479.1366929066387
 21
412.5797330174902
 31
0.0
  0
LINE
  5
902
330
1A
100
AcDbEntity
  8
SEIHIN
  6
CONTINUOUS
 62
     3
100
AcDbLine
 10
460.6366929066386
 20
414.4787330174901
 30
0.0
 11
460.6366929066386
 21
400.4787330174901
 31
0.0
  0
ARC
  5
903
330
1A
100
AcDbEntity
  8
SEIHIN
  6
CONTINUOUS
 62
     3
100
AcDbCircle
 10
480.1366929066387
 20
417.4787330174901
 30
0.0
 40
5.0
100
AcDbArc
 50
90.0
 51
270.0
  0
LINE
  5
904
330
1A
100
AcDbEntity
  8
SEIHIN
  6
CONTINUOUS
 62
     3
100
AcDbLine
 10
462.6366929066387
 20
416.4787330174902
 30
0.0
 11
475.2377929066388
 21
416.4787330174902
 31
0.0
  0
LINE
  5
905
330
1A
100
AcDbEntity
  8
SEIHIN
  6
CONTINUOUS
 62
     3
100
AcDbLine
 10
462.6366929066387
 20
418.4787330174901
 30
0.0
 11
475.2377929066388
 21
418.4787330174901
 31
0.0
  0
ARC
  5
906
330
1A
100
AcDbEntity
  8
SEIHIN
  6
CONTINUOUS
 62
     3
100
AcDbCircle
 10
477.1366929066386
 20
400.4787330174901
 30
0.0
 40
2.0
100
AcDbArc
 50
270.0
 51
0.0
  0
ARC
  5
907
330
1A
100
AcDbEntity
  8
SEIHIN
  6
CONTINUOUS
 62
     3
100
AcDbCircle
 10
483.1366929066387
 20
400.4787330174901
 30
0.0
 40
2.0
100
AcDbArc
 50
180.0
 51
270.0
  0
LINE
  5
908
330
1A
100
AcDbEntity
  8
SEIHIN
  6
CONTINUOUS
 62
     3
100
AcDbLine
 10
462.6366929066387
 20
396.4787330174901
 30
0.0
 11
477.1366929066386
 21
396.4787330174901
 31
0.0
  0
LINE
  5
909
330
1A
100
AcDbEntity
  8
SEIHIN
  6
CONTINUOUS
 62
     3
100
AcDbLine
 10
462.6366929066387
 20
398.4787330174901
 30
0.0
 11
477.1366929066386
 21
398.4787330174901
 31
0.0
  0
LINE
  5
90A
330
1A
100
AcDbEntity
  8
SEIHIN
  6
CONTINUOUS
 62
     3
100
AcDbLine
 10
481.1366929066386
 20
409.4788330174901
 30
0.0
 11
479.1366929066387
 21
409.4788330174901
 31
0.0
  0
LINE
  5
90B
330
1A
100
AcDbEntity
  8
SEIHIN
  6
CONTINUOUS
 62
     3
100
AcDbLine
 10
481.1366929066386
 20
411.4788330174901
 30
0.0
 11
479.1366929066387
 21
411.4788330174901
 31
0.0
  0
LINE
  5
90C
330
1A
100
AcDbEntity
  8
SEIHIN
  6
CONTINUOUS
 62
     3
100
AcDbLine
 10
501.6366929066387
 20
414.4786330174902
 30
0.0
 11
501.6366929066387
 21
400.4786330174901
 31
0.0
  0
LINE
  5
90D
330
1A
100
AcDbEntity
  8
SEIHIN
  6
CONTINUOUS
 62
     3
100
AcDbLine
 10
499.6366929066387
 20
400.4786330174901
 30
0.0
 11
499.6367929066386
 21
414.4786330174902
 31
0.0
  0
ARC
  5
90E
330
1A
100
AcDbEntity
  8
SEIHIN
  6
CONTINUOUS
 62
     3
100
AcDbCircle
 10
503.6366929066389
 20
420.4786330174901
 30
0.0
 40
2.000000000000056
100
AcDbArc
 50
179.9999999999983
 51
269.9999999999983
  0
ARC
  5
90F
330
1A
100
AcDbEntity
  8
SEIHIN
  6
CONTINUOUS
 62
     3
100
AcDbCircle
 10
503.6366929066387
 20
414.4786330174902
 30
0.0
 40
2.0
100
AcDbArc
 50
90.0
 51
180.0
  0
ARC
  5
910
330
1A
100
AcDbEntity
  8
SEIHIN
  6
CONTINUOUS
 62
     3
100
AcDbCircle
 10
497.6366929066387
 20
420.4787330174902
 30
0.0
 40
2.0
100
AcDbArc
 50
270.0
 51
0.0
  0
ARC
  5
911
330
1A
100
AcDbEntity
  8
SEIHIN
  6
CONTINUOUS
 62
     3
100
AcDbCircle
 10
497.6366929066387
 20
414.4787330174901
 30
0.0
 40
2.0
100
AcDbArc
 50
0.0
 51
90.0
  0
LINE
  5
912
330
1A
100
AcDbEntity
  8
SEIHIN
  6
CONTINUOUS
 62
     3
100
AcDbLine
 10
485.0356929066387
 20
418.4787330174901
 30
0.0
 11
497.6366929066387
 21
418.4787330174901
 31
0.0
  0
LINE
  5
913
330
1A
100
AcDbEntity
  8
SEIHIN
  6
CONTINUOUS
 62
     3
100
AcDbLine
 10
485.0356929066387
 20
416.4787330174902
 30
0.0
 11
497.6366929066387
 21
416.4787330174902
 31
0.0
  0
ARC
  5
914
330
1A
100
AcDbEntity
  8
SEIHIN
  6
CONTINUOUS
 62
     3
100
AcDbCircle
 10
503.6366929066387
 20
400.4786330174901
 30
0.0
 40
2.0
100
AcDbArc
 50
180.0
 51
270.0
  0
ARC
  5
915
330
1A
100
AcDbEntity
  8
SEIHIN
  6
CONTINUOUS
 62
     3
100
AcDbCircle
 10
497.6366929066387
 20
400.4787330174901
 30
0.0
 40
2.0
100
AcDbArc
 50
270.0
 51
0.0
  0
LINE
  5
916
330
1A
100
AcDbEntity
  8
SEIHIN
  6
CONTINUOUS
 62
     3
100
AcDbLine
 10
501.6366929066387
 20
409.4786330174902
 30
0.0
 11
499.6367929066386
 21
409.4786330174902
 31
0.0
  0
LINE
  5
917
330
1A
100
AcDbEntity
  8
SEIHIN
  6
CONTINUOUS
 62
     3
100
AcDbLine
 10
501.6366929066387
 20
411.4786330174902
 30
0.0
 11
499.6367929066386
 21
411.4786330174902
 31
0.0
  0
ARC
  5
918
330
1A
100
AcDbEntity
  8
SEIHIN
  6
CONTINUOUS
 62
     3
100
AcDbCircle
 10
480.1365929066387
 20
377.4787330174901
 30
0.0
 40
4.999999999999943
100
AcDbArc
 50
270.0
 51
90.0
  0
ARC
  5
919
330
1A
100
AcDbEntity
  8
SEIHIN
  6
CONTINUOUS
 62
     3
100
AcDbCircle
 10
480.1365929066387
 20
377.4787330174901
 30
0.0
 40
4.999999999999943
100
AcDbArc
 50
90.0
 51
270.0
  0
LINE
  5
91A
330
1A
100
AcDbEntity
  8
SEIHIN
  6
CONTINUOUS
 62
     3
100
AcDbLine
 10
479.1366929066387
 20
382.37773301749
 30
0.0
 11
479.1366929066387
 21
394.4787330174901
 31
0.0
  0
LINE
  5
91B
330
1A
100
AcDbEntity
  8
SEIHIN
  6
CONTINUOUS
 62
     3
100
AcDbLine
 10
481.1366929066386
 20
394.4787330174901
 30
0.0
 11
481.1366929066386
 21
382.37773301749
 31
0.0
  0
LINE
  5
91C
330
1A
100
AcDbEntity
  8
SEIHIN
  6
CONTINUOUS
 62
     3
100
AcDbLine
 10
460.6366929066386
 20
394.4787330174901
 30
0.0
 11
460.6365929066387
 21
380.4787330174901
 31
0.0
  0
LINE
  5
91D
330
1A
100
AcDbEntity
  8
SEIHIN
  6
CONTINUOUS
 62
     3
100
AcDbLine
 10
462.6365929066387
 20
376.4787330174901
 30
0.0
 11
475.2376929066388
 21
376.4787330174901
 31
0.0
  0
LINE
  5
91E
330
1A
100
AcDbEntity
  8
SEIHIN
  6
CONTINUOUS
 62
     3
100
AcDbLine
 10
462.6365929066387
 20
378.4787330174901
 30
0.0
 11
475.2376929066388
 21
378.4787330174901
 31
0.0
  0
ARC
  5
91F
330
1A
100
AcDbEntity
  8
SEIHIN
  6
CONTINUOUS
 62
     3
100
AcDbCircle
 10
503.6365929066387
 20
380.4786330174902
 30
0.0
 40
2.0
100
AcDbArc
 50
180.0
 51
270.0
  0
ARC
  5
920
330
1A
100
AcDbEntity
  8
SEIHIN
  6
CONTINUOUS
 62
     3
100
AcDbCircle
 10
497.6365929066387
 20
380.4787330174901
 30
0.0
 40
2.0
100
AcDbArc
 50
270.0
 51
0.0
  0
LINE
  5
921
330
1A
100
AcDbEntity
  8
SEIHIN
  6
CONTINUOUS
 62
     3
100
AcDbLine
 10
501.6366929066387
 20
394.4786330174902
 30
0.0
 11
501.6366929066387
 21
380.4786330174902
 31
0.0
  0
LINE
  5
922
330
1A
100
AcDbEntity
  8
SEIHIN
  6
CONTINUOUS
 62
     3
100
AcDbLine
 10
499.6365929066387
 20
380.4786330174902
 30
0.0
 11
499.6366929066387
 21
394.4786330174902
 31
0.0
  0
LINE
  5
923
330
1A
100
AcDbEntity
  8
SEIHIN
  6
CONTINUOUS
 62
     3
100
AcDbLine
 10
485.0355929066388
 20
376.4787330174901
 30
0.0
 11
497.6365929066387
 21
376.4787330174901
 31
0.0
  0
LINE
  5
924
330
1A
100
AcDbEntity
  8
SEIHIN
  6
CONTINUOUS
 62
     3
100
AcDbLine
 10
485.0355929066388
 20
378.4787330174901
 30
0.0
 11
497.6365929066387
 21
378.4787330174901
 31
0.0
  0
ARC
  5
925
330
1A
100
AcDbEntity
  8
SEIHIN
  6
CONTINUOUS
 62
     3
100
AcDbCircle
 10
503.6365929066387
 20
374.4786330174902
 30
0.0
 40
2.0
100
AcDbArc
 50
90.0
 51
180.0
  0
ARC
  5
926
330
1A
100
AcDbEntity
  8
SEIHIN
  6
CONTINUOUS
 62
     3
100
AcDbCircle
 10
497.6365929066387
 20
374.4787330174901
 30
0.0
 40
2.0
100
AcDbArc
 50
0.0
 51
90.0
  0
ARC
  5
927
330
1A
100
AcDbEntity
  8
SEIHIN
  6
CONTINUOUS
 62
     3
100
AcDbCircle
 10
538.6366929066387
 20
394.4785330174902
 30
0.0
 40
2.0
100
AcDbArc
 50
0.0
 51
90.0
  0
ARC
  5
928
330
1A
100
AcDbEntity
  8
SEIHIN
  6
CONTINUOUS
 62
     3
100
AcDbCircle
 10
524.1366929066386
 20
394.4785330174902
 30
0.0
 40
2.0
100
AcDbArc
 50
90.0
 51
180.0
  0
ARC
  5
929
330
1A
100
AcDbEntity
  8
SEIHIN
  6
CONTINUOUS
 62
     3
100
AcDbCircle
 10
518.1366929066387
 20
394.4785330174902
 30
0.0
 40
2.0
100
AcDbArc
 50
0.0
 51
90.0
  0
LINE
  5
92A
330
1A
100
AcDbEntity
  8
SEIHIN
  6
CONTINUOUS
 62
     3
100
AcDbLine
 10
526.0357929066388
 20
418.4785330174902
 30
0.0
 11
538.6366929066387
 21
418.4785330174902
 31
0.0
  0
LINE
  5
92B
330
1A
100
AcDbEntity
  8
SEIHIN
  6
CONTINUOUS
 62
     3
100
AcDbLine
 10
524.1366929066386
 20
398.4785330174902
 30
0.0
 11
538.6366929066387
 21
398.4785330174902
 31
0.0
  0
LINE
  5
92C
330
1A
100
AcDbEntity
  8
SEIHIN
  6
CONTINUOUS
 62
     3
100
AcDbLine
 10
526.0357929066388
 20
416.4785330174902
 30
0.0
 11
538.6366929066387
 21
416.4785330174902
 31
0.0
  0
LINE
  5
92D
330
1A
100
AcDbEntity
  8
SEIHIN
  6
CONTINUOUS
 62
     3
100
AcDbLine
 10
524.1366929066386
 20
396.4785330174902
 30
0.0
 11
538.6366929066387
 21
396.4785330174902
 31
0.0
  0
LINE
  5
92E
330
1A
100
AcDbEntity
  8
SEIHIN
  6
CONTINUOUS
 62
     3
100
AcDbLine
 10
522.1366929066387
 20
412.57963301749
 30
0.0
 11
522.1366929066387
 21
400.4785330174902
 31
0.0
  0
LINE
  5
92F
330
1A
100
AcDbEntity
  8
SEIHIN
  6
CONTINUOUS
 62
     3
100
AcDbLine
 10
520.1366929066387
 20
400.4785330174902
 30
0.0
 11
520.1367929066386
 21
412.57963301749
 31
0.0
  0
ARC
  5
930
330
1A
100
AcDbEntity
  8
SEIHIN
  6
CONTINUOUS
 62
     3
100
AcDbCircle
 10
521.1366929066387
 20
417.4785330174902
 30
0.0
 40
5.0
100
AcDbArc
 50
270.0
 51
90.0
  0
ARC
  5
931
330
1A
100
AcDbEntity
  8
SEIHIN
  6
CONTINUOUS
 62
     3
100
AcDbCircle
 10
521.1366929066387
 20
417.4785330174902
 30
0.0
 40
5.0
100
AcDbArc
 50
90.0
 51
270.0
  0
ARC
  5
932
330
1A
100
AcDbEntity
  8
SEIHIN
  6
CONTINUOUS
 62
     3
100
AcDbCircle
 10
524.1366929066386
 20
400.4785330174902
 30
0.0
 40
2.0
100
AcDbArc
 50
180.0
 51
270.0
  0
ARC
  5
933
330
1A
100
AcDbEntity
  8
SEIHIN
  6
CONTINUOUS
 62
     3
100
AcDbCircle
 10
518.1366929066387
 20
400.4785330174902
 30
0.0
 40
2.0
100
AcDbArc
 50
270.0
 51
0.0
  0
LINE
  5
934
330
1A
100
AcDbEntity
  8
SEIHIN
  6
CONTINUOUS
 62
     3
100
AcDbLine
 10
522.1366929066387
 20
411.4786330174902
 30
0.0
 11
520.1367929066386
 21
411.4786330174902
 31
0.0
  0
LINE
  5
935
330
1A
100
AcDbEntity
  8
SEIHIN
  6
CONTINUOUS
 62
     3
100
AcDbLine
 10
522.1366929066387
 20
409.4786330174902
 30
0.0
 11
520.1367929066386
 21
409.4786330174902
 31
0.0
  0
LINE
  5
936
330
1A
100
AcDbEntity
  8
SEIHIN
  6
CONTINUOUS
 62
     3
100
AcDbLine
 10
540.6366929066386
 20
400.4785330174902
 30
0.0
 11
540.6367929066386
 21
414.4785330174902
 31
0.0
  0
ARC
  5
937
330
1A
100
AcDbEntity
  8
SEIHIN
  6
CONTINUOUS
 62
     3
100
AcDbCircle
 10
538.6366929066387
 20
414.4785330174902
 30
0.0
 40
2.0
100
AcDbArc
 50
0.0
 51
90.0
  0
ARC
  5
938
330
1A
100
AcDbEntity
  8
SEIHIN
  6
CONTINUOUS
 62
     3
100
AcDbCircle
 10
538.6366929066387
 20
420.4785330174902
 30
0.0
 40
2.0
100
AcDbArc
 50
270.0
 51
0.0
  0
ARC
  5
939
330
1A
100
AcDbEntity
  8
SEIHIN
  6
CONTINUOUS
 62
     3
100
AcDbCircle
 10
538.6366929066387
 20
400.4785330174902
 30
0.0
 40
2.0
100
AcDbArc
 50
270.0
 51
0.0
  0
LINE
  5
93A
330
1A
100
AcDbEntity
  8
SEIHIN
  6
CONTINUOUS
 62
     3
100
AcDbLine
 10
541.6367929066386
 20
411.4785330174902
 30
0.0
 11
540.6367929066386
 21
411.4785330174902
 31
0.0
  0
LINE
  5
93B
330
1A
100
AcDbEntity
  8
SEIHIN
  6
CONTINUOUS
 62
     3
100
AcDbLine
 10
541.6367929066386
 20
409.4785330174902
 30
0.0
 11
540.6367929066386
 21
409.4785330174902
 31
0.0
  0
LINE
  5
93C
330
1A
100
AcDbEntity
  8
SEIHIN
  6
CONTINUOUS
 62
     3
100
AcDbLine
 10
526.0355929066386
 20
378.4785330174902
 30
0.0
 11
538.6365929066387
 21
378.4785330174902
 31
0.0
  0
LINE
  5
93D
330
1A
100
AcDbEntity
  8
SEIHIN
  6
CONTINUOUS
 62
     3
100
AcDbLine
 10
526.0355929066386
 20
376.4785330174902
 30
0.0
 11
538.6365929066387
 21
376.4785330174902
 31
0.0
  0
ARC
  5
93E
330
1A
100
AcDbEntity
  8
SEIHIN
  6
CONTINUOUS
 62
     3
100
AcDbCircle
 10
521.1365929066387
 20
377.4785330174902
 30
0.0
 40
5.0
100
AcDbArc
 50
270.0
 51
90.0
  0
ARC
  5
93F
330
1A
100
AcDbEntity
  8
SEIHIN
  6
CONTINUOUS
 62
     3
100
AcDbCircle
 10
521.1365929066387
 20
377.4785330174902
 30
0.0
 40
5.0
100
AcDbArc
 50
90.0
 51
270.0
  0
LINE
  5
940
330
1A
100
AcDbEntity
  8
SEIHIN
  6
CONTINUOUS
 62
     3
100
AcDbLine
 10
522.1366929066387
 20
394.4785330174902
 30
0.0
 11
522.1366929066387
 21
382.3775330174901
 31
0.0
  0
LINE
  5
941
330
1A
100
AcDbEntity
  8
SEIHIN
  6
CONTINUOUS
 62
     3
100
AcDbLine
 10
520.1366929066387
 20
382.3775330174901
 30
0.0
 11
520.1366929066387
 21
394.4785330174902
 31
0.0
  0
ARC
  5
942
330
1A
100
AcDbEntity
  8
SEIHIN
  6
CONTINUOUS
 62
     3
100
AcDbCircle
 10
538.6365929066387
 20
380.4785330174902
 30
0.0
 40
2.0
100
AcDbArc
 50
270.0
 51
0.0
  0
LINE
  5
943
330
1A
100
AcDbEntity
  8
SEIHIN
  6
CONTINUOUS
 62
     3
100
AcDbLine
 10
540.6365929066387
 20
380.4785330174902
 30
0.0
 11
540.6366929066386
 21
394.4785330174902
 31
0.0
  0
ARC
  5
944
330
1A
100
AcDbEntity
  8
SEIHIN
  6
CONTINUOUS
 62
     3
100
AcDbCircle
 10
538.6365929066387
 20
374.4785330174902
 30
0.0
 40
2.0
100
AcDbArc
 50
0.0
 51
90.0
  0
LINE
  5
945
330
1A
100
AcDbEntity
  8
SEIHIN
  6
CONTINUOUS
 62
     3
100
AcDbLine
 10
503.6365929066387
 20
298.4785330174902
 30
0.0
 11
518.1365929066386
 21
298.4785330174902
 31
0.0
  0
LINE
  5
946
330
1A
100
AcDbEntity
  8
SEIHIN
  6
CONTINUOUS
 62
     3
100
AcDbLine
 10
503.6365929066387
 20
338.4785330174902
 30
0.0
 11
518.1365929066386
 21
338.4785330174902
 31
0.0
  0
LINE
  5
947
330
1A
100
AcDbEntity
  8
SEIHIN
  6
CONTINUOUS
 62
     3
100
AcDbLine
 10
503.6365929066387
 20
318.4785330174902
 30
0.0
 11
516.2375929066388
 21
318.4785330174902
 31
0.0
  0
LINE
  5
948
330
1A
100
AcDbEntity
  8
SEIHIN
  6
CONTINUOUS
 62
     3
100
AcDbLine
 10
503.6365929066387
 20
336.4785330174902
 30
0.0
 11
518.1365929066386
 21
336.4785330174902
 31
0.0
  0
LINE
  5
949
330
1A
100
AcDbEntity
  8
SEIHIN
  6
CONTINUOUS
 62
     3
100
AcDbLine
 10
503.6365929066387
 20
316.4785330174902
 30
0.0
 11
516.2375929066388
 21
316.4785330174902
 31
0.0
  0
LINE
  5
94A
330
1A
100
AcDbEntity
  8
SEIHIN
  6
CONTINUOUS
 62
     3
100
AcDbLine
 10
503.6365929066387
 20
356.4786330174902
 30
0.0
 11
518.1365929066386
 21
356.4785330174902
 31
0.0
  0
LINE
  5
94B
330
1A
100
AcDbEntity
  8
SEIHIN
  6
CONTINUOUS
 62
     3
100
AcDbLine
 10
503.6365929066387
 20
358.4786330174902
 30
0.0
 11
518.1365929066386
 21
358.4785330174902
 31
0.0
  0
LINE
  5
94C
330
1A
100
AcDbEntity
  8
SEIHIN
  6
CONTINUOUS
 62
     3
100
AcDbLine
 10
501.6365929066387
 20
320.4785330174902
 30
0.0
 11
501.6365929066387
 21
334.4785330174902
 31
0.0
  0
LINE
  5
94D
330
1A
100
AcDbEntity
  8
SEIHIN
  6
CONTINUOUS
 62
     3
100
AcDbLine
 10
499.6365929066387
 20
334.4785330174902
 30
0.0
 11
499.6365929066387
 21
320.4785330174902
 31
0.0
  0
LINE
  5
94E
330
1A
100
AcDbEntity
  8
SEIHIN
  6
CONTINUOUS
 62
     3
100
AcDbLine
 10
481.1365929066387
 20
322.3775330174901
 30
0.0
 11
481.1365929066387
 21
334.4785330174902
 31
0.0
  0
LINE
  5
94F
330
1A
100
AcDbEntity
  8
SEIHIN
  6
CONTINUOUS
 62
     3
100
AcDbLine
 10
479.1365929066387
 20
334.4785330174902
 30
0.0
 11
479.1365929066387
 21
322.3775330174901
 31
0.0
  0
LINE
  5
950
330
1A
100
AcDbEntity
  8
SEIHIN
  6
CONTINUOUS
 62
     3
100
AcDbLine
 10
460.6365929066387
 20
320.4785330174902
 30
0.0
 11
460.6365929066387
 21
334.4785330174902
 31
0.0
  0
LINE
  5
951
330
1A
100
AcDbEntity
  8
SEIHIN
  6
CONTINUOUS
 62
     3
100
AcDbLine
 10
483.1365929066387
 20
338.4785330174902
 30
0.0
 11
497.6365929066387
 21
338.4785330174902
 31
0.0
  0
LINE
  5
952
330
1A
100
AcDbEntity
  8
SEIHIN
  6
CONTINUOUS
 62
     3
100
AcDbLine
 10
483.1365929066387
 20
336.4785330174902
 30
0.0
 11
497.6365929066387
 21
336.4785330174902
 31
0.0
  0
LINE
  5
953
330
1A
100
AcDbEntity
  8
SEIHIN
  6
CONTINUOUS
 62
     3
100
AcDbLine
 10
483.1365929066387
 20
356.4787330174902
 30
0.0
 11
497.6365929066387
 21
356.4787330174902
 31
0.0
  0
LINE
  5
954
330
1A
100
AcDbEntity
  8
SEIHIN
  6
CONTINUOUS
 62
     3
100
AcDbLine
 10
483.1365929066387
 20
358.4787330174902
 30
0.0
 11
497.6365929066387
 21
358.4787330174902
 31
0.0
  0
LINE
  5
955
330
1A
100
AcDbEntity
  8
SEIHIN
  6
CONTINUOUS
 62
     3
100
AcDbLine
 10
481.1365929066387
 20
340.4785330174902
 30
0.0
 11
481.1365929066387
 21
347.4784330174902
 31
0.0
  0
LINE
  5
956
330
1A
100
AcDbEntity
  8
SEIHIN
  6
CONTINUOUS
 62
     3
100
AcDbLine
 10
479.1365929066387
 20
347.4784330174902
 30
0.0
 11
479.1365929066387
 21
340.4785330174902
 31
0.0
  0
LINE
  5
957
330
1A
100
AcDbEntity
  8
SEIHIN
  6
CONTINUOUS
 62
     3
100
AcDbLine
 10
460.6365929066387
 20
340.4785330174902
 30
0.0
 11
460.6365929066387
 21
347.4784330174902
 31
0.0
  0
LINE
  5
958
330
1A
100
AcDbEntity
  8
SEIHIN
  6
CONTINUOUS
 62
     3
100
AcDbLine
 10
481.1365929066387
 20
354.4787330174901
 30
0.0
 11
481.1365929066387
 21
347.4788330174901
 31
0.0
  0
LINE
  5
959
330
1A
100
AcDbEntity
  8
SEIHIN
  6
CONTINUOUS
 62
     3
100
AcDbLine
 10
479.1365929066387
 20
347.4788330174901
 30
0.0
 11
479.1365929066387
 21
354.4787330174901
 31
0.0
  0
ARC
  5
95A
330
1A
100
AcDbEntity
  8
SEIHIN
  6
CONTINUOUS
 62
     3
100
AcDbCircle
 10
477.1365929066385
 20
354.4787330174901
 30
0.0
 40
2.000000000000056
100
AcDbArc
 50
359.9999999999983
 51
89.99999999999836
  0
ARC
  5
95B
330
1A
100
AcDbEntity
  8
SEIHIN
  6
CONTINUOUS
 62
     3
100
AcDbCircle
 10
483.1365929066387
 20
354.4787330174901
 30
0.0
 40
2.000000000000056
100
AcDbArc
 50
90.00000000000161
 51
180.0000000000016
  0
ARC
  5
95C
330
1A
100
AcDbEntity
  8
SEIHIN
  6
CONTINUOUS
 62
     3
100
AcDbCircle
 10
477.1365929066387
 20
360.4787330174902
 30
0.0
 40
1.999999999999943
100
AcDbArc
 50
269.9999999999983
 51
359.9999999999983
  0
ARC
  5
95D
330
1A
100
AcDbEntity
  8
SEIHIN
  6
CONTINUOUS
 62
     3
100
AcDbCircle
 10
483.1365929066387
 20
360.4787330174902
 30
0.0
 40
1.999999999999943
100
AcDbArc
 50
180.0000000000016
 51
270.0000000000016
  0
LINE
  5
95E
330
1A
100
AcDbEntity
  8
SEIHIN
  6
CONTINUOUS
 62
     3
100
AcDbLine
 10
460.6365929066387
 20
354.4787330174901
 30
0.0
 11
460.6365929066387
 21
347.4788330174901
 31
0.0
  0
LINE
  5
95F
330
1A
100
AcDbEntity
  8
SEIHIN
  6
CONTINUOUS
 62
     3
100
AcDbLine
 10
462.6365929066387
 20
356.4787330174902
 30
0.0
 11
477.1365929066387
 21
356.4787330174902
 31
0.0
  0
LINE
  5
960
330
1A
100
AcDbEntity
  8
SEIHIN
  6
CONTINUOUS
 62
     3
100
AcDbLine
 10
462.6365929066387
 20
358.4787330174902
 30
0.0
 11
477.1365929066387
 21
358.4787330174902
 31
0.0
  0
ARC
  5
961
330
1A
100
AcDbEntity
  8
SEIHIN
  6
CONTINUOUS
 62
     3
100
AcDbCircle
 10
483.1365929066387
 20
340.4785330174902
 30
0.0
 40
2.0
100
AcDbArc
 50
180.0
 51
270.0
  0
ARC
  5
962
330
1A
100
AcDbEntity
  8
SEIHIN
  6
CONTINUOUS
 62
     3
100
AcDbCircle
 10
483.1365929066387
 20
334.4785330174902
 30
0.0
 40
2.0
100
AcDbArc
 50
90.00000000000161
 51
180.0000000000032
  0
ARC
  5
963
330
1A
100
AcDbEntity
  8
SEIHIN
  6
CONTINUOUS
 62
     3
100
AcDbCircle
 10
477.1365929066387
 20
340.4785330174902
 30
0.0
 40
2.0
100
AcDbArc
 50
270.0
 51
0.0
  0
ARC
  5
964
330
1A
100
AcDbEntity
  8
SEIHIN
  6
CONTINUOUS
 62
     3
100
AcDbCircle
 10
477.1365929066385
 20
334.4785330174902
 30
0.0
 40
2.000000000000056
100
AcDbArc
 50
359.9999999999967
 51
89.99999999999836
  0
LINE
  5
965
330
1A
100
AcDbEntity
  8
SEIHIN
  6
CONTINUOUS
 62
     3
100
AcDbLine
 10
462.6365929066387
 20
338.4785330174902
 30
0.0
 11
477.1365929066387
 21
338.4785330174902
 31
0.0
  0
LINE
  5
966
330
1A
100
AcDbEntity
  8
SEIHIN
  6
CONTINUOUS
 62
     3
100
AcDbLine
 10
462.6365929066387
 20
336.4785330174902
 30
0.0
 11
477.1365929066387
 21
336.4785330174902
 31
0.0
  0
LINE
  5
967
330
1A
100
AcDbEntity
  8
SEIHIN
  6
CONTINUOUS
 62
     3
100
AcDbLine
 10
501.6365929066387
 20
340.4785330174902
 30
0.0
 11
501.6365929066387
 21
347.4784330174902
 31
0.0
  0
LINE
  5
968
330
1A
100
AcDbEntity
  8
SEIHIN
  6
CONTINUOUS
 62
     3
100
AcDbLine
 10
499.6365929066387
 20
347.4784330174902
 30
0.0
 11
499.6365929066387
 21
340.4785330174902
 31
0.0
  0
LINE
  5
969
330
1A
100
AcDbEntity
  8
SEIHIN
  6
CONTINUOUS
 62
     3
100
AcDbLine
 10
499.6365929066387
 20
347.4787330174901
 30
0.0
 11
499.6365929066387
 21
354.4786330174902
 31
0.0
  0
LINE
  5
96A
330
1A
100
AcDbEntity
  8
SEIHIN
  6
CONTINUOUS
 62
     3
100
AcDbLine
 10
501.6365929066387
 20
354.4786330174902
 30
0.0
 11
501.6365929066387
 21
347.4787330174901
 31
0.0
  0
ARC
  5
96B
330
1A
100
AcDbEntity
  8
SEIHIN
  6
CONTINUOUS
 62
     3
100
AcDbCircle
 10
503.6365929066387
 20
354.4786330174902
 30
0.0
 40
2.0
100
AcDbArc
 50
90.0
 51
180.0
  0
ARC
  5
96C
330
1A
100
AcDbEntity
  8
SEIHIN
  6
CONTINUOUS
 62
     3
100
AcDbCircle
 10
497.6365929066387
 20
354.4787330174901
 30
0.0
 40
2.000000000000056
100
AcDbArc
 50
359.9999999999983
 51
89.99999999999836
  0
ARC
  5
96D
330
1A
100
AcDbEntity
  8
SEIHIN
  6
CONTINUOUS
 62
     3
100
AcDbCircle
 10
503.6365929066387
 20
360.4786330174902
 30
0.0
 40
2.0
100
AcDbArc
 50
180.0
 51
270.0
  0
ARC
  5
96E
330
1A
100
AcDbEntity
  8
SEIHIN
  6
CONTINUOUS
 62
     3
100
AcDbCircle
 10
497.6365929066387
 20
360.4787330174902
 30
0.0
 40
1.999999999999943
100
AcDbArc
 50
269.9999999999983
 51
359.9999999999983
  0
ARC
  5
96F
330
1A
100
AcDbEntity
  8
SEIHIN
  6
CONTINUOUS
 62
     3
100
AcDbCircle
 10
503.6365929066387
 20
340.4785330174902
 30
0.0
 40
2.0
100
AcDbArc
 50
180.0
 51
270.0
  0
ARC
  5
970
330
1A
100
AcDbEntity
  8
SEIHIN
  6
CONTINUOUS
 62
     3
100
AcDbCircle
 10
503.6365929066387
 20
334.4785330174902
 30
0.0
 40
2.0
100
AcDbArc
 50
90.00000000000161
 51
180.0000000000032
  0
ARC
  5
971
330
1A
100
AcDbEntity
  8
SEIHIN
  6
CONTINUOUS
 62
     3
100
AcDbCircle
 10
497.6365929066387
 20
340.4785330174902
 30
0.0
 40
2.0
100
AcDbArc
 50
270.0
 51
0.0
  0
ARC
  5
972
330
1A
100
AcDbEntity
  8
SEIHIN
  6
CONTINUOUS
 62
     3
100
AcDbCircle
 10
497.6365929066387
 20
334.4785330174902
 30
0.0
 40
2.000000000000056
100
AcDbArc
 50
359.9999999999967
 51
89.99999999999836
  0
LINE
  5
973
330
1A
100
AcDbEntity
  8
SEIHIN
  6
CONTINUOUS
 62
     3
100
AcDbLine
 10
483.1365929066387
 20
298.4785330174902
 30
0.0
 11
497.6365929066387
 21
298.4785330174902
 31
0.0
  0
ARC
  5
974
330
1A
100
AcDbEntity
  8
SEIHIN
  6
CONTINUOUS
 62
     3
100
AcDbCircle
 10
480.1365929066387
 20
317.4785330174902
 30
0.0
 40
5.0
100
AcDbArc
 50
270.0
 51
90.0
  0
LINE
  5
975
330
1A
100
AcDbEntity
  8
SEIHIN
  6
CONTINUOUS
 62
     3
100
AcDbLine
 10
460.6365929066387
 20
300.4785330174902
 30
0.0
 11
460.6365929066387
 21
314.4785330174902
 31
0.0
  0
ARC
  5
976
330
1A
100
AcDbEntity
  8
SEIHIN
  6
CONTINUOUS
 62
     3
100
AcDbCircle
 10
480.1365929066387
 20
317.4785330174902
 30
0.0
 40
5.0
100
AcDbArc
 50
90.0
 51
270.0
  0
LINE
  5
977
330
1A
100
AcDbEntity
  8
SEIHIN
  6
CONTINUOUS
 62
     3
100
AcDbLine
 10
462.6365929066387
 20
318.4785330174902
 30
0.0
 11
475.2375929066386
 21
318.4785330174902
 31
0.0
  0
LINE
  5
978
330
1A
100
AcDbEntity
  8
SEIHIN
  6
CONTINUOUS
 62
     3
100
AcDbLine
 10
462.6365929066387
 20
316.4785330174902
 30
0.0
 11
475.2375929066386
 21
316.4785330174902
 31
0.0
  0
LINE
  5
979
330
1A
100
AcDbEntity
  8
SEIHIN
  6
CONTINUOUS
 62
     3
100
AcDbLine
 10
481.1365929066387
 20
300.4785330174902
 30
0.0
 11
481.1365929066387
 21
312.5795330174901
 31
0.0
  0
LINE
  5
97A
330
1A
100
AcDbEntity
  8
SEIHIN
  6
CONTINUOUS
 62
     3
100
AcDbLine
 10
479.1365929066387
 20
312.5795330174901
 30
0.0
 11
479.1365929066387
 21
300.4785330174902
 31
0.0
  0
ARC
  5
97B
330
1A
100
AcDbEntity
  8
SEIHIN
  6
CONTINUOUS
 62
     3
100
AcDbCircle
 10
483.1365929066387
 20
300.4785330174902
 30
0.0
 40
1.999999999999943
100
AcDbArc
 50
180.0000000000032
 51
270.0000000000016
  0
ARC
  5
97C
330
1A
100
AcDbEntity
  8
SEIHIN
  6
CONTINUOUS
 62
     3
100
AcDbCircle
 10
477.1365929066387
 20
300.4785330174902
 30
0.0
 40
2.0
100
AcDbArc
 50
269.9999999999983
 51
359.9999999999967
  0
LINE
  5
97D
330
1A
100
AcDbEntity
  8
SEIHIN
  6
CONTINUOUS
 62
     3
100
AcDbLine
 10
462.6365929066387
 20
298.4785330174902
 30
0.0
 11
477.1365929066387
 21
298.4785330174902
 31
0.0
  0
LINE
  5
97E
330
1A
100
AcDbEntity
  8
SEIHIN
  6
CONTINUOUS
 62
     3
100
AcDbLine
 10
501.6365929066387
 20
300.4785330174902
 30
0.0
 11
501.6365929066387
 21
314.4785330174902
 31
0.0
  0
LINE
  5
97F
330
1A
100
AcDbEntity
  8
SEIHIN
  6
CONTINUOUS
 62
     3
100
AcDbLine
 10
499.6365929066387
 20
314.4785330174902
 30
0.0
 11
499.6365929066387
 21
300.4785330174902
 31
0.0
  0
ARC
  5
980
330
1A
100
AcDbEntity
  8
SEIHIN
  6
CONTINUOUS
 62
     3
100
AcDbCircle
 10
503.6365929066387
 20
320.4785330174902
 30
0.0
 40
2.0
100
AcDbArc
 50
180.0
 51
270.0
  0
ARC
  5
981
330
1A
100
AcDbEntity
  8
SEIHIN
  6
CONTINUOUS
 62
     3
100
AcDbCircle
 10
503.6365929066387
 20
314.4785330174902
 30
0.0
 40
2.0
100
AcDbArc
 50
90.0
 51
180.0
  0
ARC
  5
982
330
1A
100
AcDbEntity
  8
SEIHIN
  6
CONTINUOUS
 62
     3
100
AcDbCircle
 10
497.6365929066387
 20
320.4785330174902
 30
0.0
 40
2.0
100
AcDbArc
 50
270.0
 51
0.0
  0
ARC
  5
983
330
1A
100
AcDbEntity
  8
SEIHIN
  6
CONTINUOUS
 62
     3
100
AcDbCircle
 10
497.6365929066387
 20
314.4785330174902
 30
0.0
 40
2.0
100
AcDbArc
 50
0.0
 51
90.0
  0
LINE
  5
984
330
1A
100
AcDbEntity
  8
SEIHIN
  6
CONTINUOUS
 62
     3
100
AcDbLine
 10
485.0355929066388
 20
318.4785330174902
 30
0.0
 11
497.6365929066387
 21
318.4785330174902
 31
0.0
  0
LINE
  5
985
330
1A
100
AcDbEntity
  8
SEIHIN
  6
CONTINUOUS
 62
     3
100
AcDbLine
 10
485.0355929066388
 20
316.4785330174902
 30
0.0
 11
497.6365929066387
 21
316.4785330174902
 31
0.0
  0
ARC
  5
986
330
1A
100
AcDbEntity
  8
SEIHIN
  6
CONTINUOUS
 62
     3
100
AcDbCircle
 10
503.6365929066387
 20
300.4785330174902
 30
0.0
 40
1.999999999999943
100
AcDbArc
 50
180.0000000000032
 51
270.0000000000016
  0
ARC
  5
987
330
1A
100
AcDbEntity
  8
SEIHIN
  6
CONTINUOUS
 62
     3
100
AcDbCircle
 10
497.6365929066387
 20
300.4785330174902
 30
0.0
 40
2.0
100
AcDbArc
 50
269.9999999999983
 51
359.9999999999967
  0
LINE
  5
988
330
1A
100
AcDbEntity
  8
SEIHIN
  6
CONTINUOUS
 62
     3
100
AcDbLine
 10
540.6365929066387
 20
334.4785330174902
 30
0.0
 11
540.6365929066387
 21
320.4785330174902
 31
0.0
  0
LINE
  5
989
330
1A
100
AcDbEntity
  8
SEIHIN
  6
CONTINUOUS
 62
     3
100
AcDbLine
 10
522.1365929066386
 20
322.3775330174901
 30
0.0
 11
522.1365929066386
 21
334.4785330174902
 31
0.0
  0
LINE
  5
98A
330
1A
100
AcDbEntity
  8
SEIHIN
  6
CONTINUOUS
 62
     3
100
AcDbLine
 10
520.1365929066387
 20
334.4785330174902
 30
0.0
 11
520.1365929066387
 21
322.3775330174901
 31
0.0
  0
LINE
  5
98B
330
1A
100
AcDbEntity
  8
SEIHIN
  6
CONTINUOUS
 62
     3
100
AcDbLine
 10
524.1365929066387
 20
338.4785330174902
 30
0.0
 11
538.6365929066387
 21
338.4785330174902
 31
0.0
  0
LINE
  5
98C
330
1A
100
AcDbEntity
  8
SEIHIN
  6
CONTINUOUS
 62
     3
100
AcDbLine
 10
524.1365929066387
 20
336.4785330174902
 30
0.0
 11
538.6365929066387
 21
336.4785330174902
 31
0.0
  0
LINE
  5
98D
330
1A
100
AcDbEntity
  8
SEIHIN
  6
CONTINUOUS
 62
     3
100
AcDbLine
 10
524.1365929066387
 20
358.4785330174902
 30
0.0
 11
538.6365929066387
 21
358.4785330174902
 31
0.0
  0
LINE
  5
98E
330
1A
100
AcDbEntity
  8
SEIHIN
  6
CONTINUOUS
 62
     3
100
AcDbLine
 10
524.1365929066387
 20
356.4785330174902
 30
0.0
 11
538.6365929066387
 21
356.4785330174902
 31
0.0
  0
LINE
  5
98F
330
1A
100
AcDbEntity
  8
SEIHIN
  6
CONTINUOUS
 62
     3
100
AcDbLine
 10
522.1365929066386
 20
340.4785330174902
 30
0.0
 11
522.1365929066386
 21
347.4784330174902
 31
0.0
  0
LINE
  5
990
330
1A
100
AcDbEntity
  8
SEIHIN
  6
CONTINUOUS
 62
     3
100
AcDbLine
 10
520.1365929066387
 20
347.4784330174902
 30
0.0
 11
520.1365929066387
 21
340.4785330174902
 31
0.0
  0
LINE
  5
991
330
1A
100
AcDbEntity
  8
SEIHIN
  6
CONTINUOUS
 62
     3
100
AcDbLine
 10
522.1365929066386
 20
354.4785330174902
 30
0.0
 11
522.1365929066386
 21
347.4786330174902
 31
0.0
  0
LINE
  5
992
330
1A
100
AcDbEntity
  8
SEIHIN
  6
CONTINUOUS
 62
     3
100
AcDbLine
 10
520.1365929066387
 20
347.4786330174902
 30
0.0
 11
520.1365929066387
 21
354.4785330174902
 31
0.0
  0
ARC
  5
993
330
1A
100
AcDbEntity
  8
SEIHIN
  6
CONTINUOUS
 62
     3
100
AcDbCircle
 10
524.1365929066387
 20
354.4785330174902
 30
0.0
 40
2.0
100
AcDbArc
 50
90.0
 51
180.0
  0
ARC
  5
994
330
1A
100
AcDbEntity
  8
SEIHIN
  6
CONTINUOUS
 62
     3
100
AcDbCircle
 10
518.1365929066386
 20
354.4785330174902
 30
0.0
 40
2.0
100
AcDbArc
 50
0.0
 51
90.0
  0
ARC
  5
995
330
1A
100
AcDbEntity
  8
SEIHIN
  6
CONTINUOUS
 62
     3
100
AcDbCircle
 10
524.1365929066387
 20
360.4785330174902
 30
0.0
 40
2.0
100
AcDbArc
 50
180.0
 51
270.0
  0
ARC
  5
996
330
1A
100
AcDbEntity
  8
SEIHIN
  6
CONTINUOUS
 62
     3
100
AcDbCircle
 10
518.1365929066386
 20
360.4785330174902
 30
0.0
 40
2.0
100
AcDbArc
 50
270.0
 51
0.0
  0
ARC
  5
997
330
1A
100
AcDbEntity
  8
SEIHIN
  6
CONTINUOUS
 62
     3
100
AcDbCircle
 10
524.1365929066387
 20
340.4785330174902
 30
0.0
 40
2.0
100
AcDbArc
 50
180.0
 51
270.0
  0
ARC
  5
998
330
1A
100
AcDbEntity
  8
SEIHIN
  6
CONTINUOUS
 62
     3
100
AcDbCircle
 10
518.1365929066386
 20
340.4785330174902
 30
0.0
 40
2.0
100
AcDbArc
 50
270.0
 51
0.0
  0
ARC
  5
999
330
1A
100
AcDbEntity
  8
SEIHIN
  6
CONTINUOUS
 62
     3
100
AcDbCircle
 10
524.1365929066387
 20
334.4785330174902
 30
0.0
 40
2.0
100
AcDbArc
 50
90.00000000000161
 51
180.0000000000032
  0
ARC
  5
99A
330
1A
100
AcDbEntity
  8
SEIHIN
  6
CONTINUOUS
 62
     3
100
AcDbCircle
 10
518.1365929066386
 20
334.4785330174902
 30
0.0
 40
2.000000000000056
100
AcDbArc
 50
359.9999999999967
 51
89.99999999999836
  0
LINE
  5
99B
330
1A
100
AcDbEntity
  8
SEIHIN
  6
CONTINUOUS
 62
     3
100
AcDbLine
 10
540.6365929066387
 20
347.4784330174902
 30
0.0
 11
540.6365929066387
 21
340.4785330174902
 31
0.0
  0
LINE
  5
99C
330
1A
100
AcDbEntity
  8
SEIHIN
  6
CONTINUOUS
 62
     3
100
AcDbLine
 10
540.6365929066387
 20
347.4785330174902
 30
0.0
 11
540.6365929066387
 21
354.4785330174902
 31
0.0
  0
ARC
  5
99D
330
1A
100
AcDbEntity
  8
SEIHIN
  6
CONTINUOUS
 62
     3
100
AcDbCircle
 10
538.6365929066387
 20
354.4785330174902
 30
0.0
 40
2.0
100
AcDbArc
 50
0.0
 51
90.0
  0
ARC
  5
99E
330
1A
100
AcDbEntity
  8
SEIHIN
  6
CONTINUOUS
 62
     3
100
AcDbCircle
 10
538.6365929066387
 20
360.4785330174902
 30
0.0
 40
2.0
100
AcDbArc
 50
270.0
 51
0.0
  0
ARC
  5
99F
330
1A
100
AcDbEntity
  8
SEIHIN
  6
CONTINUOUS
 62
     3
100
AcDbCircle
 10
538.6365929066387
 20
340.4785330174902
 30
0.0
 40
2.0
100
AcDbArc
 50
270.0
 51
0.0
  0
ARC
  5
9A0
330
1A
100
AcDbEntity
  8
SEIHIN
  6
CONTINUOUS
 62
     3
100
AcDbCircle
 10
538.6365929066387
 20
334.4785330174902
 30
0.0
 40
2.000000000000056
100
AcDbArc
 50
359.9999999999967
 51
89.99999999999836
  0
LINE
  5
9A1
330
1A
100
AcDbEntity
  8
SEIHIN
  6
CONTINUOUS
 62
     3
100
AcDbLine
 10
524.1365929066387
 20
298.4785330174902
 30
0.0
 11
538.6365929066387
 21
298.4785330174902
 31
0.0
  0
LINE
  5
9A2
330
1A
100
AcDbEntity
  8
SEIHIN
  6
CONTINUOUS
 62
     3
100
AcDbLine
 10
526.0355929066386
 20
318.4785330174902
 30
0.0
 11
538.6365929066387
 21
318.4785330174902
 31
0.0
  0
LINE
  5
9A3
330
1A
100
AcDbEntity
  8
SEIHIN
  6
CONTINUOUS
 62
     3
100
AcDbLine
 10
526.0355929066386
 20
316.4785330174902
 30
0.0
 11
538.6365929066387
 21
316.4785330174902
 31
0.0
  0
ARC
  5
9A4
330
1A
100
AcDbEntity
  8
SEIHIN
  6
CONTINUOUS
 62
     3
100
AcDbCircle
 10
521.1365929066387
 20
317.4785330174902
 30
0.0
 40
5.0
100
AcDbArc
 50
270.0
 51
90.0
  0
ARC
  5
9A5
330
1A
100
AcDbEntity
  8
SEIHIN
  6
CONTINUOUS
 62
     3
100
AcDbCircle
 10
521.1365929066387
 20
317.4785330174902
 30
0.0
 40
5.0
100
AcDbArc
 50
90.0
 51
270.0
  0
LINE
  5
9A6
330
1A
100
AcDbEntity
  8
SEIHIN
  6
CONTINUOUS
 62
     3
100
AcDbLine
 10
522.1365929066386
 20
300.4785330174902
 30
0.0
 11
522.1365929066386
 21
312.5795330174901
 31
0.0
  0
LINE
  5
9A7
330
1A
100
AcDbEntity
  8
SEIHIN
  6
CONTINUOUS
 62
     3
100
AcDbLine
 10
520.1365929066387
 20
312.5795330174901
 30
0.0
 11
520.1365929066387
 21
300.4785330174902
 31
0.0
  0
ARC
  5
9A8
330
1A
100
AcDbEntity
  8
SEIHIN
  6
CONTINUOUS
 62
     3
100
AcDbCircle
 10
524.1365929066387
 20
300.4785330174902
 30
0.0
 40
1.999999999999943
100
AcDbArc
 50
180.0000000000032
 51
270.0000000000016
  0
ARC
  5
9A9
330
1A
100
AcDbEntity
  8
SEIHIN
  6
CONTINUOUS
 62
     3
100
AcDbCircle
 10
518.1365929066386
 20
300.4785330174902
 30
0.0
 40
2.0
100
AcDbArc
 50
269.9999999999983
 51
359.9999999999967
  0
LINE
  5
9AA
330
1A
100
AcDbEntity
  8
SEIHIN
  6
CONTINUOUS
 62
     3
100
AcDbLine
 10
540.6365929066387
 20
314.4785330174902
 30
0.0
 11
540.6365929066387
 21
300.4785330174902
 31
0.0
  0
ARC
  5
9AB
330
1A
100
AcDbEntity
  8
SEIHIN
  6
CONTINUOUS
 62
     3
100
AcDbCircle
 10
538.6365929066387
 20
320.4785330174902
 30
0.0
 40
2.0
100
AcDbArc
 50
270.0
 51
0.0
  0
ARC
  5
9AC
330
1A
100
AcDbEntity
  8
SEIHIN
  6
CONTINUOUS
 62
     3
100
AcDbCircle
 10
538.6365929066387
 20
314.4785330174902
 30
0.0
 40
2.0
100
AcDbArc
 50
0.0
 51
90.0
  0
ARC
  5
9AD
330
1A
100
AcDbEntity
  8
SEIHIN
  6
CONTINUOUS
 62
     3
100
AcDbCircle
 10
538.6365929066387
 20
300.4785330174902
 30
0.0
 40
2.0
100
AcDbArc
 50
269.9999999999983
 51
359.9999999999967
  0
ARC
  5
9AE
330
1A
100
AcDbEntity
  8
SEIHIN
  6
CONTINUOUS
 62
     3
100
AcDbCircle
 10
462.6365716826633
 20
227.7295575974146
 30
0.0
 40
1.999978776175749
100
AcDbArc
 50
180.0007041704419
 51
261.6198125828818
  0
ARC
  5
9AF
330
1A
100
AcDbEntity
  8
SEIHIN
  6
CONTINUOUS
 62
     3
100
AcDbCircle
 10
462.6365929066387
 20
240.4785330174902
 30
0.0
 40
2.000000000000056
100
AcDbArc
 50
180.0
 51
269.9999999999983
  0
ARC
  5
9B0
330
1A
100
AcDbEntity
  8
SEIHIN
  6
CONTINUOUS
 62
     3
100
AcDbCircle
 10
462.6365929066387
 20
234.4785330174902
 30
0.0
 40
2.0
100
AcDbArc
 50
90.00000000000161
 51
180.0000000000032
  0
ARC
  5
9B1
330
1A
100
AcDbEntity
  8
SEIHIN
  6
CONTINUOUS
 62
     3
100
AcDbCircle
 10
462.6365929066387
 20
260.4785330174902
 30
0.0
 40
2.0
100
AcDbArc
 50
180.0
 51
270.0
  0
ARC
  5
9B2
330
1A
100
AcDbEntity
  8
SEIHIN
  6
CONTINUOUS
 62
     3
100
AcDbCircle
 10
462.6365929066387
 20
254.4785330174902
 30
0.0
 40
2.0
100
AcDbArc
 50
90.0
 51
180.0
  0
ARC
  5
9B3
330
1A
100
AcDbEntity
  8
SEIHIN
  6
CONTINUOUS
 62
     3
100
AcDbCircle
 10
462.6365929066387
 20
280.4785330174902
 30
0.0
 40
2.0
100
AcDbArc
 50
180.0
 51
270.0
  0
ARC
  5
9B4
330
1A
100
AcDbEntity
  8
SEIHIN
  6
CONTINUOUS
 62
     3
100
AcDbCircle
 10
462.6365929066387
 20
274.4785330174902
 30
0.0
 40
2.0
100
AcDbArc
 50
90.0
 51
180.0
  0
LINE
  5
9B5
330
1A
100
AcDbEntity
  8
SEIHIN
  6
CONTINUOUS
 62
     3
100
AcDbLine
 10
460.6365929066387
 20
285.4785330174902
 30
0.0
 11
458.6365929066387
 21
285.4785330174902
 31
0.0
  0
LINE
  5
9B6
330
1A
100
AcDbEntity
  8
SEIHIN
  6
CONTINUOUS
 62
     3
100
AcDbLine
 10
460.6365929066387
 20
283.4785330174902
 30
0.0
 11
458.6365929066387
 21
283.4785330174902
 31
0.0
  0
ARC
  5
9B7
330
1A
100
AcDbEntity
  8
SEIHIN
  6
CONTINUOUS
 62
     3
100
AcDbCircle
 10
462.6365929066387
 20
294.4785330174902
 30
0.0
 40
2.0
100
AcDbArc
 50
90.0
 51
180.0
  0
LINE
  5
9B8
330
1A
100
AcDbEntity
  8
SEIHIN
  6
CONTINUOUS
 62
     3
100
AcDbLine
 10
287.6365929066387
 20
250.4785330174902
 30
0.0
 11
511.6365929066387
 21
217.4784330174902
 31
0.0
  0
LINE
  5
9B9
330
1A
100
AcDbEntity
  8
SEIHIN
  6
CONTINUOUS
 62
     3
100
AcDbLine
 10
287.6364929066385
 20
126.6439330174903
 30
0.0
 11
543.6365929066387
 21
126.6437330174901
 31
0.0
  0
LINE
  5
9BA
330
1A
100
AcDbEntity
  8
SEIHIN
  6
CONTINUOUS
 62
     3
100
AcDbLine
 10
292.6365929066387
 20
113.6439330174903
 30
0.0
 11
541.6365929066387
 21
113.6440330174903
 31
0.0
  0
LINE
  5
9BD
330
1A
100
AcDbEntity
  8
SEIHIN
  6
CONTINUOUS
 62
     3
100
AcDbLine
 10
374.3450929066387
 20
238.7152330174903
 30
0.0
 11
359.8450929066387
 21
240.8514330174901
 31
0.0
  0
LINE
  5
9BE
330
1A
100
AcDbEntity
  8
SEIHIN
  6
CONTINUOUS
 62
     3
100
AcDbLine
 10
360.1365929066387
 20
258.4785330174902
 30
0.0
 11
374.6365929066387
 21
258.4785330174902
 31
0.0
  0
LINE
  5
9BF
330
1A
100
AcDbEntity
  8
SEIHIN
  6
CONTINUOUS
 62
     3
100
AcDbLine
 10
360.1365929066387
 20
256.4785330174902
 30
0.0
 11
374.6365929066387
 21
256.4785330174902
 31
0.0
  0
LINE
  5
9C0
330
1A
100
AcDbEntity
  8
SEIHIN
  6
CONTINUOUS
 62
     3
100
AcDbLine
 10
360.1365929066387
 20
278.4785330174902
 30
0.0
 11
374.6365929066387
 21
278.4785330174902
 31
0.0
  0
LINE
  5
9C1
330
1A
100
AcDbEntity
  8
SEIHIN
  6
CONTINUOUS
 62
     3
100
AcDbLine
 10
360.1365929066387
 20
276.4785330174902
 30
0.0
 11
374.6365929066387
 21
276.4785330174902
 31
0.0
  0
LINE
  5
9C2
330
1A
100
AcDbEntity
  8
SEIHIN
  6
CONTINUOUS
 62
     3
100
AcDbLine
 10
360.1365929066387
 20
296.4785330174902
 30
0.0
 11
374.6365929066387
 21
296.4785330174902
 31
0.0
  0
LINE
  5
9C3
330
1A
100
AcDbEntity
  8
SEIHIN
  6
CONTINUOUS
 62
     3
100
AcDbLine
 10
333.3450929066386
 20
244.7555330174902
 30
0.0
 11
318.8450929066386
 21
246.8916330174902
 31
0.0
  0
LINE
  5
9C4
330
1A
100
AcDbEntity
  8
SEIHIN
  6
CONTINUOUS
 62
     3
100
AcDbLine
 10
319.1365929066387
 20
258.4785330174902
 30
0.0
 11
333.6365929066387
 21
258.4785330174902
 31
0.0
  0
LINE
  5
9C5
330
1A
100
AcDbEntity
  8
SEIHIN
  6
CONTINUOUS
 62
     3
100
AcDbLine
 10
319.1365929066387
 20
256.4785330174902
 30
0.0
 11
333.6365929066387
 21
256.4785330174902
 31
0.0
  0
LINE
  5
9C6
330
1A
100
AcDbEntity
  8
SEIHIN
  6
CONTINUOUS
 62
     3
100
AcDbLine
 10
319.1365929066387
 20
278.4785330174902
 30
0.0
 11
333.6365929066387
 21
278.4785330174902
 31
0.0
  0
LINE
  5
9C7
330
1A
100
AcDbEntity
  8
SEIHIN
  6
CONTINUOUS
 62
     3
100
AcDbLine
 10
319.1365929066387
 20
276.4785330174902
 30
0.0
 11
333.6365929066387
 21
276.4785330174902
 31
0.0
  0
LINE
  5
9C8
330
1A
100
AcDbEntity
  8
SEIHIN
  6
CONTINUOUS
 62
     3
100
AcDbLine
 10
319.1365929066387
 20
296.4785330174902
 30
0.0
 11
333.6365929066387
 21
296.4785330174902
 31
0.0
  0
LINE
  5
9C9
330
1A
100
AcDbEntity
  8
SEIHIN
  6
CONTINUOUS
 62
     3
100
AcDbLine
 10
317.1365929066387
 20
260.4785330174902
 30
0.0
 11
317.1365929066387
 21
274.4785330174902
 31
0.0
  0
LINE
  5
9CA
330
1A
100
AcDbEntity
  8
SEIHIN
  6
CONTINUOUS
 62
     3
100
AcDbLine
 10
315.1365929066387
 20
274.4785330174902
 30
0.0
 11
315.1365929066387
 21
260.4785330174902
 31
0.0
  0
LINE
  5
9CB
330
1A
100
AcDbEntity
  8
SEIHIN
  6
CONTINUOUS
 62
     3
100
AcDbLine
 10
296.6365929066387
 20
260.4785330174902
 30
0.0
 11
296.6365929066387
 21
274.4785330174902
 31
0.0
  0
ARC
  5
9CC
330
1A
100
AcDbEntity
  8
SEIHIN
  6
CONTINUOUS
 62
     3
100
AcDbCircle
 10
298.6365929066387
 20
280.47853301749
 30
0.0
 40
1.999999999999943
100
AcDbArc
 50
179.9999999999967
 51
269.9999999999992
  0
ARC
  5
9CD
330
1A
100
AcDbEntity
  8
SEIHIN
  6
CONTINUOUS
 62
     3
100
AcDbCircle
 10
298.6365929066387
 20
274.4785330174902
 30
0.0
 40
1.999999999999886
100
AcDbArc
 50
90.00000000000078
 51
180.0000000000032
  0
ARC
  5
9CE
330
1A
100
AcDbEntity
  8
SEIHIN
  6
CONTINUOUS
 62
     3
100
AcDbCircle
 10
298.6365929066387
 20
294.4785330174902
 30
0.0
 40
2.0
100
AcDbArc
 50
90.00000000000078
 51
180.0
  0
LINE
  5
9CF
330
1A
100
AcDbEntity
  8
SEIHIN
  6
CONTINUOUS
 62
     3
100
AcDbLine
 10
296.6365929066387
 20
280.4785330174902
 30
0.0
 11
296.6365929066387
 21
294.4785330174902
 31
0.0
  0
LINE
  5
9D0
330
1A
100
AcDbEntity
  8
SEIHIN
  6
CONTINUOUS
 62
     3
100
AcDbLine
 10
317.1365929066387
 20
280.4785330174902
 30
0.0
 11
317.1365929066387
 21
294.4785330174902
 31
0.0
  0
LINE
  5
9D1
330
1A
100
AcDbEntity
  8
SEIHIN
  6
CONTINUOUS
 62
     3
100
AcDbLine
 10
315.1365929066387
 20
294.4785330174902
 30
0.0
 11
315.1365929066387
 21
280.4785330174902
 31
0.0
  0
ARC
  5
9D2
330
1A
100
AcDbEntity
  8
SEIHIN
  6
CONTINUOUS
 62
     3
100
AcDbCircle
 10
319.1365929066387
 20
294.4785330174902
 30
0.0
 40
2.0
100
AcDbArc
 50
90.0
 51
180.0
  0
LINE
  5
9D3
330
1A
100
AcDbEntity
  8
SEIHIN
  6
CONTINUOUS
 62
     3
100
AcDbLine
 10
298.6365929066387
 20
296.4785330174902
 30
0.0
 11
313.1365929066387
 21
296.4785330174902
 31
0.0
  0
ARC
  5
9D4
330
1A
100
AcDbEntity
  8
SEIHIN
  6
CONTINUOUS
 62
     3
100
AcDbCircle
 10
313.1365929066387
 20
294.4785330174902
 30
0.0
 40
2.0
100
AcDbArc
 50
0.0
 51
90.0
  0
ARC
  5
9D5
330
1A
100
AcDbEntity
  8
SEIHIN
  6
CONTINUOUS
 62
     3
100
AcDbCircle
 10
319.1365929066387
 20
280.4785330174902
 30
0.0
 40
2.0
100
AcDbArc
 50
180.0
 51
270.0
  0
ARC
  5
9D6
330
1A
100
AcDbEntity
  8
SEIHIN
  6
CONTINUOUS
 62
     3
100
AcDbCircle
 10
319.1365929066387
 20
274.4785330174902
 30
0.0
 40
2.0
100
AcDbArc
 50
90.0
 51
180.0
  0
LINE
  5
9D7
330
1A
100
AcDbEntity
  8
SEIHIN
  6
CONTINUOUS
 62
     3
100
AcDbLine
 10
298.6365929066387
 20
278.4785330174902
 30
0.0
 11
313.1365929066387
 21
278.4785330174902
 31
0.0
  0
LINE
  5
9D8
330
1A
100
AcDbEntity
  8
SEIHIN
  6
CONTINUOUS
 62
     3
100
AcDbLine
 10
298.6365929066387
 20
276.4785330174902
 30
0.0
 11
313.1365929066387
 21
276.4785330174902
 31
0.0
  0
ARC
  5
9D9
330
1A
100
AcDbEntity
  8
SEIHIN
  6
CONTINUOUS
 62
     3
100
AcDbCircle
 10
313.1365929066387
 20
280.4785330174902
 30
0.0
 40
2.0
100
AcDbArc
 50
270.0
 51
0.0
  0
ARC
  5
9DA
330
1A
100
AcDbEntity
  8
SEIHIN
  6
CONTINUOUS
 62
     3
100
AcDbCircle
 10
313.1365929066387
 20
274.4785330174902
 30
0.0
 40
2.0
100
AcDbArc
 50
0.0
 51
90.0
  0
ARC
  5
9DB
330
1A
100
AcDbEntity
  8
SEIHIN
  6
CONTINUOUS
 62
     3
100
AcDbCircle
 10
298.6365929066387
 20
260.4785330174899
 30
0.0
 40
1.999999999999943
100
AcDbArc
 50
179.9999999999967
 51
269.9999999999992
  0
ARC
  5
9DC
330
1A
100
AcDbEntity
  8
SEIHIN
  6
CONTINUOUS
 62
     3
100
AcDbCircle
 10
298.6365929066387
 20
254.4785330174902
 30
0.0
 40
1.999999999999886
100
AcDbArc
 50
90.00000000000078
 51
180.0000000000032
  0
ARC
  5
9DD
330
1A
100
AcDbEntity
  8
SEIHIN
  6
CONTINUOUS
 62
     3
100
AcDbCircle
 10
298.6366211487397
 20
251.8904003099701
 30
0.0
 40
2.00002824236855
100
AcDbArc
 50
179.9990630118023
 51
261.6185889643062
  0
LINE
  5
9DE
330
1A
100
AcDbEntity
  8
SEIHIN
  6
CONTINUOUS
 62
     3
100
AcDbLine
 10
292.6365929066387
 20
246.7096330174902
 30
0.0
 11
292.6365929066387
 21
249.74193301749
 31
0.0
  0
LINE
  5
9DF
330
1A
100
AcDbEntity
  8
SEIHIN
  6
CONTINUOUS
 62
     3
100
AcDbLine
 10
287.6365929066387
 20
247.4462330174901
 30
0.0
 11
287.6365929066387
 21
251.9947330174902
 31
0.0
  0
LINE
  5
9E0
330
1A
100
AcDbEntity
  8
SEIHIN
  6
CONTINUOUS
 62
     3
100
AcDbLine
 10
296.6365929066387
 20
251.89043301749
 30
0.0
 11
296.6365929066387
 21
254.4785330174902
 31
0.0
  0
ARC
  5
9E1
330
1A
100
AcDbEntity
  8
SEIHIN
  6
CONTINUOUS
 62
     3
100
AcDbCircle
 10
293.6365646645374
 20
253.1324086311633
 30
0.0
 40
2.000028242249891
100
AcDbArc
 50
261.6202245594449
 51
0.0006986069398803
  0
LINE
  5
9E2
330
1A
100
AcDbEntity
  8
SEIHIN
  6
CONTINUOUS
 62
     3
100
AcDbLine
 10
287.6365929066387
 20
251.9947330174902
 30
0.0
 11
293.3450929066387
 21
251.1537330174903
 31
0.0
  0
LINE
  5
9E3
330
1A
100
AcDbEntity
  8
SEIHIN
  6
CONTINUOUS
 62
     3
100
AcDbLine
 10
287.6365929066387
 20
247.4462330174901
 30
0.0
 11
292.6365929066387
 21
246.7096330174902
 31
0.0
  0
ARC
  5
9E4
330
1A
100
AcDbEntity
  8
SEIHIN
  6
CONTINUOUS
 62
     3
100
AcDbCircle
 10
319.1366211487397
 20
248.8703003099699
 30
0.0
 40
2.000028242368693
100
AcDbArc
 50
179.9990630117991
 51
261.6185889643046
  0
LINE
  5
9E5
330
1A
100
AcDbEntity
  8
SEIHIN
  6
CONTINUOUS
 62
     3
100
AcDbLine
 10
312.8450929066386
 20
247.7755330174902
 30
0.0
 11
298.3450929066386
 21
249.9117330174901
 31
0.0
  0
ARC
  5
9E6
330
1A
100
AcDbEntity
  8
SEIHIN
  6
CONTINUOUS
 62
     3
100
AcDbCircle
 10
313.1365646645374
 20
249.7542086311632
 30
0.0
 40
2.000028242249887
100
AcDbArc
 50
261.6202245594457
 51
0.0006986069398803
  0
ARC
  5
9E7
330
1A
100
AcDbEntity
  8
SEIHIN
  6
CONTINUOUS
 62
     3
100
AcDbCircle
 10
319.1365929066387
 20
260.4785330174902
 30
0.0
 40
2.0
100
AcDbArc
 50
180.0
 51
270.0
  0
ARC
  5
9E8
330
1A
100
AcDbEntity
  8
SEIHIN
  6
CONTINUOUS
 62
     3
100
AcDbCircle
 10
319.1365929066387
 20
254.4785330174902
 30
0.0
 40
2.0
100
AcDbArc
 50
90.0
 51
180.0
  0
LINE
  5
9E9
330
1A
100
AcDbEntity
  8
SEIHIN
  6
CONTINUOUS
 62
     3
100
AcDbLine
 10
298.6365929066387
 20
258.4785330174902
 30
0.0
 11
313.1365929066387
 21
258.4785330174902
 31
0.0
  0
LINE
  5
9EA
330
1A
100
AcDbEntity
  8
SEIHIN
  6
CONTINUOUS
 62
     3
100
AcDbLine
 10
298.6365929066387
 20
256.4785330174902
 30
0.0
 11
313.1365929066387
 21
256.4785330174902
 31
0.0
  0
ARC
  5
9EB
330
1A
100
AcDbEntity
  8
SEIHIN
  6
CONTINUOUS
 62
     3
100
AcDbCircle
 10
313.1365929066387
 20
260.4785330174902
 30
0.0
 40
2.0
100
AcDbArc
 50
270.0
 51
0.0
  0
ARC
  5
9EC
330
1A
100
AcDbEntity
  8
SEIHIN
  6
CONTINUOUS
 62
     3
100
AcDbCircle
 10
313.1365929066387
 20
254.4785330174902
 30
0.0
 40
2.0
100
AcDbArc
 50
0.0
 51
90.0
  0
LINE
  5
9ED
330
1A
100
AcDbEntity
  8
SEIHIN
  6
CONTINUOUS
 62
     3
100
AcDbLine
 10
317.1365929066387
 20
248.8703330174901
 30
0.0
 11
317.1365929066387
 21
254.4785330174902
 31
0.0
  0
LINE
  5
9EE
330
1A
100
AcDbEntity
  8
SEIHIN
  6
CONTINUOUS
 62
     3
100
AcDbLine
 10
315.1365929066387
 20
254.4785330174902
 30
0.0
 11
315.1365929066387
 21
249.7542330174901
 31
0.0
  0
LINE
  5
9EF
330
1A
100
AcDbEntity
  8
SEIHIN
  6
CONTINUOUS
 62
     3
100
AcDbLine
 10
358.1365929066387
 20
260.4785330174902
 30
0.0
 11
358.1365929066387
 21
274.4785330174902
 31
0.0
  0
LINE
  5
9F0
330
1A
100
AcDbEntity
  8
SEIHIN
  6
CONTINUOUS
 62
     3
100
AcDbLine
 10
356.1365929066387
 20
274.4785330174902
 30
0.0
 11
356.1365929066387
 21
260.4785330174902
 31
0.0
  0
LINE
  5
9F1
330
1A
100
AcDbEntity
  8
SEIHIN
  6
CONTINUOUS
 62
     3
100
AcDbLine
 10
337.6365929066387
 20
260.4785330174902
 30
0.0
 11
337.6365929066387
 21
274.4785330174902
 31
0.0
  0
LINE
  5
9F2
330
1A
100
AcDbEntity
  8
SEIHIN
  6
CONTINUOUS
 62
     3
100
AcDbLine
 10
335.6365929066387
 20
274.4785330174902
 30
0.0
 11
335.6365929066387
 21
260.4785330174902
 31
0.0
  0
LINE
  5
9F3
330
1A
100
AcDbEntity
  8
SEIHIN
  6
CONTINUOUS
 62
     3
100
AcDbLine
 10
339.6365929066387
 20
278.4785330174902
 30
0.0
 11
354.1365929066387
 21
278.4785330174902
 31
0.0
  0
LINE
  5
9F4
330
1A
100
AcDbEntity
  8
SEIHIN
  6
CONTINUOUS
 62
     3
100
AcDbLine
 10
339.6365929066387
 20
276.4785330174902
 30
0.0
 11
354.1365929066387
 21
276.4785330174902
 31
0.0
  0
LINE
  5
9F5
330
1A
100
AcDbEntity
  8
SEIHIN
  6
CONTINUOUS
 62
     3
100
AcDbLine
 10
339.6365929066387
 20
296.4785330174902
 30
0.0
 11
354.1365929066387
 21
296.4785330174902
 31
0.0
  0
LINE
  5
9F6
330
1A
100
AcDbEntity
  8
SEIHIN
  6
CONTINUOUS
 62
     3
100
AcDbLine
 10
337.6365929066387
 20
280.4785330174902
 30
0.0
 11
337.6365929066387
 21
294.4785330174902
 31
0.0
  0
LINE
  5
9F7
330
1A
100
AcDbEntity
  8
SEIHIN
  6
CONTINUOUS
 62
     3
100
AcDbLine
 10
335.6365929066387
 20
294.4785330174902
 30
0.0
 11
335.6365929066387
 21
280.4785330174902
 31
0.0
  0
ARC
  5
9F8
330
1A
100
AcDbEntity
  8
SEIHIN
  6
CONTINUOUS
 62
     3
100
AcDbCircle
 10
333.6365929066387
 20
294.4785330174902
 30
0.0
 40
2.0
100
AcDbArc
 50
0.0
 51
90.0
  0
ARC
  5
9F9
330
1A
100
AcDbEntity
  8
SEIHIN
  6
CONTINUOUS
 62
     3
100
AcDbCircle
 10
339.6365929066387
 20
294.4785330174902
 30
0.0
 40
2.0
100
AcDbArc
 50
90.0
 51
180.0
  0
ARC
  5
9FA
330
1A
100
AcDbEntity
  8
SEIHIN
  6
CONTINUOUS
 62
     3
100
AcDbCircle
 10
333.6365929066387
 20
280.4785330174902
 30
0.0
 40
2.0
100
AcDbArc
 50
270.0
 51
0.0
  0
ARC
  5
9FB
330
1A
100
AcDbEntity
  8
SEIHIN
  6
CONTINUOUS
 62
     3
100
AcDbCircle
 10
333.6365929066387
 20
274.4785330174902
 30
0.0
 40
2.0
100
AcDbArc
 50
0.0
 51
90.0
  0
ARC
  5
9FC
330
1A
100
AcDbEntity
  8
SEIHIN
  6
CONTINUOUS
 62
     3
100
AcDbCircle
 10
339.6365929066387
 20
280.47853301749
 30
0.0
 40
1.999999999999943
100
AcDbArc
 50
179.9999999999967
 51
270.0
  0
ARC
  5
9FD
330
1A
100
AcDbEntity
  8
SEIHIN
  6
CONTINUOUS
 62
     3
100
AcDbCircle
 10
339.6365929066387
 20
274.4785330174902
 30
0.0
 40
1.999999999999886
100
AcDbArc
 50
90.0
 51
180.0000000000032
  0
LINE
  5
9FE
330
1A
100
AcDbEntity
  8
SEIHIN
  6
CONTINUOUS
 62
     3
100
AcDbLine
 10
358.1365929066387
 20
280.4785330174902
 30
0.0
 11
358.1365929066387
 21
294.4785330174902
 31
0.0
  0
LINE
  5
9FF
330
1A
100
AcDbEntity
  8
SEIHIN
  6
CONTINUOUS
 62
     3
100
AcDbLine
 10
356.1365929066387
 20
294.4785330174902
 30
0.0
 11
356.1365929066387
 21
280.4785330174902
 31
0.0
  0
ARC
  5
A00
330
1A
100
AcDbEntity
  8
SEIHIN
  6
CONTINUOUS
 62
     3
100
AcDbCircle
 10
354.1365929066387
 20
294.4785330174902
 30
0.0
 40
2.000000000000056
100
AcDbArc
 50
0.0
 51
90.0
  0
ARC
  5
A01
330
1A
100
AcDbEntity
  8
SEIHIN
  6
CONTINUOUS
 62
     3
100
AcDbCircle
 10
360.1365929066387
 20
294.4785330174902
 30
0.0
 40
2.0
100
AcDbArc
 50
90.0
 51
180.0
  0
ARC
  5
A02
330
1A
100
AcDbEntity
  8
SEIHIN
  6
CONTINUOUS
 62
     3
100
AcDbCircle
 10
354.1365929066387
 20
280.4785330174902
 30
0.0
 40
2.0
100
AcDbArc
 50
270.0
 51
0.0
  0
ARC
  5
A03
330
1A
100
AcDbEntity
  8
SEIHIN
  6
CONTINUOUS
 62
     3
100
AcDbCircle
 10
354.1365929066387
 20
274.4785330174902
 30
0.0
 40
2.000000000000056
100
AcDbArc
 50
0.0
 51
90.0
  0
ARC
  5
A04
330
1A
100
AcDbEntity
  8
SEIHIN
  6
CONTINUOUS
 62
     3
100
AcDbCircle
 10
360.1365929066387
 20
280.4785330174902
 30
0.0
 40
2.0
100
AcDbArc
 50
180.0
 51
270.0
  0
ARC
  5
A05
330
1A
100
AcDbEntity
  8
SEIHIN
  6
CONTINUOUS
 62
     3
100
AcDbCircle
 10
360.1365929066387
 20
274.4785330174902
 30
0.0
 40
2.0
100
AcDbArc
 50
90.0
 51
180.0
  0
LINE
  5
A06
330
1A
100
AcDbEntity
  8
SEIHIN
  6
CONTINUOUS
 62
     3
100
AcDbLine
 10
354.9907929066387
 20
241.5666330174901
 30
0.0
 11
339.3450929066387
 21
243.8716330174902
 31
0.0
  0
LINE
  5
A07
330
1A
100
AcDbEntity
  8
SEIHIN
  6
CONTINUOUS
 62
     3
100
AcDbLine
 10
339.6365929066387
 20
258.4785330174902
 30
0.0
 11
354.1365929066387
 21
258.4785330174902
 31
0.0
  0
LINE
  5
A08
330
1A
100
AcDbEntity
  8
SEIHIN
  6
CONTINUOUS
 62
     3
100
AcDbLine
 10
339.6365929066387
 20
256.4785330174902
 30
0.0
 11
354.1365929066387
 21
256.4785330174902
 31
0.0
  0
LINE
  5
A09
330
1A
100
AcDbEntity
  8
SEIHIN
  6
CONTINUOUS
 62
     3
100
AcDbLine
 10
337.6365929066387
 20
245.8502330174901
 30
0.0
 11
337.6365929066387
 21
254.4785330174902
 31
0.0
  0
LINE
  5
A0A
330
1A
100
AcDbEntity
  8
SEIHIN
  6
CONTINUOUS
 62
     3
100
AcDbLine
 10
335.6365929066387
 20
254.4785330174902
 30
0.0
 11
335.6365929066387
 21
246.7341330174901
 31
0.0
  0
ARC
  5
A0B
330
1A
100
AcDbEntity
  8
SEIHIN
  6
CONTINUOUS
 62
     3
100
AcDbCircle
 10
333.6365929066387
 20
260.4785330174902
 30
0.0
 40
2.0
100
AcDbArc
 50
270.0
 51
0.0
  0
ARC
  5
A0C
330
1A
100
AcDbEntity
  8
SEIHIN
  6
CONTINUOUS
 62
     3
100
AcDbCircle
 10
333.6365929066387
 20
254.4785330174902
 30
0.0
 40
2.0
100
AcDbArc
 50
0.0
 51
90.0
  0
ARC
  5
A0D
330
1A
100
AcDbEntity
  8
SEIHIN
  6
CONTINUOUS
 62
     3
100
AcDbCircle
 10
339.6365929066387
 20
260.4785330174899
 30
0.0
 40
1.999999999999943
100
AcDbArc
 50
179.9999999999967
 51
270.0
  0
ARC
  5
A0E
330
1A
100
AcDbEntity
  8
SEIHIN
  6
CONTINUOUS
 62
     3
100
AcDbCircle
 10
339.6365929066387
 20
254.4785330174902
 30
0.0
 40
1.999999999999886
100
AcDbArc
 50
90.0
 51
180.0000000000032
  0
ARC
  5
A0F
330
1A
100
AcDbEntity
  8
SEIHIN
  6
CONTINUOUS
 62
     3
100
AcDbCircle
 10
333.6366141306139
 20
246.7341513437111
 30
0.0
 40
1.999978776108628
100
AcDbArc
 50
261.6185833993114
 51
359.9994749868718
  0
ARC
  5
A10
330
1A
100
AcDbEntity
  8
SEIHIN
  6
CONTINUOUS
 62
     3
100
AcDbCircle
 10
339.6365716826635
 20
245.8502575974146
 30
0.0
 40
1.999978776175806
100
AcDbArc
 50
180.0007041704354
 51
261.6198125828769
  0
LINE
  5
A11
330
1A
100
AcDbEntity
  8
SEIHIN
  6
CONTINUOUS
 62
     3
100
AcDbLine
 10
358.1365929066387
 20
242.8300330174902
 30
0.0
 11
358.1365929066387
 21
254.4785330174902
 31
0.0
  0
LINE
  5
A12
330
1A
100
AcDbEntity
  8
SEIHIN
  6
CONTINUOUS
 62
     3
100
AcDbLine
 10
356.1365929066387
 20
254.4785330174902
 30
0.0
 11
356.1365929066387
 21
242.5559330174903
 31
0.0
  0
ARC
  5
A13
330
1A
100
AcDbEntity
  8
SEIHIN
  6
CONTINUOUS
 62
     3
100
AcDbCircle
 10
354.1365929066387
 20
260.4785330174902
 30
0.0
 40
2.0
100
AcDbArc
 50
270.0
 51
0.0
  0
ARC
  5
A14
330
1A
100
AcDbEntity
  8
SEIHIN
  6
CONTINUOUS
 62
     3
100
AcDbCircle
 10
354.1365929066387
 20
254.4785330174902
 30
0.0
 40
2.000000000000056
100
AcDbArc
 50
0.0
 51
90.0
  0
ARC
  5
A15
330
1A
100
AcDbEntity
  8
SEIHIN
  6
CONTINUOUS
 62
     3
100
AcDbCircle
 10
360.1365929066387
 20
260.4785330174902
 30
0.0
 40
2.0
100
AcDbArc
 50
180.0
 51
270.0
  0
ARC
  5
A16
330
1A
100
AcDbEntity
  8
SEIHIN
  6
CONTINUOUS
 62
     3
100
AcDbCircle
 10
360.1365929066387
 20
254.4785330174902
 30
0.0
 40
2.0
100
AcDbArc
 50
90.0
 51
180.0
  0
ARC
  5
A17
330
1A
100
AcDbEntity
  8
SEIHIN
  6
CONTINUOUS
 62
     3
100
AcDbCircle
 10
355.1365998741871
 20
242.5559390334437
 30
0.0
 40
0.9999930324695686
100
AcDbArc
 50
261.6159294859133
 51
359.9996553088569
  0
ARC
  5
A18
330
1A
100
AcDbEntity
  8
SEIHIN
  6
CONTINUOUS
 62
     3
100
AcDbCircle
 10
360.1365716826635
 20
242.8300575974144
 30
0.0
 40
1.999978776175806
100
AcDbArc
 50
180.0007041704354
 51
261.6198125828769
  0
LINE
  5
A19
330
1A
100
AcDbEntity
  8
SEIHIN
  6
CONTINUOUS
 62
     3
100
AcDbLine
 10
458.6365929066387
 20
234.4785330174902
 30
0.0
 11
458.6365929066387
 21
228.6134330174902
 31
0.0
  0
LINE
  5
A1A
330
1A
100
AcDbEntity
  8
SEIHIN
  6
CONTINUOUS
 62
     3
100
AcDbLine
 10
440.1365929066387
 20
230.7496330174903
 30
0.0
 11
440.1365929066387
 21
232.5795330174901
 31
0.0
  0
ARC
  5
A1B
330
1A
100
AcDbEntity
  8
SEIHIN
  6
CONTINUOUS
 62
     3
100
AcDbCircle
 10
436.1366141306139
 20
231.6335513437111
 30
0.0
 40
1.999978776108628
100
AcDbArc
 50
261.6185833993114
 51
359.9994749868718
  0
LINE
  5
A1C
330
1A
100
AcDbEntity
  8
SEIHIN
  6
CONTINUOUS
 62
     3
100
AcDbLine
 10
435.8450929066386
 20
229.6549330174903
 30
0.0
 11
421.3450929066387
 21
231.7910330174902
 31
0.0
  0
LINE
  5
A1D
330
1A
100
AcDbEntity
  8
SEIHIN
  6
CONTINUOUS
 62
     3
100
AcDbLine
 10
415.9178929066386
 20
232.5905330174903
 30
0.0
 11
409.8907929066387
 21
233.4785330174902
 31
0.0
  0
LINE
  5
A1E
330
1A
100
AcDbEntity
  8
SEIHIN
  6
CONTINUOUS
 62
     3
100
AcDbLine
 10
409.8907929066387
 20
236.4785330174902
 30
0.0
 11
416.1365929066387
 21
236.4785330174902
 31
0.0
  0
LINE
  5
A1F
330
1A
100
AcDbEntity
  8
SEIHIN
  6
CONTINUOUS
 62
     3
100
AcDbLine
 10
401.1365929066387
 20
238.4785330174902
 30
0.0
 11
415.6365929066387
 21
238.4785330174902
 31
0.0
  0
LINE
  5
A20
330
1A
100
AcDbEntity
  8
SEIHIN
  6
CONTINUOUS
 62
     3
100
AcDbLine
 10
401.1365929066387
 20
278.4785330174902
 30
0.0
 11
415.6365929066387
 21
278.4785330174902
 31
0.0
  0
LINE
  5
A21
330
1A
100
AcDbEntity
  8
SEIHIN
  6
CONTINUOUS
 62
     3
100
AcDbLine
 10
401.1365929066387
 20
296.4785330174902
 30
0.0
 11
415.6365929066387
 21
296.4785330174902
 31
0.0
  0
LINE
  5
A22
330
1A
100
AcDbEntity
  8
SEIHIN
  6
CONTINUOUS
 62
     3
100
AcDbLine
 10
401.1365929066387
 20
258.4785330174902
 30
0.0
 11
415.6365929066387
 21
258.4785330174902
 31
0.0
  0
LINE
  5
A23
330
1A
100
AcDbEntity
  8
SEIHIN
  6
CONTINUOUS
 62
     3
100
AcDbLine
 10
401.1365929066387
 20
276.4785330174902
 30
0.0
 11
415.6365929066387
 21
276.4785330174902
 31
0.0
  0
LINE
  5
A24
330
1A
100
AcDbEntity
  8
SEIHIN
  6
CONTINUOUS
 62
     3
100
AcDbLine
 10
401.1365929066387
 20
256.4785330174902
 30
0.0
 11
415.6365929066387
 21
256.4785330174902
 31
0.0
  0
LINE
  5
A25
330
1A
100
AcDbEntity
  8
SEIHIN
  6
CONTINUOUS
 62
     3
100
AcDbLine
 10
399.1365929066387
 20
260.4785330174902
 30
0.0
 11
399.1365929066387
 21
274.4785330174902
 31
0.0
  0
LINE
  5
A26
330
1A
100
AcDbEntity
  8
SEIHIN
  6
CONTINUOUS
 62
     3
100
AcDbLine
 10
397.1365929066387
 20
274.4785330174902
 30
0.0
 11
397.1365929066387
 21
260.4785330174902
 31
0.0
  0
LINE
  5
A27
330
1A
100
AcDbEntity
  8
SEIHIN
  6
CONTINUOUS
 62
     3
100
AcDbLine
 10
378.6365929066387
 20
260.4785330174902
 30
0.0
 11
378.6365929066387
 21
274.4785330174902
 31
0.0
  0
LINE
  5
A28
330
1A
100
AcDbEntity
  8
SEIHIN
  6
CONTINUOUS
 62
     3
100
AcDbLine
 10
376.6365929066387
 20
274.4785330174902
 30
0.0
 11
376.6365929066387
 21
260.4785330174902
 31
0.0
  0
LINE
  5
A29
330
1A
100
AcDbEntity
  8
SEIHIN
  6
CONTINUOUS
 62
     3
100
AcDbLine
 10
380.6365929066387
 20
278.4785330174902
 30
0.0
 11
395.1365929066387
 21
278.4785330174902
 31
0.0
  0
LINE
  5
A2A
330
1A
100
AcDbEntity
  8
SEIHIN
  6
CONTINUOUS
 62
     3
100
AcDbLine
 10
380.6365929066387
 20
276.4785330174902
 30
0.0
 11
395.1365929066387
 21
276.4785330174902
 31
0.0
  0
LINE
  5
A2B
330
1A
100
AcDbEntity
  8
SEIHIN
  6
CONTINUOUS
 62
     3
100
AcDbLine
 10
380.6365929066387
 20
296.4785330174902
 30
0.0
 11
395.1365929066387
 21
296.4785330174902
 31
0.0
  0
LINE
  5
A2C
330
1A
100
AcDbEntity
  8
SEIHIN
  6
CONTINUOUS
 62
     3
100
AcDbLine
 10
378.6365929066387
 20
280.4785330174902
 30
0.0
 11
378.6365929066387
 21
294.4785330174902
 31
0.0
  0
LINE
  5
A2D
330
1A
100
AcDbEntity
  8
SEIHIN
  6
CONTINUOUS
 62
     3
100
AcDbLine
 10
376.6365929066387
 20
294.4785330174902
 30
0.0
 11
376.6365929066387
 21
280.4785330174902
 31
0.0
  0
ARC
  5
A2E
330
1A
100
AcDbEntity
  8
SEIHIN
  6
CONTINUOUS
 62
     3
100
AcDbCircle
 10
380.6365929066387
 20
294.4785330174902
 30
0.0
 40
2.0
100
AcDbArc
 50
90.0
 51
180.0
  0
ARC
  5
A2F
330
1A
100
AcDbEntity
  8
SEIHIN
  6
CONTINUOUS
 62
     3
100
AcDbCircle
 10
374.6365929066387
 20
294.4785330174902
 30
0.0
 40
2.0
100
AcDbArc
 50
0.0
 51
90.0
  0
ARC
  5
A30
330
1A
100
AcDbEntity
  8
SEIHIN
  6
CONTINUOUS
 62
     3
100
AcDbCircle
 10
380.6365929066387
 20
280.4785330174902
 30
0.0
 40
2.0
100
AcDbArc
 50
180.0
 51
270.0
  0
ARC
  5
A31
330
1A
100
AcDbEntity
  8
SEIHIN
  6
CONTINUOUS
 62
     3
100
AcDbCircle
 10
380.6365929066387
 20
274.4785330174902
 30
0.0
 40
2.0
100
AcDbArc
 50
90.0
 51
180.0
  0
ARC
  5
A32
330
1A
100
AcDbEntity
  8
SEIHIN
  6
CONTINUOUS
 62
     3
100
AcDbCircle
 10
374.6365929066387
 20
280.4785330174902
 30
0.0
 40
2.0
100
AcDbArc
 50
270.0
 51
0.0
  0
ARC
  5
A33
330
1A
100
AcDbEntity
  8
SEIHIN
  6
CONTINUOUS
 62
     3
100
AcDbCircle
 10
374.6365929066387
 20
274.4785330174902
 30
0.0
 40
2.0
100
AcDbArc
 50
0.0
 51
90.0
  0
LINE
  5
A34
330
1A
100
AcDbEntity
  8
SEIHIN
  6
CONTINUOUS
 62
     3
100
AcDbLine
 10
399.1365929066387
 20
280.4785330174902
 30
0.0
 11
399.1365929066387
 21
294.4785330174902
 31
0.0
  0
LINE
  5
A35
330
1A
100
AcDbEntity
  8
SEIHIN
  6
CONTINUOUS
 62
     3
100
AcDbLine
 10
397.1365929066387
 20
294.4785330174902
 30
0.0
 11
397.1365929066387
 21
280.4785330174902
 31
0.0
  0
ARC
  5
A36
330
1A
100
AcDbEntity
  8
SEIHIN
  6
CONTINUOUS
 62
     3
100
AcDbCircle
 10
417.6366515145775
 20
347.4786142659413
 30
0.0
 40
64.00000459116123
100
AcDbArc
 50
251.317932387359
 51
253.1979218054809
  0
ARC
  5
A37
330
1A
100
AcDbEntity
  8
SEIHIN
  6
CONTINUOUS
 62
     3
100
AcDbCircle
 10
417.6390873114307
 20
347.4778064056777
 30
0.0
 40
61.99999842944826
100
AcDbArc
 50
250.6894222840254
 51
252.6367333926049
  0
ARC
  5
A38
330
1A
100
AcDbEntity
  8
SEIHIN
  6
CONTINUOUS
 62
     3
100
AcDbCircle
 10
401.1365929066387
 20
294.4785330174902
 30
0.0
 40
2.0
100
AcDbArc
 50
90.0
 51
180.0
  0
ARC
  5
A39
330
1A
100
AcDbEntity
  8
SEIHIN
  6
CONTINUOUS
 62
     3
100
AcDbCircle
 10
395.1365929066387
 20
294.4785330174902
 30
0.0
 40
2.0
100
AcDbArc
 50
0.0
 51
90.0
  0
ARC
  5
A3A
330
1A
100
AcDbEntity
  8
SEIHIN
  6
CONTINUOUS
 62
     3
100
AcDbCircle
 10
401.1365929066387
 20
280.47853301749
 30
0.0
 40
1.999999999999943
100
AcDbArc
 50
179.9999999999967
 51
270.0
  0
ARC
  5
A3B
330
1A
100
AcDbEntity
  8
SEIHIN
  6
CONTINUOUS
 62
     3
100
AcDbCircle
 10
401.1365929066387
 20
274.4785330174902
 30
0.0
 40
1.999999999999886
100
AcDbArc
 50
90.0
 51
180.0000000000032
  0
ARC
  5
A3C
330
1A
100
AcDbEntity
  8
SEIHIN
  6
CONTINUOUS
 62
     3
100
AcDbCircle
 10
395.1365929066387
 20
280.4785330174902
 30
0.0
 40
2.0
100
AcDbArc
 50
270.0
 51
0.0
  0
ARC
  5
A3D
330
1A
100
AcDbEntity
  8
SEIHIN
  6
CONTINUOUS
 62
     3
100
AcDbCircle
 10
395.1365929066387
 20
274.4785330174902
 30
0.0
 40
2.0
100
AcDbArc
 50
0.0
 51
90.0
  0
LINE
  5
A3E
330
1A
100
AcDbEntity
  8
SEIHIN
  6
CONTINUOUS
 62
     3
100
AcDbLine
 10
394.8450929066386
 20
235.6952330174904
 30
0.0
 11
380.3450929066386
 21
237.8313330174901
 31
0.0
  0
LINE
  5
A3F
330
1A
100
AcDbEntity
  8
SEIHIN
  6
CONTINUOUS
 62
     3
100
AcDbLine
 10
380.6365929066387
 20
258.4785330174902
 30
0.0
 11
395.1365929066387
 21
258.4785330174902
 31
0.0
  0
LINE
  5
A40
330
1A
100
AcDbEntity
  8
SEIHIN
  6
CONTINUOUS
 62
     3
100
AcDbLine
 10
380.6365929066387
 20
256.4785330174902
 30
0.0
 11
395.1365929066387
 21
256.4785330174902
 31
0.0
  0
LINE
  5
A41
330
1A
100
AcDbEntity
  8
SEIHIN
  6
CONTINUOUS
 62
     3
100
AcDbLine
 10
378.6365929066387
 20
239.8100330174902
 30
0.0
 11
378.6365929066387
 21
254.4785330174902
 31
0.0
  0
LINE
  5
A42
330
1A
100
AcDbEntity
  8
SEIHIN
  6
CONTINUOUS
 62
     3
100
AcDbLine
 10
376.6365929066387
 20
254.4785330174902
 30
0.0
 11
376.6365929066387
 21
240.6939330174902
 31
0.0
  0
ARC
  5
A43
330
1A
100
AcDbEntity
  8
SEIHIN
  6
CONTINUOUS
 62
     3
100
AcDbCircle
 10
380.6365929066387
 20
260.4785330174902
 30
0.0
 40
2.0
100
AcDbArc
 50
180.0
 51
270.0
  0
ARC
  5
A44
330
1A
100
AcDbEntity
  8
SEIHIN
  6
CONTINUOUS
 62
     3
100
AcDbCircle
 10
380.6365929066387
 20
254.4785330174902
 30
0.0
 40
2.0
100
AcDbArc
 50
90.0
 51
180.0
  0
ARC
  5
A45
330
1A
100
AcDbEntity
  8
SEIHIN
  6
CONTINUOUS
 62
     3
100
AcDbCircle
 10
374.6365929066387
 20
260.4785330174902
 30
0.0
 40
2.0
100
AcDbArc
 50
270.0
 51
0.0
  0
ARC
  5
A46
330
1A
100
AcDbEntity
  8
SEIHIN
  6
CONTINUOUS
 62
     3
100
AcDbCircle
 10
374.6365929066387
 20
254.4785330174902
 30
0.0
 40
2.0
100
AcDbArc
 50
0.0
 51
90.0
  0
ARC
  5
A47
330
1A
100
AcDbEntity
  8
SEIHIN
  6
CONTINUOUS
 62
     3
100
AcDbCircle
 10
380.6366211487397
 20
239.8100003099698
 30
0.0
 40
2.00002824236855
100
AcDbArc
 50
179.9990630117958
 51
261.6185889643026
  0
ARC
  5
A48
330
1A
100
AcDbEntity
  8
SEIHIN
  6
CONTINUOUS
 62
     3
100
AcDbCircle
 10
374.6365646645374
 20
240.6939086311633
 30
0.0
 40
2.000028242249887
100
AcDbArc
 50
261.6202245594457
 51
0.0006986069398803
  0
LINE
  5
A49
330
1A
100
AcDbEntity
  8
SEIHIN
  6
CONTINUOUS
 62
     3
100
AcDbLine
 10
399.1365929066387
 20
240.4785330174902
 30
0.0
 11
399.1365929066387
 21
254.4785330174902
 31
0.0
  0
LINE
  5
A4A
330
1A
100
AcDbEntity
  8
SEIHIN
  6
CONTINUOUS
 62
     3
100
AcDbLine
 10
397.1365929066387
 20
254.4785330174902
 30
0.0
 11
397.1365929066387
 21
237.6738330174903
 31
0.0
  0
ARC
  5
A4B
330
1A
100
AcDbEntity
  8
SEIHIN
  6
CONTINUOUS
 62
     3
100
AcDbCircle
 10
401.1365929066387
 20
260.4785330174899
 30
0.0
 40
1.999999999999943
100
AcDbArc
 50
179.9999999999967
 51
270.0
  0
ARC
  5
A4C
330
1A
100
AcDbEntity
  8
SEIHIN
  6
CONTINUOUS
 62
     3
100
AcDbCircle
 10
401.1365929066387
 20
254.4785330174902
 30
0.0
 40
1.999999999999886
100
AcDbArc
 50
90.0
 51
180.0000000000032
  0
ARC
  5
A4D
330
1A
100
AcDbEntity
  8
SEIHIN
  6
CONTINUOUS
 62
     3
100
AcDbCircle
 10
395.1365929066387
 20
260.4785330174902
 30
0.0
 40
2.0
100
AcDbArc
 50
270.0
 51
0.0
  0
ARC
  5
A4E
330
1A
100
AcDbEntity
  8
SEIHIN
  6
CONTINUOUS
 62
     3
100
AcDbCircle
 10
395.1365929066387
 20
254.4785330174902
 30
0.0
 40
2.0
100
AcDbArc
 50
0.0
 51
90.0
  0
ARC
  5
A4F
330
1A
100
AcDbEntity
  8
SEIHIN
  6
CONTINUOUS
 62
     3
100
AcDbCircle
 10
409.8907929066387
 20
234.9785330174902
 30
0.0
 40
1.5
100
AcDbArc
 50
90.0
 51
270.0
  0
ARC
  5
A50
330
1A
100
AcDbEntity
  8
SEIHIN
  6
CONTINUOUS
 62
     3
100
AcDbCircle
 10
401.1365929066387
 20
240.4785330174902
 30
0.0
 40
2.000000000000056
100
AcDbArc
 50
179.9999999999967
 51
269.9999999999967
  0
ARC
  5
A51
330
1A
100
AcDbEntity
  8
SEIHIN
  6
CONTINUOUS
 62
     3
100
AcDbCircle
 10
395.1366141306138
 20
237.6738513437112
 30
0.0
 40
1.999978776108741
100
AcDbArc
 50
261.6185833993119
 51
359.9994749868718
  0
LINE
  5
A52
330
1A
100
AcDbEntity
  8
SEIHIN
  6
CONTINUOUS
 62
     3
100
AcDbLine
 10
458.6365929066387
 20
274.4785330174902
 30
0.0
 11
458.6365929066387
 21
260.4785330174902
 31
0.0
  0
LINE
  5
A53
330
1A
100
AcDbEntity
  8
SEIHIN
  6
CONTINUOUS
 62
     3
100
AcDbLine
 10
440.1365929066387
 20
260.4785330174902
 30
0.0
 11
440.1365929066387
 21
272.5795330174901
 31
0.0
  0
LINE
  5
A54
330
1A
100
AcDbEntity
  8
SEIHIN
  6
CONTINUOUS
 62
     3
100
AcDbLine
 10
438.1365929066387
 20
272.5795330174901
 30
0.0
 11
438.1365929066387
 21
260.4785330174902
 31
0.0
  0
LINE
  5
A55
330
1A
100
AcDbEntity
  8
SEIHIN
  6
CONTINUOUS
 62
     3
100
AcDbLine
 10
419.6365929066387
 20
260.4785330174902
 30
0.0
 11
419.6365929066387
 21
274.4785330174902
 31
0.0
  0
LINE
  5
A56
330
1A
100
AcDbEntity
  8
SEIHIN
  6
CONTINUOUS
 62
     3
100
AcDbLine
 10
417.6365929066387
 20
274.4785330174902
 30
0.0
 11
417.6365929066387
 21
260.4785330174902
 31
0.0
  0
ARC
  5
A57
330
1A
100
AcDbEntity
  8
SEIHIN
  6
CONTINUOUS
 62
     3
100
AcDbCircle
 10
436.1365929066387
 20
294.4785330174902
 30
0.0
 40
2.0
100
AcDbArc
 50
0.0
 51
90.0
  0
ARC
  5
A58
330
1A
100
AcDbEntity
  8
SEIHIN
  6
CONTINUOUS
 62
     3
100
AcDbCircle
 10
439.1365929066387
 20
277.4785330174902
 30
0.0
 40
5.0
100
AcDbArc
 50
90.0
 51
270.0
  0
LINE
  5
A59
330
1A
100
AcDbEntity
  8
SEIHIN
  6
CONTINUOUS
 62
     3
100
AcDbLine
 10
419.6365929066387
 20
280.4785330174902
 30
0.0
 11
419.6365929066387
 21
294.4785330174902
 31
0.0
  0
LINE
  5
A5A
330
1A
100
AcDbEntity
  8
SEIHIN
  6
CONTINUOUS
 62
     3
100
AcDbLine
 10
417.6365929066387
 20
294.4785330174902
 30
0.0
 11
417.6365929066387
 21
280.4785330174902
 31
0.0
  0
ARC
  5
A5B
330
1A
100
AcDbEntity
  8
SEIHIN
  6
CONTINUOUS
 62
     3
100
AcDbCircle
 10
417.6355539998287
 20
347.4786162565583
 30
0.0
 40
61.99998324777248
100
AcDbArc
 50
270.0009600805096
 51
271.8495327255626
  0
ARC
  5
A5C
330
1A
100
AcDbEntity
  8
SEIHIN
  6
CONTINUOUS
 62
     3
100
AcDbCircle
 10
417.6352381604906
 20
347.4786118443969
 30
0.0
 40
63.99997884124541
100
AcDbArc
 50
270.0012128322228
 51
271.7919986768275
  0
ARC
  5
A5D
330
1A
100
AcDbEntity
  8
SEIHIN
  6
CONTINUOUS
 62
     3
100
AcDbCircle
 10
421.6365929066387
 20
294.4785330174902
 30
0.0
 40
2.0
100
AcDbArc
 50
90.0
 51
180.0
  0
ARC
  5
A5E
330
1A
100
AcDbEntity
  8
SEIHIN
  6
CONTINUOUS
 62
     3
100
AcDbCircle
 10
415.6365929066387
 20
294.4785330174902
 30
0.0
 40
2.0
100
AcDbArc
 50
0.0
 51
90.0
  0
LINE
  5
A5F
330
1A
100
AcDbEntity
  8
SEIHIN
  6
CONTINUOUS
 62
     3
100
AcDbLine
 10
421.6365929066387
 20
296.4785330174902
 30
0.0
 11
436.1365929066387
 21
296.4785330174902
 31
0.0
  0
ARC
  5
A60
330
1A
100
AcDbEntity
  8
SEIHIN
  6
CONTINUOUS
 62
     3
100
AcDbCircle
 10
421.6365929066387
 20
280.4785330174902
 30
0.0
 40
2.0
100
AcDbArc
 50
180.0
 51
270.0
  0
ARC
  5
A61
330
1A
100
AcDbEntity
  8
SEIHIN
  6
CONTINUOUS
 62
     3
100
AcDbCircle
 10
421.6365929066387
 20
274.4785330174902
 30
0.0
 40
2.0
100
AcDbArc
 50
90.0
 51
180.0
  0
ARC
  5
A62
330
1A
100
AcDbEntity
  8
SEIHIN
  6
CONTINUOUS
 62
     3
100
AcDbCircle
 10
415.6365929066387
 20
280.4785330174902
 30
0.0
 40
2.0
100
AcDbArc
 50
270.0
 51
0.0
  0
ARC
  5
A63
330
1A
100
AcDbEntity
  8
SEIHIN
  6
CONTINUOUS
 62
     3
100
AcDbCircle
 10
415.6365929066387
 20
274.4785330174902
 30
0.0
 40
2.0
100
AcDbArc
 50
0.0
 51
90.0
  0
LINE
  5
A64
330
1A
100
AcDbEntity
  8
SEIHIN
  6
CONTINUOUS
 62
     3
100
AcDbLine
 10
421.6365929066387
 20
278.4785330174902
 30
0.0
 11
434.2375929066386
 21
278.4785330174902
 31
0.0
  0
LINE
  5
A65
330
1A
100
AcDbEntity
  8
SEIHIN
  6
CONTINUOUS
 62
     3
100
AcDbLine
 10
421.6365929066387
 20
276.4785330174902
 30
0.0
 11
434.2375929066386
 21
276.4785330174902
 31
0.0
  0
LINE
  5
A66
330
1A
100
AcDbEntity
  8
SEIHIN
  6
CONTINUOUS
 62
     3
100
AcDbLine
 10
458.6365929066387
 20
294.4785330174902
 30
0.0
 11
458.6365929066387
 21
280.4785330174902
 31
0.0
  0
ARC
  5
A67
330
1A
100
AcDbEntity
  8
SEIHIN
  6
CONTINUOUS
 62
     3
100
AcDbCircle
 10
439.1365929066387
 20
277.4785330174902
 30
0.0
 40
5.0
100
AcDbArc
 50
270.0
 51
90.0
  0
ARC
  5
A68
330
1A
100
AcDbEntity
  8
SEIHIN
  6
CONTINUOUS
 62
     3
100
AcDbCircle
 10
456.6365929066387
 20
294.4785330174902
 30
0.0
 40
2.0
100
AcDbArc
 50
0.0
 51
90.0
  0
LINE
  5
A69
330
1A
100
AcDbEntity
  8
SEIHIN
  6
CONTINUOUS
 62
     3
100
AcDbLine
 10
440.1365929066387
 20
282.3775330174903
 30
0.0
 11
440.1365929066387
 21
294.4785330174902
 31
0.0
  0
LINE
  5
A6A
330
1A
100
AcDbEntity
  8
SEIHIN
  6
CONTINUOUS
 62
     3
100
AcDbLine
 10
438.1365929066387
 20
294.4785330174902
 30
0.0
 11
438.1365929066387
 21
282.3775330174903
 31
0.0
  0
LINE
  5
A6B
330
1A
100
AcDbEntity
  8
SEIHIN
  6
CONTINUOUS
 62
     3
100
AcDbLine
 10
440.1365929066387
 20
285.4785330174902
 30
0.0
 11
438.1365929066387
 21
285.4785330174902
 31
0.0
  0
LINE
  5
A6C
330
1A
100
AcDbEntity
  8
SEIHIN
  6
CONTINUOUS
 62
     3
100
AcDbLine
 10
440.1365929066387
 20
283.4785330174902
 30
0.0
 11
438.1365929066387
 21
283.4785330174902
 31
0.0
  0
ARC
  5
A6D
330
1A
100
AcDbEntity
  8
SEIHIN
  6
CONTINUOUS
 62
     3
100
AcDbCircle
 10
442.1365929066387
 20
294.4785330174902
 30
0.0
 40
2.0
100
AcDbArc
 50
90.0
 51
180.0
  0
LINE
  5
A6E
330
1A
100
AcDbEntity
  8
SEIHIN
  6
CONTINUOUS
 62
     3
100
AcDbLine
 10
442.1365929066387
 20
296.4785330174902
 30
0.0
 11
456.6365929066387
 21
296.4785330174902
 31
0.0
  0
ARC
  5
A6F
330
1A
100
AcDbEntity
  8
SEIHIN
  6
CONTINUOUS
 62
     3
100
AcDbCircle
 10
456.6365929066387
 20
280.4785330174902
 30
0.0
 40
2.0
100
AcDbArc
 50
270.0
 51
0.0
  0
ARC
  5
A70
330
1A
100
AcDbEntity
  8
SEIHIN
  6
CONTINUOUS
 62
     3
100
AcDbCircle
 10
456.6365929066387
 20
274.4785330174902
 30
0.0
 40
2.0
100
AcDbArc
 50
0.0
 51
90.0
  0
LINE
  5
A71
330
1A
100
AcDbEntity
  8
SEIHIN
  6
CONTINUOUS
 62
     3
100
AcDbLine
 10
444.0355929066385
 20
278.4785330174902
 30
0.0
 11
456.6365929066387
 21
278.4785330174902
 31
0.0
  0
LINE
  5
A72
330
1A
100
AcDbEntity
  8
SEIHIN
  6
CONTINUOUS
 62
     3
100
AcDbLine
 10
444.0355929066385
 20
276.4785330174902
 30
0.0
 11
456.6365929066387
 21
276.4785330174902
 31
0.0
  0
ARC
  5
A73
330
1A
100
AcDbEntity
  8
SEIHIN
  6
CONTINUOUS
 62
     3
100
AcDbCircle
 10
439.1365929066387
 20
237.4785330174902
 30
0.0
 40
5.0
100
AcDbArc
 50
90.0
 51
270.0
  0
ARC
  5
A74
330
1A
100
AcDbEntity
  8
SEIHIN
  6
CONTINUOUS
 62
     3
100
AcDbCircle
 10
436.1365929066387
 20
260.4785330174902
 30
0.0
 40
2.0
100
AcDbArc
 50
270.0
 51
0.0
  0
ARC
  5
A75
330
1A
100
AcDbEntity
  8
SEIHIN
  6
CONTINUOUS
 62
     3
100
AcDbCircle
 10
436.1365929066387
 20
254.4785330174902
 30
0.0
 40
2.0
100
AcDbArc
 50
0.0
 51
90.0
  0
LINE
  5
A76
330
1A
100
AcDbEntity
  8
SEIHIN
  6
CONTINUOUS
 62
     3
100
AcDbLine
 10
419.6365929066387
 20
240.4785330174902
 30
0.0
 11
419.6365929066387
 21
254.4785330174902
 31
0.0
  0
LINE
  5
A77
330
1A
100
AcDbEntity
  8
SEIHIN
  6
CONTINUOUS
 62
     3
100
AcDbLine
 10
417.6365929066387
 20
254.4785330174902
 30
0.0
 11
417.6365929066387
 21
240.4785330174902
 31
0.0
  0
ARC
  5
A78
330
1A
100
AcDbEntity
  8
SEIHIN
  6
CONTINUOUS
 62
     3
100
AcDbCircle
 10
421.6365929066387
 20
260.4785330174902
 30
0.0
 40
2.0
100
AcDbArc
 50
180.0
 51
270.0
  0
ARC
  5
A79
330
1A
100
AcDbEntity
  8
SEIHIN
  6
CONTINUOUS
 62
     3
100
AcDbCircle
 10
421.6365929066387
 20
254.4785330174902
 30
0.0
 40
2.0
100
AcDbArc
 50
90.0
 51
180.0
  0
ARC
  5
A7A
330
1A
100
AcDbEntity
  8
SEIHIN
  6
CONTINUOUS
 62
     3
100
AcDbCircle
 10
415.6365929066387
 20
260.4785330174902
 30
0.0
 40
2.0
100
AcDbArc
 50
270.0
 51
0.0
  0
ARC
  5
A7B
330
1A
100
AcDbEntity
  8
SEIHIN
  6
CONTINUOUS
 62
     3
100
AcDbCircle
 10
415.6365929066387
 20
254.4785330174902
 30
0.0
 40
2.0
100
AcDbArc
 50
0.0
 51
90.0
  0
LINE
  5
A7C
330
1A
100
AcDbEntity
  8
SEIHIN
  6
CONTINUOUS
 62
     3
100
AcDbLine
 10
421.6365929066387
 20
258.4785330174902
 30
0.0
 11
436.1365929066387
 21
258.4785330174902
 31
0.0
  0
LINE
  5
A7D
330
1A
100
AcDbEntity
  8
SEIHIN
  6
CONTINUOUS
 62
     3
100
AcDbLine
 10
421.6365929066387
 20
256.4785330174902
 30
0.0
 11
436.1365929066387
 21
256.4785330174902
 31
0.0
  0
LINE
  5
A7E
330
1A
100
AcDbEntity
  8
SEIHIN
  6
CONTINUOUS
 62
     3
100
AcDbLine
 10
419.6365929066387
 20
233.7697330174903
 30
0.0
 11
419.6365929066387
 21
234.4785330174902
 31
0.0
  0
ARC
  5
A7F
330
1A
100
AcDbEntity
  8
SEIHIN
  6
CONTINUOUS
 62
     3
100
AcDbCircle
 10
421.6366211487399
 20
233.7697003099701
 30
0.0
 40
2.000028242368721
100
AcDbArc
 50
179.9990630117991
 51
261.6185889643035
  0
ARC
  5
A80
330
1A
100
AcDbEntity
  8
SEIHIN
  6
CONTINUOUS
 62
     3
100
AcDbCircle
 10
416.1365786251081
 20
234.074620686403
 30
0.0
 40
1.500014281581399
100
AcDbArc
 50
261.6170236414695
 51
0.0004710083464292
  0
ARC
  5
A81
330
1A
100
AcDbEntity
  8
SEIHIN
  6
CONTINUOUS
 62
     3
100
AcDbCircle
 10
416.1365929066387
 20
234.9785330174902
 30
0.0
 40
1.5
100
AcDbArc
 50
0.0
 51
89.99999999999785
  0
ARC
  5
A82
330
1A
100
AcDbEntity
  8
SEIHIN
  6
CONTINUOUS
 62
     3
100
AcDbCircle
 10
421.6365929066387
 20
240.4785330174902
 30
0.0
 40
2.000000000000056
100
AcDbArc
 50
180.0
 51
269.9999999999983
  0
ARC
  5
A83
330
1A
100
AcDbEntity
  8
SEIHIN
  6
CONTINUOUS
 62
     3
100
AcDbCircle
 10
415.6365929066387
 20
240.4785330174902
 30
0.0
 40
2.000000000000113
100
AcDbArc
 50
270.0000000000016
 51
0.0
  0
LINE
  5
A84
330
1A
100
AcDbEntity
  8
SEIHIN
  6
CONTINUOUS
 62
     3
100
AcDbLine
 10
417.6365929066387
 20
234.9785330174902
 30
0.0
 11
417.6365929066387
 21
234.0746330174902
 31
0.0
  0
ARC
  5
A85
330
1A
100
AcDbEntity
  8
SEIHIN
  6
CONTINUOUS
 62
     3
100
AcDbCircle
 10
421.6365929066387
 20
234.4785330174902
 30
0.0
 40
2.0
100
AcDbArc
 50
90.00000000000161
 51
180.0000000000032
  0
LINE
  5
A86
330
1A
100
AcDbEntity
  8
SEIHIN
  6
CONTINUOUS
 62
     3
100
AcDbLine
 10
421.6365929066387
 20
238.4785330174902
 30
0.0
 11
434.2375929066386
 21
238.4785330174902
 31
0.0
  0
LINE
  5
A87
330
1A
100
AcDbEntity
  8
SEIHIN
  6
CONTINUOUS
 62
     3
100
AcDbLine
 10
421.6365929066387
 20
236.4785330174902
 30
0.0
 11
434.2375929066386
 21
236.4785330174902
 31
0.0
  0
LINE
  5
A88
330
1A
100
AcDbEntity
  8
SEIHIN
  6
CONTINUOUS
 62
     3
100
AcDbLine
 10
458.6365929066387
 20
254.4785330174902
 30
0.0
 11
458.6365929066387
 21
240.4785330174902
 31
0.0
  0
LINE
  5
A89
330
1A
100
AcDbEntity
  8
SEIHIN
  6
CONTINUOUS
 62
     3
100
AcDbLine
 10
440.1365929066387
 20
242.3775330174901
 30
0.0
 11
440.1365929066387
 21
254.4785330174902
 31
0.0
  0
LINE
  5
A8A
330
1A
100
AcDbEntity
  8
SEIHIN
  6
CONTINUOUS
 62
     3
100
AcDbLine
 10
438.1365929066387
 20
254.4785330174902
 30
0.0
 11
438.1365929066387
 21
242.3775330174901
 31
0.0
  0
ARC
  5
A8B
330
1A
100
AcDbEntity
  8
SEIHIN
  6
CONTINUOUS
 62
     3
100
AcDbCircle
 10
456.6365929066387
 20
260.4785330174902
 30
0.0
 40
2.0
100
AcDbArc
 50
270.0
 51
0.0
  0
ARC
  5
A8C
330
1A
100
AcDbEntity
  8
SEIHIN
  6
CONTINUOUS
 62
     3
100
AcDbCircle
 10
456.6365929066387
 20
254.4785330174902
 30
0.0
 40
2.0
100
AcDbArc
 50
0.0
 51
90.0
  0
ARC
  5
A8D
330
1A
100
AcDbEntity
  8
SEIHIN
  6
CONTINUOUS
 62
     3
100
AcDbCircle
 10
442.1365929066387
 20
260.4785330174902
 30
0.0
 40
2.0
100
AcDbArc
 50
180.0
 51
270.0
  0
ARC
  5
A8E
330
1A
100
AcDbEntity
  8
SEIHIN
  6
CONTINUOUS
 62
     3
100
AcDbCircle
 10
442.1365929066387
 20
254.4785330174902
 30
0.0
 40
2.0
100
AcDbArc
 50
90.0
 51
180.0
  0
LINE
  5
A8F
330
1A
100
AcDbEntity
  8
SEIHIN
  6
CONTINUOUS
 62
     3
100
AcDbLine
 10
442.1365929066387
 20
258.4785330174902
 30
0.0
 11
456.6365929066387
 21
258.4785330174902
 31
0.0
  0
LINE
  5
A90
330
1A
100
AcDbEntity
  8
SEIHIN
  6
CONTINUOUS
 62
     3
100
AcDbLine
 10
442.1365929066387
 20
256.4785330174902
 30
0.0
 11
456.6365929066387
 21
256.4785330174902
 31
0.0
  0
ARC
  5
A91
330
1A
100
AcDbEntity
  8
SEIHIN
  6
CONTINUOUS
 62
     3
100
AcDbCircle
 10
456.6365929066384
 20
240.4785330174902
 30
0.0
 40
2.000000000000113
100
AcDbArc
 50
270.0000000000016
 51
0.0
  0
ARC
  5
A92
330
1A
100
AcDbEntity
  8
SEIHIN
  6
CONTINUOUS
 62
     3
100
AcDbCircle
 10
456.6365929066384
 20
234.4785330174902
 30
0.0
 40
2.000000000000056
100
AcDbArc
 50
359.9999999999967
 51
89.99999999999836
  0
LINE
  5
A93
330
1A
100
AcDbEntity
  8
SEIHIN
  6
CONTINUOUS
 62
     3
100
AcDbLine
 10
438.1365929066387
 20
232.5795330174901
 30
0.0
 11
438.1365929066387
 21
231.6335330174902
 31
0.0
  0
ARC
  5
A94
330
1A
100
AcDbEntity
  8
SEIHIN
  6
CONTINUOUS
 62
     3
100
AcDbCircle
 10
439.1365929066387
 20
237.4785330174902
 30
0.0
 40
5.0
100
AcDbArc
 50
270.0
 51
90.0
  0
LINE
  5
A95
330
1A
100
AcDbEntity
  8
SEIHIN
  6
CONTINUOUS
 62
     3
100
AcDbLine
 10
444.0355929066385
 20
238.4785330174902
 30
0.0
 11
456.6365929066387
 21
238.4785330174902
 31
0.0
  0
LINE
  5
A96
330
1A
100
AcDbEntity
  8
SEIHIN
  6
CONTINUOUS
 62
     3
100
AcDbLine
 10
444.0355929066385
 20
236.4785330174902
 30
0.0
 11
456.6365929066387
 21
236.4785330174902
 31
0.0
  0
ARC
  5
A97
330
1A
100
AcDbEntity
  8
SEIHIN
  6
CONTINUOUS
 62
     3
100
AcDbCircle
 10
456.6366141306139
 20
228.6134513437111
 30
0.0
 40
1.999978776108724
100
AcDbArc
 50
261.6185833993152
 51
359.9994749868751
  0
ARC
  5
A98
330
1A
100
AcDbEntity
  8
SEIHIN
  6
CONTINUOUS
 62
     3
100
AcDbCircle
 10
442.1365716826635
 20
230.7496575974146
 30
0.0
 40
1.999978776175919
100
AcDbArc
 50
180.0007041704354
 51
261.6198125828769
  0
LINE
  5
A99
330
1A
100
AcDbEntity
  8
SEIHIN
  6
CONTINUOUS
 62
     3
100
AcDbLine
 10
456.3450929066386
 20
226.6348330174901
 30
0.0
 11
441.8450929066387
 21
228.7710330174902
 31
0.0
  0
ARC
  5
A9A
330
1A
100
AcDbEntity
  8
SEIHIN
  6
CONTINUOUS
 62
     3
100
AcDbCircle
 10
292.6365929066387
 20
118.6439330174903
 30
0.0
 40
5.000000000000028
100
AcDbArc
 50
180.0
 51
270.0000000000006
  0
LINE
  5
A9B
330
1A
100
AcDbEntity
  8
SEIHIN
  6
CONTINUOUS
 62
     3
100
AcDbLine
 10
287.6365929066387
 20
126.6439330174903
 30
0.0
 11
287.6365929066387
 21
118.6439330174903
 31
0.0
  0
ARC
  5
A9C
330
1A
100
AcDbEntity
  8
SEIHIN
  6
CONTINUOUS
 62
     3
100
AcDbCircle
 10
292.6365929066387
 20
120.1439330174901
 30
0.0
 40
5.000000000000113
100
AcDbArc
 50
270.0
 51
90.0
  0
ARC
  5
A9D
330
1A
100
AcDbEntity
  8
SEIHIN
  6
CONTINUOUS
 62
     3
100
AcDbCircle
 10
292.6365929066387
 20
120.1439330174901
 30
0.0
 40
5.000000000000113
100
AcDbArc
 50
90.0
 51
270.0
  0
LINE
  5
A9E
330
1A
100
AcDbEntity
  8
SEIHIN
  6
CONTINUOUS
 62
     3
100
AcDbLine
 10
540.6365929066387
 20
234.4785330174902
 30
0.0
 11
540.6365929066387
 21
220.4785330174902
 31
0.0
  0
LINE
  5
A9F
330
1A
100
AcDbEntity
  8
SEIHIN
  6
CONTINUOUS
 62
     3
100
AcDbLine
 10
522.1365929066386
 20
220.4785330174902
 30
0.0
 11
522.1365929066386
 21
232.5795330174901
 31
0.0
  0
LINE
  5
AA0
330
1A
100
AcDbEntity
  8
SEIHIN
  6
CONTINUOUS
 62
     3
100
AcDbLine
 10
520.1365929066387
 20
232.5795330174901
 30
0.0
 11
520.1365929066387
 21
220.4785330174902
 31
0.0
  0
LINE
  5
AA1
330
1A
100
AcDbEntity
  8
SEIHIN
  6
CONTINUOUS
 62
     3
100
AcDbLine
 10
501.6365929066387
 20
221.68943301749
 30
0.0
 11
501.6365929066387
 21
234.4785330174902
 31
0.0
  0
LINE
  5
AA2
330
1A
100
AcDbEntity
  8
SEIHIN
  6
CONTINUOUS
 62
     3
100
AcDbLine
 10
499.6365929066387
 20
234.4785330174902
 30
0.0
 11
499.6365929066387
 21
222.5733330174903
 31
0.0
  0
LINE
  5
AA3
330
1A
100
AcDbEntity
  8
SEIHIN
  6
CONTINUOUS
 62
     3
100
AcDbLine
 10
481.1365929066387
 20
224.7094330174902
 30
0.0
 11
481.1365929066387
 21
232.5795330174901
 31
0.0
  0
LINE
  5
AA4
330
1A
100
AcDbEntity
  8
SEIHIN
  6
CONTINUOUS
 62
     3
100
AcDbLine
 10
479.1365929066387
 20
232.5795330174901
 30
0.0
 11
479.1365929066387
 21
225.59343301749
 31
0.0
  0
LINE
  5
AA5
330
1A
100
AcDbEntity
  8
SEIHIN
  6
CONTINUOUS
 62
     3
100
AcDbLine
 10
460.6365929066387
 20
234.4785330174902
 30
0.0
 11
460.6365929066387
 21
227.7295330174902
 31
0.0
  0
LINE
  5
AA6
330
1A
100
AcDbEntity
  8
SEIHIN
  6
CONTINUOUS
 62
     3
100
AcDbLine
 10
503.6365929066387
 20
238.4785330174902
 30
0.0
 11
516.2375929066388
 21
238.4785330174902
 31
0.0
  0
LINE
  5
AA7
330
1A
100
AcDbEntity
  8
SEIHIN
  6
CONTINUOUS
 62
     3
100
AcDbLine
 10
503.6365929066387
 20
236.4785330174902
 30
0.0
 11
516.2375929066388
 21
236.4785330174902
 31
0.0
  0
LINE
  5
AA8
330
1A
100
AcDbEntity
  8
SEIHIN
  6
CONTINUOUS
 62
     3
100
AcDbLine
 10
503.6365929066387
 20
278.4785330174902
 30
0.0
 11
516.2375929066388
 21
278.4785330174902
 31
0.0
  0
LINE
  5
AA9
330
1A
100
AcDbEntity
  8
SEIHIN
  6
CONTINUOUS
 62
     3
100
AcDbLine
 10
503.6365929066387
 20
258.4785330174902
 30
0.0
 11
518.1365929066386
 21
258.4785330174902
 31
0.0
  0
LINE
  5
AAA
330
1A
100
AcDbEntity
  8
SEIHIN
  6
CONTINUOUS
 62
     3
100
AcDbLine
 10
503.6365929066387
 20
276.4785330174902
 30
0.0
 11
516.2375929066388
 21
276.4785330174902
 31
0.0
  0
LINE
  5
AAB
330
1A
100
AcDbEntity
  8
SEIHIN
  6
CONTINUOUS
 62
     3
100
AcDbLine
 10
503.6365929066387
 20
256.4785330174902
 30
0.0
 11
518.1365929066386
 21
256.4785330174902
 31
0.0
  0
LINE
  5
AAC
330
1A
100
AcDbEntity
  8
SEIHIN
  6
CONTINUOUS
 62
     3
100
AcDbLine
 10
503.6365929066387
 20
296.4785330174902
 30
0.0
 11
518.1365929066386
 21
296.4785330174902
 31
0.0
  0
LINE
  5
AAD
330
1A
100
AcDbEntity
  8
SEIHIN
  6
CONTINUOUS
 62
     3
100
AcDbLine
 10
501.6365929066387
 20
260.4785330174902
 30
0.0
 11
501.6365929066387
 21
274.4785330174902
 31
0.0
  0
LINE
  5
AAE
330
1A
100
AcDbEntity
  8
SEIHIN
  6
CONTINUOUS
 62
     3
100
AcDbLine
 10
499.6365929066387
 20
274.4785330174902
 30
0.0
 11
499.6365929066387
 21
260.4785330174902
 31
0.0
  0
LINE
  5
AAF
330
1A
100
AcDbEntity
  8
SEIHIN
  6
CONTINUOUS
 62
     3
100
AcDbLine
 10
481.1365929066387
 20
260.4785330174902
 30
0.0
 11
481.1365929066387
 21
272.5795330174901
 31
0.0
  0
LINE
  5
AB0
330
1A
100
AcDbEntity
  8
SEIHIN
  6
CONTINUOUS
 62
     3
100
AcDbLine
 10
479.1365929066387
 20
272.5795330174901
 30
0.0
 11
479.1365929066387
 21
260.4785330174902
 31
0.0
  0
LINE
  5
AB1
330
1A
100
AcDbEntity
  8
SEIHIN
  6
CONTINUOUS
 62
     3
100
AcDbLine
 10
460.6365929066387
 20
260.4785330174902
 30
0.0
 11
460.6365929066387
 21
274.4785330174902
 31
0.0
  0
ARC
  5
AB2
330
1A
100
AcDbEntity
  8
SEIHIN
  6
CONTINUOUS
 62
     3
100
AcDbCircle
 10
480.1365929066387
 20
277.4785330174902
 30
0.0
 40
5.0
100
AcDbArc
 50
270.0
 51
90.0
  0
LINE
  5
AB3
330
1A
100
AcDbEntity
  8
SEIHIN
  6
CONTINUOUS
 62
     3
100
AcDbLine
 10
483.1365929066387
 20
296.4785330174902
 30
0.0
 11
497.6365929066387
 21
296.4785330174902
 31
0.0
  0
LINE
  5
AB4
330
1A
100
AcDbEntity
  8
SEIHIN
  6
CONTINUOUS
 62
     3
100
AcDbLine
 10
460.6365929066387
 20
280.4785330174902
 30
0.0
 11
460.6365929066387
 21
294.4785330174902
 31
0.0
  0
ARC
  5
AB5
330
1A
100
AcDbEntity
  8
SEIHIN
  6
CONTINUOUS
 62
     3
100
AcDbCircle
 10
480.1365929066387
 20
277.4785330174902
 30
0.0
 40
5.0
100
AcDbArc
 50
90.0
 51
270.0
  0
LINE
  5
AB6
330
1A
100
AcDbEntity
  8
SEIHIN
  6
CONTINUOUS
 62
     3
100
AcDbLine
 10
481.1365929066387
 20
282.3775330174903
 30
0.0
 11
481.1365929066387
 21
294.4785330174902
 31
0.0
  0
LINE
  5
AB7
330
1A
100
AcDbEntity
  8
SEIHIN
  6
CONTINUOUS
 62
     3
100
AcDbLine
 10
479.1365929066387
 20
294.4785330174902
 30
0.0
 11
479.1365929066387
 21
282.3775330174903
 31
0.0
  0
LINE
  5
AB8
330
1A
100
AcDbEntity
  8
SEIHIN
  6
CONTINUOUS
 62
     3
100
AcDbLine
 10
481.1365929066387
 20
285.4785330174902
 30
0.0
 11
479.1365929066387
 21
285.4785330174902
 31
0.0
  0
LINE
  5
AB9
330
1A
100
AcDbEntity
  8
SEIHIN
  6
CONTINUOUS
 62
     3
100
AcDbLine
 10
481.1365929066387
 20
283.4785330174902
 30
0.0
 11
479.1365929066387
 21
283.4785330174902
 31
0.0
  0
ARC
  5
ABA
330
1A
100
AcDbEntity
  8
SEIHIN
  6
CONTINUOUS
 62
     3
100
AcDbCircle
 10
483.1365929066387
 20
294.4785330174902
 30
0.0
 40
2.0
100
AcDbArc
 50
90.0
 51
180.0
  0
ARC
  5
ABB
330
1A
100
AcDbEntity
  8
SEIHIN
  6
CONTINUOUS
 62
     3
100
AcDbCircle
 10
477.1365929066387
 20
294.4785330174902
 30
0.0
 40
2.0
100
AcDbArc
 50
0.0
 51
90.0
  0
LINE
  5
ABC
330
1A
100
AcDbEntity
  8
SEIHIN
  6
CONTINUOUS
 62
     3
100
AcDbLine
 10
462.6365929066387
 20
296.4785330174902
 30
0.0
 11
477.1365929066387
 21
296.4785330174902
 31
0.0
  0
LINE
  5
ABD
330
1A
100
AcDbEntity
  8
SEIHIN
  6
CONTINUOUS
 62
     3
100
AcDbLine
 10
462.6365929066387
 20
278.4785330174902
 30
0.0
 11
475.2375929066386
 21
278.4785330174902
 31
0.0
  0
LINE
  5
ABE
330
1A
100
AcDbEntity
  8
SEIHIN
  6
CONTINUOUS
 62
     3
100
AcDbLine
 10
462.6365929066387
 20
276.4785330174902
 30
0.0
 11
475.2375929066386
 21
276.4785330174902
 31
0.0
  0
LINE
  5
ABF
330
1A
100
AcDbEntity
  8
SEIHIN
  6
CONTINUOUS
 62
     3
100
AcDbLine
 10
501.6365929066387
 20
280.4785330174902
 30
0.0
 11
501.6365929066387
 21
294.4785330174902
 31
0.0
  0
LINE
  5
AC0
330
1A
100
AcDbEntity
  8
SEIHIN
  6
CONTINUOUS
 62
     3
100
AcDbLine
 10
499.6365929066387
 20
294.4785330174902
 30
0.0
 11
499.6365929066387
 21
280.4785330174902
 31
0.0
  0
LINE
  5
AC1
330
1A
100
AcDbEntity
  8
SEIHIN
  6
CONTINUOUS
 62
     3
100
AcDbLine
 10
501.6365929066387
 20
285.4785330174902
 30
0.0
 11
499.6365929066387
 21
285.4785330174902
 31
0.0
  0
LINE
  5
AC2
330
1A
100
AcDbEntity
  8
SEIHIN
  6
CONTINUOUS
 62
     3
100
AcDbLine
 10
501.6365929066387
 20
283.4785330174902
 30
0.0
 11
499.6365929066387
 21
283.4785330174902
 31
0.0
  0
ARC
  5
AC3
330
1A
100
AcDbEntity
  8
SEIHIN
  6
CONTINUOUS
 62
     3
100
AcDbCircle
 10
503.6365929066387
 20
294.4785330174902
 30
0.0
 40
2.0
100
AcDbArc
 50
90.0
 51
180.0
  0
ARC
  5
AC4
330
1A
100
AcDbEntity
  8
SEIHIN
  6
CONTINUOUS
 62
     3
100
AcDbCircle
 10
497.6365929066387
 20
294.4785330174902
 30
0.0
 40
2.0
100
AcDbArc
 50
0.0
 51
90.0
  0
ARC
  5
AC5
330
1A
100
AcDbEntity
  8
SEIHIN
  6
CONTINUOUS
 62
     3
100
AcDbCircle
 10
503.6365929066387
 20
280.4785330174902
 30
0.0
 40
2.0
100
AcDbArc
 50
180.0
 51
270.0
  0
ARC
  5
AC6
330
1A
100
AcDbEntity
  8
SEIHIN
  6
CONTINUOUS
 62
     3
100
AcDbCircle
 10
503.6365929066387
 20
274.4785330174902
 30
0.0
 40
2.0
100
AcDbArc
 50
90.0
 51
180.0
  0
ARC
  5
AC7
330
1A
100
AcDbEntity
  8
SEIHIN
  6
CONTINUOUS
 62
     3
100
AcDbCircle
 10
497.6365929066387
 20
280.4785330174902
 30
0.0
 40
2.0
100
AcDbArc
 50
270.0
 51
0.0
  0
ARC
  5
AC8
330
1A
100
AcDbEntity
  8
SEIHIN
  6
CONTINUOUS
 62
     3
100
AcDbCircle
 10
497.6365929066387
 20
274.4785330174902
 30
0.0
 40
2.0
100
AcDbArc
 50
0.0
 51
90.0
  0
LINE
  5
AC9
330
1A
100
AcDbEntity
  8
SEIHIN
  6
CONTINUOUS
 62
     3
100
AcDbLine
 10
485.0355929066388
 20
278.4785330174902
 30
0.0
 11
497.6365929066387
 21
278.4785330174902
 31
0.0
  0
LINE
  5
ACA
330
1A
100
AcDbEntity
  8
SEIHIN
  6
CONTINUOUS
 62
     3
100
AcDbLine
 10
485.0355929066388
 20
276.4785330174902
 30
0.0
 11
497.6365929066387
 21
276.4785330174902
 31
0.0
  0
ARC
  5
ACB
330
1A
100
AcDbEntity
  8
SEIHIN
  6
CONTINUOUS
 62
     3
100
AcDbCircle
 10
480.1365929066387
 20
237.4785330174902
 30
0.0
 40
5.0
100
AcDbArc
 50
270.0
 51
90.0
  0
LINE
  5
ACC
330
1A
100
AcDbEntity
  8
SEIHIN
  6
CONTINUOUS
 62
     3
100
AcDbLine
 10
483.1365929066387
 20
258.4785330174902
 30
0.0
 11
497.6365929066387
 21
258.4785330174902
 31
0.0
  0
LINE
  5
ACD
330
1A
100
AcDbEntity
  8
SEIHIN
  6
CONTINUOUS
 62
     3
100
AcDbLine
 10
483.1365929066387
 20
256.4785330174902
 30
0.0
 11
497.6365929066387
 21
256.4785330174902
 31
0.0
  0
LINE
  5
ACE
330
1A
100
AcDbEntity
  8
SEIHIN
  6
CONTINUOUS
 62
     3
100
AcDbLine
 10
481.1365929066387
 20
242.3775330174901
 30
0.0
 11
481.1365929066387
 21
254.4785330174902
 31
0.0
  0
LINE
  5
ACF
330
1A
100
AcDbEntity
  8
SEIHIN
  6
CONTINUOUS
 62
     3
100
AcDbLine
 10
479.1365929066387
 20
254.4785330174902
 30
0.0
 11
479.1365929066387
 21
242.3775330174901
 31
0.0
  0
LINE
  5
AD0
330
1A
100
AcDbEntity
  8
SEIHIN
  6
CONTINUOUS
 62
     3
100
AcDbLine
 10
460.6365929066387
 20
240.4785330174902
 30
0.0
 11
460.6365929066387
 21
254.4785330174902
 31
0.0
  0
ARC
  5
AD1
330
1A
100
AcDbEntity
  8
SEIHIN
  6
CONTINUOUS
 62
     3
100
AcDbCircle
 10
483.1365929066387
 20
260.4785330174902
 30
0.0
 40
2.0
100
AcDbArc
 50
180.0
 51
270.0
  0
ARC
  5
AD2
330
1A
100
AcDbEntity
  8
SEIHIN
  6
CONTINUOUS
 62
     3
100
AcDbCircle
 10
483.1365929066387
 20
254.4785330174902
 30
0.0
 40
2.0
100
AcDbArc
 50
90.0
 51
180.0
  0
ARC
  5
AD3
330
1A
100
AcDbEntity
  8
SEIHIN
  6
CONTINUOUS
 62
     3
100
AcDbCircle
 10
477.1365929066387
 20
260.4785330174902
 30
0.0
 40
2.0
100
AcDbArc
 50
270.0
 51
0.0
  0
ARC
  5
AD4
330
1A
100
AcDbEntity
  8
SEIHIN
  6
CONTINUOUS
 62
     3
100
AcDbCircle
 10
477.1365929066387
 20
254.4785330174902
 30
0.0
 40
2.0
100
AcDbArc
 50
0.0
 51
90.0
  0
LINE
  5
AD5
330
1A
100
AcDbEntity
  8
SEIHIN
  6
CONTINUOUS
 62
     3
100
AcDbLine
 10
462.6365929066387
 20
258.4785330174902
 30
0.0
 11
477.1365929066387
 21
258.4785330174902
 31
0.0
  0
LINE
  5
AD6
330
1A
100
AcDbEntity
  8
SEIHIN
  6
CONTINUOUS
 62
     3
100
AcDbLine
 10
462.6365929066387
 20
256.4785330174902
 30
0.0
 11
477.1365929066387
 21
256.4785330174902
 31
0.0
  0
ARC
  5
AD7
330
1A
100
AcDbEntity
  8
SEIHIN
  6
CONTINUOUS
 62
     3
100
AcDbCircle
 10
480.1365929066387
 20
237.4785330174902
 30
0.0
 40
5.0
100
AcDbArc
 50
90.0
 51
270.0
  0
LINE
  5
AD8
330
1A
100
AcDbEntity
  8
SEIHIN
  6
CONTINUOUS
 62
     3
100
AcDbLine
 10
462.6365929066387
 20
238.4785330174902
 30
0.0
 11
475.2375929066386
 21
238.4785330174902
 31
0.0
  0
LINE
  5
AD9
330
1A
100
AcDbEntity
  8
SEIHIN
  6
CONTINUOUS
 62
     3
100
AcDbLine
 10
462.6365929066387
 20
236.4785330174902
 30
0.0
 11
475.2375929066386
 21
236.4785330174902
 31
0.0
  0
LINE
  5
ADA
330
1A
100
AcDbEntity
  8
SEIHIN
  6
CONTINUOUS
 62
     3
100
AcDbLine
 10
501.6365929066387
 20
240.4785330174902
 30
0.0
 11
501.6365929066387
 21
254.4785330174902
 31
0.0
  0
LINE
  5
ADB
330
1A
100
AcDbEntity
  8
SEIHIN
  6
CONTINUOUS
 62
     3
100
AcDbLine
 10
499.6365929066387
 20
254.4785330174902
 30
0.0
 11
499.6365929066387
 21
240.4785330174902
 31
0.0
  0
ARC
  5
ADC
330
1A
100
AcDbEntity
  8
SEIHIN
  6
CONTINUOUS
 62
     3
100
AcDbCircle
 10
503.6365929066387
 20
260.4785330174902
 30
0.0
 40
2.0
100
AcDbArc
 50
180.0
 51
270.0
  0
ARC
  5
ADD
330
1A
100
AcDbEntity
  8
SEIHIN
  6
CONTINUOUS
 62
     3
100
AcDbCircle
 10
503.6365929066387
 20
254.4785330174902
 30
0.0
 40
2.0
100
AcDbArc
 50
90.0
 51
180.0
  0
ARC
  5
ADE
330
1A
100
AcDbEntity
  8
SEIHIN
  6
CONTINUOUS
 62
     3
100
AcDbCircle
 10
497.6365929066387
 20
260.4785330174902
 30
0.0
 40
2.0
100
AcDbArc
 50
270.0
 51
0.0
  0
ARC
  5
ADF
330
1A
100
AcDbEntity
  8
SEIHIN
  6
CONTINUOUS
 62
     3
100
AcDbCircle
 10
497.6365929066387
 20
254.4785330174902
 30
0.0
 40
2.0
100
AcDbArc
 50
0.0
 51
90.0
  0
ARC
  5
AE0
330
1A
100
AcDbEntity
  8
SEIHIN
  6
CONTINUOUS
 62
     3
100
AcDbCircle
 10
503.6365929066387
 20
240.4785330174902
 30
0.0
 40
2.000000000000056
100
AcDbArc
 50
180.0
 51
269.9999999999983
  0
ARC
  5
AE1
330
1A
100
AcDbEntity
  8
SEIHIN
  6
CONTINUOUS
 62
     3
100
AcDbCircle
 10
497.6365929066387
 20
240.4785330174902
 30
0.0
 40
2.000000000000113
100
AcDbArc
 50
270.0000000000016
 51
0.0
  0
ARC
  5
AE2
330
1A
100
AcDbEntity
  8
SEIHIN
  6
CONTINUOUS
 62
     3
100
AcDbCircle
 10
503.6365929066387
 20
234.4785330174902
 30
0.0
 40
2.0
100
AcDbArc
 50
90.00000000000161
 51
180.0000000000032
  0
ARC
  5
AE3
330
1A
100
AcDbEntity
  8
SEIHIN
  6
CONTINUOUS
 62
     3
100
AcDbCircle
 10
497.6365929066387
 20
234.4785330174902
 30
0.0
 40
2.000000000000056
100
AcDbArc
 50
359.9999999999967
 51
89.99999999999836
  0
LINE
  5
AE4
330
1A
100
AcDbEntity
  8
SEIHIN
  6
CONTINUOUS
 62
     3
100
AcDbLine
 10
485.0355929066388
 20
238.4785330174902
 30
0.0
 11
497.6365929066387
 21
238.4785330174902
 31
0.0
  0
LINE
  5
AE5
330
1A
100
AcDbEntity
  8
SEIHIN
  6
CONTINUOUS
 62
     3
100
AcDbLine
 10
485.0355929066388
 20
236.4785330174902
 30
0.0
 11
497.6365929066387
 21
236.4785330174902
 31
0.0
  0
LINE
  5
AE6
330
1A
100
AcDbEntity
  8
SEIHIN
  6
CONTINUOUS
 62
     3
100
AcDbLine
 10
540.6365929066387
 20
274.4785330174902
 30
0.0
 11
540.6365929066387
 21
260.4785330174902
 31
0.0
  0
LINE
  5
AE7
330
1A
100
AcDbEntity
  8
SEIHIN
  6
CONTINUOUS
 62
     3
100
AcDbLine
 10
522.1365929066386
 20
260.4785330174902
 30
0.0
 11
522.1365929066386
 21
272.5795330174901
 31
0.0
  0
LINE
  5
AE8
330
1A
100
AcDbEntity
  8
SEIHIN
  6
CONTINUOUS
 62
     3
100
AcDbLine
 10
520.1365929066387
 20
272.5795330174901
 30
0.0
 11
520.1365929066387
 21
260.4785330174902
 31
0.0
  0
LINE
  5
AE9
330
1A
100
AcDbEntity
  8
SEIHIN
  6
CONTINUOUS
 62
     3
100
AcDbLine
 10
526.0355929066386
 20
278.4785330174902
 30
0.0
 11
538.6365929066387
 21
278.4785330174902
 31
0.0
  0
LINE
  5
AEA
330
1A
100
AcDbEntity
  8
SEIHIN
  6
CONTINUOUS
 62
     3
100
AcDbLine
 10
524.1365929066387
 20
296.4785330174902
 30
0.0
 11
538.6365929066387
 21
296.4785330174902
 31
0.0
  0
LINE
  5
AEB
330
1A
100
AcDbEntity
  8
SEIHIN
  6
CONTINUOUS
 62
     3
100
AcDbLine
 10
526.0355929066386
 20
276.4785330174902
 30
0.0
 11
538.6365929066387
 21
276.4785330174902
 31
0.0
  0
ARC
  5
AEC
330
1A
100
AcDbEntity
  8
SEIHIN
  6
CONTINUOUS
 62
     3
100
AcDbCircle
 10
521.1365929066387
 20
277.4785330174902
 30
0.0
 40
5.0
100
AcDbArc
 50
270.0
 51
90.0
  0
ARC
  5
AED
330
1A
100
AcDbEntity
  8
SEIHIN
  6
CONTINUOUS
 62
     3
100
AcDbCircle
 10
521.1365929066387
 20
277.4785330174902
 30
0.0
 40
5.0
100
AcDbArc
 50
90.0
 51
270.0
  0
LINE
  5
AEE
330
1A
100
AcDbEntity
  8
SEIHIN
  6
CONTINUOUS
 62
     3
100
AcDbLine
 10
522.1365929066386
 20
282.3775330174903
 30
0.0
 11
522.1365929066386
 21
294.4785330174902
 31
0.0
  0
LINE
  5
AEF
330
1A
100
AcDbEntity
  8
SEIHIN
  6
CONTINUOUS
 62
     3
100
AcDbLine
 10
520.1365929066387
 20
294.4785330174902
 30
0.0
 11
520.1365929066387
 21
282.3775330174903
 31
0.0
  0
LINE
  5
AF0
330
1A
100
AcDbEntity
  8
SEIHIN
  6
CONTINUOUS
 62
     3
100
AcDbLine
 10
522.1365929066386
 20
283.4785330174902
 30
0.0
 11
520.1365929066387
 21
283.4785330174902
 31
0.0
  0
LINE
  5
AF1
330
1A
100
AcDbEntity
  8
SEIHIN
  6
CONTINUOUS
 62
     3
100
AcDbLine
 10
522.1365929066386
 20
285.4785330174902
 30
0.0
 11
520.1365929066387
 21
285.4785330174902
 31
0.0
  0
ARC
  5
AF2
330
1A
100
AcDbEntity
  8
SEIHIN
  6
CONTINUOUS
 62
     3
100
AcDbCircle
 10
524.1365929066387
 20
294.4785330174902
 30
0.0
 40
2.0
100
AcDbArc
 50
90.0
 51
180.0
  0
ARC
  5
AF3
330
1A
100
AcDbEntity
  8
SEIHIN
  6
CONTINUOUS
 62
     3
100
AcDbCircle
 10
518.1365929066386
 20
294.4785330174902
 30
0.0
 40
2.0
100
AcDbArc
 50
0.0
 51
90.0
  0
LINE
  5
AF4
330
1A
100
AcDbEntity
  8
SEIHIN
  6
CONTINUOUS
 62
     3
100
AcDbLine
 10
540.6365929066387
 20
294.4785330174902
 30
0.0
 11
540.6365929066387
 21
280.4785330174902
 31
0.0
  0
LINE
  5
AF5
330
1A
100
AcDbEntity
  8
SEIHIN
  6
CONTINUOUS
 62
     3
100
AcDbLine
 10
541.6365929066387
 20
283.4785330174902
 30
0.0
 11
540.6365929066387
 21
283.4785330174902
 31
0.0
  0
LINE
  5
AF6
330
1A
100
AcDbEntity
  8
SEIHIN
  6
CONTINUOUS
 62
     3
100
AcDbLine
 10
541.6365929066387
 20
285.4785330174902
 30
0.0
 11
540.6365929066387
 21
285.4785330174902
 31
0.0
  0
ARC
  5
AF7
330
1A
100
AcDbEntity
  8
SEIHIN
  6
CONTINUOUS
 62
     3
100
AcDbCircle
 10
538.6365929066387
 20
294.4785330174902
 30
0.0
 40
2.0
100
AcDbArc
 50
0.0
 51
90.0
  0
ARC
  5
AF8
330
1A
100
AcDbEntity
  8
SEIHIN
  6
CONTINUOUS
 62
     3
100
AcDbCircle
 10
538.6365929066387
 20
280.4785330174902
 30
0.0
 40
2.0
100
AcDbArc
 50
270.0
 51
0.0
  0
ARC
  5
AF9
330
1A
100
AcDbEntity
  8
SEIHIN
  6
CONTINUOUS
 62
     3
100
AcDbCircle
 10
538.6365929066387
 20
274.4785330174902
 30
0.0
 40
2.0
100
AcDbArc
 50
0.0
 51
90.0
  0
LINE
  5
AFA
330
1A
100
AcDbEntity
  8
SEIHIN
  6
CONTINUOUS
 62
     3
100
AcDbLine
 10
524.1365929066387
 20
258.4785330174902
 30
0.0
 11
538.6365929066387
 21
258.4785330174902
 31
0.0
  0
LINE
  5
AFB
330
1A
100
AcDbEntity
  8
SEIHIN
  6
CONTINUOUS
 62
     3
100
AcDbLine
 10
526.0355929066386
 20
238.4785330174902
 30
0.0
 11
538.6365929066387
 21
238.4785330174902
 31
0.0
  0
LINE
  5
AFC
330
1A
100
AcDbEntity
  8
SEIHIN
  6
CONTINUOUS
 62
     3
100
AcDbLine
 10
524.1365929066387
 20
256.4785330174902
 30
0.0
 11
538.6365929066387
 21
256.4785330174902
 31
0.0
  0
LINE
  5
AFD
330
1A
100
AcDbEntity
  8
SEIHIN
  6
CONTINUOUS
 62
     3
100
AcDbLine
 10
526.0355929066386
 20
236.4785330174902
 30
0.0
 11
538.6365929066387
 21
236.4785330174902
 31
0.0
  0
LINE
  5
AFE
330
1A
100
AcDbEntity
  8
SEIHIN
  6
CONTINUOUS
 62
     3
100
AcDbLine
 10
522.1365929066386
 20
242.3775330174901
 30
0.0
 11
522.1365929066386
 21
254.4785330174902
 31
0.0
  0
LINE
  5
AFF
330
1A
100
AcDbEntity
  8
SEIHIN
  6
CONTINUOUS
 62
     3
100
AcDbLine
 10
520.1365929066387
 20
254.4785330174902
 30
0.0
 11
520.1365929066387
 21
242.3775330174901
 31
0.0
  0
ARC
  5
B00
330
1A
100
AcDbEntity
  8
SEIHIN
  6
CONTINUOUS
 62
     3
100
AcDbCircle
 10
524.1365929066387
 20
260.4785330174902
 30
0.0
 40
2.0
100
AcDbArc
 50
180.0
 51
270.0
  0
ARC
  5
B01
330
1A
100
AcDbEntity
  8
SEIHIN
  6
CONTINUOUS
 62
     3
100
AcDbCircle
 10
524.1365929066387
 20
254.4785330174902
 30
0.0
 40
2.0
100
AcDbArc
 50
90.0
 51
180.0
  0
ARC
  5
B02
330
1A
100
AcDbEntity
  8
SEIHIN
  6
CONTINUOUS
 62
     3
100
AcDbCircle
 10
518.1365929066386
 20
260.4785330174902
 30
0.0
 40
2.0
100
AcDbArc
 50
270.0
 51
0.0
  0
ARC
  5
B03
330
1A
100
AcDbEntity
  8
SEIHIN
  6
CONTINUOUS
 62
     3
100
AcDbCircle
 10
518.1365929066386
 20
254.4785330174902
 30
0.0
 40
2.0
100
AcDbArc
 50
0.0
 51
90.0
  0
ARC
  5
B04
330
1A
100
AcDbEntity
  8
SEIHIN
  6
CONTINUOUS
 62
     3
100
AcDbCircle
 10
521.1365929066387
 20
237.4785330174902
 30
0.0
 40
5.0
100
AcDbArc
 50
270.0
 51
90.0
  0
ARC
  5
B05
330
1A
100
AcDbEntity
  8
SEIHIN
  6
CONTINUOUS
 62
     3
100
AcDbCircle
 10
521.1365929066387
 20
237.4785330174902
 30
0.0
 40
5.0
100
AcDbArc
 50
90.0
 51
270.0
  0
LINE
  5
B06
330
1A
100
AcDbEntity
  8
SEIHIN
  6
CONTINUOUS
 62
     3
100
AcDbLine
 10
540.6365929066387
 20
254.4785330174902
 30
0.0
 11
540.6365929066387
 21
240.4785330174902
 31
0.0
  0
LINE
  5
B07
330
1A
100
AcDbEntity
  8
SEIHIN
  6
CONTINUOUS
 62
     3
100
AcDbLine
 10
543.6365929066387
 20
261.4784330174902
 30
0.0
 11
541.6365929066387
 21
261.4784330174902
 31
0.0
  0
LINE
  5
B08
330
1A
100
AcDbEntity
  8
SEIHIN
  6
CONTINUOUS
 62
     3
100
AcDbLine
 10
543.6365929066387
 20
261.4784330174902
 30
0.0
 11
543.6365929066387
 21
263.4784330174902
 31
0.0
  0
LINE
  5
B09
330
1A
100
AcDbEntity
  8
SEIHIN
  6
CONTINUOUS
 62
     3
100
AcDbLine
 10
543.6365929066387
 20
263.4784330174902
 30
0.0
 11
541.6365929066387
 21
263.4784330174902
 31
0.0
  0
ARC
  5
B0A
330
1A
100
AcDbEntity
  8
SEIHIN
  6
CONTINUOUS
 62
     3
100
AcDbCircle
 10
538.6365929066387
 20
260.4785330174902
 30
0.0
 40
2.0
100
AcDbArc
 50
270.0
 51
0.0
  0
ARC
  5
B0B
330
1A
100
AcDbEntity
  8
SEIHIN
  6
CONTINUOUS
 62
     3
100
AcDbCircle
 10
538.6365929066387
 20
254.4785330174902
 30
0.0
 40
2.0
100
AcDbArc
 50
0.0
 51
90.0
  0
ARC
  5
B0C
330
1A
100
AcDbEntity
  8
SEIHIN
  6
CONTINUOUS
 62
     3
100
AcDbCircle
 10
538.6365929066387
 20
240.4785330174902
 30
0.0
 40
2.000000000000113
100
AcDbArc
 50
270.0000000000016
 51
0.0
  0
ARC
  5
B0D
330
1A
100
AcDbEntity
  8
SEIHIN
  6
CONTINUOUS
 62
     3
100
AcDbCircle
 10
538.6365929066387
 20
234.4785330174902
 30
0.0
 40
2.000000000000056
100
AcDbArc
 50
359.9999999999967
 51
89.99999999999836
  0
LINE
  5
B0E
330
1A
100
AcDbEntity
  8
SEIHIN
  6
CONTINUOUS
 62
     3
100
AcDbLine
 10
511.7822929066387
 20
218.4677330174902
 30
0.0
 11
503.3450929066386
 21
219.7107330174901
 31
0.0
  0
LINE
  5
B0F
330
1A
100
AcDbEntity
  8
SEIHIN
  6
CONTINUOUS
 62
     3
100
AcDbLine
 10
497.3450929066387
 20
220.5946330174902
 30
0.0
 11
482.8450929066386
 21
222.7308330174901
 31
0.0
  0
ARC
  5
B10
330
1A
100
AcDbEntity
  8
SEIHIN
  6
CONTINUOUS
 62
     3
100
AcDbCircle
 10
483.1365716826635
 20
224.7094575974144
 30
0.0
 40
1.999978776175919
100
AcDbArc
 50
180.0007041704321
 51
261.6198125828737
  0
ARC
  5
B11
330
1A
100
AcDbEntity
  8
SEIHIN
  6
CONTINUOUS
 62
     3
100
AcDbCircle
 10
477.1366141306138
 20
225.5934513437109
 30
0.0
 40
1.999978776108628
100
AcDbArc
 50
261.6185833993114
 51
359.9994749868718
  0
LINE
  5
B12
330
1A
100
AcDbEntity
  8
SEIHIN
  6
CONTINUOUS
 62
     3
100
AcDbLine
 10
476.8450929066387
 20
223.6147330174903
 30
0.0
 11
462.3450929066386
 21
225.7509330174903
 31
0.0
  0
ARC
  5
B13
330
1A
100
AcDbEntity
  8
SEIHIN
  6
CONTINUOUS
 62
     3
100
AcDbCircle
 10
503.6366211487397
 20
221.68940030997
 30
0.0
 40
2.00002824236855
100
AcDbArc
 50
179.9990630118023
 51
261.6185889643062
  0
ARC
  5
B14
330
1A
100
AcDbEntity
  8
SEIHIN
  6
CONTINUOUS
 62
     3
100
AcDbCircle
 10
497.6366141306138
 20
222.5733513437112
 30
0.0
 40
1.999978776108837
100
AcDbArc
 50
261.6185833993156
 51
359.9994749868718
  0
LINE
  5
B15
330
1A
100
AcDbEntity
  8
SEIHIN
  6
CONTINUOUS
 62
     3
100
AcDbLine
 10
524.1365929066387
 20
218.4785330174902
 30
0.0
 11
538.6365929066387
 21
218.4785330174902
 31
0.0
  0
LINE
  5
B16
330
1A
100
AcDbEntity
  8
SEIHIN
  6
CONTINUOUS
 62
     3
100
AcDbLine
 10
538.6365929066387
 20
217.4784330174902
 30
0.0
 11
511.6365929066387
 21
217.4784330174902
 31
0.0
  0
LINE
  5
B17
330
1A
100
AcDbEntity
  8
SEIHIN
  6
CONTINUOUS
 62
     3
100
AcDbLine
 10
511.7093929066388
 20
218.4785330174902
 30
0.0
 11
518.1365929066386
 21
218.4785330174902
 31
0.0
  0
ARC
  5
B18
330
1A
100
AcDbEntity
  8
SEIHIN
  6
CONTINUOUS
 62
     3
100
AcDbCircle
 10
524.1365929066387
 20
220.4785330174902
 30
0.0
 40
1.999999999999943
100
AcDbArc
 50
180.0000000000032
 51
270.0000000000016
  0
ARC
  5
B19
330
1A
100
AcDbEntity
  8
SEIHIN
  6
CONTINUOUS
 62
     3
100
AcDbCircle
 10
518.1365929066386
 20
220.4785330174902
 30
0.0
 40
2.0
100
AcDbArc
 50
269.9999999999983
 51
359.9999999999967
  0
ARC
  5
B1A
330
1A
100
AcDbEntity
  8
SEIHIN
  6
CONTINUOUS
 62
     3
100
AcDbCircle
 10
538.6365929066387
 20
220.4785330174902
 30
0.0
 40
2.0
100
AcDbArc
 50
269.9999999999983
 51
359.9999999999967
  0
ARC
  5
B1B
330
1A
100
AcDbEntity
  8
SEIHIN
  6
CONTINUOUS
 62
     3
100
AcDbCircle
 10
538.6365929066387
 20
220.4784330174902
 30
0.0
 40
2.999999999999886
100
AcDbArc
 50
270.0
 51
0.0
  0
LINE
  5
B1C
330
1A
100
AcDbEntity
  8
SEIHIN
  6
CONTINUOUS
 62
     3
100
AcDbLine
 10
511.6365929066387
 20
126.6439330174903
 30
0.0
 11
511.6365929066387
 21
113.6439330174903
 31
0.0
  0
LINE
  5
B1D
330
1A
100
AcDbEntity
  8
SEIHIN
  6
CONTINUOUS
 62
     3
100
AcDbLine
 10
543.6365929066387
 20
120.14403301749
 30
0.0
 11
541.6365929066387
 21
113.6440330174903
 31
0.0
  0
LINE
  5
B1E
330
1A
100
AcDbEntity
  8
SEIHIN
  6
CONTINUOUS
 62
     3
100
AcDbLine
 10
543.6365929066387
 20
126.6439330174903
 30
0.0
 11
543.6365929066387
 21
120.14403301749
 31
0.0
  0
LINE
  5
B1F
330
1A
100
AcDbEntity
  8
SEIHIN
  6
CONTINUOUS
 62
     3
100
AcDbLine
 10
541.6365929066387
 20
126.6439330174903
 30
0.0
 11
541.6365929066387
 21
113.64413301749
 31
0.0
  0
DIMENSION
  5
BC0
330
1A
100
AcDbEntity
  8
SUNPOU
  6
CONTINUOUS
100
AcDbDimension
  2
*D1
 10
586.853121415133
 20
217.4784330174902
 30
0.0
 11
581.853121415133
 21
347.4784830174902
 31
0.0
 12
-1.163265991871412
 22
-32.78531730377972
 32
0.0
 70
    32
  3
STANDARD
100
AcDbAlignedDimension
 13
538.6368929066389
 23
477.4785330174902
 33
0.0
 14
538.6365929066387
 24
217.4784330174902
 34
0.0
 50
90.0
100
AcDbRotatedDimension
1001
ACAD
1000
DSTYLE
1002
{
1070
   140
1040
6.0
1070
    74
1070
     0
1070
   172
1070
     1
1070
    73
1070
     0
1070
   272
1070
     2
1070
    77
1070
     3
1070
   173
1070
     1
1070
   147
1040
2.0
1070
    42
1040
6.0
1070
    44
1040
3.0
1070
    43
1040
14.0
1070
   271
1070
     0
1070
   178
1070
     4
1070
   177
1070
     4
1070
   176
1070
     4
1070
   141
1040
150.0
1070
     7
1000
_OPEN
1070
     6
1000
_OPEN
1070
    41
1040
7.0
1002
}
  0
DIMENSION
  5
BCD
330
1A
100
AcDbEntity
  8
SUNPOU
  6
CONTINUOUS
100
AcDbDimension
  2
*D2
 10
261.9053874467317
 20
250.4785330174902
 30
0.0
 11
256.9053874467317
 21
347.4788830174901
 31
0.0
 12
-1.163265991871412
 22
-32.78531730377972
 32
0.0
 70
    32
  3
STANDARD
100
AcDbAlignedDimension
 13
287.6368929066386
 23
444.47923301749
 33
0.0
 14
287.6365929066387
 24
250.4785330174902
 34
0.0
 50
90.0
100
AcDbRotatedDimension
1001
ACAD
1000
DSTYLE
1002
{
1070
   140
1040
6.0
1070
    74
1070
     0
1070
   172
1070
     1
1070
    73
1070
     0
1070
   272
1070
     2
1070
    77
1070
     3
1070
   173
1070
     1
1070
   147
1040
2.0
1070
    42
1040
6.0
1070
    44
1040
3.0
1070
    43
1040
14.0
1070
   271
1070
     0
1070
   178
1070
     4
1070
   177
1070
     4
1070
   176
1070
     4
1070
   141
1040
150.0
1070
     7
1000
_OPEN
1070
     6
1000
_OPEN
1070
    41
1040
7.0
1002
}
  0
DIMENSION
  5
BDA
330
1A
100
AcDbEntity
  8
SUNPOU
  6
CONTINUOUS
100
AcDbDimension
  2
*D3
 10
287.6365929066387
 20
184.2626059916847
 30
0.0
 11
414.6365929066387
 21
189.2626059916847
 31
0.0
 12
-1.163265991871412
 22
-32.78531730377972
 32
0.0
 70
    32
  3
STANDARD
100
AcDbAlignedDimension
 13
541.6365929066387
 23
220.4784330174902
 33
0.0
 14
287.6365929066387
 24
247.4462330174901
 34
0.0
100
AcDbRotatedDimension
1001
ACAD
1000
DSTYLE
1002
{
1070
   140
1040
6.0
1070
    74
1070
     0
1070
   172
1070
     1
1070
    73
1070
     0
1070
   272
1070
     2
1070
    77
1070
     3
1070
   173
1070
     1
1070
   147
1040
2.0
1070
    42
1040
6.0
1070
    44
1040
3.0
1070
    43
1040
14.0
1070
   271
1070
     0
1070
   178
1070
     4
1070
   177
1070
     4
1070
   176
1070
     4
1070
   141
1040
150.0
1070
     7
1000
_OPEN
1070
     6
1000
_OPEN
1070
    41
1040
7.0
1002
}
  0
DIMENSION
  5
BE9
330
1A
100
AcDbEntity
  8
SUNPOU
  6
CONTINUOUS
100
AcDbDimension
  2
*D4
 10
586.9486412518413
 20
113.6440330174903
 30
0.0
 11
581.9486412518413
 21
120.1438830174902
 31
0.0
 12
-1.163265991871412
 22
12.21468269622028
 32
0.0
 70
    32
  3
STANDARD
100
AcDbAlignedDimension
 13
543.6365929066387
 23
126.6437330174901
 33
0.0
 14
541.6365929066387
 24
113.6440330174903
 34
0.0
 50
90.0
100
AcDbRotatedDimension
1001
ACAD
1000
DSTYLE
1002
{
1070
   140
1040
6.0
1070
    74
1070
     0
1070
   172
1070
     1
1070
    73
1070
     0
1070
   272
1070
     2
1070
    77
1070
     3
1070
   173
1070
     1
1070
   147
1040
2.0
1070
    42
1040
6.0
1070
    44
1040
3.0
1070
    43
1040
14.0
1070
   271
1070
     0
1070
   178
1070
     4
1070
   177
1070
     4
1070
   176
1070
     4
1070
   141
1040
150.0
1070
     7
1000
_OPEN
1070
     6
1000
_OPEN
1070
    41
1040
7.0
1002
}
  0
VIEWPORT
  5
22
330
17
100
AcDbEntity
 67
     1
  8
0
100
AcDbViewport
 10
313.6808219178082
 20
148.5
 30
0.0
 40
627.3616438356165
 41
297.0
 68
     2
 69
     1
1001
ACAD
1000
MVIEW
1002
{
1070
    16
1010
0.0
1020
0.0
1030
0.0
1010
0.0
1020
0.0
1030
1.0
1040
0.0
1040
297.0
1040
313.6808219178082
1040
148.5
1040
50.0
1040
0.0
1040
0.0
1070
     0
1070
   100
1070
     1
1070
     0
1070
     0
1070
     0
1070
     0
1070
     0
1040
0.0
1040
0.0
1040
0.0
1040
1.0
1040
1.0
1040
10.0
1040
10.0
1070
     0
1002
{
1002
}
1002
}
  0
VIEWPORT
  5
64
330
17
100
AcDbEntity
 67
     1
  8
VIEWPORT
100
AcDbViewport
 10
210.0
 20
148.5
 30
0.0
 40
420.0
 41
297.0
 68
     1
 69
     2
1001
ACAD
1000
MVIEW
1002
{
1070
    16
1010
0.0
1020
0.0
1030
0.0
1010
0.0
1020
0.0
1030
1.0
1040
0.0
1040
605.8799999999998
1040
420.0
1040
297.0
1040
50.0
1040
0.0
1040
0.0
1070
     0
1070
   100
1070
     1
1070
     0
1070
     0
1070
     0
1070
     0
1070
     0
1040
0.0
1040
0.0
1040
0.0
1040
10.0
1040
10.0
1040
0.0
1040
0.0
1070
     0
1002
{
1002
}
1002
}
  0
ENDSEC
  0
SECTION
  2
OBJECTS
  0
DICTIONARY
  5
C
330
0
100
AcDbDictionary
  3
ACAD_GROUP
350
D
  3
ACAD_LAYOUT
350
BEF
  3
ACAD_MLINESTYLE
350
E
  3
ACAD_PLOTSETTINGS
350
BF0
1001
ACAD
1000
TREAT_AS_HARD
1070
     0
  0
DICTIONARY
  5
C1C
330
1A
100
AcDbDictionary
  3
ACAD_LAYOUTSELFREF
350
C60
1001
ACAD
1000
TREAT_AS_HARD
1070
     1
  0
DICTIONARY
  5
C1A
330
17
100
AcDbDictionary
  3
ACAD_LAYOUTSELFREF
350
C5F
1001
ACAD
1000
TREAT_AS_HARD
1070
     1
  0
DICTIONARY
  5
D
102
{ACAD_REACTORS
330
C
102
}
330
C
100
AcDbDictionary
1001
ACAD
1000
TREAT_AS_HARD
1070
     0
  0
DICTIONARY
  5
BEF
102
{ACAD_REACTORS
330
C
102
}
330
C
100
AcDbDictionary
1001
ACAD
1000
TREAT_AS_HARD
1070
     0
  0
DICTIONARY
  5
E
102
{ACAD_REACTORS
330
C
102
}
330
C
100
AcDbDictionary
  3
STANDARD
350
13
1001
ACAD
1000
TREAT_AS_HARD
1070
     0
  0
DICTIONARY
  5
BF0
102
{ACAD_REACTORS
330
C
102
}
330
C
100
AcDbDictionary
1001
ACAD
1000
TREAT_AS_HARD
1070
     0
  0
XRECORD
  5
C60
102
{ACAD_REACTORS
330
C1C
102
}
330
C1C
100
AcDbXrecord
340
1A
  0
XRECORD
  5
C5F
102
{ACAD_REACTORS
330
C1A
102
}
330
C1A
100
AcDbXrecord
340
17
  0
MLINESTYLE
  5
13
102
{ACAD_REACTORS
330
E
102
}
330
E
100
AcDbMlineStyle
  2
STANDARD
 70
     0
  3

 62
     0
 51
90.0
 52
90.0
 71
     2
 49
0.5
 62
   256
  6
BYLAYER
 49
-0.5
 62
   256
  6
BYLAYER
  0
ENDSEC
  0
EOF
