  0
SECTION
  2
HEADER
  9
$ACADVER
  1
AC1012
  9
$DWGCODEPAGE
  3
dos932
  9
$INSBASE
 10
0.0
 20
0.0
 30
0.0
  9
$EXTMIN
 10
10.05047808566086
 20
4.949376903717846
 30
0.0
  9
$EXTMAX
 10
806.2246110975902
 20
563.7825862828226
 30
0.0
  9
$LIMMIN
 10
0.0
 20
0.0
  9
$LIMMAX
 10
840.0
 20
594.0
  9
$ORTHOMODE
 70
     0
  9
$REGENMODE
 70
     1
  9
$FILLMODE
 70
     1
  9
$QTEXTMODE
 70
     0
  9
$MIRRTEXT
 70
     1
  9
$DRAGMODE
 70
     2
  9
$LTSCALE
 40
2.0
  9
$OSMODE
 70
   319
  9
$ATTMODE
 70
     1
  9
$TEXTSIZE
 40
5.0
  9
$TRACEWID
 40
1.0
  9
$TEXTSTYLE
  7
STANDARD
  9
$CLAYER
  8
CENTER_L
  9
$CELTYPE
  6
BYLAYER
  9
$CECOLOR
 62
   256
  9
$CELTSCALE
 40
1.0
  9
$DELOBJ
 70
     1
  9
$DISPSILH
 70
     0
  9
$DIMSCALE
 40
1.0
  9
$DIMASZ
 40
7.0
  9
$DIMEXO
 40
6.0
  9
$DIMDLI
 40
14.0
  9
$DIMRND
 40
0.0
  9
$DIMDLE
 40
0.0
  9
$DIMEXE
 40
3.0
  9
$DIMTP
 40
0.0
  9
$DIMTM
 40
0.0
  9
$DIMTXT
 40
6.0
  9
$DIMCEN
 40
150.0
  9
$DIMTSZ
 40
0.0
  9
$DIMTOL
 70
     0
  9
$DIMLIM
 70
     0
  9
$DIMTIH
 70
     0
  9
$DIMTOH
 70
     0
  9
$DIMSE1
 70
     0
  9
$DIMSE2
 70
     0
  9
$DIMTAD
 70
     3
  9
$DIMZIN
 70
     0
  9
$DIMBLK
  1

  9
$DIMASO
 70
     1
  9
$DIMSHO
 70
     1
  9
$DIMPOST
  1

  9
$DIMAPOST
  1

  9
$DIMALT
 70
     0
  9
$DIMALTD
 70
     2
  9
$DIMALTF
 40
25.4
  9
$DIMLFAC
 40
1.0
  9
$DIMTOFL
 70
     1
  9
$DIMTVP
 40
0.0
  9
$DIMTIX
 70
     0
  9
$DIMSOXD
 70
     0
  9
$DIMSAH
 70
     1
  9
$DIMBLK1
  1
OPEN
  9
$DIMBLK2
  1
OPEN
  9
$DIMSTYLE
  2
STANDARD
  9
$DIMCLRD
 70
   256
  9
$DIMCLRE
 70
   256
  9
$DIMCLRT
 70
   256
  9
$DIMTFAC
 40
1.0
  9
$DIMGAP
 40
2.0
  9
$DIMJUST
 70
     0
  9
$DIMSD1
 70
     0
  9
$DIMSD2
 70
     0
  9
$DIMTOLJ
 70
     1
  9
$DIMTZIN
 70
     0
  9
$DIMALTZ
 70
     0
  9
$DIMALTTZ
 70
     0
  9
$DIMFIT
 70
     3
  9
$DIMUPT
 70
     0
  9
$DIMUNIT
 70
     2
  9
$DIMDEC
 70
     0
  9
$DIMTDEC
 70
     0
  9
$DIMALTU
 70
     2
  9
$DIMALTTD
 70
     2
  9
$DIMTXSTY
  7
STANDARD
  9
$DIMAUNIT
 70
     0
  9
$LUNITS
 70
     2
  9
$LUPREC
 70
     4
  9
$SKETCHINC
 40
1.0
  9
$FILLETRAD
 40
20.0
  9
$AUNITS
 70
     0
  9
$AUPREC
 70
     0
  9
$MENU
  1
.
  9
$ELEVATION
 40
0.0
  9
$PELEVATION
 40
0.0
  9
$THICKNESS
 40
0.0
  9
$LIMCHECK
 70
     0
  9
$BLIPMODE
 70
     0
  9
$CHAMFERA
 40
20.0
  9
$CHAMFERB
 40
20.0
  9
$CHAMFERC
 40
40.0
  9
$CHAMFERD
 40
0.0
  9
$SKPOLY
 70
     0
  9
$TDCREATE
 40
2450994.354346065
  9
$TDUPDATE
 40
2452422.703254745
  9
$TDINDWG
 40
0.0052107639
  9
$TDUSRTIMER
 40
0.0052107639
  9
$USRTIMER
 70
     1
  9
$ANGBASE
 50
0.0
  9
$ANGDIR
 70
     0
  9
$PDMODE
 70
     1
  9
$PDSIZE
 40
0.0
  9
$PLINEWID
 40
0.0
  9
$COORDS
 70
     1
  9
$SPLFRAME
 70
     0
  9
$SPLINETYPE
 70
     6
  9
$SPLINESEGS
 70
     8
  9
$ATTDIA
 70
     0
  9
$ATTREQ
 70
     1
  9
$HANDLING
 70
 10241
  9
$HANDSEED
  5
722
  9
$SURFTAB1
 70
     6
  9
$SURFTAB2
 70
     6
  9
$SURFTYPE
 70
     6
  9
$SURFU
 70
     6
  9
$SURFV
 70
     6
  9
$UCSNAME
  2

  9
$UCSORG
 10
0.0
 20
0.0
 30
0.0
  9
$UCSXDIR
 10
1.0
 20
0.0
 30
0.0
  9
$UCSYDIR
 10
0.0
 20
1.0
 30
0.0
  9
$PUCSNAME
  2

  9
$PUCSORG
 10
0.0
 20
0.0
 30
0.0
  9
$PUCSXDIR
 10
1.0
 20
0.0
 30
0.0
  9
$PUCSYDIR
 10
0.0
 20
1.0
 30
0.0
  9
$USERI1
 70
     0
  9
$USERI2
 70
     0
  9
$USERI3
 70
     0
  9
$USERI4
 70
     0
  9
$USERI5
 70
     0
  9
$USERR1
 40
0.0
  9
$USERR2
 40
0.0
  9
$USERR3
 40
0.0
  9
$USERR4
 40
0.0
  9
$USERR5
 40
0.0
  9
$WORLDVIEW
 70
     1
  9
$SHADEDGE
 70
     3
  9
$SHADEDIF
 70
    70
  9
$TILEMODE
 70
     1
  9
$MAXACTVP
 70
    16
  9
$PINSBASE
 10
0.0
 20
0.0
 30
0.0
  9
$PLIMCHECK
 70
     0
  9
$PEXTMIN
 10
0.0
 20
0.0
 30
0.0
  9
$PEXTMAX
 10
420.0
 20
297.0
 30
0.0
  9
$PLIMMIN
 10
0.0
 20
0.0
  9
$PLIMMAX
 10
420.0
 20
297.0
  9
$UNITMODE
 70
     0
  9
$VISRETAIN
 70
     0
  9
$PLINEGEN
 70
     0
  9
$PSLTSCALE
 70
     1
  9
$TREEDEPTH
 70
  3020
  9
$PICKSTYLE
 70
     1
  9
$CMLSTYLE
  2
STANDARD
  9
$CMLJUST
 70
     0
  9
$CMLSCALE
 40
1.0
  9
$SAVEIMAGES
 70
     1
  0
ENDSEC
  0
SECTION
  2
CLASSES
  0
CLASS
  1
ACDBDICTIONARYWDFLT
  2
AcDbDictionaryWithDefault
  3
AutoCAD 2000
 90
    32768
280
     0
281
     0
  0
CLASS
  1
ACDBPLACEHOLDER
  2
AcDbPlaceHolder
  3
AutoCAD 2000
 90
    32768
280
     0
281
     0
  0
CLASS
  1
LAYOUT
  2
AcDbLayout
  3
AutoCAD 2000
 90
    32768
280
     0
281
     0
  0
CLASS
  1
LONG_TRANSACTION
  2
AcDbLongTransaction
  3
AutoCAD 2000
 90
    32768
280
     0
281
     0
  0
CLASS
  1
LWPOLYLINE
  2
AcDbPolyline
  3
AutoCAD 2000
 90
    32768
280
     0
281
     1
  0
CLASS
  1
HATCH
  2
AcDbHatch
  3
AutoCAD 2000
 90
    32768
280
     0
281
     1
  0
CLASS
  1
XRECORD
  2
AcDbXrecord
  3
AutoCAD 2000
 90
    32768
280
     0
281
     0
  0
CLASS
  1
LONG_TRANSACTION
  2
AcDbLongTransaction
  3
AutoCAD 2000
 90
    32768
280
     0
281
     0
  0
CLASS
  1
LWPOLYLINE
  2
AcDbPolyline
  3
AutoCAD 2000
 90
    32768
280
     0
281
     1
  0
CLASS
  1
HATCH
  2
AcDbHatch
  3
AutoCAD 2000
 90
    32768
280
     0
281
     1
  0
CLASS
  1
XRECORD
  2
AcDbXrecord
  3
AutoCAD 2000
 90
    32768
280
     0
281
     0
  0
ENDSEC
  0
SECTION
  2
TABLES
  0
TABLE
  2
VPORT
  5
8
330
0
100
AcDbSymbolTable
 70
     2
  0
VPORT
  5
717
330
8
100
AcDbSymbolTableRecord
100
AcDbViewportTableRecord
  2
*ACTIVE
 70
     0
 10
0.0
 20
0.0
 11
1.0
 21
1.0
 12
410.0026508440407
 22
292.4521039146489
 13
0.0
 23
0.0
 14
5.0
 24
5.0
 15
0.0
 25
0.0
 16
0.0
 26
0.0
 36
1.0
 17
0.0
 27
0.0
 37
0.0
 40
626.5462176857411
 41
1.709909909909909
 42
50.0
 43
0.0
 44
0.0
 50
0.0
 51
0.0
 71
     0
 72
   100
 73
     1
 74
     0
 75
     0
 76
     0
 77
     0
 78
     0
  0
ENDTAB
  0
TABLE
  2
LTYPE
  5
5
330
0
100
AcDbSymbolTable
 70
     3
  0
LTYPE
  5
14
330
5
100
AcDbSymbolTableRecord
100
AcDbLinetypeTableRecord
  2
BYBLOCK
 70
     0
  3

 72
    65
 73
     0
 40
0.0
  0
LTYPE
  5
15
330
5
100
AcDbSymbolTableRecord
100
AcDbLinetypeTableRecord
  2
BYLAYER
 70
     0
  3

 72
    65
 73
     0
 40
0.0
  0
LTYPE
  5
16
330
5
100
AcDbSymbolTableRecord
100
AcDbLinetypeTableRecord
  2
CONTINUOUS
 70
     0
  3
Solid line
 72
    65
 73
     0
 40
0.0
  0
LTYPE
  5
115
330
5
100
AcDbSymbolTableRecord
100
AcDbLinetypeTableRecord
  2
PHANTOM
 70
     0
  3
______  __  __  ______  __  __  ______  __  __ 
 72
    65
 73
     6
 40
2.5
 49
1.25
 74
     0
 49
-0.25
 74
     0
 49
0.25
 74
     0
 49
-0.25
 74
     0
 49
0.25
 74
     0
 49
-0.25
 74
     0
  0
LTYPE
  5
135
330
5
100
AcDbSymbolTableRecord
100
AcDbLinetypeTableRecord
  2
CENTER
 70
     0
  3
____ _ ____ _ ____ _ ____ _ ____ _ ____ _ ____ 
 72
    65
 73
     4
 40
2.0
 49
1.25
 74
     0
 49
-0.25
 74
     0
 49
0.25
 74
     0
 49
-0.25
 74
     0
  0
ENDTAB
  0
TABLE
  2
LAYER
  5
2
330
0
100
AcDbSymbolTable
 70
     8
  0
LAYER
  5
F
330
2
100
AcDbSymbolTableRecord
100
AcDbLayerTableRecord
  2
0
 70
     0
 62
     7
  6
CONTINUOUS
  0
LAYER
  5
62
330
2
100
AcDbSymbolTableRecord
100
AcDbLayerTableRecord
  2
VIEWPORT
 70
     0
 62
     7
  6
CONTINUOUS
  0
LAYER
  5
65
330
2
100
AcDbSymbolTableRecord
100
AcDbLayerTableRecord
  2
ZUWAKU
 70
     0
 62
     7
  6
CONTINUOUS
  0
LAYER
  5
1EB
330
2
100
AcDbSymbolTableRecord
100
AcDbLayerTableRecord
  2
SEIHIN
 70
     0
 62
     3
  6
CONTINUOUS
  0
LAYER
  5
1EC
330
2
100
AcDbSymbolTableRecord
100
AcDbLayerTableRecord
  2
SUNPOU
 70
     0
 62
     4
  6
CONTINUOUS
  0
LAYER
  5
1ED
330
2
100
AcDbSymbolTableRecord
100
AcDbLayerTableRecord
  2
CENTER_L
 70
     0
 62
     1
  6
CENTER
  0
LAYER
  5
1EE
330
2
100
AcDbSymbolTableRecord
100
AcDbLayerTableRecord
  2
NOKITOI
 70
     0
 62
     8
  6
PHANTOM
  0
LAYER
  5
1EF
330
2
100
AcDbSymbolTableRecord
100
AcDbLayerTableRecord
  2
DEFPOINTS
 70
     0
 62
     7
  6
CONTINUOUS
  0
ENDTAB
  0
TABLE
  2
STYLE
  5
3
330
0
100
AcDbSymbolTable
 70
     1
  0
STYLE
  5
10
330
3
100
AcDbSymbolTableRecord
100
AcDbTextStyleTableRecord
  2
STANDARD
 70
     0
 40
0.0
 41
1.0
 50
0.0
 71
     0
 42
5.0
  3
TXT
  4
bigfont.shx
  0
ENDTAB
  0
TABLE
  2
VIEW
  5
6
330
0
100
AcDbSymbolTable
 70
     0
  0
ENDTAB
  0
TABLE
  2
UCS
  5
7
330
0
100
AcDbSymbolTable
 70
     0
  0
ENDTAB
  0
TABLE
  2
APPID
  5
9
330
0
100
AcDbSymbolTable
 70
     1
  0
APPID
  5
11
330
9
100
AcDbSymbolTableRecord
100
AcDbRegAppTableRecord
  2
ACAD
 70
     0
  0
ENDTAB
  0
TABLE
  2
DIMSTYLE
  5
A
330
0
100
AcDbSymbolTable
 70
     1
  0
DIMSTYLE
105
1D
102
{ACAD_REACTORS
330
3D4
330
3D5
330
3D6
330
451
330
53E
330
564
330
566
330
567
330
574
330
577
330
578
330
59C
102
}
330
A
100
AcDbSymbolTableRecord
100
AcDbDimStyleTableRecord
  2
STANDARD
 70
     0
  3

  4

  5

  6

  7

 40
1.0
 41
0.18
 42
0.0625
 43
0.38
 44
0.18
 45
0.0
 46
0.0
 47
0.0
 48
0.0
140
0.18
141
0.09
142
0.0
143
25.4
144
1.0
145
0.0
146
1.0
147
0.09
 71
     0
 72
     0
 73
     1
 74
     1
 75
     0
 76
     0
 77
     0
 78
     0
170
     0
171
     2
172
     0
173
     0
174
     0
175
     0
176
     0
177
     0
178
     0
270
     2
271
     4
272
     4
273
     2
274
     2
340
10
275
     0
280
     0
281
     0
282
     0
283
     1
284
     0
285
     0
286
     0
287
     3
288
     0
  0
ENDTAB
  0
TABLE
  2
BLOCK_RECORD
  5
1
330
0
100
AcDbSymbolTable
 70
    13
  0
BLOCK_RECORD
  5
1A
102
{ACAD_XDICTIONARY
360
701
102
}
330
1
100
AcDbSymbolTableRecord
100
AcDbBlockTableRecord
  2
*MODEL_SPACE
  0
BLOCK_RECORD
  5
17
102
{ACAD_XDICTIONARY
360
6FF
102
}
330
1
100
AcDbSymbolTableRecord
100
AcDbBlockTableRecord
  2
*PAPER_SPACE
  0
BLOCK_RECORD
  5
6D
330
1
100
AcDbSymbolTableRecord
100
AcDbBlockTableRecord
  2
_OPEN
  0
BLOCK_RECORD
  5
5B4
330
1
100
AcDbSymbolTableRecord
100
AcDbBlockTableRecord
  2
*D1
  0
BLOCK_RECORD
  5
5C0
330
1
100
AcDbSymbolTableRecord
100
AcDbBlockTableRecord
  2
*D2
  0
BLOCK_RECORD
  5
5CB
330
1
100
AcDbSymbolTableRecord
100
AcDbBlockTableRecord
  2
*D3
  0
BLOCK_RECORD
  5
5D7
330
1
100
AcDbSymbolTableRecord
100
AcDbBlockTableRecord
  2
*D4
  0
BLOCK_RECORD
  5
5E3
330
1
100
AcDbSymbolTableRecord
100
AcDbBlockTableRecord
  2
*D5
  0
BLOCK_RECORD
  5
5EF
330
1
100
AcDbSymbolTableRecord
100
AcDbBlockTableRecord
  2
*D6
  0
BLOCK_RECORD
  5
5FD
330
1
100
AcDbSymbolTableRecord
100
AcDbBlockTableRecord
  2
*D7
  0
BLOCK_RECORD
  5
609
330
1
100
AcDbSymbolTableRecord
100
AcDbBlockTableRecord
  2
*D8
  0
BLOCK_RECORD
  5
615
330
1
100
AcDbSymbolTableRecord
100
AcDbBlockTableRecord
  2
*D9
  0
BLOCK_RECORD
  5
623
330
1
100
AcDbSymbolTableRecord
100
AcDbBlockTableRecord
  2
*D10
  0
BLOCK_RECORD
  5
62F
330
1
100
AcDbSymbolTableRecord
100
AcDbBlockTableRecord
  2
*D11
  0
BLOCK_RECORD
  5
63B
330
1
100
AcDbSymbolTableRecord
100
AcDbBlockTableRecord
  2
*D12
  0
ENDTAB
  0
ENDSEC
  0
SECTION
  2
BLOCKS
  0
BLOCK
  5
1B
330
1A
100
AcDbEntity
  8
0
100
AcDbBlockBegin
  2
*MODEL_SPACE
 70
     0
 10
0.0
 20
0.0
 30
0.0
  3
*MODEL_SPACE
  1

  0
ENDBLK
  5
1C
330
1A
100
AcDbEntity
  8
0
100
AcDbBlockEnd
  0
BLOCK
  5
18
330
17
100
AcDbEntity
 67
     1
  8
0
100
AcDbBlockBegin
  2
*PAPER_SPACE
 70
     0
 10
0.0
 20
0.0
 30
0.0
  3
*PAPER_SPACE
  1

  0
ENDBLK
  5
19
330
17
100
AcDbEntity
 67
     1
  8
0
100
AcDbBlockEnd
  0
BLOCK
  5
6E
330
6D
100
AcDbEntity
  8
0
100
AcDbBlockBegin
  2
_OPEN
 70
     0
 10
0.0
 20
0.0
 30
0.0
  3
_OPEN
  1

  0
LINE
  5
6F
330
6D
100
AcDbEntity
  8
0
  6
BYBLOCK
 62
     0
100
AcDbLine
 10
-1.0
 20
0.1666666666666666
 30
0.0
 11
0.0
 21
0.0
 31
0.0
  0
LINE
  5
70
330
6D
100
AcDbEntity
  8
0
  6
BYBLOCK
 62
     0
100
AcDbLine
 10
0.0
 20
0.0
 30
0.0
 11
-1.0
 21
-0.1666666666666666
 31
0.0
  0
LINE
  5
71
330
6D
100
AcDbEntity
  8
0
  6
BYBLOCK
 62
     0
100
AcDbLine
 10
0.0
 20
0.0
 30
0.0
 11
-1.0
 21
0.0
 31
0.0
  0
ENDBLK
  5
72
330
6D
100
AcDbEntity
  8
0
100
AcDbBlockEnd
  0
BLOCK
  5
647
330
5B4
100
AcDbEntity
  8
0
100
AcDbBlockBegin
  2
*D1
 70
     1
 10
0.0
 20
0.0
 30
0.0
  3
*D1
  1

  0
LINE
  5
648
330
5B4
100
AcDbEntity
  8
0
  6
BYBLOCK
 62
     4
100
AcDbLine
 10
443.7080948943933
 20
466.617340139365
 30
0.0
 11
414.97285737541
 21
466.617340139365
 31
0.0
  0
LINE
  5
649
330
5B4
100
AcDbEntity
  8
0
  6
BYBLOCK
 62
     4
100
AcDbLine
 10
537.7077948943933
 20
242.6171401393649
 30
0.0
 11
414.97285737541
 21
242.6171401393649
 31
0.0
  0
LINE
  5
64A
330
5B4
100
AcDbEntity
  8
0
  6
BYBLOCK
 62
     4
100
AcDbLine
 10
417.9728573754101
 20
459.6173401393651
 30
0.0
 11
417.9728573754101
 21
249.617140139365
 31
0.0
  0
INSERT
  5
64B
330
5B4
100
AcDbEntity
  8
0
  6
BYBLOCK
 62
     4
100
AcDbBlockReference
  2
_OPEN
 10
417.9728573754101
 20
466.617340139365
 30
0.0
 41
7.0
 42
7.0
 43
7.0
 50
90.0
  0
INSERT
  5
64C
330
5B4
100
AcDbEntity
  8
0
  6
BYBLOCK
 62
     4
100
AcDbBlockReference
  2
_OPEN
 10
417.9728573754101
 20
242.6171401393649
 30
0.0
 41
7.0
 42
7.0
 43
7.0
 50
270.0
  0
MTEXT
  5
64D
330
5B4
100
AcDbEntity
  8
0
  6
BYBLOCK
 62
     4
100
AcDbMText
 10
412.97285737541
 20
354.617240139365
 30
0.0
 40
6.0
 41
0.0
 71
     5
 72
     1
  1
\A1;224
 11
0.0
 21
1.0
 31
0.0
1001
ACAD
1000
MTEXTBEGIN
1070
    73
1070
     1
1070
    44
1040
1.0
1070
    74
1070
     0
1000
MTEXTEND
1000
MTEXTBEGIN
1070
    73
1070
     1
1070
    44
1040
1.0
1070
    74
1070
     0
1000
MTEXTEND
  0
POINT
  5
64E
330
5B4
100
AcDbEntity
  8
DEFPOINTS
  6
BYBLOCK
 62
     0
100
AcDbPoint
 10
449.7080948943932
 20
466.617340139365
 30
0.0
  0
POINT
  5
64F
330
5B4
100
AcDbEntity
  8
DEFPOINTS
  6
BYBLOCK
 62
     0
100
AcDbPoint
 10
543.7077948943933
 20
242.6171401393649
 30
0.0
  0
POINT
  5
650
330
5B4
100
AcDbEntity
  8
DEFPOINTS
  6
BYBLOCK
 62
     0
100
AcDbPoint
 10
417.9728573754101
 20
242.6171401393649
 30
0.0
  0
ENDBLK
  5
651
330
5B4
100
AcDbEntity
  8
0
100
AcDbBlockEnd
  0
BLOCK
  5
652
330
5C0
100
AcDbEntity
  8
0
100
AcDbBlockBegin
  2
*D2
 70
     1
 10
0.0
 20
0.0
 30
0.0
  3
*D2
  1

  0
LINE
  5
71A
330
5C0
100
AcDbEntity
  8
SUNPOU
  6
CONTINUOUS
 62
     4
100
AcDbLine
 10
563.7847225717175
 20
166.8752234499232
 30
0.0
 11
435.4505850527344
 21
166.8752234499232
 31
0.0
  0
LINE
  5
71B
330
5C0
100
AcDbEntity
  8
SUNPOU
  6
CONTINUOUS
 62
     4
100
AcDbLine
 10
438.4505850527343
 20
187.8753234499232
 30
0.0
 11
438.4505850527343
 21
173.8752234499232
 31
0.0
  0
INSERT
  5
71C
330
5C0
100
AcDbEntity
  8
SUNPOU
  6
CONTINUOUS
 62
     4
100
AcDbBlockReference
  2
_OPEN
 10
438.4505850527343
 20
194.8753234499232
 30
0.0
 41
7.0
 42
7.0
 43
7.0
 50
90.0
  0
INSERT
  5
71D
330
5C0
100
AcDbEntity
  8
SUNPOU
  6
CONTINUOUS
 62
     4
100
AcDbBlockReference
  2
_OPEN
 10
438.4505850527343
 20
166.8752234499232
 30
0.0
 41
7.0
 42
7.0
 43
7.0
 50
270.0
  0
MTEXT
  5
71E
330
5C0
100
AcDbEntity
  8
SUNPOU
  6
CONTINUOUS
 62
     4
100
AcDbMText
 10
433.4505850527342
 20
180.8752734499233
 30
0.0
 40
6.0
 41
0.0
 71
     5
 72
     1
  1
\A1;28
 11
0.0000000000000001
 21
1.0
 31
0.0
  0
POINT
  5
71F
330
5C0
100
AcDbEntity
  8
DEFPOINTS
  6
CONTINUOUS
 62
     0
100
AcDbPoint
 10
564.1855225717177
 20
194.8753234499232
 30
0.0
  0
POINT
  5
720
330
5C0
100
AcDbEntity
  8
DEFPOINTS
  6
CONTINUOUS
 62
     0
100
AcDbPoint
 10
569.7847225717175
 20
166.8752234499232
 30
0.0
  0
POINT
  5
721
330
5C0
100
AcDbEntity
  8
DEFPOINTS
  6
CONTINUOUS
 62
     0
100
AcDbPoint
 10
438.4505850527343
 20
166.8752234499232
 30
0.0
  0
ENDBLK
  5
65B
330
5C0
100
AcDbEntity
  8
0
100
AcDbBlockEnd
  0
BLOCK
  5
65C
330
5CB
100
AcDbEntity
  8
0
100
AcDbBlockBegin
  2
*D3
 70
     1
 10
0.0
 20
0.0
 30
0.0
  3
*D3
  1

  0
LINE
  5
65D
330
5CB
100
AcDbEntity
  8
0
  6
BYBLOCK
 62
     4
100
AcDbLine
 10
443.7080948943933
 20
466.617340139365
 30
0.0
 11
392.7997465733787
 21
466.617340139365
 31
0.0
  0
LINE
  5
65E
330
5CB
100
AcDbEntity
  8
0
  6
BYBLOCK
 62
     4
100
AcDbLine
 10
547.5069948943932
 20
201.617240139365
 30
0.0
 11
392.7997465733787
 21
201.617240139365
 31
0.0
  0
LINE
  5
65F
330
5CB
100
AcDbEntity
  8
0
  6
BYBLOCK
 62
     4
100
AcDbLine
 10
395.7997465733788
 20
459.6173401393651
 30
0.0
 11
395.7997465733788
 21
208.6172401393651
 31
0.0
  0
INSERT
  5
660
330
5CB
100
AcDbEntity
  8
0
  6
BYBLOCK
 62
     4
100
AcDbBlockReference
  2
_OPEN
 10
395.7997465733788
 20
466.617340139365
 30
0.0
 41
7.0
 42
7.0
 43
7.0
 50
90.0
  0
INSERT
  5
661
330
5CB
100
AcDbEntity
  8
0
  6
BYBLOCK
 62
     4
100
AcDbBlockReference
  2
_OPEN
 10
395.7997465733788
 20
201.617240139365
 30
0.0
 41
7.0
 42
7.0
 43
7.0
 50
270.0
  0
MTEXT
  5
662
330
5CB
100
AcDbEntity
  8
0
  6
BYBLOCK
 62
     4
100
AcDbMText
 10
390.7997465733787
 20
334.1172901393651
 30
0.0
 40
6.0
 41
0.0
 71
     5
 72
     1
  1
\A1;265
 11
0.0
 21
1.0
 31
0.0
1001
ACAD
1000
MTEXTBEGIN
1070
    73
1070
     1
1070
    44
1040
1.0
1070
    74
1070
     0
1000
MTEXTEND
1000
MTEXTBEGIN
1070
    73
1070
     1
1070
    44
1040
1.0
1070
    74
1070
     0
1000
MTEXTEND
  0
POINT
  5
663
330
5CB
100
AcDbEntity
  8
DEFPOINTS
  6
BYBLOCK
 62
     0
100
AcDbPoint
 10
449.7080948943932
 20
466.617340139365
 30
0.0
  0
POINT
  5
664
330
5CB
100
AcDbEntity
  8
DEFPOINTS
  6
BYBLOCK
 62
     0
100
AcDbPoint
 10
553.5069948943933
 20
201.617240139365
 30
0.0
  0
POINT
  5
665
330
5CB
100
AcDbEntity
  8
DEFPOINTS
  6
BYBLOCK
 62
     0
100
AcDbPoint
 10
395.7997465733788
 20
201.617240139365
 30
0.0
  0
ENDBLK
  5
666
330
5CB
100
AcDbEntity
  8
0
100
AcDbBlockEnd
  0
BLOCK
  5
667
330
5D7
100
AcDbEntity
  8
0
100
AcDbBlockBegin
  2
*D4
 70
     1
 10
0.0
 20
0.0
 30
0.0
  3
*D4
  1

  0
LINE
  5
668
330
5D7
100
AcDbEntity
  8
0
  6
BYBLOCK
 62
     4
100
AcDbLine
 10
98.99695900686706
 20
472.617940139365
 30
0.0
 11
98.99695900686706
 21
517.2935779229248
 31
0.0
  0
LINE
  5
669
330
5D7
100
AcDbEntity
  8
0
  6
BYBLOCK
 62
     4
100
AcDbLine
 10
352.997009006867
 20
472.6175401393649
 30
0.0
 11
352.997009006867
 21
517.2935779229248
 31
0.0
  0
LINE
  5
66A
330
5D7
100
AcDbEntity
  8
0
  6
BYBLOCK
 62
     4
100
AcDbLine
 10
105.996959006867
 20
514.2935779229248
 30
0.0
 11
345.997009006867
 21
514.2935779229248
 31
0.0
  0
INSERT
  5
66B
330
5D7
100
AcDbEntity
  8
0
  6
BYBLOCK
 62
     4
100
AcDbBlockReference
  2
_OPEN
 10
98.99695900686706
 20
514.2935779229248
 30
0.0
 41
7.0
 42
7.0
 43
7.0
 50
180.0
  0
INSERT
  5
66C
330
5D7
100
AcDbEntity
  8
0
  6
BYBLOCK
 62
     4
100
AcDbBlockReference
  2
_OPEN
 10
352.997009006867
 20
514.2935779229248
 30
0.0
 41
7.0
 42
7.0
 43
7.0
  0
MTEXT
  5
66D
330
5D7
100
AcDbEntity
  8
0
  6
BYBLOCK
 62
     4
100
AcDbMText
 10
225.996984006867
 20
519.2935779229249
 30
0.0
 40
6.0
 41
0.0
 71
     5
 72
     1
  1
\A1;254
1001
ACAD
1000
MTEXTBEGIN
1070
    73
1070
     1
1070
    44
1040
1.0
1070
    74
1070
     0
1000
MTEXTEND
1000
MTEXTBEGIN
1070
    73
1070
     1
1070
    44
1040
1.0
1070
    74
1070
     0
1000
MTEXTEND
  0
POINT
  5
66E
330
5D7
100
AcDbEntity
  8
DEFPOINTS
  6
BYBLOCK
 62
     0
100
AcDbPoint
 10
98.99695900686706
 20
466.6179401393651
 30
0.0
  0
POINT
  5
66F
330
5D7
100
AcDbEntity
  8
DEFPOINTS
  6
BYBLOCK
 62
     0
100
AcDbPoint
 10
352.997009006867
 20
466.6175401393648
 30
0.0
  0
POINT
  5
670
330
5D7
100
AcDbEntity
  8
DEFPOINTS
  6
BYBLOCK
 62
     0
100
AcDbPoint
 10
352.997009006867
 20
514.2935779229248
 30
0.0
  0
ENDBLK
  5
671
330
5D7
100
AcDbEntity
  8
0
100
AcDbBlockEnd
  0
BLOCK
  5
672
330
5E3
100
AcDbEntity
  8
0
100
AcDbBlockBegin
  2
*D5
 70
     1
 10
0.0
 20
0.0
 30
0.0
  3
*D5
  1

  0
LINE
  5
673
330
5E3
100
AcDbEntity
  8
0
  6
BYBLOCK
 62
     4
100
AcDbLine
 10
195.9969823224099
 20
472.6176346276008
 30
0.0
 11
195.9969823224099
 21
498.6005004853739
 31
0.0
  0
LINE
  5
674
330
5E3
100
AcDbEntity
  8
0
  6
BYBLOCK
 62
     4
100
AcDbLine
 10
255.9969823223364
 20
472.6175401393649
 30
0.0
 11
255.9969823223364
 21
498.6005004853739
 31
0.0
  0
LINE
  5
675
330
5E3
100
AcDbEntity
  8
0
  6
BYBLOCK
 62
     4
100
AcDbLine
 10
202.9969823224099
 20
495.6005004853738
 30
0.0
 11
248.9969823223364
 21
495.6005004853738
 31
0.0
  0
INSERT
  5
676
330
5E3
100
AcDbEntity
  8
0
  6
BYBLOCK
 62
     4
100
AcDbBlockReference
  2
_OPEN
 10
195.9969823224099
 20
495.6005004853738
 30
0.0
 41
7.0
 42
7.0
 43
7.0
 50
180.0
  0
INSERT
  5
677
330
5E3
100
AcDbEntity
  8
0
  6
BYBLOCK
 62
     4
100
AcDbBlockReference
  2
_OPEN
 10
255.9969823223364
 20
495.6005004853738
 30
0.0
 41
7.0
 42
7.0
 43
7.0
  0
MTEXT
  5
678
330
5E3
100
AcDbEntity
  8
0
  6
BYBLOCK
 62
     4
100
AcDbMText
 10
225.9969823223731
 20
500.6005004853739
 30
0.0
 40
6.0
 41
0.0
 71
     5
 72
     1
  1
\A1;※a60
1001
ACAD
1000
MTEXTBEGIN
1070
    73
1070
     1
1070
    44
1040
1.0
1070
    74
1070
     0
1000
MTEXTEND
1000
MTEXTBEGIN
1070
    73
1070
     1
1070
    44
1040
1.0
1070
    74
1070
     0
1000
MTEXTEND
  0
POINT
  5
679
330
5E3
100
AcDbEntity
  8
DEFPOINTS
  6
BYBLOCK
 62
     0
100
AcDbPoint
 10
195.9969823224099
 20
466.6176346276007
 30
0.0
  0
POINT
  5
67A
330
5E3
100
AcDbEntity
  8
DEFPOINTS
  6
BYBLOCK
 62
     0
100
AcDbPoint
 10
255.9969823223364
 20
466.6175401393648
 30
0.0
  0
POINT
  5
67B
330
5E3
100
AcDbEntity
  8
DEFPOINTS
  6
BYBLOCK
 62
     0
100
AcDbPoint
 10
255.9969823223364
 20
495.6005004853738
 30
0.0
  0
ENDBLK
  5
67C
330
5E3
100
AcDbEntity
  8
0
100
AcDbBlockEnd
  0
BLOCK
  5
67D
330
5EF
100
AcDbEntity
  8
0
100
AcDbBlockBegin
  2
*D6
 70
     1
 10
0.0
 20
0.0
 30
0.0
  3
*D6
  1

  0
LINE
  5
67E
330
5EF
100
AcDbEntity
  8
0
  6
BYBLOCK
 62
     4
100
AcDbLine
 10
636.1076948943932
 20
214.616940139365
 30
0.0
 11
673.4331068852607
 21
214.616940139365
 31
0.0
  0
LINE
  5
67F
330
5EF
100
AcDbEntity
  8
0
  6
BYBLOCK
 62
     4
100
AcDbLine
 10
641.7077308943379
 20
226.6169262779266
 30
0.0
 11
673.4331068852607
 21
226.6169262779266
 31
0.0
  0
LINE
  5
680
330
5EF
100
AcDbEntity
  8
0
  6
BYBLOCK
 62
     4
100
AcDbLine
 10
670.4331068852606
 20
207.616940139365
 30
0.0
 11
670.4331068852606
 21
200.6169401393651
 31
0.0
  0
LINE
  5
681
330
5EF
100
AcDbEntity
  8
0
  6
BYBLOCK
 62
     4
100
AcDbLine
 10
670.4331068852606
 20
233.6169262779266
 30
0.0
 11
670.4331068852606
 21
269.4169262779266
 31
0.0
  0
LINE
  5
682
330
5EF
100
AcDbEntity
  8
0
  6
BYBLOCK
 62
     4
100
AcDbLine
 10
670.4331068852606
 20
214.616940139365
 30
0.0
 11
670.4331068852606
 21
226.6169262779266
 31
0.0
  0
INSERT
  5
683
330
5EF
100
AcDbEntity
  8
0
  6
BYBLOCK
 62
     4
100
AcDbBlockReference
  2
_OPEN
 10
670.4331068852606
 20
214.616940139365
 30
0.0
 41
7.0
 42
7.0
 43
7.0
 50
90.0
  0
INSERT
  5
684
330
5EF
100
AcDbEntity
  8
0
  6
BYBLOCK
 62
     4
100
AcDbBlockReference
  2
_OPEN
 10
670.4331068852606
 20
226.6169262779266
 30
0.0
 41
7.0
 42
7.0
 43
7.0
 50
270.0
  0
MTEXT
  5
685
330
5EF
100
AcDbEntity
  8
0
  6
BYBLOCK
 62
     4
100
AcDbMText
 10
665.4331068852607
 20
255.0169262779266
 30
0.0
 40
6.0
 41
0.0
 71
     5
 72
     1
  1
\A1;※b 12
 11
0.0
 21
1.0
 31
0.0
1001
ACAD
1000
MTEXTBEGIN
1070
    73
1070
     1
1070
    44
1040
1.0
1070
    74
1070
     0
1000
MTEXTEND
1000
MTEXTBEGIN
1070
    73
1070
     1
1070
    44
1040
1.0
1070
    74
1070
     0
1000
MTEXTEND
  0
POINT
  5
686
330
5EF
100
AcDbEntity
  8
DEFPOINTS
  6
BYBLOCK
 62
     0
100
AcDbPoint
 10
630.1076948943932
 20
214.616940139365
 30
0.0
  0
POINT
  5
687
330
5EF
100
AcDbEntity
  8
DEFPOINTS
  6
BYBLOCK
 62
     0
100
AcDbPoint
 10
635.7077308943379
 20
226.6169262779266
 30
0.0
  0
POINT
  5
688
330
5EF
100
AcDbEntity
  8
DEFPOINTS
  6
BYBLOCK
 62
     0
100
AcDbPoint
 10
670.4331068852606
 20
226.6169262779266
 30
0.0
  0
ENDBLK
  5
689
330
5EF
100
AcDbEntity
  8
0
100
AcDbBlockEnd
  0
BLOCK
  5
68A
330
5FD
100
AcDbEntity
  8
0
100
AcDbBlockBegin
  2
*D7
 70
     1
 10
0.0
 20
0.0
 30
0.0
  3
*D7
  1

  0
LINE
  5
68B
330
5FD
100
AcDbEntity
  8
0
  6
BYBLOCK
 62
     4
100
AcDbLine
 10
625.9076948943932
 20
195.617040139365
 30
0.0
 11
625.9076948943932
 21
166.1108057271608
 31
0.0
  0
LINE
  5
68C
330
5FD
100
AcDbEntity
  8
0
  6
BYBLOCK
 62
     4
100
AcDbLine
 10
553.5069948943933
 20
195.6172401393651
 30
0.0
 11
553.5069948943933
 21
166.1108057271608
 31
0.0
  0
LINE
  5
68D
330
5FD
100
AcDbEntity
  8
0
  6
BYBLOCK
 62
     4
100
AcDbLine
 10
618.9076948943932
 20
169.1108057271608
 30
0.0
 11
560.5069948943933
 21
169.1108057271608
 31
0.0
  0
INSERT
  5
68E
330
5FD
100
AcDbEntity
  8
0
  6
BYBLOCK
 62
     4
100
AcDbBlockReference
  2
_OPEN
 10
625.9076948943932
 20
169.1108057271608
 30
0.0
 41
7.0
 42
7.0
 43
7.0
  0
INSERT
  5
68F
330
5FD
100
AcDbEntity
  8
0
  6
BYBLOCK
 62
     4
100
AcDbBlockReference
  2
_OPEN
 10
553.5069948943933
 20
169.1108057271608
 30
0.0
 41
7.0
 42
7.0
 43
7.0
 50
180.0
  0
MTEXT
  5
690
330
5FD
100
AcDbEntity
  8
0
  6
BYBLOCK
 62
     4
100
AcDbMText
 10
589.7073448943932
 20
174.1108057271608
 30
0.0
 40
6.0
 41
0.0
 71
     5
 72
     1
  1
\A1;φ72
1001
ACAD
1000
MTEXTBEGIN
1070
    73
1070
     1
1070
    44
1040
1.0
1070
    74
1070
     0
1000
MTEXTEND
1000
MTEXTBEGIN
1070
    73
1070
     1
1070
    44
1040
1.0
1070
    74
1070
     0
1000
MTEXTEND
  0
POINT
  5
691
330
5FD
100
AcDbEntity
  8
DEFPOINTS
  6
BYBLOCK
 62
     0
100
AcDbPoint
 10
625.9076948943932
 20
201.6170401393651
 30
0.0
  0
POINT
  5
692
330
5FD
100
AcDbEntity
  8
DEFPOINTS
  6
BYBLOCK
 62
     0
100
AcDbPoint
 10
553.5069948943933
 20
201.617240139365
 30
0.0
  0
POINT
  5
693
330
5FD
100
AcDbEntity
  8
DEFPOINTS
  6
BYBLOCK
 62
     0
100
AcDbPoint
 10
553.5069948943933
 20
169.1108057271608
 30
0.0
  0
ENDBLK
  5
694
330
5FD
100
AcDbEntity
  8
0
100
AcDbBlockEnd
  0
BLOCK
  5
695
330
609
100
AcDbEntity
  8
0
100
AcDbBlockBegin
  2
*D8
 70
     1
 10
0.0
 20
0.0
 30
0.0
  3
*D8
  1

  0
LINE
  5
696
330
609
100
AcDbEntity
  8
0
  6
BYBLOCK
 62
     4
100
AcDbLine
 10
635.7076948943934
 20
211.616940139365
 30
0.0
 11
635.7076948943934
 21
143.9560472271962
 31
0.0
  0
LINE
  5
697
330
609
100
AcDbEntity
  8
0
  6
BYBLOCK
 62
     4
100
AcDbLine
 10
543.7069948943931
 20
211.617040139365
 30
0.0
 11
543.7069948943931
 21
143.9560472271962
 31
0.0
  0
LINE
  5
698
330
609
100
AcDbEntity
  8
0
  6
BYBLOCK
 62
     4
100
AcDbLine
 10
628.7076948943933
 20
146.9560472271962
 30
0.0
 11
550.706994894393
 21
146.9560472271962
 31
0.0
  0
INSERT
  5
699
330
609
100
AcDbEntity
  8
0
  6
BYBLOCK
 62
     4
100
AcDbBlockReference
  2
_OPEN
 10
635.7076948943934
 20
146.9560472271962
 30
0.0
 41
7.0
 42
7.0
 43
7.0
  0
INSERT
  5
69A
330
609
100
AcDbEntity
  8
0
  6
BYBLOCK
 62
     4
100
AcDbBlockReference
  2
_OPEN
 10
543.7069948943931
 20
146.9560472271962
 30
0.0
 41
7.0
 42
7.0
 43
7.0
 50
180.0
  0
MTEXT
  5
69B
330
609
100
AcDbEntity
  8
0
  6
BYBLOCK
 62
     4
100
AcDbMText
 10
589.7073448943932
 20
151.9560472271962
 30
0.0
 40
6.0
 41
0.0
 71
     5
 72
     1
  1
\A1;φ92
1001
ACAD
1000
MTEXTBEGIN
1070
    73
1070
     1
1070
    44
1040
1.0
1070
    74
1070
     0
1000
MTEXTEND
1000
MTEXTBEGIN
1070
    73
1070
     1
1070
    44
1040
1.0
1070
    74
1070
     0
1000
MTEXTEND
  0
POINT
  5
69C
330
609
100
AcDbEntity
  8
DEFPOINTS
  6
BYBLOCK
 62
     0
100
AcDbPoint
 10
635.7076948943934
 20
217.616940139365
 30
0.0
  0
POINT
  5
69D
330
609
100
AcDbEntity
  8
DEFPOINTS
  6
BYBLOCK
 62
     0
100
AcDbPoint
 10
543.7069948943931
 20
217.617040139365
 30
0.0
  0
POINT
  5
69E
330
609
100
AcDbEntity
  8
DEFPOINTS
  6
BYBLOCK
 62
     0
100
AcDbPoint
 10
543.7069948943931
 20
146.9560472271962
 30
0.0
  0
ENDBLK
  5
69F
330
609
100
AcDbEntity
  8
0
100
AcDbBlockEnd
  0
BLOCK
  5
6A0
330
615
100
AcDbEntity
  8
0
100
AcDbBlockBegin
  2
*D9
 70
     1
 10
0.0
 20
0.0
 30
0.0
  3
*D9
  1

  0
LINE
  5
6A1
330
615
100
AcDbEntity
  8
0
  6
BYBLOCK
 62
     4
100
AcDbLine
 10
589.7077948943933
 20
263.3992401393651
 30
0.0
 11
589.7077948943933
 21
298.1652667993932
 31
0.0
  0
LINE
  5
6A2
330
615
100
AcDbEntity
  8
0
  6
BYBLOCK
 62
     4
100
AcDbLine
 10
592.4577948943931
 20
318.7807401393651
 30
0.0
 11
592.4577948943931
 21
292.1652667993932
 31
0.0
  0
LINE
  5
6A3
330
615
100
AcDbEntity
  8
0
  6
BYBLOCK
 62
     4
100
AcDbLine
 10
582.7077948943934
 20
295.1652667993932
 30
0.0
 11
575.7077948943933
 21
295.1652667993932
 31
0.0
  0
LINE
  5
6A4
330
615
100
AcDbEntity
  8
0
  6
BYBLOCK
 62
     4
100
AcDbLine
 10
599.4577948943931
 20
295.1652667993932
 30
0.0
 11
614.4577948943931
 21
295.1652667993932
 31
0.0
  0
LINE
  5
6A5
330
615
100
AcDbEntity
  8
0
  6
BYBLOCK
 62
     4
100
AcDbLine
 10
589.7077948943933
 20
295.1652667993932
 30
0.0
 11
592.4577948943931
 21
295.1652667993932
 31
0.0
  0
INSERT
  5
6A6
330
615
100
AcDbEntity
  8
0
  6
BYBLOCK
 62
     4
100
AcDbBlockReference
  2
_OPEN
 10
589.7077948943933
 20
295.1652667993932
 30
0.0
 41
7.0
 42
7.0
 43
7.0
  0
INSERT
  5
6A7
330
615
100
AcDbEntity
  8
0
  6
BYBLOCK
 62
     4
100
AcDbBlockReference
  2
_OPEN
 10
592.4577948943931
 20
295.1652667993932
 30
0.0
 41
7.0
 42
7.0
 43
7.0
 50
180.0
  0
MTEXT
  5
6A8
330
615
100
AcDbEntity
  8
0
  6
BYBLOCK
 62
     4
100
AcDbMText
 10
610.4577948943931
 20
300.1652667993933
 30
0.0
 40
6.0
 41
0.0
 71
     5
 72
     1
  1
\A1;3
1001
ACAD
1000
MTEXTBEGIN
1070
    73
1070
     1
1070
    44
1040
1.0
1070
    74
1070
     0
1000
MTEXTEND
1000
MTEXTBEGIN
1070
    73
1070
     1
1070
    44
1040
1.0
1070
    74
1070
     0
1000
MTEXTEND
  0
POINT
  5
6A9
330
615
100
AcDbEntity
  8
DEFPOINTS
  6
BYBLOCK
 62
     0
100
AcDbPoint
 10
589.7077948943933
 20
257.3992401393651
 30
0.0
  0
POINT
  5
6AA
330
615
100
AcDbEntity
  8
DEFPOINTS
  6
BYBLOCK
 62
     0
100
AcDbPoint
 10
592.4577948943931
 20
324.7807401393651
 30
0.0
  0
POINT
  5
6AB
330
615
100
AcDbEntity
  8
DEFPOINTS
  6
BYBLOCK
 62
     0
100
AcDbPoint
 10
592.4577948943931
 20
295.1652667993932
 30
0.0
  0
ENDBLK
  5
6AC
330
615
100
AcDbEntity
  8
0
100
AcDbBlockEnd
  0
BLOCK
  5
6AD
330
623
100
AcDbEntity
  8
0
100
AcDbBlockBegin
  2
*D10
 70
     1
 10
0.0
 20
0.0
 30
0.0
  3
*D10
  1

  0
LINE
  5
6AE
330
623
100
AcDbEntity
  8
0
  6
BYBLOCK
 62
     4
100
AcDbLine
 10
661.707994894393
 20
400.616940139365
 30
0.0
 11
685.8254535766746
 21
400.616940139365
 31
0.0
  0
LINE
  5
6AF
330
623
100
AcDbEntity
  8
0
  6
BYBLOCK
 62
     4
100
AcDbLine
 10
598.4577948943931
 20
342.3176560111726
 30
0.0
 11
685.8254535766746
 21
342.3176560111726
 31
0.0
  0
LINE
  5
6B0
330
623
100
AcDbEntity
  8
0
  6
BYBLOCK
 62
     4
100
AcDbLine
 10
682.8254535766745
 20
393.616940139365
 30
0.0
 11
682.8254535766745
 21
349.3176560111726
 31
0.0
  0
INSERT
  5
6B1
330
623
100
AcDbEntity
  8
0
  6
BYBLOCK
 62
     4
100
AcDbBlockReference
  2
_OPEN
 10
682.8254535766745
 20
400.616940139365
 30
0.0
 41
7.0
 42
7.0
 43
7.0
 50
90.0
  0
INSERT
  5
6B2
330
623
100
AcDbEntity
  8
0
  6
BYBLOCK
 62
     4
100
AcDbBlockReference
  2
_OPEN
 10
682.8254535766745
 20
342.3176560111726
 30
0.0
 41
7.0
 42
7.0
 43
7.0
 50
270.0
  0
MTEXT
  5
6B3
330
623
100
AcDbEntity
  8
0
  6
BYBLOCK
 62
     4
100
AcDbMText
 10
677.8254535766746
 20
371.4672980752688
 30
0.0
 40
6.0
 41
0.0
 71
     5
 72
     1
  1
\A1;58
 11
0.0
 21
1.0
 31
0.0
1001
ACAD
1000
MTEXTBEGIN
1070
    73
1070
     1
1070
    44
1040
1.0
1070
    74
1070
     0
1000
MTEXTEND
1000
MTEXTBEGIN
1070
    73
1070
     1
1070
    44
1040
1.0
1070
    74
1070
     0
1000
MTEXTEND
  0
POINT
  5
6B4
330
623
100
AcDbEntity
  8
DEFPOINTS
  6
BYBLOCK
 62
     0
100
AcDbPoint
 10
655.7079948943931
 20
400.616940139365
 30
0.0
  0
POINT
  5
6B5
330
623
100
AcDbEntity
  8
DEFPOINTS
  6
BYBLOCK
 62
     0
100
AcDbPoint
 10
592.4577948943931
 20
342.3176560111726
 30
0.0
  0
POINT
  5
6B6
330
623
100
AcDbEntity
  8
DEFPOINTS
  6
BYBLOCK
 62
     0
100
AcDbPoint
 10
682.8254535766745
 20
342.3176560111726
 30
0.0
  0
ENDBLK
  5
6B7
330
623
100
AcDbEntity
  8
0
100
AcDbBlockEnd
  0
BLOCK
  5
6B8
330
62F
100
AcDbEntity
  8
0
100
AcDbBlockBegin
  2
*D11
 70
     1
 10
0.0
 20
0.0
 30
0.0
  3
*D11
  1

  0
LINE
  5
6B9
330
62F
100
AcDbEntity
  8
0
  6
BYBLOCK
 62
     4
100
AcDbLine
 10
655.7079948943931
 20
406.616940139365
 30
0.0
 11
655.7079948943931
 21
517.3618683347474
 31
0.0
  0
LINE
  5
6BA
330
62F
100
AcDbEntity
  8
0
  6
BYBLOCK
 62
     4
100
AcDbLine
 10
449.7080948943932
 20
472.617340139365
 30
0.0
 11
449.7080948943932
 21
517.3618683347474
 31
0.0
  0
LINE
  5
6BB
330
62F
100
AcDbEntity
  8
0
  6
BYBLOCK
 62
     4
100
AcDbLine
 10
648.7079948943931
 20
514.3618683347474
 30
0.0
 11
456.7080948943933
 21
514.3618683347474
 31
0.0
  0
INSERT
  5
6BC
330
62F
100
AcDbEntity
  8
0
  6
BYBLOCK
 62
     4
100
AcDbBlockReference
  2
_OPEN
 10
655.7079948943931
 20
514.3618683347474
 30
0.0
 41
7.0
 42
7.0
 43
7.0
  0
INSERT
  5
6BD
330
62F
100
AcDbEntity
  8
0
  6
BYBLOCK
 62
     4
100
AcDbBlockReference
  2
_OPEN
 10
449.7080948943932
 20
514.3618683347474
 30
0.0
 41
7.0
 42
7.0
 43
7.0
 50
180.0
  0
MTEXT
  5
6BE
330
62F
100
AcDbEntity
  8
0
  6
BYBLOCK
 62
     4
100
AcDbMText
 10
552.7080448943932
 20
519.3618683347474
 30
0.0
 40
6.0
 41
0.0
 71
     5
 72
     1
  1
\A1;206
1001
ACAD
1000
MTEXTBEGIN
1070
    73
1070
     1
1070
    44
1040
1.0
1070
    74
1070
     0
1000
MTEXTEND
1000
MTEXTBEGIN
1070
    73
1070
     1
1070
    44
1040
1.0
1070
    74
1070
     0
1000
MTEXTEND
  0
POINT
  5
6BF
330
62F
100
AcDbEntity
  8
DEFPOINTS
  6
BYBLOCK
 62
     0
100
AcDbPoint
 10
655.7079948943931
 20
400.616940139365
 30
0.0
  0
POINT
  5
6C0
330
62F
100
AcDbEntity
  8
DEFPOINTS
  6
BYBLOCK
 62
     0
100
AcDbPoint
 10
449.7080948943932
 20
466.617340139365
 30
0.0
  0
POINT
  5
6C1
330
62F
100
AcDbEntity
  8
DEFPOINTS
  6
BYBLOCK
 62
     0
100
AcDbPoint
 10
449.7080948943932
 20
514.3618683347474
 30
0.0
  0
ENDBLK
  5
6C2
330
62F
100
AcDbEntity
  8
0
100
AcDbBlockEnd
  0
BLOCK
  5
6C3
330
63B
100
AcDbEntity
  8
0
100
AcDbBlockBegin
  2
*D12
 70
     1
 10
0.0
 20
0.0
 30
0.0
  3
*D12
  1

  0
LINE
  5
6C4
330
63B
100
AcDbEntity
  8
0
  6
BYBLOCK
 62
     4
100
AcDbLine
 10
655.7079948943931
 20
406.616940139365
 30
0.0
 11
655.7079948943931
 21
498.6687911608869
 31
0.0
  0
LINE
  5
6C5
330
63B
100
AcDbEntity
  8
0
  6
BYBLOCK
 62
     4
100
AcDbLine
 10
592.4577948943931
 20
406.616840139365
 30
0.0
 11
592.4577948943931
 21
498.6687911608869
 31
0.0
  0
LINE
  5
6C6
330
63B
100
AcDbEntity
  8
0
  6
BYBLOCK
 62
     4
100
AcDbLine
 10
648.7079948943931
 20
495.6687911608869
 30
0.0
 11
599.4577948943931
 21
495.6687911608869
 31
0.0
  0
INSERT
  5
6C7
330
63B
100
AcDbEntity
  8
0
  6
BYBLOCK
 62
     4
100
AcDbBlockReference
  2
_OPEN
 10
655.7079948943931
 20
495.6687911608869
 30
0.0
 41
7.0
 42
7.0
 43
7.0
  0
INSERT
  5
6C8
330
63B
100
AcDbEntity
  8
0
  6
BYBLOCK
 62
     4
100
AcDbBlockReference
  2
_OPEN
 10
592.4577948943931
 20
495.6687911608869
 30
0.0
 41
7.0
 42
7.0
 43
7.0
 50
180.0
  0
MTEXT
  5
6C9
330
63B
100
AcDbEntity
  8
0
  6
BYBLOCK
 62
     4
100
AcDbMText
 10
624.0828948943931
 20
500.6687911608869
 30
0.0
 40
6.0
 41
0.0
 71
     5
 72
     1
  1
\A1;63
1001
ACAD
1000
MTEXTBEGIN
1070
    73
1070
     1
1070
    44
1040
1.0
1070
    74
1070
     0
1000
MTEXTEND
1000
MTEXTBEGIN
1070
    73
1070
     1
1070
    44
1040
1.0
1070
    74
1070
     0
1000
MTEXTEND
  0
POINT
  5
6CA
330
63B
100
AcDbEntity
  8
DEFPOINTS
  6
BYBLOCK
 62
     0
100
AcDbPoint
 10
655.7079948943931
 20
400.616940139365
 30
0.0
  0
POINT
  5
6CB
330
63B
100
AcDbEntity
  8
DEFPOINTS
  6
BYBLOCK
 62
     0
100
AcDbPoint
 10
592.4577948943931
 20
400.616840139365
 30
0.0
  0
POINT
  5
6CC
330
63B
100
AcDbEntity
  8
DEFPOINTS
  6
BYBLOCK
 62
     0
100
AcDbPoint
 10
592.4577948943931
 20
495.6687911608869
 30
0.0
  0
ENDBLK
  5
6CD
330
63B
100
AcDbEntity
  8
0
100
AcDbBlockEnd
  0
ENDSEC
  0
SECTION
  2
ENTITIES
  0
TEXT
  5
11A
330
1A
100
AcDbEntity
  8
ZUWAKU
 62
     7
 48
10.0
100
AcDbText
 10
795.5579444309237
 20
4.974918402528146
 30
0.0
 40
8.0
  1
A1
100
AcDbText
  0
LINE
  5
11B
330
1A
100
AcDbEntity
  8
ZUWAKU
 62
     7
 48
10.0
100
AcDbLine
 10
10.05047808566086
 20
25.78258628282265
 30
0.0
 11
806.0504780856609
 21
25.78258628282253
 31
0.0
  0
LINE
  5
11C
330
1A
100
AcDbEntity
  8
ZUWAKU
  6
CONTINUOUS
 62
     7
100
AcDbLine
 10
806.0504780856609
 20
563.7825862828226
 30
0.0
 11
10.05047808566086
 21
563.7825862828226
 31
0.0
  0
LINE
  5
11D
330
1A
100
AcDbEntity
  8
ZUWAKU
  6
CONTINUOUS
 62
     7
100
AcDbLine
 10
806.0504780856609
 20
13.78258628282265
 30
0.0
 11
10.05047808566086
 21
13.78258628282265
 31
0.0
  0
LINE
  5
11E
330
1A
100
AcDbEntity
  8
ZUWAKU
  6
CONTINUOUS
 62
     7
100
AcDbLine
 10
10.05047808566086
 20
563.7825862828226
 30
0.0
 11
10.05047808566086
 21
13.78258628282265
 31
0.0
  0
LINE
  5
11F
330
1A
100
AcDbEntity
  8
ZUWAKU
 62
     7
 48
10.0
100
AcDbLine
 10
44.55797523147839
 20
13.78258628282265
 30
0.0
 11
44.5579752314784
 21
25.78258628282265
 31
0.0
  0
TEXT
  5
120
330
1A
100
AcDbEntity
  8
ZUWAKU
 62
     7
100
AcDbText
 10
16.05676551180931
 20
15.52294263804401
 30
0.0
 40
8.0
  1
品 種
100
AcDbText
  0
LINE
  5
121
330
1A
100
AcDbEntity
  8
ZUWAKU
 62
     7
 48
10.0
100
AcDbLine
 10
276.1028387068254
 20
13.78258628282265
 30
0.0
 11
276.1028387068254
 21
25.78258628282261
 31
0.0
  0
LINE
  5
122
330
1A
100
AcDbEntity
  8
ZUWAKU
 62
     7
 48
10.0
100
AcDbLine
 10
209.5138526425484
 20
13.78258628282265
 30
0.0
 11
209.5138526425485
 21
25.78258628282263
 31
0.0
  0
TEXT
  5
123
330
1A
100
AcDbEntity
  8
ZUWAKU
 62
     7
100
AcDbText
 10
282.3131429914078
 20
15.64241700452384
 30
0.0
 40
8.0
  1
飾りじょうご　型　１０５－ＵＴ７５
100
AcDbText
  0
TEXT
  5
124
330
1A
100
AcDbEntity
  8
ZUWAKU
 62
     7
100
AcDbText
 10
215.4560837190756
 20
16.18358115302453
 30
0.0
 40
8.0
  1
品名・ｻ ｲ ｽﾞ
100
AcDbText
  0
TEXT
  5
125
330
1A
100
AcDbEntity
  8
ZUWAKU
 62
     7
100
AcDbText
 10
50.3519382305086
 20
16.10306189639755
 30
0.0
 40
8.0
  1
丸トップ　のきとい
100
AcDbText
  0
LINE
  5
126
330
1A
100
AcDbEntity
  8
ZUWAKU
 62
     7
 48
10.0
100
AcDbLine
 10
768.7231079932794
 20
13.78258628282237
 30
0.0
 11
768.7231079932794
 21
25.78258628282254
 31
0.0
  0
LINE
  5
127
330
1A
100
AcDbEntity
  8
ZUWAKU
 62
     7
 48
10.0
100
AcDbLine
 10
733.8119002376948
 20
13.78258628282242
 30
0.0
 11
733.8119002376946
 21
25.78258628282254
 31
0.0
  0
TEXT
  5
128
330
1A
100
AcDbEntity
  8
ZUWAKU
 62
     7
100
AcDbText
 10
739.6955629973526
 20
15.24227755810852
 30
0.0
 40
8.0
  1
尺 度
100
AcDbText
  0
TEXT
  5
129
330
1A
100
AcDbEntity
  8
ZUWAKU
 62
     7
100
AcDbText
 10
779.7374630323229
 20
15.55488920081529
 30
0.0
 40
8.0
  1
1/2
100
AcDbText
  0
TEXT
  5
12A
330
1A
100
AcDbEntity
  8
ZUWAKU
 62
     7
100
AcDbText
 10
654.2531733678779
 20
15.90287984531518
 30
0.0
 40
8.0
  1
ＧＨ９３
100
AcDbText
  0
TEXT
  5
12B
330
1A
100
AcDbEntity
  8
ZUWAKU
 62
     7
100
AcDbText
 10
620.3363288383084
 20
15.6519090944263
 30
0.0
 40
8.0
  1
品 番
100
AcDbText
  0
LINE
  5
12C
330
1A
100
AcDbEntity
  8
ZUWAKU
 62
     7
 48
10.0
100
AcDbLine
 10
614.3351028194128
 20
13.78258628282232
 30
0.0
 11
614.3351028194128
 21
25.78258628282256
 31
0.0
  0
LINE
  5
12D
330
1A
100
AcDbEntity
  8
ZUWAKU
 62
     7
 48
10.0
100
AcDbLine
 10
648.7607587371021
 20
13.78258628282232
 30
0.0
 11
648.7607587371021
 21
25.78258628282255
 31
0.0
  0
TEXT
  5
12E
330
1A
100
AcDbEntity
  8
ZUWAKU
 62
     7
 48
10.0
100
AcDbText
 10
646.2758615931216
 20
4.949376903717848
 30
0.0
 40
8.0
  1
積水化学工業株式会社  建材
100
AcDbText
  0
LINE
  5
12F
330
1A
100
AcDbEntity
  8
ZUWAKU
  6
CONTINUOUS
 62
     7
100
AcDbLine
 10
806.0504780856609
 20
563.7825862828226
 30
0.0
 11
806.0504780856609
 21
13.78258628282265
 31
0.0
  0
DIMENSION
  5
3D4
330
1A
100
AcDbEntity
  8
SUNPOU
  6
CONTINUOUS
100
AcDbDimension
  2
*D1
 10
438.4505850527343
 20
194.8753234499232
 30
0.0
 11
433.4505850527343
 21
306.8754234499233
 31
0.0
 12
20.47772767732431
 22
-47.74181668944175
 32
0.0
 70
    32
  3
STANDARD
100
AcDbAlignedDimension
 13
470.1858225717176
 23
418.8755234499232
 33
0.0
 14
564.1855225717177
 24
194.8753234499232
 34
0.0
 50
90.0
100
AcDbRotatedDimension
1001
ACAD
1000
DSTYLE
1002
{
1070
   140
1040
6.0
1070
    74
1070
     0
1070
   172
1070
     1
1070
    73
1070
     0
1070
   272
1070
     2
1070
    77
1070
     3
1070
   173
1070
     1
1070
   147
1040
2.0
1070
    42
1040
6.0
1070
    44
1040
3.0
1070
    43
1040
14.0
1070
   271
1070
     0
1070
   178
1070
     4
1070
   177
1070
     4
1070
   176
1070
     4
1070
   141
1040
150.0
1070
     7
1000
_OPEN
1070
     6
1000
_OPEN
1070
    41
1040
7.0
1002
}
  0
DIMENSION
  5
3D5
330
1A
100
AcDbEntity
  8
SUNPOU
  6
CONTINUOUS
100
AcDbDimension
  2
*D2
 10
438.4505850527343
 20
166.8752234499232
 30
0.0
 11
433.4505850527342
 21
180.8752734499233
 31
0.0
 70
    32
  3
STANDARD
100
AcDbAlignedDimension
 13
564.1855225717177
 23
194.8753234499232
 33
0.0
 14
569.7847225717175
 24
166.8752234499232
 34
0.0
 50
90.0
100
AcDbRotatedDimension
1001
ACAD
1000
DSTYLE
1002
{
1070
   287
1070
     4
1070
   287
1070
     4
1070
    41
1040
7.0
1070
    42
1040
6.0
1070
    43
1040
14.0
1070
    44
1040
3.0
1070
    73
1070
     0
1070
    74
1070
     0
1070
    75
1070
     1
1070
    77
1070
     3
1070
   140
1040
6.0
1070
   141
1040
150.0
1070
   147
1040
2.0
1070
   172
1070
     1
1070
   173
1070
     1
1070
   176
1070
     4
1070
   177
1070
     4
1070
   178
1070
     4
1070
   271
1070
     0
1070
   272
1070
     2
1070
   279
1070
     1
1070
     6
1000
OPEN
1070
     7
1000
OPEN
1002
}
  0
DIMENSION
  5
3D6
330
1A
100
AcDbEntity
  8
SUNPOU
  6
CONTINUOUS
100
AcDbDimension
  2
*D3
 10
416.277474250703
 20
153.8754234499233
 30
0.0
 11
411.277474250703
 21
286.3754734499233
 31
0.0
 12
20.47772767732431
 22
-47.74181668944175
 32
0.0
 70
    32
  3
STANDARD
100
AcDbAlignedDimension
 13
470.1858225717176
 23
418.8755234499232
 33
0.0
 14
573.9847225717176
 24
153.8754234499233
 34
0.0
 50
90.0
100
AcDbRotatedDimension
1001
ACAD
1000
DSTYLE
1002
{
1070
   140
1040
6.0
1070
    74
1070
     0
1070
   172
1070
     1
1070
    73
1070
     0
1070
   272
1070
     2
1070
    77
1070
     3
1070
   173
1070
     1
1070
   147
1040
2.0
1070
    42
1040
6.0
1070
    44
1040
3.0
1070
    43
1040
14.0
1070
   271
1070
     0
1070
   178
1070
     4
1070
   177
1070
     4
1070
   176
1070
     4
1070
   141
1040
150.0
1070
     7
1000
_OPEN
1070
     6
1000
_OPEN
1070
    41
1040
7.0
1002
}
  0
LINE
  5
3D7
330
1A
100
AcDbEntity
  8
SEIHIN
  6
CONTINUOUS
 62
     3
 48
16.0
100
AcDbLine
 10
288.4733366841913
 20
277.0918234499232
 30
0.0
 11
288.4733366841913
 21
285.1743234499232
 31
0.0
  0
LINE
  5
3D8
330
1A
100
AcDbEntity
  8
SEIHIN
  6
CONTINUOUS
 62
     3
 48
16.0
100
AcDbLine
 10
282.4740366841913
 20
277.0918234499232
 30
0.0
 11
282.4740366841913
 21
285.1743234499232
 31
0.0
  0
LINE
  5
3D9
330
1A
100
AcDbEntity
  8
SEIHIN
  6
CONTINUOUS
 62
     3
 48
16.0
100
AcDbLine
 10
282.4740366841913
 20
277.0918234499232
 30
0.0
 11
282.4740366841913
 21
285.1743234499232
 31
0.0
  0
LINE
  5
3DA
330
1A
100
AcDbEntity
  8
SEIHIN
  6
CONTINUOUS
 62
     3
 48
16.0
100
AcDbLine
 10
279.4737366841914
 20
275.3596234499233
 30
0.0
 11
272.4740366841913
 21
279.4008234499233
 31
0.0
  0
LINE
  5
3DB
330
1A
100
AcDbEntity
  8
SEIHIN
  6
CONTINUOUS
 62
     3
 48
16.0
100
AcDbLine
 10
269.4743366841912
 20
269.5864234499232
 30
0.0
 11
269.4743366841912
 21
277.6689234499233
 31
0.0
  0
LINE
  5
3DC
330
1A
100
AcDbEntity
  8
SEIHIN
  6
CONTINUOUS
 62
     3
 48
16.0
100
AcDbLine
 10
269.4743366841912
 20
269.5864234499232
 30
0.0
 11
269.4743366841912
 21
277.6689234499233
 31
0.0
  0
LINE
  5
3DD
330
1A
100
AcDbEntity
  8
SEIHIN
  6
CONTINUOUS
 62
     3
 48
16.0
100
AcDbLine
 10
275.4737366841912
 20
269.5864234499232
 30
0.0
 11
275.4737366841912
 21
277.6689234499233
 31
0.0
  0
LINE
  5
3DE
330
1A
100
AcDbEntity
  8
SEIHIN
  6
CONTINUOUS
 62
     3
 48
16.0
100
AcDbLine
 10
275.4737366841912
 20
269.5864234499232
 30
0.0
 11
275.4737366841912
 21
277.6689234499233
 31
0.0
  0
LINE
  5
3DF
330
1A
100
AcDbEntity
  8
SEIHIN
  6
CONTINUOUS
 62
     3
 48
16.0
100
AcDbLine
 10
262.4740366841913
 20
277.0919234499233
 30
0.0
 11
262.4740366841913
 21
285.1744234499232
 31
0.0
  0
LINE
  5
3E0
330
1A
100
AcDbEntity
  8
SEIHIN
  6
CONTINUOUS
 62
     3
 48
16.0
100
AcDbLine
 10
262.4740366841913
 20
277.0919234499233
 30
0.0
 11
262.4740366841913
 21
285.1744234499232
 31
0.0
  0
LINE
  5
3E1
330
1A
100
AcDbEntity
  8
SEIHIN
  6
CONTINUOUS
 62
     3
 48
16.0
100
AcDbLine
 10
256.4747366841913
 20
277.0919234499233
 30
0.0
 11
256.4747366841913
 21
285.1744234499232
 31
0.0
  0
LINE
  5
3E2
330
1A
100
AcDbEntity
  8
SEIHIN
  6
CONTINUOUS
 62
     3
 48
16.0
100
AcDbLine
 10
256.4747366841913
 20
277.0919234499233
 30
0.0
 11
256.4747366841913
 21
285.1744234499232
 31
0.0
  0
LINE
  5
3E3
330
1A
100
AcDbEntity
  8
SEIHIN
  6
CONTINUOUS
 62
     3
 48
16.0
100
AcDbLine
 10
265.4743366841912
 20
275.3596234499233
 30
0.0
 11
272.4740366841913
 21
279.4008234499233
 31
0.0
  0
ARC
  5
3E4
330
1A
100
AcDbEntity
  8
SEIHIN
  6
CONTINUOUS
 62
     3
 48
16.0
100
AcDbCircle
 10
280.379938559747
 20
287.7921249242833
 30
0.0
 40
12.99999649557648
100
AcDbArc
 50
268.7296839625729
 51
347.6115386796815
  0
ARC
  5
3E5
330
1A
100
AcDbEntity
  8
SEIHIN
  6
CONTINUOUS
 62
     3
 48
16.0
100
AcDbCircle
 10
282.6294722404646
 20
286.8338710257574
 30
0.0
 40
13.99995599749892
100
AcDbArc
 50
272.1448613225283
 51
346.1115282251982
  0
ARC
  5
3E6
330
1A
100
AcDbEntity
  8
SEIHIN
  6
CONTINUOUS
 62
     3
 48
16.0
100
AcDbCircle
 10
284.8449265064156
 20
285.8757149566418
 30
0.0
 40
14.99997641898359
100
AcDbArc
 50
275.1556002084929
 51
344.5339987855607
  0
ARC
  5
3E7
330
1A
100
AcDbEntity
  8
SEIHIN
  6
CONTINUOUS
 62
     3
 48
16.0
100
AcDbCircle
 10
17.01956498556899
 20
307.9492863328116
 30
0.0
 40
300.0000195252022
100
AcDbArc
 50
348.2903122179324
 51
356.5460168534919
  0
ARC
  5
3E8
330
1A
100
AcDbEntity
  8
SEIHIN
  6
CONTINUOUS
 62
     3
 48
16.0
100
AcDbCircle
 10
16.01958429048386
 20
307.9494381526911
 30
0.0
 40
300.0000094020663
100
AcDbArc
 50
348.4878707127033
 51
356.5459876885735
  0
LINE
  5
3E9
330
1A
100
AcDbEntity
  8
SEIHIN
  6
CONTINUOUS
 62
     3
 48
16.0
100
AcDbLine
 10
236.4742366841913
 20
277.0919234499233
 30
0.0
 11
236.4742366841913
 21
285.1743234499232
 31
0.0
  0
LINE
  5
3EA
330
1A
100
AcDbEntity
  8
SEIHIN
  6
CONTINUOUS
 62
     3
 48
16.0
100
AcDbLine
 10
236.4742366841913
 20
277.0919234499233
 30
0.0
 11
236.4742366841913
 21
285.1743234499232
 31
0.0
  0
LINE
  5
3EB
330
1A
100
AcDbEntity
  8
SEIHIN
  6
CONTINUOUS
 62
     3
 48
16.0
100
AcDbLine
 10
246.4744366841913
 20
279.4010234499233
 30
0.0
 11
239.4745366841913
 21
275.3596234499233
 31
0.0
  0
LINE
  5
3EC
330
1A
100
AcDbEntity
  8
SEIHIN
  6
CONTINUOUS
 62
     3
 48
16.0
100
AcDbLine
 10
249.4743366841913
 20
269.5865234499233
 30
0.0
 11
249.4743366841913
 21
277.6690234499232
 31
0.0
  0
LINE
  5
3ED
330
1A
100
AcDbEntity
  8
SEIHIN
  6
CONTINUOUS
 62
     3
 48
16.0
100
AcDbLine
 10
243.4745366841912
 20
269.5865234499233
 30
0.0
 11
243.4745366841912
 21
277.6690234499232
 31
0.0
  0
LINE
  5
3EE
330
1A
100
AcDbEntity
  8
SEIHIN
  6
CONTINUOUS
 62
     3
 48
16.0
100
AcDbLine
 10
230.4749366841913
 20
277.0919234499233
 30
0.0
 11
230.4749366841913
 21
285.1744234499232
 31
0.0
  0
LINE
  5
3EF
330
1A
100
AcDbEntity
  8
SEIHIN
  6
CONTINUOUS
 62
     3
 48
16.0
100
AcDbLine
 10
230.4749366841913
 20
277.0919234499233
 30
0.0
 11
230.4749366841913
 21
285.1744234499232
 31
0.0
  0
LINE
  5
3F0
330
1A
100
AcDbEntity
  8
SEIHIN
  6
CONTINUOUS
 62
     3
 48
16.0
100
AcDbLine
 10
227.4745366841913
 20
275.3596234499233
 30
0.0
 11
220.4749366841912
 21
279.4009234499232
 31
0.0
  0
LINE
  5
3F1
330
1A
100
AcDbEntity
  8
SEIHIN
  6
CONTINUOUS
 62
     3
 48
16.0
100
AcDbLine
 10
217.4752366841913
 20
269.5865234499233
 30
0.0
 11
217.4752366841913
 21
277.6690234499232
 31
0.0
  0
LINE
  5
3F2
330
1A
100
AcDbEntity
  8
SEIHIN
  6
CONTINUOUS
 62
     3
 48
16.0
100
AcDbLine
 10
217.4752366841913
 20
269.5865234499233
 30
0.0
 11
217.4752366841913
 21
277.6690234499232
 31
0.0
  0
LINE
  5
3F3
330
1A
100
AcDbEntity
  8
SEIHIN
  6
CONTINUOUS
 62
     3
 48
16.0
100
AcDbLine
 10
223.4745366841913
 20
269.5865234499233
 30
0.0
 11
223.4745366841913
 21
277.6690234499232
 31
0.0
  0
LINE
  5
3F4
330
1A
100
AcDbEntity
  8
SEIHIN
  6
CONTINUOUS
 62
     3
 48
16.0
100
AcDbLine
 10
223.4745366841913
 20
269.5865234499233
 30
0.0
 11
223.4745366841913
 21
277.6690234499232
 31
0.0
  0
LINE
  5
3F5
330
1A
100
AcDbEntity
  8
SEIHIN
  6
CONTINUOUS
 62
     3
 48
16.0
100
AcDbLine
 10
210.4749366841913
 20
277.0919234499233
 30
0.0
 11
210.4749366841913
 21
285.1744234499232
 31
0.0
  0
LINE
  5
3F6
330
1A
100
AcDbEntity
  8
SEIHIN
  6
CONTINUOUS
 62
     3
 48
16.0
100
AcDbLine
 10
210.4749366841913
 20
277.0919234499233
 30
0.0
 11
210.4749366841913
 21
285.1744234499232
 31
0.0
  0
LINE
  5
3F7
330
1A
100
AcDbEntity
  8
SEIHIN
  6
CONTINUOUS
 62
     3
 48
16.0
100
AcDbLine
 10
204.4755366841914
 20
277.0919234499233
 30
0.0
 11
204.4755366841914
 21
285.1744234499232
 31
0.0
  0
ARC
  5
3F8
330
1A
100
AcDbEntity
  8
SEIHIN
  6
CONTINUOUS
 62
     3
 48
16.0
100
AcDbCircle
 10
210.3194409510422
 20
286.8340199788621
 30
0.0
 40
14.00000640678457
100
AcDbArc
 50
193.8886271408217
 51
267.8549833114511
  0
ARC
  5
3F9
330
1A
100
AcDbEntity
  8
SEIHIN
  6
CONTINUOUS
 62
     3
 48
16.0
100
AcDbCircle
 10
208.1040648490586
 20
285.8757999463882
 30
0.0
 40
14.99996308580374
100
AcDbArc
 50
195.4655594928526
 51
264.8443262114918
  0
ARC
  5
3FA
330
1A
100
AcDbEntity
  8
SEIHIN
  6
CONTINUOUS
 62
     3
 48
16.0
100
AcDbCircle
 10
212.5690334371256
 20
287.7922260024372
 30
0.0
 40
12.99999538730701
100
AcDbArc
 50
192.3884672583292
 51
271.2698813467462
  0
LINE
  5
3FB
330
1A
100
AcDbEntity
  8
SEIHIN
  6
CONTINUOUS
 62
     3
 48
16.0
100
AcDbLine
 10
213.4752366841913
 20
275.3596234499233
 30
0.0
 11
220.4749366841912
 21
279.4009234499232
 31
0.0
  0
LINE
  5
3FC
330
1A
100
AcDbEntity
  8
SEIHIN
  6
CONTINUOUS
 62
     3
 48
16.0
100
AcDbLine
 10
246.4745366841913
 20
279.4010234499233
 30
0.0
 11
253.4744366841912
 21
275.3596234499233
 31
0.0
  0
ARC
  5
3FD
330
1A
100
AcDbEntity
  8
SEIHIN
  6
CONTINUOUS
 62
     3
 48
16.0
100
AcDbCircle
 10
27.01954087241176
 20
307.9490702060077
 30
0.0
 40
300.0000305736727
100
AcDbArc
 50
346.41159184035
 51
356.5460583331403
  0
ARC
  5
3FE
330
1A
100
AcDbEntity
  8
SEIHIN
  6
CONTINUOUS
 62
     3
 48
16.0
100
AcDbCircle
 10
465.9295046581949
 20
307.9484372061296
 30
0.0
 40
300.0000524209466
100
AcDbArc
 50
183.4537820343002
 51
193.5882041813633
  0
ARC
  5
3FF
330
1A
100
AcDbEntity
  8
SEIHIN
  6
CONTINUOUS
 62
     3
 48
16.0
100
AcDbCircle
 10
475.9295487629802
 20
307.9481327011941
 30
0.0
 40
300.0000781013788
100
AcDbArc
 50
183.453723476331
 51
191.7094214442998
  0
ARC
  5
400
330
1A
100
AcDbEntity
  8
SEIHIN
  6
CONTINUOUS
 62
     3
 48
16.0
100
AcDbCircle
 10
476.9295146377809
 20
307.9483912986881
 30
0.0
 40
300.0000596167915
100
AcDbArc
 50
183.4537731677296
 51
191.5118648229468
  0
LINE
  5
401
330
1A
100
AcDbEntity
  8
CENTER_L
  6
CENTER
 62
     1
 48
5.0
100
AcDbLine
 10
246.4747366841913
 20
434.1786234499231
 30
0.0
 11
246.4742366841913
 21
147.4418234499232
 31
0.0
  0
LINE
  5
402
330
1A
100
AcDbEntity
  8
SEIHIN
  6
CONTINUOUS
 62
     3
 48
16.0
100
AcDbLine
 10
312.7902366841914
 20
232.8757234499233
 30
0.0
 11
246.4747366841913
 21
232.8757234499233
 31
0.0
  0
LINE
  5
403
330
1A
100
AcDbEntity
  8
SEIHIN
  6
CONTINUOUS
 62
     3
 48
16.0
100
AcDbLine
 10
246.4747366841913
 20
227.8757234499233
 30
0.0
 11
312.4743366841913
 21
227.8757234499233
 31
0.0
  0
LINE
  5
404
330
1A
100
AcDbEntity
  8
SEIHIN
  6
CONTINUOUS
 62
     3
 48
16.0
100
AcDbLine
 10
246.4747366841913
 20
240.8757234499232
 30
0.0
 11
302.4149366841912
 21
240.8757234499232
 31
0.0
  0
LINE
  5
405
330
1A
100
AcDbEntity
  8
SEIHIN
  6
CONTINUOUS
 62
     3
 48
16.0
100
AcDbLine
 10
246.4747366841913
 20
241.8757234499234
 30
0.0
 11
301.6283366841913
 21
241.8757234499234
 31
0.0
  0
ARC
  5
406
330
1A
100
AcDbEntity
  8
SEIHIN
  6
CONTINUOUS
 62
     3
 48
16.0
100
AcDbCircle
 10
299.6631353823884
 20
202.3859216290581
 30
0.0
 40
8.000019873725419
100
AcDbArc
 50
82.84956974562616
 51
206.0256633997937
  0
LINE
  5
407
330
1A
100
AcDbEntity
  8
SEIHIN
  6
CONTINUOUS
 62
     3
 48
16.0
100
AcDbLine
 10
292.4747366841912
 20
198.8757234499232
 30
0.0
 11
292.4746366841914
 21
173.8756234499233
 31
0.0
  0
LINE
  5
408
330
1A
100
AcDbEntity
  8
SEIHIN
  6
CONTINUOUS
 62
     3
 48
16.0
100
AcDbLine
 10
200.4739366841914
 20
198.8759234499232
 30
0.0
 11
200.4739366841914
 21
173.8757234499233
 31
0.0
  0
LINE
  5
409
330
1A
100
AcDbEntity
  8
SEIHIN
  6
CONTINUOUS
 62
     3
 48
16.0
100
AcDbLine
 10
206.0739366841914
 20
170.8757234499233
 30
0.0
 11
246.4739366841913
 21
170.8757234499233
 31
0.0
  0
LINE
  5
40A
330
1A
100
AcDbEntity
  8
SEIHIN
  6
CONTINUOUS
 62
     3
 48
16.0
100
AcDbLine
 10
200.4739366841914
 20
173.8757234499233
 30
0.0
 11
246.4739366841913
 21
173.8757234499233
 31
0.0
  0
LINE
  5
40B
330
1A
100
AcDbEntity
  8
SEIHIN
  6
CONTINUOUS
 62
     3
 48
16.0
100
AcDbLine
 10
246.4739366841913
 20
157.8757234499233
 30
0.0
 11
210.2739366841912
 21
157.8759234499232
 31
0.0
  0
LINE
  5
40C
330
1A
100
AcDbEntity
  8
SEIHIN
  6
CONTINUOUS
 62
     3
 48
16.0
100
AcDbLine
 10
200.4739366841914
 20
173.8757234499233
 30
0.0
 11
206.0739366841914
 21
170.8757234499233
 31
0.0
  0
LINE
  5
40D
330
1A
100
AcDbEntity
  8
SEIHIN
  6
CONTINUOUS
 62
     3
 48
16.0
100
AcDbLine
 10
210.2738366841913
 20
157.8758234499233
 30
0.0
 11
210.2738366841913
 21
170.8760234499232
 31
0.0
  0
LINE
  5
40E
330
1A
100
AcDbEntity
  8
SEIHIN
  6
CONTINUOUS
 62
     3
 48
16.0
100
AcDbLine
 10
246.4746366841914
 20
157.8757234499233
 30
0.0
 11
282.6746366841913
 21
157.8758234499233
 31
0.0
  0
LINE
  5
40F
330
1A
100
AcDbEntity
  8
SEIHIN
  6
CONTINUOUS
 62
     3
 48
16.0
100
AcDbLine
 10
286.8746366841912
 20
170.8756234499233
 30
0.0
 11
246.4746366841914
 21
170.8757234499233
 31
0.0
  0
LINE
  5
410
330
1A
100
AcDbEntity
  8
SEIHIN
  6
CONTINUOUS
 62
     3
 48
16.0
100
AcDbLine
 10
292.4746366841914
 20
173.8756234499233
 30
0.0
 11
246.4746366841914
 21
173.8757234499233
 31
0.0
  0
LINE
  5
411
330
1A
100
AcDbEntity
  8
SEIHIN
  6
CONTINUOUS
 62
     3
 48
16.0
100
AcDbLine
 10
282.6747366841914
 20
157.8757234499233
 30
0.0
 11
282.6747366841914
 21
170.8759234499232
 31
0.0
  0
LINE
  5
412
330
1A
100
AcDbEntity
  8
SEIHIN
  6
CONTINUOUS
 62
     3
 48
16.0
100
AcDbLine
 10
292.4746366841914
 20
173.8756234499233
 30
0.0
 11
286.8746366841912
 21
170.8756234499233
 31
0.0
  0
LINE
  5
413
330
1A
100
AcDbEntity
  8
SEIHIN
  6
CONTINUOUS
 62
     3
 48
16.0
100
AcDbLine
 10
240.4741366841913
 20
267.8542234499233
 30
0.0
 11
233.4745366841914
 21
271.8955234499232
 31
0.0
  0
ARC
  5
414
330
1A
100
AcDbEntity
  8
SEIHIN
  6
CONTINUOUS
 62
     3
 48
16.0
100
AcDbCircle
 10
207.2747290046106
 20
169.8790710913702
 30
0.0
 40
99.99999363294136
100
AcDbArc
 50
66.92148929351015
 51
82.61978884764062
  0
LINE
  5
415
330
1A
100
AcDbEntity
  8
SEIHIN
  6
CONTINUOUS
 62
     3
 48
16.0
100
AcDbLine
 10
246.4741366841913
 20
240.8757234499232
 30
0.0
 11
190.5339366841912
 21
240.8759234499232
 31
0.0
  0
LINE
  5
416
330
1A
100
AcDbEntity
  8
SEIHIN
  6
CONTINUOUS
 62
     3
 48
16.0
100
AcDbLine
 10
246.4741366841913
 20
241.8757234499234
 30
0.0
 11
191.3204366841913
 21
241.8759234499233
 31
0.0
  0
ARC
  5
417
330
1A
100
AcDbEntity
  8
SEIHIN
  6
CONTINUOUS
 62
     3
 48
16.0
100
AcDbCircle
 10
207.2745591416684
 20
162.8791177775534
 30
0.0
 40
99.9999780688752
100
AcDbArc
 50
66.92144198304136
 51
84.72772254451584
  0
ARC
  5
418
330
1A
100
AcDbEntity
  8
SEIHIN
  6
CONTINUOUS
 62
     3
 48
16.0
100
AcDbCircle
 10
207.2745805252033
 20
166.3791119507862
 30
0.0
 40
100.0000142464337
100
AcDbArc
 50
66.9214018527386
 51
83.68436473279032
  0
LINE
  5
419
330
1A
100
AcDbEntity
  8
SEIHIN
  6
CONTINUOUS
 62
     3
 48
16.0
100
AcDbLine
 10
200.4742366841913
 20
198.8759234499232
 30
0.0
 11
246.4739366841913
 21
198.8757234499232
 31
0.0
  0
ARC
  5
41A
330
1A
100
AcDbEntity
  8
SEIHIN
  6
CONTINUOUS
 62
     3
 48
16.0
100
AcDbCircle
 10
242.7779468937261
 20
510.7403228817763
 30
0.0
 40
299.9999731937609
100
AcDbArc
 50
261.6010800449277
 51
279.1240185604271
  0
LINE
  5
41B
330
1A
100
AcDbEntity
  8
SEIHIN
  6
CONTINUOUS
 62
     3
 48
16.0
100
AcDbLine
 10
246.4740366841913
 20
227.8757234499233
 30
0.0
 11
180.4743366841912
 21
227.8759234499232
 31
0.0
  0
LINE
  5
41C
330
1A
100
AcDbEntity
  8
SEIHIN
  6
CONTINUOUS
 62
     3
 48
16.0
100
AcDbLine
 10
180.1585366841912
 20
232.8760234499233
 30
0.0
 11
246.4740366841913
 21
232.8757234499233
 31
0.0
  0
LINE
  5
41D
330
1A
100
AcDbEntity
  8
SEIHIN
  6
CONTINUOUS
 62
     3
 48
16.0
100
AcDbLine
 10
180.4743366841912
 20
227.8759234499232
 30
0.0
 11
180.4743366841912
 21
232.8760234499233
 31
0.0
  0
ARC
  5
41E
330
1A
100
AcDbEntity
  8
SEIHIN
  6
CONTINUOUS
 62
     3
 48
16.0
100
AcDbCircle
 10
193.2854421011149
 20
202.3861158730374
 30
0.0
 40
8.000013650298159
100
AcDbArc
 50
333.9743607126627
 51
97.14974374009496
  0
ARC
  5
41F
330
1A
100
AcDbEntity
  8
SEIHIN
  6
CONTINUOUS
 62
     3
 48
16.0
100
AcDbCircle
 10
160.8422379660911
 20
205.1916213154717
 30
0.0
 40
29.99995789772048
100
AcDbArc
 50
12.85025417615465
 51
49.12576322643634
  0
ARC
  5
420
330
1A
100
AcDbEntity
  8
SEIHIN
  6
CONTINUOUS
 62
     3
 48
16.0
100
AcDbCircle
 10
192.04085887654
 20
212.3084079111705
 30
0.0
 40
2.000029684798005
100
AcDbArc
 50
192.852323539503
 51
277.1482476983862
  0
ARC
  5
421
330
1A
100
AcDbEntity
  8
SEIHIN
  6
CONTINUOUS
 62
     3
 48
16.0
100
AcDbCircle
 10
186.089322227232
 20
247.87593564182
 30
0.0
 40
4.000031003015367
100
AcDbArc
 50
191.7096065582703
 51
268.0073601247635
  0
ARC
  5
422
330
1A
100
AcDbEntity
  8
SEIHIN
  6
CONTINUOUS
 62
     3
 48
16.0
100
AcDbCircle
 10
186.8838584694299
 20
248.8759049762234
 30
0.0
 40
3.999988052506158
100
AcDbArc
 50
191.5118721026169
 51
267.8921539288117
  0
ARC
  5
423
330
1A
100
AcDbEntity
  8
SEIHIN
  6
CONTINUOUS
 62
     3
 48
16.0
100
AcDbCircle
 10
180.1586174908272
 20
238.8759385569685
 30
0.0
 40
6.000015107075982
100
AcDbArc
 50
193.5878065836174
 51
270.0001832826657
  0
ARC
  5
424
330
1A
100
AcDbEntity
  8
SEIHIN
  6
CONTINUOUS
 62
     3
 48
16.0
100
AcDbCircle
 10
191.320473857413
 20
246.8758990988046
 30
0.0
 40
4.999975649019548
100
AcDbArc
 50
203.5442420167175
 51
269.9995740241833
  0
ARC
  5
425
330
1A
100
AcDbEntity
  8
SEIHIN
  6
CONTINUOUS
 62
     3
 48
16.0
100
AcDbCircle
 10
190.5338823780879
 20
245.8759590221701
 30
0.0
 40
5.000035572541791
100
AcDbArc
 50
203.5484417960423
 51
270.000622297677
  0
ARC
  5
426
330
1A
100
AcDbEntity
  8
SEIHIN
  6
CONTINUOUS
 62
     3
 48
16.0
100
AcDbCircle
 10
221.2764446189039
 20
277.9760171739189
 30
0.0
 40
8.999957704625511
100
AcDbArc
 50
200.6954749117384
 51
262.6195602979298
  0
ARC
  5
427
330
1A
100
AcDbEntity
  8
SEIHIN
  6
CONTINUOUS
 62
     3
 48
16.0
100
AcDbCircle
 10
219.3754830835646
 20
275.7114681494558
 30
0.0
 40
10.00003375678809
100
AcDbArc
 50
196.6642904487533
 51
263.6844383646904
  0
ARC
  5
428
330
1A
100
AcDbEntity
  8
SEIHIN
  6
CONTINUOUS
 62
     3
 48
16.0
100
AcDbCircle
 10
217.4745178490456
 20
273.4094399042526
 30
0.0
 40
10.99995502650796
100
AcDbArc
 50
192.9917942832298
 51
264.7276778412698
  0
LINE
  5
429
330
1A
100
AcDbEntity
  8
SEIHIN
  6
CONTINUOUS
 62
     3
 48
16.0
100
AcDbLine
 10
206.7561366841912
 20
270.9366234499233
 30
0.0
 11
212.8572366841913
 21
274.7955234499233
 31
0.0
  0
LINE
  5
42A
330
1A
100
AcDbEntity
  8
SEIHIN
  6
CONTINUOUS
 62
     3
 48
16.0
100
AcDbLine
 10
217.4752366841913
 20
273.0501234499233
 30
0.0
 11
210.4752366841912
 21
277.0916234499233
 31
0.0
  0
LINE
  5
42B
330
1A
100
AcDbEntity
  8
SEIHIN
  6
CONTINUOUS
 62
     3
 48
16.0
100
AcDbLine
 10
226.4748366841913
 20
267.8543234499232
 30
0.0
 11
233.4745366841914
 21
271.8955234499232
 31
0.0
  0
LINE
  5
42C
330
1A
100
AcDbEntity
  8
SEIHIN
  6
CONTINUOUS
 62
     3
 48
16.0
100
AcDbLine
 10
230.4749366841913
 20
277.0919234499233
 30
0.0
 11
223.4745366841913
 21
273.0502234499232
 31
0.0
  0
LINE
  5
42D
330
1A
100
AcDbEntity
  8
SEIHIN
  6
CONTINUOUS
 62
     3
 48
16.0
100
AcDbLine
 10
226.0469366841913
 20
268.1013234499233
 30
0.0
 11
223.4749366841913
 21
269.5862234499232
 31
0.0
  0
LINE
  5
42E
330
1A
100
AcDbEntity
  8
SEIHIN
  6
CONTINUOUS
 62
     3
 48
16.0
100
AcDbLine
 10
230.4748366841913
 20
267.1506234499233
 30
0.0
 11
230.4749366841913
 21
270.1636234499233
 31
0.0
  0
LINE
  5
42F
330
1A
100
AcDbEntity
  8
SEIHIN
  6
CONTINUOUS
 62
     3
 48
16.0
100
AcDbLine
 10
230.4748366841913
 20
267.1506234499233
 30
0.0
 11
230.4749366841913
 21
270.1636234499233
 31
0.0
  0
LINE
  5
430
330
1A
100
AcDbEntity
  8
SEIHIN
  6
CONTINUOUS
 62
     3
 48
16.0
100
AcDbLine
 10
292.4743366841913
 20
198.8757234499232
 30
0.0
 11
246.4747366841913
 21
198.8757234499232
 31
0.0
  0
LINE
  5
431
330
1A
100
AcDbEntity
  8
SEIHIN
  6
CONTINUOUS
 62
     3
 48
16.0
100
AcDbLine
 10
262.4740366841913
 20
277.0919234499233
 30
0.0
 11
269.4743366841912
 21
273.0502234499232
 31
0.0
  0
LINE
  5
432
330
1A
100
AcDbEntity
  8
SEIHIN
  6
CONTINUOUS
 62
     3
 48
16.0
100
AcDbLine
 10
266.9019366841913
 20
268.1012234499233
 30
0.0
 11
269.4740366841913
 21
269.5862234499232
 31
0.0
  0
ARC
  5
433
330
1A
100
AcDbEntity
  8
SEIHIN
  6
CONTINUOUS
 62
     3
 48
16.0
100
AcDbCircle
 10
285.6741082295448
 20
162.8790415209679
 30
0.0
 40
99.99995387484005
100
AcDbArc
 50
95.27227528394831
 51
113.0785601884945
  0
ARC
  5
434
330
1A
100
AcDbEntity
  8
SEIHIN
  6
CONTINUOUS
 62
     3
 48
16.0
100
AcDbCircle
 10
285.6740864063411
 20
166.3790364915838
 30
0.0
 40
99.99998914648699
100
AcDbArc
 50
96.3156331483262
 51
113.0786002661445
  0
ARC
  5
435
330
1A
100
AcDbEntity
  8
SEIHIN
  6
CONTINUOUS
 62
     3
 48
16.0
100
AcDbCircle
 10
285.6739374634258
 20
169.8789964375235
 30
0.0
 40
99.9999676103955
100
AcDbArc
 50
97.38020909693616
 51
113.0785127619137
  0
LINE
  5
436
330
1A
100
AcDbEntity
  8
SEIHIN
  6
CONTINUOUS
 62
     3
 48
16.0
100
AcDbLine
 10
249.4743366841913
 20
273.0502234499232
 30
0.0
 11
256.4743366841912
 21
277.0916234499233
 31
0.0
  0
LINE
  5
437
330
1A
100
AcDbEntity
  8
SEIHIN
  6
CONTINUOUS
 62
     3
 48
16.0
100
AcDbLine
 10
249.4743366841913
 20
269.5865234499233
 30
0.0
 11
256.4747366841913
 21
265.5448234499233
 31
0.0
  0
LINE
  5
438
330
1A
100
AcDbEntity
  8
SEIHIN
  6
CONTINUOUS
 62
     3
 48
16.0
100
AcDbLine
 10
236.4741366841913
 20
265.5210234499232
 30
0.0
 11
236.4742366841913
 21
270.1636234499233
 31
0.0
  0
LINE
  5
439
330
1A
100
AcDbEntity
  8
SEIHIN
  6
CONTINUOUS
 62
     3
 48
16.0
100
AcDbLine
 10
236.4741366841913
 20
265.5210234499232
 30
0.0
 11
236.4742366841913
 21
270.1636234499233
 31
0.0
  0
LINE
  5
43A
330
1A
100
AcDbEntity
  8
SEIHIN
  6
CONTINUOUS
 62
     3
 48
16.0
100
AcDbLine
 10
243.4745366841912
 20
269.5865234499233
 30
0.0
 11
236.4741366841913
 21
265.5448234499233
 31
0.0
  0
LINE
  5
43B
330
1A
100
AcDbEntity
  8
SEIHIN
  6
CONTINUOUS
 62
     3
 48
16.0
100
AcDbLine
 10
246.4745366841913
 20
264.3902234499233
 30
0.0
 11
249.0214366841912
 21
262.9197234499232
 31
0.0
  0
LINE
  5
43C
330
1A
100
AcDbEntity
  8
SEIHIN
  6
CONTINUOUS
 62
     3
 48
16.0
100
AcDbLine
 10
246.4743366841912
 20
264.3902234499233
 30
0.0
 11
243.9274366841913
 21
262.9197234499232
 31
0.0
  0
LINE
  5
43D
330
1A
100
AcDbEntity
  8
SEIHIN
  6
CONTINUOUS
 62
     3
 48
16.0
100
AcDbLine
 10
243.4745366841912
 20
273.0501234499233
 30
0.0
 11
236.4745366841913
 21
277.0916234499233
 31
0.0
  0
LINE
  5
43E
330
1A
100
AcDbEntity
  8
SEIHIN
  6
CONTINUOUS
 62
     3
 48
16.0
100
AcDbLine
 10
256.4747366841913
 20
265.5210234499232
 30
0.0
 11
256.4747366841913
 21
270.1636234499233
 31
0.0
  0
LINE
  5
43F
330
1A
100
AcDbEntity
  8
SEIHIN
  6
CONTINUOUS
 62
     3
 48
16.0
100
AcDbLine
 10
256.4747366841913
 20
265.5210234499232
 30
0.0
 11
256.4747366841913
 21
270.1636234499233
 31
0.0
  0
LINE
  5
440
330
1A
100
AcDbEntity
  8
SEIHIN
  6
CONTINUOUS
 62
     3
 48
16.0
100
AcDbLine
 10
252.4747366841913
 20
267.8542234499233
 30
0.0
 11
259.4743366841913
 21
271.8955234499232
 31
0.0
  0
LINE
  5
441
330
1A
100
AcDbEntity
  8
SEIHIN
  6
CONTINUOUS
 62
     3
 48
16.0
100
AcDbLine
 10
262.4740366841913
 20
267.1505234499232
 30
0.0
 11
262.4740366841913
 21
270.1636234499233
 31
0.0
  0
LINE
  5
442
330
1A
100
AcDbEntity
  8
SEIHIN
  6
CONTINUOUS
 62
     3
 48
16.0
100
AcDbLine
 10
262.4740366841913
 20
267.1505234499232
 30
0.0
 11
262.4740366841913
 21
270.1636234499233
 31
0.0
  0
LINE
  5
443
330
1A
100
AcDbEntity
  8
SEIHIN
  6
CONTINUOUS
 62
     3
 48
16.0
100
AcDbLine
 10
266.4740366841913
 20
267.8542234499233
 30
0.0
 11
259.4743366841913
 21
271.8955234499232
 31
0.0
  0
ARC
  5
444
330
1A
100
AcDbEntity
  8
SEIHIN
  6
CONTINUOUS
 62
     3
 48
16.0
100
AcDbCircle
 10
273.5734313031293
 20
275.7114189625163
 30
0.0
 40
9.999980356231645
100
AcDbArc
 50
276.3153590450419
 51
343.3359121415146
  0
LINE
  5
445
330
1A
100
AcDbEntity
  8
SEIHIN
  6
CONTINUOUS
 62
     3
 48
16.0
100
AcDbLine
 10
286.1928366841913
 20
270.9365234499232
 30
0.0
 11
280.0917366841913
 21
274.7954234499232
 31
0.0
  0
ARC
  5
446
330
1A
100
AcDbEntity
  8
SEIHIN
  6
CONTINUOUS
 62
     3
 48
16.0
100
AcDbCircle
 10
275.4743685943426
 20
273.4094513263248
 30
0.0
 40
11.00006477574394
100
AcDbArc
 50
275.2722010142134
 51
347.0077419977688
  0
ARC
  5
447
330
1A
100
AcDbEntity
  8
SEIHIN
  6
CONTINUOUS
 62
     3
 48
16.0
100
AcDbCircle
 10
271.6724898847331
 20
277.975986434505
 30
0.0
 40
9.000018538407314
100
AcDbArc
 50
277.3799970882261
 51
339.3042000531796
  0
LINE
  5
448
330
1A
100
AcDbEntity
  8
SEIHIN
  6
CONTINUOUS
 62
     3
 48
16.0
100
AcDbLine
 10
275.4737366841912
 20
273.0501234499233
 30
0.0
 11
282.4737366841914
 21
277.0916234499233
 31
0.0
  0
LINE
  5
449
330
1A
100
AcDbEntity
  8
SEIHIN
  6
CONTINUOUS
 62
     3
 48
16.0
100
AcDbLine
 10
312.4743366841913
 20
227.8757234499233
 30
0.0
 11
312.4743366841913
 21
232.8757234499233
 31
0.0
  0
ARC
  5
44A
330
1A
100
AcDbEntity
  8
SEIHIN
  6
CONTINUOUS
 62
     3
 48
16.0
100
AcDbCircle
 10
332.106417308341
 20
205.1912911878477
 30
0.0
 40
30.00004445290276
100
AcDbArc
 50
130.8740480084441
 51
167.1497245158486
  0
ARC
  5
44B
330
1A
100
AcDbEntity
  8
SEIHIN
  6
CONTINUOUS
 62
     3
 48
16.0
100
AcDbCircle
 10
300.9078009174936
 20
212.3081984053138
 30
0.0
 40
2.000018563711242
100
AcDbArc
 50
262.8521042652223
 51
347.1508214490452
  0
ARC
  5
44C
330
1A
100
AcDbEntity
  8
SEIHIN
  6
CONTINUOUS
 62
     3
 48
16.0
100
AcDbCircle
 10
312.7902558775555
 20
238.8757385569685
 30
0.0
 40
6.000015107075908
100
AcDbArc
 50
269.9998167173351
 51
346.412193416383
  0
ARC
  5
44D
330
1A
100
AcDbEntity
  8
SEIHIN
  6
CONTINUOUS
 62
     3
 48
16.0
100
AcDbCircle
 10
302.4149210145641
 20
245.8757131859022
 30
0.0
 40
4.999989736003464
100
AcDbArc
 50
270.0001795610698
 51
336.451902251142
  0
ARC
  5
44E
330
1A
100
AcDbEntity
  8
SEIHIN
  6
CONTINUOUS
 62
     3
 48
16.0
100
AcDbCircle
 10
301.6283694840002
 20
246.8757449363309
 30
0.0
 40
5.000021486515174
100
AcDbArc
 50
269.9996241434916
 51
336.4554138989236
  0
ARC
  5
44F
330
1A
100
AcDbEntity
  8
SEIHIN
  6
CONTINUOUS
 62
     3
 48
16.0
100
AcDbCircle
 10
306.8594927017132
 20
247.8756863595873
 30
0.0
 40
3.999980305674555
100
AcDbArc
 50
271.9920694666885
 51
348.2909638502746
  0
ARC
  5
450
330
1A
100
AcDbEntity
  8
SEIHIN
  6
CONTINUOUS
 62
     3
 48
16.0
100
AcDbCircle
 10
306.0649126297979
 20
248.8757030514826
 30
0.0
 40
3.999989891891511
100
AcDbArc
 50
272.1093109954632
 51
348.4881613994407
  0
DIMENSION
  5
451
330
1A
100
AcDbEntity
  8
SUNPOU
  6
CONTINUOUS
100
AcDbDimension
  2
*D4
 10
373.4747366841913
 20
466.5517612334831
 30
0.0
 11
246.4747116841913
 21
471.5517612334831
 31
0.0
 12
20.47772767732431
 22
-47.74181668944175
 32
0.0
 70
    32
  3
STANDARD
100
AcDbAlignedDimension
 13
119.4746866841913
 23
418.8761234499233
 33
0.0
 14
373.4747366841913
 24
418.8757234499231
 34
0.0
100
AcDbRotatedDimension
1001
ACAD
1000
DSTYLE
1002
{
1070
   140
1040
6.0
1070
    74
1070
     0
1070
   172
1070
     1
1070
    73
1070
     0
1070
   272
1070
     2
1070
    77
1070
     3
1070
   173
1070
     1
1070
   147
1040
2.0
1070
    42
1040
6.0
1070
    44
1040
3.0
1070
    43
1040
14.0
1070
   271
1070
     0
1070
   178
1070
     4
1070
   177
1070
     4
1070
   176
1070
     4
1070
   141
1040
150.0
1070
     7
1000
_OPEN
1070
     6
1000
_OPEN
1070
    41
1040
7.0
1002
}
  0
LINE
  5
452
330
1A
100
AcDbEntity
  8
SEIHIN
  6
CONTINUOUS
 62
     3
 48
16.0
100
AcDbLine
 10
163.4744366841912
 20
346.8760234499232
 30
0.0
 11
174.4744366841913
 21
346.8760234499232
 31
0.0
  0
LINE
  5
453
330
1A
100
AcDbEntity
  8
SEIHIN
  6
CONTINUOUS
 62
     3
 48
16.0
100
AcDbLine
 10
246.4747366841913
 20
418.8757234499231
 30
0.0
 11
119.4746866841913
 21
418.8761234499233
 31
0.0
  0
LINE
  5
454
330
1A
100
AcDbEntity
  8
SEIHIN
  6
CONTINUOUS
 62
     3
 48
16.0
100
AcDbLine
 10
246.4745366841913
 20
363.8757234499231
 30
0.0
 11
148.4745366841913
 21
363.8760234499231
 31
0.0
  0
LINE
  5
455
330
1A
100
AcDbEntity
  8
SEIHIN
  6
CONTINUOUS
 62
     3
 48
16.0
100
AcDbLine
 10
246.4745366841913
 20
365.8757234499231
 30
0.0
 11
146.4745366841913
 21
365.8760234499231
 31
0.0
  0
LINE
  5
456
330
1A
100
AcDbEntity
  8
SEIHIN
  6
CONTINUOUS
 62
     3
 48
16.0
100
AcDbLine
 10
246.4745366841913
 20
372.8757234499233
 30
0.0
 11
146.4745366841913
 21
372.8760234499231
 31
0.0
  0
LINE
  5
457
330
1A
100
AcDbEntity
  8
SEIHIN
  6
CONTINUOUS
 62
     3
 48
16.0
100
AcDbLine
 10
246.4746366841914
 20
404.8757234499233
 30
0.0
 11
121.4746266841913
 21
404.8761234499233
 31
0.0
  0
LINE
  5
458
330
1A
100
AcDbEntity
  8
SEIHIN
  6
CONTINUOUS
 62
     3
 48
16.0
100
AcDbLine
 10
246.4746366841914
 20
406.8757234499233
 30
0.0
 11
119.4746266841913
 21
406.8762234499232
 31
0.0
  0
LINE
  5
459
330
1A
100
AcDbEntity
  8
SEIHIN
  6
CONTINUOUS
 62
     3
 48
16.0
100
AcDbLine
 10
246.4745366841913
 20
388.8757234499231
 30
0.0
 11
133.4745366841913
 21
388.8761234499233
 31
0.0
  0
LINE
  5
45A
330
1A
100
AcDbEntity
  8
SEIHIN
  6
CONTINUOUS
 62
     3
 48
16.0
100
AcDbLine
 10
146.4746366841912
 20
372.8760234499231
 30
0.0
 11
146.4746366841912
 21
365.8760234499231
 31
0.0
  0
LINE
  5
45B
330
1A
100
AcDbEntity
  8
SEIHIN
  6
CONTINUOUS
 62
     3
 48
16.0
100
AcDbLine
 10
163.4744366841912
 20
346.8760234499232
 30
0.0
 11
166.4743366841913
 21
289.8760234499233
 31
0.0
  0
ARC
  5
45C
330
1A
100
AcDbEntity
  8
SEIHIN
  6
CONTINUOUS
 62
     3
 48
16.0
100
AcDbCircle
 10
165.2181513661047
 20
357.7369095837137
 30
0.0
 40
10.99995635310198
100
AcDbArc
 50
192.3936371508081
 51
260.8795169324257
  0
ARC
  5
45D
330
1A
100
AcDbEntity
  8
SEIHIN
  6
CONTINUOUS
 62
     3
 48
16.0
100
AcDbCircle
 10
143.5563449982655
 20
354.0367116716224
 30
0.0
 40
11.00003026041818
100
AcDbArc
 50
6.993415688503907
 51
63.44177024788229
  0
LINE
  5
45E
330
1A
100
AcDbEntity
  8
SEIHIN
  6
CONTINUOUS
 62
     3
 48
16.0
100
AcDbLine
 10
148.4746366841912
 20
365.8760234499231
 30
0.0
 11
148.4745366841913
 21
363.8760234499231
 31
0.0
  0
LINE
  5
45F
330
1A
100
AcDbEntity
  8
SEIHIN
  6
CONTINUOUS
 62
     3
 48
16.0
100
AcDbLine
 10
119.4746866841913
 20
418.8761234499233
 30
0.0
 11
119.4746266841913
 21
406.8762234499232
 31
0.0
  0
ARC
  5
460
330
1A
100
AcDbEntity
  8
SEIHIN
  6
CONTINUOUS
 62
     3
 48
16.0
100
AcDbCircle
 10
154.1744877432088
 20
392.413583685375
 30
0.0
 40
21.00003806575402
100
AcDbArc
 50
189.6977215825862
 51
248.4899961898725
  0
ARC
  5
461
330
1A
100
AcDbEntity
  8
SEIHIN
  6
CONTINUOUS
 62
     3
 48
16.0
100
AcDbCircle
 10
112.7016039885439
 20
385.7965403774644
 30
0.0
 40
20.99998049057873
100
AcDbArc
 50
8.432937841551593
 51
65.30671994014248
  0
LINE
  5
462
330
1A
100
AcDbEntity
  8
SEIHIN
  6
CONTINUOUS
 62
     3
 48
16.0
100
AcDbLine
 10
121.4746266841913
 20
406.8761234499233
 30
0.0
 11
121.4746266841913
 21
404.8760234499231
 31
0.0
  0
ARC
  5
463
330
1A
100
AcDbEntity
  8
SEIHIN
  6
CONTINUOUS
 62
     3
 48
16.0
100
AcDbCircle
 10
284.8449265064155
 20
309.8757319432047
 30
0.0
 40
14.99997641898366
100
AcDbArc
 50
15.46600121443898
 51
84.84439979150678
  0
LINE
  5
464
330
1A
100
AcDbEntity
  8
SEIHIN
  6
CONTINUOUS
 62
     3
 48
16.0
100
AcDbLine
 10
246.4747366841913
 20
355.3757234499231
 30
0.0
 11
310.4899366841912
 21
355.3757234499231
 31
0.0
  0
LINE
  5
465
330
1A
100
AcDbEntity
  8
SEIHIN
  6
CONTINUOUS
 62
     3
 48
16.0
100
AcDbLine
 10
246.4747366841913
 20
354.3757234499233
 30
0.0
 11
310.4373366841912
 21
354.3757234499233
 31
0.0
  0
LINE
  5
466
330
1A
100
AcDbEntity
  8
SEIHIN
  6
CONTINUOUS
 62
     3
 48
16.0
100
AcDbLine
 10
246.4747366841913
 20
418.8757234499231
 30
0.0
 11
373.4747366841913
 21
418.8757234499231
 31
0.0
  0
LINE
  5
467
330
1A
100
AcDbEntity
  8
SEIHIN
  6
CONTINUOUS
 62
     3
 48
16.0
100
AcDbLine
 10
246.4747366841913
 20
404.8757234499233
 30
0.0
 11
371.4747366841913
 21
404.8757234499233
 31
0.0
  0
LINE
  5
468
330
1A
100
AcDbEntity
  8
SEIHIN
  6
CONTINUOUS
 62
     3
 48
16.0
100
AcDbLine
 10
246.4747366841913
 20
406.8757234499233
 30
0.0
 11
373.4747366841913
 21
406.8757234499233
 31
0.0
  0
LINE
  5
469
330
1A
100
AcDbEntity
  8
SEIHIN
  6
CONTINUOUS
 62
     3
 48
16.0
100
AcDbLine
 10
246.4747366841913
 20
372.8757234499233
 30
0.0
 11
346.4747366841913
 21
372.8757234499233
 31
0.0
  0
LINE
  5
46A
330
1A
100
AcDbEntity
  8
SEIHIN
  6
CONTINUOUS
 62
     3
 48
16.0
100
AcDbLine
 10
246.4747366841913
 20
388.8757234499231
 30
0.0
 11
359.4747366841912
 21
388.8757234499231
 31
0.0
  0
LINE
  5
46B
330
1A
100
AcDbEntity
  8
SEIHIN
  6
CONTINUOUS
 62
     3
 48
16.0
100
AcDbLine
 10
246.4747366841913
 20
363.8757234499231
 30
0.0
 11
344.4747366841913
 21
363.8757234499231
 31
0.0
  0
LINE
  5
46C
330
1A
100
AcDbEntity
  8
SEIHIN
  6
CONTINUOUS
 62
     3
 48
16.0
100
AcDbLine
 10
246.4747366841913
 20
365.8757234499231
 30
0.0
 11
346.4747366841913
 21
365.8757234499231
 31
0.0
  0
ARC
  5
46D
330
1A
100
AcDbEntity
  8
SEIHIN
  6
CONTINUOUS
 62
     3
 48
16.0
100
AcDbCircle
 10
241.4743025556675
 20
297.8754721216418
 30
0.0
 40
60.00003412871468
100
AcDbArc
 50
344.5342480816742
 51
0.0001445077817575
  0
ARC
  5
46E
330
1A
100
AcDbEntity
  8
SEIHIN
  6
CONTINUOUS
 62
     3
 48
16.0
100
AcDbCircle
 10
241.4743292225261
 20
297.8759783999093
 30
0.0
 40
60.00000746169042
100
AcDbArc
 50
359.9999475266352
 51
15.46575537563271
  0
LINE
  5
46F
330
1A
100
AcDbEntity
  8
SEIHIN
  6
CONTINUOUS
 62
     3
 48
16.0
100
AcDbLine
 10
240.4743366841912
 20
312.8865234499233
 30
0.0
 11
233.4746366841912
 21
316.9279234499231
 31
0.0
  0
ARC
  5
470
330
1A
100
AcDbEntity
  8
SEIHIN
  6
CONTINUOUS
 62
     3
 48
16.0
100
AcDbCircle
 10
207.2753174593806
 20
425.8727182160812
 30
0.0
 40
100.0000371722447
100
AcDbArc
 50
277.3802145913636
 51
293.0785072674854
  0
ARC
  5
471
330
1A
100
AcDbEntity
  8
SEIHIN
  6
CONTINUOUS
 62
     3
 48
16.0
100
AcDbCircle
 10
207.275553304616
 20
432.8727781642252
 30
0.0
 40
99.99999987348765
100
AcDbArc
 50
275.2721070436095
 51
293.0783694886634
  0
ARC
  5
472
330
1A
100
AcDbEntity
  8
SEIHIN
  6
CONTINUOUS
 62
     3
 48
16.0
100
AcDbCircle
 10
207.2751933988321
 20
429.3726858676443
 30
0.0
 40
99.99996404672378
100
AcDbArc
 50
276.3156310294573
 51
293.0786023850135
  0
LINE
  5
473
330
1A
100
AcDbEntity
  8
SEIHIN
  6
CONTINUOUS
 62
     3
 48
16.0
100
AcDbLine
 10
246.4744366841913
 20
354.3757234499233
 30
0.0
 11
182.5119366841912
 21
354.3759234499233
 31
0.0
  0
LINE
  5
474
330
1A
100
AcDbEntity
  8
SEIHIN
  6
CONTINUOUS
 62
     3
 48
16.0
100
AcDbLine
 10
246.4744366841913
 20
355.3757234499231
 30
0.0
 11
182.4592366841913
 21
355.3759234499233
 31
0.0
  0
LINE
  5
475
330
1A
100
AcDbEntity
  8
SEIHIN
  6
CONTINUOUS
 62
     3
 48
16.0
100
AcDbLine
 10
240.4742366841913
 20
297.8757234499233
 30
0.0
 11
233.4746366841912
 21
301.9170234499231
 31
0.0
  0
LINE
  5
476
330
1A
100
AcDbEntity
  8
SEIHIN
  6
CONTINUOUS
 62
     3
 48
16.0
100
AcDbLine
 10
240.4742366841913
 20
282.8650234499233
 30
0.0
 11
233.4745366841914
 21
286.9063234499233
 31
0.0
  0
LINE
  5
477
330
1A
100
AcDbEntity
  8
SEIHIN
  6
CONTINUOUS
 62
     3
 48
16.0
100
AcDbLine
 10
230.4750366841913
 20
322.1242234499233
 30
0.0
 11
230.4750366841913
 21
328.6010234499233
 31
0.0
  0
LINE
  5
478
330
1A
100
AcDbEntity
  8
SEIHIN
  6
CONTINUOUS
 62
     3
 48
16.0
100
AcDbLine
 10
230.4750366841913
 20
322.1242234499233
 30
0.0
 11
230.4750366841913
 21
328.6010234499233
 31
0.0
  0
LINE
  5
479
330
1A
100
AcDbEntity
  8
SEIHIN
  6
CONTINUOUS
 62
     3
 48
16.0
100
AcDbLine
 10
227.4747366841913
 20
320.3920234499233
 30
0.0
 11
220.4750366841913
 21
324.4332234499233
 31
0.0
  0
LINE
  5
47A
330
1A
100
AcDbEntity
  8
SEIHIN
  6
CONTINUOUS
 62
     3
 48
16.0
100
AcDbLine
 10
206.7562366841913
 20
324.8152234499233
 30
0.0
 11
212.8573366841914
 21
320.9563234499233
 31
0.0
  0
ARC
  5
47B
330
1A
100
AcDbEntity
  8
SEIHIN
  6
CONTINUOUS
 62
     3
 48
16.0
100
AcDbCircle
 10
210.3195409510422
 20
308.9177269209844
 30
0.0
 40
14.00000640678455
100
AcDbArc
 50
92.14501668854884
 51
166.1113728591782
  0
ARC
  5
47C
330
1A
100
AcDbEntity
  8
SEIHIN
  6
CONTINUOUS
 62
     3
 48
16.0
100
AcDbCircle
 10
208.1040998390314
 20
309.8758927026429
 30
0.0
 40
15.00001127535618
100
AcDbArc
 50
95.15540785186367
 51
164.5342764272504
  0
LINE
  5
47D
330
1A
100
AcDbEntity
  8
SEIHIN
  6
CONTINUOUS
 62
     3
 48
16.0
100
AcDbLine
 10
213.4753366841913
 20
320.3920234499233
 30
0.0
 11
220.4750366841913
 21
324.4332234499233
 31
0.0
  0
ARC
  5
47E
330
1A
100
AcDbEntity
  8
SEIHIN
  6
CONTINUOUS
 62
     3
 48
16.0
100
AcDbCircle
 10
221.2765932751291
 20
317.7756682102909
 30
0.0
 40
9.000024960934783
100
AcDbArc
 50
97.38069658377289
 51
159.3042682065595
  0
ARC
  5
47F
330
1A
100
AcDbEntity
  8
SEIHIN
  6
CONTINUOUS
 62
     3
 48
16.0
100
AcDbCircle
 10
219.3756497166012
 20
320.0402343180972
 30
0.0
 40
9.999985856495506
100
AcDbArc
 50
96.3159761212043
 51
163.3359597365652
  0
LINE
  5
480
330
1A
100
AcDbEntity
  8
SEIHIN
  6
CONTINUOUS
 62
     3
 48
16.0
100
AcDbLine
 10
173.4744366841913
 20
346.8760234499232
 30
0.0
 11
176.4743366841912
 21
289.8760234499233
 31
0.0
  0
LINE
  5
481
330
1A
100
AcDbEntity
  8
SEIHIN
  6
CONTINUOUS
 62
     3
 48
16.0
100
AcDbLine
 10
174.4702366841913
 20
346.9555234499233
 30
0.0
 11
177.4743366841912
 21
289.8760234499233
 31
0.0
  0
LINE
  5
482
330
1A
100
AcDbEntity
  8
SEIHIN
  6
CONTINUOUS
 62
     3
 48
16.0
100
AcDbLine
 10
200.5587366841913
 20
312.9346234499231
 30
0.0
 11
207.4753366841913
 21
316.9279234499231
 31
0.0
  0
LINE
  5
483
330
1A
100
AcDbEntity
  8
SEIHIN
  6
CONTINUOUS
 62
     3
 48
16.0
100
AcDbLine
 10
204.4756366841913
 20
307.1135234499231
 30
0.0
 11
198.7697366841913
 21
303.8190234499231
 31
0.0
  0
LINE
  5
484
330
1A
100
AcDbEntity
  8
SEIHIN
  6
CONTINUOUS
 62
     3
 48
16.0
100
AcDbLine
 10
204.4755366841914
 20
292.1027234499232
 30
0.0
 11
199.1320366841913
 21
289.0176234499231
 31
0.0
  0
LINE
  5
485
330
1A
100
AcDbEntity
  8
SEIHIN
  6
CONTINUOUS
 62
     3
 48
16.0
100
AcDbLine
 10
200.4755366841914
 20
297.8757234499233
 30
0.0
 11
207.4753366841913
 21
301.9171234499233
 31
0.0
  0
LINE
  5
486
330
1A
100
AcDbEntity
  8
SEIHIN
  6
CONTINUOUS
 62
     3
 48
16.0
100
AcDbLine
 10
204.4755366841914
 20
295.5664234499233
 30
0.0
 11
198.4855366841913
 21
299.0247234499233
 31
0.0
  0
LINE
  5
487
330
1A
100
AcDbEntity
  8
SEIHIN
  6
CONTINUOUS
 62
     3
 48
16.0
100
AcDbLine
 10
200.4755366841914
 20
282.8651234499233
 30
0.0
 11
207.4752366841912
 21
286.9063234499233
 31
0.0
  0
LINE
  5
488
330
1A
100
AcDbEntity
  8
SEIHIN
  6
CONTINUOUS
 62
     3
 48
16.0
100
AcDbLine
 10
204.4756366841913
 20
310.5772234499233
 30
0.0
 11
200.5268366841913
 21
312.8570234499231
 31
0.0
  0
ARC
  5
489
330
1A
100
AcDbEntity
  8
SEIHIN
  6
CONTINUOUS
 62
     3
 48
16.0
100
AcDbCircle
 10
212.5690215335224
 20
307.9595115401896
 30
0.0
 40
13.00000722269304
100
AcDbArc
 50
88.72962648830572
 51
167.6110507316137
  0
ARC
  5
48A
330
1A
100
AcDbEntity
  8
SEIHIN
  6
CONTINUOUS
 62
     3
 48
16.0
100
AcDbCircle
 10
258.474514071835
 20
297.8756151123674
 30
0.0
 40
59.99997738843605
100
AcDbArc
 50
167.6109567337963
 51
179.999705559212
  0
ARC
  5
48B
330
1A
100
AcDbEntity
  8
SEIHIN
  6
CONTINUOUS
 62
     3
 48
16.0
100
AcDbCircle
 10
251.4745092895955
 20
297.8757217093026
 30
0.0
 40
59.99997260574329
100
AcDbArc
 50
164.5338820030963
 51
179.99980735181
  0
ARC
  5
48C
330
1A
100
AcDbEntity
  8
SEIHIN
  6
CONTINUOUS
 62
     3
 48
16.0
100
AcDbCircle
 10
254.9745224445213
 20
297.8758065385647
 30
0.0
 40
59.99998576044388
100
AcDbArc
 50
166.1111771650198
 51
179.9998883578497
  0
ARC
  5
48D
330
1A
100
AcDbEntity
  8
SEIHIN
  6
CONTINUOUS
 62
     3
 48
16.0
100
AcDbCircle
 10
258.4745307266154
 20
297.8756783418767
 30
0.0
 40
59.9999940424411
100
AcDbArc
 50
179.9999569249842
 51
192.3885964407482
  0
ARC
  5
48E
330
1A
100
AcDbEntity
  8
SEIHIN
  6
CONTINUOUS
 62
     3
 48
16.0
100
AcDbCircle
 10
251.4745441457233
 20
297.875668500575
 30
0.0
 40
60.00000746173208
100
AcDbArc
 50
179.9998520342903
 51
195.4657553762536
  0
ARC
  5
48F
330
1A
100
AcDbEntity
  8
SEIHIN
  6
CONTINUOUS
 62
     3
 48
16.0
100
AcDbCircle
 10
254.9745104430386
 20
297.8759388994912
 30
0.0
 40
59.99997375895834
100
AcDbArc
 50
180.0001102462648
 51
193.8888242308656
  0
LINE
  5
490
330
1A
100
AcDbEntity
  8
SEIHIN
  6
CONTINUOUS
 62
     3
 48
16.0
100
AcDbLine
 10
201.4752366841913
 20
290.3704234499231
 30
0.0
 11
198.7696366841912
 21
291.9325234499233
 31
0.0
  0
LINE
  5
491
330
1A
100
AcDbEntity
  8
SEIHIN
  6
CONTINUOUS
 62
     3
 48
16.0
100
AcDbLine
 10
201.4753366841913
 20
305.3812234499233
 30
0.0
 11
199.1321366841913
 21
306.7341234499233
 31
0.0
  0
LINE
  5
492
330
1A
100
AcDbEntity
  8
SEIHIN
  6
CONTINUOUS
 62
     3
 48
16.0
100
AcDbLine
 10
217.4752366841913
 20
299.6080234499233
 30
0.0
 11
217.4753366841913
 21
307.6906234499231
 31
0.0
  0
LINE
  5
493
330
1A
100
AcDbEntity
  8
SEIHIN
  6
CONTINUOUS
 62
     3
 48
16.0
100
AcDbLine
 10
217.4752366841913
 20
299.6080234499233
 30
0.0
 11
217.4753366841913
 21
307.6906234499231
 31
0.0
  0
LINE
  5
494
330
1A
100
AcDbEntity
  8
SEIHIN
  6
CONTINUOUS
 62
     3
 48
16.0
100
AcDbLine
 10
223.4745366841913
 20
299.6080234499233
 30
0.0
 11
223.4746366841914
 21
307.6906234499231
 31
0.0
  0
LINE
  5
495
330
1A
100
AcDbEntity
  8
SEIHIN
  6
CONTINUOUS
 62
     3
 48
16.0
100
AcDbLine
 10
223.4745366841913
 20
299.6080234499233
 30
0.0
 11
223.4746366841914
 21
307.6906234499231
 31
0.0
  0
LINE
  5
496
330
1A
100
AcDbEntity
  8
SEIHIN
  6
CONTINUOUS
 62
     3
 48
16.0
100
AcDbLine
 10
226.4749366841912
 20
297.8758234499231
 30
0.0
 11
233.4746366841912
 21
301.9170234499231
 31
0.0
  0
LINE
  5
497
330
1A
100
AcDbEntity
  8
SEIHIN
  6
CONTINUOUS
 62
     3
 48
16.0
100
AcDbLine
 10
214.4749366841913
 20
297.8759234499233
 30
0.0
 11
207.4753366841913
 21
301.9171234499233
 31
0.0
  0
LINE
  5
498
330
1A
100
AcDbEntity
  8
SEIHIN
  6
CONTINUOUS
 62
     3
 48
16.0
100
AcDbLine
 10
213.4752366841913
 20
290.3705234499232
 30
0.0
 11
220.4749366841912
 21
294.4117234499233
 31
0.0
  0
LINE
  5
499
330
1A
100
AcDbEntity
  8
SEIHIN
  6
CONTINUOUS
 62
     3
 48
16.0
100
AcDbLine
 10
217.4752366841913
 20
284.5973234499232
 30
0.0
 11
217.4752366841913
 21
292.6798234499233
 31
0.0
  0
LINE
  5
49A
330
1A
100
AcDbEntity
  8
SEIHIN
  6
CONTINUOUS
 62
     3
 48
16.0
100
AcDbLine
 10
217.4752366841913
 20
284.5973234499232
 30
0.0
 11
217.4752366841913
 21
292.6798234499233
 31
0.0
  0
LINE
  5
49B
330
1A
100
AcDbEntity
  8
SEIHIN
  6
CONTINUOUS
 62
     3
 48
16.0
100
AcDbLine
 10
217.4752366841913
 20
288.0610234499231
 30
0.0
 11
210.4752366841912
 21
292.1025234499231
 31
0.0
  0
LINE
  5
49C
330
1A
100
AcDbEntity
  8
SEIHIN
  6
CONTINUOUS
 62
     3
 48
16.0
100
AcDbLine
 10
214.4749366841913
 20
282.8651234499233
 30
0.0
 11
207.4752366841912
 21
286.9063234499233
 31
0.0
  0
LINE
  5
49D
330
1A
100
AcDbEntity
  8
SEIHIN
  6
CONTINUOUS
 62
     3
 48
16.0
100
AcDbLine
 10
204.4755366841914
 20
277.6189234499232
 30
0.0
 11
204.4755366841914
 21
285.1744234499232
 31
0.0
  0
LINE
  5
49E
330
1A
100
AcDbEntity
  8
SEIHIN
  6
CONTINUOUS
 62
     3
 48
16.0
100
AcDbLine
 10
217.4752366841913
 20
284.5973234499232
 30
0.0
 11
210.4749366841913
 21
280.5556234499233
 31
0.0
  0
LINE
  5
49F
330
1A
100
AcDbEntity
  8
SEIHIN
  6
CONTINUOUS
 62
     3
 48
16.0
100
AcDbLine
 10
204.4755366841914
 20
292.1027234499232
 30
0.0
 11
204.4755366841914
 21
300.1852234499233
 31
0.0
  0
LINE
  5
4A0
330
1A
100
AcDbEntity
  8
SEIHIN
  6
CONTINUOUS
 62
     3
 48
16.0
100
AcDbLine
 10
204.4755366841914
 20
292.1027234499232
 30
0.0
 11
204.4755366841914
 21
300.1852234499233
 31
0.0
  0
LINE
  5
4A1
330
1A
100
AcDbEntity
  8
SEIHIN
  6
CONTINUOUS
 62
     3
 48
16.0
100
AcDbLine
 10
210.4749366841913
 20
292.1027234499232
 30
0.0
 11
210.4749366841913
 21
300.1852234499233
 31
0.0
  0
LINE
  5
4A2
330
1A
100
AcDbEntity
  8
SEIHIN
  6
CONTINUOUS
 62
     3
 48
16.0
100
AcDbLine
 10
210.4749366841913
 20
292.1027234499232
 30
0.0
 11
210.4749366841913
 21
300.1852234499233
 31
0.0
  0
LINE
  5
4A3
330
1A
100
AcDbEntity
  8
SEIHIN
  6
CONTINUOUS
 62
     3
 48
16.0
100
AcDbLine
 10
217.4752366841913
 20
299.6080234499233
 30
0.0
 11
210.4749366841913
 21
295.5664234499233
 31
0.0
  0
LINE
  5
4A4
330
1A
100
AcDbEntity
  8
SEIHIN
  6
CONTINUOUS
 62
     3
 48
16.0
100
AcDbLine
 10
230.4749366841913
 20
292.1027234499232
 30
0.0
 11
223.4745366841913
 21
288.0610234499231
 31
0.0
  0
LINE
  5
4A5
330
1A
100
AcDbEntity
  8
SEIHIN
  6
CONTINUOUS
 62
     3
 48
16.0
100
AcDbLine
 10
223.4745366841913
 20
284.5973234499232
 30
0.0
 11
223.4745366841913
 21
292.6798234499233
 31
0.0
  0
LINE
  5
4A6
330
1A
100
AcDbEntity
  8
SEIHIN
  6
CONTINUOUS
 62
     3
 48
16.0
100
AcDbLine
 10
223.4745366841913
 20
284.5973234499232
 30
0.0
 11
223.4745366841913
 21
292.6798234499233
 31
0.0
  0
LINE
  5
4A7
330
1A
100
AcDbEntity
  8
SEIHIN
  6
CONTINUOUS
 62
     3
 48
16.0
100
AcDbLine
 10
230.4749366841913
 20
280.5556234499233
 30
0.0
 11
223.4749366841913
 21
284.5971234499233
 31
0.0
  0
LINE
  5
4A8
330
1A
100
AcDbEntity
  8
SEIHIN
  6
CONTINUOUS
 62
     3
 48
16.0
100
AcDbLine
 10
226.4749366841912
 20
282.8651234499233
 30
0.0
 11
233.4745366841914
 21
286.9063234499233
 31
0.0
  0
LINE
  5
4A9
330
1A
100
AcDbEntity
  8
SEIHIN
  6
CONTINUOUS
 62
     3
 48
16.0
100
AcDbLine
 10
227.4745366841913
 20
290.3704234499231
 30
0.0
 11
220.4749366841912
 21
294.4117234499233
 31
0.0
  0
LINE
  5
4AA
330
1A
100
AcDbEntity
  8
SEIHIN
  6
CONTINUOUS
 62
     3
 48
16.0
100
AcDbLine
 10
230.4749366841913
 20
295.5663234499233
 30
0.0
 11
223.4749366841913
 21
299.6078234499233
 31
0.0
  0
LINE
  5
4AB
330
1A
100
AcDbEntity
  8
SEIHIN
  6
CONTINUOUS
 62
     3
 48
16.0
100
AcDbLine
 10
230.4749366841913
 20
292.1027234499232
 30
0.0
 11
230.4749366841913
 21
300.1852234499233
 31
0.0
  0
LINE
  5
4AC
330
1A
100
AcDbEntity
  8
SEIHIN
  6
CONTINUOUS
 62
     3
 48
16.0
100
AcDbLine
 10
230.4749366841913
 20
292.1027234499232
 30
0.0
 11
230.4749366841913
 21
300.1852234499233
 31
0.0
  0
LINE
  5
4AD
330
1A
100
AcDbEntity
  8
SEIHIN
  6
CONTINUOUS
 62
     3
 48
16.0
100
AcDbLine
 10
213.4753366841913
 20
305.3812234499233
 30
0.0
 11
220.4749366841912
 21
309.4224234499233
 31
0.0
  0
LINE
  5
4AE
330
1A
100
AcDbEntity
  8
SEIHIN
  6
CONTINUOUS
 62
     3
 48
16.0
100
AcDbLine
 10
204.4756366841913
 20
307.1135234499231
 30
0.0
 11
204.4756366841913
 21
315.1960234499231
 31
0.0
  0
LINE
  5
4AF
330
1A
100
AcDbEntity
  8
SEIHIN
  6
CONTINUOUS
 62
     3
 48
16.0
100
AcDbLine
 10
210.4749366841913
 20
307.1135234499231
 30
0.0
 11
210.4749366841913
 21
315.1960234499231
 31
0.0
  0
LINE
  5
4B0
330
1A
100
AcDbEntity
  8
SEIHIN
  6
CONTINUOUS
 62
     3
 48
16.0
100
AcDbLine
 10
210.4749366841913
 20
307.1135234499231
 30
0.0
 11
210.4749366841913
 21
315.1960234499231
 31
0.0
  0
LINE
  5
4B1
330
1A
100
AcDbEntity
  8
SEIHIN
  6
CONTINUOUS
 62
     3
 48
16.0
100
AcDbLine
 10
204.4756366841913
 20
307.1135234499231
 30
0.0
 11
204.4756366841913
 21
315.1960234499231
 31
0.0
  0
LINE
  5
4B2
330
1A
100
AcDbEntity
  8
SEIHIN
  6
CONTINUOUS
 62
     3
 48
16.0
100
AcDbLine
 10
217.4753366841913
 20
314.6188234499232
 30
0.0
 11
210.4749366841913
 21
310.5772234499233
 31
0.0
  0
LINE
  5
4B3
330
1A
100
AcDbEntity
  8
SEIHIN
  6
CONTINUOUS
 62
     3
 48
16.0
100
AcDbLine
 10
217.4753366841913
 20
303.0717234499233
 30
0.0
 11
210.4753366841913
 21
307.1132234499233
 31
0.0
  0
LINE
  5
4B4
330
1A
100
AcDbEntity
  8
SEIHIN
  6
CONTINUOUS
 62
     3
 48
16.0
100
AcDbLine
 10
214.4749366841913
 20
312.8866234499233
 30
0.0
 11
207.4753366841913
 21
316.9279234499231
 31
0.0
  0
LINE
  5
4B5
330
1A
100
AcDbEntity
  8
SEIHIN
  6
CONTINUOUS
 62
     3
 48
16.0
100
AcDbLine
 10
217.4753366841913
 20
314.6188234499232
 30
0.0
 11
217.4753366841913
 21
322.7013234499233
 31
0.0
  0
LINE
  5
4B6
330
1A
100
AcDbEntity
  8
SEIHIN
  6
CONTINUOUS
 62
     3
 48
16.0
100
AcDbLine
 10
217.4753366841913
 20
314.6188234499232
 30
0.0
 11
217.4753366841913
 21
322.7013234499233
 31
0.0
  0
LINE
  5
4B7
330
1A
100
AcDbEntity
  8
SEIHIN
  6
CONTINUOUS
 62
     3
 48
16.0
100
AcDbLine
 10
217.4753366841913
 20
318.0825234499232
 30
0.0
 11
212.4927366841913
 21
320.9593234499231
 31
0.0
  0
LINE
  5
4B8
330
1A
100
AcDbEntity
  8
SEIHIN
  6
CONTINUOUS
 62
     3
 48
16.0
100
AcDbLine
 10
230.4749366841913
 20
307.1135234499231
 30
0.0
 11
230.4749366841913
 21
315.1960234499231
 31
0.0
  0
LINE
  5
4B9
330
1A
100
AcDbEntity
  8
SEIHIN
  6
CONTINUOUS
 62
     3
 48
16.0
100
AcDbLine
 10
230.4749366841913
 20
307.1135234499231
 30
0.0
 11
230.4749366841913
 21
315.1960234499231
 31
0.0
  0
LINE
  5
4BA
330
1A
100
AcDbEntity
  8
SEIHIN
  6
CONTINUOUS
 62
     3
 48
16.0
100
AcDbLine
 10
230.4749366841913
 20
310.5772234499233
 30
0.0
 11
223.4749366841913
 21
314.6186234499231
 31
0.0
  0
LINE
  5
4BB
330
1A
100
AcDbEntity
  8
SEIHIN
  6
CONTINUOUS
 62
     3
 48
16.0
100
AcDbLine
 10
230.4749366841913
 20
307.1135234499231
 30
0.0
 11
223.4746366841914
 21
303.0718234499233
 31
0.0
  0
LINE
  5
4BC
330
1A
100
AcDbEntity
  8
SEIHIN
  6
CONTINUOUS
 62
     3
 48
16.0
100
AcDbLine
 10
227.4746366841913
 20
305.3812234499233
 30
0.0
 11
220.4749366841912
 21
309.4224234499233
 31
0.0
  0
LINE
  5
4BD
330
1A
100
AcDbEntity
  8
SEIHIN
  6
CONTINUOUS
 62
     3
 48
16.0
100
AcDbLine
 10
226.4749366841912
 20
312.8866234499233
 30
0.0
 11
233.4746366841912
 21
316.9279234499231
 31
0.0
  0
LINE
  5
4BE
330
1A
100
AcDbEntity
  8
SEIHIN
  6
CONTINUOUS
 62
     3
 48
16.0
100
AcDbLine
 10
230.4750366841913
 20
322.1242234499233
 30
0.0
 11
223.4747366841913
 21
318.0825234499232
 31
0.0
  0
LINE
  5
4BF
330
1A
100
AcDbEntity
  8
SEIHIN
  6
CONTINUOUS
 62
     3
 48
16.0
100
AcDbLine
 10
223.4746366841914
 20
314.6188234499232
 30
0.0
 11
223.4747366841913
 21
322.7013234499233
 31
0.0
  0
LINE
  5
4C0
330
1A
100
AcDbEntity
  8
SEIHIN
  6
CONTINUOUS
 62
     3
 48
16.0
100
AcDbLine
 10
223.4746366841914
 20
314.6188234499232
 30
0.0
 11
223.4747366841913
 21
322.7013234499233
 31
0.0
  0
ARC
  5
4C1
330
1A
100
AcDbEntity
  8
SEIHIN
  6
CONTINUOUS
 62
     3
 48
16.0
100
AcDbCircle
 10
182.5118561496009
 20
346.3759439668509
 30
0.0
 40
7.999979483096104
100
AcDbArc
 50
90.00013941108456
 51
183.0131527713749
  0
ARC
  5
4C2
330
1A
100
AcDbEntity
  8
SEIHIN
  6
CONTINUOUS
 62
     3
 48
16.0
100
AcDbCircle
 10
182.4592087777202
 20
347.3758940359689
 30
0.0
 40
8.000029414003067
100
AcDbArc
 50
89.99980013535783
 51
183.0127758506143
  0
ARC
  5
4C3
330
1A
100
AcDbEntity
  8
SEIHIN
  6
CONTINUOUS
 62
     3
 48
16.0
100
AcDbCircle
 10
217.47470477404
 20
322.3421955735218
 30
0.0
 40
11.00006477574392
100
AcDbArc
 50
95.27220101421361
 51
167.0077419977689
  0
LINE
  5
4C4
330
1A
100
AcDbEntity
  8
SEIHIN
  6
CONTINUOUS
 62
     3
 48
16.0
100
AcDbLine
 10
230.4750366841913
 20
325.5879234499233
 30
0.0
 11
226.6871366841912
 21
327.7748234499231
 31
0.0
  0
LINE
  5
4C5
330
1A
100
AcDbEntity
  8
SEIHIN
  6
CONTINUOUS
 62
     3
 48
16.0
100
AcDbLine
 10
279.4737366841914
 20
320.3919234499231
 30
0.0
 11
272.4740366841913
 21
324.4332234499233
 31
0.0
  0
ARC
  5
4C6
330
1A
100
AcDbEntity
  8
SEIHIN
  6
CONTINUOUS
 62
     3
 48
16.0
100
AcDbCircle
 10
271.6725287494788
 20
317.7756297259274
 30
0.0
 40
8.999957704625524
100
AcDbArc
 50
20.69547491173846
 51
82.61956029793021
  0
LINE
  5
4C7
330
1A
100
AcDbEntity
  8
SEIHIN
  6
CONTINUOUS
 62
     3
 48
16.0
100
AcDbLine
 10
286.1928366841913
 20
324.8151234499232
 30
0.0
 11
280.0917366841913
 21
320.9562234499232
 31
0.0
  0
ARC
  5
4C8
330
1A
100
AcDbEntity
  8
SEIHIN
  6
CONTINUOUS
 62
     3
 48
16.0
100
AcDbCircle
 10
273.5734236517813
 20
320.0402343180972
 30
0.0
 40
9.999985856495507
100
AcDbArc
 50
16.66404026343477
 51
83.68402387879568
  0
LINE
  5
4C9
330
1A
100
AcDbEntity
  8
SEIHIN
  6
CONTINUOUS
 62
     3
 48
16.0
100
AcDbLine
 10
262.4740366841913
 20
322.1241234499233
 30
0.0
 11
262.4740366841913
 21
328.6010234499233
 31
0.0
  0
LINE
  5
4CA
330
1A
100
AcDbEntity
  8
SEIHIN
  6
CONTINUOUS
 62
     3
 48
16.0
100
AcDbLine
 10
262.4740366841913
 20
322.1241234499233
 30
0.0
 11
262.4740366841913
 21
328.6010234499233
 31
0.0
  0
LINE
  5
4CB
330
1A
100
AcDbEntity
  8
SEIHIN
  6
CONTINUOUS
 62
     3
 48
16.0
100
AcDbLine
 10
256.4747366841913
 20
322.1241234499233
 30
0.0
 11
256.4747366841913
 21
330.2067234499233
 31
0.0
  0
LINE
  5
4CC
330
1A
100
AcDbEntity
  8
SEIHIN
  6
CONTINUOUS
 62
     3
 48
16.0
100
AcDbLine
 10
256.4747366841913
 20
322.1241234499233
 30
0.0
 11
256.4747366841913
 21
330.2067234499233
 31
0.0
  0
LINE
  5
4CD
330
1A
100
AcDbEntity
  8
SEIHIN
  6
CONTINUOUS
 62
     3
 48
16.0
100
AcDbLine
 10
265.4743366841912
 20
320.3919234499231
 30
0.0
 11
272.4740366841913
 21
324.4332234499233
 31
0.0
  0
ARC
  5
4CE
330
1A
100
AcDbEntity
  8
SEIHIN
  6
CONTINUOUS
 62
     3
 48
16.0
100
AcDbCircle
 10
282.629550306864
 20
308.9175123681084
 30
0.0
 40
14.00001653749329
100
AcDbArc
 50
13.88909982202685
 51
87.85546767145476
  0
LINE
  5
4CF
330
1A
100
AcDbEntity
  8
SEIHIN
  6
CONTINUOUS
 62
     3
 48
16.0
100
AcDbLine
 10
236.4743366841913
 20
322.1241234499233
 30
0.0
 11
236.4743366841913
 21
330.2067234499233
 31
0.0
  0
LINE
  5
4D0
330
1A
100
AcDbEntity
  8
SEIHIN
  6
CONTINUOUS
 62
     3
 48
16.0
100
AcDbLine
 10
236.4743366841913
 20
322.1241234499233
 30
0.0
 11
236.4743366841913
 21
330.2067234499233
 31
0.0
  0
LINE
  5
4D1
330
1A
100
AcDbEntity
  8
SEIHIN
  6
CONTINUOUS
 62
     3
 48
16.0
100
AcDbLine
 10
246.4745366841913
 20
324.4332234499233
 30
0.0
 11
239.4746366841913
 21
320.3919234499231
 31
0.0
  0
LINE
  5
4D2
330
1A
100
AcDbEntity
  8
SEIHIN
  6
CONTINUOUS
 62
     3
 48
16.0
100
AcDbLine
 10
246.4745366841913
 20
324.4333234499233
 30
0.0
 11
253.4744366841912
 21
320.3919234499231
 31
0.0
  0
LINE
  5
4D3
330
1A
100
AcDbEntity
  8
SEIHIN
  6
CONTINUOUS
 62
     3
 48
16.0
100
AcDbLine
 10
262.4740366841913
 20
322.1241234499233
 30
0.0
 11
269.4743366841912
 21
318.0825234499232
 31
0.0
  0
LINE
  5
4D4
330
1A
100
AcDbEntity
  8
SEIHIN
  6
CONTINUOUS
 62
     3
 48
16.0
100
AcDbLine
 10
262.4740366841913
 20
295.5663234499233
 30
0.0
 11
269.4740366841913
 21
299.6077234499232
 31
0.0
  0
LINE
  5
4D5
330
1A
100
AcDbEntity
  8
SEIHIN
  6
CONTINUOUS
 62
     3
 48
16.0
100
AcDbLine
 10
262.4740366841913
 20
292.1026234499233
 30
0.0
 11
269.4743366841912
 21
288.0609234499233
 31
0.0
  0
LINE
  5
4D6
330
1A
100
AcDbEntity
  8
SEIHIN
  6
CONTINUOUS
 62
     3
 48
16.0
100
AcDbLine
 10
265.4743366841912
 20
290.3704234499231
 30
0.0
 11
272.4740366841913
 21
294.4116234499231
 31
0.0
  0
LINE
  5
4D7
330
1A
100
AcDbEntity
  8
SEIHIN
  6
CONTINUOUS
 62
     3
 48
16.0
100
AcDbLine
 10
262.4740366841913
 20
307.1134234499233
 30
0.0
 11
269.4743366841912
 21
303.0717234499233
 31
0.0
  0
LINE
  5
4D8
330
1A
100
AcDbEntity
  8
SEIHIN
  6
CONTINUOUS
 62
     3
 48
16.0
100
AcDbLine
 10
265.4743366841912
 20
305.3811234499233
 30
0.0
 11
272.4740366841913
 21
309.4224234499233
 31
0.0
  0
LINE
  5
4D9
330
1A
100
AcDbEntity
  8
SEIHIN
  6
CONTINUOUS
 62
     3
 48
16.0
100
AcDbLine
 10
262.4740366841913
 20
280.5555234499232
 30
0.0
 11
269.4740366841913
 21
284.5970234499232
 31
0.0
  0
LINE
  5
4DA
330
1A
100
AcDbEntity
  8
SEIHIN
  6
CONTINUOUS
 62
     3
 48
16.0
100
AcDbLine
 10
262.4740366841913
 20
310.5771234499231
 30
0.0
 11
269.4740366841913
 21
314.6185234499232
 31
0.0
  0
LINE
  5
4DB
330
1A
100
AcDbEntity
  8
SEIHIN
  6
CONTINUOUS
 62
     3
 48
16.0
100
AcDbLine
 10
252.4747366841913
 20
297.8757234499233
 30
0.0
 11
259.4743366841913
 21
301.9170234499231
 31
0.0
  0
LINE
  5
4DC
330
1A
100
AcDbEntity
  8
SEIHIN
  6
CONTINUOUS
 62
     3
 48
16.0
100
AcDbLine
 10
266.4740366841913
 20
297.8757234499233
 30
0.0
 11
259.4743366841913
 21
301.9170234499231
 31
0.0
  0
LINE
  5
4DD
330
1A
100
AcDbEntity
  8
SEIHIN
  6
CONTINUOUS
 62
     3
 48
16.0
100
AcDbLine
 10
243.4745366841912
 20
299.6080234499233
 30
0.0
 11
243.4746366841913
 21
307.6906234499231
 31
0.0
  0
LINE
  5
4DE
330
1A
100
AcDbEntity
  8
SEIHIN
  6
CONTINUOUS
 62
     3
 48
16.0
100
AcDbLine
 10
249.4743366841913
 20
299.6080234499233
 30
0.0
 11
249.4743366841913
 21
307.6906234499231
 31
0.0
  0
LINE
  5
4DF
330
1A
100
AcDbEntity
  8
SEIHIN
  6
CONTINUOUS
 62
     3
 48
16.0
100
AcDbLine
 10
249.4743366841913
 20
284.5972234499233
 30
0.0
 11
256.4747366841913
 21
280.5555234499232
 31
0.0
  0
LINE
  5
4E0
330
1A
100
AcDbEntity
  8
SEIHIN
  6
CONTINUOUS
 62
     3
 48
16.0
100
AcDbLine
 10
249.4743366841913
 20
299.6080234499233
 30
0.0
 11
256.4747366841913
 21
295.5663234499233
 31
0.0
  0
LINE
  5
4E1
330
1A
100
AcDbEntity
  8
SEIHIN
  6
CONTINUOUS
 62
     3
 48
16.0
100
AcDbLine
 10
249.4743366841913
 20
288.0609234499233
 30
0.0
 11
256.4743366841912
 21
292.1024234499232
 31
0.0
  0
LINE
  5
4E2
330
1A
100
AcDbEntity
  8
SEIHIN
  6
CONTINUOUS
 62
     3
 48
16.0
100
AcDbLine
 10
246.4745366841913
 20
294.4117234499233
 30
0.0
 11
253.4744366841912
 21
290.3704234499231
 31
0.0
  0
LINE
  5
4E3
330
1A
100
AcDbEntity
  8
SEIHIN
  6
CONTINUOUS
 62
     3
 48
16.0
100
AcDbLine
 10
243.4745366841912
 20
288.0609234499233
 30
0.0
 11
236.4745366841913
 21
292.1024234499232
 31
0.0
  0
LINE
  5
4E4
330
1A
100
AcDbEntity
  8
SEIHIN
  6
CONTINUOUS
 62
     3
 48
16.0
100
AcDbLine
 10
249.4743366841913
 20
284.5972234499233
 30
0.0
 11
249.4743366841913
 21
292.6798234499233
 31
0.0
  0
LINE
  5
4E5
330
1A
100
AcDbEntity
  8
SEIHIN
  6
CONTINUOUS
 62
     3
 48
16.0
100
AcDbLine
 10
243.4745366841912
 20
284.5972234499233
 30
0.0
 11
243.4745366841912
 21
292.6798234499233
 31
0.0
  0
LINE
  5
4E6
330
1A
100
AcDbEntity
  8
SEIHIN
  6
CONTINUOUS
 62
     3
 48
16.0
100
AcDbLine
 10
243.4745366841912
 20
284.5972234499233
 30
0.0
 11
236.4742366841913
 21
280.5555234499232
 31
0.0
  0
LINE
  5
4E7
330
1A
100
AcDbEntity
  8
SEIHIN
  6
CONTINUOUS
 62
     3
 48
16.0
100
AcDbLine
 10
246.4744366841913
 20
294.4117234499233
 30
0.0
 11
239.4745366841913
 21
290.3704234499231
 31
0.0
  0
LINE
  5
4E8
330
1A
100
AcDbEntity
  8
SEIHIN
  6
CONTINUOUS
 62
     3
 48
16.0
100
AcDbLine
 10
243.4745366841912
 20
299.6080234499233
 30
0.0
 11
236.4742366841913
 21
295.5663234499233
 31
0.0
  0
LINE
  5
4E9
330
1A
100
AcDbEntity
  8
SEIHIN
  6
CONTINUOUS
 62
     3
 48
16.0
100
AcDbLine
 10
236.4742366841913
 20
292.1025234499231
 30
0.0
 11
236.4742366841913
 21
300.1851234499231
 31
0.0
  0
LINE
  5
4EA
330
1A
100
AcDbEntity
  8
SEIHIN
  6
CONTINUOUS
 62
     3
 48
16.0
100
AcDbLine
 10
236.4742366841913
 20
292.1025234499231
 30
0.0
 11
236.4742366841913
 21
300.1851234499231
 31
0.0
  0
LINE
  5
4EB
330
1A
100
AcDbEntity
  8
SEIHIN
  6
CONTINUOUS
 62
     3
 48
16.0
100
AcDbLine
 10
252.4747366841913
 20
282.8650234499233
 30
0.0
 11
259.4743366841913
 21
286.9063234499233
 31
0.0
  0
LINE
  5
4EC
330
1A
100
AcDbEntity
  8
SEIHIN
  6
CONTINUOUS
 62
     3
 48
16.0
100
AcDbLine
 10
266.4740366841913
 20
282.8650234499233
 30
0.0
 11
259.4743366841913
 21
286.9063234499233
 31
0.0
  0
LINE
  5
4ED
330
1A
100
AcDbEntity
  8
SEIHIN
  6
CONTINUOUS
 62
     3
 48
16.0
100
AcDbLine
 10
256.4747366841913
 20
292.1026234499233
 30
0.0
 11
256.4747366841913
 21
300.1851234499231
 31
0.0
  0
LINE
  5
4EE
330
1A
100
AcDbEntity
  8
SEIHIN
  6
CONTINUOUS
 62
     3
 48
16.0
100
AcDbLine
 10
256.4747366841913
 20
292.1026234499233
 30
0.0
 11
256.4747366841913
 21
300.1851234499231
 31
0.0
  0
LINE
  5
4EF
330
1A
100
AcDbEntity
  8
SEIHIN
  6
CONTINUOUS
 62
     3
 48
16.0
100
AcDbLine
 10
262.4740366841913
 20
292.1026234499233
 30
0.0
 11
262.4740366841913
 21
300.1851234499231
 31
0.0
  0
LINE
  5
4F0
330
1A
100
AcDbEntity
  8
SEIHIN
  6
CONTINUOUS
 62
     3
 48
16.0
100
AcDbLine
 10
262.4740366841913
 20
292.1026234499233
 30
0.0
 11
262.4740366841913
 21
300.1851234499231
 31
0.0
  0
LINE
  5
4F1
330
1A
100
AcDbEntity
  8
SEIHIN
  6
CONTINUOUS
 62
     3
 48
16.0
100
AcDbLine
 10
249.4743366841913
 20
318.0825234499232
 30
0.0
 11
256.4743366841912
 21
322.1239234499233
 31
0.0
  0
LINE
  5
4F2
330
1A
100
AcDbEntity
  8
SEIHIN
  6
CONTINUOUS
 62
     3
 48
16.0
100
AcDbLine
 10
249.4743366841913
 20
303.0717234499233
 30
0.0
 11
256.4743366841912
 21
307.1132234499233
 31
0.0
  0
LINE
  5
4F3
330
1A
100
AcDbEntity
  8
SEIHIN
  6
CONTINUOUS
 62
     3
 48
16.0
100
AcDbLine
 10
246.4745366841913
 20
309.4226234499233
 30
0.0
 11
253.4744366841912
 21
305.3811234499233
 31
0.0
  0
LINE
  5
4F4
330
1A
100
AcDbEntity
  8
SEIHIN
  6
CONTINUOUS
 62
     3
 48
16.0
100
AcDbLine
 10
249.4743366841913
 20
314.6188234499232
 30
0.0
 11
256.4743366841912
 21
310.5773234499233
 31
0.0
  0
LINE
  5
4F5
330
1A
100
AcDbEntity
  8
SEIHIN
  6
CONTINUOUS
 62
     3
 48
16.0
100
AcDbLine
 10
236.4743366841913
 20
307.1134234499233
 30
0.0
 11
236.4743366841913
 21
315.1959234499233
 31
0.0
  0
LINE
  5
4F6
330
1A
100
AcDbEntity
  8
SEIHIN
  6
CONTINUOUS
 62
     3
 48
16.0
100
AcDbLine
 10
236.4743366841913
 20
307.1134234499233
 30
0.0
 11
236.4743366841913
 21
315.1959234499233
 31
0.0
  0
LINE
  5
4F7
330
1A
100
AcDbEntity
  8
SEIHIN
  6
CONTINUOUS
 62
     3
 48
16.0
100
AcDbLine
 10
243.4746366841913
 20
314.6188234499232
 30
0.0
 11
236.4746366841913
 21
310.5772234499233
 31
0.0
  0
LINE
  5
4F8
330
1A
100
AcDbEntity
  8
SEIHIN
  6
CONTINUOUS
 62
     3
 48
16.0
100
AcDbLine
 10
243.4746366841913
 20
303.0717234499233
 30
0.0
 11
236.4746366841913
 21
307.1131234499231
 31
0.0
  0
LINE
  5
4F9
330
1A
100
AcDbEntity
  8
SEIHIN
  6
CONTINUOUS
 62
     3
 48
16.0
100
AcDbLine
 10
246.4745366841913
 20
309.4226234499233
 30
0.0
 11
239.4746366841913
 21
305.3811234499233
 31
0.0
  0
LINE
  5
4FA
330
1A
100
AcDbEntity
  8
SEIHIN
  6
CONTINUOUS
 62
     3
 48
16.0
100
AcDbLine
 10
243.4747366841913
 20
318.0825234499232
 30
0.0
 11
236.4747366841913
 21
322.1239234499233
 31
0.0
  0
LINE
  5
4FB
330
1A
100
AcDbEntity
  8
SEIHIN
  6
CONTINUOUS
 62
     3
 48
16.0
100
AcDbLine
 10
243.4746366841913
 20
314.6188234499232
 30
0.0
 11
243.4747366841913
 21
322.7012234499233
 31
0.0
  0
LINE
  5
4FC
330
1A
100
AcDbEntity
  8
SEIHIN
  6
CONTINUOUS
 62
     3
 48
16.0
100
AcDbLine
 10
243.4746366841913
 20
314.6188234499232
 30
0.0
 11
243.4747366841913
 21
322.7012234499233
 31
0.0
  0
LINE
  5
4FD
330
1A
100
AcDbEntity
  8
SEIHIN
  6
CONTINUOUS
 62
     3
 48
16.0
100
AcDbLine
 10
249.4743366841913
 20
314.6188234499232
 30
0.0
 11
249.4743366841913
 21
322.7013234499233
 31
0.0
  0
LINE
  5
4FE
330
1A
100
AcDbEntity
  8
SEIHIN
  6
CONTINUOUS
 62
     3
 48
16.0
100
AcDbLine
 10
249.4743366841913
 20
314.6188234499232
 30
0.0
 11
249.4743366841913
 21
322.7013234499233
 31
0.0
  0
LINE
  5
4FF
330
1A
100
AcDbEntity
  8
SEIHIN
  6
CONTINUOUS
 62
     3
 48
16.0
100
AcDbLine
 10
262.4740366841913
 20
307.1134234499233
 30
0.0
 11
262.4740366841913
 21
315.1959234499233
 31
0.0
  0
LINE
  5
500
330
1A
100
AcDbEntity
  8
SEIHIN
  6
CONTINUOUS
 62
     3
 48
16.0
100
AcDbLine
 10
262.4740366841913
 20
307.1134234499233
 30
0.0
 11
262.4740366841913
 21
315.1959234499233
 31
0.0
  0
LINE
  5
501
330
1A
100
AcDbEntity
  8
SEIHIN
  6
CONTINUOUS
 62
     3
 48
16.0
100
AcDbLine
 10
256.4747366841913
 20
307.1134234499233
 30
0.0
 11
256.4747366841913
 21
315.1959234499233
 31
0.0
  0
LINE
  5
502
330
1A
100
AcDbEntity
  8
SEIHIN
  6
CONTINUOUS
 62
     3
 48
16.0
100
AcDbLine
 10
256.4747366841913
 20
307.1134234499233
 30
0.0
 11
256.4747366841913
 21
315.1959234499233
 31
0.0
  0
LINE
  5
503
330
1A
100
AcDbEntity
  8
SEIHIN
  6
CONTINUOUS
 62
     3
 48
16.0
100
AcDbLine
 10
252.4747366841913
 20
312.8865234499233
 30
0.0
 11
259.4743366841913
 21
316.9278234499233
 31
0.0
  0
LINE
  5
504
330
1A
100
AcDbEntity
  8
SEIHIN
  6
CONTINUOUS
 62
     3
 48
16.0
100
AcDbLine
 10
266.4740366841913
 20
312.8865234499233
 30
0.0
 11
259.4743366841913
 21
316.9278234499233
 31
0.0
  0
ARC
  5
505
330
1A
100
AcDbEntity
  8
SEIHIN
  6
CONTINUOUS
 62
     3
 48
16.0
100
AcDbCircle
 10
234.4743319147751
 20
297.8759673937296
 30
0.0
 40
60.00000476943235
100
AcDbArc
 50
359.9999580367593
 51
12.38859532897341
  0
LINE
  5
506
330
1A
100
AcDbEntity
  8
SEIHIN
  6
CONTINUOUS
 62
     3
 48
16.0
100
AcDbLine
 10
269.4743366841912
 20
299.6080234499233
 30
0.0
 11
269.4743366841912
 21
307.6905234499232
 31
0.0
  0
LINE
  5
507
330
1A
100
AcDbEntity
  8
SEIHIN
  6
CONTINUOUS
 62
     3
 48
16.0
100
AcDbLine
 10
269.4743366841912
 20
299.6080234499233
 30
0.0
 11
269.4743366841912
 21
307.6905234499232
 31
0.0
  0
LINE
  5
508
330
1A
100
AcDbEntity
  8
SEIHIN
  6
CONTINUOUS
 62
     3
 48
16.0
100
AcDbLine
 10
275.4737366841912
 20
299.6080234499233
 30
0.0
 11
275.4737366841912
 21
307.6905234499232
 31
0.0
  0
LINE
  5
509
330
1A
100
AcDbEntity
  8
SEIHIN
  6
CONTINUOUS
 62
     3
 48
16.0
100
AcDbLine
 10
275.4737366841912
 20
299.6080234499233
 30
0.0
 11
275.4737366841912
 21
307.6905234499232
 31
0.0
  0
LINE
  5
50A
330
1A
100
AcDbEntity
  8
SEIHIN
  6
CONTINUOUS
 62
     3
 48
16.0
100
AcDbLine
 10
278.4740366841913
 20
297.8757234499233
 30
0.0
 11
285.4737366841914
 21
301.9170234499231
 31
0.0
  0
LINE
  5
50B
330
1A
100
AcDbEntity
  8
SEIHIN
  6
CONTINUOUS
 62
     3
 48
16.0
100
AcDbLine
 10
292.4734366841913
 20
297.8757234499233
 30
0.0
 11
285.4737366841914
 21
301.9170234499231
 31
0.0
  0
ARC
  5
50C
330
1A
100
AcDbEntity
  8
SEIHIN
  6
CONTINUOUS
 62
     3
 48
16.0
100
AcDbCircle
 10
237.9743023856693
 20
297.8762050500924
 30
0.0
 40
60.00003429918293
100
AcDbArc
 50
359.9997310918003
 51
13.88841936283235
  0
LINE
  5
50D
330
1A
100
AcDbEntity
  8
SEIHIN
  6
CONTINUOUS
 62
     3
 48
16.0
100
AcDbLine
 10
278.4740366841913
 20
282.8649234499232
 30
0.0
 11
285.4737366841914
 21
286.9062234499233
 31
0.0
  0
LINE
  5
50E
330
1A
100
AcDbEntity
  8
SEIHIN
  6
CONTINUOUS
 62
     3
 48
16.0
100
AcDbLine
 10
275.4737366841912
 20
288.0609234499233
 30
0.0
 11
282.4737366841914
 21
292.1024234499232
 31
0.0
  0
LINE
  5
50F
330
1A
100
AcDbEntity
  8
SEIHIN
  6
CONTINUOUS
 62
     3
 48
16.0
100
AcDbLine
 10
269.4743366841912
 20
284.5972234499233
 30
0.0
 11
269.4743366841912
 21
292.6798234499233
 31
0.0
  0
LINE
  5
510
330
1A
100
AcDbEntity
  8
SEIHIN
  6
CONTINUOUS
 62
     3
 48
16.0
100
AcDbLine
 10
269.4743366841912
 20
284.5972234499233
 30
0.0
 11
269.4743366841912
 21
292.6798234499233
 31
0.0
  0
LINE
  5
511
330
1A
100
AcDbEntity
  8
SEIHIN
  6
CONTINUOUS
 62
     3
 48
16.0
100
AcDbLine
 10
275.4737366841912
 20
284.5972234499233
 30
0.0
 11
275.4737366841912
 21
292.6798234499233
 31
0.0
  0
LINE
  5
512
330
1A
100
AcDbEntity
  8
SEIHIN
  6
CONTINUOUS
 62
     3
 48
16.0
100
AcDbLine
 10
275.4737366841912
 20
284.5972234499233
 30
0.0
 11
275.4737366841912
 21
292.6798234499233
 31
0.0
  0
LINE
  5
513
330
1A
100
AcDbEntity
  8
SEIHIN
  6
CONTINUOUS
 62
     3
 48
16.0
100
AcDbLine
 10
275.4737366841912
 20
284.5972234499233
 30
0.0
 11
282.4740366841913
 21
280.5555234499232
 31
0.0
  0
LINE
  5
514
330
1A
100
AcDbEntity
  8
SEIHIN
  6
CONTINUOUS
 62
     3
 48
16.0
100
AcDbLine
 10
279.4737366841914
 20
290.3704234499231
 30
0.0
 11
272.4740366841913
 21
294.4116234499231
 31
0.0
  0
LINE
  5
515
330
1A
100
AcDbEntity
  8
SEIHIN
  6
CONTINUOUS
 62
     3
 48
16.0
100
AcDbLine
 10
275.4737366841912
 20
299.6080234499233
 30
0.0
 11
282.4740366841913
 21
295.5663234499233
 31
0.0
  0
LINE
  5
516
330
1A
100
AcDbEntity
  8
SEIHIN
  6
CONTINUOUS
 62
     3
 48
16.0
100
AcDbLine
 10
282.4740366841913
 20
292.1026234499233
 30
0.0
 11
282.4740366841913
 21
300.1851234499231
 31
0.0
  0
LINE
  5
517
330
1A
100
AcDbEntity
  8
SEIHIN
  6
CONTINUOUS
 62
     3
 48
16.0
100
AcDbLine
 10
282.4740366841913
 20
292.1026234499233
 30
0.0
 11
282.4740366841913
 21
300.1851234499231
 31
0.0
  0
LINE
  5
518
330
1A
100
AcDbEntity
  8
SEIHIN
  6
CONTINUOUS
 62
     3
 48
16.0
100
AcDbLine
 10
288.4733366841913
 20
292.1026234499233
 30
0.0
 11
293.8168366841913
 21
289.0175234499233
 31
0.0
  0
ARC
  5
519
330
1A
100
AcDbEntity
  8
SEIHIN
  6
CONTINUOUS
 62
     3
 48
16.0
100
AcDbCircle
 10
237.974338922056
 20
297.8757418231123
 30
0.0
 40
59.99999776225216
100
AcDbArc
 50
346.1111785609418
 51
359.9998869619267
  0
ARC
  5
51A
330
1A
100
AcDbEntity
  8
SEIHIN
  6
CONTINUOUS
 62
     3
 48
16.0
100
AcDbCircle
 10
234.4743104600925
 20
297.8754818353846
 30
0.0
 40
60.00002622426599
100
AcDbArc
 50
347.6114068939839
 51
0.0001352318637961
  0
LINE
  5
51B
330
1A
100
AcDbEntity
  8
SEIHIN
  6
CONTINUOUS
 62
     3
 48
16.0
100
AcDbLine
 10
292.4733366841912
 20
282.8649234499232
 30
0.0
 11
285.4737366841914
 21
286.9062234499233
 31
0.0
  0
LINE
  5
51C
330
1A
100
AcDbEntity
  8
SEIHIN
  6
CONTINUOUS
 62
     3
 48
16.0
100
AcDbLine
 10
288.4733366841913
 20
277.6188234499232
 30
0.0
 11
288.4733366841913
 21
285.1743234499232
 31
0.0
  0
LINE
  5
51D
330
1A
100
AcDbEntity
  8
SEIHIN
  6
CONTINUOUS
 62
     3
 48
16.0
100
AcDbLine
 10
291.4737366841914
 20
290.3703234499232
 30
0.0
 11
294.1793366841914
 21
291.9324234499232
 31
0.0
  0
LINE
  5
51E
330
1A
100
AcDbEntity
  8
SEIHIN
  6
CONTINUOUS
 62
     3
 48
16.0
100
AcDbLine
 10
288.4733366841913
 20
295.5663234499233
 30
0.0
 11
294.4634366841912
 21
299.0246234499231
 31
0.0
  0
LINE
  5
51F
330
1A
100
AcDbEntity
  8
SEIHIN
  6
CONTINUOUS
 62
     3
 48
16.0
100
AcDbLine
 10
288.4733366841913
 20
292.1026234499233
 30
0.0
 11
288.4733366841913
 21
300.1851234499231
 31
0.0
  0
LINE
  5
520
330
1A
100
AcDbEntity
  8
SEIHIN
  6
CONTINUOUS
 62
     3
 48
16.0
100
AcDbLine
 10
288.4733366841913
 20
292.1026234499233
 30
0.0
 11
288.4733366841913
 21
300.1851234499231
 31
0.0
  0
LINE
  5
521
330
1A
100
AcDbEntity
  8
SEIHIN
  6
CONTINUOUS
 62
     3
 48
16.0
100
AcDbLine
 10
278.4740366841913
 20
312.8865234499233
 30
0.0
 11
285.4737366841914
 21
316.9277234499231
 31
0.0
  0
ARC
  5
522
330
1A
100
AcDbEntity
  8
SEIHIN
  6
CONTINUOUS
 62
     3
 48
16.0
100
AcDbCircle
 10
280.379938559747
 20
307.9594219755632
 30
0.0
 40
12.99999649557645
100
AcDbArc
 50
12.38846132031861
 51
91.27031603742715
  0
LINE
  5
523
330
1A
100
AcDbEntity
  8
SEIHIN
  6
CONTINUOUS
 62
     3
 48
16.0
100
AcDbLine
 10
282.4740366841913
 20
307.1133234499233
 30
0.0
 11
282.4740366841913
 21
315.1959234499233
 31
0.0
  0
LINE
  5
524
330
1A
100
AcDbEntity
  8
SEIHIN
  6
CONTINUOUS
 62
     3
 48
16.0
100
AcDbLine
 10
282.4740366841913
 20
307.1133234499233
 30
0.0
 11
282.4740366841913
 21
315.1959234499233
 31
0.0
  0
LINE
  5
525
330
1A
100
AcDbEntity
  8
SEIHIN
  6
CONTINUOUS
 62
     3
 48
16.0
100
AcDbLine
 10
275.4737366841912
 20
314.6188234499232
 30
0.0
 11
282.4740366841913
 21
310.5771234499231
 31
0.0
  0
LINE
  5
526
330
1A
100
AcDbEntity
  8
SEIHIN
  6
CONTINUOUS
 62
     3
 48
16.0
100
AcDbLine
 10
279.4737366841914
 20
305.3811234499233
 30
0.0
 11
272.4740366841913
 21
309.4224234499233
 31
0.0
  0
LINE
  5
527
330
1A
100
AcDbEntity
  8
SEIHIN
  6
CONTINUOUS
 62
     3
 48
16.0
100
AcDbLine
 10
275.4737366841912
 20
303.0717234499233
 30
0.0
 11
282.4737366841914
 21
307.1131234499231
 31
0.0
  0
LINE
  5
528
330
1A
100
AcDbEntity
  8
SEIHIN
  6
CONTINUOUS
 62
     3
 48
16.0
100
AcDbLine
 10
275.4737366841912
 20
318.0825234499232
 30
0.0
 11
280.4563366841913
 21
320.9592234499233
 31
0.0
  0
LINE
  5
529
330
1A
100
AcDbEntity
  8
SEIHIN
  6
CONTINUOUS
 62
     3
 48
16.0
100
AcDbLine
 10
269.4743366841912
 20
314.6188234499232
 30
0.0
 11
269.4743366841912
 21
322.7013234499233
 31
0.0
  0
LINE
  5
52A
330
1A
100
AcDbEntity
  8
SEIHIN
  6
CONTINUOUS
 62
     3
 48
16.0
100
AcDbLine
 10
269.4743366841912
 20
314.6188234499232
 30
0.0
 11
269.4743366841912
 21
322.7013234499233
 31
0.0
  0
LINE
  5
52B
330
1A
100
AcDbEntity
  8
SEIHIN
  6
CONTINUOUS
 62
     3
 48
16.0
100
AcDbLine
 10
275.4737366841912
 20
314.6188234499232
 30
0.0
 11
275.4737366841912
 21
322.7013234499233
 31
0.0
  0
LINE
  5
52C
330
1A
100
AcDbEntity
  8
SEIHIN
  6
CONTINUOUS
 62
     3
 48
16.0
100
AcDbLine
 10
275.4737366841912
 20
314.6188234499232
 30
0.0
 11
275.4737366841912
 21
322.7013234499233
 31
0.0
  0
LINE
  5
52D
330
1A
100
AcDbEntity
  8
SEIHIN
  6
CONTINUOUS
 62
     3
 48
16.0
100
AcDbLine
 10
288.4733366841913
 20
307.1133234499233
 30
0.0
 11
288.4733366841913
 21
315.1959234499233
 31
0.0
  0
LINE
  5
52E
330
1A
100
AcDbEntity
  8
SEIHIN
  6
CONTINUOUS
 62
     3
 48
16.0
100
AcDbLine
 10
288.4733366841913
 20
307.1133234499233
 30
0.0
 11
288.4733366841913
 21
315.1959234499233
 31
0.0
  0
LINE
  5
52F
330
1A
100
AcDbEntity
  8
SEIHIN
  6
CONTINUOUS
 62
     3
 48
16.0
100
AcDbLine
 10
288.4733366841913
 20
310.5770234499233
 30
0.0
 11
292.4221366841914
 21
312.8569234499233
 31
0.0
  0
LINE
  5
530
330
1A
100
AcDbEntity
  8
SEIHIN
  6
CONTINUOUS
 62
     3
 48
16.0
100
AcDbLine
 10
288.4733366841913
 20
307.1133234499233
 30
0.0
 11
294.1793366841914
 21
303.8190234499231
 31
0.0
  0
LINE
  5
531
330
1A
100
AcDbEntity
  8
SEIHIN
  6
CONTINUOUS
 62
     3
 48
16.0
100
AcDbLine
 10
291.4737366841914
 20
305.3811234499233
 30
0.0
 11
293.8169366841913
 21
306.7340234499233
 31
0.0
  0
LINE
  5
532
330
1A
100
AcDbEntity
  8
SEIHIN
  6
CONTINUOUS
 62
     3
 48
16.0
100
AcDbLine
 10
292.3903366841914
 20
312.9345234499233
 30
0.0
 11
285.4737366841914
 21
316.9277234499231
 31
0.0
  0
ARC
  5
533
330
1A
100
AcDbEntity
  8
SEIHIN
  6
CONTINUOUS
 62
     3
 48
16.0
100
AcDbCircle
 10
285.6741093465234
 20
432.8726050965707
 30
0.0
 40
100.0000716512261
100
AcDbArc
 50
246.9212810285584
 51
264.727615222077
  0
ARC
  5
534
330
1A
100
AcDbEntity
  8
SEIHIN
  6
CONTINUOUS
 62
     3
 48
16.0
100
AcDbCircle
 10
285.6738992800641
 20
429.3726594900374
 30
0.0
 40
100.0000393465641
100
AcDbArc
 50
246.9214039716363
 51
263.6843626138926
  0
ARC
  5
535
330
1A
100
AcDbEntity
  8
SEIHIN
  6
CONTINUOUS
 62
     3
 48
16.0
100
AcDbCircle
 10
285.6737512641667
 20
425.8727011548066
 30
0.0
 40
100.0000196556693
100
AcDbArc
 50
246.9214913489471
 51
262.6197867922038
  0
LINE
  5
536
330
1A
100
AcDbEntity
  8
SEIHIN
  6
CONTINUOUS
 62
     3
 48
16.0
100
AcDbLine
 10
249.4743366841913
 20
329.6296234499231
 30
0.0
 11
256.4743366841912
 21
325.5881234499233
 31
0.0
  0
LINE
  5
537
330
1A
100
AcDbEntity
  8
SEIHIN
  6
CONTINUOUS
 62
     3
 48
16.0
100
AcDbLine
 10
243.4747366841913
 20
329.6295234499233
 30
0.0
 11
236.4747366841913
 21
325.5881234499233
 31
0.0
  0
LINE
  5
538
330
1A
100
AcDbEntity
  8
SEIHIN
  6
CONTINUOUS
 62
     3
 48
16.0
100
AcDbLine
 10
243.4747366841913
 20
329.6295234499233
 30
0.0
 11
243.4747366841913
 21
332.6546234499232
 31
0.0
  0
LINE
  5
539
330
1A
100
AcDbEntity
  8
SEIHIN
  6
CONTINUOUS
 62
     3
 48
16.0
100
AcDbLine
 10
243.4747366841913
 20
329.6295234499233
 30
0.0
 11
243.4747366841913
 21
332.6546234499232
 31
0.0
  0
LINE
  5
53A
330
1A
100
AcDbEntity
  8
SEIHIN
  6
CONTINUOUS
 62
     3
 48
16.0
100
AcDbLine
 10
249.4743366841913
 20
329.6296234499231
 30
0.0
 11
249.4743366841913
 21
332.6546234499232
 31
0.0
  0
LINE
  5
53B
330
1A
100
AcDbEntity
  8
SEIHIN
  6
CONTINUOUS
 62
     3
 48
16.0
100
AcDbLine
 10
249.4743366841913
 20
329.6296234499231
 30
0.0
 11
249.4743366841913
 21
332.6546234499232
 31
0.0
  0
LINE
  5
53C
330
1A
100
AcDbEntity
  8
SEIHIN
  6
CONTINUOUS
 62
     3
 48
16.0
100
AcDbLine
 10
262.4740366841913
 20
325.5878234499231
 30
0.0
 11
266.2619366841912
 21
327.7748234499231
 31
0.0
  0
ARC
  5
53D
330
1A
100
AcDbEntity
  8
SEIHIN
  6
CONTINUOUS
 62
     3
 48
16.0
100
AcDbCircle
 10
275.4744181406743
 20
322.3421522896263
 30
0.0
 40
11.00000374698424
100
AcDbArc
 50
12.99202816694737
 51
84.72802882106957
  0
DIMENSION
  5
53E
330
1A
100
AcDbEntity
  8
SUNPOU
  6
CONTINUOUS
100
AcDbDimension
  2
*D5
 10
276.4747099996607
 20
447.8586837959321
 30
0.0
 11
246.4747099996975
 21
452.8586837959322
 31
0.0
 12
20.47772767732431
 22
-47.74181668944175
 32
0.0
 70
    32
  1
※a<>
  3
STANDARD
100
AcDbAlignedDimension
 13
216.4747099997343
 23
418.875817938159
 33
0.0
 14
276.4747099996607
 24
418.8757234499231
 34
0.0
100
AcDbRotatedDimension
1001
ACAD
1000
DSTYLE
1002
{
1070
   140
1040
6.0
1070
    74
1070
     0
1070
   172
1070
     1
1070
    73
1070
     0
1070
   272
1070
     2
1070
    77
1070
     3
1070
   173
1070
     1
1070
   147
1040
2.0
1070
    42
1040
6.0
1070
    44
1040
3.0
1070
    43
1040
14.0
1070
   271
1070
     0
1070
   178
1070
     4
1070
   177
1070
     4
1070
   176
1070
     4
1070
   141
1040
150.0
1070
     7
1000
_OPEN
1070
     6
1000
_OPEN
1070
    41
1040
7.0
1002
}
  0
LINE
  5
53F
330
1A
100
AcDbEntity
  8
SEIHIN
  6
CONTINUOUS
 62
     3
 48
16.0
100
AcDbLine
 10
346.4746366841914
 20
372.8757234499233
 30
0.0
 11
346.4746366841914
 21
365.8757234499231
 31
0.0
  0
LINE
  5
540
330
1A
100
AcDbEntity
  8
SEIHIN
  6
CONTINUOUS
 62
     3
 48
16.0
100
AcDbLine
 10
319.4747366841913
 20
346.8757234499233
 30
0.0
 11
316.4746366841914
 21
289.8757234499233
 31
0.0
  0
LINE
  5
541
330
1A
100
AcDbEntity
  8
SEIHIN
  6
CONTINUOUS
 62
     3
 48
16.0
100
AcDbLine
 10
329.4747366841913
 20
346.8757234499233
 30
0.0
 11
326.4746366841914
 21
289.8757234499233
 31
0.0
  0
LINE
  5
542
330
1A
100
AcDbEntity
  8
SEIHIN
  6
CONTINUOUS
 62
     3
 48
16.0
100
AcDbLine
 10
318.4788366841912
 20
346.9553234499231
 30
0.0
 11
315.4746366841914
 21
289.8757234499233
 31
0.0
  0
ARC
  5
543
330
1A
100
AcDbEntity
  8
SEIHIN
  6
CONTINUOUS
 62
     3
 48
16.0
100
AcDbCircle
 10
327.7310989627021
 20
357.7367822679297
 30
0.0
 40
11.00001591965622
100
AcDbArc
 50
279.1200272611352
 51
347.6055101064445
  0
ARC
  5
544
330
1A
100
AcDbEntity
  8
SEIHIN
  6
CONTINUOUS
 62
     3
 48
16.0
100
AcDbCircle
 10
310.4899172187816
 20
347.3757439668508
 30
0.0
 40
7.99997948309598
100
AcDbArc
 50
356.9868472286254
 51
89.99986058891575
  0
ARC
  5
545
330
1A
100
AcDbEntity
  8
SEIHIN
  6
CONTINUOUS
 62
     3
 48
16.0
100
AcDbCircle
 10
310.4373172187815
 20
346.3757439668508
 30
0.0
 40
7.999979483096063
100
AcDbArc
 50
356.9868472286248
 51
89.99986058891519
  0
LINE
  5
546
330
1A
100
AcDbEntity
  8
SEIHIN
  6
CONTINUOUS
 62
     3
 48
16.0
100
AcDbLine
 10
329.4747366841913
 20
346.8757234499233
 30
0.0
 11
318.4747366841912
 21
346.8757234499233
 31
0.0
  0
ARC
  5
547
330
1A
100
AcDbEntity
  8
SEIHIN
  6
CONTINUOUS
 62
     3
 48
16.0
100
AcDbCircle
 10
349.392861626577
 20
354.0364587847095
 30
0.0
 40
10.9999582772407
100
AcDbArc
 50
116.5580285067296
 51
173.0067855568839
  0
LINE
  5
548
330
1A
100
AcDbEntity
  8
SEIHIN
  6
CONTINUOUS
 62
     3
 48
16.0
100
AcDbLine
 10
344.4746366841914
 20
365.8757234499231
 30
0.0
 11
344.4746366841914
 21
363.8757234499231
 31
0.0
  0
ARC
  5
549
330
1A
100
AcDbEntity
  8
SEIHIN
  6
CONTINUOUS
 62
     3
 48
16.0
100
AcDbCircle
 10
380.2476394449641
 20
385.7960271309291
 30
0.0
 40
20.99996748747518
100
AcDbArc
 50
114.6931163897346
 51
171.5667445425247
  0
ARC
  5
54A
330
1A
100
AcDbEntity
  8
SEIHIN
  6
CONTINUOUS
 62
     3
 48
16.0
100
AcDbCircle
 10
338.7748199987877
 20
392.4133259906835
 30
0.0
 40
21.00002815519634
100
AcDbArc
 50
291.509620401499
 51
350.3018799066171
  0
LINE
  5
54B
330
1A
100
AcDbEntity
  8
SEIHIN
  6
CONTINUOUS
 62
     3
 48
16.0
100
AcDbLine
 10
373.4747366841913
 20
418.8757234499231
 30
0.0
 11
373.4747366841913
 21
406.8757234499233
 31
0.0
  0
LINE
  5
54C
330
1A
100
AcDbEntity
  8
SEIHIN
  6
CONTINUOUS
 62
     3
 48
16.0
100
AcDbLine
 10
371.4747366841913
 20
406.8757234499233
 30
0.0
 11
371.4747366841913
 21
404.8757234499233
 31
0.0
  0
ARC
  5
54D
330
1A
100
AcDbEntity
  8
SEIHIN
  6
CONTINUOUS
 62
     3
 48
16.0
100
AcDbCircle
 10
817.3418043585828
 20
332.8980140464498
 30
0.0
 40
299.9999912559657
100
AcDbArc
 50
187.7204554429954
 51
195.0135403803051
  0
ARC
  5
54E
330
1A
100
AcDbEntity
  8
SEIHIN
  6
CONTINUOUS
 62
     3
 48
16.0
100
AcDbCircle
 10
821.1653931803606
 20
330.3225888502498
 30
0.0
 40
300.0000116775599
100
AcDbArc
 50
188.8184013571088
 51
195.0134157106768
  0
ARC
  5
54F
330
1A
100
AcDbEntity
  8
SEIHIN
  6
CONTINUOUS
 62
     3
 48
16.0
100
AcDbCircle
 10
822.1292756967201
 20
328.5889026076383
 30
0.0
 40
300.0000001019267
100
AcDbArc
 50
188.1855474692472
 51
198.8661001617619
  0
LINE
  5
550
330
1A
100
AcDbEntity
  8
SEIHIN
  6
CONTINUOUS
 62
     3
 48
16.0
100
AcDbLine
 10
676.1857225717173
 20
352.8751234499233
 30
0.0
 11
667.2494225717175
 21
208.0839234499233
 31
0.0
  0
LINE
  5
551
330
1A
100
AcDbEntity
  8
CENTER_L
  6
CENTER
 62
     1
 48
5.0
100
AcDbLine
 10
612.9355225717175
 20
352.8750234499233
 30
0.0
 11
612.9355225717175
 21
277.0389234499233
 31
0.0
  0
TEXT
  5
552
330
1A
100
AcDbEntity
  8
SUNPOU
 62
     4
100
AcDbText
 10
596.0861741398741
 20
71.81243124719673
 30
0.0
 40
8.0
  1
※a　のきといの縁切り間隔寸法を示す。　
100
AcDbText
  0
TEXT
  5
553
330
1A
100
AcDbEntity
  8
SUNPOU
 62
     4
100
AcDbText
 10
596.0861741398741
 20
59.0780737286335
 30
0.0
 40
8.0
  1
※b　エルボの差込み寸法を示す。　
100
AcDbText
  0
ARC
  5
554
330
1A
100
AcDbEntity
  8
SEIHIN
  6
CONTINUOUS
 62
     3
 48
16.0
100
AcDbCircle
 10
556.9967279886411
 20
198.3855158730374
 30
0.0
 40
8.000013650298214
100
AcDbArc
 50
333.9743607126628
 51
97.14974374009468
  0
LINE
  5
555
330
1A
100
AcDbEntity
  8
SEIHIN
  6
CONTINUOUS
 62
     3
 48
16.0
100
AcDbLine
 10
544.1855225717175
 20
223.8753234499232
 30
0.0
 11
668.2480225717177
 21
223.8750234499233
 31
0.0
  0
LINE
  5
556
330
1A
100
AcDbEntity
  8
SEIHIN
  6
CONTINUOUS
 62
     3
 48
16.0
100
AcDbLine
 10
544.1855225717175
 20
228.8753234499233
 30
0.0
 11
668.5605225717177
 21
228.8750234499233
 31
0.0
  0
ARC
  5
557
330
1A
100
AcDbEntity
  8
SEIHIN
  6
CONTINUOUS
 62
     3
 48
16.0
100
AcDbCircle
 10
542.0312343215887
 20
232.8753150480307
 30
0.0
 40
3.999991598124601
100
AcDbArc
 50
198.8655541124532
 51
269.9998316951396
  0
ARC
  5
558
330
1A
100
AcDbEntity
  8
SEIHIN
  6
CONTINUOUS
 62
     3
 48
16.0
100
AcDbCircle
 10
524.5534613246113
 20
201.1909254303309
 30
0.0
 40
29.9999957053564
100
AcDbArc
 50
12.85003375171465
 51
49.12566778323229
  0
ARC
  5
559
330
1A
100
AcDbEntity
  8
SEIHIN
  6
CONTINUOUS
 62
     3
 48
16.0
100
AcDbCircle
 10
555.7520053770965
 20
208.3077354892507
 30
0.0
 40
1.999975176106987
100
AcDbArc
 50
192.8505517512091
 51
277.1524680305639
  0
LINE
  5
55A
330
1A
100
AcDbEntity
  8
SEIHIN
  6
CONTINUOUS
 62
     3
 48
16.0
100
AcDbLine
 10
544.1855225717175
 20
228.8753234499233
 30
0.0
 11
544.1855225717175
 21
224.8301234499233
 31
0.0
  0
LINE
  5
55B
330
1A
100
AcDbEntity
  8
SEIHIN
  6
CONTINUOUS
 62
     3
 48
16.0
100
AcDbLine
 10
542.0312225717175
 20
228.8753234499233
 30
0.0
 11
544.1855225717175
 21
228.8753234499233
 31
0.0
  0
ARC
  5
55C
330
1A
100
AcDbEntity
  8
SEIHIN
  6
CONTINUOUS
 62
     3
 48
16.0
100
AcDbCircle
 10
546.1855162979479
 20
224.8301368519415
 30
0.0
 40
1.999993726275417
100
AcDbArc
 50
180.0003839407453
 51
230.1709707864748
  0
LINE
  5
55D
330
1A
100
AcDbEntity
  8
SEIHIN
  6
CONTINUOUS
 62
     3
 48
16.0
100
AcDbLine
 10
531.4058225717176
 20
252.6091234499233
 30
0.0
 11
527.5823225717176
 21
255.1841234499232
 31
0.0
  0
LINE
  5
55E
330
1A
100
AcDbEntity
  8
SEIHIN
  6
CONTINUOUS
 62
     3
 48
16.0
100
AcDbLine
 10
528.5455225717176
 20
268.8753234499233
 30
0.0
 11
527.5816225717176
 21
268.6091234499233
 31
0.0
  0
LINE
  5
55F
330
1A
100
AcDbEntity
  8
SEIHIN
  6
CONTINUOUS
 62
     3
 48
16.0
100
AcDbLine
 10
527.5816225717176
 20
268.6091234499233
 30
0.0
 11
523.7580225717174
 21
271.1841234499233
 31
0.0
  0
LINE
  5
560
330
1A
100
AcDbEntity
  8
SEIHIN
  6
CONTINUOUS
 62
     3
 48
16.0
100
AcDbLine
 10
532.3697225717173
 20
252.8753234499232
 30
0.0
 11
531.4058225717176
 21
252.6091234499233
 31
0.0
  0
LINE
  5
561
330
1A
100
AcDbEntity
  8
SEIHIN
  6
CONTINUOUS
 62
     3
 48
16.0
100
AcDbLine
 10
532.3697225717173
 20
252.8753234499232
 30
0.0
 11
533.5445225717173
 21
248.6205234499232
 31
0.0
  0
LINE
  5
562
330
1A
100
AcDbEntity
  8
SEIHIN
  6
CONTINUOUS
 62
     3
 48
16.0
100
AcDbLine
 10
656.1855225717176
 20
194.8751234499232
 30
0.0
 11
656.1854225717176
 21
169.8751234499232
 31
0.0
  0
LINE
  5
563
330
1A
100
AcDbEntity
  8
CENTER_L
  6
CENTER
 62
     1
 48
5.0
100
AcDbLine
 10
610.1854225717176
 20
141.0210234499233
 30
0.0
 11
610.1855225717176
 21
209.6574234499233
 31
0.0
  0
DIMENSION
  5
564
330
1A
100
AcDbEntity
  8
SUNPOU
  6
CONTINUOUS
100
AcDbDimension
  2
*D6
 10
690.910834562585
 20
178.8751095884848
 30
0.0
 11
685.910834562585
 21
207.2751095884849
 31
0.0
 12
20.47772767732431
 22
-47.74181668944175
 32
0.0
 70
    32
  1
※b <>
  3
STANDARD
100
AcDbAlignedDimension
 13
650.5854225717175
 23
166.8751234499233
 33
0.0
 14
656.1854585716623
 24
178.8751095884848
 34
0.0
 50
90.0
100
AcDbRotatedDimension
1001
ACAD
1000
DSTYLE
1002
{
1070
   140
1040
6.0
1070
    74
1070
     0
1070
   172
1070
     1
1070
    73
1070
     0
1070
   272
1070
     2
1070
    77
1070
     3
1070
   173
1070
     1
1070
   147
1040
2.0
1070
    42
1040
6.0
1070
    44
1040
3.0
1070
    43
1040
14.0
1070
   271
1070
     0
1070
   178
1070
     4
1070
   177
1070
     4
1070
   176
1070
     4
1070
   141
1040
150.0
1070
     7
1000
_OPEN
1070
     6
1000
_OPEN
1070
    41
1040
7.0
1002
}
  0
LINE
  5
565
330
1A
100
AcDbEntity
  8
SEIHIN
  6
CONTINUOUS
 62
     3
 48
16.0
100
AcDbLine
 10
564.1847225717174
 20
194.8753234499232
 30
0.0
 11
564.1847225717174
 21
169.8752234499232
 31
0.0
  0
DIMENSION
  5
566
330
1A
100
AcDbEntity
  8
SUNPOU
  6
CONTINUOUS
100
AcDbDimension
  2
*D7
 10
573.9847225717176
 20
121.3689890377191
 30
0.0
 11
610.1850725717175
 21
126.3689890377191
 31
0.0
 12
20.47772767732431
 22
-47.74181668944175
 32
0.0
 70
    32
  1
φ<>
  3
STANDARD
100
AcDbAlignedDimension
 13
646.3854225717175
 23
153.8752234499233
 33
0.0
 14
573.9847225717176
 24
153.8754234499233
 34
0.0
100
AcDbRotatedDimension
1001
ACAD
1000
DSTYLE
1002
{
1070
   140
1040
6.0
1070
    74
1070
     0
1070
   172
1070
     1
1070
    73
1070
     0
1070
   272
1070
     2
1070
    77
1070
     3
1070
   173
1070
     1
1070
   147
1040
2.0
1070
    42
1040
6.0
1070
    44
1040
3.0
1070
    43
1040
14.0
1070
   271
1070
     0
1070
   178
1070
     4
1070
   177
1070
     4
1070
   176
1070
     4
1070
   141
1040
150.0
1070
     7
1000
_OPEN
1070
     6
1000
_OPEN
1070
    41
1040
7.0
1002
}
  0
DIMENSION
  5
567
330
1A
100
AcDbEntity
  8
SUNPOU
  6
CONTINUOUS
100
AcDbDimension
  2
*D8
 10
564.1847225717174
 20
99.21423053775454
 30
0.0
 11
610.1850725717175
 21
104.2142305377545
 31
0.0
 12
20.47772767732431
 22
-47.74181668944175
 32
0.0
 70
    32
  1
φ<>
  3
STANDARD
100
AcDbAlignedDimension
 13
656.1854225717176
 23
169.8751234499232
 33
0.0
 14
564.1847225717174
 24
169.8752234499232
 34
0.0
100
AcDbRotatedDimension
1001
ACAD
1000
DSTYLE
1002
{
1070
   140
1040
6.0
1070
    74
1070
     0
1070
   172
1070
     1
1070
    73
1070
     0
1070
   272
1070
     2
1070
    77
1070
     3
1070
   173
1070
     1
1070
   147
1040
2.0
1070
    42
1040
6.0
1070
    44
1040
3.0
1070
    43
1040
14.0
1070
   271
1070
     0
1070
   178
1070
     4
1070
   177
1070
     4
1070
   176
1070
     4
1070
   141
1040
150.0
1070
     7
1000
_OPEN
1070
     6
1000
_OPEN
1070
    41
1040
7.0
1002
}
  0
LINE
  5
568
330
1A
100
AcDbEntity
  8
SEIHIN
  6
CONTINUOUS
 62
     3
 48
16.0
100
AcDbLine
 10
656.1854225717176
 20
169.8751234499232
 30
0.0
 11
610.1854225717176
 21
169.8752234499232
 31
0.0
  0
LINE
  5
569
330
1A
100
AcDbEntity
  8
SEIHIN
  6
CONTINUOUS
 62
     3
 48
16.0
100
AcDbLine
 10
650.5854225717175
 20
166.8751234499233
 30
0.0
 11
610.1854225717176
 21
166.8752234499232
 31
0.0
  0
LINE
  5
56A
330
1A
100
AcDbEntity
  8
SEIHIN
  6
CONTINUOUS
 62
     3
 48
16.0
100
AcDbLine
 10
610.1854225717176
 20
153.8751234499232
 30
0.0
 11
646.3854225717175
 21
153.8752234499233
 31
0.0
  0
LINE
  5
56B
330
1A
100
AcDbEntity
  8
SEIHIN
  6
CONTINUOUS
 62
     3
 48
16.0
100
AcDbLine
 10
569.7847225717175
 20
166.8752234499232
 30
0.0
 11
610.1847225717174
 21
166.8752234499232
 31
0.0
  0
LINE
  5
56C
330
1A
100
AcDbEntity
  8
SEIHIN
  6
CONTINUOUS
 62
     3
 48
16.0
100
AcDbLine
 10
564.1847225717174
 20
169.8752234499232
 30
0.0
 11
610.1847225717174
 21
169.8752234499232
 31
0.0
  0
LINE
  5
56D
330
1A
100
AcDbEntity
  8
SEIHIN
  6
CONTINUOUS
 62
     3
 48
16.0
100
AcDbLine
 10
610.1847225717174
 20
153.8751234499232
 30
0.0
 11
573.9847225717176
 21
153.8754234499233
 31
0.0
  0
LINE
  5
56E
330
1A
100
AcDbEntity
  8
SEIHIN
  6
CONTINUOUS
 62
     3
 48
16.0
100
AcDbLine
 10
573.9846225717173
 20
153.8752234499233
 30
0.0
 11
573.9846225717173
 21
166.8754234499232
 31
0.0
  0
LINE
  5
56F
330
1A
100
AcDbEntity
  8
SEIHIN
  6
CONTINUOUS
 62
     3
 48
16.0
100
AcDbLine
 10
564.1847225717174
 20
169.8752234499232
 30
0.0
 11
569.7847225717175
 21
166.8752234499232
 31
0.0
  0
LINE
  5
570
330
1A
100
AcDbEntity
  8
SEIHIN
  6
CONTINUOUS
 62
     3
 48
16.0
100
AcDbLine
 10
646.3855225717177
 20
153.8751234499232
 30
0.0
 11
646.3855225717177
 21
166.8753234499233
 31
0.0
  0
LINE
  5
571
330
1A
100
AcDbEntity
  8
SEIHIN
  6
CONTINUOUS
 62
     3
 48
16.0
100
AcDbLine
 10
656.1854225717176
 20
169.8751234499232
 30
0.0
 11
650.5854225717175
 21
166.8751234499233
 31
0.0
  0
ARC
  5
572
330
1A
100
AcDbEntity
  8
SEIHIN
  6
CONTINUOUS
 62
     3
 48
16.0
100
AcDbCircle
 10
609.5332871935261
 20
506.8081234499707
 30
0.0
 40
300.00001277446
100
AcDbArc
 50
262.1917510903578
 51
277.8081083309955
  0
LINE
  5
573
330
1A
100
AcDbEntity
  8
SEIHIN
  6
CONTINUOUS
 62
     3
 48
16.0
100
AcDbLine
 10
656.1855225717176
 20
194.8751234499232
 30
0.0
 11
564.1855225717177
 21
194.8753234499232
 31
0.0
  0
DIMENSION
  5
574
330
1A
100
AcDbEntity
  8
SUNPOU
  6
CONTINUOUS
100
AcDbDimension
  2
*D9
 10
612.9355225717175
 20
247.4234501099515
 30
0.0
 11
630.9355225717174
 21
252.4234501099515
 31
0.0
 12
20.47772767732431
 22
-47.74181668944175
 32
0.0
 70
    32
  3
STANDARD
100
AcDbAlignedDimension
 13
610.1855225717176
 23
209.6574234499233
 33
0.0
 14
612.9355225717175
 24
277.0389234499233
 34
0.0
100
AcDbRotatedDimension
1001
ACAD
1000
DSTYLE
1002
{
1070
   140
1040
6.0
1070
    74
1070
     0
1070
   172
1070
     1
1070
    73
1070
     0
1070
   272
1070
     2
1070
    77
1070
     3
1070
   173
1070
     1
1070
   147
1040
2.0
1070
    42
1040
6.0
1070
    44
1040
3.0
1070
    43
1040
14.0
1070
   271
1070
     0
1070
   178
1070
     4
1070
   177
1070
     4
1070
   176
1070
     4
1070
   141
1040
150.0
1070
     7
1000
_OPEN
1070
     6
1000
_OPEN
1070
    41
1040
7.0
1002
}
  0
ARC
  5
575
330
1A
100
AcDbEntity
  8
SEIHIN
  6
CONTINUOUS
 62
     3
 48
16.0
100
AcDbCircle
 10
663.3743219012703
 20
198.3852225730855
 30
0.0
 40
7.999976978404588
100
AcDbArc
 50
79.17043685640748
 51
206.0250239163062
  0
ARC
  5
576
330
1A
100
AcDbEntity
  8
SEIHIN
  6
CONTINUOUS
 62
     3
 48
16.0
100
AcDbCircle
 10
665.2532093757622
 20
208.2071132070413
 30
0.0
 40
2.000010709962459
100
AcDbArc
 50
259.1701876872014
 51
356.4686569920867
  0
DIMENSION
  5
577
330
1A
100
AcDbEntity
  8
SUNPOU
  6
CONTINUOUS
100
AcDbDimension
  2
*D10
 10
703.3031812539989
 20
294.5758393217309
 30
0.0
 11
698.3031812539989
 21
323.7254813858271
 31
0.0
 12
20.47772767732431
 22
-47.74181668944175
 32
0.0
 70
    32
  3
STANDARD
100
AcDbAlignedDimension
 13
676.1857225717173
 23
352.8751234499233
 33
0.0
 14
612.9355225717175
 24
294.5758393217309
 34
0.0
 50
90.0
100
AcDbRotatedDimension
1001
ACAD
1000
DSTYLE
1002
{
1070
   140
1040
6.0
1070
    74
1070
     0
1070
   172
1070
     1
1070
    73
1070
     0
1070
   272
1070
     2
1070
    77
1070
     3
1070
   173
1070
     1
1070
   147
1040
2.0
1070
    42
1040
6.0
1070
    44
1040
3.0
1070
    43
1040
14.0
1070
   271
1070
     0
1070
   178
1070
     4
1070
   177
1070
     4
1070
   176
1070
     4
1070
   141
1040
150.0
1070
     7
1000
_OPEN
1070
     6
1000
_OPEN
1070
    41
1040
7.0
1002
}
  0
DIMENSION
  5
578
330
1A
100
AcDbEntity
  8
SUNPOU
  6
CONTINUOUS
100
AcDbDimension
  2
*D11
 10
470.1858225717176
 20
466.6200516453057
 30
0.0
 11
573.1857725717175
 21
471.6200516453056
 31
0.0
 12
20.47772767732431
 22
-47.74181668944175
 32
0.0
 70
    32
  3
STANDARD
100
AcDbAlignedDimension
 13
676.1857225717173
 23
352.8751234499233
 33
0.0
 14
470.1858225717176
 24
418.8755234499232
 34
0.0
100
AcDbRotatedDimension
1001
ACAD
1000
DSTYLE
1002
{
1070
   140
1040
6.0
1070
    74
1070
     0
1070
   172
1070
     1
1070
    73
1070
     0
1070
   272
1070
     2
1070
    77
1070
     3
1070
   173
1070
     1
1070
   147
1040
2.0
1070
    42
1040
6.0
1070
    44
1040
3.0
1070
    43
1040
14.0
1070
   271
1070
     0
1070
   178
1070
     4
1070
   177
1070
     4
1070
   176
1070
     4
1070
   141
1040
150.0
1070
     7
1000
_OPEN
1070
     6
1000
_OPEN
1070
    41
1040
7.0
1002
}
  0
ARC
  5
579
330
1A
100
AcDbEntity
  8
SEIHIN
  6
CONTINUOUS
 62
     3
 48
16.0
100
AcDbCircle
 10
562.6852225717175
 20
342.8752234499233
 30
0.0
 40
2.0
100
AcDbArc
 50
0.0
 51
90.0
  0
CIRCLE
  5
57A
330
1A
100
AcDbEntity
  8
NOKITOI
  6
PHANTOM
 62
     8
 48
2.0
100
AcDbCircle
 10
560.1739225717174
 20
339.8759513217309
 30
0.0
 40
2.7
  0
ARC
  5
57B
330
1A
100
AcDbEntity
  8
NOKITOI
  6
PHANTOM
 62
     8
 48
2.0
100
AcDbCircle
 10
560.1739225717174
 20
339.8759513217309
 30
0.0
 40
3.999994
100
AcDbArc
 50
5.413986
 51
185.413851
  0
ARC
  5
57C
330
1A
100
AcDbEntity
  8
SEIHIN
  6
CONTINUOUS
 62
     3
 48
16.0
100
AcDbCircle
 10
562.0555514456525
 20
333.8752001276951
 30
0.0
 40
2.000023322436569
100
AcDbArc
 50
12.14340357930826
 51
90.000827167662
  0
ARC
  5
57D
330
1A
100
AcDbEntity
  8
NOKITOI
  6
PHANTOM
 62
     8
 48
2.0
100
AcDbCircle
 10
560.1739225717174
 20
339.8759513217309
 30
0.0
 40
4.000029
100
AcDbArc
 50
185.413851
 51
319.252818
  0
LINE
  5
57E
330
1A
100
AcDbEntity
  8
SEIHIN
  6
CONTINUOUS
 62
     3
 48
16.0
100
AcDbLine
 10
497.1857225717176
 20
370.8754234499233
 30
0.0
 11
567.5667225717177
 21
370.8753234499233
 31
0.0
  0
LINE
  5
57F
330
1A
100
AcDbEntity
  8
SEIHIN
  6
CONTINUOUS
 62
     3
 48
16.0
100
AcDbLine
 10
499.1857225717176
 20
361.8754234499233
 30
0.0
 11
572.1381225717175
 21
361.8753234499231
 31
0.0
  0
LINE
  5
580
330
1A
100
AcDbEntity
  8
SEIHIN
  6
CONTINUOUS
 62
     3
 48
16.0
100
AcDbLine
 10
497.1857225717176
 20
363.8754234499233
 30
0.0
 11
571.1222225717174
 21
363.8753234499231
 31
0.0
  0
LINE
  5
581
330
1A
100
AcDbEntity
  8
SEIHIN
  6
CONTINUOUS
 62
     3
 48
16.0
100
AcDbLine
 10
576.6810225717176
 20
352.9315234499232
 30
0.0
 11
545.9648225717176
 21
413.4041234499232
 31
0.0
  0
LINE
  5
582
330
1A
100
AcDbEntity
  8
SEIHIN
  6
CONTINUOUS
 62
     3
 48
16.0
100
AcDbLine
 10
497.1857225717176
 20
370.8754234499233
 30
0.0
 11
497.1857225717176
 21
363.8754234499233
 31
0.0
  0
ARC
  5
583
330
1A
100
AcDbEntity
  8
SEIHIN
  6
CONTINUOUS
 62
     3
 48
16.0
100
AcDbCircle
 10
504.8856133952538
 20
390.4128347440465
 30
0.0
 40
20.99997044688658
100
AcDbArc
 50
189.6976176443835
 51
248.4901001280754
  0
LINE
  5
584
330
1A
100
AcDbEntity
  8
SEIHIN
  6
CONTINUOUS
 62
     3
 48
16.0
100
AcDbLine
 10
516.4683225717176
 20
326.8803234499233
 30
0.0
 11
514.1857225717176
 21
322.8754234499233
 31
0.0
  0
LINE
  5
585
330
1A
100
AcDbEntity
  8
SEIHIN
  6
CONTINUOUS
 62
     3
 48
16.0
100
AcDbLine
 10
511.9030225717174
 20
334.8704234499231
 30
0.0
 11
520.0611225717174
 21
292.5962234499233
 31
0.0
  0
LINE
  5
586
330
1A
100
AcDbEntity
  8
SEIHIN
  6
CONTINUOUS
 62
     3
 48
16.0
100
AcDbLine
 10
514.1857225717176
 20
338.8754234499233
 30
0.0
 11
524.7116225717174
 21
284.3317234499233
 31
0.0
  0
LINE
  5
587
330
1A
100
AcDbEntity
  8
SEIHIN
  6
CONTINUOUS
 62
     3
 48
16.0
100
AcDbLine
 10
514.1857225717176
 20
344.8754234499233
 30
0.0
 11
525.1856225717174
 21
287.8753234499232
 31
0.0
  0
LINE
  5
588
330
1A
100
AcDbEntity
  8
SEIHIN
  6
CONTINUOUS
 62
     3
 48
16.0
100
AcDbLine
 10
514.1857225717176
 20
344.8754234499233
 30
0.0
 11
562.6852225717175
 21
344.8752234499233
 31
0.0
  0
ARC
  5
589
330
1A
100
AcDbEntity
  8
SEIHIN
  6
CONTINUOUS
 62
     3
 48
16.0
100
AcDbCircle
 10
519.1038475141032
 20
354.7146881151369
 30
0.0
 40
10.99995827724067
100
AcDbArc
 50
186.993214443116
 51
243.4419714932708
  0
LINE
  5
58A
330
1A
100
AcDbEntity
  8
SEIHIN
  6
CONTINUOUS
 62
     3
 48
16.0
100
AcDbLine
 10
514.1857225717176
 20
338.8754234499233
 30
0.0
 11
511.9030225717174
 21
334.8704234499231
 31
0.0
  0
LINE
  5
58B
330
1A
100
AcDbEntity
  8
SEIHIN
  6
CONTINUOUS
 62
     3
 48
16.0
100
AcDbLine
 10
516.4683225717176
 20
326.8803234499233
 30
0.0
 11
517.5843225717174
 21
327.0956234499232
 31
0.0
  0
LINE
  5
58C
330
1A
100
AcDbEntity
  8
SEIHIN
  6
CONTINUOUS
 62
     3
 48
16.0
100
AcDbLine
 10
514.1857225717176
 20
338.8754234499233
 30
0.0
 11
515.3017225717174
 21
339.0907234499231
 31
0.0
  0
ARC
  5
58D
330
1A
100
AcDbEntity
  8
SEIHIN
  6
CONTINUOUS
 62
     3
 48
16.0
100
AcDbCircle
 10
497.4420607444953
 20
351.0144873975705
 30
0.0
 40
11.00001311367441
100
AcDbArc
 50
12.39383839739002
 51
80.87931568584229
  0
LINE
  5
58E
330
1A
100
AcDbEntity
  8
SEIHIN
  6
CONTINUOUS
 62
     3
 48
16.0
100
AcDbLine
 10
499.1857225717176
 20
363.8754234499233
 30
0.0
 11
499.1857225717176
 21
361.8754234499233
 31
0.0
  0
ARC
  5
58F
330
1A
100
AcDbEntity
  8
SEIHIN
  6
CONTINUOUS
 62
     3
 48
16.0
100
AcDbCircle
 10
559.1852225717174
 20
339.3752234499233
 30
0.0
 40
3.5
100
AcDbArc
 50
180.0
 51
270.0
  0
ARC
  5
590
330
1A
100
AcDbEntity
  8
SEIHIN
  6
CONTINUOUS
 62
     3
 48
16.0
100
AcDbCircle
 10
559.1852225717174
 20
341.3752234499233
 30
0.0
 40
3.5
100
AcDbArc
 50
90.0
 51
180.0
  0
LINE
  5
591
330
1A
100
AcDbEntity
  8
SEIHIN
  6
CONTINUOUS
 62
     3
 48
16.0
100
AcDbLine
 10
555.6852225717175
 20
341.3752234499233
 30
0.0
 11
555.6852225717175
 21
339.3752234499233
 31
0.0
  0
LINE
  5
592
330
1A
100
AcDbEntity
  8
SEIHIN
  6
CONTINUOUS
 62
     3
 48
16.0
100
AcDbLine
 10
562.6852225717175
 20
344.8752234499233
 30
0.0
 11
559.1852225717174
 21
344.8752234499233
 31
0.0
  0
LINE
  5
593
330
1A
100
AcDbEntity
  8
SEIHIN
  6
CONTINUOUS
 62
     3
 48
16.0
100
AcDbLine
 10
558.6857225717174
 20
344.8752234499233
 30
0.0
 11
562.3672225717175
 21
344.8752234499233
 31
0.0
  0
LINE
  5
594
330
1A
100
AcDbEntity
  8
SEIHIN
  6
CONTINUOUS
 62
     3
 48
16.0
100
AcDbLine
 10
562.0555225717176
 20
335.8752234499233
 30
0.0
 11
559.1852225717174
 21
335.8752234499233
 31
0.0
  0
LINE
  5
595
330
1A
100
AcDbEntity
  8
SEIHIN
  6
CONTINUOUS
 62
     3
 48
16.0
100
AcDbLine
 10
537.0491225717173
 20
418.8755234499232
 30
0.0
 11
470.1858225717176
 21
418.8755234499232
 31
0.0
  0
LINE
  5
596
330
1A
100
AcDbEntity
  8
SEIHIN
  6
CONTINUOUS
 62
     3
 48
16.0
100
AcDbLine
 10
472.1857225717176
 20
402.8755234499233
 30
0.0
 11
551.3128225717173
 21
402.8754234499233
 31
0.0
  0
LINE
  5
597
330
1A
100
AcDbEntity
  8
SEIHIN
  6
CONTINUOUS
 62
     3
 48
16.0
100
AcDbLine
 10
470.1858225717176
 20
404.8755234499233
 30
0.0
 11
550.2969225717174
 21
404.8754234499233
 31
0.0
  0
LINE
  5
598
330
1A
100
AcDbEntity
  8
SEIHIN
  6
CONTINUOUS
 62
     3
 48
16.0
100
AcDbLine
 10
470.1858225717176
 20
418.8755234499232
 30
0.0
 11
470.1858225717176
 21
404.8755234499233
 31
0.0
  0
ARC
  5
599
330
1A
100
AcDbEntity
  8
SEIHIN
  6
CONTINUOUS
 62
     3
 48
16.0
100
AcDbCircle
 10
463.4128105717041
 20
383.7958394499132
 30
0.0
 40
20.99996015472928
100
AcDbArc
 50
8.43294862565496
 51
65.30684666603313
  0
LINE
  5
59A
330
1A
100
AcDbEntity
  8
SEIHIN
  6
CONTINUOUS
 62
     3
 48
16.0
100
AcDbLine
 10
472.1858225717174
 20
404.8755234499233
 30
0.0
 11
472.1857225717176
 21
402.8755234499233
 31
0.0
  0
ARC
  5
59B
330
1A
100
AcDbEntity
  8
SEIHIN
  6
CONTINUOUS
 62
     3
 48
16.0
100
AcDbCircle
 10
537.0490106598265
 20
408.8755307599285
 30
0.0
 40
9.999992690001892
100
AcDbArc
 50
26.92730147648997
 51
89.99993174984243
  0
DIMENSION
  5
59C
330
1A
100
AcDbEntity
  8
SUNPOU
  6
CONTINUOUS
100
AcDbDimension
  2
*D12
 10
612.9355225717175
 20
447.9269744714452
 30
0.0
 11
644.5606225717174
 21
452.9269744714452
 31
0.0
 12
20.47772767732431
 22
-47.74181668944175
 32
0.0
 70
    32
  3
STANDARD
100
AcDbAlignedDimension
 13
676.1857225717173
 23
352.8751234499233
 33
0.0
 14
612.9355225717175
 24
352.8750234499233
 34
0.0
100
AcDbRotatedDimension
1001
ACAD
1000
DSTYLE
1002
{
1070
   140
1040
6.0
1070
    74
1070
     0
1070
   172
1070
     1
1070
    73
1070
     0
1070
   272
1070
     2
1070
    77
1070
     3
1070
   173
1070
     1
1070
   147
1040
2.0
1070
    42
1040
6.0
1070
    44
1040
3.0
1070
    43
1040
14.0
1070
   271
1070
     0
1070
   178
1070
     4
1070
   177
1070
     4
1070
   176
1070
     4
1070
   141
1040
150.0
1070
     7
1000
_OPEN
1070
     6
1000
_OPEN
1070
    41
1040
7.0
1002
}
  0
ARC
  5
59D
330
1A
100
AcDbEntity
  8
SEIHIN
  6
CONTINUOUS
 62
     3
 48
16.0
100
AcDbCircle
 10
613.1857048426343
 20
344.8752234499786
 30
0.0
 40
50.30000631063285
100
AcDbArc
 50
192.1413418582099
 51
347.8583085986018
  0
ARC
  5
59E
330
1A
100
AcDbEntity
  8
NOKITOI
  6
PHANTOM
 62
     8
 48
2.0
100
AcDbCircle
 10
612.9355225717175
 20
344.8758513217308
 30
0.0
 40
49.00000099999999
100
AcDbArc
 50
185.413376
 51
354.5863799999999
  0
ARC
  5
59F
330
1A
100
AcDbEntity
  8
NOKITOI
  6
PHANTOM
 62
     8
 48
2.0
100
AcDbCircle
 10
612.9355225717175
 20
344.8758513217308
 30
0.0
 40
50.300012
100
AcDbArc
 50
188.6764639999999
 51
351.2914929999999
  0
ARC
  5
5A0
330
1A
100
AcDbEntity
  8
SEIHIN
  6
CONTINUOUS
 62
     3
 48
16.0
100
AcDbCircle
 10
566.6824623837682
 20
352.7629582770926
 30
0.0
 40
9.999981002458772
100
AcDbArc
 50
258.4674059799871
 51
0.9658548762824855
  0
ARC
  5
5A1
330
1A
100
AcDbEntity
  8
SEIHIN
  6
CONTINUOUS
 62
     3
 48
16.0
100
AcDbCircle
 10
663.1857225717173
 20
342.8751234499233
 30
0.0
 40
2.0
100
AcDbArc
 50
90.0
 51
180.0
  0
LINE
  5
5A2
330
1A
100
AcDbEntity
  8
SEIHIN
  6
CONTINUOUS
 62
     3
 48
16.0
100
AcDbLine
 10
674.6232225717173
 20
327.8751234499233
 30
0.0
 11
660.5257225717175
 21
327.8751234499233
 31
0.0
  0
LINE
  5
5A3
330
1A
100
AcDbEntity
  8
SEIHIN
  6
CONTINUOUS
 62
     3
 48
16.0
100
AcDbLine
 10
660.1857225717174
 20
352.8751234499233
 30
0.0
 11
676.1857225717173
 21
352.8751234499233
 31
0.0
  0
ARC
  5
5A4
330
1A
100
AcDbEntity
  8
SEIHIN
  6
CONTINUOUS
 62
     3
 48
16.0
100
AcDbCircle
 10
661.1857225721339
 20
348.8751234495066
 30
0.0
 40
6.000000000416662
100
AcDbArc
 50
179.9999999960211
 51
269.9990450663629
  0
ARC
  5
5A5
330
1A
100
AcDbEntity
  8
SEIHIN
  6
CONTINUOUS
 62
     3
 48
16.0
100
AcDbCircle
 10
660.1857225717174
 20
347.8751234499232
 30
0.0
 40
5.000000000000056
100
AcDbArc
 50
90.00000000000063
 51
180.0000000000006
  0
ARC
  5
5A6
330
1A
100
AcDbEntity
  8
SEIHIN
  6
CONTINUOUS
 62
     3
 48
16.0
100
AcDbCircle
 10
666.6857225717174
 20
339.3751234499231
 30
0.0
 40
3.5
100
AcDbArc
 50
270.0
 51
0.0
  0
ARC
  5
5A7
330
1A
100
AcDbEntity
  8
SEIHIN
  6
CONTINUOUS
 62
     3
 48
16.0
100
AcDbCircle
 10
664.3157936977822
 20
333.8751001276952
 30
0.0
 40
2.00002332243644
100
AcDbArc
 50
89.9991728323331
 51
167.8565964206863
  0
ARC
  5
5A8
330
1A
100
AcDbEntity
  8
SEIHIN
  6
CONTINUOUS
 62
     3
 48
16.0
100
AcDbCircle
 10
666.6857225717174
 20
341.3751234499232
 30
0.0
 40
3.500000000000056
100
AcDbArc
 50
359.999999999999
 51
89.99999999999907
  0
ARC
  5
5A9
330
1A
100
AcDbEntity
  8
NOKITOI
  6
PHANTOM
 62
     8
 48
2.0
100
AcDbCircle
 10
665.6971225717174
 20
339.8757513217308
 30
0.0
 40
3.999994
100
AcDbArc
 50
220.269583
 51
121.7840119999999
  0
ARC
  5
5AA
330
1A
100
AcDbEntity
  8
NOKITOI
  6
PHANTOM
 62
     8
 48
2.0
100
AcDbCircle
 10
665.6971225717174
 20
339.8757513217308
 30
0.0
 40
3.999958
100
AcDbArc
 50
121.784767
 51
174.584588
  0
LINE
  5
5AB
330
1A
100
AcDbEntity
  8
SEIHIN
  6
CONTINUOUS
 62
     3
 48
16.0
100
AcDbLine
 10
663.1857225717173
 20
344.8751234499233
 30
0.0
 11
666.6857225717174
 21
344.8751234499233
 31
0.0
  0
CIRCLE
  5
5AC
330
1A
100
AcDbEntity
  8
NOKITOI
  6
PHANTOM
 62
     8
 48
2.0
100
AcDbCircle
 10
665.6971225717174
 20
339.8757513217308
 30
0.0
 40
2.7
  0
LINE
  5
5AD
330
1A
100
AcDbEntity
  8
SEIHIN
  6
CONTINUOUS
 62
     3
 48
16.0
100
AcDbLine
 10
664.3158225717175
 20
335.8751234499231
 30
0.0
 11
666.6857225717174
 21
335.8751234499231
 31
0.0
  0
LINE
  5
5AE
330
1A
100
AcDbEntity
  8
SEIHIN
  6
CONTINUOUS
 62
     3
 48
16.0
100
AcDbLine
 10
670.1857225717174
 20
341.3751234499232
 30
0.0
 11
670.1857225717174
 21
339.3751234499231
 31
0.0
  0
LINE
  5
5AF
330
1A
100
AcDbEntity
  8
ZUWAKU
  6
CONTINUOUS
100
AcDbLine
 10
345.9008740112141
 20
23.08232881924374
 30
0.0
 11
345.9008740112141
 21
15.87794649196232
 31
0.0
  0
LINE
  5
5B0
330
1A
100
AcDbEntity
  8
ZUWAKU
  6
CONTINUOUS
100
AcDbLine
 10
343.1114683739646
 20
15.87794649196232
 30
0.0
 11
343.1114683739646
 21
23.08232881924374
 31
0.0
  0
LINE
  5
5B1
330
1A
100
AcDbEntity
  8
ZUWAKU
  6
CONTINUOUS
100
AcDbLine
 10
340.3220629562271
 20
23.08232881924374
 30
0.0
 11
340.3220629562271
 21
15.87794649196232
 31
0.0
  0
LINE
  5
5B2
330
1A
100
AcDbEntity
  8
ZUWAKU
  6
CONTINUOUS
100
AcDbLine
 10
338.7431542623397
 20
15.87794649196232
 30
0.0
 11
347.4797827051015
 21
15.87794649196232
 31
0.0
  0
LINE
  5
5B3
330
1A
100
AcDbEntity
  8
ZUWAKU
  6
CONTINUOUS
100
AcDbLine
 10
338.7431542623397
 20
23.08232881924374
 30
0.0
 11
347.4797827051015
 21
23.08232881924374
 31
0.0
  0
VIEWPORT
  5
22
330
17
100
AcDbEntity
 67
     1
  8
0
100
AcDbViewport
 10
313.6808219178082
 20
148.5
 30
0.0
 40
627.3616438356165
 41
297.0
 68
     2
 69
     1
1001
ACAD
1000
MVIEW
1002
{
1070
    16
1010
0.0
1020
0.0
1030
0.0
1010
0.0
1020
0.0
1030
1.0
1040
0.0
1040
297.0
1040
313.6808219178082
1040
148.5
1040
50.0
1040
0.0
1040
0.0
1070
     0
1070
   100
1070
     1
1070
     0
1070
     0
1070
     0
1070
     0
1070
     0
1040
0.0
1040
0.0
1040
0.0
1040
1.0
1040
1.0
1040
10.0
1040
10.0
1070
     0
1002
{
1002
}
1002
}
  0
VIEWPORT
  5
64
330
17
100
AcDbEntity
 67
     1
  8
VIEWPORT
100
AcDbViewport
 10
210.0
 20
148.5
 30
0.0
 40
420.0
 41
297.0
 68
     1
 69
     2
1001
ACAD
1000
MVIEW
1002
{
1070
    16
1010
0.0
1020
0.0
1030
0.0
1010
0.0
1020
0.0
1030
1.0
1040
0.0
1040
605.8799999999998
1040
420.0
1040
297.0
1040
50.0
1040
0.0
1040
0.0
1070
     0
1070
   100
1070
     1
1070
     0
1070
     0
1070
     0
1070
     0
1070
     0
1040
0.0
1040
0.0
1040
0.0
1040
10.0
1040
10.0
1040
0.0
1040
0.0
1070
     0
1002
{
1002
}
1002
}
  0
ENDSEC
  0
SECTION
  2
OBJECTS
  0
DICTIONARY
  5
C
330
0
100
AcDbDictionary
  3
ACAD_GROUP
350
D
  3
ACAD_LAYOUT
350
6D2
  3
ACAD_MLINESTYLE
350
E
  3
ACAD_PLOTSETTINGS
350
6D3
1001
ACAD
1000
TREAT_AS_HARD
1070
     0
  0
DICTIONARY
  5
701
330
1A
100
AcDbDictionary
  3
ACAD_LAYOUTSELFREF
350
719
1001
ACAD
1000
TREAT_AS_HARD
1070
     1
  0
DICTIONARY
  5
6FF
330
17
100
AcDbDictionary
  3
ACAD_LAYOUTSELFREF
350
718
1001
ACAD
1000
TREAT_AS_HARD
1070
     1
  0
DICTIONARY
  5
D
102
{ACAD_REACTORS
330
C
102
}
330
C
100
AcDbDictionary
1001
ACAD
1000
TREAT_AS_HARD
1070
     0
  0
DICTIONARY
  5
6D2
102
{ACAD_REACTORS
330
C
102
}
330
C
100
AcDbDictionary
1001
ACAD
1000
TREAT_AS_HARD
1070
     0
  0
DICTIONARY
  5
E
102
{ACAD_REACTORS
330
C
102
}
330
C
100
AcDbDictionary
  3
STANDARD
350
13
1001
ACAD
1000
TREAT_AS_HARD
1070
     0
  0
DICTIONARY
  5
6D3
102
{ACAD_REACTORS
330
C
102
}
330
C
100
AcDbDictionary
1001
ACAD
1000
TREAT_AS_HARD
1070
     0
  0
XRECORD
  5
719
102
{ACAD_REACTORS
330
701
102
}
330
701
100
AcDbXrecord
340
1A
  0
XRECORD
  5
718
102
{ACAD_REACTORS
330
6FF
102
}
330
6FF
100
AcDbXrecord
340
17
  0
MLINESTYLE
  5
13
102
{ACAD_REACTORS
330
E
102
}
330
E
100
AcDbMlineStyle
  2
STANDARD
 70
     0
  3

 62
     0
 51
90.0
 52
90.0
 71
     2
 49
0.5
 62
   256
  6
BYLAYER
 49
-0.5
 62
   256
  6
BYLAYER
  0
ENDSEC
  0
EOF
