  0
SECTION
  2
HEADER
  9
$ACADVER
  1
AC1014
  9
$ACADMAINTVER
 70
     9
  9
$DWGCODEPAGE
  3
ANSI_932
  9
$INSBASE
 10
0.0
 20
0.0
 30
0.0
  9
$EXTMIN
 10
-0.0128164049386896
 20
-0.0090633767458712
 30
-0.0015258207003583
  9
$EXTMAX
 10
398.8000497813338
 20
275.8226172192214
 30
0.0000000349246037
  9
$LIMMIN
 10
0.0
 20
0.0
  9
$LIMMAX
 10
420.0
 20
297.0
  9
$ORTHOMODE
 70
     0
  9
$REGENMODE
 70
     1
  9
$FILLMODE
 70
     1
  9
$QTEXTMODE
 70
     0
  9
$MIRRTEXT
 70
     1
  9
$DRAGMODE
 70
     2
  9
$LTSCALE
 40
1.0
  9
$OSMODE
 70
    37
  9
$ATTMODE
 70
     1
  9
$TEXTSIZE
 40
2.5
  9
$TRACEWID
 40
1.0
  9
$TEXTSTYLE
  7
STANDARD
  9
$CLAYER
  8
SEIHIN
  9
$CELTYPE
  6
BYLAYER
  9
$CECOLOR
 62
   256
  9
$CELTSCALE
 40
1.0
  9
$DELOBJ
 70
     1
  9
$DISPSILH
 70
     0
  9
$DIMSCALE
 40
1.0
  9
$DIMASZ
 40
3.0
  9
$DIMEXO
 40
3.0
  9
$DIMDLI
 40
7.0
  9
$DIMRND
 40
0.0
  9
$DIMDLE
 40
0.0
  9
$DIMEXE
 40
1.5
  9
$DIMTP
 40
0.0
  9
$DIMTM
 40
0.0
  9
$DIMTXT
 40
3.0
  9
$DIMCEN
 40
150.0
  9
$DIMTSZ
 40
0.0
  9
$DIMTOL
 70
     0
  9
$DIMLIM
 70
     0
  9
$DIMTIH
 70
     0
  9
$DIMTOH
 70
     0
  9
$DIMSE1
 70
     0
  9
$DIMSE2
 70
     0
  9
$DIMTAD
 70
     3
  9
$DIMZIN
 70
     0
  9
$DIMBLK
  1

  9
$DIMASO
 70
     1
  9
$DIMSHO
 70
     1
  9
$DIMPOST
  1

  9
$DIMAPOST
  1

  9
$DIMALT
 70
     0
  9
$DIMALTD
 70
     2
  9
$DIMALTF
 40
25.4
  9
$DIMLFAC
 40
1.0
  9
$DIMTOFL
 70
     1
  9
$DIMTVP
 40
0.0
  9
$DIMTIX
 70
     0
  9
$DIMSOXD
 70
     0
  9
$DIMSAH
 70
     1
  9
$DIMBLK1
  1
OPEN
  9
$DIMBLK2
  1
OPEN
  9
$DIMSTYLE
  2
STANDARD
  9
$DIMCLRD
 70
   256
  9
$DIMCLRE
 70
   256
  9
$DIMCLRT
 70
   256
  9
$DIMTFAC
 40
1.0
  9
$DIMGAP
 40
1.0
  9
$DIMJUST
 70
     0
  9
$DIMSD1
 70
     0
  9
$DIMSD2
 70
     0
  9
$DIMTOLJ
 70
     1
  9
$DIMTZIN
 70
     0
  9
$DIMALTZ
 70
     0
  9
$DIMALTTZ
 70
     0
  9
$DIMFIT
 70
     3
  9
$DIMUPT
 70
     0
  9
$DIMUNIT
 70
     2
  9
$DIMDEC
 70
     0
  9
$DIMTDEC
 70
     0
  9
$DIMALTU
 70
     2
  9
$DIMALTTD
 70
     2
  9
$DIMTXSTY
  7
STANDARD
  9
$DIMAUNIT
 70
     0
  9
$LUNITS
 70
     2
  9
$LUPREC
 70
     4
  9
$SKETCHINC
 40
1.0
  9
$FILLETRAD
 40
0.5
  9
$AUNITS
 70
     0
  9
$AUPREC
 70
     0
  9
$MENU
  1
.
  9
$ELEVATION
 40
0.0
  9
$PELEVATION
 40
0.0
  9
$THICKNESS
 40
0.0
  9
$LIMCHECK
 70
     0
  9
$BLIPMODE
 70
     0
  9
$CHAMFERA
 40
10.0
  9
$CHAMFERB
 40
10.0
  9
$CHAMFERC
 40
20.0
  9
$CHAMFERD
 40
0.0
  9
$SKPOLY
 70
     0
  9
$TDCREATE
 40
2450994.350997107
  9
$TDUPDATE
 40
2454515.404078518
  9
$TDINDWG
 40
0.0798596181
  9
$TDUSRTIMER
 40
0.0798596181
  9
$USRTIMER
 70
     1
  9
$ANGBASE
 50
0.0
  9
$ANGDIR
 70
     0
  9
$PDMODE
 70
     1
  9
$PDSIZE
 40
0.0
  9
$PLINEWID
 40
0.0
  9
$COORDS
 70
     2
  9
$SPLFRAME
 70
     0
  9
$SPLINETYPE
 70
     6
  9
$SPLINESEGS
 70
     8
  9
$ATTDIA
 70
     0
  9
$ATTREQ
 70
     1
  9
$HANDLING
 70
 10241
  9
$HANDSEED
  5
1069
  9
$SURFTAB1
 70
     6
  9
$SURFTAB2
 70
     6
  9
$SURFTYPE
 70
     6
  9
$SURFU
 70
     6
  9
$SURFV
 70
     6
  9
$UCSNAME
  2

  9
$UCSORG
 10
0.0
 20
0.0
 30
0.0
  9
$UCSXDIR
 10
1.0
 20
0.0
 30
0.0
  9
$UCSYDIR
 10
0.0
 20
1.0
 30
0.0
  9
$PUCSNAME
  2

  9
$PUCSORG
 10
0.0
 20
0.0
 30
0.0
  9
$PUCSXDIR
 10
1.0
 20
0.0
 30
0.0
  9
$PUCSYDIR
 10
0.0
 20
1.0
 30
0.0
  9
$USERI1
 70
     0
  9
$USERI2
 70
     0
  9
$USERI3
 70
     0
  9
$USERI4
 70
     0
  9
$USERI5
 70
     0
  9
$USERR1
 40
0.0
  9
$USERR2
 40
0.0
  9
$USERR3
 40
0.0
  9
$USERR4
 40
0.0
  9
$USERR5
 40
0.0
  9
$WORLDVIEW
 70
     1
  9
$SHADEDGE
 70
     3
  9
$SHADEDIF
 70
    70
  9
$TILEMODE
 70
     1
  9
$MAXACTVP
 70
    16
  9
$PINSBASE
 10
0.0
 20
0.0
 30
0.0
  9
$PLIMCHECK
 70
     0
  9
$PEXTMIN
 10
0.0
 20
0.0
 30
0.0
  9
$PEXTMAX
 10
420.0
 20
297.0
 30
0.0
  9
$PLIMMIN
 10
0.0
 20
0.0
  9
$PLIMMAX
 10
420.0
 20
297.0
  9
$UNITMODE
 70
     0
  9
$VISRETAIN
 70
     0
  9
$PLINEGEN
 70
     0
  9
$PSLTSCALE
 70
     1
  9
$TREEDEPTH
 70
  3020
  9
$PICKSTYLE
 70
     1
  9
$CMLSTYLE
  2
STANDARD
  9
$CMLJUST
 70
     0
  9
$CMLSCALE
 40
1.0
  9
$PROXYGRAPHICS
 70
     1
  9
$MEASUREMENT
 70
     1
  0
ENDSEC
  0
SECTION
  2
CLASSES
  0
CLASS
  1
ACDBDICTIONARYWDFLT
  2
AcDbDictionaryWithDefault
  3
AutoCAD 2000
 90
        0
280
     0
281
     0
  0
CLASS
  1
ACDBPLACEHOLDER
  2
AcDbPlaceHolder
  3
AutoCAD 2000
 90
        0
280
     0
281
     0
  0
CLASS
  1
LAYOUT
  2
AcDbLayout
  3
AutoCAD 2000
 90
        0
280
     0
281
     0
  0
CLASS
  1
LONG_TRANSACTION
  2
AcDbLongTransaction
  3
AutoCAD 2000
 90
        0
280
     0
281
     0
  0
CLASS
  1
LWPOLYLINE
  2
AcDbPolyline
  3
AutoCAD 2000
 90
        0
280
     0
281
     1
  0
CLASS
  1
HATCH
  2
AcDbHatch
  3
AutoCAD 2000
 90
        0
280
     0
281
     1
  0
CLASS
  1
XRECORD
  2
AcDbXrecord
  3
AutoCAD 2000
 90
        0
280
     0
281
     0
  0
CLASS
  1
LONG_TRANSACTION
  2
AcDbLongTransaction
  3
AutoCAD 2000
 90
        0
280
     0
281
     0
  0
CLASS
  1
LWPOLYLINE
  2
AcDbPolyline
  3
AutoCAD 2000
 90
        0
280
     0
281
     1
  0
CLASS
  1
HATCH
  2
AcDbHatch
  3
AutoCAD 2000
 90
        0
280
     0
281
     1
  0
CLASS
  1
XRECORD
  2
AcDbXrecord
  3
AutoCAD 2000
 90
        0
280
     0
281
     0
  0
CLASS
  1
LONG_TRANSACTION
  2
AcDbLongTransaction
  3
AutoCAD 2000
 90
        0
280
     0
281
     0
  0
CLASS
  1
LWPOLYLINE
  2
AcDbPolyline
  3
AutoCAD 2000
 90
        0
280
     0
281
     1
  0
CLASS
  1
HATCH
  2
AcDbHatch
  3
AutoCAD 2000
 90
        0
280
     0
281
     1
  0
CLASS
  1
XRECORD
  2
AcDbXrecord
  3
AutoCAD 2000
 90
        0
280
     0
281
     0
  0
CLASS
  1
LONG_TRANSACTION
  2
AcDbLongTransaction
  3
AutoCAD 2000
 90
        0
280
     0
281
     0
  0
CLASS
  1
LWPOLYLINE
  2
AcDbPolyline
  3
AutoCAD 2000
 90
        0
280
     0
281
     1
  0
CLASS
  1
HATCH
  2
AcDbHatch
  3
AutoCAD 2000
 90
        0
280
     0
281
     1
  0
CLASS
  1
XRECORD
  2
AcDbXrecord
  3
AutoCAD 2000
 90
        0
280
     0
281
     0
  0
ENDSEC
  0
SECTION
  2
TABLES
  0
TABLE
  2
VPORT
  5
8
330
0
100
AcDbSymbolTable
 70
     2
  0
VPORT
  5
1045
330
8
100
AcDbSymbolTableRecord
100
AcDbViewportTableRecord
  2
*ACTIVE
 70
     0
 10
0.0
 20
0.0
 11
1.0
 21
1.0
 12
187.4979664466683
 22
166.1024992077521
 13
0.0
 23
0.0
 14
5.0
 24
5.0
 15
0.0
 25
0.0
 16
0.0
 26
0.0
 36
1.0
 17
0.0
 27
0.0
 37
0.0
 40
378.7934060899566
 41
1.570153061224489
 42
50.0
 43
0.0
 44
0.0
 50
0.0
 51
0.0
 71
     0
 72
   100
 73
     1
 74
     0
 75
     0
 76
     0
 77
     0
 78
     0
  0
ENDTAB
  0
TABLE
  2
LTYPE
  5
5
330
0
100
AcDbSymbolTable
 70
     3
  0
LTYPE
  5
14
330
5
100
AcDbSymbolTableRecord
100
AcDbLinetypeTableRecord
  2
BYBLOCK
 70
     0
  3

 72
    65
 73
     0
 40
0.0
  0
LTYPE
  5
15
330
5
100
AcDbSymbolTableRecord
100
AcDbLinetypeTableRecord
  2
BYLAYER
 70
     0
  3

 72
    65
 73
     0
 40
0.0
  0
LTYPE
  5
16
330
5
100
AcDbSymbolTableRecord
100
AcDbLinetypeTableRecord
  2
CONTINUOUS
 70
     0
  3
Solid line
 72
    65
 73
     0
 40
0.0
  0
LTYPE
  5
77F
330
5
100
AcDbSymbolTableRecord
100
AcDbLinetypeTableRecord
  2
CENTER
 70
     0
  3
____ _ ____ _ ____ _ ____ _ ____ _ ____ _ ____ 
 72
    65
 73
     4
 40
2.0
 49
1.25
 74
     0
 49
-0.25
 74
     0
 49
0.25
 74
     0
 49
-0.25
 74
     0
  0
LTYPE
  5
921
330
5
100
AcDbSymbolTableRecord
100
AcDbLinetypeTableRecord
  2
PHANTOM
 70
     0
  3
______  __  __  ______  __  __  ______  __  __ 
 72
    65
 73
     6
 40
2.5
 49
1.25
 74
     0
 49
-0.25
 74
     0
 49
0.25
 74
     0
 49
-0.25
 74
     0
 49
0.25
 74
     0
 49
-0.25
 74
     0
  0
ENDTAB
  0
TABLE
  2
LAYER
  5
2
330
0
100
AcDbSymbolTable
 70
     9
  0
LAYER
  5
F
330
2
100
AcDbSymbolTableRecord
100
AcDbLayerTableRecord
  2
0
 70
     0
 62
     7
  6
CONTINUOUS
  0
LAYER
  5
62
330
2
100
AcDbSymbolTableRecord
100
AcDbLayerTableRecord
  2
VIEWPORT
 70
     0
 62
     7
  6
CONTINUOUS
  0
LAYER
  5
6B
330
2
100
AcDbSymbolTableRecord
100
AcDbLayerTableRecord
  2
ZUWAKU
 70
     0
 62
     7
  6
CONTINUOUS
  0
LAYER
  5
14B
330
2
100
AcDbSymbolTableRecord
100
AcDbLayerTableRecord
  2
SEIHIN
 70
     0
 62
     3
  6
CONTINUOUS
  0
LAYER
  5
14C
330
2
100
AcDbSymbolTableRecord
100
AcDbLayerTableRecord
  2
SUNPOU
 70
     0
 62
     4
  6
CONTINUOUS
  0
LAYER
  5
314
330
2
100
AcDbSymbolTableRecord
100
AcDbLayerTableRecord
  2
DEFPOINTS
 70
     0
 62
     7
  6
CONTINUOUS
  0
LAYER
  5
5B0
330
2
100
AcDbSymbolTableRecord
100
AcDbLayerTableRecord
  2
MOJI
 70
     0
 62
     2
  6
CONTINUOUS
  0
LAYER
  5
780
330
2
100
AcDbSymbolTableRecord
100
AcDbLayerTableRecord
  2
CENTER_L
 70
     0
 62
     1
  6
CENTER
  0
LAYER
  5
922
330
2
100
AcDbSymbolTableRecord
100
AcDbLayerTableRecord
  2
NOKITOI
 70
     0
 62
     8
  6
PHANTOM
  0
ENDTAB
  0
TABLE
  2
STYLE
  5
3
330
0
100
AcDbSymbolTable
 70
     2
  0
STYLE
  5
10
330
3
100
AcDbSymbolTableRecord
100
AcDbTextStyleTableRecord
  2
STANDARD
 70
     0
 40
0.0
 41
1.0
 50
0.0
 71
     0
 42
2.5
  3
TXT
  4
bigfont.shx
  0
STYLE
  5
5B1
330
3
100
AcDbSymbolTableRecord
100
AcDbTextStyleTableRecord
  2
ｽﾀｲﾙ1
 70
     0
 40
0.0
 41
1.0
 50
0.0
 71
     0
 42
2.5
  3
MS PGothic.ttf
  4

1001
ACAD
1000
MS PGothic
1071
    32818
  0
ENDTAB
  0
TABLE
  2
VIEW
  5
6
330
0
100
AcDbSymbolTable
 70
     0
  0
ENDTAB
  0
TABLE
  2
UCS
  5
7
330
0
100
AcDbSymbolTable
 70
     0
  0
ENDTAB
  0
TABLE
  2
APPID
  5
9
330
0
100
AcDbSymbolTable
 70
     1
  0
APPID
  5
11
330
9
100
AcDbSymbolTableRecord
100
AcDbRegAppTableRecord
  2
ACAD
 70
     0
  0
ENDTAB
  0
TABLE
  2
DIMSTYLE
  5
A
330
0
100
AcDbSymbolTable
 70
     1
  0
DIMSTYLE
105
1D
102
{ACAD_REACTORS
330
F25
330
F70
330
F71
330
FA0
330
FA4
330
FAE
102
}
330
A
100
AcDbSymbolTableRecord
100
AcDbDimStyleTableRecord
  2
STANDARD
 70
     0
  3

  4

  5

  6

  7

 40
1.0
 41
0.18
 42
0.0625
 43
0.38
 44
0.18
 45
0.0
 46
0.0
 47
0.0
 48
0.0
140
0.18
141
0.09
142
0.0
143
25.4
144
1.0
145
0.0
146
1.0
147
0.09
 71
     0
 72
     0
 73
     1
 74
     1
 75
     0
 76
     0
 77
     0
 78
     0
170
     0
171
     2
172
     0
173
     0
174
     0
175
     0
176
     0
177
     0
178
     0
270
     2
271
     4
272
     4
273
     2
274
     2
340
10
275
     0
280
     0
281
     0
282
     0
283
     1
284
     0
285
     0
286
     0
287
     3
288
     0
  0
ENDTAB
  0
TABLE
  2
BLOCK_RECORD
  5
1
330
0
100
AcDbSymbolTable
 70
     8
  0
BLOCK_RECORD
  5
1A
102
{ACAD_XDICTIONARY
360
520
102
}
330
1
100
AcDbSymbolTableRecord
100
AcDbBlockTableRecord
  2
*MODEL_SPACE
  0
BLOCK_RECORD
  5
17
102
{ACAD_XDICTIONARY
360
51E
102
}
330
1
100
AcDbSymbolTableRecord
100
AcDbBlockTableRecord
  2
*PAPER_SPACE
  0
BLOCK_RECORD
  5
B2
330
1
100
AcDbSymbolTableRecord
100
AcDbBlockTableRecord
  2
_OPEN
  0
BLOCK_RECORD
  5
DF2
330
1
100
AcDbSymbolTableRecord
100
AcDbBlockTableRecord
  2
A$C1305
  0
BLOCK_RECORD
  5
FC1
330
1
100
AcDbSymbolTableRecord
100
AcDbBlockTableRecord
  2
*D2
  0
BLOCK_RECORD
  5
FCD
330
1
100
AcDbSymbolTableRecord
100
AcDbBlockTableRecord
  2
*D3
  0
BLOCK_RECORD
  5
FD9
330
1
100
AcDbSymbolTableRecord
100
AcDbBlockTableRecord
  2
*D4
  0
BLOCK_RECORD
  5
FE5
330
1
100
AcDbSymbolTableRecord
100
AcDbBlockTableRecord
  2
*D5
  0
BLOCK_RECORD
  5
FF1
330
1
100
AcDbSymbolTableRecord
100
AcDbBlockTableRecord
  2
*D6
  0
BLOCK_RECORD
  5
FFD
330
1
100
AcDbSymbolTableRecord
100
AcDbBlockTableRecord
  2
*D7
  0
ENDTAB
  0
ENDSEC
  0
SECTION
  2
BLOCKS
  0
BLOCK
  5
1B
330
1A
100
AcDbEntity
  8
0
100
AcDbBlockBegin
  2
*MODEL_SPACE
 70
     0
 10
0.0
 20
0.0
 30
0.0
  3
*MODEL_SPACE
  1

  0
ENDBLK
  5
1C
330
1A
100
AcDbEntity
  8
0
100
AcDbBlockEnd
  0
BLOCK
  5
18
330
17
100
AcDbEntity
 67
     1
  8
0
100
AcDbBlockBegin
  2
*PAPER_SPACE
 70
     0
 10
0.0
 20
0.0
 30
0.0
  3
*PAPER_SPACE
  1

  0
ENDBLK
  5
19
330
17
100
AcDbEntity
 67
     1
  8
0
100
AcDbBlockEnd
  0
BLOCK
  5
B3
330
B2
100
AcDbEntity
  8
0
100
AcDbBlockBegin
  2
_OPEN
 70
     0
 10
0.0
 20
0.0
 30
0.0
  3
_OPEN
  1

  0
LINE
  5
B4
330
B2
100
AcDbEntity
  8
0
  6
BYBLOCK
 62
     0
100
AcDbLine
 10
-1.0
 20
0.1666666666666666
 30
0.0
 11
0.0
 21
0.0
 31
0.0
  0
LINE
  5
B5
330
B2
100
AcDbEntity
  8
0
  6
BYBLOCK
 62
     0
100
AcDbLine
 10
0.0
 20
0.0
 30
0.0
 11
-1.0
 21
-0.1666666666666666
 31
0.0
  0
LINE
  5
B6
330
B2
100
AcDbEntity
  8
0
  6
BYBLOCK
 62
     0
100
AcDbLine
 10
0.0
 20
0.0
 30
0.0
 11
-1.0
 21
0.0
 31
0.0
  0
ENDBLK
  5
B7
330
B2
100
AcDbEntity
  8
0
100
AcDbBlockEnd
  0
BLOCK
  5
E3A
330
DF2
100
AcDbEntity
  8
0
100
AcDbBlockBegin
  2
A$C1305
 70
     0
 10
0.0
 20
0.0
 30
0.0
  3
A$C1305
  1

  0
LINE
  5
DF3
330
DF2
100
AcDbEntity
  8
NOKITOI
  6
PHANTOM
 62
     8
 48
5.0
100
AcDbLine
 10
29.18435908443393
 20
10.10187063730222
 30
0.0
 11
19.27365908443391
 21
10.10187063730222
 31
0.0
  0
LINE
  5
DF4
330
DF2
100
AcDbEntity
  8
NOKITOI
  6
PHANTOM
 62
     8
 48
5.0
100
AcDbLine
 10
90.2981590844339
 20
0.1120706373022813
 30
0.0
 11
24.06755908443392
 21
0.1121706373021425
 31
0.0
  0
LINE
  5
DF5
330
DF2
100
AcDbEntity
  8
NOKITOI
  6
PHANTOM
 62
     8
 48
5.0
100
AcDbLine
 10
24.06755908443392
 20
0.1121706373021425
 30
0.0
 11
90.2981590844339
 21
0.1120706373022813
 31
0.0
  0
LINE
  5
DF6
330
DF2
100
AcDbEntity
  8
NOKITOI
  6
PHANTOM
 62
     8
 48
5.0
100
AcDbLine
 10
13.05735908443387
 20
12.22087063730214
 30
0.0
 11
7.218759084433713
 21
39.95217063730228
 31
0.0
  0
LINE
  5
DF7
330
DF2
100
AcDbEntity
  8
NOKITOI
  6
PHANTOM
 62
     8
 48
5.0
100
AcDbLine
 10
14.16595908443378
 20
13.23377063730208
 30
0.0
 11
8.234959084433853
 21
41.4036706373023
 31
0.0
  0
ARC
  5
DF8
330
DF2
100
AcDbEntity
  8
NOKITOI
  6
PHANTOM
 62
     8
 48
5.0
100
AcDbCircle
 10
15.13957896620524
 20
13.43874830022218
 30
0.0
 40
0.995060928010462
100
AcDbArc
 50
191.8877567214145
 51
251.4524867922934
  0
ARC
  5
DF9
330
DF2
100
AcDbEntity
  8
NOKITOI
  6
PHANTOM
 62
     8
 48
5.0
100
AcDbCircle
 10
10.29733292322475
 20
-0.9941694721817384
 30
0.0
 40
14.22848866365036
100
AcDbArc
 50
51.52529185494254
 51
71.45345265407107
  0
ARC
  5
DFA
330
DF2
100
AcDbEntity
  8
NOKITOI
  6
PHANTOM
 62
     8
 48
5.0
100
AcDbCircle
 10
10.29726615422066
 20
-0.9941373355915743
 30
0.0
 40
12.93471022655885
100
AcDbArc
 50
8.676219579622015
 51
74.45245455808978
  0
ARC
  5
DFB
330
DF2
100
AcDbEntity
  8
NOKITOI
  6
PHANTOM
 62
     8
 48
5.0
100
AcDbCircle
 10
24.06756669845151
 20
1.107164097058216
 30
0.0
 40
0.9949934597852239
100
AcDbArc
 50
188.67611256506
 51
269.9995615538235
  0
ARC
  5
DFC
330
DF2
100
AcDbEntity
  8
NOKITOI
  6
PHANTOM
 62
     8
 48
5.0
100
AcDbCircle
 10
19.27366239679292
 20
10.30086948151677
 30
0.0
 40
0.1989988442421132
100
AcDbArc
 50
231.5280949042412
 51
269.9990463050557
  0
ARC
  5
DFD
330
DF2
100
AcDbEntity
  8
NOKITOI
  6
PHANTOM
 62
     8
 48
5.0
100
AcDbCircle
 10
14.03099910882133
 20
12.42582797307631
 30
0.0
 40
0.9949785960395137
100
AcDbArc
 50
191.8875585738773
 51
254.4495841050105
  0
LINE
  5
DFE
330
DF2
100
AcDbEntity
  8
NOKITOI
  6
PHANTOM
 62
     8
 48
5.0
100
AcDbLine
 10
27.88425908443378
 20
1.91217063730221
 30
0.0
 11
27.88425908443378
 21
8.439470637302292
 31
0.0
  0
LINE
  5
DFF
330
DF2
100
AcDbEntity
  8
NOKITOI
  6
PHANTOM
 62
     8
 48
5.0
100
AcDbLine
 10
28.37925908443378
 20
9.296770637302074
 30
0.0
 11
27.88425908443378
 21
8.439470637302292
 31
0.0
  0
LINE
  5
E00
330
DF2
100
AcDbEntity
  8
NOKITOI
  6
PHANTOM
 62
     8
 48
5.0
100
AcDbLine
 10
28.37925908443378
 20
9.296770637302074
 30
0.0
 11
27.52195908443377
 21
8.801870637302272
 31
0.0
  0
ARC
  5
E01
330
DF2
100
AcDbEntity
  8
NOKITOI
  6
PHANTOM
 62
     8
 48
5.0
100
AcDbCircle
 10
21.30106274373702
 20
8.501878629181817
 30
0.0
 40
0.2999920081427447
100
AcDbArc
 50
90.00069889403098
 51
220.79672841758
  0
ARC
  5
E02
330
DF2
100
AcDbEntity
  8
NOKITOI
  6
PHANTOM
 62
     8
 48
5.0
100
AcDbCircle
 10
10.29726428144715
 20
-0.9941399784659097
 30
0.0
 40
14.23472333170272
100
AcDbArc
 50
11.37541821407357
 51
40.79334907830751
  0
LINE
  5
E03
330
DF2
100
AcDbEntity
  8
NOKITOI
  6
PHANTOM
 62
     8
 48
5.0
100
AcDbLine
 10
27.52195908443377
 20
8.801870637302272
 30
0.0
 11
21.30105908443386
 21
8.801870637302272
 31
0.0
  0
LINE
  5
E04
330
DF2
100
AcDbEntity
  8
NOKITOI
  6
PHANTOM
 62
     8
 48
5.0
100
AcDbLine
 10
24.74245908443378
 20
1.412170637302097
 30
0.0
 11
27.38425908443378
 21
1.412170637302097
 31
0.0
  0
ARC
  5
E05
330
DF2
100
AcDbEntity
  8
NOKITOI
  6
PHANTOM
 62
     8
 48
5.0
100
AcDbCircle
 10
24.74253604330567
 20
1.912189501590432
 30
0.0
 40
0.5000188648192144
100
AcDbArc
 50
191.3867288554411
 51
270.0026402191985
  0
ARC
  5
E06
330
DF2
100
AcDbEntity
  8
NOKITOI
  6
PHANTOM
 62
     8
 48
5.0
100
AcDbCircle
 10
27.38425908443366
 20
1.91217063730221
 30
0.0
 40
0.5000000000000569
100
AcDbArc
 50
270.0000000000065
 51
0.0000000000065138
  0
LINE
  5
E07
330
DF2
100
AcDbEntity
  8
NOKITOI
  6
PHANTOM
 62
     8
 48
5.0
100
AcDbLine
 10
0.1808590844339051
 20
41.10517063730208
 30
0.0
 11
0.1808590844339051
 21
49.11467063730208
 31
0.0
  0
ARC
  5
E08
330
DF2
100
AcDbEntity
  8
NOKITOI
  6
PHANTOM
 62
     8
 48
5.0
100
AcDbCircle
 10
3.6160590844338
 20
47.32377063730223
 30
0.0
 40
1.492399999999918
100
AcDbArc
 50
0.0000000000021823
 51
90.00000000000218
  0
ARC
  5
E09
330
DF2
100
AcDbEntity
  8
NOKITOI
  6
PHANTOM
 62
     8
 48
5.0
100
AcDbCircle
 10
2.966809084433748
 20
47.32372063730212
 30
0.0
 40
1.49245000083754
100
AcDbArc
 50
89.99808047909008
 51
179.99808047909
  0
LINE
  5
E0A
330
DF2
100
AcDbEntity
  8
NOKITOI
  6
PHANTOM
 62
     8
 48
5.0
100
AcDbLine
 10
6.401959084433769
 20
49.11467063730208
 30
0.0
 11
6.401959084433769
 21
44.90987063730222
 31
0.0
  0
LINE
  5
E0B
330
DF2
100
AcDbEntity
  8
NOKITOI
  6
PHANTOM
 62
     8
 48
5.0
100
AcDbLine
 10
3.464359084433908
 20
41.4036706373023
 30
0.0
 11
8.234959084433853
 21
41.4036706373023
 31
0.0
  0
LINE
  5
E0C
330
DF2
100
AcDbEntity
  8
NOKITOI
  6
PHANTOM
 62
     8
 48
5.0
100
AcDbLine
 10
7.024059084433929
 20
40.11017063730207
 30
0.0
 11
1.175859084433909
 21
40.11017063730207
 31
0.0
  0
ARC
  5
E0D
330
DF2
100
AcDbEntity
  8
NOKITOI
  6
PHANTOM
 62
     8
 48
5.0
100
AcDbCircle
 10
3.464309084433807
 20
43.39362063730232
 30
0.0
 40
1.989950000628206
100
AcDbArc
 50
180.0014396286234
 51
270.0014396286234
  0
LINE
  5
E0E
330
DF2
100
AcDbEntity
  8
NOKITOI
  6
PHANTOM
 62
     8
 48
5.0
100
AcDbLine
 10
1.474359084433785
 20
47.32377063730223
 30
0.0
 11
1.474359084433785
 21
43.39357063730221
 31
0.0
  0
ARC
  5
E0F
330
DF2
100
AcDbEntity
  8
NOKITOI
  6
PHANTOM
 62
     8
 48
5.0
100
AcDbCircle
 10
1.175859084433909
 20
41.10517063730208
 30
0.0
 40
0.9950000000000045
100
AcDbArc
 50
180.0
 51
270.0
  0
LINE
  5
E10
330
DF2
100
AcDbEntity
  8
NOKITOI
  6
PHANTOM
 62
     8
 48
5.0
100
AcDbLine
 10
5.108559084433863
 20
44.90987063730222
 30
0.0
 11
5.108559084433863
 21
47.32377063730223
 31
0.0
  0
LINE
  5
E11
330
DF2
100
AcDbEntity
  8
NOKITOI
  6
PHANTOM
 62
     8
 48
5.0
100
AcDbLine
 10
6.401959084433769
 20
44.90987063730222
 30
0.0
 11
5.108559084433863
 21
44.90987063730222
 31
0.0
  0
ARC
  5
E12
330
DF2
100
AcDbEntity
  8
NOKITOI
  6
PHANTOM
 62
     8
 48
5.0
100
AcDbCircle
 10
7.024040641819624
 20
39.91118560073897
 30
0.0
 40
0.1989850374177657
100
AcDbArc
 50
11.88631382809314
 51
89.99468963106556
  0
LINE
  5
E13
330
DF2
100
AcDbEntity
  8
NOKITOI
  6
PHANTOM
 62
     8
 48
5.0
100
AcDbLine
 10
1.175859084433909
 20
50.1096706373022
 30
0.0
 11
5.407059084433853
 21
50.1096706373022
 31
0.0
  0
ARC
  5
E14
330
DF2
100
AcDbEntity
  8
NOKITOI
  6
PHANTOM
 62
     8
 48
5.0
100
AcDbCircle
 10
1.175859084433909
 20
49.1146706373022
 30
0.0
 40
0.9950000000000613
100
AcDbArc
 50
90.00000000000328
 51
180.0000000000032
  0
LINE
  5
E15
330
DF2
100
AcDbEntity
  8
NOKITOI
  6
PHANTOM
 62
     8
 48
5.0
100
AcDbLine
 10
3.6160590844338
 20
48.81617063730209
 30
0.0
 11
2.966859084433849
 21
48.81617063730209
 31
0.0
  0
ARC
  5
E16
330
DF2
100
AcDbEntity
  8
NOKITOI
  6
PHANTOM
 62
     8
 48
5.0
100
AcDbCircle
 10
5.407009084433752
 20
49.11472063730224
 30
0.0
 40
0.9949500012563332
100
AcDbArc
 50
359.9971206704048
 51
89.99712067040489
  0
LINE
  5
E17
330
DF2
100
AcDbEntity
  8
NOKITOI
  6
PHANTOM
 62
     8
 48
5.0
100
AcDbLine
 10
85.18155908443374
 20
10.10157063730207
 30
0.0
 11
95.16205908443373
 21
10.10147063730221
 31
0.0
  0
ARC
  5
E18
330
DF2
100
AcDbEntity
  8
NOKITOI
  6
PHANTOM
 62
     8
 48
5.0
100
AcDbCircle
 10
104.068453551022
 20
-0.9942356029631582
 30
0.0
 40
12.93461262833301
100
AcDbArc
 50
105.5476727870198
 51
171.3237222126366
  0
ARC
  5
E19
330
DF2
100
AcDbEntity
  8
NOKITOI
  6
PHANTOM
 62
     8
 48
5.0
100
AcDbCircle
 10
104.0683479281129
 20
-0.994141944171929
 30
0.0
 40
12.93449408578155
100
AcDbArc
 50
105.5473332353544
 51
171.3240617643019
  0
LINE
  5
E1A
330
DF2
100
AcDbEntity
  8
NOKITOI
  6
PHANTOM
 62
     8
 48
5.0
100
AcDbLine
 10
29.38325908443392
 20
1.405570637302162
 30
0.0
 11
84.98245908443392
 21
1.405470637302073
 31
0.0
  0
ARC
  5
E1B
330
DF2
100
AcDbEntity
  8
NOKITOI
  6
PHANTOM
 62
     8
 48
5.0
100
AcDbCircle
 10
29.38325908443392
 20
1.604570637302231
 30
0.0
 40
0.1990000000000691
100
AcDbArc
 50
179.9999999999836
 51
269.9999999999836
  0
LINE
  5
E1C
330
DF2
100
AcDbEntity
  8
NOKITOI
  6
PHANTOM
 62
     8
 48
5.0
100
AcDbLine
 10
29.18425908443385
 20
1.604570637302231
 30
0.0
 11
29.18435908443393
 21
10.10187063730222
 31
0.0
  0
LINE
  5
E1D
330
DF2
100
AcDbEntity
  8
NOKITOI
  6
PHANTOM
 62
     8
 48
5.0
100
AcDbLine
 10
80.98245908443391
 20
1.405470637302073
 30
0.0
 11
66.22805908443377
 21
1.405470637302073
 31
0.0
  0
ARC
  5
E1E
330
DF2
100
AcDbEntity
  8
NOKITOI
  6
PHANTOM
 62
     8
 48
5.0
100
AcDbCircle
 10
90.2982090125298
 20
1.107113524900853
 30
0.0
 40
0.9950428888512103
100
AcDbArc
 50
269.9971250795227
 51
351.3214426795068
  0
LINE
  5
E1F
330
DF2
100
AcDbEntity
  8
NOKITOI
  6
PHANTOM
 62
     8
 48
5.0
100
AcDbLine
 10
85.98655908443367
 20
9.296470637302149
 30
0.0
 11
86.4815590844339
 21
8.43917063730214
 31
0.0
  0
LINE
  5
E20
330
DF2
100
AcDbEntity
  8
NOKITOI
  6
PHANTOM
 62
     8
 48
5.0
100
AcDbLine
 10
85.98655908443367
 20
9.296470637302149
 30
0.0
 11
86.84385908443392
 21
8.801470637302145
 31
0.0
  0
ARC
  5
E21
330
DF2
100
AcDbEntity
  8
NOKITOI
  6
PHANTOM
 62
     8
 48
5.0
100
AcDbCircle
 10
84.98240908443381
 20
1.604520637302186
 30
0.0
 40
0.1990500062799141
100
AcDbArc
 50
270.0143923080611
 51
0.014392308061115
  0
LINE
  5
E22
330
DF2
100
AcDbEntity
  8
NOKITOI
  6
PHANTOM
 62
     8
 48
5.0
100
AcDbLine
 10
85.18145908443386
 20
1.604570637302231
 30
0.0
 11
85.18155908443374
 21
10.10157063730207
 31
0.0
  0
LINE
  5
E23
330
DF2
100
AcDbEntity
  8
NOKITOI
  6
PHANTOM
 62
     8
 48
5.0
100
AcDbLine
 10
86.4815590844339
 20
8.43917063730214
 30
0.0
 11
86.4815590844339
 21
1.912070637302122
 31
0.0
  0
ARC
  5
E24
330
DF2
100
AcDbEntity
  8
NOKITOI
  6
PHANTOM
 62
     8
 48
5.0
100
AcDbCircle
 10
104.0684175391246
 20
-0.9943142272541081
 30
0.0
 40
14.23462403148678
100
AcDbArc
 50
139.2075062369005
 51
168.6237859483839
  0
LINE
  5
E25
330
DF2
100
AcDbEntity
  8
NOKITOI
  6
PHANTOM
 62
     8
 48
5.0
100
AcDbLine
 10
93.06445908443368
 20
8.801470637302145
 30
0.0
 11
86.84385908443392
 21
8.801470637302145
 31
0.0
  0
ARC
  5
E26
330
DF2
100
AcDbEntity
  8
NOKITOI
  6
PHANTOM
 62
     8
 48
5.0
100
AcDbCircle
 10
93.06447276228515
 20
8.501440773608294
 30
0.0
 40
0.3000298640056128
100
AcDbArc
 50
319.2190584222776
 51
90.00261201719956
  0
LINE
  5
E27
330
DF2
100
AcDbEntity
  8
NOKITOI
  6
PHANTOM
 62
     8
 48
5.0
100
AcDbLine
 10
89.62325908443393
 20
1.412070637302235
 30
0.0
 11
86.98155908443391
 21
1.412070637302235
 31
0.0
  0
ARC
  5
E28
330
DF2
100
AcDbEntity
  8
NOKITOI
  6
PHANTOM
 62
     8
 48
5.0
100
AcDbCircle
 10
86.9815590844338
 20
1.912070637302235
 30
0.0
 40
0.4999999999999432
100
AcDbArc
 50
180.0000000000065
 51
270.0000000000065
  0
ARC
  5
E29
330
DF2
100
AcDbEntity
  8
NOKITOI
  6
PHANTOM
 62
     8
 48
5.0
100
AcDbCircle
 10
89.62328212556213
 20
1.912089501590457
 30
0.0
 40
0.5000188648190603
100
AcDbArc
 50
269.9973597808039
 51
348.6132711445602
  0
LINE
  5
E2A
330
DF2
100
AcDbEntity
  8
NOKITOI
  6
PHANTOM
 62
     8
 48
5.0
100
AcDbLine
 10
100.1997590844339
 20
13.23317063730223
 30
0.0
 11
105.6547590844337
 21
39.14207063730214
 31
0.0
  0
LINE
  5
E2B
330
DF2
100
AcDbEntity
  8
NOKITOI
  6
PHANTOM
 62
     8
 48
5.0
100
AcDbLine
 10
101.3084590844339
 20
12.22067063730207
 30
0.0
 11
107.1471590844337
 21
39.95207063730208
 31
0.0
  0
ARC
  5
E2C
330
DF2
100
AcDbEntity
  8
NOKITOI
  6
PHANTOM
 62
     8
 48
5.0
100
AcDbCircle
 10
99.22620265398496
 20
13.43821958907108
 30
0.0
 40
0.9950135261271753
100
AcDbArc
 50
288.5445751594487
 51
348.1074736523478
  0
ARC
  5
E2D
330
DF2
100
AcDbEntity
  8
NOKITOI
  6
PHANTOM
 62
     8
 48
5.0
100
AcDbCircle
 10
104.0684735879824
 20
-0.9942214385093848
 30
0.0
 40
14.22809199964113
100
AcDbArc
 50
108.5474584936555
 51
128.7537062451648
  0
ARC
  5
E2E
330
DF2
100
AcDbEntity
  8
NOKITOI
  6
PHANTOM
 62
     8
 48
5.0
100
AcDbCircle
 10
100.334833421286
 20
12.42574988868966
 30
0.0
 40
0.9949690575286499
100
AcDbArc
 50
285.5437330810338
 51
348.1110361155302
  0
LINE
  5
E2F
330
DF2
100
AcDbEntity
  8
NOKITOI
  6
PHANTOM
 62
     8
 48
5.0
100
AcDbLine
 10
112.8850590844339
 20
41.40997063730208
 30
0.0
 11
107.4607590844339
 21
41.41007063730216
 31
0.0
  0
LINE
  5
E30
330
DF2
100
AcDbEntity
  8
NOKITOI
  6
PHANTOM
 62
     8
 48
5.0
100
AcDbLine
 10
113.1900590844338
 20
50.10957063730223
 30
0.0
 11
107.9863590844338
 21
50.10947063730213
 31
0.0
  0
LINE
  5
E31
330
DF2
100
AcDbEntity
  8
NOKITOI
  6
PHANTOM
 62
     8
 48
5.0
100
AcDbLine
 10
112.8850590844339
 20
48.80947063730229
 30
0.0
 11
109.0186590844336
 21
48.80947063730229
 31
0.0
  0
LINE
  5
E32
330
DF2
100
AcDbEntity
  8
NOKITOI
  6
PHANTOM
 62
     8
 48
5.0
100
AcDbLine
 10
107.3418590844337
 20
40.10997063730224
 30
0.0
 11
113.1900590844338
 21
40.10997063730224
 31
0.0
  0
LINE
  5
E33
330
DF2
100
AcDbEntity
  8
NOKITOI
  6
PHANTOM
 62
     8
 48
5.0
100
AcDbLine
 10
109.0186590844336
 20
48.80947063730229
 30
0.0
 11
107.4607590844339
 21
41.41007063730216
 31
0.0
  0
LINE
  5
E34
330
DF2
100
AcDbEntity
  8
NOKITOI
  6
PHANTOM
 62
     8
 48
5.0
100
AcDbLine
 10
105.6547590844337
 20
39.14207063730214
 30
0.0
 11
107.9638590844336
 21
50.10947063730213
 31
0.0
  0
ARC
  5
E35
330
DF2
100
AcDbEntity
  8
NOKITOI
  6
PHANTOM
 62
     8
 48
5.0
100
AcDbCircle
 10
107.341877527048
 20
39.91108560073894
 30
0.0
 40
0.1989850374179911
100
AcDbArc
 50
90.00531036897127
 51
168.1136861719432
  0
LINE
  5
E36
330
DF2
100
AcDbEntity
  8
NOKITOI
  6
PHANTOM
 62
     8
 48
5.0
100
AcDbLine
 10
114.1850590844338
 20
41.10497063730213
 30
0.0
 11
114.1850590844338
 21
49.1145706373021
 31
0.0
  0
LINE
  5
E37
330
DF2
100
AcDbEntity
  8
NOKITOI
  6
PHANTOM
 62
     8
 48
5.0
100
AcDbLine
 10
112.8850590844339
 20
41.40997063730208
 30
0.0
 11
112.8850590844339
 21
48.80947063730229
 31
0.0
  0
ARC
  5
E38
330
DF2
100
AcDbEntity
  8
NOKITOI
  6
PHANTOM
 62
     8
 48
5.0
100
AcDbCircle
 10
113.1900590844339
 20
41.10497063730218
 30
0.0
 40
0.9949999999999192
100
AcDbArc
 50
269.9999999999951
 51
359.9999999999951
  0
ARC
  5
E39
330
DF2
100
AcDbEntity
  8
NOKITOI
  6
PHANTOM
 62
     8
 48
5.0
100
AcDbCircle
 10
113.1900590844338
 20
49.11457063730222
 30
0.0
 40
0.9950000000000613
100
AcDbArc
 50
359.9999999999967
 51
89.99999999999673
  0
ENDBLK
  5
E3B
330
DF2
100
AcDbEntity
  8
0
100
AcDbBlockEnd
  0
BLOCK
  5
FCB
330
FC1
100
AcDbEntity
  8
0
100
AcDbBlockBegin
  2
*D2
 70
     1
 10
0.0
 20
0.0
 30
0.0
  3
*D2
  1

  0
LINE
  5
1009
330
FC1
100
AcDbEntity
  8
SUNPOU
  6
CONTINUOUS
 62
     4
100
AcDbLine
 10
216.050102261912
 20
171.2878373020699
 30
0.0
 11
216.050102261912
 21
185.3841519030446
 31
0.0
  0
LINE
  5
100A
330
FC1
100
AcDbEntity
  8
SUNPOU
  6
CONTINUOUS
 62
     4
100
AcDbLine
 10
171.0501022619119
 20
173.2873373020699
 30
0.0
 11
171.0501022619119
 21
185.3841519030446
 31
0.0
  0
LINE
  5
100B
330
FC1
100
AcDbEntity
  8
SUNPOU
  6
CONTINUOUS
 62
     4
100
AcDbLine
 10
213.050102261912
 20
183.8841519030446
 30
0.0
 11
174.0501022619119
 21
183.8841519030446
 31
0.0
  0
INSERT
  5
100C
330
FC1
100
AcDbEntity
  8
SUNPOU
  6
CONTINUOUS
 62
     4
100
AcDbBlockReference
  2
_OPEN
 10
216.050102261912
 20
183.8841519030446
 30
0.0
 41
3.0
 42
3.0
 43
3.0
  0
INSERT
  5
100D
330
FC1
100
AcDbEntity
  8
SUNPOU
  6
CONTINUOUS
 62
     4
100
AcDbBlockReference
  2
_OPEN
 10
171.0501022619119
 20
183.8841519030446
 30
0.0
 41
3.0
 42
3.0
 43
3.0
 50
180.0
  0
MTEXT
  5
100E
330
FC1
100
AcDbEntity
  8
SUNPOU
  6
CONTINUOUS
 62
     4
100
AcDbMText
 10
193.550102261912
 20
186.3841519030446
 30
0.0
 40
3.0
 41
0.0
 71
     5
 72
     1
  1
\A1;45
1001
ACAD
1000
MTEXTBEGIN
1070
    73
1070
     1
1070
    44
1040
1.0
1070
    74
1070
     0
1000
MTEXTEND
  0
POINT
  5
100F
330
FC1
100
AcDbEntity
  8
DEFPOINTS
  6
CONTINUOUS
 62
     0
100
AcDbPoint
 10
216.050102261912
 20
168.2878373020699
 30
0.0
  0
POINT
  5
1010
330
FC1
100
AcDbEntity
  8
DEFPOINTS
  6
CONTINUOUS
 62
     0
100
AcDbPoint
 10
171.0501022619119
 20
170.2873373020699
 30
0.0
  0
POINT
  5
1011
330
FC1
100
AcDbEntity
  8
DEFPOINTS
  6
CONTINUOUS
 62
     0
100
AcDbPoint
 10
171.0501022619119
 20
183.8841519030446
 30
0.0
  0
ENDBLK
  5
FCC
330
FC1
100
AcDbEntity
  8
0
100
AcDbBlockEnd
  0
BLOCK
  5
FD7
330
FCD
100
AcDbEntity
  8
0
100
AcDbBlockBegin
  2
*D3
 70
     1
 10
0.0
 20
0.0
 30
0.0
  3
*D3
  1

  0
LINE
  5
1012
330
FCD
100
AcDbEntity
  8
SUNPOU
  6
CONTINUOUS
 62
     4
100
AcDbLine
 10
171.0500022619118
 20
113.8877373020698
 30
0.0
 11
171.0500022619118
 21
82.4202951476683
 31
0.0
  0
LINE
  5
1013
330
FCD
100
AcDbEntity
  8
SUNPOU
  6
CONTINUOUS
 62
     4
100
AcDbLine
 10
192.9154361720812
 20
112.8877373020699
 30
0.0
 11
192.9154361720812
 21
82.4202951476683
 31
0.0
  0
LINE
  5
1014
330
FCD
100
AcDbEntity
  8
SUNPOU
  6
CONTINUOUS
 62
     4
100
AcDbLine
 10
174.0500022619118
 20
83.9202951476683
 30
0.0
 11
189.9154361720812
 21
83.9202951476683
 31
0.0
  0
INSERT
  5
1015
330
FCD
100
AcDbEntity
  8
SUNPOU
  6
CONTINUOUS
 62
     4
100
AcDbBlockReference
  2
_OPEN
 10
171.0500022619118
 20
83.9202951476683
 30
0.0
 41
3.0
 42
3.0
 43
3.0
 50
180.0
  0
INSERT
  5
1016
330
FCD
100
AcDbEntity
  8
SUNPOU
  6
CONTINUOUS
 62
     4
100
AcDbBlockReference
  2
_OPEN
 10
192.9154361720812
 20
83.9202951476683
 30
0.0
 41
3.0
 42
3.0
 43
3.0
  0
MTEXT
  5
1017
330
FCD
100
AcDbEntity
  8
SUNPOU
  6
CONTINUOUS
 62
     4
100
AcDbMText
 10
181.9827192169965
 20
86.4202951476683
 30
0.0
 40
3.0
 41
0.0
 71
     5
 72
     1
  1
\A1;22
1001
ACAD
1000
MTEXTBEGIN
1070
    73
1070
     1
1070
    44
1040
1.0
1070
    74
1070
     0
1000
MTEXTEND
  0
POINT
  5
1018
330
FCD
100
AcDbEntity
  8
DEFPOINTS
  6
CONTINUOUS
 62
     0
100
AcDbPoint
 10
171.0500022619118
 20
116.8877373020698
 30
0.0
  0
POINT
  5
1019
330
FCD
100
AcDbEntity
  8
DEFPOINTS
  6
CONTINUOUS
 62
     0
100
AcDbPoint
 10
192.9154361720812
 20
115.8877373020699
 30
0.0
  0
POINT
  5
101A
330
FCD
100
AcDbEntity
  8
DEFPOINTS
  6
CONTINUOUS
 62
     0
100
AcDbPoint
 10
192.9154361720812
 20
83.9202951476683
 30
0.0
  0
ENDBLK
  5
FD8
330
FCD
100
AcDbEntity
  8
0
100
AcDbBlockEnd
  0
BLOCK
  5
FE3
330
FD9
100
AcDbEntity
  8
0
100
AcDbBlockBegin
  2
*D4
 70
     1
 10
0.0
 20
0.0
 30
0.0
  3
*D4
  1

  0
LINE
  5
101B
330
FD9
100
AcDbEntity
  8
SUNPOU
  6
CONTINUOUS
 62
     4
100
AcDbLine
 10
171.0500022619118
 20
113.8877373020698
 30
0.0
 11
171.0500022619118
 21
94.14450927313476
 31
0.0
  0
LINE
  5
101C
330
FD9
100
AcDbEntity
  8
SUNPOU
  6
CONTINUOUS
 62
     4
100
AcDbLine
 10
190.0500003892719
 20
112.8877373020699
 30
0.0
 11
190.0500003892719
 21
94.14450927313476
 31
0.0
  0
LINE
  5
101D
330
FD9
100
AcDbEntity
  8
SUNPOU
  6
CONTINUOUS
 62
     4
100
AcDbLine
 10
174.0500022619118
 20
95.64450927313476
 30
0.0
 11
187.0500003892719
 21
95.64450927313476
 31
0.0
  0
INSERT
  5
101E
330
FD9
100
AcDbEntity
  8
SUNPOU
  6
CONTINUOUS
 62
     4
100
AcDbBlockReference
  2
_OPEN
 10
171.0500022619118
 20
95.64450927313476
 30
0.0
 41
3.0
 42
3.0
 43
3.0
 50
180.0
  0
INSERT
  5
101F
330
FD9
100
AcDbEntity
  8
SUNPOU
  6
CONTINUOUS
 62
     4
100
AcDbBlockReference
  2
_OPEN
 10
190.0500003892719
 20
95.64450927313476
 30
0.0
 41
3.0
 42
3.0
 43
3.0
  0
MTEXT
  5
1020
330
FD9
100
AcDbEntity
  8
SUNPOU
  6
CONTINUOUS
 62
     4
100
AcDbMText
 10
180.5500013255919
 20
98.14450927313476
 30
0.0
 40
3.0
 41
0.0
 71
     5
 72
     1
  1
\A1;※19
1001
ACAD
1000
MTEXTBEGIN
1070
    73
1070
     1
1070
    44
1040
1.0
1070
    74
1070
     0
1000
MTEXTEND
  0
POINT
  5
1021
330
FD9
100
AcDbEntity
  8
DEFPOINTS
  6
CONTINUOUS
 62
     0
100
AcDbPoint
 10
171.0500022619118
 20
116.8877373020698
 30
0.0
  0
POINT
  5
1022
330
FD9
100
AcDbEntity
  8
DEFPOINTS
  6
CONTINUOUS
 62
     0
100
AcDbPoint
 10
190.0500003892719
 20
115.8877373020699
 30
0.0
  0
POINT
  5
1023
330
FD9
100
AcDbEntity
  8
DEFPOINTS
  6
CONTINUOUS
 62
     0
100
AcDbPoint
 10
190.0500003892719
 20
95.64450927313476
 30
0.0
  0
ENDBLK
  5
FE4
330
FD9
100
AcDbEntity
  8
0
100
AcDbBlockEnd
  0
BLOCK
  5
FEF
330
FE5
100
AcDbEntity
  8
0
100
AcDbBlockBegin
  2
*D5
 70
     1
 10
0.0
 20
0.0
 30
0.0
  3
*D5
  1

  0
LINE
  5
1024
330
FE5
100
AcDbEntity
  8
SUNPOU
  6
CONTINUOUS
 62
     4
100
AcDbLine
 10
253.3709434017066
 20
169.2880373020699
 30
0.0
 11
240.8808584761091
 21
169.2880373020699
 31
0.0
  0
LINE
  5
1025
330
FE5
100
AcDbEntity
  8
SUNPOU
  6
CONTINUOUS
 62
     4
100
AcDbLine
 10
276.9477434017067
 20
115.8878373020699
 30
0.0
 11
240.8808584761091
 21
115.8878373020699
 31
0.0
  0
LINE
  5
1026
330
FE5
100
AcDbEntity
  8
SUNPOU
  6
CONTINUOUS
 62
     4
100
AcDbLine
 10
242.380858476109
 20
166.2880373020699
 30
0.0
 11
242.380858476109
 21
118.8878373020699
 31
0.0
  0
INSERT
  5
1027
330
FE5
100
AcDbEntity
  8
SUNPOU
  6
CONTINUOUS
 62
     4
100
AcDbBlockReference
  2
_OPEN
 10
242.380858476109
 20
169.2880373020699
 30
0.0
 41
3.0
 42
3.0
 43
3.0
 50
90.0
  0
INSERT
  5
1028
330
FE5
100
AcDbEntity
  8
SUNPOU
  6
CONTINUOUS
 62
     4
100
AcDbBlockReference
  2
_OPEN
 10
242.380858476109
 20
115.8878373020699
 30
0.0
 41
3.0
 42
3.0
 43
3.0
 50
270.0
  0
MTEXT
  5
1029
330
FE5
100
AcDbEntity
  8
SUNPOU
  6
CONTINUOUS
 62
     4
100
AcDbMText
 10
239.880858476109
 20
142.5879373020699
 30
0.0
 40
3.0
 41
0.0
 71
     5
 72
     1
  1
\A1;53
 11
0.0000000000000001
 21
1.0
 31
0.0
1001
ACAD
1000
MTEXTBEGIN
1070
    73
1070
     1
1070
    44
1040
1.0
1070
    74
1070
     0
1000
MTEXTEND
  0
POINT
  5
102A
330
FE5
100
AcDbEntity
  8
DEFPOINTS
  6
CONTINUOUS
 62
     0
100
AcDbPoint
 10
256.3709434017066
 20
169.2880373020699
 30
0.0
  0
POINT
  5
102B
330
FE5
100
AcDbEntity
  8
DEFPOINTS
  6
CONTINUOUS
 62
     0
100
AcDbPoint
 10
279.9477434017067
 20
115.8878373020699
 30
0.0
  0
POINT
  5
102C
330
FE5
100
AcDbEntity
  8
DEFPOINTS
  6
CONTINUOUS
 62
     0
100
AcDbPoint
 10
242.380858476109
 20
115.8878373020699
 30
0.0
  0
ENDBLK
  5
FF0
330
FE5
100
AcDbEntity
  8
0
100
AcDbBlockEnd
  0
BLOCK
  5
FFB
330
FF1
100
AcDbEntity
  8
0
100
AcDbBlockBegin
  2
*D6
 70
     1
 10
0.0
 20
0.0
 30
0.0
  3
*D6
  1

  0
LINE
  5
102D
330
FF1
100
AcDbEntity
  8
SUNPOU
  6
CONTINUOUS
 62
     4
100
AcDbLine
 10
350.2053776571628
 20
112.8878397287125
 30
0.0
 11
350.2053776571628
 21
94.11072355149622
 31
0.0
  0
LINE
  5
102E
330
FF1
100
AcDbEntity
  8
SUNPOU
  6
CONTINUOUS
 62
     4
100
AcDbLine
 10
279.1055233748939
 20
112.8878397286715
 30
0.0
 11
279.1055233748939
 21
94.11072355149622
 31
0.0
  0
LINE
  5
102F
330
FF1
100
AcDbEntity
  8
SUNPOU
  6
CONTINUOUS
 62
     4
100
AcDbLine
 10
347.2053776571628
 20
95.61072355149622
 30
0.0
 11
282.1055233748939
 21
95.61072355149622
 31
0.0
  0
INSERT
  5
1030
330
FF1
100
AcDbEntity
  8
SUNPOU
  6
CONTINUOUS
 62
     4
100
AcDbBlockReference
  2
_OPEN
 10
350.2053776571628
 20
95.61072355149622
 30
0.0
 41
3.0
 42
3.0
 43
3.0
  0
INSERT
  5
1031
330
FF1
100
AcDbEntity
  8
SUNPOU
  6
CONTINUOUS
 62
     4
100
AcDbBlockReference
  2
_OPEN
 10
279.1055233748939
 20
95.61072355149622
 30
0.0
 41
3.0
 42
3.0
 43
3.0
 50
180.0
  0
MTEXT
  5
1032
330
FF1
100
AcDbEntity
  8
SUNPOU
  6
CONTINUOUS
 62
     4
100
AcDbMText
 10
314.6554505160283
 20
98.11072355149622
 30
0.0
 40
3.0
 41
0.0
 71
     5
 72
     1
  1
\A1;71
1001
ACAD
1000
MTEXTBEGIN
1070
    73
1070
     1
1070
    44
1040
1.0
1070
    74
1070
     0
1000
MTEXTEND
  0
POINT
  5
1033
330
FF1
100
AcDbEntity
  8
DEFPOINTS
  6
CONTINUOUS
 62
     0
100
AcDbPoint
 10
350.2053776571628
 20
115.8878397287125
 30
0.0
  0
POINT
  5
1034
330
FF1
100
AcDbEntity
  8
DEFPOINTS
  6
CONTINUOUS
 62
     0
100
AcDbPoint
 10
279.1055233748939
 20
115.8878397286715
 30
0.0
  0
POINT
  5
1035
330
FF1
100
AcDbEntity
  8
DEFPOINTS
  6
CONTINUOUS
 62
     0
100
AcDbPoint
 10
279.1055233748939
 20
95.61072355149622
 30
0.0
  0
ENDBLK
  5
FFC
330
FF1
100
AcDbEntity
  8
0
100
AcDbBlockEnd
  0
BLOCK
  5
1007
330
FFD
100
AcDbEntity
  8
0
100
AcDbBlockBegin
  2
*D7
 70
     1
 10
0.0
 20
0.0
 30
0.0
  3
*D7
  1

  0
LINE
  5
1036
330
FFD
100
AcDbEntity
  8
SUNPOU
  6
CONTINUOUS
 62
     4
100
AcDbLine
 10
373.9400434017067
 20
171.2879373020698
 30
0.0
 11
373.9400434017067
 21
185.2901272443159
 31
0.0
  0
LINE
  5
1037
330
FFD
100
AcDbEntity
  8
SUNPOU
  6
CONTINUOUS
 62
     4
100
AcDbLine
 10
255.3709434017067
 20
171.2880373020699
 30
0.0
 11
255.3709434017067
 21
185.2901272443159
 31
0.0
  0
LINE
  5
1038
330
FFD
100
AcDbEntity
  8
SUNPOU
  6
CONTINUOUS
 62
     4
100
AcDbLine
 10
370.9400434017067
 20
183.7901272443159
 30
0.0
 11
258.3709434017066
 21
183.7901272443159
 31
0.0
  0
INSERT
  5
1039
330
FFD
100
AcDbEntity
  8
SUNPOU
  6
CONTINUOUS
 62
     4
100
AcDbBlockReference
  2
_OPEN
 10
373.9400434017067
 20
183.7901272443159
 30
0.0
 41
3.0
 42
3.0
 43
3.0
  0
INSERT
  5
103A
330
FFD
100
AcDbEntity
  8
SUNPOU
  6
CONTINUOUS
 62
     4
100
AcDbBlockReference
  2
_OPEN
 10
255.3709434017067
 20
183.7901272443159
 30
0.0
 41
3.0
 42
3.0
 43
3.0
 50
180.0
  0
MTEXT
  5
103B
330
FFD
100
AcDbEntity
  8
SUNPOU
  6
CONTINUOUS
 62
     4
100
AcDbMText
 10
314.6554934017067
 20
186.2901272443159
 30
0.0
 40
3.0
 41
0.0
 71
     5
 72
     1
  1
\A1;119
1001
ACAD
1000
MTEXTBEGIN
1070
    73
1070
     1
1070
    44
1040
1.0
1070
    74
1070
     0
1000
MTEXTEND
  0
POINT
  5
103C
330
FFD
100
AcDbEntity
  8
DEFPOINTS
  6
CONTINUOUS
 62
     0
100
AcDbPoint
 10
373.9400434017067
 20
168.2879373020699
 30
0.0
  0
POINT
  5
103D
330
FFD
100
AcDbEntity
  8
DEFPOINTS
  6
CONTINUOUS
 62
     0
100
AcDbPoint
 10
255.3709434017067
 20
168.2880373020699
 30
0.0
  0
POINT
  5
103E
330
FFD
100
AcDbEntity
  8
DEFPOINTS
  6
CONTINUOUS
 62
     0
100
AcDbPoint
 10
255.3709434017067
 20
183.7901272443159
 30
0.0
  0
ENDBLK
  5
1008
330
FFD
100
AcDbEntity
  8
0
100
AcDbBlockEnd
  0
ENDSEC
  0
SECTION
  2
ENTITIES
  0
LINE
  5
66C
330
1A
100
AcDbEntity
  8
ZUWAKU
100
AcDbLine
 10
104.3233009526605
 20
7.599999652471407
 30
0.0
 11
223.7121822931222
 21
7.599999652471403
 31
0.0
  0
LINE
  5
66D
330
1A
100
AcDbEntity
  8
ZUWAKU
100
AcDbLine
 10
104.3233009526605
 20
7.799999652471404
 30
0.0
 11
223.7121822931222
 21
7.799999652471408
 31
0.0
  0
LINE
  5
66E
330
1A
100
AcDbEntity
  8
ZUWAKU
100
AcDbLine
 10
104.3233009526605
 20
7.699999652471404
 30
0.0
 11
223.7121822931222
 21
7.699999652471404
 31
0.0
  0
LINE
  5
66F
330
1A
100
AcDbEntity
  8
ZUWAKU
100
AcDbLine
 10
0.0000003076265784
 20
15.39999965247139
 30
0.0
 11
398.7000003076265
 21
15.39999965247139
 31
0.0
  0
LINE
  5
670
330
1A
100
AcDbEntity
  8
ZUWAKU
100
AcDbLine
 10
0.0000003076265784
 20
15.29999965247139
 30
0.0
 11
398.7000003076265
 21
15.29999965247139
 31
0.0
  0
LINE
  5
671
330
1A
100
AcDbEntity
  8
ZUWAKU
100
AcDbLine
 10
0.0000003076265784
 20
15.19999965247139
 30
0.0
 11
398.7000003076265
 21
15.19999965247139
 31
0.0
  0
LINE
  5
672
330
1A
100
AcDbEntity
  8
ZUWAKU
100
AcDbLine
 10
0.0000003076265784
 20
15.09999965247138
 30
0.0
 11
398.7000003076265
 21
15.09999965247138
 31
0.0
  0
LINE
  5
673
330
1A
100
AcDbEntity
  8
ZUWAKU
100
AcDbLine
 10
0.0000003076265784
 20
14.99999965247138
 30
0.0
 11
398.7000003076265
 21
14.99999965247138
 31
0.0
  0
LWPOLYLINE
  5
674
330
1A
100
AcDbEntity
  8
ZUWAKU
100
AcDbPolyline
 90
        4
 70
     1
 43
0.0
 10
0.1000003076265443
 20
275.6999996524714
 10
0.1000003076265443
 20
0.0999996524714106
 10
398.7000003076265
 20
0.0999996524714222
 10
398.7000003076266
 20
275.6999996524714
  0
LWPOLYLINE
  5
675
330
1A
100
AcDbEntity
  8
ZUWAKU
100
AcDbPolyline
 90
        4
 70
     1
 43
0.0
 10
0.300000307626533
 20
275.4999996524714
 10
0.300000307626533
 20
0.2999996524713992
 10
398.5000003076267
 20
0.2999996524714223
 10
398.5000003076265
 20
275.4999996524714
  0
LWPOLYLINE
  5
676
330
1A
100
AcDbEntity
  8
ZUWAKU
100
AcDbPolyline
 90
        4
 70
     1
 43
0.0
 10
0.0000003076265784
 20
275.7999996524714
 10
0.0000003076265784
 20
-0.0000003475286121
 10
398.8000003076266
 20
-0.0000003475285784
 10
398.8000003076266
 20
275.7999996524714
  0
LWPOLYLINE
  5
677
330
1A
100
AcDbEntity
  8
ZUWAKU
100
AcDbPolyline
 90
        4
 70
     1
 43
0.0
 10
0.2000003076265671
 20
275.5999996524713
 10
0.2000003076265671
 20
0.1999996524714334
 10
398.6000003076266
 20
0.1999996524714218
 10
398.6000003076266
 20
275.5999996524713
  0
LWPOLYLINE
  5
678
330
1A
100
AcDbEntity
  8
ZUWAKU
100
AcDbPolyline
 90
        4
 70
     1
 43
0.0
 10
0.4000003076265557
 20
275.3999996524714
 10
0.4000003076265557
 20
0.399999652471422
 10
398.4000003076265
 20
0.399999652471422
 10
398.4000003076265
 20
275.3999996524714
  0
TEXT
  5
679
330
1A
100
AcDbEntity
  8
MOJI
100
AcDbText
 10
46.47889510171114
 20
6.370588717608768
 30
0.0
 40
3.0
  1
ライナートップ
 41
0.9
  7
ｽﾀｲﾙ1
100
AcDbText
  0
HATCH
  5
67A
330
1A
100
AcDbEntity
  8
ZUWAKU
100
AcDbHatch
 10
0.0
 20
0.0
 30
0.0
210
0.0
220
0.0
230
1.0
  2
ANSI37
 70
     0
 71
     0
 91
        8
 92
        7
 72
     1
 73
     1
 93
       24
 10
7.251131638186507
 20
8.822423892963179
 42
-0.1989123673796348
 10
7.046106385017139
 20
9.317398639793704
 42
0.0
 10
7.046106385017139
 20
9.962499652471393
 42
-0.4142135623730912
 10
7.308606385017128
 20
10.22499965247138
 42
0.0
 10
8.796106385017083
 20
10.22499965247138
 42
0.4142135623731546
 10
9.058606385017128
 20
10.48749965247138
 42
0.0
 10
9.058606385017128
 20
11.36249965247139
 42
0.4142135623731586
 10
8.796106385017083
 20
11.62499965247139
 42
0.0
 10
7.046106385017139
 20
11.62499965247139
 42
0.4142135623730928
 10
5.646106385017162
 20
10.2249996524714
 42
0.0
 10
5.646106385017162
 20
9.317398639793768
 42
0.1989123673796619
 10
6.261182144525378
 20
7.832474399301965
 42
0.0
 10
7.716081131847715
 20
6.377575411979636
 42
-0.1989123673796613
 10
7.921106385017139
 20
5.882600665149043
 42
0.0
 10
7.921106385017139
 20
5.237499652471385
 42
-0.4142135623730911
 10
7.658606385017151
 20
4.974999652471389
 42
0.0
 10
6.171106385017196
 20
4.974999652471389
 42
0.4142135623731526
 10
5.908606385017151
 20
4.712499652471395
 42
0.0
 10
5.908606385017151
 20
3.837499652471384
 42
0.4142135623731526
 10
6.171106385017196
 20
3.57499965247139
 42
0.0
 10
7.921106385017139
 20
3.57499965247139
 42
0.4142135623731044
 10
9.321106385017174
 20
4.974999652471378
 42
0.0
 10
9.321106385017174
 20
5.882600665149015
 42
0.1989123673796604
 10
8.706030625508901
 20
7.367524905640784
 42
0.0
 97
        0
 92
        7
 72
     1
 73
     1
 93
       16
 10
11.77110638501716
 20
9.524999652471393
 42
-0.4142135623730935
 10
12.47110638501715
 20
10.22499965247138
 42
0.0
 10
13.43360638501712
 20
10.22499965247138
 42
0.4142135623731546
 10
13.69610638501717
 20
10.48749965247138
 42
0.0
 10
13.69610638501717
 20
11.36249965247139
 42
0.4142135623730951
 10
13.43360638501718
 20
11.62499965247139
 42
0.0
 10
12.47110638501709
 20
11.62499965247137
 42
0.4142135623730892
 10
10.37110638501712
 20
9.524999652471358
 42
0.0
 10
10.37110638501712
 20
5.674999652471402
 42
0.4142135623730969
 10
12.47110638501715
 20
3.57499965247139
 42
0.0
 10
13.43360638501712
 20
3.57499965247139
 42
0.4142135623731526
 10
13.69610638501717
 20
3.837499652471384
 42
0.0
 10
13.69610638501717
 20
4.712499652471395
 42
0.4142135623730891
 10
13.43360638501718
 20
4.974999652471389
 42
0.0
 10
12.47110638501715
 20
4.974999652471389
 42
-0.4142135623730928
 10
11.77110638501716
 20
5.674999652471383
 42
0.0
 97
        0
 92
        7
 72
     1
 73
     1
 93
        2
 10
12.12110638501712
 20
7.599999652471389
 42
1.0
 10
13.87110638501712
 20
7.599999652471389
 42
1.0
 97
        0
 92
        7
 72
     1
 73
     1
 93
       26
 10
18.65742962610613
 20
9.602523249253103
 42
0.0
 10
19.18824944267504
 20
11.28345266838789
 42
0.5069206636600134
 10
18.93793399307736
 20
11.62499965247139
 42
0.0
 10
18.08848930327275
 20
11.62499965247139
 42
0.3272098845218764
 10
17.83817385367507
 20
11.44154663655487
 42
0.0
 10
16.90403891635918
 20
8.483452668387929
 42
-0.3272098845219541
 10
16.65372346676145
 20
8.299999652471388
 42
0.0
 10
16.58360638501721
 20
8.299999652471388
 42
-0.4142135623731526
 10
16.32110638501717
 20
8.562499652471382
 42
0.0
 10
16.32110638501717
 20
11.36249965247139
 42
0.4142135623730951
 10
16.05860638501718
 20
11.62499965247139
 42
0.0
 10
15.18360638501713
 20
11.62499965247139
 42
0.4142135623730871
 10
14.92110638501713
 20
11.3624996524714
 42
0.0
 10
14.92110638501713
 20
3.837499652471384
 42
0.4142135623730891
 10
15.18360638501713
 20
3.57499965247139
 42
0.0
 10
16.05860638501712
 20
3.57499965247139
 42
0.4142135623731526
 10
16.32110638501717
 20
3.837499652471384
 42
0.0
 10
16.32110638501717
 20
6.637499652471396
 42
-0.4142135623731526
 10
16.58360638501721
 20
6.89999965247139
 42
0.0
 10
16.6537234667615
 20
6.89999965247139
 42
-0.3272098845218915
 10
16.90403891635918
 20
6.716546636554852
 42
0.0
 10
17.83817385367507
 20
3.758452668387926
 42
0.3272098845218902
 10
18.08848930327275
 20
3.57499965247139
 42
0.0
 10
18.93793399307736
 20
3.57499965247139
 42
0.5069206636600335
 10
19.18824944267504
 20
3.916546636554894
 42
0.0
 10
18.02505375343821
 20
7.599999652471458
 42
0.0
 97
        0
 92
        7
 72
     1
 73
     1
 93
        8
 10
21.74610638501712
 20
11.36249965247139
 42
0.4142135623731546
 10
21.48360638501708
 20
11.62499965247139
 42
0.0
 10
20.60860638501719
 20
11.62499965247139
 42
0.4142135623731507
 10
20.34610638501715
 20
11.3624996524714
 42
0.0
 10
20.34610638501715
 20
3.837499652471384
 42
0.4142135623731526
 10
20.60860638501719
 20
3.57499965247139
 42
0.0
 10
21.48360638501708
 20
3.57499965247139
 42
0.4142135623731526
 10
21.74610638501712
 20
3.837499652471384
 42
0.0
 97
        0
 92
        7
 72
     1
 73
     1
 93
       24
 10
24.19610638501717
 20
9.962499652471393
 42
-0.4142135623731546
 10
24.45860638501722
 20
10.22499965247138
 42
0.0
 10
25.94610638501717
 20
10.22499965247138
 42
0.4142135623730911
 10
26.20860638501716
 20
10.48749965247138
 42
0.0
 10
26.20860638501716
 20
11.36249965247139
 42
0.4142135623730952
 10
25.94610638501717
 20
11.62499965247139
 42
0.0
 10
24.19610638501717
 20
11.62499965247139
 42
0.4142135623731048
 10
22.79610638501714
 20
10.2249996524714
 42
0.0
 10
22.79610638501714
 20
9.317398639793768
 42
0.1989123673796613
 10
23.41118214452541
 20
7.832474399301993
 42
0.0
 10
24.86608113184775
 20
6.377575411979659
 42
-0.1989123673796402
 10
25.07110638501717
 20
5.882600665149123
 42
0.0
 10
25.07110638501717
 20
5.237499652471385
 42
-0.4142135623730911
 10
24.80860638501718
 20
4.974999652471389
 42
0.0
 10
23.32110638501717
 20
4.974999652471389
 42
0.4142135623731526
 10
23.05860638501712
 20
4.712499652471395
 42
0.0
 10
23.05860638501712
 20
3.837499652471384
 42
0.4142135623730891
 10
23.32110638501711
 20
3.57499965247139
 42
0.0
 10
25.07110638501717
 20
3.57499965247139
 42
0.4142135623730925
 10
26.47110638501715
 20
4.974999652471378
 42
0.0
 10
26.47110638501715
 20
5.882600665149015
 42
0.1989123673796675
 10
25.85603062550887
 20
7.367524905640841
 42
0.0
 10
24.4011316381866
 20
8.822423892963099
 42
-0.1989123673796652
 10
24.19610638501717
 20
9.317398639793683
 42
0.0
 97
        0
 92
        7
 72
     1
 73
     1
 93
       16
 10
28.92110638501714
 20
11.36249965247138
 42
0.414213562373103
 10
28.65860638501715
 20
11.62499965247139
 42
0.0
 10
27.78360638501715
 20
11.62499965247139
 42
0.4142135623730871
 10
27.52110638501716
 20
11.3624996524714
 42
0.0
 10
27.52110638501716
 20
4.974999652471378
 42
0.4142135623730926
 10
28.92110638501714
 20
3.57499965247139
 42
0.0
 10
30.67110638501714
 20
3.57499965247139
 42
0.4142135623731044
 10
32.07110638501717
 20
4.974999652471378
 42
0.0
 10
32.07110638501717
 20
11.36249965247139
 42
0.4142135623730951
 10
31.80860638501718
 20
11.62499965247139
 42
0.0
 10
30.93360638501712
 20
11.62499965247139
 42
0.4142135623730871
 10
30.67110638501714
 20
11.3624996524714
 42
0.0
 10
30.67110638501714
 20
5.499999652471377
 42
-0.414213562373088
 10
30.14610638501716
 20
4.974999652471389
 42
0.0
 10
29.44610638501717
 20
4.974999652471389
 42
-0.4142135623731197
 10
28.92110638501714
 20
5.499999652471377
 42
0.0
 97
        0
 92
        7
 72
     1
 73
     1
 93
        8
 10
34.52110638501716
 20
11.3624996524714
 42
0.4142135623730871
 10
34.25860638501717
 20
11.62499965247139
 42
0.0
 10
33.38360638501717
 20
11.62499965247139
 42
0.4142135623731507
 10
33.12110638501712
 20
11.3624996524714
 42
0.0
 10
33.12110638501712
 20
3.837499652471384
 42
0.4142135623730891
 10
33.38360638501711
 20
3.57499965247139
 42
0.0
 10
34.25860638501717
 20
3.57499965247139
 42
0.4142135623730891
 10
34.52110638501716
 20
3.837499652471384
 42
0.0
 97
        0
 75
     0
 76
     1
 52
0.0
 41
0.1
 77
     0
 78
     2
 53
45.0
 43
-450.4711518597129
 44
-6.600000347528578
 45
-0.2245064030267288
 46
0.2245064030267288
 79
     0
 53
135.0
 43
-450.4711518597129
 44
-6.600000347528578
 45
-0.2245064030267288
 46
-0.2245064030267288
 79
     0
 47
0.057451373970553
 98
        8
 10
8.039927789138232
 20
7.583586475414165
 10
11.20225781084616
 20
9.422030743696893
 10
12.5821842504564
 20
7.755940475506747
 10
15.45703029844514
 20
8.100648475692139
 10
20.91923631710494
 20
8.330454609462947
 10
23.44910075519135
 20
9.709287810674993
 10
28.27884329382675
 20
9.364578610018895
 10
33.91354011743795
 20
9.594384743789703
  0
LINE
  5
67B
330
1A
100
AcDbEntity
  8
ZUWAKU
100
AcDbLine
 10
12.47110638501715
 20
11.62499965247137
 30
0.0
 11
13.43360638501712
 21
11.62499965247139
 31
0.0
  0
LINE
  5
67C
330
1A
100
AcDbEntity
  8
ZUWAKU
100
AcDbLine
 10
13.43360638501712
 20
10.22499965247138
 30
0.0
 11
12.47110638501715
 21
10.22499965247138
 31
0.0
  0
LINE
  5
67D
330
1A
100
AcDbEntity
  8
ZUWAKU
100
AcDbLine
 10
12.47110638501715
 20
4.974999652471389
 30
0.0
 11
13.43360638501712
 21
4.974999652471389
 31
0.0
  0
LINE
  5
67E
330
1A
100
AcDbEntity
  8
ZUWAKU
100
AcDbLine
 10
13.43360638501712
 20
3.57499965247139
 30
0.0
 11
12.47110638501715
 21
3.57499965247139
 31
0.0
  0
CIRCLE
  5
67F
330
1A
100
AcDbEntity
  8
ZUWAKU
100
AcDbCircle
 10
12.99610638501712
 20
7.599999652471389
 30
0.0
 40
0.875
  0
ARC
  5
680
330
1A
100
AcDbEntity
  8
ZUWAKU
100
AcDbCircle
 10
7.746106385017128
 20
9.31739863979374
 30
0.0
 40
0.7
100
AcDbArc
 50
180.0000000000016
 51
224.9999999999988
  0
LINE
  5
681
330
1A
100
AcDbEntity
  8
ZUWAKU
100
AcDbLine
 10
11.77110638501716
 20
9.52499965247139
 30
0.0
 11
11.77110638501716
 21
5.674999652471392
 31
0.0
  0
LINE
  5
682
330
1A
100
AcDbEntity
  8
ZUWAKU
100
AcDbLine
 10
10.37110638501712
 20
5.674999652471392
 30
0.0
 11
10.37110638501712
 21
9.524999652471368
 31
0.0
  0
ARC
  5
683
330
1A
100
AcDbEntity
  8
ZUWAKU
100
AcDbCircle
 10
7.746106385017128
 20
9.31739863979374
 30
0.0
 40
2.099999999999999
100
AcDbArc
 50
180.0
 51
225.0
  0
ARC
  5
684
330
1A
100
AcDbEntity
  8
ZUWAKU
100
AcDbCircle
 10
7.921106385017139
 20
4.974999652471389
 30
0.0
 40
1.399999999999999
100
AcDbArc
 50
270.0
 51
0.0
  0
ARC
  5
685
330
1A
100
AcDbEntity
  8
ZUWAKU
100
AcDbCircle
 10
12.47110638501715
 20
5.674999652471392
 30
0.0
 40
2.099999999999999
100
AcDbArc
 50
180.0
 51
270.0
  0
ARC
  5
686
330
1A
100
AcDbEntity
  8
ZUWAKU
100
AcDbCircle
 10
7.221106385017151
 20
5.882600665149041
 30
0.0
 40
2.099999999999999
100
AcDbArc
 50
0.0
 51
45.0
  0
LINE
  5
687
330
1A
100
AcDbEntity
  8
ZUWAKU
100
AcDbLine
 10
8.706030625508901
 20
7.367524905640802
 30
0.0
 11
7.251131638186564
 21
8.82242389296314
 31
0.0
  0
LINE
  5
688
330
1A
100
AcDbEntity
  8
ZUWAKU
100
AcDbLine
 10
7.921106385017139
 20
5.237499652471392
 30
0.0
 11
7.921106385017139
 21
5.882600665149062
 31
0.0
  0
ARC
  5
689
330
1A
100
AcDbEntity
  8
ZUWAKU
100
AcDbCircle
 10
7.658606385017151
 20
5.237499652471392
 30
0.0
 40
0.2625
100
AcDbArc
 50
270.0
 51
0.0
  0
ARC
  5
68A
330
1A
100
AcDbEntity
  8
ZUWAKU
100
AcDbCircle
 10
7.221106385017151
 20
5.882600665149062
 30
0.0
 40
0.7
100
AcDbArc
 50
0.0
 51
45.0
  0
LINE
  5
68B
330
1A
100
AcDbEntity
  8
ZUWAKU
100
AcDbLine
 10
5.908606385017151
 20
3.83749965247139
 30
0.0
 11
5.908606385017151
 21
4.71249965247139
 31
0.0
  0
ARC
  5
68C
330
1A
100
AcDbEntity
  8
ZUWAKU
100
AcDbCircle
 10
6.171106385017139
 20
3.83749965247139
 30
0.0
 40
0.2625
100
AcDbArc
 50
180.0
 51
270.0
  0
ARC
  5
68D
330
1A
100
AcDbEntity
  8
ZUWAKU
100
AcDbCircle
 10
6.171106385017139
 20
4.71249965247139
 30
0.0
 40
0.2625
100
AcDbArc
 50
90.0
 51
180.0
  0
LINE
  5
68E
330
1A
100
AcDbEntity
  8
ZUWAKU
100
AcDbLine
 10
6.171106385017139
 20
3.57499965247139
 30
0.0
 11
7.921106385017139
 21
3.57499965247139
 31
0.0
  0
LINE
  5
68F
330
1A
100
AcDbEntity
  8
ZUWAKU
100
AcDbLine
 10
6.171106385017139
 20
4.974999652471389
 30
0.0
 11
7.658606385017151
 21
4.974999652471389
 31
0.0
  0
LINE
  5
690
330
1A
100
AcDbEntity
  8
ZUWAKU
100
AcDbLine
 10
6.261182144525378
 20
7.832474399301979
 30
0.0
 11
7.716081131847715
 21
6.377575411979648
 31
0.0
  0
LINE
  5
691
330
1A
100
AcDbEntity
  8
ZUWAKU
100
AcDbLine
 10
9.321106385017174
 20
4.974999652471389
 30
0.0
 11
9.321106385017174
 21
5.882600665149062
 31
0.0
  0
ARC
  5
692
330
1A
100
AcDbEntity
  8
ZUWAKU
100
AcDbCircle
 10
12.47110638501715
 20
5.674999652471392
 30
0.0
 40
0.7
100
AcDbArc
 50
180.0
 51
270.0
  0
ARC
  5
693
330
1A
100
AcDbEntity
  8
ZUWAKU
100
AcDbCircle
 10
8.796106385017139
 20
11.36249965247138
 30
0.0
 40
0.2625
100
AcDbArc
 50
0.0
 51
90.0
  0
ARC
  5
694
330
1A
100
AcDbEntity
  8
ZUWAKU
100
AcDbCircle
 10
8.796106385017139
 20
10.48749965247138
 30
0.0
 40
0.2625
100
AcDbArc
 50
270.0
 51
0.0
  0
LINE
  5
695
330
1A
100
AcDbEntity
  8
ZUWAKU
100
AcDbLine
 10
7.046106385017139
 20
11.62499965247139
 30
0.0
 11
8.796106385017139
 21
11.62499965247139
 31
0.0
  0
ARC
  5
696
330
1A
100
AcDbEntity
  8
ZUWAKU
100
AcDbCircle
 10
7.308606385017128
 20
9.96249965247139
 30
0.0
 40
0.2625
100
AcDbArc
 50
90.0
 51
180.0
  0
LINE
  5
697
330
1A
100
AcDbEntity
  8
ZUWAKU
100
AcDbLine
 10
7.046106385017139
 20
9.96249965247139
 30
0.0
 11
7.046106385017139
 21
9.317398639793719
 31
0.0
  0
LINE
  5
698
330
1A
100
AcDbEntity
  8
ZUWAKU
100
AcDbLine
 10
8.796106385017139
 20
10.22499965247138
 30
0.0
 11
7.308606385017128
 21
10.22499965247138
 31
0.0
  0
LINE
  5
699
330
1A
100
AcDbEntity
  8
ZUWAKU
100
AcDbLine
 10
5.646106385017162
 20
10.22499965247138
 30
0.0
 11
5.646106385017162
 21
9.317398639793719
 31
0.0
  0
ARC
  5
69A
330
1A
100
AcDbEntity
  8
ZUWAKU
100
AcDbCircle
 10
7.046106385017139
 20
10.22499965247138
 30
0.0
 40
1.399999999999999
100
AcDbArc
 50
90.0
 51
180.0
  0
LINE
  5
69B
330
1A
100
AcDbEntity
  8
ZUWAKU
100
AcDbLine
 10
9.058606385017128
 20
11.36249965247138
 30
0.0
 11
9.058606385017128
 21
10.48749965247138
 31
0.0
  0
ARC
  5
69C
330
1A
100
AcDbEntity
  8
ZUWAKU
100
AcDbCircle
 10
12.47110638501715
 20
9.52499965247139
 30
0.0
 40
0.7
100
AcDbArc
 50
90.0
 51
180.0
  0
ARC
  5
69D
330
1A
100
AcDbEntity
  8
ZUWAKU
100
AcDbCircle
 10
12.47110638501715
 20
9.524999652471368
 30
0.0
 40
2.099999999999999
100
AcDbArc
 50
90.0
 51
180.0
  0
LINE
  5
69E
330
1A
100
AcDbEntity
  8
ZUWAKU
100
AcDbLine
 10
39.66331508162068
 20
14.99999965247138
 30
0.0
 11
39.66331508162079
 21
0.399999652471422
 31
0.0
  0
LINE
  5
69F
330
1A
100
AcDbEntity
  8
ZUWAKU
100
AcDbLine
 10
39.7633150816207
 20
14.99999965247138
 30
0.0
 11
39.76331508162081
 21
0.399999652471422
 31
0.0
  0
LINE
  5
6A0
330
1A
100
AcDbEntity
  8
ZUWAKU
100
AcDbLine
 10
39.56331508162077
 20
14.99999965247138
 30
0.0
 11
39.56331508162077
 21
0.399999652471422
 31
0.0
  0
LINE
  5
6A1
330
1A
100
AcDbEntity
  8
ZUWAKU
100
AcDbLine
 10
32.07110638501717
 20
4.974999652471389
 30
0.0
 11
32.07110638501717
 21
11.36249965247138
 31
0.0
  0
LINE
  5
6A2
330
1A
100
AcDbEntity
  8
ZUWAKU
100
AcDbLine
 10
30.67110638501714
 20
11.36249965247138
 30
0.0
 11
30.67110638501714
 21
5.499999652471387
 31
0.0
  0
LINE
  5
6A3
330
1A
100
AcDbEntity
  8
ZUWAKU
100
AcDbLine
 10
34.52110638501716
 20
3.83749965247139
 30
0.0
 11
34.52110638501716
 21
11.36249965247138
 31
0.0
  0
LINE
  5
6A4
330
1A
100
AcDbEntity
  8
ZUWAKU
100
AcDbLine
 10
33.12110638501712
 20
11.36249965247138
 30
0.0
 11
33.12110638501712
 21
3.83749965247139
 31
0.0
  0
ARC
  5
6A5
330
1A
100
AcDbEntity
  8
ZUWAKU
100
AcDbCircle
 10
24.89610638501716
 20
9.31739863979374
 30
0.0
 40
0.7
100
AcDbArc
 50
180.0000000000016
 51
224.9999999999988
  0
ARC
  5
6A6
330
1A
100
AcDbEntity
  8
ZUWAKU
100
AcDbCircle
 10
24.89610638501716
 20
9.31739863979374
 30
0.0
 40
2.099999999999999
100
AcDbArc
 50
180.0
 51
225.0
  0
LINE
  5
6A7
330
1A
100
AcDbEntity
  8
ZUWAKU
100
AcDbLine
 10
18.65742962610613
 20
9.602523249253103
 30
0.0
 11
18.02505375343821
 21
7.599999652471399
 31
0.0
  0
LINE
  5
6A8
330
1A
100
AcDbEntity
  8
ZUWAKU
100
AcDbLine
 10
20.34610638501715
 20
11.36249965247138
 30
0.0
 11
20.34610638501715
 21
3.83749965247139
 31
0.0
  0
LINE
  5
6A9
330
1A
100
AcDbEntity
  8
ZUWAKU
100
AcDbLine
 10
21.74610638501712
 20
3.83749965247139
 30
0.0
 11
21.74610638501712
 21
11.36249965247138
 31
0.0
  0
LINE
  5
6AA
330
1A
100
AcDbEntity
  8
ZUWAKU
100
AcDbLine
 10
27.52110638501716
 20
11.36249965247138
 30
0.0
 11
27.52110638501716
 21
4.974999652471389
 31
0.0
  0
LINE
  5
6AB
330
1A
100
AcDbEntity
  8
ZUWAKU
100
AcDbLine
 10
28.92110638501714
 20
5.499999652471387
 30
0.0
 11
28.92110638501714
 21
11.36249965247138
 31
0.0
  0
LINE
  5
6AC
330
1A
100
AcDbEntity
  8
ZUWAKU
100
AcDbLine
 10
16.32110638501717
 20
8.562499652471391
 30
0.0
 11
16.32110638501717
 21
11.36249965247138
 31
0.0
  0
LINE
  5
6AD
330
1A
100
AcDbEntity
  8
ZUWAKU
100
AcDbLine
 10
14.92110638501713
 20
11.36249965247138
 30
0.0
 11
14.92110638501713
 21
3.83749965247139
 31
0.0
  0
LINE
  5
6AE
330
1A
100
AcDbEntity
  8
ZUWAKU
100
AcDbLine
 10
17.83817385367507
 20
11.44154663655487
 30
0.0
 11
16.90403891635918
 21
8.483452668387904
 31
0.0
  0
LINE
  5
6AF
330
1A
100
AcDbEntity
  8
ZUWAKU
100
AcDbLine
 10
30.14610638501716
 20
4.974999652471389
 30
0.0
 11
29.44610638501717
 21
4.974999652471389
 31
0.0
  0
LINE
  5
6B0
330
1A
100
AcDbEntity
  8
ZUWAKU
100
AcDbLine
 10
28.92110638501714
 20
3.57499965247139
 30
0.0
 11
30.67110638501714
 21
3.57499965247139
 31
0.0
  0
LINE
  5
6B1
330
1A
100
AcDbEntity
  8
ZUWAKU
100
AcDbLine
 10
20.60860638501714
 20
3.57499965247139
 30
0.0
 11
21.48360638501713
 21
3.57499965247139
 31
0.0
  0
LINE
  5
6B2
330
1A
100
AcDbEntity
  8
ZUWAKU
100
AcDbLine
 10
17.83817385367507
 20
3.758452668387903
 30
0.0
 11
16.90403891635918
 21
6.716546636554873
 31
0.0
  0
ARC
  5
6B3
330
1A
100
AcDbEntity
  8
ZUWAKU
100
AcDbCircle
 10
16.6537234667615
 20
8.562499652471391
 30
0.0
 40
0.2625
100
AcDbArc
 50
270.0
 51
342.4744316262769
  0
LINE
  5
6B4
330
1A
100
AcDbEntity
  8
ZUWAKU
100
AcDbLine
 10
16.6537234667615
 20
8.299999652471388
 30
0.0
 11
16.58360638501716
 21
8.299999652471388
 31
0.0
  0
LINE
  5
6B5
330
1A
100
AcDbEntity
  8
ZUWAKU
100
AcDbLine
 10
16.58360638501716
 20
6.89999965247139
 30
0.0
 11
16.6537234667615
 21
6.89999965247139
 31
0.0
  0
ARC
  5
6B6
330
1A
100
AcDbEntity
  8
ZUWAKU
100
AcDbCircle
 10
16.58360638501716
 20
8.562499652471391
 30
0.0
 40
0.2625
100
AcDbArc
 50
180.0
 51
270.0
  0
LINE
  5
6B7
330
1A
100
AcDbEntity
  8
ZUWAKU
100
AcDbLine
 10
15.18360638501713
 20
3.57499965247139
 30
0.0
 11
16.05860638501712
 21
3.57499965247139
 31
0.0
  0
ARC
  5
6B8
330
1A
100
AcDbEntity
  8
ZUWAKU
100
AcDbCircle
 10
16.05860638501712
 20
3.83749965247139
 30
0.0
 40
0.2625
100
AcDbArc
 50
270.0
 51
0.0
  0
LINE
  5
6B9
330
1A
100
AcDbEntity
  8
ZUWAKU
100
AcDbLine
 10
16.32110638501717
 20
3.83749965247139
 30
0.0
 11
16.32110638501717
 21
6.63749965247139
 31
0.0
  0
LINE
  5
6BA
330
1A
100
AcDbEntity
  8
ZUWAKU
100
AcDbLine
 10
13.69610638501717
 20
4.71249965247139
 30
0.0
 11
13.69610638501717
 21
3.83749965247139
 31
0.0
  0
ARC
  5
6BB
330
1A
100
AcDbEntity
  8
ZUWAKU
100
AcDbCircle
 10
13.43360638501712
 20
3.83749965247139
 30
0.0
 40
0.2625
100
AcDbArc
 50
270.0
 51
0.0
  0
ARC
  5
6BC
330
1A
100
AcDbEntity
  8
ZUWAKU
100
AcDbCircle
 10
13.43360638501712
 20
4.71249965247139
 30
0.0
 40
0.2625
100
AcDbArc
 50
0.0
 51
90.0
  0
ARC
  5
6BD
330
1A
100
AcDbEntity
  8
ZUWAKU
100
AcDbCircle
 10
15.18360638501713
 20
3.83749965247139
 30
0.0
 40
0.2625
100
AcDbArc
 50
180.0
 51
270.0
  0
ARC
  5
6BE
330
1A
100
AcDbEntity
  8
ZUWAKU
100
AcDbCircle
 10
16.6537234667615
 20
6.63749965247139
 30
0.0
 40
0.2625
100
AcDbArc
 50
17.52556837372303
 51
90.0
  0
ARC
  5
6BF
330
1A
100
AcDbEntity
  8
ZUWAKU
100
AcDbCircle
 10
16.58360638501716
 20
6.63749965247139
 30
0.0
 40
0.2625
100
AcDbArc
 50
90.0
 51
180.0
  0
ARC
  5
6C0
330
1A
100
AcDbEntity
  8
ZUWAKU
100
AcDbCircle
 10
20.60860638501714
 20
3.83749965247139
 30
0.0
 40
0.2625
100
AcDbArc
 50
180.0
 51
270.0
  0
LINE
  5
6C1
330
1A
100
AcDbEntity
  8
ZUWAKU
100
AcDbLine
 10
18.08848930327281
 20
3.57499965247139
 30
0.0
 11
18.9379339930773
 21
3.57499965247139
 31
0.0
  0
ARC
  5
6C2
330
1A
100
AcDbEntity
  8
ZUWAKU
100
AcDbCircle
 10
18.9379339930773
 20
3.83749965247139
 30
0.0
 40
0.2625
100
AcDbArc
 50
270.0
 51
17.52556837372303
  0
LINE
  5
6C3
330
1A
100
AcDbEntity
  8
ZUWAKU
100
AcDbLine
 10
19.18824944267504
 20
3.916546636554876
 30
0.0
 11
18.02505375343821
 21
7.599999652471399
 31
0.0
  0
ARC
  5
6C4
330
1A
100
AcDbEntity
  8
ZUWAKU
100
AcDbCircle
 10
18.08848930327281
 20
3.83749965247139
 30
0.0
 40
0.2625
100
AcDbArc
 50
197.525568373723
 51
270.0
  0
ARC
  5
6C5
330
1A
100
AcDbEntity
  8
ZUWAKU
100
AcDbCircle
 10
28.92110638501714
 20
4.974999652471389
 30
0.0
 40
1.399999999999999
100
AcDbArc
 50
180.0
 51
270.0
  0
ARC
  5
6C6
330
1A
100
AcDbEntity
  8
ZUWAKU
100
AcDbCircle
 10
25.07110638501717
 20
4.974999652471389
 30
0.0
 40
1.399999999999999
100
AcDbArc
 50
270.0
 51
0.0
  0
LINE
  5
6C7
330
1A
100
AcDbEntity
  8
ZUWAKU
100
AcDbLine
 10
25.85603062550893
 20
7.367524905640802
 30
0.0
 11
24.40113163818654
 21
8.82242389296314
 31
0.0
  0
LINE
  5
6C8
330
1A
100
AcDbEntity
  8
ZUWAKU
100
AcDbLine
 10
25.07110638501717
 20
5.237499652471392
 30
0.0
 11
25.07110638501717
 21
5.882600665149062
 31
0.0
  0
ARC
  5
6C9
330
1A
100
AcDbEntity
  8
ZUWAKU
100
AcDbCircle
 10
24.37110638501712
 20
5.882600665149062
 30
0.0
 40
0.7
100
AcDbArc
 50
0.0
 51
45.0
  0
ARC
  5
6CA
330
1A
100
AcDbEntity
  8
ZUWAKU
100
AcDbCircle
 10
24.80860638501713
 20
5.237499652471392
 30
0.0
 40
0.2625
100
AcDbArc
 50
270.0
 51
0.0
  0
LINE
  5
6CB
330
1A
100
AcDbEntity
  8
ZUWAKU
100
AcDbLine
 10
23.05860638501712
 20
3.83749965247139
 30
0.0
 11
23.05860638501712
 21
4.71249965247139
 31
0.0
  0
ARC
  5
6CC
330
1A
100
AcDbEntity
  8
ZUWAKU
100
AcDbCircle
 10
23.32110638501717
 20
3.83749965247139
 30
0.0
 40
0.2625
100
AcDbArc
 50
180.0
 51
270.0
  0
ARC
  5
6CD
330
1A
100
AcDbEntity
  8
ZUWAKU
100
AcDbCircle
 10
21.48360638501713
 20
3.83749965247139
 30
0.0
 40
0.2625
100
AcDbArc
 50
270.0
 51
0.0
  0
ARC
  5
6CE
330
1A
100
AcDbEntity
  8
ZUWAKU
100
AcDbCircle
 10
23.32110638501717
 20
4.71249965247139
 30
0.0
 40
0.2625
100
AcDbArc
 50
90.0
 51
180.0
  0
LINE
  5
6CF
330
1A
100
AcDbEntity
  8
ZUWAKU
100
AcDbLine
 10
23.32110638501717
 20
4.974999652471389
 30
0.0
 11
24.80860638501713
 21
4.974999652471389
 31
0.0
  0
LINE
  5
6D0
330
1A
100
AcDbEntity
  8
ZUWAKU
100
AcDbLine
 10
23.32110638501717
 20
3.57499965247139
 30
0.0
 11
25.07110638501717
 21
3.57499965247139
 31
0.0
  0
LINE
  5
6D1
330
1A
100
AcDbEntity
  8
ZUWAKU
100
AcDbLine
 10
23.41118214452541
 20
7.832474399301979
 30
0.0
 11
24.86608113184775
 21
6.377575411979648
 31
0.0
  0
LINE
  5
6D2
330
1A
100
AcDbEntity
  8
ZUWAKU
100
AcDbLine
 10
26.47110638501715
 20
4.974999652471389
 30
0.0
 11
26.47110638501715
 21
5.882600665149062
 31
0.0
  0
ARC
  5
6D3
330
1A
100
AcDbEntity
  8
ZUWAKU
100
AcDbCircle
 10
24.37110638501712
 20
5.882600665149041
 30
0.0
 40
2.099999999999999
100
AcDbArc
 50
0.0
 51
45.0
  0
ARC
  5
6D4
330
1A
100
AcDbEntity
  8
ZUWAKU
100
AcDbCircle
 10
29.44610638501717
 20
5.499999652471387
 30
0.0
 40
0.525
100
AcDbArc
 50
180.0
 51
270.0
  0
ARC
  5
6D5
330
1A
100
AcDbEntity
  8
ZUWAKU
100
AcDbCircle
 10
30.67110638501714
 20
4.974999652471389
 30
0.0
 40
1.399999999999999
100
AcDbArc
 50
270.0
 51
0.0
  0
LINE
  5
6D6
330
1A
100
AcDbEntity
  8
ZUWAKU
100
AcDbLine
 10
33.38360638501717
 20
3.57499965247139
 30
0.0
 11
34.25860638501717
 21
3.57499965247139
 31
0.0
  0
ARC
  5
6D7
330
1A
100
AcDbEntity
  8
ZUWAKU
100
AcDbCircle
 10
33.38360638501717
 20
3.83749965247139
 30
0.0
 40
0.2625
100
AcDbArc
 50
180.0
 51
270.0
  0
ARC
  5
6D8
330
1A
100
AcDbEntity
  8
ZUWAKU
100
AcDbCircle
 10
30.14610638501716
 20
5.499999652471387
 30
0.0
 40
0.525
100
AcDbArc
 50
270.0
 51
0.0
  0
ARC
  5
6D9
330
1A
100
AcDbEntity
  8
ZUWAKU
100
AcDbCircle
 10
34.25860638501717
 20
3.83749965247139
 30
0.0
 40
0.2625
100
AcDbArc
 50
270.0
 51
0.0
  0
LINE
  5
6DA
330
1A
100
AcDbEntity
  8
ZUWAKU
100
AcDbLine
 10
21.48360638501713
 20
11.62499965247139
 30
0.0
 11
20.60860638501714
 21
11.62499965247139
 31
0.0
  0
ARC
  5
6DB
330
1A
100
AcDbEntity
  8
ZUWAKU
100
AcDbCircle
 10
16.05860638501712
 20
11.36249965247138
 30
0.0
 40
0.2625
100
AcDbArc
 50
0.0
 51
90.0
  0
LINE
  5
6DC
330
1A
100
AcDbEntity
  8
ZUWAKU
100
AcDbLine
 10
16.05860638501712
 20
11.62499965247139
 30
0.0
 11
15.18360638501713
 21
11.62499965247139
 31
0.0
  0
ARC
  5
6DD
330
1A
100
AcDbEntity
  8
ZUWAKU
100
AcDbCircle
 10
13.43360638501712
 20
11.36249965247138
 30
0.0
 40
0.2625
100
AcDbArc
 50
0.0
 51
90.0
  0
ARC
  5
6DE
330
1A
100
AcDbEntity
  8
ZUWAKU
100
AcDbCircle
 10
15.18360638501713
 20
11.36249965247138
 30
0.0
 40
0.2625
100
AcDbArc
 50
90.0
 51
180.0
  0
ARC
  5
6DF
330
1A
100
AcDbEntity
  8
ZUWAKU
100
AcDbCircle
 10
13.43360638501712
 20
10.48749965247138
 30
0.0
 40
0.2625
100
AcDbArc
 50
270.0
 51
0.0
  0
LINE
  5
6E0
330
1A
100
AcDbEntity
  8
ZUWAKU
100
AcDbLine
 10
13.69610638501717
 20
11.36249965247138
 30
0.0
 11
13.69610638501717
 21
10.48749965247138
 31
0.0
  0
ARC
  5
6E1
330
1A
100
AcDbEntity
  8
ZUWAKU
100
AcDbCircle
 10
20.60860638501714
 20
11.36249965247138
 30
0.0
 40
0.2625
100
AcDbArc
 50
90.0
 51
180.0
  0
LINE
  5
6E2
330
1A
100
AcDbEntity
  8
ZUWAKU
100
AcDbLine
 10
18.08848930327281
 20
11.62499965247139
 30
0.0
 11
18.9379339930773
 21
11.62499965247139
 31
0.0
  0
ARC
  5
6E3
330
1A
100
AcDbEntity
  8
ZUWAKU
100
AcDbCircle
 10
18.9379339930773
 20
11.36249965247138
 30
0.0
 40
0.2625
100
AcDbArc
 50
342.4744316262769
 51
90.0
  0
LINE
  5
6E4
330
1A
100
AcDbEntity
  8
ZUWAKU
100
AcDbLine
 10
19.18824944267504
 20
11.2834526683879
 30
0.0
 11
18.65742962610613
 21
9.602523249253103
 31
0.0
  0
ARC
  5
6E5
330
1A
100
AcDbEntity
  8
ZUWAKU
100
AcDbCircle
 10
18.08848930327281
 20
11.36249965247138
 30
0.0
 40
0.2625
100
AcDbArc
 50
90.0
 51
162.4744316262769
  0
LINE
  5
6E6
330
1A
100
AcDbEntity
  8
ZUWAKU
100
AcDbLine
 10
24.19610638501717
 20
11.62499965247139
 30
0.0
 11
25.94610638501717
 21
11.62499965247139
 31
0.0
  0
LINE
  5
6E7
330
1A
100
AcDbEntity
  8
ZUWAKU
100
AcDbLine
 10
25.94610638501717
 20
10.22499965247138
 30
0.0
 11
24.45860638501716
 21
10.22499965247138
 31
0.0
  0
ARC
  5
6E8
330
1A
100
AcDbEntity
  8
ZUWAKU
100
AcDbCircle
 10
24.45860638501716
 20
9.96249965247139
 30
0.0
 40
0.2625
100
AcDbArc
 50
90.0
 51
180.0
  0
LINE
  5
6E9
330
1A
100
AcDbEntity
  8
ZUWAKU
100
AcDbLine
 10
24.19610638501717
 20
9.96249965247139
 30
0.0
 11
24.19610638501717
 21
9.317398639793719
 31
0.0
  0
ARC
  5
6EA
330
1A
100
AcDbEntity
  8
ZUWAKU
100
AcDbCircle
 10
21.48360638501713
 20
11.36249965247138
 30
0.0
 40
0.2625
100
AcDbArc
 50
0.0
 51
90.0
  0
LINE
  5
6EB
330
1A
100
AcDbEntity
  8
ZUWAKU
100
AcDbLine
 10
22.79610638501714
 20
10.22499965247138
 30
0.0
 11
22.79610638501714
 21
9.317398639793719
 31
0.0
  0
ARC
  5
6EC
330
1A
100
AcDbEntity
  8
ZUWAKU
100
AcDbCircle
 10
24.19610638501717
 20
10.22499965247138
 30
0.0
 40
1.399999999999999
100
AcDbArc
 50
90.0
 51
180.0
  0
ARC
  5
6ED
330
1A
100
AcDbEntity
  8
ZUWAKU
100
AcDbCircle
 10
28.65860638501715
 20
11.36249965247138
 30
0.0
 40
0.2625
100
AcDbArc
 50
0.0
 51
90.0
  0
ARC
  5
6EE
330
1A
100
AcDbEntity
  8
ZUWAKU
100
AcDbCircle
 10
27.78360638501715
 20
11.36249965247138
 30
0.0
 40
0.2625
100
AcDbArc
 50
90.0
 51
180.0
  0
LINE
  5
6EF
330
1A
100
AcDbEntity
  8
ZUWAKU
100
AcDbLine
 10
28.65860638501715
 20
11.62499965247139
 30
0.0
 11
27.78360638501715
 21
11.62499965247139
 31
0.0
  0
ARC
  5
6F0
330
1A
100
AcDbEntity
  8
ZUWAKU
100
AcDbCircle
 10
25.94610638501717
 20
11.36249965247138
 30
0.0
 40
0.2625
100
AcDbArc
 50
0.0
 51
90.0
  0
ARC
  5
6F1
330
1A
100
AcDbEntity
  8
ZUWAKU
100
AcDbCircle
 10
25.94610638501717
 20
10.48749965247138
 30
0.0
 40
0.2625
100
AcDbArc
 50
270.0
 51
0.0
  0
LINE
  5
6F2
330
1A
100
AcDbEntity
  8
ZUWAKU
100
AcDbLine
 10
26.20860638501716
 20
11.36249965247138
 30
0.0
 11
26.20860638501716
 21
10.48749965247138
 31
0.0
  0
LINE
  5
6F3
330
1A
100
AcDbEntity
  8
ZUWAKU
100
AcDbLine
 10
34.25860638501717
 20
11.62499965247139
 30
0.0
 11
33.38360638501717
 21
11.62499965247139
 31
0.0
  0
ARC
  5
6F4
330
1A
100
AcDbEntity
  8
ZUWAKU
100
AcDbCircle
 10
33.38360638501717
 20
11.36249965247138
 30
0.0
 40
0.2625
100
AcDbArc
 50
90.0
 51
180.0
  0
ARC
  5
6F5
330
1A
100
AcDbEntity
  8
ZUWAKU
100
AcDbCircle
 10
31.80860638501712
 20
11.36249965247138
 30
0.0
 40
0.2625
100
AcDbArc
 50
0.0
 51
90.0
  0
LINE
  5
6F6
330
1A
100
AcDbEntity
  8
ZUWAKU
100
AcDbLine
 10
31.80860638501712
 20
11.62499965247139
 30
0.0
 11
30.93360638501712
 21
11.62499965247139
 31
0.0
  0
ARC
  5
6F7
330
1A
100
AcDbEntity
  8
ZUWAKU
100
AcDbCircle
 10
30.93360638501712
 20
11.36249965247138
 30
0.0
 40
0.2625
100
AcDbArc
 50
90.0
 51
180.0
  0
ARC
  5
6F8
330
1A
100
AcDbEntity
  8
ZUWAKU
100
AcDbCircle
 10
34.25860638501717
 20
11.36249965247138
 30
0.0
 40
0.2625
100
AcDbArc
 50
0.0
 51
90.0
  0
TEXT
  5
6F9
330
1A
100
AcDbEntity
  8
MOJI
100
AcDbText
 10
119.9136016480521
 20
1.602460181175098
 30
0.0
 40
2.799999999999999
  1
Ｘ７０Ｕ
 41
0.9
  7
ｽﾀｲﾙ1
100
AcDbText
  0
TEXT
  5
6FA
330
1A
100
AcDbEntity
  8
MOJI
100
AcDbText
 10
119.9136016480521
 20
9.002460181175081
 30
0.0
 40
2.799999999999999
  1
止り
 41
0.9
  7
ｽﾀｲﾙ1
100
AcDbText
  0
LINE
  5
6FB
330
1A
100
AcDbEntity
  8
ZUWAKU
100
AcDbLine
 10
104.1233009526605
 20
14.99999965247138
 30
0.0
 11
104.1233009526605
 21
0.399999652471422
 31
0.0
  0
LINE
  5
6FC
330
1A
100
AcDbEntity
  8
ZUWAKU
100
AcDbLine
 10
104.3233009526604
 20
14.99999965247138
 30
0.0
 11
104.3233009526605
 21
0.399999652471422
 31
0.0
  0
LINE
  5
6FD
330
1A
100
AcDbEntity
  8
ZUWAKU
100
AcDbLine
 10
104.2233009526604
 20
14.99999965247138
 30
0.0
 11
104.2233009526605
 21
0.399999652471422
 31
0.0
  0
TEXT
  5
6FE
330
1A
100
AcDbEntity
  8
ZUWAKU
100
AcDbText
 10
104.8620234637653
 20
4.827677921664196
 30
0.0
 40
2.0
  1
サイズ
 41
0.9
  7
ｽﾀｲﾙ1
100
AcDbText
  0
TEXT
  5
6FF
330
1A
100
AcDbEntity
  8
ZUWAKU
100
AcDbText
 10
104.8620234637652
 20
12.02767792166417
 30
0.0
 40
2.0
  1
品名
 41
0.9
  7
ｽﾀｲﾙ1
100
AcDbText
  0
LINE
  5
700
330
1A
100
AcDbEntity
  8
ZUWAKU
100
AcDbLine
 10
324.4086015627286
 20
7.599999652471403
 30
0.0
 11
348.6245055818972
 21
7.599999652471405
 31
0.0
  0
LINE
  5
701
330
1A
100
AcDbEntity
  8
ZUWAKU
100
AcDbLine
 10
324.4086015627288
 20
7.699999652471406
 30
0.0
 11
348.6245055818972
 21
7.699999652471404
 31
0.0
  0
LINE
  5
702
330
1A
100
AcDbEntity
  8
ZUWAKU
100
AcDbLine
 10
324.4086015627286
 20
7.799999652471404
 30
0.0
 11
348.6245055818972
 21
7.799999652471404
 31
0.0
  0
TEXT
  5
703
330
1A
100
AcDbEntity
  8
ZUWAKU
100
AcDbText
 10
329.1019691512778
 20
9.002460181175081
 30
0.0
 40
2.799999999999999
  1
　　．　　．　　
 41
0.9
  7
ｽﾀｲﾙ1
100
AcDbText
  0
LINE
  5
704
330
1A
100
AcDbEntity
  8
ZUWAKU
100
AcDbLine
 10
252.599590056697
 20
7.599999652471407
 30
0.0
 11
276.2634781906827
 21
7.599999652471407
 31
0.0
  0
LINE
  5
705
330
1A
100
AcDbEntity
  8
ZUWAKU
100
AcDbLine
 10
252.599590056697
 20
7.699999652471404
 30
0.0
 11
276.2634781906827
 21
7.699999652471404
 31
0.0
  0
LINE
  5
706
330
1A
100
AcDbEntity
  8
ZUWAKU
100
AcDbLine
 10
252.599590056697
 20
7.799999652471404
 30
0.0
 11
276.2634781906827
 21
7.799999652471404
 31
0.0
  0
TEXT
  5
707
330
1A
100
AcDbEntity
  8
MOJI
100
AcDbText
 10
231.2836394686208
 20
5.97130851330138
 30
0.0
 40
2.799999999999999
  1
ＧＪ２９□
 41
0.9
  7
ｽﾀｲﾙ1
100
AcDbText
  0
LINE
  5
708
330
1A
100
AcDbEntity
  8
ZUWAKU
100
AcDbLine
 10
223.8121822931221
 20
14.99999965247138
 30
0.0
 11
223.8121822931223
 21
0.399999652471422
 31
0.0
  0
LINE
  5
709
330
1A
100
AcDbEntity
  8
ZUWAKU
100
AcDbLine
 10
223.9121822931222
 20
14.99999965247138
 30
0.0
 11
223.9121822931223
 21
0.399999652471422
 31
0.0
  0
LINE
  5
70A
330
1A
100
AcDbEntity
  8
ZUWAKU
100
AcDbLine
 10
223.7121822931222
 20
14.99999965247138
 30
0.0
 11
223.7121822931222
 21
0.399999652471422
 31
0.0
  0
TEXT
  5
70B
330
1A
100
AcDbEntity
  8
MOJI
100
AcDbText
 10
264.020454293783
 20
9.002460181175081
 30
0.0
 40
2.799999999999999
  1
Ａ３
 41
0.9
  7
ｽﾀｲﾙ1
100
AcDbText
  0
LINE
  5
70C
330
1A
100
AcDbEntity
  8
ZUWAKU
100
AcDbLine
 10
252.4995900566969
 20
14.99999965247138
 30
0.0
 11
252.4995900566971
 21
0.399999652471422
 31
0.0
  0
LINE
  5
70D
330
1A
100
AcDbEntity
  8
ZUWAKU
100
AcDbLine
 10
252.599590056697
 20
14.99999965247138
 30
0.0
 11
252.5995900566971
 21
0.399999652471422
 31
0.0
  0
LINE
  5
70E
330
1A
100
AcDbEntity
  8
ZUWAKU
100
AcDbLine
 10
252.399590056697
 20
14.99999965247138
 30
0.0
 11
252.399590056697
 21
0.399999652471422
 31
0.0
  0
TEXT
  5
70F
330
1A
100
AcDbEntity
  8
ZUWAKU
100
AcDbText
 10
231.3468811353801
 20
1.307035108041134
 30
0.0
 40
1.5
  1
□には色品番が入ります
 41
0.9
  7
ｽﾀｲﾙ1
100
AcDbText
  0
TEXT
  5
710
330
1A
100
AcDbEntity
  8
ZUWAKU
100
AcDbText
 10
253.3383125678019
 20
4.827677921664196
 30
0.0
 40
2.0
  1
縮尺
 41
0.9
  7
ｽﾀｲﾙ1
100
AcDbText
  0
TEXT
  5
711
330
1A
100
AcDbEntity
  8
MOJI
100
AcDbText
 10
264.020454293783
 20
1.602460181175098
 30
0.0
 40
2.799999999999999
  1
１/１
 41
0.9
  7
ｽﾀｲﾙ1
100
AcDbText
  0
TEXT
  5
712
330
1A
100
AcDbEntity
  8
ZUWAKU
100
AcDbText
 10
224.650904804227
 20
12.02767792166417
 30
0.0
 40
2.0
  1
品番
 41
0.9
  7
ｽﾀｲﾙ1
100
AcDbText
  0
TEXT
  5
713
330
1A
100
AcDbEntity
  8
ZUWAKU
100
AcDbText
 10
253.3383125678018
 20
12.02767792166417
 30
0.0
 40
2.0
  1
用紙
 41
0.9
  7
ｽﾀｲﾙ1
100
AcDbText
  0
LINE
  5
714
330
1A
100
AcDbEntity
  8
ZUWAKU
100
AcDbLine
 10
324.3086015627287
 20
14.99999965247138
 30
0.0
 11
324.3086015627288
 21
0.399999652471422
 31
0.0
  0
LINE
  5
715
330
1A
100
AcDbEntity
  8
ZUWAKU
100
AcDbLine
 10
324.4086015627288
 20
14.99999965247138
 30
0.0
 11
324.4086015627289
 21
0.399999652471422
 31
0.0
  0
LINE
  5
716
330
1A
100
AcDbEntity
  8
ZUWAKU
100
AcDbLine
 10
324.2086015627288
 20
14.99999965247138
 30
0.0
 11
324.2086015627288
 21
0.399999652471422
 31
0.0
  0
LINE
  5
717
330
1A
100
AcDbEntity
  8
ZUWAKU
100
AcDbLine
 10
276.3634781906826
 20
14.99999965247138
 30
0.0
 11
276.3634781906828
 21
0.399999652471422
 31
0.0
  0
LINE
  5
718
330
1A
100
AcDbEntity
  8
ZUWAKU
100
AcDbLine
 10
276.4634781906827
 20
14.99999965247138
 30
0.0
 11
276.4634781906828
 21
0.399999652471422
 31
0.0
  0
LINE
  5
719
330
1A
100
AcDbEntity
  8
ZUWAKU
100
AcDbLine
 10
276.2634781906827
 20
14.99999965247138
 30
0.0
 11
276.2634781906827
 21
0.399999652471422
 31
0.0
  0
TEXT
  5
71A
330
1A
100
AcDbEntity
  8
ZUWAKU
100
AcDbText
 10
325.1473240738336
 20
12.02767792166417
 30
0.0
 40
2.0
  1
DATE
 41
0.9
  7
ｽﾀｲﾙ1
100
AcDbText
  0
LINE
  5
71B
330
1A
100
AcDbEntity
  8
ZUWAKU
100
AcDbLine
 10
348.6245055818972
 20
14.99999965247138
 30
0.0
 11
348.6245055818972
 21
0.399999652471422
 31
0.0
  0
LINE
  5
71C
330
1A
100
AcDbEntity
  8
ZUWAKU
100
AcDbLine
 10
348.7245055818972
 20
14.99999965247138
 30
0.0
 11
348.7245055818972
 21
0.399999652471422
 31
0.0
  0
LINE
  5
71D
330
1A
100
AcDbEntity
  8
ZUWAKU
100
AcDbLine
 10
348.8245055818971
 20
14.99999965247138
 30
0.0
 11
348.8245055818972
 21
0.399999652471422
 31
0.0
  0
LINE
  5
71E
330
1A
100
AcDbEntity
  8
ZUWAKU
100
AcDbLine
 10
348.9245055818971
 20
14.99999965247138
 30
0.0
 11
348.9245055818972
 21
0.399999652471422
 31
0.0
  0
TEXT
  5
71F
330
1A
100
AcDbEntity
  8
ZUWAKU
100
AcDbText
 10
354.2640424037484
 20
8.776919320314789
 30
0.0
 40
3.0
  1
積水化学工業株式会社
 41
0.9
  7
ｽﾀｲﾙ1
100
AcDbText
  0
TEXT
  5
720
330
1A
100
AcDbEntity
  8
ZUWAKU
100
AcDbText
 10
354.2640424037484
 20
3.32441980939842
 30
0.0
 40
3.0
  1
建材事業部
 41
0.9
  7
ｽﾀｲﾙ1
100
AcDbText
  0
DIMENSION
  5
F25
330
1A
100
AcDbEntity
  8
SUNPOU
  6
CONTINUOUS
100
AcDbDimension
  2
*D2
 10
171.0501022619119
 20
183.8841519030446
 30
0.0
 11
193.550102261912
 21
186.3841519030446
 31
0.0
 70
    32
  3
STANDARD
100
AcDbAlignedDimension
 13
216.050102261912
 23
168.2878373020699
 33
0.0
 14
171.0501022619119
 24
170.2873373020699
 34
0.0
100
AcDbRotatedDimension
1001
ACAD
1000
DSTYLE
1002
{
1070
   140
1040
3.0
1070
    74
1070
     0
1070
   172
1070
     1
1070
    73
1070
     0
1070
   272
1070
     2
1070
    77
1070
     3
1070
   173
1070
     1
1070
   147
1040
1.0
1070
    42
1040
3.0
1070
    44
1040
1.5
1070
    43
1040
7.0
1070
   271
1070
     0
1070
   178
1070
     4
1070
   177
1070
     4
1070
   176
1070
     4
1070
   141
1040
150.0
1070
     7
1000
_OPEN
1070
     6
1000
_OPEN
1070
    41
1040
3.0
1002
}
  0
LINE
  5
F26
330
1A
100
AcDbEntity
  8
SEIHIN
  6
CONTINUOUS
 62
     3
 48
16.0
100
AcDbLine
 10
171.0501022619119
 20
169.2877373020697
 30
0.0
 11
215.0501022619118
 21
169.2878373020699
 31
0.0
  0
LINE
  5
F27
330
1A
100
AcDbEntity
  8
SEIHIN
  6
CONTINUOUS
 62
     3
 48
16.0
100
AcDbLine
 10
202.615002261912
 20
128.0140373020699
 30
0.0
 11
207.8617022619118
 21
154.0354373020698
 31
0.0
  0
LINE
  5
F28
330
1A
100
AcDbEntity
  8
SEIHIN
  6
CONTINUOUS
 62
     3
 48
16.0
100
AcDbLine
 10
215.0501022619118
 20
154.8377373020699
 30
0.0
 11
171.0501022619119
 21
154.8378373020699
 31
0.0
  0
LINE
  5
F29
330
1A
100
AcDbEntity
  8
SEIHIN
  6
CONTINUOUS
 62
     3
 48
16.0
100
AcDbLine
 10
171.0501022619119
 20
170.2873373020699
 30
0.0
 11
171.0500022619118
 21
116.8877373020698
 31
0.0
  0
LINE
  5
F2A
330
1A
100
AcDbEntity
  8
SEIHIN
  6
CONTINUOUS
 62
     3
 48
16.0
100
AcDbLine
 10
175.050002261912
 20
115.8877373020699
 30
0.0
 11
175.0501022619119
 21
154.8378373020699
 31
0.0
  0
LINE
  5
F2B
330
1A
100
AcDbEntity
  8
SEIHIN
  6
CONTINUOUS
 62
     3
 48
16.0
100
AcDbLine
 10
127.8185022619118
 20
132.0595373020699
 30
0.0
 11
132.7320022619118
 21
156.4285373020699
 31
0.0
  0
LINE
  5
F2C
330
1A
100
AcDbEntity
  8
SEIHIN
  6
CONTINUOUS
 62
     3
 48
16.0
100
AcDbLine
 10
129.3857022619118
 20
130.7253373020698
 30
0.0
 11
134.127502261912
 21
154.2426373020699
 31
0.0
  0
LINE
  5
F2D
330
1A
100
AcDbEntity
  8
SEIHIN
  6
CONTINUOUS
 62
     3
 48
16.0
100
AcDbLine
 10
130.422302261912
 20
129.7950373020698
 30
0.0
 11
135.672802261912
 21
155.8355373020698
 31
0.0
  0
LINE
  5
F2E
330
1A
100
AcDbEntity
  8
SEIHIN
  6
CONTINUOUS
 62
     3
 48
16.0
100
AcDbLine
 10
131.899402261912
 20
128.0141373020699
 30
0.0
 11
137.1461022619118
 21
154.0355373020699
 31
0.0
  0
LINE
  5
F2F
330
1A
100
AcDbEntity
  8
SEIHIN
  6
CONTINUOUS
 62
     3
 48
16.0
100
AcDbLine
 10
131.4093022619119
 20
128.1129373020699
 30
0.0
 11
136.636102261912
 21
154.0355373020699
 31
0.0
  0
LINE
  5
F30
330
1A
100
AcDbEntity
  8
SEIHIN
  6
CONTINUOUS
 62
     3
 48
16.0
100
AcDbLine
 10
42.71430226191194
 20
130.7253373020698
 30
0.0
 11
37.97250226191192
 21
154.2426373020699
 31
0.0
  0
LINE
  5
F31
330
1A
100
AcDbEntity
  8
SEIHIN
  6
CONTINUOUS
 62
     3
 48
16.0
100
AcDbLine
 10
40.690702261912
 20
128.1130373020699
 30
0.0
 11
35.46400226191201
 21
154.0356373020698
 31
0.0
  0
LINE
  5
F32
330
1A
100
AcDbEntity
  8
SEIHIN
  6
CONTINUOUS
 62
     3
 48
16.0
100
AcDbLine
 10
40.20060226191202
 20
128.0142373020698
 30
0.0
 11
34.95390226191199
 21
154.0356373020698
 31
0.0
  0
LINE
  5
F33
330
1A
100
AcDbEntity
  8
SEIHIN
  6
CONTINUOUS
 62
     3
 48
16.0
100
AcDbLine
 10
41.67770226191203
 20
129.7950373020698
 30
0.0
 11
36.42720226191193
 21
155.8356373020699
 31
0.0
  0
LINE
  5
F34
330
1A
100
AcDbEntity
  8
SEIHIN
  6
CONTINUOUS
 62
     3
 48
16.0
100
AcDbLine
 10
44.28150226191201
 20
132.0596373020698
 30
0.0
 11
39.36800226191201
 21
156.4285373020699
 31
0.0
  0
LINE
  5
F35
330
1A
100
AcDbEntity
  8
CENTER_L
  6
CENTER
 62
     1
 48
5.0
100
AcDbLine
 10
86.05000226191203
 20
107.5938373020699
 30
0.0
 11
86.05000226191203
 21
175.6063373020697
 31
0.0
  0
INSERT
  5
F36
330
1A
100
AcDbEntity
  8
0
100
AcDbBlockReference
  2
A$C1305
 10
28.86714317747811
 20
117.5756166650715
 30
0.0
  0
LINE
  5
F37
330
1A
100
AcDbEntity
  8
SEIHIN
  6
CONTINUOUS
 62
     3
 48
16.0
100
AcDbLine
 10
58.30000226191202
 20
118.8878373020699
 30
0.0
 11
86.050102261912
 21
118.8877373020698
 31
0.0
  0
LINE
  5
F38
330
1A
100
AcDbEntity
  8
SEIHIN
  6
CONTINUOUS
 62
     3
 48
16.0
100
AcDbLine
 10
60.10000226191204
 20
120.6878373020698
 30
0.0
 11
86.050102261912
 21
120.6877373020699
 31
0.0
  0
LINE
  5
F39
330
1A
100
AcDbEntity
  8
SEIHIN
  6
CONTINUOUS
 62
     3
 48
16.0
100
AcDbLine
 10
51.342202261912
 20
116.3878373020699
 30
0.0
 11
86.050102261912
 21
116.3877373020699
 31
0.0
  0
LINE
  5
F3A
330
1A
100
AcDbEntity
  8
SEIHIN
  6
CONTINUOUS
 62
     3
 48
16.0
100
AcDbLine
 10
51.34230226191204
 20
115.8878373020699
 30
0.0
 11
86.050102261912
 21
115.8877373020699
 31
0.0
  0
LINE
  5
F3B
330
1A
100
AcDbEntity
  8
SEIHIN
  6
CONTINUOUS
 62
     3
 48
16.0
100
AcDbLine
 10
53.13490226191203
 20
117.6878373020699
 30
0.0
 11
86.050102261912
 21
117.6877373020699
 31
0.0
  0
ARC
  5
F3C
330
1A
100
AcDbEntity
  8
SEIHIN
  6
CONTINUOUS
 62
     3
 48
16.0
100
AcDbCircle
 10
43.69459323342221
 20
130.9230475909469
 30
0.0
 40
1.000010107496205
100
AcDbArc
 50
191.3971331640819
 51
251.1381317234036
  0
ARC
  5
F3D
330
1A
100
AcDbEntity
  8
SEIHIN
  6
CONTINUOUS
 62
     3
 48
16.0
100
AcDbCircle
 10
38.45775057680208
 20
115.5927851688673
 30
0.0
 40
14.000024522028
100
AcDbArc
 50
11.90789856091324
 51
73.73875160829364
  0
ARC
  5
F3E
330
1A
100
AcDbEntity
  8
SEIHIN
  6
CONTINUOUS
 62
     3
 48
16.0
100
AcDbCircle
 10
36.63969413007544
 20
113.9157463642009
 30
0.0
 40
13.99998252356314
100
AcDbArc
 50
11.4283559638766
 51
72.37752216016551
  0
ARC
  5
F3F
330
1A
100
AcDbEntity
  8
SEIHIN
  6
CONTINUOUS
 62
     3
 48
16.0
100
AcDbCircle
 10
36.63972350420761
 20
113.915713629602
 30
0.0
 40
14.49997903707077
100
AcDbArc
 50
11.42860670226252
 51
72.37752309953588
  0
ARC
  5
F40
330
1A
100
AcDbEntity
  8
SEIHIN
  6
CONTINUOUS
 62
     3
 48
16.0
100
AcDbCircle
 10
41.18084176676717
 20
128.2117932704176
 30
0.0
 40
0.5000092366123169
100
AcDbArc
 50
191.4029776371533
 51
252.3817541966056
  0
ARC
  5
F41
330
1A
100
AcDbEntity
  8
SEIHIN
  6
CONTINUOUS
 62
     3
 48
16.0
100
AcDbCircle
 10
41.1809198941695
 20
128.2118176407257
 30
0.0
 40
1.000030324709332
100
AcDbArc
 50
191.3951491848851
 51
252.3736365331848
  0
ARC
  5
F42
330
1A
100
AcDbEntity
  8
SEIHIN
  6
CONTINUOUS
 62
     3
 48
16.0
100
AcDbCircle
 10
42.65799120220669
 20
129.9927493428468
 30
0.0
 40
1.00000846252622
100
AcDbArc
 50
191.3972545578806
 51
253.7405967803614
  0
LINE
  5
F43
330
1A
100
AcDbEntity
  8
SEIHIN
  6
CONTINUOUS
 62
     3
 48
16.0
100
AcDbLine
 10
57.30000226191203
 20
119.8878373020699
 30
0.0
 11
57.30000226191203
 21
127.1878373020698
 31
0.0
  0
LINE
  5
F44
330
1A
100
AcDbEntity
  8
SEIHIN
  6
CONTINUOUS
 62
     3
 48
16.0
100
AcDbLine
 10
59.10000226191204
 20
121.6878373020699
 30
0.0
 11
59.10000226191204
 21
128.9878373020699
 31
0.0
  0
ARC
  5
F45
330
1A
100
AcDbEntity
  8
SEIHIN
  6
CONTINUOUS
 62
     3
 48
16.0
100
AcDbCircle
 10
60.10000226191204
 20
121.6878373020698
 30
0.0
 40
1.000000000000028
100
AcDbArc
 50
179.9999999999983
 51
269.9999999999983
  0
ARC
  5
F46
330
1A
100
AcDbEntity
  8
SEIHIN
  6
CONTINUOUS
 62
     3
 48
16.0
100
AcDbCircle
 10
51.34227925598674
 20
116.8879561217156
 30
0.0
 40
1.000018819910481
100
AcDbArc
 50
191.4326016846468
 51
270.0013181176166
  0
ARC
  5
F47
330
1A
100
AcDbEntity
  8
SEIHIN
  6
CONTINUOUS
 62
     3
 48
16.0
100
AcDbCircle
 10
51.34226276912523
 20
116.8877877971684
 30
0.0
 40
0.499950498760025
100
AcDbArc
 50
191.4153867671794
 51
269.9930656975755
  0
ARC
  5
F48
330
1A
100
AcDbEntity
  8
SEIHIN
  6
CONTINUOUS
 62
     3
 48
16.0
100
AcDbCircle
 10
58.30000226191202
 20
119.8878373020699
 30
0.0
 40
1.0
100
AcDbArc
 50
180.0
 51
270.0
  0
ARC
  5
F49
330
1A
100
AcDbEntity
  8
SEIHIN
  6
CONTINUOUS
 62
     3
 48
16.0
100
AcDbCircle
 10
53.13489549995046
 20
118.6878427870398
 30
0.0
 40
1.000005484992774
100
AcDbArc
 50
191.9058653169067
 51
270.0003874297329
  0
ARC
  5
F4A
330
1A
100
AcDbEntity
  8
SEIHIN
  6
CONTINUOUS
 62
     3
 48
16.0
100
AcDbCircle
 10
58.1000022619121
 20
128.9878373020698
 30
0.0
 40
0.9999999999999573
100
AcDbArc
 50
0.0000000000024427
 51
90.00000000000245
  0
LINE
  5
F4B
330
1A
100
AcDbEntity
  8
SEIHIN
  6
CONTINUOUS
 62
     3
 48
16.0
100
AcDbLine
 10
47.78460226191202
 20
129.9878373020698
 30
0.0
 11
58.10000226191204
 21
129.9878373020698
 31
0.0
  0
LINE
  5
F4C
330
1A
100
AcDbEntity
  8
SEIHIN
  6
CONTINUOUS
 62
     3
 48
16.0
100
AcDbLine
 10
47.26760226191203
 20
128.1878373020699
 30
0.0
 11
56.30000226191203
 21
128.1878373020699
 31
0.0
  0
ARC
  5
F4D
330
1A
100
AcDbEntity
  8
SEIHIN
  6
CONTINUOUS
 62
     3
 48
16.0
100
AcDbCircle
 10
38.45758547781662
 20
115.5928960630472
 30
0.0
 40
17.00003206487716
100
AcDbArc
 50
58.79038134845695
 51
67.78940197645116
  0
ARC
  5
F4E
330
1A
100
AcDbEntity
  8
SEIHIN
  6
CONTINUOUS
 62
     3
 48
16.0
100
AcDbCircle
 10
47.26762333254413
 20
129.1878310720312
 30
0.0
 40
0.999993770183268
100
AcDbArc
 50
237.0556322020566
 51
269.998792734187
  0
ARC
  5
F4F
330
1A
100
AcDbEntity
  8
SEIHIN
  6
CONTINUOUS
 62
     3
 48
16.0
100
AcDbCircle
 10
38.45766565065173
 20
115.5928550811919
 30
0.0
 40
15.19999646353922
100
AcDbArc
 50
57.05605099082879
 51
71.13946751697106
  0
ARC
  5
F50
330
1A
100
AcDbEntity
  8
SEIHIN
  6
CONTINUOUS
 62
     3
 48
16.0
100
AcDbCircle
 10
47.78464020666177
 20
130.9878546342695
 30
0.0
 40
1.000017334125127
100
AcDbArc
 50
238.7931704552819
 51
270.0035554423038
  0
ARC
  5
F51
330
1A
100
AcDbEntity
  8
SEIHIN
  6
CONTINUOUS
 62
     3
 48
16.0
100
AcDbCircle
 10
45.26183646796432
 20
132.2572959498388
 30
0.0
 40
1.000062046372151
100
AcDbArc
 50
191.3993596431821
 51
247.7894816356019
  0
ARC
  5
F52
330
1A
100
AcDbEntity
  8
SEIHIN
  6
CONTINUOUS
 62
     3
 48
16.0
100
AcDbCircle
 10
56.30000226191197
 20
127.1878373020698
 30
0.0
 40
1.000000000000028
100
AcDbArc
 50
359.9999999999983
 51
89.99999999999836
  0
LINE
  5
F53
330
1A
100
AcDbEntity
  8
SEIHIN
  6
CONTINUOUS
 62
     3
 48
16.0
100
AcDbLine
 10
112.0000022619119
 20
120.6878373020698
 30
0.0
 11
86.04990226191189
 21
120.6877373020699
 31
0.0
  0
LINE
  5
F54
330
1A
100
AcDbEntity
  8
SEIHIN
  6
CONTINUOUS
 62
     3
 48
16.0
100
AcDbLine
 10
113.800002261912
 20
118.8878373020699
 30
0.0
 11
86.04990226191189
 21
118.8877373020698
 31
0.0
  0
LINE
  5
F55
330
1A
100
AcDbEntity
  8
SEIHIN
  6
CONTINUOUS
 62
     3
 48
16.0
100
AcDbLine
 10
118.9650022619118
 20
117.6878373020699
 30
0.0
 11
86.04990226191189
 21
117.6877373020699
 31
0.0
  0
LINE
  5
F56
330
1A
100
AcDbEntity
  8
SEIHIN
  6
CONTINUOUS
 62
     3
 48
16.0
100
AcDbLine
 10
120.7577022619119
 20
115.8878373020699
 30
0.0
 11
86.04990226191189
 21
115.8877373020699
 31
0.0
  0
LINE
  5
F57
330
1A
100
AcDbEntity
  8
SEIHIN
  6
CONTINUOUS
 62
     3
 48
16.0
100
AcDbLine
 10
120.7577022619119
 20
116.3878373020699
 30
0.0
 11
86.04990226191189
 21
116.3877373020699
 31
0.0
  0
LINE
  5
F58
330
1A
100
AcDbEntity
  8
SEIHIN
  6
CONTINUOUS
 62
     3
 48
16.0
100
AcDbLine
 10
90.04990226191187
 20
117.6877373020699
 30
0.0
 11
103.762902261912
 21
117.6877373020699
 31
0.0
  0
LINE
  5
F59
330
1A
100
AcDbEntity
  8
SEIHIN
  6
CONTINUOUS
 62
     3
 48
16.0
100
AcDbLine
 10
114.800002261912
 20
119.8878373020699
 30
0.0
 11
114.800002261912
 21
127.1878373020698
 31
0.0
  0
ARC
  5
F5A
330
1A
100
AcDbEntity
  8
SEIHIN
  6
CONTINUOUS
 62
     3
 48
16.0
100
AcDbCircle
 10
133.6423050254284
 20
115.592740283961
 30
0.0
 40
13.9999859148146
100
AcDbArc
 50
106.2615122316689
 51
168.0918803858365
  0
LINE
  5
F5B
330
1A
100
AcDbEntity
  8
SEIHIN
  6
CONTINUOUS
 62
     3
 48
16.0
100
AcDbLine
 10
113.000002261912
 20
121.6878373020699
 30
0.0
 11
113.000002261912
 21
128.9878373020699
 31
0.0
  0
ARC
  5
F5C
330
1A
100
AcDbEntity
  8
SEIHIN
  6
CONTINUOUS
 62
     3
 48
16.0
100
AcDbCircle
 10
135.4603437745593
 20
113.9156835637716
 30
0.0
 40
14.50002669072981
100
AcDbArc
 50
107.6226772683118
 51
168.5717132930029
  0
ARC
  5
F5D
330
1A
100
AcDbEntity
  8
SEIHIN
  6
CONTINUOUS
 62
     3
 48
16.0
100
AcDbCircle
 10
135.4603103937485
 20
113.9156463642009
 30
0.0
 40
13.99998252356309
100
AcDbArc
 50
107.6224778398342
 51
168.5716440361233
  0
ARC
  5
F5E
330
1A
100
AcDbEntity
  8
SEIHIN
  6
CONTINUOUS
 62
     3
 48
16.0
100
AcDbCircle
 10
113.800002261912
 20
119.8878373020699
 30
0.0
 40
1.0
100
AcDbArc
 50
270.0
 51
0.0
  0
ARC
  5
F5F
330
1A
100
AcDbEntity
  8
SEIHIN
  6
CONTINUOUS
 62
     3
 48
16.0
100
AcDbCircle
 10
112.0000022619119
 20
121.6878373020699
 30
0.0
 40
1.000000000000085
100
AcDbArc
 50
269.9999999999983
 51
359.9999999999983
  0
ARC
  5
F60
330
1A
100
AcDbEntity
  8
SEIHIN
  6
CONTINUOUS
 62
     3
 48
16.0
100
AcDbCircle
 10
120.7577137648745
 20
116.8878467118928
 30
0.0
 40
0.500009409955217
100
AcDbArc
 50
269.9986818823833
 51
348.5673983153549
  0
ARC
  5
F61
330
1A
100
AcDbEntity
  8
SEIHIN
  6
CONTINUOUS
 62
     3
 48
16.0
100
AcDbCircle
 10
120.7577131557397
 20
116.8878462144905
 30
0.0
 40
1.000008912479959
100
AcDbArc
 50
269.9993758352052
 51
348.5737080890114
  0
ARC
  5
F62
330
1A
100
AcDbEntity
  8
SEIHIN
  6
CONTINUOUS
 62
     3
 48
16.0
100
AcDbCircle
 10
118.9650820632575
 20
118.6879020278805
 30
0.0
 40
1.000064728994529
100
AcDbArc
 50
269.99542801563
 51
348.0855263695569
  0
ARC
  5
F63
330
1A
100
AcDbEntity
  8
SEIHIN
  6
CONTINUOUS
 62
     3
 48
16.0
100
AcDbCircle
 10
133.642498843912
 20
115.5928362127943
 30
0.0
 40
16.99998725757917
100
AcDbArc
 50
112.2105861396341
 51
121.2096305354566
  0
ARC
  5
F64
330
1A
100
AcDbEntity
  8
SEIHIN
  6
CONTINUOUS
 62
     3
 48
16.0
100
AcDbCircle
 10
124.8323811912798
 20
129.1878310720308
 30
0.0
 40
0.9999937701829654
100
AcDbArc
 50
270.0012072658203
 51
302.9443677979479
  0
LINE
  5
F65
330
1A
100
AcDbEntity
  8
SEIHIN
  6
CONTINUOUS
 62
     3
 48
16.0
100
AcDbLine
 10
124.315402261912
 20
129.9878373020698
 30
0.0
 11
114.0000022619119
 21
129.9878373020698
 31
0.0
  0
LINE
  5
F66
330
1A
100
AcDbEntity
  8
SEIHIN
  6
CONTINUOUS
 62
     3
 48
16.0
100
AcDbLine
 10
124.832402261912
 20
128.1878373020699
 30
0.0
 11
115.800002261912
 21
128.1878373020699
 31
0.0
  0
ARC
  5
F67
330
1A
100
AcDbEntity
  8
SEIHIN
  6
CONTINUOUS
 62
     3
 48
16.0
100
AcDbCircle
 10
115.800002261912
 20
127.1878373020698
 30
0.0
 40
1.000000000000028
100
AcDbArc
 50
90.00000000000161
 51
180.0000000000016
  0
ARC
  5
F68
330
1A
100
AcDbEntity
  8
SEIHIN
  6
CONTINUOUS
 62
     3
 48
16.0
100
AcDbCircle
 10
114.0000022619119
 20
128.9878373020699
 30
0.0
 40
0.9999999999999005
100
AcDbArc
 50
90.00000000000081
 51
180.0000000000008
  0
ARC
  5
F69
330
1A
100
AcDbEntity
  8
SEIHIN
  6
CONTINUOUS
 62
     3
 48
16.0
100
AcDbCircle
 10
124.3153715551238
 20
130.9878287269963
 30
0.0
 40
0.9999914253979703
100
AcDbArc
 50
270.0017593844498
 51
301.2072439492695
  0
ARC
  5
F6A
330
1A
100
AcDbEntity
  8
SEIHIN
  6
CONTINUOUS
 62
     3
 48
16.0
100
AcDbCircle
 10
128.4054677845404
 20
130.9228980161516
 30
0.0
 40
0.999944931671853
100
AcDbArc
 50
288.8597233756279
 51
348.605011736895
  0
ARC
  5
F6B
330
1A
100
AcDbEntity
  8
SEIHIN
  6
CONTINUOUS
 62
     3
 48
16.0
100
AcDbCircle
 10
133.6421393582635
 20
115.5926581924139
 30
0.0
 40
15.20002365546913
100
AcDbArc
 50
108.8597027380766
 51
122.9434355979442
  0
ARC
  5
F6C
330
1A
100
AcDbEntity
  8
SEIHIN
  6
CONTINUOUS
 62
     3
 48
16.0
100
AcDbCircle
 10
130.9192027587016
 20
128.2117378559818
 30
0.0
 40
0.9999185191805921
100
AcDbArc
 50
287.6212967569708
 51
348.6023779546473
  0
ARC
  5
F6D
330
1A
100
AcDbEntity
  8
SEIHIN
  6
CONTINUOUS
 62
     3
 48
16.0
100
AcDbCircle
 10
130.9192124673539
 20
128.2117486798732
 30
0.0
 40
0.4999516927797871
100
AcDbArc
 50
287.6143628106849
 51
348.6009053555268
  0
ARC
  5
F6E
330
1A
100
AcDbEntity
  8
SEIHIN
  6
CONTINUOUS
 62
     3
 48
16.0
100
AcDbCircle
 10
129.4419950215493
 20
129.9926294186779
 30
0.0
 40
1.000022464774211
100
AcDbArc
 50
286.2662296881649
 51
348.6040716698374
  0
ARC
  5
F6F
330
1A
100
AcDbEntity
  8
SEIHIN
  6
CONTINUOUS
 62
     3
 48
16.0
100
AcDbCircle
 10
126.8382898769639
 20
132.257222330849
 30
0.0
 40
0.9999478437442435
100
AcDbArc
 50
292.2056506417908
 51
348.5977789650431
  0
DIMENSION
  5
F70
330
1A
100
AcDbEntity
  8
SUNPOU
  6
CONTINUOUS
100
AcDbDimension
  2
*D3
 10
192.9154361720812
 20
83.9202951476683
 30
0.0
 11
181.9827192169965
 21
86.4202951476683
 31
0.0
 70
    32
  3
STANDARD
100
AcDbAlignedDimension
 13
171.0500022619118
 23
116.8877373020698
 33
0.0
 14
192.9154361720812
 24
115.8877373020699
 34
0.0
100
AcDbRotatedDimension
1001
ACAD
1000
DSTYLE
1002
{
1070
   140
1040
3.0
1070
    74
1070
     0
1070
   172
1070
     1
1070
    73
1070
     0
1070
   272
1070
     2
1070
    77
1070
     3
1070
   173
1070
     1
1070
   147
1040
1.0
1070
    42
1040
3.0
1070
    44
1040
1.5
1070
    43
1040
7.0
1070
   271
1070
     0
1070
   178
1070
     4
1070
   177
1070
     4
1070
   176
1070
     4
1070
   141
1040
150.0
1070
     7
1000
_OPEN
1070
     6
1000
_OPEN
1070
    41
1040
3.0
1002
}
  0
DIMENSION
  5
F71
330
1A
100
AcDbEntity
  8
SUNPOU
  6
CONTINUOUS
100
AcDbDimension
  2
*D4
 10
190.0500003892719
 20
95.64450927313476
 30
0.0
 11
180.5500013255919
 21
98.14450927313476
 31
0.0
 70
    32
  1
※<>
  3
STANDARD
100
AcDbAlignedDimension
 13
171.0500022619118
 23
116.8877373020698
 33
0.0
 14
190.0500003892719
 24
115.8877373020699
 34
0.0
100
AcDbRotatedDimension
1001
ACAD
1000
DSTYLE
1002
{
1070
   140
1040
3.0
1070
    74
1070
     0
1070
   172
1070
     1
1070
    73
1070
     0
1070
   272
1070
     2
1070
    77
1070
     3
1070
   173
1070
     1
1070
   147
1040
1.0
1070
    42
1040
3.0
1070
    44
1040
1.5
1070
    43
1040
7.0
1070
   271
1070
     0
1070
   178
1070
     4
1070
   177
1070
     4
1070
   176
1070
     4
1070
   141
1040
150.0
1070
     7
1000
_OPEN
1070
     6
1000
_OPEN
1070
    41
1040
3.0
1002
}
  0
LINE
  5
F72
330
1A
100
AcDbEntity
  8
SEIHIN
  6
CONTINUOUS
 62
     3
 48
16.0
100
AcDbLine
 10
175.050002261912
 20
127.3491373020699
 30
0.0
 11
171.0501022619119
 21
128.3491373020698
 31
0.0
  0
LINE
  5
F73
330
1A
100
AcDbEntity
  8
SEIHIN
  6
CONTINUOUS
 62
     3
 48
16.0
100
AcDbLine
 10
175.050002261912
 20
115.8877373020699
 30
0.0
 11
171.0501022619119
 21
116.8877373020698
 31
0.0
  0
ARC
  5
F74
330
1A
100
AcDbEntity
  8
SEIHIN
  6
CONTINUOUS
 62
     3
 48
16.0
100
AcDbCircle
 10
206.7758103937484
 20
113.915546364201
 30
0.0
 40
13.99998252356303
100
AcDbArc
 50
107.6224778398349
 51
168.571644036124
  0
LINE
  5
F75
330
1A
100
AcDbEntity
  8
SEIHIN
  6
CONTINUOUS
 62
     3
 48
16.0
100
AcDbLine
 10
175.050002261912
 20
115.8877373020699
 30
0.0
 11
192.0732022619119
 21
115.8877373020699
 31
0.0
  0
ARC
  5
F76
330
1A
100
AcDbEntity
  8
SEIHIN
  6
CONTINUOUS
 62
     3
 48
16.0
100
AcDbCircle
 10
192.0732131557397
 20
116.8877462144905
 30
0.0
 40
1.00000891247992
100
AcDbArc
 50
269.9993758352101
 51
348.5737080890164
  0
LINE
  5
F77
330
1A
100
AcDbEntity
  8
SEIHIN
  6
CONTINUOUS
 62
     3
 48
16.0
100
AcDbLine
 10
175.050002261912
 20
127.3491373020699
 30
0.0
 11
202.140602261912
 21
127.3491373020699
 31
0.0
  0
ARC
  5
F78
330
1A
100
AcDbEntity
  8
SEIHIN
  6
CONTINUOUS
 62
     3
 48
16.0
100
AcDbCircle
 10
201.6347045481551
 20
128.2116398511654
 30
0.0
 40
1.000015187387587
100
AcDbArc
 50
287.6194299801547
 51
348.6033778770043
  0
LINE
  5
F79
330
1A
100
AcDbEntity
  8
SEIHIN
  6
CONTINUOUS
 62
     3
 48
16.0
100
AcDbLine
 10
29.56550226191194
 20
156.6379373020699
 30
0.0
 11
86.05000226191203
 21
156.6379373020699
 31
0.0
  0
LINE
  5
F7A
330
1A
100
AcDbEntity
  8
SEIHIN
  6
CONTINUOUS
 62
     3
 48
16.0
100
AcDbLine
 10
86.05030226191189
 20
169.2878373020699
 30
0.0
 11
37.69750226191201
 21
169.2880373020699
 31
0.0
  0
LINE
  5
F7B
330
1A
100
AcDbEntity
  8
SEIHIN
  6
CONTINUOUS
 62
     3
 48
16.0
100
AcDbLine
 10
31.76550226191199
 20
167.4014373020698
 30
0.0
 11
35.06550226191194
 21
156.6379373020699
 31
0.0
  0
LINE
  5
F7C
330
1A
100
AcDbEntity
  8
SEIHIN
  6
CONTINUOUS
 62
     3
 48
16.0
100
AcDbLine
 10
26.76550226191199
 20
168.2880373020699
 30
0.0
 11
26.76550226191199
 21
155.8379373020699
 31
0.0
  0
LINE
  5
F7D
330
1A
100
AcDbEntity
  8
SEIHIN
  6
CONTINUOUS
 62
     3
 48
16.0
100
AcDbLine
 10
28.565502261912
 20
157.6379373020698
 30
0.0
 11
28.565502261912
 21
166.4605373020698
 31
0.0
  0
ARC
  5
F7E
330
1A
100
AcDbEntity
  8
SEIHIN
  6
CONTINUOUS
 62
     3
 48
16.0
100
AcDbCircle
 10
33.97362467553694
 20
153.8379189574063
 30
0.0
 40
1.000018344914654
100
AcDbArc
 50
11.40335365591045
 51
90.00128418255243
  0
ARC
  5
F7F
330
1A
100
AcDbEntity
  8
SEIHIN
  6
CONTINUOUS
 62
     3
 48
16.0
100
AcDbCircle
 10
34.48372467553685
 20
153.8379189574063
 30
0.0
 40
1.000018344914706
100
AcDbArc
 50
11.40335365591273
 51
90.00128418255487
  0
LINE
  5
F80
330
1A
100
AcDbEntity
  8
SEIHIN
  6
CONTINUOUS
 62
     3
 48
16.0
100
AcDbLine
 10
27.76550226191199
 20
154.8379373020698
 30
0.0
 11
34.4837022619119
 21
154.8379373020698
 31
0.0
  0
ARC
  5
F81
330
1A
100
AcDbEntity
  8
SEIHIN
  6
CONTINUOUS
 62
     3
 48
16.0
100
AcDbCircle
 10
27.76550226191204
 20
155.8379373020698
 30
0.0
 40
1.000000000000028
100
AcDbArc
 50
179.9999999999983
 51
269.9999999999983
  0
ARC
  5
F82
330
1A
100
AcDbEntity
  8
SEIHIN
  6
CONTINUOUS
 62
     3
 48
16.0
100
AcDbCircle
 10
29.56550226191194
 20
157.6379373020698
 30
0.0
 40
0.9999999999999431
100
AcDbArc
 50
180.0
 51
270.0
  0
ARC
  5
F83
330
1A
100
AcDbEntity
  8
SEIHIN
  6
CONTINUOUS
 62
     3
 48
16.0
100
AcDbCircle
 10
39.9331204387978
 20
154.6379595098165
 30
0.0
 40
1.999977792336025
100
AcDbArc
 50
90.00052073520198
 51
191.4003482571725
  0
ARC
  5
F84
330
1A
100
AcDbEntity
  8
SEIHIN
  6
CONTINUOUS
 62
     3
 48
16.0
100
AcDbCircle
 10
35.44692467553687
 20
155.6379189574065
 30
0.0
 40
1.000018344914602
100
AcDbArc
 50
11.40335365590793
 51
90.00128418254998
  0
ARC
  5
F85
330
1A
100
AcDbEntity
  8
SEIHIN
  6
CONTINUOUS
 62
     3
 48
16.0
100
AcDbCircle
 10
35.96550052925414
 20
168.2879403033153
 30
0.0
 40
2.000003001246253
100
AcDbArc
 50
270.0000496369147
 51
149.996840901697
  0
LINE
  5
F86
330
1A
100
AcDbEntity
  8
SEIHIN
  6
CONTINUOUS
 62
     3
 48
16.0
100
AcDbLine
 10
35.96550226191192
 20
167.2879373020698
 30
0.0
 11
29.59250226191199
 21
167.4601373020699
 31
0.0
  0
LINE
  5
F87
330
1A
100
AcDbEntity
  8
SEIHIN
  6
CONTINUOUS
 62
     3
 48
16.0
100
AcDbLine
 10
34.233502261912
 20
169.2880373020699
 30
0.0
 11
27.76550226191199
 21
169.2880373020699
 31
0.0
  0
ARC
  5
F88
330
1A
100
AcDbEntity
  8
SEIHIN
  6
CONTINUOUS
 62
     3
 48
16.0
100
AcDbCircle
 10
27.76550226191199
 20
168.2880373020699
 30
0.0
 40
1.0
100
AcDbArc
 50
90.0
 51
180.0
  0
ARC
  5
F89
330
1A
100
AcDbEntity
  8
SEIHIN
  6
CONTINUOUS
 62
     3
 48
16.0
100
AcDbCircle
 10
29.56548455159838
 20
166.4605200636666
 30
0.0
 40
0.999982289834979
100
AcDbArc
 50
88.4517834102716
 51
179.9990122947593
  0
LINE
  5
F8A
330
1A
100
AcDbEntity
  8
SEIHIN
  6
CONTINUOUS
 62
     3
 48
16.0
100
AcDbLine
 10
35.96550226191192
 20
167.2879373020698
 30
0.0
 11
35.96550226191192
 21
166.2879373020698
 31
0.0
  0
LINE
  5
F8B
330
1A
100
AcDbEntity
  8
SEIHIN
  6
CONTINUOUS
 62
     3
 48
16.0
100
AcDbLine
 10
137.8665022619118
 20
169.2879373020697
 30
0.0
 11
144.334602261912
 21
169.2879373020697
 31
0.0
  0
LINE
  5
F8C
330
1A
100
AcDbEntity
  8
SEIHIN
  6
CONTINUOUS
 62
     3
 48
16.0
100
AcDbLine
 10
136.134502261912
 20
167.2878373020698
 30
0.0
 11
142.5075022619118
 21
167.4601373020699
 31
0.0
  0
LINE
  5
F8D
330
1A
100
AcDbEntity
  8
SEIHIN
  6
CONTINUOUS
 62
     3
 48
16.0
100
AcDbLine
 10
144.334602261912
 20
154.8379373020698
 30
0.0
 11
137.616402261912
 21
154.8379373020698
 31
0.0
  0
LINE
  5
F8E
330
1A
100
AcDbEntity
  8
SEIHIN
  6
CONTINUOUS
 62
     3
 48
16.0
100
AcDbLine
 10
142.534602261912
 20
156.6379373020699
 30
0.0
 11
86.05000226191203
 21
156.6379373020699
 31
0.0
  0
LINE
  5
F8F
330
1A
100
AcDbEntity
  8
SEIHIN
  6
CONTINUOUS
 62
     3
 48
16.0
100
AcDbLine
 10
86.04980226191202
 20
169.2878373020699
 30
0.0
 11
134.402602261912
 21
169.2879373020697
 31
0.0
  0
LINE
  5
F90
330
1A
100
AcDbEntity
  8
SEIHIN
  6
CONTINUOUS
 62
     3
 48
16.0
100
AcDbLine
 10
140.334602261912
 20
167.4013373020699
 30
0.0
 11
137.034602261912
 21
156.6378373020699
 31
0.0
  0
ARC
  5
F91
330
1A
100
AcDbEntity
  8
SEIHIN
  6
CONTINUOUS
 62
     3
 48
16.0
100
AcDbCircle
 10
132.1669840850261
 20
154.6379595098164
 30
0.0
 40
1.999977792336066
100
AcDbArc
 50
348.5996517428288
 51
89.99947926479965
  0
ARC
  5
F92
330
1A
100
AcDbEntity
  8
SEIHIN
  6
CONTINUOUS
 62
     3
 48
16.0
100
AcDbCircle
 10
137.6163919234977
 20
153.8379288396415
 30
0.0
 40
1.000008462481802
100
AcDbArc
 50
89.99940765750901
 51
168.6029545883017
  0
ARC
  5
F93
330
1A
100
AcDbEntity
  8
SEIHIN
  6
CONTINUOUS
 62
     3
 48
16.0
100
AcDbCircle
 10
138.1263919234976
 20
153.8379288396414
 30
0.0
 40
1.000008462481905
100
AcDbArc
 50
89.99940765750412
 51
168.6029545882969
  0
ARC
  5
F94
330
1A
100
AcDbEntity
  8
SEIHIN
  6
CONTINUOUS
 62
     3
 48
16.0
100
AcDbCircle
 10
136.6530798482871
 20
155.6378189574063
 30
0.0
 40
1.000018344914682
100
AcDbArc
 50
89.99871581745003
 51
168.5966463440916
  0
ARC
  5
F95
330
1A
100
AcDbEntity
  8
SEIHIN
  6
CONTINUOUS
 62
     3
 48
16.0
100
AcDbCircle
 10
136.1345039945698
 20
168.2878403033153
 30
0.0
 40
2.000003001246139
100
AcDbArc
 50
30.00315909830127
 51
269.9999503630846
  0
LINE
  5
F96
330
1A
100
AcDbEntity
  8
SEIHIN
  6
CONTINUOUS
 62
     3
 48
16.0
100
AcDbLine
 10
136.134502261912
 20
167.2878373020698
 30
0.0
 11
136.1346022619119
 21
166.2878373020699
 31
0.0
  0
LINE
  5
F97
330
1A
100
AcDbEntity
  8
SEIHIN
  6
CONTINUOUS
 62
     3
 48
16.0
100
AcDbLine
 10
171.0501022619119
 20
170.2873373020699
 30
0.0
 11
186.0501022619118
 21
170.2873373020699
 31
0.0
  0
LINE
  5
F98
330
1A
100
AcDbEntity
  8
SEIHIN
  6
CONTINUOUS
 62
     3
 48
16.0
100
AcDbLine
 10
143.534602261912
 20
157.6379373020698
 30
0.0
 11
143.534602261912
 21
166.4604373020698
 31
0.0
  0
LINE
  5
F99
330
1A
100
AcDbEntity
  8
SEIHIN
  6
CONTINUOUS
 62
     3
 48
16.0
100
AcDbLine
 10
145.334602261912
 20
168.2879373020699
 30
0.0
 11
145.334602261912
 21
155.8379373020699
 31
0.0
  0
ARC
  5
F9A
330
1A
100
AcDbEntity
  8
SEIHIN
  6
CONTINUOUS
 62
     3
 48
16.0
100
AcDbCircle
 10
144.334602261912
 20
155.8379373020698
 30
0.0
 40
1.000000000000028
100
AcDbArc
 50
270.0000000000016
 51
0.0000000000016284
  0
ARC
  5
F9B
330
1A
100
AcDbEntity
  8
SEIHIN
  6
CONTINUOUS
 62
     3
 48
16.0
100
AcDbCircle
 10
142.534602261912
 20
157.6379373020698
 30
0.0
 40
0.9999999999999715
100
AcDbArc
 50
269.9999999999983
 51
359.9999999999983
  0
ARC
  5
F9C
330
1A
100
AcDbEntity
  8
SEIHIN
  6
CONTINUOUS
 62
     3
 48
16.0
100
AcDbCircle
 10
144.334602261912
 20
168.2879373020698
 30
0.0
 40
0.9999999999999431
100
AcDbArc
 50
0.0000000000032569
 51
90.00000000000325
  0
ARC
  5
F9D
330
1A
100
AcDbEntity
  8
SEIHIN
  6
CONTINUOUS
 62
     3
 48
16.0
100
AcDbCircle
 10
142.5345699904534
 20
166.4604687137054
 30
0.0
 40
1.000032271951923
100
AcDbArc
 50
359.9982003039325
 51
91.54527449431812
  0
LINE
  5
F9E
330
1A
100
AcDbEntity
  8
SEIHIN
  6
CONTINUOUS
 62
     3
 48
16.0
100
AcDbLine
 10
186.0501022619118
 20
170.2873373020699
 30
0.0
 11
186.0501022619118
 21
169.2878373020699
 31
0.0
  0
LINE
  5
F9F
330
1A
100
AcDbEntity
  8
CENTER_L
  6
CENTER
 62
     1
 48
5.0
100
AcDbLine
 10
314.6554434017067
 20
107.5938146932448
 30
0.0
 11
314.6554434017067
 21
175.6063146932446
 31
0.0
  0
DIMENSION
  5
FA0
330
1A
100
AcDbEntity
  8
SUNPOU
  6
CONTINUOUS
100
AcDbDimension
  2
*D5
 10
242.380858476109
 20
115.8878373020699
 30
0.0
 11
239.880858476109
 21
142.5879373020699
 31
0.0
 70
    32
  3
STANDARD
100
AcDbAlignedDimension
 13
256.3709434017066
 23
169.2880373020699
 33
0.0
 14
279.9477434017067
 24
115.8878373020699
 34
0.0
 50
90.0
100
AcDbRotatedDimension
1001
ACAD
1000
DSTYLE
1002
{
1070
   140
1040
3.0
1070
    74
1070
     0
1070
   172
1070
     1
1070
    73
1070
     0
1070
   272
1070
     2
1070
    77
1070
     3
1070
   173
1070
     1
1070
   147
1040
1.0
1070
    42
1040
3.0
1070
    44
1040
1.5
1070
    43
1040
7.0
1070
   271
1070
     0
1070
   178
1070
     4
1070
   177
1070
     4
1070
   176
1070
     4
1070
   141
1040
150.0
1070
     7
1000
_OPEN
1070
     6
1000
_OPEN
1070
    41
1040
3.0
1002
}
  0
LINE
  5
FA1
330
1A
100
AcDbEntity
  8
SEIHIN
  6
CONTINUOUS
 62
     3
 48
16.0
100
AcDbLine
 10
360.5048434017067
 20
128.0141373020699
 30
0.0
 11
365.7515434017065
 21
154.0355373020699
 31
0.0
  0
LINE
  5
FA2
330
1A
100
AcDbEntity
  8
SEIHIN
  6
CONTINUOUS
 62
     3
 48
16.0
100
AcDbLine
 10
268.8060434017067
 20
128.0142373020698
 30
0.0
 11
263.5593434017067
 21
154.0356373020698
 31
0.0
  0
TEXT
  5
FA3
330
1A
100
AcDbEntity
  8
SUNPOU
 62
     4
100
AcDbText
 10
315.3415591894347
 20
23.24935724751108
 30
0.0
 40
4.0
  1
※ のきといの差込み寸法を示す
100
AcDbText
  0
DIMENSION
  5
FA4
330
1A
100
AcDbEntity
  8
SUNPOU
  6
CONTINUOUS
100
AcDbDimension
  2
*D6
 10
279.1055233748939
 20
95.61072355149622
 30
0.0
 11
314.6554505160283
 21
98.11072355149622
 31
0.0
 70
    32
  3
STANDARD
100
AcDbAlignedDimension
 13
350.2053776571628
 23
115.8878397287125
 33
0.0
 14
279.1055233748939
 24
115.8878397286715
 34
0.0
100
AcDbRotatedDimension
1001
ACAD
1000
DSTYLE
1002
{
1070
   140
1040
3.0
1070
    74
1070
     0
1070
   172
1070
     1
1070
    73
1070
     0
1070
   272
1070
     2
1070
    77
1070
     3
1070
   173
1070
     1
1070
   147
1040
1.0
1070
    42
1040
3.0
1070
    44
1040
1.5
1070
    43
1040
7.0
1070
   271
1070
     0
1070
   178
1070
     4
1070
   177
1070
     4
1070
   176
1070
     4
1070
   141
1040
150.0
1070
     7
1000
_OPEN
1070
     6
1000
_OPEN
1070
    41
1040
3.0
1002
}
  0
LINE
  5
FA5
330
1A
100
AcDbEntity
  8
SEIHIN
  6
CONTINUOUS
 62
     3
 48
16.0
100
AcDbLine
 10
360.0303684573182
 20
127.3491373020699
 30
0.0
 11
269.2805515010097
 21
127.3491373020699
 31
0.0
  0
LINE
  5
FA6
330
1A
100
AcDbEntity
  8
SEIHIN
  6
CONTINUOUS
 62
     3
 48
16.0
100
AcDbLine
 10
349.3631434017066
 20
115.8878373020699
 30
0.0
 11
314.6553434017066
 21
115.8877373020699
 31
0.0
  0
ARC
  5
FA7
330
1A
100
AcDbEntity
  8
SEIHIN
  6
CONTINUOUS
 62
     3
 48
16.0
100
AcDbCircle
 10
265.2451352698701
 20
113.9157463642009
 30
0.0
 40
13.99998252356314
100
AcDbArc
 50
11.4283559638766
 51
72.37752216016551
  0
ARC
  5
FA8
330
1A
100
AcDbEntity
  8
SEIHIN
  6
CONTINUOUS
 62
     3
 48
16.0
100
AcDbCircle
 10
269.7863610339642
 20
128.2118176407257
 30
0.0
 40
1.000030324709332
100
AcDbArc
 50
191.3951491848851
 51
252.3736365331848
  0
LINE
  5
FA9
330
1A
100
AcDbEntity
  8
SEIHIN
  6
CONTINUOUS
 62
     3
 48
16.0
100
AcDbLine
 10
279.9477434017067
 20
115.8878373020699
 30
0.0
 11
314.6555434017067
 21
115.8877373020699
 31
0.0
  0
ARC
  5
FAA
330
1A
100
AcDbEntity
  8
SEIHIN
  6
CONTINUOUS
 62
     3
 48
16.0
100
AcDbCircle
 10
279.9477203957814
 20
116.8879561217156
 30
0.0
 40
1.000018819910481
100
AcDbArc
 50
191.4326016846468
 51
270.0013181176166
  0
ARC
  5
FAB
330
1A
100
AcDbEntity
  8
SEIHIN
  6
CONTINUOUS
 62
     3
 48
16.0
100
AcDbCircle
 10
364.0657515335433
 20
113.9156463642009
 30
0.0
 40
13.99998252356309
100
AcDbArc
 50
107.6224778398342
 51
168.5716440361233
  0
ARC
  5
FAC
330
1A
100
AcDbEntity
  8
SEIHIN
  6
CONTINUOUS
 62
     3
 48
16.0
100
AcDbCircle
 10
349.3631542955344
 20
116.8878462144905
 30
0.0
 40
1.000008912479959
100
AcDbArc
 50
269.9993758352052
 51
348.5737080890114
  0
ARC
  5
FAD
330
1A
100
AcDbEntity
  8
SEIHIN
  6
CONTINUOUS
 62
     3
 48
16.0
100
AcDbCircle
 10
359.5246438984963
 20
128.2117378559818
 30
0.0
 40
0.9999185191805921
100
AcDbArc
 50
287.6212967569708
 51
348.6023779546473
  0
DIMENSION
  5
FAE
330
1A
100
AcDbEntity
  8
SUNPOU
  6
CONTINUOUS
100
AcDbDimension
  2
*D7
 10
255.3709434017067
 20
183.7901272443159
 30
0.0
 11
314.6554934017067
 21
186.2901272443159
 31
0.0
 70
    32
  3
STANDARD
100
AcDbAlignedDimension
 13
373.9400434017067
 23
168.2879373020699
 33
0.0
 14
255.3709434017067
 24
168.2880373020699
 34
0.0
100
AcDbRotatedDimension
1001
ACAD
1000
DSTYLE
1002
{
1070
   140
1040
3.0
1070
    74
1070
     0
1070
   172
1070
     1
1070
    73
1070
     0
1070
   272
1070
     2
1070
    77
1070
     3
1070
   173
1070
     1
1070
   147
1040
1.0
1070
    42
1040
3.0
1070
    44
1040
1.5
1070
    43
1040
7.0
1070
   271
1070
     0
1070
   178
1070
     4
1070
   177
1070
     4
1070
   176
1070
     4
1070
   141
1040
150.0
1070
     7
1000
_OPEN
1070
     6
1000
_OPEN
1070
    41
1040
3.0
1002
}
  0
LINE
  5
FAF
330
1A
100
AcDbEntity
  8
SEIHIN
  6
CONTINUOUS
 62
     3
 48
16.0
100
AcDbLine
 10
372.9400434017067
 20
154.8379373020698
 30
0.0
 11
314.6554434017068
 21
154.8379373020698
 31
0.0
  0
LINE
  5
FB0
330
1A
100
AcDbEntity
  8
SEIHIN
  6
CONTINUOUS
 62
     3
 48
16.0
100
AcDbLine
 10
314.6554434017068
 20
169.2879373020697
 30
0.0
 11
372.9400434017067
 21
169.2879373020697
 31
0.0
  0
LINE
  5
FB1
330
1A
100
AcDbEntity
  8
SEIHIN
  6
CONTINUOUS
 62
     3
 48
16.0
100
AcDbLine
 10
314.6554434017067
 20
169.2880373020699
 30
0.0
 11
256.3709434017066
 21
169.2880373020699
 31
0.0
  0
LINE
  5
FB2
330
1A
100
AcDbEntity
  8
SEIHIN
  6
CONTINUOUS
 62
     3
 48
16.0
100
AcDbLine
 10
256.3709434017066
 20
154.8379373020698
 30
0.0
 11
314.6554434017067
 21
154.8379373020695
 31
0.0
  0
LINE
  5
FB3
330
1A
100
AcDbEntity
  8
SEIHIN
  6
CONTINUOUS
 62
     3
 48
16.0
100
AcDbLine
 10
216.050102261912
 20
168.2878373020699
 30
0.0
 11
216.050102261912
 21
155.8377373020698
 31
0.0
  0
ARC
  5
FB4
330
1A
100
AcDbEntity
  8
SEIHIN
  6
CONTINUOUS
 62
     3
 48
16.0
100
AcDbCircle
 10
215.0501022619119
 20
155.8377373020699
 30
0.0
 40
1.000000000000056
100
AcDbArc
 50
269.9999999999934
 51
359.9999999999934
  0
ARC
  5
FB5
330
1A
100
AcDbEntity
  8
SEIHIN
  6
CONTINUOUS
 62
     3
 48
16.0
100
AcDbCircle
 10
208.8419397335607
 20
153.8377679705103
 30
0.0
 40
0.9999693322616387
100
AcDbArc
 50
90.00214703316931
 51
168.598944794329
  0
ARC
  5
FB6
330
1A
100
AcDbEntity
  8
SEIHIN
  6
CONTINUOUS
 62
     3
 48
16.0
100
AcDbCircle
 10
215.0501022619119
 20
168.2878373020698
 30
0.0
 40
1.000000000000085
100
AcDbArc
 50
0.0000000000048853
 51
90.00000000000488
  0
ARC
  5
FB7
330
1A
100
AcDbEntity
  8
SEIHIN
  6
CONTINUOUS
 62
     3
 48
16.0
100
AcDbCircle
 10
256.3709434017066
 20
168.2880373020699
 30
0.0
 40
1.0
100
AcDbArc
 50
90.0
 51
180.0
  0
ARC
  5
FB8
330
1A
100
AcDbEntity
  8
SEIHIN
  6
CONTINUOUS
 62
     3
 48
16.0
100
AcDbCircle
 10
256.3709434017067
 20
155.8379373020698
 30
0.0
 40
1.000000000000028
100
AcDbArc
 50
179.9999999999983
 51
269.9999999999983
  0
LINE
  5
FB9
330
1A
100
AcDbEntity
  8
SEIHIN
  6
CONTINUOUS
 62
     3
 48
16.0
100
AcDbLine
 10
255.3709434017067
 20
168.2880373020699
 30
0.0
 11
255.3709434017067
 21
155.8379373020699
 31
0.0
  0
ARC
  5
FBA
330
1A
100
AcDbEntity
  8
SEIHIN
  6
CONTINUOUS
 62
     3
 48
16.0
100
AcDbCircle
 10
262.5790658153316
 20
153.8379189574063
 30
0.0
 40
1.000018344914654
100
AcDbArc
 50
11.40335365591045
 51
90.00128418255243
  0
ARC
  5
FBB
330
1A
100
AcDbEntity
  8
SEIHIN
  6
CONTINUOUS
 62
     3
 48
16.0
100
AcDbCircle
 10
264.5709416690488
 20
168.2879403033153
 30
0.0
 40
2.000003001246253
100
AcDbArc
 50
30.00315909830246
 51
149.996840901697
  0
ARC
  5
FBC
330
1A
100
AcDbEntity
  8
SEIHIN
  6
CONTINUOUS
 62
     3
 48
16.0
100
AcDbCircle
 10
366.7318330632924
 20
153.8379288396414
 30
0.0
 40
1.000008462481905
100
AcDbArc
 50
89.99940765750412
 51
168.6029545882969
  0
ARC
  5
FBD
330
1A
100
AcDbEntity
  8
SEIHIN
  6
CONTINUOUS
 62
     3
 48
16.0
100
AcDbCircle
 10
364.7399451343645
 20
168.2878403033153
 30
0.0
 40
2.000003001246139
100
AcDbArc
 50
30.00315909830127
 51
149.9968409016996
  0
LINE
  5
FBE
330
1A
100
AcDbEntity
  8
SEIHIN
  6
CONTINUOUS
 62
     3
 48
16.0
100
AcDbLine
 10
373.9400434017067
 20
168.2879373020699
 30
0.0
 11
373.9400434017067
 21
155.8379373020699
 31
0.0
  0
ARC
  5
FBF
330
1A
100
AcDbEntity
  8
SEIHIN
  6
CONTINUOUS
 62
     3
 48
16.0
100
AcDbCircle
 10
372.9400434017067
 20
155.8379373020698
 30
0.0
 40
1.000000000000028
100
AcDbArc
 50
270.0000000000016
 51
0.0000000000016284
  0
ARC
  5
FC0
330
1A
100
AcDbEntity
  8
SEIHIN
  6
CONTINUOUS
 62
     3
 48
16.0
100
AcDbCircle
 10
372.9400434017068
 20
168.2879373020698
 30
0.0
 40
0.9999999999999431
100
AcDbArc
 50
0.0000000000032569
 51
90.00000000000325
  0
VIEWPORT
  5
22
330
17
100
AcDbEntity
 67
     1
  8
0
100
AcDbViewport
 10
313.6808219178082
 20
148.5
 30
0.0
 40
627.3616438356165
 41
297.0
 68
     2
 69
     1
1001
ACAD
1000
MVIEW
1002
{
1070
    16
1010
0.0
1020
0.0
1030
0.0
1010
0.0
1020
0.0
1030
1.0
1040
0.0
1040
297.0
1040
313.6808219178082
1040
148.5
1040
50.0
1040
0.0
1040
0.0
1070
     0
1070
   100
1070
     1
1070
     0
1070
     0
1070
     0
1070
     0
1070
     0
1040
0.0
1040
0.0
1040
0.0
1040
1.0
1040
1.0
1040
10.0
1040
10.0
1070
     0
1002
{
1002
}
1002
}
  0
VIEWPORT
  5
64
330
17
100
AcDbEntity
 67
     1
  8
VIEWPORT
100
AcDbViewport
 10
210.0
 20
148.5
 30
0.0
 40
420.0
 41
297.0
 68
     1
 69
     2
1001
ACAD
1000
MVIEW
1002
{
1070
    16
1010
0.0
1020
0.0
1030
0.0
1010
0.0
1020
0.0
1030
1.0
1040
0.0
1040
302.9399999999998
1040
210.0
1040
148.5
1040
50.0
1040
0.0
1040
0.0
1070
     0
1070
   100
1070
     1
1070
     0
1070
     0
1070
     0
1070
     0
1070
     0
1040
0.0
1040
0.0
1040
0.0
1040
5.0
1040
5.0
1040
0.0
1040
0.0
1070
     0
1002
{
1002
}
1002
}
  0
ENDSEC
  0
SECTION
  2
OBJECTS
  0
DICTIONARY
  5
C
330
0
100
AcDbDictionary
  3
ACAD_GROUP
350
D
  3
ACAD_LAYOUT
350
4B1
  3
ACAD_MLINESTYLE
350
E
  3
ACAD_PLOTSETTINGS
350
4B2
  3
ACAD_PLOTSTYLENAME
350
4AF
  3
ACDBHEADERROUNDTRIPXREC
350
1046
  0
DICTIONARY
  5
520
330
1A
100
AcDbDictionary
280
     1
  3
ACAD_LAYOUTSELFREF
360
1068
  0
DICTIONARY
  5
51E
330
17
100
AcDbDictionary
280
     1
  3
ACAD_LAYOUTSELFREF
360
1067
  0
DICTIONARY
  5
D
102
{ACAD_REACTORS
330
C
102
}
330
C
100
AcDbDictionary
  0
DICTIONARY
  5
4B1
102
{ACAD_REACTORS
330
C
102
}
330
C
100
AcDbDictionary
  0
DICTIONARY
  5
E
102
{ACAD_REACTORS
330
C
102
}
330
C
100
AcDbDictionary
  3
STANDARD
350
13
  0
DICTIONARY
  5
4B2
102
{ACAD_REACTORS
330
C
102
}
330
C
100
AcDbDictionary
  0
ACDBDICTIONARYWDFLT
  5
4AF
102
{ACAD_REACTORS
330
C
102
}
330
C
100
AcDbDictionary
281
     1
  3
Normal
350
4B0
100
AcDbDictionaryWithDefault
340
4B0
1001
ACAD
1000
TREAT_AS_HARD
1070
     0
1000
TREAT_AS_HARD
1070
     0
1000
TREAT_AS_HARD
1070
     0
  0
DICTIONARY
  5
1046
102
{ACAD_REACTORS
330
C
102
}
330
C
100
AcDbDictionary
  3
TSTACKALIGN
350
1047
  3
TSTACKSIZE
350
1048
  3
HYPERLINKBASE
350
1049
  3
STYLESHEET
350
104A
  3
LAYOUTDICT
350
104B
  3
PLOTSETDICT
350
104C
  3
PLOTSTYLNAMDICT
350
104D
  3
LWETCUNION
350
104E
  3
INSUNITS
350
104F
  3
CEPSNTYPE
350
1050
  3
FINGERPRINTGUID
350
1051
  3
VERSIONGUID
350
1052
  3
PSVPSCALE
350
1053
  3
DIMSTYLEDATA
350
1054
  3
PUCSORTHOREF
350
1055
  3
PUCSORTHOVIEW
350
1056
  3
PUCSBASE
350
1057
  3
PUCSORGTOP
350
1058
  3
PUCSORGBOTTOM
350
1059
  3
PUCSORGLEFT
350
105A
  3
PUCSORGRIGHT
350
105B
  3
PUCSORGFRONT
350
105C
  3
PUCSORGBACK
350
105D
  3
UCSORTHOREF
350
105E
  3
UCSORTHOVIEW
350
105F
  3
UCSBASE
350
1060
  3
UCSORGTOP
350
1061
  3
UCSORGBOTTOM
350
1062
  3
UCSORGLEFT
350
1063
  3
UCSORGRIGHT
350
1064
  3
UCSORGFRONT
350
1065
  3
UCSORGBACK
350
1066
  0
XRECORD
  5
1068
102
{ACAD_REACTORS
330
520
102
}
330
520
100
AcDbXrecord
340
1A
  0
XRECORD
  5
1067
102
{ACAD_REACTORS
330
51E
102
}
330
51E
100
AcDbXrecord
340
17
  0
MLINESTYLE
  5
13
102
{ACAD_REACTORS
330
E
102
}
330
E
100
AcDbMlineStyle
  2
STANDARD
 70
     0
  3

 62
     0
 51
90.0
 52
90.0
 71
     2
 49
0.5
 62
   256
  6
BYLAYER
 49
-0.5
 62
   256
  6
BYLAYER
  0
ACDBPLACEHOLDER
  5
4B0
102
{ACAD_REACTORS
330
4AF
102
}
330
4AF
100
AcDbPlaceHolder
280
     0
  0
XRECORD
  5
1047
102
{ACAD_REACTORS
330
1046
102
}
330
1046
100
AcDbXrecord
 90
        1
  0
XRECORD
  5
1048
102
{ACAD_REACTORS
330
1046
102
}
330
1046
100
AcDbXrecord
 90
       70
  0
XRECORD
  5
1049
102
{ACAD_REACTORS
330
1046
102
}
330
1046
100
AcDbXrecord
  1

  0
XRECORD
  5
104A
102
{ACAD_REACTORS
330
1046
102
}
330
1046
100
AcDbXrecord
  1
systemprinter.ctb
  0
XRECORD
  5
104B
102
{ACAD_REACTORS
330
1046
102
}
330
1046
100
AcDbXrecord
340
4B1
  0
XRECORD
  5
104C
102
{ACAD_REACTORS
330
1046
102
}
330
1046
100
AcDbXrecord
340
4B2
  0
XRECORD
  5
104D
102
{ACAD_REACTORS
330
1046
102
}
330
1046
100
AcDbXrecord
340
4AF
  0
XRECORD
  5
104E
102
{ACAD_REACTORS
330
1046
102
}
330
1046
100
AcDbXrecord
 90
    10781
  0
XRECORD
  5
104F
102
{ACAD_REACTORS
330
1046
102
}
330
1046
100
AcDbXrecord
 90
        0
  0
XRECORD
  5
1050
102
{ACAD_REACTORS
330
1046
102
}
330
1046
100
AcDbXrecord
 90
        0
  0
XRECORD
  5
1051
102
{ACAD_REACTORS
330
1046
102
}
330
1046
100
AcDbXrecord
  1
{5A2975E0-A988-11D4-932C-0050DA99388B}
  0
XRECORD
  5
1052
102
{ACAD_REACTORS
330
1046
102
}
330
1046
100
AcDbXrecord
  1
{80FBB8C9-F55E-4D97-B6C2-58A666BACD54}
  0
XRECORD
  5
1053
102
{ACAD_REACTORS
330
1046
102
}
330
1046
100
AcDbXrecord
 40
0.0
  0
XRECORD
  5
1054
102
{ACAD_REACTORS
330
1046
102
}
330
1046
100
AcDbXrecord
1000
DSTYLE
1002
{
1070
   341
340
B2
1070
   343
340
B2
1070
   344
340
B2
1070
   371
 70
    -1
1070
   372
 70
    -1
1002
}
  0
XRECORD
  5
1055
102
{ACAD_REACTORS
330
1046
102
}
330
1046
100
AcDbXrecord
340
0
  0
XRECORD
  5
1056
102
{ACAD_REACTORS
330
1046
102
}
330
1046
100
AcDbXrecord
 70
     0
  0
XRECORD
  5
1057
102
{ACAD_REACTORS
330
1046
102
}
330
1046
100
AcDbXrecord
340
0
  0
XRECORD
  5
1058
102
{ACAD_REACTORS
330
1046
102
}
330
1046
100
AcDbXrecord
 10
0.0
 20
0.0
 30
0.0
  0
XRECORD
  5
1059
102
{ACAD_REACTORS
330
1046
102
}
330
1046
100
AcDbXrecord
 10
0.0
 20
0.0
 30
0.0
  0
XRECORD
  5
105A
102
{ACAD_REACTORS
330
1046
102
}
330
1046
100
AcDbXrecord
 10
0.0
 20
0.0
 30
0.0
  0
XRECORD
  5
105B
102
{ACAD_REACTORS
330
1046
102
}
330
1046
100
AcDbXrecord
 10
0.0
 20
0.0
 30
0.0
  0
XRECORD
  5
105C
102
{ACAD_REACTORS
330
1046
102
}
330
1046
100
AcDbXrecord
 10
0.0
 20
0.0
 30
0.0
  0
XRECORD
  5
105D
102
{ACAD_REACTORS
330
1046
102
}
330
1046
100
AcDbXrecord
 10
0.0
 20
0.0
 30
0.0
  0
XRECORD
  5
105E
102
{ACAD_REACTORS
330
1046
102
}
330
1046
100
AcDbXrecord
340
0
  0
XRECORD
  5
105F
102
{ACAD_REACTORS
330
1046
102
}
330
1046
100
AcDbXrecord
 70
     0
  0
XRECORD
  5
1060
102
{ACAD_REACTORS
330
1046
102
}
330
1046
100
AcDbXrecord
340
0
  0
XRECORD
  5
1061
102
{ACAD_REACTORS
330
1046
102
}
330
1046
100
AcDbXrecord
 10
0.0
 20
0.0
 30
0.0
  0
XRECORD
  5
1062
102
{ACAD_REACTORS
330
1046
102
}
330
1046
100
AcDbXrecord
 10
0.0
 20
0.0
 30
0.0
  0
XRECORD
  5
1063
102
{ACAD_REACTORS
330
1046
102
}
330
1046
100
AcDbXrecord
 10
0.0
 20
0.0
 30
0.0
  0
XRECORD
  5
1064
102
{ACAD_REACTORS
330
1046
102
}
330
1046
100
AcDbXrecord
 10
0.0
 20
0.0
 30
0.0
  0
XRECORD
  5
1065
102
{ACAD_REACTORS
330
1046
102
}
330
1046
100
AcDbXrecord
 10
0.0
 20
0.0
 30
0.0
  0
XRECORD
  5
1066
102
{ACAD_REACTORS
330
1046
102
}
330
1046
100
AcDbXrecord
 10
0.0
 20
0.0
 30
0.0
  0
ENDSEC
  0
EOF
