  0
SECTION
  2
HEADER
  9
$ACADVER
  1
AC1014
  9
$ACADMAINTVER
 70
     9
  9
$DWGCODEPAGE
  3
ANSI_932
  9
$INSBASE
 10
0.0
 20
0.0
 30
0.0
  9
$EXTMIN
 10
-0.0243392625716297
 20
-0.0168322118233846
 30
-0.0015258207003583
  9
$EXTMAX
 10
398.800001093505
 20
275.8000010280466
 30
0.0000000349246037
  9
$LIMMIN
 10
0.0
 20
0.0
  9
$LIMMAX
 10
420.0
 20
297.0
  9
$ORTHOMODE
 70
     0
  9
$REGENMODE
 70
     1
  9
$FILLMODE
 70
     1
  9
$QTEXTMODE
 70
     0
  9
$MIRRTEXT
 70
     1
  9
$DRAGMODE
 70
     2
  9
$LTSCALE
 40
1.0
  9
$OSMODE
 70
    35
  9
$ATTMODE
 70
     1
  9
$TEXTSIZE
 40
2.5
  9
$TRACEWID
 40
1.0
  9
$TEXTSTYLE
  7
STYLE1
  9
$CLAYER
  8
SUNPOU
  9
$CELTYPE
  6
BYLAYER
  9
$CECOLOR
 62
   256
  9
$CELTSCALE
 40
1.0
  9
$DELOBJ
 70
     1
  9
$DISPSILH
 70
     0
  9
$DIMSCALE
 40
1.0
  9
$DIMASZ
 40
3.0
  9
$DIMEXO
 40
3.0
  9
$DIMDLI
 40
7.0
  9
$DIMRND
 40
0.0
  9
$DIMDLE
 40
0.0
  9
$DIMEXE
 40
1.5
  9
$DIMTP
 40
0.0
  9
$DIMTM
 40
0.0
  9
$DIMTXT
 40
3.0
  9
$DIMCEN
 40
150.0
  9
$DIMTSZ
 40
0.0
  9
$DIMTOL
 70
     0
  9
$DIMLIM
 70
     0
  9
$DIMTIH
 70
     0
  9
$DIMTOH
 70
     0
  9
$DIMSE1
 70
     0
  9
$DIMSE2
 70
     0
  9
$DIMTAD
 70
     3
  9
$DIMZIN
 70
     0
  9
$DIMBLK
  1

  9
$DIMASO
 70
     1
  9
$DIMSHO
 70
     1
  9
$DIMPOST
  1

  9
$DIMAPOST
  1

  9
$DIMALT
 70
     0
  9
$DIMALTD
 70
     2
  9
$DIMALTF
 40
25.4
  9
$DIMLFAC
 40
1.0
  9
$DIMTOFL
 70
     1
  9
$DIMTVP
 40
0.0
  9
$DIMTIX
 70
     0
  9
$DIMSOXD
 70
     0
  9
$DIMSAH
 70
     1
  9
$DIMBLK1
  1
OPEN
  9
$DIMBLK2
  1
OPEN
  9
$DIMSTYLE
  2
STANDARD
  9
$DIMCLRD
 70
   256
  9
$DIMCLRE
 70
   256
  9
$DIMCLRT
 70
   256
  9
$DIMTFAC
 40
1.0
  9
$DIMGAP
 40
1.0
  9
$DIMJUST
 70
     0
  9
$DIMSD1
 70
     0
  9
$DIMSD2
 70
     0
  9
$DIMTOLJ
 70
     1
  9
$DIMTZIN
 70
     0
  9
$DIMALTZ
 70
     0
  9
$DIMALTTZ
 70
     0
  9
$DIMFIT
 70
     3
  9
$DIMUPT
 70
     0
  9
$DIMUNIT
 70
     2
  9
$DIMDEC
 70
     0
  9
$DIMTDEC
 70
     0
  9
$DIMALTU
 70
     2
  9
$DIMALTTD
 70
     2
  9
$DIMTXSTY
  7
STANDARD
  9
$DIMAUNIT
 70
     0
  9
$LUNITS
 70
     2
  9
$LUPREC
 70
     4
  9
$SKETCHINC
 40
1.0
  9
$FILLETRAD
 40
10.0
  9
$AUNITS
 70
     0
  9
$AUPREC
 70
     0
  9
$MENU
  1
.
  9
$ELEVATION
 40
0.0
  9
$PELEVATION
 40
0.0
  9
$THICKNESS
 40
0.0
  9
$LIMCHECK
 70
     0
  9
$BLIPMODE
 70
     0
  9
$CHAMFERA
 40
10.0
  9
$CHAMFERB
 40
10.0
  9
$CHAMFERC
 40
20.0
  9
$CHAMFERD
 40
0.0
  9
$SKPOLY
 70
     0
  9
$TDCREATE
 40
2450994.350997107
  9
$TDUPDATE
 40
2453817.682341933
  9
$TDINDWG
 40
0.0204546875
  9
$TDUSRTIMER
 40
0.0204546875
  9
$USRTIMER
 70
     1
  9
$ANGBASE
 50
0.0
  9
$ANGDIR
 70
     0
  9
$PDMODE
 70
     1
  9
$PDSIZE
 40
0.0
  9
$PLINEWID
 40
0.0
  9
$COORDS
 70
     1
  9
$SPLFRAME
 70
     0
  9
$SPLINETYPE
 70
     6
  9
$SPLINESEGS
 70
     8
  9
$ATTDIA
 70
     0
  9
$ATTREQ
 70
     1
  9
$HANDLING
 70
 10241
  9
$HANDSEED
  5
828
  9
$SURFTAB1
 70
     6
  9
$SURFTAB2
 70
     6
  9
$SURFTYPE
 70
     6
  9
$SURFU
 70
     6
  9
$SURFV
 70
     6
  9
$UCSNAME
  2

  9
$UCSORG
 10
0.0
 20
0.0
 30
0.0
  9
$UCSXDIR
 10
1.0
 20
0.0
 30
0.0
  9
$UCSYDIR
 10
0.0
 20
1.0
 30
0.0
  9
$PUCSNAME
  2

  9
$PUCSORG
 10
0.0
 20
0.0
 30
0.0
  9
$PUCSXDIR
 10
1.0
 20
0.0
 30
0.0
  9
$PUCSYDIR
 10
0.0
 20
1.0
 30
0.0
  9
$USERI1
 70
     0
  9
$USERI2
 70
     0
  9
$USERI3
 70
     0
  9
$USERI4
 70
     0
  9
$USERI5
 70
     0
  9
$USERR1
 40
0.0
  9
$USERR2
 40
0.0
  9
$USERR3
 40
0.0
  9
$USERR4
 40
0.0
  9
$USERR5
 40
0.0
  9
$WORLDVIEW
 70
     1
  9
$SHADEDGE
 70
     3
  9
$SHADEDIF
 70
    70
  9
$TILEMODE
 70
     1
  9
$MAXACTVP
 70
    16
  9
$PINSBASE
 10
0.0
 20
0.0
 30
0.0
  9
$PLIMCHECK
 70
     0
  9
$PEXTMIN
 10
0.0
 20
0.0
 30
0.0
  9
$PEXTMAX
 10
420.0
 20
297.0
 30
0.0
  9
$PLIMMIN
 10
0.0
 20
0.0
  9
$PLIMMAX
 10
420.0
 20
297.0
  9
$UNITMODE
 70
     0
  9
$VISRETAIN
 70
     0
  9
$PLINEGEN
 70
     0
  9
$PSLTSCALE
 70
     1
  9
$TREEDEPTH
 70
  3020
  9
$PICKSTYLE
 70
     1
  9
$CMLSTYLE
  2
STANDARD
  9
$CMLJUST
 70
     0
  9
$CMLSCALE
 40
1.0
  9
$PROXYGRAPHICS
 70
     1
  9
$MEASUREMENT
 70
     1
  0
ENDSEC
  0
SECTION
  2
CLASSES
  0
CLASS
  1
ACDBDICTIONARYWDFLT
  2
AcDbDictionaryWithDefault
  3
AutoCAD 2000
 90
        0
280
     0
281
     0
  0
CLASS
  1
ACDBPLACEHOLDER
  2
AcDbPlaceHolder
  3
AutoCAD 2000
 90
        0
280
     0
281
     0
  0
CLASS
  1
LAYOUT
  2
AcDbLayout
  3
AutoCAD 2000
 90
        0
280
     0
281
     0
  0
CLASS
  1
LONG_TRANSACTION
  2
AcDbLongTransaction
  3
AutoCAD 2000
 90
        0
280
     0
281
     0
  0
CLASS
  1
LWPOLYLINE
  2
AcDbPolyline
  3
AutoCAD 2000
 90
        0
280
     0
281
     1
  0
CLASS
  1
HATCH
  2
AcDbHatch
  3
AutoCAD 2000
 90
        0
280
     0
281
     1
  0
CLASS
  1
XRECORD
  2
AcDbXrecord
  3
AutoCAD 2000
 90
        0
280
     0
281
     0
  0
CLASS
  1
LONG_TRANSACTION
  2
AcDbLongTransaction
  3
AutoCAD 2000
 90
        0
280
     0
281
     0
  0
CLASS
  1
LWPOLYLINE
  2
AcDbPolyline
  3
AutoCAD 2000
 90
        0
280
     0
281
     1
  0
CLASS
  1
HATCH
  2
AcDbHatch
  3
AutoCAD 2000
 90
        0
280
     0
281
     1
  0
CLASS
  1
XRECORD
  2
AcDbXrecord
  3
AutoCAD 2000
 90
        0
280
     0
281
     0
  0
CLASS
  1
LONG_TRANSACTION
  2
AcDbLongTransaction
  3
AutoCAD 2000
 90
        0
280
     0
281
     0
  0
CLASS
  1
LWPOLYLINE
  2
AcDbPolyline
  3
AutoCAD 2000
 90
        0
280
     0
281
     1
  0
CLASS
  1
HATCH
  2
AcDbHatch
  3
AutoCAD 2000
 90
        0
280
     0
281
     1
  0
CLASS
  1
XRECORD
  2
AcDbXrecord
  3
AutoCAD 2000
 90
        0
280
     0
281
     0
  0
ENDSEC
  0
SECTION
  2
TABLES
  0
TABLE
  2
VPORT
  5
8
330
0
100
AcDbSymbolTable
 70
     2
  0
VPORT
  5
804
330
8
100
AcDbSymbolTableRecord
100
AcDbViewportTableRecord
  2
*ACTIVE
 70
     0
 10
0.0
 20
0.0
 11
1.0
 21
1.0
 12
215.3397624768347
 22
140.276706836178
 13
0.0
 23
0.0
 14
5.0
 24
5.0
 15
0.0
 25
0.0
 16
0.0
 26
0.0
 36
1.0
 17
0.0
 27
0.0
 37
0.0
 40
340.9381282071734
 41
1.795454545454545
 42
50.0
 43
0.0
 44
0.0
 50
0.0
 51
0.0
 71
     0
 72
   100
 73
     1
 74
     0
 75
     0
 76
     0
 77
     0
 78
     0
  0
ENDTAB
  0
TABLE
  2
LTYPE
  5
5
330
0
100
AcDbSymbolTable
 70
     3
  0
LTYPE
  5
14
330
5
100
AcDbSymbolTableRecord
100
AcDbLinetypeTableRecord
  2
BYBLOCK
 70
     0
  3

 72
    65
 73
     0
 40
0.0
  0
LTYPE
  5
15
330
5
100
AcDbSymbolTableRecord
100
AcDbLinetypeTableRecord
  2
BYLAYER
 70
     0
  3

 72
    65
 73
     0
 40
0.0
  0
LTYPE
  5
16
330
5
100
AcDbSymbolTableRecord
100
AcDbLinetypeTableRecord
  2
CONTINUOUS
 70
     0
  3
Solid line
 72
    65
 73
     0
 40
0.0
  0
LTYPE
  5
120
330
5
100
AcDbSymbolTableRecord
100
AcDbLinetypeTableRecord
  2
CENTER
 70
     0
  3
____ _ ____ _ ____ _ ____ _ ____ _ ____ _ ____ 
 72
    65
 73
     4
 40
2.0
 49
1.25
 74
     0
 49
-0.25
 74
     0
 49
0.25
 74
     0
 49
-0.25
 74
     0
  0
LTYPE
  5
122
330
5
100
AcDbSymbolTableRecord
100
AcDbLinetypeTableRecord
  2
PHANTOM
 70
     0
  3
______  __  __  ______  __  __  ______  __  __ 
 72
    65
 73
     6
 40
2.5
 49
1.25
 74
     0
 49
-0.25
 74
     0
 49
0.25
 74
     0
 49
-0.25
 74
     0
 49
0.25
 74
     0
 49
-0.25
 74
     0
  0
ENDTAB
  0
TABLE
  2
LAYER
  5
2
330
0
100
AcDbSymbolTable
 70
     9
  0
LAYER
  5
F
330
2
100
AcDbSymbolTableRecord
100
AcDbLayerTableRecord
  2
0
 70
     0
 62
     7
  6
CONTINUOUS
  0
LAYER
  5
62
330
2
100
AcDbSymbolTableRecord
100
AcDbLayerTableRecord
  2
VIEWPORT
 70
     0
 62
     7
  6
CONTINUOUS
  0
LAYER
  5
6B
330
2
100
AcDbSymbolTableRecord
100
AcDbLayerTableRecord
  2
ZUWAKU
 70
     0
 62
     7
  6
CONTINUOUS
  0
LAYER
  5
152
330
2
100
AcDbSymbolTableRecord
100
AcDbLayerTableRecord
  2
SEIHIN
 70
     0
 62
     3
  6
CONTINUOUS
  0
LAYER
  5
153
330
2
100
AcDbSymbolTableRecord
100
AcDbLayerTableRecord
  2
SUNPOU
 70
     0
 62
     4
  6
CONTINUOUS
  0
LAYER
  5
154
330
2
100
AcDbSymbolTableRecord
100
AcDbLayerTableRecord
  2
CENTER_L
 70
     0
 62
     1
  6
CENTER
  0
LAYER
  5
1D9
330
2
100
AcDbSymbolTableRecord
100
AcDbLayerTableRecord
  2
NOKITOI
 70
     0
 62
     8
  6
PHANTOM
  0
LAYER
  5
414
330
2
100
AcDbSymbolTableRecord
100
AcDbLayerTableRecord
  2
DEFPOINTS
 70
     0
 62
     7
  6
CONTINUOUS
  0
LAYER
  5
68D
330
2
100
AcDbSymbolTableRecord
100
AcDbLayerTableRecord
  2
MOJI
 70
     0
 62
     2
  6
CONTINUOUS
  0
ENDTAB
  0
TABLE
  2
STYLE
  5
3
330
0
100
AcDbSymbolTable
 70
     3
  0
STYLE
  5
10
330
3
100
AcDbSymbolTableRecord
100
AcDbTextStyleTableRecord
  2
STANDARD
 70
     0
 40
0.0
 41
1.0
 50
0.0
 71
     0
 42
2.5
  3
TXT
  4
bigfont.shx
  0
STYLE
  5
14E
330
3
100
AcDbSymbolTableRecord
100
AcDbTextStyleTableRecord
  2
STYLE1
 70
     0
 40
0.0
 41
1.0
 50
0.0
 71
     0
 42
2.5
  3
TXT
  4

  0
STYLE
  5
68E
330
3
100
AcDbSymbolTableRecord
100
AcDbTextStyleTableRecord
  2
ｽﾀｲﾙ1
 70
     0
 40
0.0
 41
1.0
 50
0.0
 71
     0
 42
2.5
  3
MS PGothic.ttf
  4

1001
ACAD
1000
MS PGothic
1071
    32818
  0
ENDTAB
  0
TABLE
  2
VIEW
  5
6
330
0
100
AcDbSymbolTable
 70
     0
  0
ENDTAB
  0
TABLE
  2
UCS
  5
7
330
0
100
AcDbSymbolTable
 70
     0
  0
ENDTAB
  0
TABLE
  2
APPID
  5
9
330
0
100
AcDbSymbolTable
 70
     1
  0
APPID
  5
11
330
9
100
AcDbSymbolTableRecord
100
AcDbRegAppTableRecord
  2
ACAD
 70
     0
  0
ENDTAB
  0
TABLE
  2
DIMSTYLE
  5
A
330
0
100
AcDbSymbolTable
 70
     1
  0
DIMSTYLE
105
1D
102
{ACAD_REACTORS
330
419
330
426
330
433
330
440
330
468
330
475
102
}
330
A
100
AcDbSymbolTableRecord
100
AcDbDimStyleTableRecord
  2
STANDARD
 70
     0
  3

  4

  5

  6

  7

 40
1.0
 41
0.18
 42
0.0625
 43
0.38
 44
0.18
 45
0.0
 46
0.0
 47
0.0
 48
0.0
140
0.18
141
0.09
142
0.0
143
25.4
144
1.0
145
0.0
146
1.0
147
0.09
 71
     0
 72
     0
 73
     1
 74
     1
 75
     0
 76
     0
 77
     0
 78
     0
170
     0
171
     2
172
     0
173
     0
174
     0
175
     0
176
     0
177
     0
178
     0
270
     2
271
     4
272
     4
273
     2
274
     2
340
10
275
     0
280
     0
281
     0
282
     0
283
     1
284
     0
285
     0
286
     0
287
     3
288
     0
  0
ENDTAB
  0
TABLE
  2
BLOCK_RECORD
  5
1
330
0
100
AcDbSymbolTable
 70
     7
  0
BLOCK_RECORD
  5
1A
102
{ACAD_XDICTIONARY
360
4DA
102
}
330
1
100
AcDbSymbolTableRecord
100
AcDbBlockTableRecord
  2
*MODEL_SPACE
  0
BLOCK_RECORD
  5
17
102
{ACAD_XDICTIONARY
360
4D8
102
}
330
1
100
AcDbSymbolTableRecord
100
AcDbBlockTableRecord
  2
*PAPER_SPACE
  0
BLOCK_RECORD
  5
B2
330
1
100
AcDbSymbolTableRecord
100
AcDbBlockTableRecord
  2
_OPEN
  0
BLOCK_RECORD
  5
40C
330
1
100
AcDbSymbolTableRecord
100
AcDbBlockTableRecord
  2
*D1
  0
BLOCK_RECORD
  5
41A
330
1
100
AcDbSymbolTableRecord
100
AcDbBlockTableRecord
  2
*D2
  0
BLOCK_RECORD
  5
427
330
1
100
AcDbSymbolTableRecord
100
AcDbBlockTableRecord
  2
*D3
  0
BLOCK_RECORD
  5
434
330
1
100
AcDbSymbolTableRecord
100
AcDbBlockTableRecord
  2
*D4
  0
BLOCK_RECORD
  5
45C
330
1
100
AcDbSymbolTableRecord
100
AcDbBlockTableRecord
  2
*D5
  0
BLOCK_RECORD
  5
469
330
1
100
AcDbSymbolTableRecord
100
AcDbBlockTableRecord
  2
*D6
  0
ENDTAB
  0
ENDSEC
  0
SECTION
  2
BLOCKS
  0
BLOCK
  5
1B
330
1A
100
AcDbEntity
  8
0
100
AcDbBlockBegin
  2
*MODEL_SPACE
 70
     0
 10
0.0
 20
0.0
 30
0.0
  3
*MODEL_SPACE
  1

  0
ENDBLK
  5
1C
330
1A
100
AcDbEntity
  8
0
100
AcDbBlockEnd
  0
BLOCK
  5
18
330
17
100
AcDbEntity
 67
     1
  8
0
100
AcDbBlockBegin
  2
*PAPER_SPACE
 70
     0
 10
0.0
 20
0.0
 30
0.0
  3
*PAPER_SPACE
  1

  0
ENDBLK
  5
19
330
17
100
AcDbEntity
 67
     1
  8
0
100
AcDbBlockEnd
  0
BLOCK
  5
B3
330
B2
100
AcDbEntity
  8
0
100
AcDbBlockBegin
  2
_OPEN
 70
     0
 10
0.0
 20
0.0
 30
0.0
  3
_OPEN
  1

  0
LINE
  5
B4
330
B2
100
AcDbEntity
  8
0
  6
BYBLOCK
 62
     0
100
AcDbLine
 10
-1.0
 20
0.1666666666666666
 30
0.0
 11
0.0
 21
0.0
 31
0.0
  0
LINE
  5
B5
330
B2
100
AcDbEntity
  8
0
  6
BYBLOCK
 62
     0
100
AcDbLine
 10
0.0
 20
0.0
 30
0.0
 11
-1.0
 21
-0.1666666666666666
 31
0.0
  0
LINE
  5
B6
330
B2
100
AcDbEntity
  8
0
  6
BYBLOCK
 62
     0
100
AcDbLine
 10
0.0
 20
0.0
 30
0.0
 11
-1.0
 21
0.0
 31
0.0
  0
ENDBLK
  5
B7
330
B2
100
AcDbEntity
  8
0
100
AcDbBlockEnd
  0
BLOCK
  5
40D
330
40C
100
AcDbEntity
  8
0
100
AcDbBlockBegin
  2
*D1
 70
     1
 10
0.0
 20
0.0
 30
0.0
  3
*D1
  1

  0
LINE
  5
40E
330
40C
100
AcDbEntity
  8
0
  6
BYBLOCK
 62
     4
100
AcDbLine
 10
351.5224947471169
 20
155.5076030282067
 30
0.0
 11
351.5224947471169
 21
174.2607825766418
 31
0.0
  0
LINE
  5
40F
330
40C
100
AcDbEntity
  8
0
  6
BYBLOCK
 62
     4
100
AcDbLine
 10
262.522594747117
 20
155.5076030282067
 30
0.0
 11
262.522594747117
 21
174.2607825766418
 31
0.0
  0
LINE
  5
410
330
40C
100
AcDbEntity
  8
0
  6
BYBLOCK
 62
     4
100
AcDbLine
 10
348.5224947471169
 20
172.7607825766418
 30
0.0
 11
265.522594747117
 21
172.7607825766418
 31
0.0
  0
INSERT
  5
411
330
40C
100
AcDbEntity
  8
0
  6
BYBLOCK
 62
     4
100
AcDbBlockReference
  2
_OPEN
 10
351.5224947471169
 20
172.7607825766418
 30
0.0
 41
3.0
 42
3.0
 43
3.0
  0
INSERT
  5
412
330
40C
100
AcDbEntity
  8
0
  6
BYBLOCK
 62
     4
100
AcDbBlockReference
  2
_OPEN
 10
262.522594747117
 20
172.7607825766418
 30
0.0
 41
3.0
 42
3.0
 43
3.0
 50
180.0
  0
MTEXT
  5
413
330
40C
100
AcDbEntity
  8
0
  6
BYBLOCK
 62
     4
100
AcDbMText
 10
307.0225447471169
 20
175.2607825766418
 30
0.0
 40
3.0
 41
0.0
 71
     5
 72
     5
  1
\A1;89
1001
ACAD
1000
MTEXTBEGIN
1070
    73
1070
     1
1070
    44
1040
1.0
1070
    74
1070
     0
1000
MTEXTEND
1000
MTEXTBEGIN
1070
    73
1070
     1
1070
    44
1040
1.0
1070
    74
1070
     0
1000
MTEXTEND
1000
MTEXTBEGIN
1070
    73
1070
     1
1070
    44
1040
1.0
1070
    74
1070
     0
1000
MTEXTEND
  0
POINT
  5
415
330
40C
100
AcDbEntity
  8
DEFPOINTS
  6
BYBLOCK
 62
     0
100
AcDbPoint
 10
351.5224947471169
 20
152.5076030282066
 30
0.0
  0
POINT
  5
416
330
40C
100
AcDbEntity
  8
DEFPOINTS
  6
BYBLOCK
 62
     0
100
AcDbPoint
 10
262.522594747117
 20
152.5076030282066
 30
0.0
  0
POINT
  5
417
330
40C
100
AcDbEntity
  8
DEFPOINTS
  6
BYBLOCK
 62
     0
100
AcDbPoint
 10
262.522594747117
 20
172.7607825766418
 30
0.0
  0
ENDBLK
  5
418
330
40C
100
AcDbEntity
  8
0
100
AcDbBlockEnd
  0
BLOCK
  5
41B
330
41A
100
AcDbEntity
  8
0
100
AcDbBlockBegin
  2
*D2
 70
     1
 10
0.0
 20
0.0
 30
0.0
  3
*D2
  1

  0
LINE
  5
41C
330
41A
100
AcDbEntity
  8
0
  6
BYBLOCK
 62
     4
100
AcDbLine
 10
260.5225947471169
 20
153.5076030282066
 30
0.0
 11
248.7231084606755
 21
153.5076030282066
 31
0.0
  0
LINE
  5
41D
330
41A
100
AcDbEntity
  8
0
  6
BYBLOCK
 62
     4
100
AcDbLine
 10
279.3423947471171
 20
109.4576030282066
 30
0.0
 11
248.7231084606755
 21
109.4576030282066
 31
0.0
  0
LINE
  5
41E
330
41A
100
AcDbEntity
  8
0
  6
BYBLOCK
 62
     4
100
AcDbLine
 10
250.2231084606755
 20
150.5076030282066
 30
0.0
 11
250.2231084606755
 21
112.4576030282066
 31
0.0
  0
INSERT
  5
41F
330
41A
100
AcDbEntity
  8
0
  6
BYBLOCK
 62
     4
100
AcDbBlockReference
  2
_OPEN
 10
250.2231084606755
 20
153.5076030282066
 30
0.0
 41
3.0
 42
3.0
 43
3.0
 50
90.0
  0
INSERT
  5
420
330
41A
100
AcDbEntity
  8
0
  6
BYBLOCK
 62
     4
100
AcDbBlockReference
  2
_OPEN
 10
250.2231084606755
 20
109.4576030282066
 30
0.0
 41
3.0
 42
3.0
 43
3.0
 50
270.0
  0
MTEXT
  5
421
330
41A
100
AcDbEntity
  8
0
  6
BYBLOCK
 62
     4
100
AcDbMText
 10
247.7231084606756
 20
131.4826030282066
 30
0.0
 40
3.0
 41
0.0
 71
     5
 72
     5
  1
\A1;44
 11
0.0
 21
1.0
 31
0.0
1001
ACAD
1000
MTEXTBEGIN
1070
    73
1070
     1
1070
    44
1040
1.0
1070
    74
1070
     0
1000
MTEXTEND
1000
MTEXTBEGIN
1070
    73
1070
     1
1070
    44
1040
1.0
1070
    74
1070
     0
1000
MTEXTEND
1000
MTEXTBEGIN
1070
    73
1070
     1
1070
    44
1040
1.0
1070
    74
1070
     0
1000
MTEXTEND
  0
POINT
  5
422
330
41A
100
AcDbEntity
  8
DEFPOINTS
  6
BYBLOCK
 62
     0
100
AcDbPoint
 10
263.5225947471169
 20
153.5076030282066
 30
0.0
  0
POINT
  5
423
330
41A
100
AcDbEntity
  8
DEFPOINTS
  6
BYBLOCK
 62
     0
100
AcDbPoint
 10
282.3423947471171
 20
109.4576030282066
 30
0.0
  0
POINT
  5
424
330
41A
100
AcDbEntity
  8
DEFPOINTS
  6
BYBLOCK
 62
     0
100
AcDbPoint
 10
250.2231084606755
 20
109.4576030282066
 30
0.0
  0
ENDBLK
  5
425
330
41A
100
AcDbEntity
  8
0
100
AcDbBlockEnd
  0
BLOCK
  5
428
330
427
100
AcDbEntity
  8
0
100
AcDbBlockBegin
  2
*D3
 70
     1
 10
0.0
 20
0.0
 30
0.0
  3
*D3
  1

  0
LINE
  5
429
330
427
100
AcDbEntity
  8
0
  6
BYBLOCK
 62
     4
100
AcDbLine
 10
332.6214849765213
 20
106.4576030282066
 30
0.0
 11
332.6214849765213
 21
91.54121264237074
 31
0.0
  0
LINE
  5
42A
330
427
100
AcDbEntity
  8
0
  6
BYBLOCK
 62
     4
100
AcDbLine
 10
281.4236045177127
 20
106.4576030282066
 30
0.0
 11
281.4236045177127
 21
91.54121264237074
 31
0.0
  0
LINE
  5
42B
330
427
100
AcDbEntity
  8
0
  6
BYBLOCK
 62
     4
100
AcDbLine
 10
329.6214849765213
 20
93.04121264237073
 30
0.0
 11
284.4236045177126
 21
93.04121264237073
 31
0.0
  0
INSERT
  5
42C
330
427
100
AcDbEntity
  8
0
  6
BYBLOCK
 62
     4
100
AcDbBlockReference
  2
_OPEN
 10
332.6214849765213
 20
93.04121264237073
 30
0.0
 41
3.0
 42
3.0
 43
3.0
  0
INSERT
  5
42D
330
427
100
AcDbEntity
  8
0
  6
BYBLOCK
 62
     4
100
AcDbBlockReference
  2
_OPEN
 10
281.4236045177127
 20
93.04121264237073
 30
0.0
 41
3.0
 42
3.0
 43
3.0
 50
180.0
  0
MTEXT
  5
42E
330
427
100
AcDbEntity
  8
0
  6
BYBLOCK
 62
     4
100
AcDbMText
 10
307.022544747117
 20
95.54121264237073
 30
0.0
 40
3.0
 41
0.0
 71
     5
 72
     5
  1
\A1;51
1001
ACAD
1000
MTEXTBEGIN
1070
    73
1070
     1
1070
    44
1040
1.0
1070
    74
1070
     0
1000
MTEXTEND
1000
MTEXTBEGIN
1070
    73
1070
     1
1070
    44
1040
1.0
1070
    74
1070
     0
1000
MTEXTEND
1000
MTEXTBEGIN
1070
    73
1070
     1
1070
    44
1040
1.0
1070
    74
1070
     0
1000
MTEXTEND
  0
POINT
  5
42F
330
427
100
AcDbEntity
  8
DEFPOINTS
  6
BYBLOCK
 62
     0
100
AcDbPoint
 10
332.6214849765213
 20
109.4576030282066
 30
0.0
  0
POINT
  5
430
330
427
100
AcDbEntity
  8
DEFPOINTS
  6
BYBLOCK
 62
     0
100
AcDbPoint
 10
281.4236045177127
 20
109.4576030282066
 30
0.0
  0
POINT
  5
431
330
427
100
AcDbEntity
  8
DEFPOINTS
  6
BYBLOCK
 62
     0
100
AcDbPoint
 10
281.4236045177127
 20
93.04121264237073
 30
0.0
  0
ENDBLK
  5
432
330
427
100
AcDbEntity
  8
0
100
AcDbBlockEnd
  0
BLOCK
  5
435
330
434
100
AcDbEntity
  8
0
100
AcDbBlockBegin
  2
*D4
 70
     1
 10
0.0
 20
0.0
 30
0.0
  3
*D4
  1

  0
LINE
  5
436
330
434
100
AcDbEntity
  8
0
  6
BYBLOCK
 62
     4
100
AcDbLine
 10
221.5224947471169
 20
155.5076030282067
 30
0.0
 11
221.5224947471169
 21
174.1354579947753
 31
0.0
  0
LINE
  5
437
330
434
100
AcDbEntity
  8
0
  6
BYBLOCK
 62
     4
100
AcDbLine
 10
183.5224947471169
 20
157.0076030282066
 30
0.0
 11
183.5224947471169
 21
174.1354579947753
 31
0.0
  0
LINE
  5
438
330
434
100
AcDbEntity
  8
0
  6
BYBLOCK
 62
     4
100
AcDbLine
 10
218.5224947471169
 20
172.6354579947753
 30
0.0
 11
186.5224947471169
 21
172.6354579947753
 31
0.0
  0
INSERT
  5
439
330
434
100
AcDbEntity
  8
0
  6
BYBLOCK
 62
     4
100
AcDbBlockReference
  2
_OPEN
 10
221.5224947471169
 20
172.6354579947753
 30
0.0
 41
3.0
 42
3.0
 43
3.0
  0
INSERT
  5
43A
330
434
100
AcDbEntity
  8
0
  6
BYBLOCK
 62
     4
100
AcDbBlockReference
  2
_OPEN
 10
183.5224947471169
 20
172.6354579947753
 30
0.0
 41
3.0
 42
3.0
 43
3.0
 50
180.0
  0
MTEXT
  5
43B
330
434
100
AcDbEntity
  8
0
  6
BYBLOCK
 62
     4
100
AcDbMText
 10
202.5224947471169
 20
175.1354579947753
 30
0.0
 40
3.0
 41
0.0
 71
     5
 72
     5
  1
\A1;38
1001
ACAD
1000
MTEXTBEGIN
1070
    73
1070
     1
1070
    44
1040
1.0
1070
    74
1070
     0
1000
MTEXTEND
1000
MTEXTBEGIN
1070
    73
1070
     1
1070
    44
1040
1.0
1070
    74
1070
     0
1000
MTEXTEND
1000
MTEXTBEGIN
1070
    73
1070
     1
1070
    44
1040
1.0
1070
    74
1070
     0
1000
MTEXTEND
  0
POINT
  5
43C
330
434
100
AcDbEntity
  8
DEFPOINTS
  6
BYBLOCK
 62
     0
100
AcDbPoint
 10
221.5224947471169
 20
152.5076030282066
 30
0.0
  0
POINT
  5
43D
330
434
100
AcDbEntity
  8
DEFPOINTS
  6
BYBLOCK
 62
     0
100
AcDbPoint
 10
183.5224947471169
 20
154.0076030282066
 30
0.0
  0
POINT
  5
43E
330
434
100
AcDbEntity
  8
DEFPOINTS
  6
BYBLOCK
 62
     0
100
AcDbPoint
 10
183.5224947471169
 20
172.6354579947753
 30
0.0
  0
ENDBLK
  5
43F
330
434
100
AcDbEntity
  8
0
100
AcDbBlockEnd
  0
BLOCK
  5
48C
330
45C
100
AcDbEntity
  8
0
100
AcDbBlockBegin
  2
*D5
 70
     1
 10
0.0
 20
0.0
 30
0.0
  3
*D5
  1

  0
LINE
  5
48D
330
45C
100
AcDbEntity
  8
0
  6
BYBLOCK
 62
     4
100
AcDbLine
 10
178.5224947471169
 20
106.9576030282066
 30
0.0
 11
178.5224947471169
 21
91.5719699344179
 31
0.0
  0
LINE
  5
48E
330
45C
100
AcDbEntity
  8
0
  6
BYBLOCK
 62
     4
100
AcDbLine
 10
194.5224947471169
 20
106.4576030282066
 30
0.0
 11
194.5224947471169
 21
91.5719699344179
 31
0.0
  0
LINE
  5
48F
330
45C
100
AcDbEntity
  8
0
  6
BYBLOCK
 62
     4
100
AcDbLine
 10
181.5224947471169
 20
93.0719699344179
 30
0.0
 11
191.5224947471169
 21
93.0719699344179
 31
0.0
  0
INSERT
  5
490
330
45C
100
AcDbEntity
  8
0
  6
BYBLOCK
 62
     4
100
AcDbBlockReference
  2
_OPEN
 10
178.5224947471169
 20
93.0719699344179
 30
0.0
 41
3.0
 42
3.0
 43
3.0
 50
180.0
  0
INSERT
  5
491
330
45C
100
AcDbEntity
  8
0
  6
BYBLOCK
 62
     4
100
AcDbBlockReference
  2
_OPEN
 10
194.5224947471169
 20
93.0719699344179
 30
0.0
 41
3.0
 42
3.0
 43
3.0
  0
MTEXT
  5
492
330
45C
100
AcDbEntity
  8
0
  6
BYBLOCK
 62
     4
100
AcDbMText
 10
186.5224947471169
 20
95.5719699344179
 30
0.0
 40
3.0
 41
0.0
 71
     5
 72
     5
  1
\A1;※16
1001
ACAD
1000
MTEXTBEGIN
1070
    73
1070
     1
1070
    44
1040
1.0
1070
    74
1070
     0
1000
MTEXTEND
1000
MTEXTBEGIN
1070
    73
1070
     1
1070
    44
1040
1.0
1070
    74
1070
     0
1000
MTEXTEND
1000
MTEXTBEGIN
1070
    73
1070
     1
1070
    44
1040
1.0
1070
    74
1070
     0
1000
MTEXTEND
  0
POINT
  5
493
330
45C
100
AcDbEntity
  8
DEFPOINTS
  6
BYBLOCK
 62
     0
100
AcDbPoint
 10
178.5224947471169
 20
109.9576030282065
 30
0.0
  0
POINT
  5
494
330
45C
100
AcDbEntity
  8
DEFPOINTS
  6
BYBLOCK
 62
     0
100
AcDbPoint
 10
194.5224947471169
 20
109.4576030282066
 30
0.0
  0
POINT
  5
495
330
45C
100
AcDbEntity
  8
DEFPOINTS
  6
BYBLOCK
 62
     0
100
AcDbPoint
 10
194.5224947471169
 20
93.0719699344179
 30
0.0
  0
ENDBLK
  5
496
330
45C
100
AcDbEntity
  8
0
100
AcDbBlockEnd
  0
BLOCK
  5
46A
330
469
100
AcDbEntity
  8
0
100
AcDbBlockBegin
  2
*D6
 70
     1
 10
0.0
 20
0.0
 30
0.0
  3
*D6
  1

  0
LINE
  5
46B
330
469
100
AcDbEntity
  8
0
  6
BYBLOCK
 62
     4
100
AcDbLine
 10
178.5224947471169
 20
106.9576030282066
 30
0.0
 11
178.5224947471169
 21
80.86740223892901
 31
0.0
  0
LINE
  5
46C
330
469
100
AcDbEntity
  8
0
  6
BYBLOCK
 62
     4
100
AcDbLine
 10
197.6214866597415
 20
106.4576030282066
 30
0.0
 11
197.6214866597415
 21
80.86740223892901
 31
0.0
  0
LINE
  5
46D
330
469
100
AcDbEntity
  8
0
  6
BYBLOCK
 62
     4
100
AcDbLine
 10
181.5224947471169
 20
82.36740223892899
 30
0.0
 11
194.6214866597415
 21
82.36740223892899
 31
0.0
  0
INSERT
  5
46E
330
469
100
AcDbEntity
  8
0
  6
BYBLOCK
 62
     4
100
AcDbBlockReference
  2
_OPEN
 10
178.5224947471169
 20
82.36740223892899
 30
0.0
 41
3.0
 42
3.0
 43
3.0
 50
180.0
  0
INSERT
  5
46F
330
469
100
AcDbEntity
  8
0
  6
BYBLOCK
 62
     4
100
AcDbBlockReference
  2
_OPEN
 10
197.6214866597415
 20
82.36740223892899
 30
0.0
 41
3.0
 42
3.0
 43
3.0
  0
MTEXT
  5
470
330
469
100
AcDbEntity
  8
0
  6
BYBLOCK
 62
     4
100
AcDbMText
 10
188.0719907034292
 20
84.86740223892899
 30
0.0
 40
3.0
 41
0.0
 71
     5
 72
     5
  1
\A1;19
1001
ACAD
1000
MTEXTBEGIN
1070
    73
1070
     1
1070
    44
1040
1.0
1070
    74
1070
     0
1000
MTEXTEND
1000
MTEXTBEGIN
1070
    73
1070
     1
1070
    44
1040
1.0
1070
    74
1070
     0
1000
MTEXTEND
1000
MTEXTBEGIN
1070
    73
1070
     1
1070
    44
1040
1.0
1070
    74
1070
     0
1000
MTEXTEND
  0
POINT
  5
471
330
469
100
AcDbEntity
  8
DEFPOINTS
  6
BYBLOCK
 62
     0
100
AcDbPoint
 10
178.5224947471169
 20
109.9576030282065
 30
0.0
  0
POINT
  5
472
330
469
100
AcDbEntity
  8
DEFPOINTS
  6
BYBLOCK
 62
     0
100
AcDbPoint
 10
197.6214866597415
 20
109.4576030282066
 30
0.0
  0
POINT
  5
473
330
469
100
AcDbEntity
  8
DEFPOINTS
  6
BYBLOCK
 62
     0
100
AcDbPoint
 10
197.6214866597415
 20
82.36740223892899
 30
0.0
  0
ENDBLK
  5
474
330
469
100
AcDbEntity
  8
0
100
AcDbBlockEnd
  0
ENDSEC
  0
SECTION
  2
ENTITIES
  0
ARC
  5
2AF
330
1A
100
AcDbEntity
  8
SEIHIN
  6
CONTINUOUS
 62
     3
 48
16.0
100
AcDbCircle
 10
145.022494747117
 20
144.1576030282066
 30
0.0
 40
1.000000000000056
100
AcDbArc
 50
270.0000000000032
 51
0.0000000000032569
  0
ARC
  5
2B0
330
1A
100
AcDbEntity
  8
SEIHIN
  6
CONTINUOUS
 62
     3
 48
16.0
100
AcDbCircle
 10
145.522494747117
 20
143.6576030282066
 30
0.0
 40
0.9999999999999147
100
AcDbArc
 50
270.0000000000049
 51
0.0000000000048853
  0
ARC
  5
2B1
330
1A
100
AcDbEntity
  8
SEIHIN
  6
CONTINUOUS
 62
     3
 48
16.0
100
AcDbCircle
 10
145.522494747117
 20
152.5076030282067
 30
0.0
 40
0.9999999999999147
100
AcDbArc
 50
359.9999999999951
 51
89.99999999999511
  0
ARC
  5
2B2
330
1A
100
AcDbEntity
  8
SEIHIN
  6
CONTINUOUS
 62
     3
 48
16.0
100
AcDbCircle
 10
145.0224947471171
 20
152.0076030282066
 30
0.0
 40
1.0
100
AcDbArc
 50
0.0
 51
90.0
  0
LINE
  5
2B9
330
1A
100
AcDbEntity
  8
NOKITOI
  6
PHANTOM
 62
     8
 48
5.0
100
AcDbLine
 10
76.26259474711685
 20
116.6576030282066
 30
0.0
 11
81.32259474711679
 21
116.6576030282066
 31
0.0
  0
LINE
  5
2BA
330
1A
100
AcDbEntity
  8
NOKITOI
  6
PHANTOM
 62
     8
 48
5.0
100
AcDbLine
 10
75.10049474711696
 20
117.8576030282066
 30
0.0
 11
82.52259474711696
 21
117.8576030282066
 31
0.0
  0
LINE
  5
2BB
330
1A
100
AcDbEntity
  8
NOKITOI
  6
PHANTOM
 62
     8
 48
5.0
100
AcDbLine
 10
81.32259474711679
 20
112.1576030282066
 30
0.0
 11
78.66429474711686
 21
112.1576030282066
 31
0.0
  0
LINE
  5
2BC
330
1A
100
AcDbEntity
  8
NOKITOI
  6
PHANTOM
 62
     8
 48
5.0
100
AcDbLine
 10
77.722594747117
 20
110.9576030282066
 30
0.0
 11
102.0225947471169
 21
110.9576030282066
 31
0.0
  0
LINE
  5
2BD
330
1A
100
AcDbEntity
  8
SEIHIN
  6
CONTINUOUS
 62
     3
 48
16.0
100
AcDbLine
 10
66.54539474711708
 20
153.5076030282066
 30
0.0
 11
102.0225947471169
 21
153.5076030282066
 31
0.0
  0
LINE
  5
2BE
330
1A
100
AcDbEntity
  8
SEIHIN
  6
CONTINUOUS
 62
     3
 48
16.0
100
AcDbLine
 10
60.02259474711696
 20
144.1576030282066
 30
0.0
 11
102.0225947471169
 21
144.1576030282066
 31
0.0
  0
LINE
  5
2BF
330
1A
100
AcDbEntity
  8
SEIHIN
  6
CONTINUOUS
 62
     3
 48
16.0
100
AcDbLine
 10
82.27249474711697
 20
121.9576030282066
 30
0.0
 11
71.44709474711709
 21
121.9576030282066
 31
0.0
  0
LINE
  5
2C2
330
1A
100
AcDbEntity
  8
SEIHIN
  6
CONTINUOUS
 62
     3
 48
16.0
100
AcDbLine
 10
83.47249474711697
 20
123.1576030282066
 30
0.0
 11
72.41199474711709
 21
123.1576030282066
 31
0.0
  0
LINE
  5
2C3
330
1A
100
AcDbEntity
  8
SEIHIN
  6
CONTINUOUS
 62
     3
 48
16.0
100
AcDbLine
 10
102.0225947471169
 20
110.9576030282066
 30
0.0
 11
78.58539474711711
 21
110.9576030282066
 31
0.0
  0
LINE
  5
2C4
330
1A
100
AcDbEntity
  8
SEIHIN
  6
CONTINUOUS
 62
     3
 48
16.0
100
AcDbLine
 10
77.77259474711695
 20
109.9576030282065
 30
0.0
 11
102.0225947471169
 21
109.9576030282065
 31
0.0
  0
LINE
  5
2C5
330
1A
100
AcDbEntity
  8
SEIHIN
  6
CONTINUOUS
 62
     3
 48
16.0
100
AcDbLine
 10
77.34239474711711
 20
109.4576030282066
 30
0.0
 11
102.0225947471169
 21
109.4576030282066
 31
0.0
  0
LINE
  5
2C7
330
1A
100
AcDbEntity
  8
NOKITOI
  6
PHANTOM
 62
     8
 48
5.0
100
AcDbLine
 10
64.62269474711695
 20
143.9576030282066
 30
0.0
 11
69.62259474711697
 21
119.4576030282066
 31
0.0
  0
LINE
  5
2C8
330
1A
100
AcDbEntity
  8
NOKITOI
  6
PHANTOM
 62
     8
 48
5.0
100
AcDbLine
 10
64.42109474711685
 20
150.9576030282066
 30
0.0
 11
70.65519474711686
 21
120.4102030282065
 31
0.0
  0
ARC
  5
2C9
330
1A
100
AcDbEntity
  8
SEIHIN
  6
CONTINUOUS
 62
     3
 48
16.0
100
AcDbCircle
 10
71.44708262740159
 20
122.9576127731116
 30
0.0
 40
1.000009744978423
100
AcDbArc
 50
192.398376495447
 51
270.0006944017805
  0
LINE
  5
2CA
330
1A
100
AcDbEntity
  8
SEIHIN
  6
CONTINUOUS
 62
     3
 48
16.0
100
AcDbLine
 10
68.6220947471171
 20
119.0417030282066
 30
0.0
 11
63.60249474711697
 21
141.8723030282065
 31
0.0
  0
LINE
  5
2CB
330
1A
100
AcDbEntity
  8
SEIHIN
  6
CONTINUOUS
 62
     3
 48
16.0
100
AcDbLine
 10
69.04589474711696
 20
119.4429030282066
 30
0.0
 11
64.00449474711706
 21
142.3723030282066
 31
0.0
  0
LINE
  5
2CC
330
1A
100
AcDbEntity
  8
SEIHIN
  6
CONTINUOUS
 62
     3
 48
16.0
100
AcDbLine
 10
69.89899474711712
 20
120.2193030282066
 30
0.0
 11
64.8084947471171
 21
143.3723030282065
 31
0.0
  0
ARC
  5
2CE
330
1A
100
AcDbEntity
  8
SEIHIN
  6
CONTINUOUS
 62
     3
 48
16.0
100
AcDbCircle
 10
77.77256571633268
 20
110.9576275101071
 30
0.0
 40
1.000024482321967
100
AcDbArc
 50
189.719238731223
 51
270.0016633006937
  0
ARC
  5
2CF
330
1A
100
AcDbEntity
  8
SEIHIN
  6
CONTINUOUS
 62
     3
 48
16.0
100
AcDbCircle
 10
66.93029256357693
 20
109.1012055093206
 30
0.0
 40
9.499999528947627
100
AcDbArc
 50
7.422134692934205
 51
75.27754061630713
  0
ARC
  5
2D0
330
1A
100
AcDbEntity
  8
SEIHIN
  6
CONTINUOUS
 62
     3
 48
16.0
100
AcDbCircle
 10
77.34240522368651
 20
110.4575938281219
 30
0.0
 40
0.9999907999702003
100
AcDbArc
 50
187.4229029282992
 51
269.9993997312654
  0
ARC
  5
2D1
330
1A
100
AcDbEntity
  8
NOKITOI
  6
PHANTOM
 62
     8
 48
5.0
100
AcDbCircle
 10
66.93825296014074
 20
108.7902270230956
 30
0.0
 40
12.19997945109428
100
AcDbArc
 50
48.00719042627341
 51
72.26181654227993
  0
ARC
  5
2D2
330
1A
100
AcDbEntity
  8
NOKITOI
  6
PHANTOM
 62
     8
 48
5.0
100
AcDbCircle
 10
66.93829063424686
 20
108.7902073441774
 30
0.0
 40
10.99994632941524
100
AcDbArc
 50
11.36374015671925
 51
75.87555169639184
  0
ARC
  5
2D3
330
1A
100
AcDbEntity
  8
SEIHIN
  6
CONTINUOUS
 62
     3
 48
16.0
100
AcDbCircle
 10
66.93032520460923
 20
109.1011695416159
 30
0.0
 40
10.9999602527061
100
AcDbArc
 50
13.77090420892477
 51
70.80524241785184
  0
ARC
  5
2D4
330
1A
100
AcDbEntity
  8
SEIHIN
  6
CONTINUOUS
 62
     3
 48
16.0
100
AcDbCircle
 10
66.93035631310334
 20
109.1011339155699
 30
0.0
 40
9.999995723937152
100
AcDbArc
 50
9.716717907106856
 51
73.67389624968359
  0
ARC
  5
2D5
330
1A
100
AcDbEntity
  8
SEIHIN
  6
CONTINUOUS
 62
     3
 48
16.0
100
AcDbCircle
 10
70.87568175856529
 20
120.4340176571189
 30
0.0
 40
1.000009945050803
100
AcDbArc
 50
192.3986604877419
 51
250.8050298140322
  0
ARC
  5
2D6
330
1A
100
AcDbEntity
  8
SEIHIN
  6
CONTINUOUS
 62
     3
 48
16.0
100
AcDbCircle
 10
70.0225609220816
 20
119.6575321553045
 30
0.0
 40
0.9999712393458086
100
AcDbArc
 50
192.3941320527313
 51
253.6696991841337
  0
ARC
  5
2D7
330
1A
100
AcDbEntity
  8
SEIHIN
  6
CONTINUOUS
 62
     3
 48
16.0
100
AcDbCircle
 10
69.5987486254931
 20
119.2564510639943
 30
0.0
 40
0.9999847583946531
100
AcDbArc
 50
192.4009375610913
 51
255.2763162488094
  0
ARC
  5
2D8
330
1A
100
AcDbEntity
  8
NOKITOI
  6
PHANTOM
 62
     8
 48
5.0
100
AcDbCircle
 10
66.93829038599142
 20
108.7902111995143
 30
0.0
 40
12.19993877054614
100
AcDbArc
 50
16.02263637925393
 51
40.15603560521631
  0
ARC
  5
2D9
330
1A
100
AcDbEntity
  8
SEIHIN
  6
CONTINUOUS
 62
     3
 48
16.0
100
AcDbCircle
 10
78.58537317780451
 20
111.9576199504203
 30
0.0
 40
1.000016922446306
100
AcDbArc
 50
193.769289408424
 51
270.0012358096665
  0
LINE
  5
2DA
330
1A
100
AcDbEntity
  8
NOKITOI
  6
PHANTOM
 62
     8
 48
5.0
100
AcDbLine
 10
63.4389947471168
 20
149.7576030282066
 30
0.0
 11
64.37769474711695
 21
145.1576030282066
 31
0.0
  0
LINE
  5
2DB
330
1A
100
AcDbEntity
  8
NOKITOI
  6
PHANTOM
 62
     8
 48
5.0
100
AcDbLine
 10
60.72269474711686
 20
149.7576030282066
 30
0.0
 11
60.72269474711686
 21
145.1576030282066
 31
0.0
  0
LINE
  5
2DC
330
1A
100
AcDbEntity
  8
NOKITOI
  6
PHANTOM
 62
     8
 48
5.0
100
AcDbLine
 10
59.52259474711695
 20
143.9576030282066
 30
0.0
 11
59.52269474711681
 21
150.9576030282066
 31
0.0
  0
LINE
  5
2DD
330
1A
100
AcDbEntity
  8
SEIHIN
  6
CONTINUOUS
 62
     3
 48
16.0
100
AcDbLine
 10
59.02259474711695
 20
145.1576030282065
 30
0.0
 11
59.02259474711695
 21
151.0076030282066
 31
0.0
  0
LINE
  5
2DE
330
1A
100
AcDbEntity
  8
SEIHIN
  6
CONTINUOUS
 62
     3
 48
16.0
100
AcDbLine
 10
57.52259474711706
 20
152.5076030282066
 30
0.0
 11
57.52259474711706
 21
143.6576030282066
 31
0.0
  0
LINE
  5
2DF
330
1A
100
AcDbEntity
  8
SEIHIN
  6
CONTINUOUS
 62
     3
 48
16.0
100
AcDbLine
 10
58.02259474711696
 20
152.0076030282066
 30
0.0
 11
58.02259474711696
 21
144.1576030282066
 31
0.0
  0
LINE
  5
2E0
330
1A
100
AcDbEntity
  8
NOKITOI
  6
PHANTOM
 62
     8
 48
5.0
100
AcDbLine
 10
64.37769474711695
 20
145.1576030282066
 30
0.0
 11
60.72269474711686
 21
145.1576030282066
 31
0.0
  0
LINE
  5
2E1
330
1A
100
AcDbEntity
  8
NOKITOI
  6
PHANTOM
 62
     8
 48
5.0
100
AcDbLine
 10
59.52259474711695
 20
143.9576030282066
 30
0.0
 11
64.62269474711695
 21
143.9576030282066
 31
0.0
  0
ARC
  5
2E2
330
1A
100
AcDbEntity
  8
SEIHIN
  6
CONTINUOUS
 62
     3
 48
16.0
100
AcDbCircle
 10
62.62580686683242
 20
141.6575932833016
 30
0.0
 40
1.000009744978465
100
AcDbArc
 50
12.39837649543519
 51
90.00069440176913
  0
ARC
  5
2E3
330
1A
100
AcDbEntity
  8
SEIHIN
  6
CONTINUOUS
 62
     3
 48
16.0
100
AcDbCircle
 10
63.02780686683252
 20
142.1575932833014
 30
0.0
 40
1.000009744978492
100
AcDbArc
 50
12.39837649544986
 51
90.00069440178377
  0
ARC
  5
2E4
330
1A
100
AcDbEntity
  8
SEIHIN
  6
CONTINUOUS
 62
     3
 48
16.0
100
AcDbCircle
 10
59.02259474711701
 20
144.1576030282066
 30
0.0
 40
1.000000000000056
100
AcDbArc
 50
179.9999999999967
 51
269.9999999999967
  0
ARC
  5
2E5
330
1A
100
AcDbEntity
  8
SEIHIN
  6
CONTINUOUS
 62
     3
 48
16.0
100
AcDbCircle
 10
58.52259474711701
 20
143.6576030282066
 30
0.0
 40
0.9999999999999431
100
AcDbArc
 50
179.9999999999967
 51
269.9999999999967
  0
LINE
  5
2E6
330
1A
100
AcDbEntity
  8
SEIHIN
  6
CONTINUOUS
 62
     3
 48
16.0
100
AcDbLine
 10
59.02259474711695
 20
143.1576030282065
 30
0.0
 11
63.02779474711695
 21
143.1576030282065
 31
0.0
  0
LINE
  5
2E7
330
1A
100
AcDbEntity
  8
SEIHIN
  6
CONTINUOUS
 62
     3
 48
16.0
100
AcDbLine
 10
58.52259474711695
 20
142.6576030282066
 30
0.0
 11
62.62579474711708
 21
142.6576030282066
 31
0.0
  0
ARC
  5
2E8
330
1A
100
AcDbEntity
  8
SEIHIN
  6
CONTINUOUS
 62
     3
 48
16.0
100
AcDbCircle
 10
60.02259474711689
 20
145.1576030282066
 30
0.0
 40
0.9999999999999431
100
AcDbArc
 50
180.0000000000032
 51
270.0000000000032
  0
LINE
  5
2E9
330
1A
100
AcDbEntity
  8
SEIHIN
  6
CONTINUOUS
 62
     3
 48
16.0
100
AcDbLine
 10
71.43529474711709
 20
123.9428030282067
 30
0.0
 11
67.4304947471171
 21
142.1576030282065
 31
0.0
  0
LINE
  5
2EA
330
1A
100
AcDbEntity
  8
SEIHIN
  6
CONTINUOUS
 62
     3
 48
16.0
100
AcDbLine
 10
70.47049474711696
 20
122.7429030282065
 30
0.0
 11
66.46889474711696
 21
140.9429030282065
 31
0.0
  0
ARC
  5
2EB
330
1A
100
AcDbEntity
  8
SEIHIN
  6
CONTINUOUS
 62
     3
 48
16.0
100
AcDbCircle
 10
72.41198262740164
 20
124.1576127731116
 30
0.0
 40
1.000009744978445
100
AcDbArc
 50
192.398376495445
 51
270.0006944017788
  0
LINE
  5
2EC
330
1A
100
AcDbEntity
  8
SEIHIN
  6
CONTINUOUS
 62
     3
 48
16.0
100
AcDbLine
 10
67.4304947471171
 20
142.1576030282065
 30
0.0
 11
65.07559474711695
 21
142.1576030282065
 31
0.0
  0
ARC
  5
2ED
330
1A
100
AcDbEntity
  8
SEIHIN
  6
CONTINUOUS
 62
     3
 48
16.0
100
AcDbCircle
 10
67.4455869116876
 20
141.1575932833015
 30
0.0
 40
1.000009744935725
100
AcDbArc
 50
89.99955106734194
 51
192.3972331610086
  0
ARC
  5
2EE
330
1A
100
AcDbEntity
  8
SEIHIN
  6
CONTINUOUS
 62
     3
 48
16.0
100
AcDbCircle
 10
63.83180686683243
 20
143.1575932833015
 30
0.0
 40
1.000009744978536
100
AcDbArc
 50
12.39837649543847
 51
90.00069440177238
  0
LINE
  5
2EF
330
1A
100
AcDbEntity
  8
NOKITOI
  6
PHANTOM
 62
     8
 48
5.0
100
AcDbLine
 10
59.52269474711681
 20
150.9576030282066
 30
0.0
 11
64.42109474711685
 21
150.9576030282066
 31
0.0
  0
LINE
  5
2F0
330
1A
100
AcDbEntity
  8
SEIHIN
  6
CONTINUOUS
 62
     3
 48
16.0
100
AcDbLine
 10
60.02259474711696
 20
152.0076030282066
 30
0.0
 11
65.22249474711697
 21
152.0076030282066
 31
0.0
  0
LINE
  5
2F1
330
1A
100
AcDbEntity
  8
SEIHIN
  6
CONTINUOUS
 62
     3
 48
16.0
100
AcDbLine
 10
58.52259474711695
 20
153.5076030282066
 30
0.0
 11
63.89969474711711
 21
153.5076030282066
 31
0.0
  0
LINE
  5
2F2
330
1A
100
AcDbEntity
  8
SEIHIN
  6
CONTINUOUS
 62
     3
 48
16.0
100
AcDbLine
 10
59.02259474711695
 20
153.0076030282066
 30
0.0
 11
65.22249474711697
 21
153.0076030282066
 31
0.0
  0
ARC
  5
2F3
330
1A
100
AcDbEntity
  8
SEIHIN
  6
CONTINUOUS
 62
     3
 48
16.0
100
AcDbCircle
 10
65.22250420350082
 20
152.0075780078935
 30
0.0
 40
1.999974979709373
100
AcDbArc
 50
269.9997290911684
 51
131.4077256312545
  0
LINE
  5
2F4
330
1A
100
AcDbEntity
  8
NOKITOI
  6
PHANTOM
 62
     8
 48
5.0
100
AcDbLine
 10
63.4389947471168
 20
149.7576030282066
 30
0.0
 11
60.72269474711686
 21
149.7576030282066
 31
0.0
  0
ARC
  5
2F5
330
1A
100
AcDbEntity
  8
SEIHIN
  6
CONTINUOUS
 62
     3
 48
16.0
100
AcDbCircle
 10
58.52259474711701
 20
152.5076030282067
 30
0.0
 40
0.9999999999999431
100
AcDbArc
 50
90.00000000000325
 51
180.0000000000032
  0
ARC
  5
2F6
330
1A
100
AcDbEntity
  8
SEIHIN
  6
CONTINUOUS
 62
     3
 48
16.0
100
AcDbCircle
 10
59.02259474711695
 20
152.0076030282066
 30
0.0
 40
1.0
100
AcDbArc
 50
90.0
 51
180.0
  0
ARC
  5
2F7
330
1A
100
AcDbEntity
  8
SEIHIN
  6
CONTINUOUS
 62
     3
 48
16.0
100
AcDbCircle
 10
60.02259474711696
 20
151.0076030282066
 30
0.0
 40
1.0
100
AcDbArc
 50
90.0
 51
180.0
  0
LINE
  5
2F8
330
1A
100
AcDbEntity
  8
SEIHIN
  6
CONTINUOUS
 62
     3
 48
16.0
100
AcDbLine
 10
65.22249474711697
 20
150.0076030282065
 30
0.0
 11
65.22249474711697
 21
153.0076030282066
 31
0.0
  0
LINE
  5
2F9
330
1A
100
AcDbEntity
  8
NOKITOI
  6
PHANTOM
 62
     8
 48
5.0
100
AcDbLine
 10
139.4225947471169
 20
143.9575030282065
 30
0.0
 11
134.4225947471169
 21
119.4576030282066
 31
0.0
  0
LINE
  5
2FA
330
1A
100
AcDbEntity
  8
NOKITOI
  6
PHANTOM
 62
     8
 48
5.0
100
AcDbLine
 10
139.6241947471169
 20
150.9575030282065
 30
0.0
 11
133.3899947471169
 21
120.4101030282066
 31
0.0
  0
ARC
  5
2FB
330
1A
100
AcDbEntity
  8
SEIHIN
  6
CONTINUOUS
 62
     3
 48
16.0
100
AcDbCircle
 10
132.5980068668324
 20
122.9576127731116
 30
0.0
 40
1.000009744978421
100
AcDbArc
 50
269.9993055982194
 51
347.601623504553
  0
ARC
  5
2FC
330
1A
100
AcDbEntity
  8
SEIHIN
  6
CONTINUOUS
 62
     3
 48
16.0
100
AcDbCircle
 10
121.772594747117
 20
120.9576030282066
 30
0.0
 40
1.000000000000056
100
AcDbArc
 50
89.99999999999674
 51
179.9999999999967
  0
LINE
  5
2FD
330
1A
100
AcDbEntity
  8
SEIHIN
  6
CONTINUOUS
 62
     3
 48
16.0
100
AcDbLine
 10
119.5725947471169
 20
114.2576030282066
 30
0.0
 11
119.5725947471169
 21
122.1576030282066
 31
0.0
  0
LINE
  5
2FE
330
1A
100
AcDbEntity
  8
SEIHIN
  6
CONTINUOUS
 62
     3
 48
16.0
100
AcDbLine
 10
84.47249474711709
 20
114.2576030282066
 30
0.0
 11
84.47249474711709
 21
122.1576030282066
 31
0.0
  0
ARC
  5
2FF
330
1A
100
AcDbEntity
  8
SEIHIN
  6
CONTINUOUS
 62
     3
 48
16.0
100
AcDbCircle
 10
82.27249474711703
 20
120.9576030282066
 30
0.0
 40
1.000000000000056
100
AcDbArc
 50
0.0000000000032569
 51
90.00000000000325
  0
LINE
  5
300
330
1A
100
AcDbEntity
  8
CENTER_L
  6
CENTER
 62
     1
 48
5.0
100
AcDbLine
 10
102.0225947471169
 20
101.4441030282066
 30
0.0
 11
102.0225947471169
 21
162.1219030282065
 31
0.0
  0
LINE
  5
301
330
1A
100
AcDbEntity
  8
SEIHIN
  6
CONTINUOUS
 62
     3
 48
16.0
100
AcDbLine
 10
134.1460947471171
 20
120.2193030282066
 30
0.0
 11
139.2365947471169
 21
143.3723030282065
 31
0.0
  0
LINE
  5
302
330
1A
100
AcDbEntity
  8
SEIHIN
  6
CONTINUOUS
 62
     3
 48
16.0
100
AcDbLine
 10
134.999194747117
 20
119.4429030282066
 30
0.0
 11
140.0405947471169
 21
142.3723030282066
 31
0.0
  0
LINE
  5
303
330
1A
100
AcDbEntity
  8
SEIHIN
  6
CONTINUOUS
 62
     3
 48
16.0
100
AcDbLine
 10
135.422994747117
 20
119.0417030282066
 30
0.0
 11
140.442594747117
 21
141.8723030282065
 31
0.0
  0
LINE
  5
304
330
1A
100
AcDbEntity
  8
NOKITOI
  6
PHANTOM
 62
     8
 48
5.0
100
AcDbLine
 10
102.0225947471169
 20
112.1576030282066
 30
0.0
 11
121.5225947471169
 21
112.1576030282066
 31
0.0
  0
LINE
  5
305
330
1A
100
AcDbEntity
  8
NOKITOI
  6
PHANTOM
 62
     8
 48
5.0
100
AcDbLine
 10
126.3225947471168
 20
110.9576030282066
 30
0.0
 11
102.0225947471169
 21
110.9576030282066
 31
0.0
  0
LINE
  5
306
330
1A
100
AcDbEntity
  8
SEIHIN
  6
CONTINUOUS
 62
     3
 48
16.0
100
AcDbLine
 10
126.7027947471169
 20
109.4576030282066
 30
0.0
 11
102.0225947471169
 21
109.4576030282066
 31
0.0
  0
LINE
  5
307
330
1A
100
AcDbEntity
  8
SEIHIN
  6
CONTINUOUS
 62
     3
 48
16.0
100
AcDbLine
 10
126.2725947471169
 20
109.9576030282065
 30
0.0
 11
102.0225947471169
 21
109.9576030282065
 31
0.0
  0
LINE
  5
308
330
1A
100
AcDbEntity
  8
SEIHIN
  6
CONTINUOUS
 62
     3
 48
16.0
100
AcDbLine
 10
102.0225947471169
 20
110.9576030282066
 30
0.0
 11
125.4596947471171
 21
110.9576030282066
 31
0.0
  0
LINE
  5
309
330
1A
100
AcDbEntity
  8
SEIHIN
  6
CONTINUOUS
 62
     3
 48
16.0
100
AcDbLine
 10
102.0225947471169
 20
112.0576030282065
 30
0.0
 11
119.772594747117
 21
112.0576030282065
 31
0.0
  0
LINE
  5
30A
330
1A
100
AcDbEntity
  8
SEIHIN
  6
CONTINUOUS
 62
     3
 48
16.0
100
AcDbLine
 10
102.0225947471169
 20
113.2576030282066
 30
0.0
 11
118.572594747117
 21
113.2576030282066
 31
0.0
  0
LINE
  5
30B
330
1A
100
AcDbEntity
  8
SEIHIN
  6
CONTINUOUS
 62
     3
 48
16.0
100
AcDbLine
 10
102.0225947471169
 20
119.6576030282066
 30
0.0
 11
119.5725947471169
 21
119.6576030282066
 31
0.0
  0
LINE
  5
30D
330
1A
100
AcDbEntity
  8
NOKITOI
  6
PHANTOM
 62
     8
 48
5.0
100
AcDbLine
 10
102.0225947471169
 20
112.1576030282066
 30
0.0
 11
82.52259474711696
 21
112.1576030282066
 31
0.0
  0
LINE
  5
30E
330
1A
100
AcDbEntity
  8
SEIHIN
  6
CONTINUOUS
 62
     3
 48
16.0
100
AcDbLine
 10
102.0225947471169
 20
113.2576030282066
 30
0.0
 11
85.47249474711696
 21
113.2576030282066
 31
0.0
  0
LINE
  5
30F
330
1A
100
AcDbEntity
  8
SEIHIN
  6
CONTINUOUS
 62
     3
 48
16.0
100
AcDbLine
 10
102.0225947471169
 20
112.0576030282065
 30
0.0
 11
84.27249474711699
 21
112.0576030282065
 31
0.0
  0
LINE
  5
310
330
1A
100
AcDbEntity
  8
SEIHIN
  6
CONTINUOUS
 62
     3
 48
16.0
100
AcDbLine
 10
102.0225947471169
 20
119.6576030282066
 30
0.0
 11
84.47249474711709
 21
119.6576030282066
 31
0.0
  0
LINE
  5
311
330
1A
100
AcDbEntity
  8
NOKITOI
  6
PHANTOM
 62
     8
 48
5.0
100
AcDbLine
 10
81.32259474711679
 20
112.1576030282066
 30
0.0
 11
81.32259474711679
 21
116.6576030282066
 31
0.0
  0
LINE
  5
312
330
1A
100
AcDbEntity
  8
NOKITOI
  6
PHANTOM
 62
     8
 48
5.0
100
AcDbLine
 10
82.52259474711696
 20
112.1576030282066
 30
0.0
 11
82.52259474711696
 21
117.8576030282066
 31
0.0
  0
ARC
  5
313
330
1A
100
AcDbEntity
  8
SEIHIN
  6
CONTINUOUS
 62
     3
 48
16.0
100
AcDbCircle
 10
85.47249474711703
 20
114.2576030282066
 30
0.0
 40
0.9999999999999431
100
AcDbArc
 50
179.9999999999967
 51
269.9999999999967
  0
LINE
  5
314
330
1A
100
AcDbEntity
  8
SEIHIN
  6
CONTINUOUS
 62
     3
 48
16.0
100
AcDbLine
 10
83.2724947471171
 20
120.9576030282066
 30
0.0
 11
83.2724947471171
 21
113.0576030282066
 31
0.0
  0
ARC
  5
315
330
1A
100
AcDbEntity
  8
SEIHIN
  6
CONTINUOUS
 62
     3
 48
16.0
100
AcDbCircle
 10
84.27249474711709
 20
113.0576030282065
 30
0.0
 40
0.9999999999999857
100
AcDbArc
 50
179.9999999999942
 51
269.9999999999943
  0
ARC
  5
319
330
1A
100
AcDbEntity
  8
NOKITOI
  6
PHANTOM
 62
     8
 48
5.0
100
AcDbCircle
 10
137.1069365340931
 20
108.790127023096
 30
0.0
 40
12.19997945109404
100
AcDbArc
 50
107.7381834577211
 51
131.9928095737274
  0
ARC
  5
31A
330
1A
100
AcDbEntity
  8
NOKITOI
  6
PHANTOM
 62
     8
 48
5.0
100
AcDbCircle
 10
137.1068988599869
 20
108.7901073441773
 30
0.0
 40
10.99994632941526
100
AcDbArc
 50
104.1244483036074
 51
168.6362598432798
  0
LINE
  5
31B
330
1A
100
AcDbEntity
  8
SEIHIN
  6
CONTINUOUS
 62
     3
 48
16.0
100
AcDbLine
 10
121.772594747117
 20
121.9576030282066
 30
0.0
 11
132.5979947471169
 21
121.9576030282066
 31
0.0
  0
ARC
  5
31C
330
1A
100
AcDbEntity
  8
SEIHIN
  6
CONTINUOUS
 62
     3
 48
16.0
100
AcDbCircle
 10
137.114796930657
 20
109.1012055093207
 30
0.0
 40
9.499999528947556
100
AcDbArc
 50
104.7224593836936
 51
172.5778653070663
  0
ARC
  5
31D
330
1A
100
AcDbEntity
  8
SEIHIN
  6
CONTINUOUS
 62
     3
 48
16.0
100
AcDbCircle
 10
137.1147331811308
 20
109.1011339155699
 30
0.0
 40
9.999995723937159
100
AcDbArc
 50
106.3261037503164
 51
170.2832820928931
  0
ARC
  5
31E
330
1A
100
AcDbEntity
  8
SEIHIN
  6
CONTINUOUS
 62
     3
 48
16.0
100
AcDbCircle
 10
137.1147642896248
 20
109.1011695416158
 30
0.0
 40
10.99996025270622
100
AcDbArc
 50
109.1947575821474
 51
166.2290957910745
  0
ARC
  5
31F
330
1A
100
AcDbEntity
  8
SEIHIN
  6
CONTINUOUS
 62
     3
 48
16.0
100
AcDbCircle
 10
126.2725653378953
 20
110.9575782275916
 30
0.0
 40
0.999975199817517
100
AcDbArc
 50
270.0016850660623
 51
350.2831424821562
  0
ARC
  5
320
330
1A
100
AcDbEntity
  8
SEIHIN
  6
CONTINUOUS
 62
     3
 48
16.0
100
AcDbCircle
 10
126.7027842705475
 20
110.4575938281221
 30
0.0
 40
0.9999907999702958
100
AcDbArc
 50
270.0006002687296
 51
352.5770970716957
  0
ARC
  5
321
330
1A
100
AcDbEntity
  8
SEIHIN
  6
CONTINUOUS
 62
     3
 48
16.0
100
AcDbCircle
 10
118.572594747117
 20
114.2576030282066
 30
0.0
 40
0.9999999999999431
100
AcDbArc
 50
270.0000000000032
 51
0.0000000000032569
  0
ARC
  5
322
330
1A
100
AcDbEntity
  8
SEIHIN
  6
CONTINUOUS
 62
     3
 48
16.0
100
AcDbCircle
 10
119.7725947471169
 20
113.0576030282065
 30
0.0
 40
0.9999999999999857
100
AcDbArc
 50
270.0000000000057
 51
0.0000000000056996
  0
LINE
  5
323
330
1A
100
AcDbEntity
  8
SEIHIN
  6
CONTINUOUS
 62
     3
 48
16.0
100
AcDbLine
 10
120.7725947471169
 20
120.9576030282066
 30
0.0
 11
120.7725947471169
 21
113.0576030282066
 31
0.0
  0
LINE
  5
324
330
1A
100
AcDbEntity
  8
NOKITOI
  6
PHANTOM
 62
     8
 48
5.0
100
AcDbLine
 10
122.7225947471169
 20
112.1576030282066
 30
0.0
 11
125.3808947471169
 21
112.1576030282066
 31
0.0
  0
LINE
  5
325
330
1A
100
AcDbEntity
  8
NOKITOI
  6
PHANTOM
 62
     8
 48
5.0
100
AcDbLine
 10
122.7225947471169
 20
112.1576030282066
 30
0.0
 11
122.7225947471169
 21
116.6576030282066
 31
0.0
  0
LINE
  5
326
330
1A
100
AcDbEntity
  8
NOKITOI
  6
PHANTOM
 62
     8
 48
5.0
100
AcDbLine
 10
121.5225947471169
 20
112.1575030282065
 30
0.0
 11
121.5225947471169
 21
117.8576030282066
 31
0.0
  0
LINE
  5
327
330
1A
100
AcDbEntity
  8
NOKITOI
  6
PHANTOM
 62
     8
 48
5.0
100
AcDbLine
 10
128.9446947471169
 20
117.8575030282066
 30
0.0
 11
121.5225947471169
 21
117.8576030282066
 31
0.0
  0
LINE
  5
328
330
1A
100
AcDbEntity
  8
NOKITOI
  6
PHANTOM
 62
     8
 48
5.0
100
AcDbLine
 10
127.7825947471169
 20
116.6576030282066
 30
0.0
 11
122.7225947471169
 21
116.6576030282066
 31
0.0
  0
ARC
  5
329
330
1A
100
AcDbEntity
  8
NOKITOI
  6
PHANTOM
 62
     8
 48
5.0
100
AcDbCircle
 10
137.1069717307876
 20
108.7902472690719
 30
0.0
 40
12.19997101530972
100
AcDbArc
 50
139.8443138052131
 51
163.9780719705774
  0
ARC
  5
32A
330
1A
100
AcDbEntity
  8
SEIHIN
  6
CONTINUOUS
 62
     3
 48
16.0
100
AcDbCircle
 10
125.4597163164296
 20
111.9576199504202
 30
0.0
 40
1.000016922446203
100
AcDbArc
 50
269.9987641903383
 51
346.2307105915803
  0
ARC
  5
32B
330
1A
100
AcDbEntity
  8
SEIHIN
  6
CONTINUOUS
 62
     3
 48
16.0
100
AcDbCircle
 10
134.4463408687409
 20
119.2564510639945
 30
0.0
 40
0.9999847583948254
100
AcDbArc
 50
284.7236837511787
 51
347.5990624388978
  0
ARC
  5
32C
330
1A
100
AcDbEntity
  8
SEIHIN
  6
CONTINUOUS
 62
     3
 48
16.0
100
AcDbCircle
 10
134.0225429457675
 20
119.657547554772
 30
0.0
 40
0.999981976222115
100
AcDbArc
 50
286.3292623873405
 51
347.5992332581081
  0
ARC
  5
32D
330
1A
100
AcDbEntity
  8
SEIHIN
  6
CONTINUOUS
 62
     3
 48
16.0
100
AcDbCircle
 10
133.1694077356689
 20
120.4340176571189
 30
0.0
 40
1.000009945050803
100
AcDbArc
 50
289.1949701859677
 51
347.6013395122581
  0
LINE
  5
32E
330
1A
100
AcDbEntity
  8
SEIHIN
  6
CONTINUOUS
 62
     3
 48
16.0
100
AcDbLine
 10
144.0224947471171
 20
144.1576030282066
 30
0.0
 11
102.0225947471169
 21
144.1576030282066
 31
0.0
  0
LINE
  5
32F
330
1A
100
AcDbEntity
  8
SEIHIN
  6
CONTINUOUS
 62
     3
 48
16.0
100
AcDbLine
 10
137.4996947471169
 20
153.5076030282066
 30
0.0
 11
102.0225947471169
 21
153.5076030282066
 31
0.0
  0
ARC
  5
330
330
1A
100
AcDbEntity
  8
SEIHIN
  6
CONTINUOUS
 62
     3
 48
16.0
100
AcDbCircle
 10
83.47249474711697
 20
122.1576030282065
 30
0.0
 40
1.000000000000085
100
AcDbArc
 50
0.0000000000016284
 51
90.00000000000161
  0
LINE
  5
331
330
1A
100
AcDbEntity
  8
NOKITOI
  6
PHANTOM
 62
     8
 48
5.0
100
AcDbLine
 10
140.6062947471168
 20
149.7575030282065
 30
0.0
 11
139.6674947471169
 21
145.1575030282066
 31
0.0
  0
LINE
  5
332
330
1A
100
AcDbEntity
  8
NOKITOI
  6
PHANTOM
 62
     8
 48
5.0
100
AcDbLine
 10
143.3225947471167
 20
149.7575030282065
 30
0.0
 11
143.3225947471167
 21
145.1575030282066
 31
0.0
  0
LINE
  5
333
330
1A
100
AcDbEntity
  8
NOKITOI
  6
PHANTOM
 62
     8
 48
5.0
100
AcDbLine
 10
144.5225947471169
 20
143.9575030282065
 30
0.0
 11
144.5225947471169
 21
150.9575030282065
 31
0.0
  0
LINE
  5
334
330
1A
100
AcDbEntity
  8
SEIHIN
  6
CONTINUOUS
 62
     3
 48
16.0
100
AcDbLine
 10
145.0224947471171
 20
145.1576030282065
 30
0.0
 11
145.0224947471171
 21
151.0076030282066
 31
0.0
  0
LINE
  5
335
330
1A
100
AcDbEntity
  8
SEIHIN
  6
CONTINUOUS
 62
     3
 48
16.0
100
AcDbLine
 10
120.572594747117
 20
123.1576030282066
 30
0.0
 11
131.6330947471169
 21
123.1576030282066
 31
0.0
  0
ARC
  5
336
330
1A
100
AcDbEntity
  8
SEIHIN
  6
CONTINUOUS
 62
     3
 48
16.0
100
AcDbCircle
 10
120.572594747117
 20
122.1576030282065
 30
0.0
 40
1.000000000000085
100
AcDbArc
 50
89.99999999999836
 51
179.9999999999983
  0
LINE
  5
337
330
1A
100
AcDbEntity
  8
SEIHIN
  6
CONTINUOUS
 62
     3
 48
16.0
100
AcDbLine
 10
132.6097947471169
 20
123.9428030282067
 30
0.0
 11
136.6145947471171
 21
142.1576030282065
 31
0.0
  0
LINE
  5
338
330
1A
100
AcDbEntity
  8
SEIHIN
  6
CONTINUOUS
 62
     3
 48
16.0
100
AcDbLine
 10
133.574594747117
 20
122.7429030282065
 30
0.0
 11
137.576194747117
 21
140.9429030282065
 31
0.0
  0
ARC
  5
339
330
1A
100
AcDbEntity
  8
SEIHIN
  6
CONTINUOUS
 62
     3
 48
16.0
100
AcDbCircle
 10
131.6331202231796
 20
124.1576235102871
 30
0.0
 40
1.000020482404987
100
AcDbArc
 50
269.9985403590277
 51
347.5952625248584
  0
ARC
  5
33A
330
1A
100
AcDbEntity
  8
SEIHIN
  6
CONTINUOUS
 62
     3
 48
16.0
100
AcDbCircle
 10
136.599511214168
 20
141.1575825461261
 30
0.0
 40
1.000020482215999
100
AcDbArc
 50
347.5976656390269
 51
90.00094347319636
  0
LINE
  5
33B
330
1A
100
AcDbEntity
  8
SEIHIN
  6
CONTINUOUS
 62
     3
 48
16.0
100
AcDbLine
 10
136.6145947471171
 20
142.1576030282065
 30
0.0
 11
138.9694947471171
 21
142.1576030282065
 31
0.0
  0
LINE
  5
33C
330
1A
100
AcDbEntity
  8
NOKITOI
  6
PHANTOM
 62
     8
 48
5.0
100
AcDbLine
 10
139.6674947471169
 20
145.1575030282066
 30
0.0
 11
143.3225947471167
 21
145.1575030282066
 31
0.0
  0
LINE
  5
33D
330
1A
100
AcDbEntity
  8
NOKITOI
  6
PHANTOM
 62
     8
 48
5.0
100
AcDbLine
 10
144.5225947471169
 20
143.9575030282065
 30
0.0
 11
139.4225947471169
 21
143.9575030282065
 31
0.0
  0
LINE
  5
33E
330
1A
100
AcDbEntity
  8
SEIHIN
  6
CONTINUOUS
 62
     3
 48
16.0
100
AcDbLine
 10
145.522494747117
 20
142.6576030282066
 30
0.0
 11
141.4192947471169
 21
142.6576030282066
 31
0.0
  0
LINE
  5
33F
330
1A
100
AcDbEntity
  8
SEIHIN
  6
CONTINUOUS
 62
     3
 48
16.0
100
AcDbLine
 10
145.0224947471171
 20
143.1576030282065
 30
0.0
 11
141.017294747117
 21
143.1576030282065
 31
0.0
  0
ARC
  5
340
330
1A
100
AcDbEntity
  8
SEIHIN
  6
CONTINUOUS
 62
     3
 48
16.0
100
AcDbCircle
 10
141.4192826274016
 20
141.6575932833016
 30
0.0
 40
1.000009744978457
100
AcDbArc
 50
89.99930559823088
 51
167.6016235045648
  0
ARC
  5
341
330
1A
100
AcDbEntity
  8
SEIHIN
  6
CONTINUOUS
 62
     3
 48
16.0
100
AcDbCircle
 10
141.0172826274014
 20
142.1575932833014
 30
0.0
 40
1.000009744978528
100
AcDbArc
 50
89.99930559821459
 51
167.601623504548
  0
ARC
  5
342
330
1A
100
AcDbEntity
  8
SEIHIN
  6
CONTINUOUS
 62
     3
 48
16.0
100
AcDbCircle
 10
140.2132826274016
 20
143.1575932833014
 30
0.0
 40
1.000009744978628
100
AcDbArc
 50
89.99930559822193
 51
167.6016235045568
  0
ARC
  5
343
330
1A
100
AcDbEntity
  8
SEIHIN
  6
CONTINUOUS
 62
     3
 48
16.0
100
AcDbCircle
 10
144.0224947471171
 20
145.1576030282066
 30
0.0
 40
0.9999999999999431
100
AcDbArc
 50
269.9999999999967
 51
359.9999999999967
  0
ARC
  5
344
330
1A
100
AcDbEntity
  8
SEIHIN
  6
CONTINUOUS
 62
     3
 48
16.0
100
AcDbCircle
 10
138.8225852907332
 20
152.0075780078936
 30
0.0
 40
1.999974979709406
100
AcDbArc
 50
48.59227436874247
 51
270.0002709088295
  0
LINE
  5
345
330
1A
100
AcDbEntity
  8
NOKITOI
  6
PHANTOM
 62
     8
 48
5.0
100
AcDbLine
 10
144.5225947471169
 20
150.9575030282065
 30
0.0
 11
139.6241947471169
 21
150.9575030282065
 31
0.0
  0
LINE
  5
346
330
1A
100
AcDbEntity
  8
NOKITOI
  6
PHANTOM
 62
     8
 48
5.0
100
AcDbLine
 10
140.6062947471168
 20
149.7575030282065
 30
0.0
 11
143.3225947471167
 21
149.7575030282065
 31
0.0
  0
LINE
  5
347
330
1A
100
AcDbEntity
  8
SEIHIN
  6
CONTINUOUS
 62
     3
 48
16.0
100
AcDbLine
 10
145.522494747117
 20
153.5076030282066
 30
0.0
 11
140.1453947471171
 21
153.5076030282066
 31
0.0
  0
LINE
  5
348
330
1A
100
AcDbEntity
  8
SEIHIN
  6
CONTINUOUS
 62
     3
 48
16.0
100
AcDbLine
 10
145.0224947471171
 20
153.0076030282066
 30
0.0
 11
138.822594747117
 21
153.0076030282066
 31
0.0
  0
LINE
  5
349
330
1A
100
AcDbEntity
  8
SEIHIN
  6
CONTINUOUS
 62
     3
 48
16.0
100
AcDbLine
 10
144.0224947471171
 20
152.0076030282066
 30
0.0
 11
138.822594747117
 21
152.0076030282066
 31
0.0
  0
ARC
  5
34A
330
1A
100
AcDbEntity
  8
SEIHIN
  6
CONTINUOUS
 62
     3
 48
16.0
100
AcDbCircle
 10
144.0224947471171
 20
151.0076030282066
 30
0.0
 40
1.0
100
AcDbArc
 50
0.0
 51
90.0
  0
LINE
  5
34B
330
1A
100
AcDbEntity
  8
SEIHIN
  6
CONTINUOUS
 62
     3
 48
16.0
100
AcDbLine
 10
138.822594747117
 20
150.0076030282065
 30
0.0
 11
138.822594747117
 21
153.0076030282066
 31
0.0
  0
LINE
  5
350
330
1A
100
AcDbEntity
  8
SEIHIN
  6
CONTINUOUS
 62
     3
 48
16.0
100
AcDbLine
 10
215.5224947471169
 20
153.5076030282066
 30
0.0
 11
178.5224947471169
 21
153.5076030282066
 31
0.0
  0
LINE
  5
351
330
1A
100
AcDbEntity
  8
SEIHIN
  6
CONTINUOUS
 62
     3
 48
16.0
100
AcDbLine
 10
215.5224947471169
 20
142.6576030282066
 30
0.0
 11
182.5224947471169
 21
142.6576030282066
 31
0.0
  0
LINE
  5
353
330
1A
100
AcDbEntity
  8
SEIHIN
  6
CONTINUOUS
 62
     3
 48
16.0
100
AcDbLine
 10
205.422994747117
 20
119.0417030282066
 30
0.0
 11
182.5224947471169
 21
119.0417030282066
 31
0.0
  0
ARC
  5
354
330
1A
100
AcDbEntity
  8
SEIHIN
  6
CONTINUOUS
 62
     3
 48
16.0
100
AcDbCircle
 10
207.1148119715482
 20
109.1012226001939
 30
0.0
 40
9.50001223605842
100
AcDbArc
 50
104.7231566260955
 51
172.5779792388964
  0
LINE
  5
355
330
1A
100
AcDbEntity
  8
SEIHIN
  6
CONTINUOUS
 62
     3
 48
16.0
100
AcDbLine
 10
182.5224947471169
 20
153.5076030282066
 30
0.0
 11
182.5224947471169
 21
109.4576030282066
 31
0.0
  0
LINE
  5
356
330
1A
100
AcDbEntity
  8
SEIHIN
  6
CONTINUOUS
 62
     3
 48
16.0
100
AcDbLine
 10
178.5224947471169
 20
109.9576030282065
 30
0.0
 11
178.5224947471169
 21
154.0076030282066
 31
0.0
  0
LINE
  5
35A
330
1A
100
AcDbEntity
  8
SEIHIN
  6
CONTINUOUS
 62
     3
 48
16.0
100
AcDbLine
 10
196.702694747117
 20
109.4576030282066
 30
0.0
 11
182.5224947471169
 21
109.4576030282066
 31
0.0
  0
LINE
  5
35B
330
1A
100
AcDbEntity
  8
SEIHIN
  6
CONTINUOUS
 62
     3
 48
16.0
100
AcDbLine
 10
178.5224947471169
 20
109.9576030282065
 30
0.0
 11
182.5224947471169
 21
109.4576030282066
 31
0.0
  0
LINE
  5
35C
330
1A
100
AcDbEntity
  8
SEIHIN
  6
CONTINUOUS
 62
     3
 48
16.0
100
AcDbLine
 10
178.5224947471169
 20
119.5417030282066
 30
0.0
 11
182.5224947471169
 21
119.0417030282066
 31
0.0
  0
ARC
  5
35D
330
1A
100
AcDbEntity
  8
SEIHIN
  6
CONTINUOUS
 62
     3
 48
16.0
100
AcDbCircle
 10
196.7026842705476
 20
110.4575938281219
 30
0.0
 40
0.9999907999701964
100
AcDbArc
 50
270.0006002687345
 51
352.5770970717007
  0
LINE
  5
35E
330
1A
100
AcDbEntity
  8
SEIHIN
  6
CONTINUOUS
 62
     3
 48
16.0
100
AcDbLine
 10
146.0224947471171
 20
152.0076030282066
 30
0.0
 11
146.0224947471171
 21
144.1576030282066
 31
0.0
  0
LINE
  5
35F
330
1A
100
AcDbEntity
  8
SEIHIN
  6
CONTINUOUS
 62
     3
 48
16.0
100
AcDbLine
 10
146.5224947471169
 20
152.5076030282066
 30
0.0
 11
146.5224947471169
 21
143.6576030282066
 31
0.0
  0
LINE
  5
364
330
1A
100
AcDbEntity
  8
SEIHIN
  6
CONTINUOUS
 62
     3
 48
16.0
100
AcDbLine
 10
178.5224947471169
 20
143.1576030282065
 30
0.0
 11
182.5224947471169
 21
142.6576030282066
 31
0.0
  0
LINE
  5
365
330
1A
100
AcDbEntity
  8
SEIHIN
  6
CONTINUOUS
 62
     3
 48
16.0
100
AcDbLine
 10
178.5224947471169
 20
154.0076030282066
 30
0.0
 11
193.522494747117
 21
154.0076030282066
 31
0.0
  0
LINE
  5
369
330
1A
100
AcDbEntity
  8
SEIHIN
  6
CONTINUOUS
 62
     3
 48
16.0
100
AcDbLine
 10
193.522494747117
 20
154.0075030282065
 30
0.0
 11
193.522494747117
 21
153.5076030282066
 31
0.0
  0
LINE
  5
36A
330
1A
100
AcDbEntity
  8
SEIHIN
  6
CONTINUOUS
 62
     3
 48
16.0
100
AcDbLine
 10
205.422994747117
 20
119.0417030282066
 30
0.0
 11
210.442594747117
 21
141.8723030282065
 31
0.0
  0
ARC
  5
36B
330
1A
100
AcDbEntity
  8
SEIHIN
  6
CONTINUOUS
 62
     3
 48
16.0
100
AcDbCircle
 10
204.4463577421436
 20
119.2564686313351
 30
0.0
 40
0.9999720514947675
100
AcDbArc
 50
284.7169512813895
 51
347.5978717386983
  0
LINE
  5
36C
330
1A
100
AcDbEntity
  8
SEIHIN
  6
CONTINUOUS
 62
     3
 48
16.0
100
AcDbLine
 10
216.5224947471169
 20
152.5076030282066
 30
0.0
 11
216.5224947471169
 21
143.6576030282066
 31
0.0
  0
ARC
  5
36D
330
1A
100
AcDbEntity
  8
SEIHIN
  6
CONTINUOUS
 62
     3
 48
16.0
100
AcDbCircle
 10
215.5224947471169
 20
143.6576030282066
 30
0.0
 40
1.0
100
AcDbArc
 50
270.0
 51
0.0
  0
ARC
  5
36E
330
1A
100
AcDbEntity
  8
SEIHIN
  6
CONTINUOUS
 62
     3
 48
16.0
100
AcDbCircle
 10
211.4192826274016
 20
141.6575932833016
 30
0.0
 40
1.000009744978457
100
AcDbArc
 50
89.99930559823088
 51
167.6016235045648
  0
ARC
  5
370
330
1A
100
AcDbEntity
  8
SEIHIN
  6
CONTINUOUS
 62
     3
 48
16.0
100
AcDbCircle
 10
215.5224947471169
 20
152.5076030282066
 30
0.0
 40
1.0
100
AcDbArc
 50
0.0
 51
90.0
  0
LINE
  5
37A
330
1A
100
AcDbEntity
  8
CENTER_L
  6
CENTER
 62
     1
 48
5.0
100
AcDbLine
 10
302.0225947471169
 20
101.4441030282066
 30
0.0
 11
302.0225947471169
 21
162.1219030282065
 31
0.0
  0
LINE
  5
37E
330
1A
100
AcDbEntity
  8
SEIHIN
  6
CONTINUOUS
 62
     3
 48
16.0
100
AcDbLine
 10
277.3423947471171
 20
109.4576030282066
 30
0.0
 11
302.0225947471169
 21
109.4576030282066
 31
0.0
  0
LINE
  5
388
330
1A
100
AcDbEntity
  8
SEIHIN
  6
CONTINUOUS
 62
     3
 48
16.0
100
AcDbLine
 10
268.622094747117
 20
119.0417030282066
 30
0.0
 11
263.6024947471169
 21
141.8723030282065
 31
0.0
  0
ARC
  5
38E
330
1A
100
AcDbEntity
  8
SEIHIN
  6
CONTINUOUS
 62
     3
 48
16.0
100
AcDbCircle
 10
266.9302925635769
 20
109.1012055093206
 30
0.0
 40
9.499999528947627
100
AcDbArc
 50
7.422134692934205
 51
75.27754061630713
  0
ARC
  5
395
330
1A
100
AcDbEntity
  8
SEIHIN
  6
CONTINUOUS
 62
     3
 48
16.0
100
AcDbCircle
 10
269.5987486254931
 20
119.2564510639943
 30
0.0
 40
0.9999847583946531
100
AcDbArc
 50
192.4009375610913
 51
255.2763162488094
  0
ARC
  5
39E
330
1A
100
AcDbEntity
  8
SEIHIN
  6
CONTINUOUS
 62
     3
 48
16.0
100
AcDbCircle
 10
277.3424052236865
 20
110.4575938281219
 30
0.0
 40
0.9999907999702003
100
AcDbArc
 50
187.4229029282992
 51
269.9993997312654
  0
LINE
  5
3A6
330
1A
100
AcDbEntity
  8
SEIHIN
  6
CONTINUOUS
 62
     3
 48
16.0
100
AcDbLine
 10
258.5225947471169
 20
153.5076030282066
 30
0.0
 11
302.0225947471169
 21
153.5076030282066
 31
0.0
  0
LINE
  5
3A8
330
1A
100
AcDbEntity
  8
SEIHIN
  6
CONTINUOUS
 62
     3
 48
16.0
100
AcDbLine
 10
258.5225947471169
 20
142.6576030282066
 30
0.0
 11
302.0225947471169
 21
142.6576030282066
 31
0.0
  0
LINE
  5
3AB
330
1A
100
AcDbEntity
  8
SEIHIN
  6
CONTINUOUS
 62
     3
 48
16.0
100
AcDbLine
 10
257.522594747117
 20
152.5076030282066
 30
0.0
 11
257.522594747117
 21
143.6576030282066
 31
0.0
  0
ARC
  5
3AD
330
1A
100
AcDbEntity
  8
SEIHIN
  6
CONTINUOUS
 62
     3
 48
16.0
100
AcDbCircle
 10
258.522594747117
 20
143.6576030282066
 30
0.0
 40
0.9999999999999431
100
AcDbArc
 50
179.9999999999967
 51
269.9999999999967
  0
ARC
  5
3B0
330
1A
100
AcDbEntity
  8
SEIHIN
  6
CONTINUOUS
 62
     3
 48
16.0
100
AcDbCircle
 10
258.522594747117
 20
152.5076030282067
 30
0.0
 40
0.9999999999999431
100
AcDbArc
 50
90.00000000000325
 51
180.0000000000032
  0
ARC
  5
3B5
330
1A
100
AcDbEntity
  8
SEIHIN
  6
CONTINUOUS
 62
     3
 48
16.0
100
AcDbCircle
 10
262.6258068668324
 20
141.6575932833016
 30
0.0
 40
1.000009744978465
100
AcDbArc
 50
12.39837649543519
 51
90.00069440176913
  0
ARC
  5
3BA
330
1A
100
AcDbEntity
  8
SEIHIN
  6
CONTINUOUS
 62
     3
 48
16.0
100
AcDbCircle
 10
265.2225042035008
 20
152.0075780078935
 30
0.0
 40
1.999974979709373
100
AcDbArc
 50
48.59227436874586
 51
131.4077256312545
  0
LINE
  5
3C5
330
1A
100
AcDbEntity
  8
SEIHIN
  6
CONTINUOUS
 62
     3
 48
16.0
100
AcDbLine
 10
326.7027947471169
 20
109.4576030282066
 30
0.0
 11
302.0225947471169
 21
109.4576030282066
 31
0.0
  0
LINE
  5
3CF
330
1A
100
AcDbEntity
  8
SEIHIN
  6
CONTINUOUS
 62
     3
 48
16.0
100
AcDbLine
 10
335.422994747117
 20
119.0417030282066
 30
0.0
 11
340.4425947471171
 21
141.8723030282065
 31
0.0
  0
ARC
  5
3D6
330
1A
100
AcDbEntity
  8
SEIHIN
  6
CONTINUOUS
 62
     3
 48
16.0
100
AcDbCircle
 10
337.114796930657
 20
109.1012055093207
 30
0.0
 40
9.499999528947556
100
AcDbArc
 50
104.7224593836936
 51
172.5778653070663
  0
ARC
  5
3E9
330
1A
100
AcDbEntity
  8
SEIHIN
  6
CONTINUOUS
 62
     3
 48
16.0
100
AcDbCircle
 10
326.7027842705475
 20
110.4575938281221
 30
0.0
 40
0.9999907999702958
100
AcDbArc
 50
270.0006002687296
 51
352.5770970716957
  0
ARC
  5
3EE
330
1A
100
AcDbEntity
  8
SEIHIN
  6
CONTINUOUS
 62
     3
 48
16.0
100
AcDbCircle
 10
334.4463408687409
 20
119.2564510639945
 30
0.0
 40
0.9999847583948254
100
AcDbArc
 50
284.7236837511787
 51
347.5990624388978
  0
LINE
  5
3F1
330
1A
100
AcDbEntity
  8
SEIHIN
  6
CONTINUOUS
 62
     3
 48
16.0
100
AcDbLine
 10
345.5224947471171
 20
153.5076030282066
 30
0.0
 11
302.0225947471169
 21
153.5076030282066
 31
0.0
  0
ARC
  5
3F4
330
1A
100
AcDbEntity
  8
SEIHIN
  6
CONTINUOUS
 62
     3
 48
16.0
100
AcDbCircle
 10
341.4192826274016
 20
141.6575932833016
 30
0.0
 40
1.000009744978457
100
AcDbArc
 50
89.99930559823088
 51
167.6016235045648
  0
ARC
  5
3FD
330
1A
100
AcDbEntity
  8
SEIHIN
  6
CONTINUOUS
 62
     3
 48
16.0
100
AcDbCircle
 10
338.8225852907333
 20
152.0075780078936
 30
0.0
 40
1.999974979709406
100
AcDbArc
 50
48.59227436874247
 51
131.4077256312576
  0
LINE
  5
3FF
330
1A
100
AcDbEntity
  8
SEIHIN
  6
CONTINUOUS
 62
     3
 48
16.0
100
AcDbLine
 10
346.5224947471169
 20
152.5076030282066
 30
0.0
 11
346.5224947471169
 21
143.6576030282066
 31
0.0
  0
LINE
  5
404
330
1A
100
AcDbEntity
  8
SEIHIN
  6
CONTINUOUS
 62
     3
 48
16.0
100
AcDbLine
 10
345.5224947471171
 20
142.6576030282066
 30
0.0
 11
302.0225947471169
 21
142.6576030282066
 31
0.0
  0
ARC
  5
407
330
1A
100
AcDbEntity
  8
SEIHIN
  6
CONTINUOUS
 62
     3
 48
16.0
100
AcDbCircle
 10
345.522494747117
 20
143.6576030282066
 30
0.0
 40
0.9999999999999147
100
AcDbArc
 50
270.0000000000049
 51
0.0000000000048853
  0
ARC
  5
40A
330
1A
100
AcDbEntity
  8
SEIHIN
  6
CONTINUOUS
 62
     3
 48
16.0
100
AcDbCircle
 10
345.522494747117
 20
152.5076030282067
 30
0.0
 40
0.9999999999999147
100
AcDbArc
 50
359.9999999999951
 51
89.99999999999511
  0
LINE
  5
40B
330
1A
100
AcDbEntity
  8
SEIHIN
  6
CONTINUOUS
100
AcDbLine
 10
268.622094747117
 20
119.0417030282066
 30
0.0
 11
335.4229947471171
 21
119.0417030282066
 31
0.0
  0
DIMENSION
  5
419
330
1A
100
AcDbEntity
  8
SUNPOU
  6
CONTINUOUS
100
AcDbDimension
  2
*D1
 10
257.522594747117
 20
172.7607825766418
 30
0.0
 11
302.0225447471169
 21
175.2607825766418
 31
0.0
 12
-5.0
 22
0.0
 32
0.0
 70
    32
  3
STANDARD
100
AcDbAlignedDimension
 13
346.5224947471169
 23
152.5076030282066
 33
0.0
 14
257.522594747117
 24
152.5076030282066
 34
0.0
100
AcDbRotatedDimension
1001
ACAD
1000
DSTYLE
1002
{
1070
   140
1040
3.0
1070
    74
1070
     0
1070
   172
1070
     1
1070
    73
1070
     0
1070
   272
1070
     2
1070
    77
1070
     3
1070
   173
1070
     1
1070
   147
1040
1.0
1070
    42
1040
3.0
1070
    44
1040
1.5
1070
    43
1040
7.0
1070
   271
1070
     0
1070
   178
1070
     4
1070
   177
1070
     4
1070
   176
1070
     4
1070
   141
1040
150.0
1070
     7
1000
_OPEN
1070
     6
1000
_OPEN
1070
    41
1040
3.0
1002
}
  0
DIMENSION
  5
426
330
1A
100
AcDbEntity
  8
SUNPOU
  6
CONTINUOUS
100
AcDbDimension
  2
*D2
 10
245.2231084606755
 20
109.4576030282066
 30
0.0
 11
242.7231084606755
 21
131.4826030282066
 31
0.0
 12
-5.0
 22
0.0
 32
0.0
 70
    32
  3
STANDARD
100
AcDbAlignedDimension
 13
258.5225947471169
 23
153.5076030282066
 33
0.0
 14
277.3423947471171
 24
109.4576030282066
 34
0.0
 50
90.0
100
AcDbRotatedDimension
1001
ACAD
1000
DSTYLE
1002
{
1070
   140
1040
3.0
1070
    74
1070
     0
1070
   172
1070
     1
1070
    73
1070
     0
1070
   272
1070
     2
1070
    77
1070
     3
1070
   173
1070
     1
1070
   147
1040
1.0
1070
    42
1040
3.0
1070
    44
1040
1.5
1070
    43
1040
7.0
1070
   271
1070
     0
1070
   178
1070
     4
1070
   177
1070
     4
1070
   176
1070
     4
1070
   141
1040
150.0
1070
     7
1000
_OPEN
1070
     6
1000
_OPEN
1070
    41
1040
3.0
1002
}
  0
DIMENSION
  5
433
330
1A
100
AcDbEntity
  8
SUNPOU
  6
CONTINUOUS
100
AcDbDimension
  2
*D3
 10
276.4236045177127
 20
93.04121264237073
 30
0.0
 11
302.022544747117
 21
95.54121264237073
 31
0.0
 12
-5.0
 22
0.0
 32
0.0
 70
    32
  3
STANDARD
100
AcDbAlignedDimension
 13
327.6214849765213
 23
109.4576030282066
 33
0.0
 14
276.4236045177127
 24
109.4576030282066
 34
0.0
100
AcDbRotatedDimension
1001
ACAD
1000
DSTYLE
1002
{
1070
   140
1040
3.0
1070
    74
1070
     0
1070
   172
1070
     1
1070
    73
1070
     0
1070
   272
1070
     2
1070
    77
1070
     3
1070
   173
1070
     1
1070
   147
1040
1.0
1070
    42
1040
3.0
1070
    44
1040
1.5
1070
    43
1040
7.0
1070
   271
1070
     0
1070
   178
1070
     4
1070
   177
1070
     4
1070
   176
1070
     4
1070
   141
1040
150.0
1070
     7
1000
_OPEN
1070
     6
1000
_OPEN
1070
    41
1040
3.0
1002
}
  0
DIMENSION
  5
440
330
1A
100
AcDbEntity
  8
SUNPOU
  6
CONTINUOUS
100
AcDbDimension
  2
*D4
 10
178.5224947471169
 20
172.6354579947753
 30
0.0
 11
197.5224947471169
 21
175.1354579947753
 31
0.0
 12
-5.0
 22
0.0
 32
0.0
 70
    32
  3
STANDARD
100
AcDbAlignedDimension
 13
216.5224947471169
 23
152.5076030282066
 33
0.0
 14
178.5224947471169
 24
154.0076030282066
 34
0.0
100
AcDbRotatedDimension
1001
ACAD
1000
DSTYLE
1002
{
1070
   140
1040
3.0
1070
    74
1070
     0
1070
   172
1070
     1
1070
    73
1070
     0
1070
   272
1070
     2
1070
    77
1070
     3
1070
   173
1070
     1
1070
   147
1040
1.0
1070
    42
1040
3.0
1070
    44
1040
1.5
1070
    43
1040
7.0
1070
   271
1070
     0
1070
   178
1070
     4
1070
   177
1070
     4
1070
   176
1070
     4
1070
   141
1040
150.0
1070
     7
1000
_OPEN
1070
     6
1000
_OPEN
1070
    41
1040
3.0
1002
}
  0
TEXT
  5
454
330
1A
100
AcDbEntity
  8
SUNPOU
 62
     4
100
AcDbText
 10
316.274684844988
 20
23.04499356465981
 30
0.0
 40
4.0
  1
※　のきといの差込み寸法を示す
100
AcDbText
  0
DIMENSION
  5
468
330
1A
100
AcDbEntity
  8
SUNPOU
  6
CONTINUOUS
100
AcDbDimension
  2
*D5
 10
194.5224947471169
 20
93.0719699344179
 30
0.0
 11
186.5224947471169
 21
95.5719699344179
 31
0.0
 70
    32
  1
※<>
  3
STANDARD
100
AcDbAlignedDimension
 13
178.5224947471169
 23
109.9576030282065
 33
0.0
 14
194.5224947471169
 24
109.4576030282066
 34
0.0
100
AcDbRotatedDimension
1001
ACAD
1000
DSTYLE
1002
{
1070
   140
1040
3.0
1070
    74
1070
     0
1070
   172
1070
     1
1070
    73
1070
     0
1070
   272
1070
     2
1070
    77
1070
     3
1070
   173
1070
     1
1070
   147
1040
1.0
1070
    42
1040
3.0
1070
    44
1040
1.5
1070
    43
1040
7.0
1070
   271
1070
     0
1070
   178
1070
     4
1070
   177
1070
     4
1070
   176
1070
     4
1070
   141
1040
150.0
1070
     7
1000
_OPEN
1070
     6
1000
_OPEN
1070
    41
1040
3.0
1002
}
  0
DIMENSION
  5
475
330
1A
100
AcDbEntity
  8
SUNPOU
  6
CONTINUOUS
100
AcDbDimension
  2
*D6
 10
197.6214866597415
 20
82.36740223892899
 30
0.0
 11
188.0719907034292
 21
84.86740223892899
 31
0.0
 70
    32
  3
STANDARD
100
AcDbAlignedDimension
 13
178.5224947471169
 23
109.9576030282065
 33
0.0
 14
197.6214866597415
 24
109.4576030282066
 34
0.0
100
AcDbRotatedDimension
1001
ACAD
1000
DSTYLE
1002
{
1070
   140
1040
3.0
1070
    74
1070
     0
1070
   172
1070
     1
1070
    73
1070
     0
1070
   272
1070
     2
1070
    77
1070
     3
1070
   173
1070
     1
1070
   147
1040
1.0
1070
    42
1040
3.0
1070
    44
1040
1.5
1070
    43
1040
7.0
1070
   271
1070
     0
1070
   178
1070
     4
1070
   177
1070
     4
1070
   176
1070
     4
1070
   141
1040
150.0
1070
     7
1000
_OPEN
1070
     6
1000
_OPEN
1070
    41
1040
3.0
1002
}
  0
LWPOLYLINE
  5
749
330
1A
100
AcDbEntity
  8
ZUWAKU
100
AcDbPolyline
 90
        4
 70
     1
 43
0.0
 10
0.4000003632512517
 20
275.4000002150744
 10
0.4000003632512517
 20
0.400000215074499
 10
398.4000003632512
 20
0.400000215074499
 10
398.4000003632512
 20
275.4000002150744
  0
LWPOLYLINE
  5
74A
330
1A
100
AcDbEntity
  8
ZUWAKU
100
AcDbPolyline
 90
        4
 70
     1
 43
0.0
 10
0.200000363251263
 20
275.6000002150745
 10
0.200000363251263
 20
0.2000002150745104
 10
398.6000003632513
 20
0.2000002150744988
 10
398.6000003632513
 20
275.6000002150745
  0
LWPOLYLINE
  5
74B
330
1A
100
AcDbEntity
  8
ZUWAKU
100
AcDbPolyline
 90
        4
 70
     1
 43
0.0
 10
0.0000003632512744
 20
275.8000002150744
 10
0.0000003632512744
 20
0.0000002150744649
 10
398.8000003632513
 20
0.0000002150744987
 10
398.8000003632513
 20
275.8000002150745
  0
LWPOLYLINE
  5
74C
330
1A
100
AcDbEntity
  8
ZUWAKU
100
AcDbPolyline
 90
        4
 70
     1
 43
0.0
 10
0.3000003632512289
 20
275.5000002150745
 10
0.3000003632512289
 20
0.3000002150744763
 10
398.5000003632514
 20
0.3000002150744994
 10
398.5000003632512
 20
275.5000002150745
  0
LWPOLYLINE
  5
74D
330
1A
100
AcDbEntity
  8
ZUWAKU
100
AcDbPolyline
 90
        4
 70
     1
 43
0.0
 10
0.1000003632512403
 20
275.7000002150745
 10
0.1000003632512403
 20
0.1000002150744876
 10
398.7000003632512
 20
0.1000002150744992
 10
398.7000003632513
 20
275.7000002150745
  0
LINE
  5
74E
330
1A
100
AcDbEntity
  8
ZUWAKU
100
AcDbLine
 10
0.0000003632512744
 20
15.00000021507446
 30
0.0
 11
398.7000003632512
 21
15.00000021507446
 31
0.0
  0
LINE
  5
74F
330
1A
100
AcDbEntity
  8
ZUWAKU
100
AcDbLine
 10
0.0000003632512744
 20
15.10000021507446
 30
0.0
 11
398.7000003632512
 21
15.10000021507446
 31
0.0
  0
LINE
  5
750
330
1A
100
AcDbEntity
  8
ZUWAKU
100
AcDbLine
 10
0.0000003632512744
 20
15.20000021507446
 30
0.0
 11
398.7000003632512
 21
15.20000021507446
 31
0.0
  0
LINE
  5
751
330
1A
100
AcDbEntity
  8
ZUWAKU
100
AcDbLine
 10
0.0000003632512744
 20
15.30000021507446
 30
0.0
 11
398.7000003632512
 21
15.30000021507446
 31
0.0
  0
LINE
  5
752
330
1A
100
AcDbEntity
  8
ZUWAKU
100
AcDbLine
 10
0.0000003632512744
 20
15.40000021507447
 30
0.0
 11
398.7000003632512
 21
15.40000021507447
 31
0.0
  0
LINE
  5
753
330
1A
100
AcDbEntity
  8
ZUWAKU
100
AcDbLine
 10
104.3233010082852
 20
7.700000215074481
 30
0.0
 11
223.7121823487469
 21
7.700000215074481
 31
0.0
  0
LINE
  5
754
330
1A
100
AcDbEntity
  8
ZUWAKU
100
AcDbLine
 10
104.3233010082852
 20
7.800000215074481
 30
0.0
 11
223.7121823487469
 21
7.800000215074485
 31
0.0
  0
LINE
  5
755
330
1A
100
AcDbEntity
  8
ZUWAKU
100
AcDbLine
 10
104.3233010082852
 20
7.600000215074484
 30
0.0
 11
223.7121823487469
 21
7.60000021507448
 31
0.0
  0
CIRCLE
  5
756
330
1A
100
AcDbEntity
  8
ZUWAKU
100
AcDbCircle
 10
12.99610644064182
 20
7.600000215074466
 30
0.0
 40
0.875
  0
LINE
  5
757
330
1A
100
AcDbEntity
  8
ZUWAKU
100
AcDbLine
 10
13.43360644064182
 20
3.575000215074467
 30
0.0
 11
12.47110644064184
 21
3.575000215074467
 31
0.0
  0
LINE
  5
758
330
1A
100
AcDbEntity
  8
ZUWAKU
100
AcDbLine
 10
12.47110644064184
 20
4.975000215074466
 30
0.0
 11
13.43360644064182
 21
4.975000215074466
 31
0.0
  0
LINE
  5
759
330
1A
100
AcDbEntity
  8
ZUWAKU
100
AcDbLine
 10
13.43360644064182
 20
10.22500021507446
 30
0.0
 11
12.47110644064184
 21
10.22500021507446
 31
0.0
  0
LINE
  5
75A
330
1A
100
AcDbEntity
  8
ZUWAKU
100
AcDbLine
 10
12.47110644064184
 20
11.62500021507444
 30
0.0
 11
13.43360644064182
 21
11.62500021507446
 31
0.0
  0
HATCH
  5
75B
330
1A
100
AcDbEntity
  8
ZUWAKU
100
AcDbHatch
 10
0.0
 20
0.0
 30
0.0
210
0.0
220
0.0
230
1.0
  2
ANSI37
 70
     0
 71
     0
 91
        8
 92
        7
 72
     1
 73
     1
 93
       24
 10
7.251131693811203
 20
8.822424455566256
 42
-0.1989123673796348
 10
7.046106440641835
 20
9.317399202396781
 42
0.0
 10
7.046106440641835
 20
9.96250021507447
 42
-0.4142135623730912
 10
7.308606440641824
 20
10.22500021507446
 42
0.0
 10
8.796106440641779
 20
10.22500021507446
 42
0.4142135623731546
 10
9.058606440641824
 20
10.48750021507446
 42
0.0
 10
9.058606440641824
 20
11.36250021507446
 42
0.4142135623731586
 10
8.796106440641779
 20
11.62500021507446
 42
0.0
 10
7.046106440641835
 20
11.62500021507446
 42
0.4142135623730928
 10
5.646106440641858
 20
10.22500021507448
 42
0.0
 10
5.646106440641858
 20
9.317399202396845
 42
0.1989123673796619
 10
6.261182200150074
 20
7.832474961905042
 42
0.0
 10
7.716081187472411
 20
6.377575974582713
 42
-0.1989123673796613
 10
7.921106440641835
 20
5.88260122775212
 42
0.0
 10
7.921106440641835
 20
5.237500215074462
 42
-0.4142135623730911
 10
7.658606440641847
 20
4.975000215074466
 42
0.0
 10
6.171106440641892
 20
4.975000215074466
 42
0.4142135623731526
 10
5.908606440641847
 20
4.712500215074472
 42
0.0
 10
5.908606440641847
 20
3.837500215074461
 42
0.4142135623731526
 10
6.171106440641892
 20
3.575000215074467
 42
0.0
 10
7.921106440641835
 20
3.575000215074467
 42
0.4142135623731044
 10
9.321106440641869
 20
4.975000215074455
 42
0.0
 10
9.321106440641869
 20
5.882601227752092
 42
0.1989123673796604
 10
8.706030681133597
 20
7.367525468243862
 42
0.0
 97
        0
 92
        7
 72
     1
 73
     1
 93
       16
 10
11.77110644064185
 20
9.52500021507447
 42
-0.4142135623730935
 10
12.47110644064184
 20
10.22500021507446
 42
0.0
 10
13.43360644064182
 20
10.22500021507446
 42
0.4142135623731546
 10
13.69610644064187
 20
10.48750021507446
 42
0.0
 10
13.69610644064187
 20
11.36250021507446
 42
0.4142135623730951
 10
13.43360644064188
 20
11.62500021507446
 42
0.0
 10
12.47110644064179
 20
11.62500021507444
 42
0.4142135623730892
 10
10.37110644064182
 20
9.525000215074435
 42
0.0
 10
10.37110644064182
 20
5.675000215074479
 42
0.4142135623730969
 10
12.47110644064184
 20
3.575000215074467
 42
0.0
 10
13.43360644064182
 20
3.575000215074467
 42
0.4142135623731526
 10
13.69610644064187
 20
3.837500215074461
 42
0.0
 10
13.69610644064187
 20
4.712500215074472
 42
0.4142135623730891
 10
13.43360644064188
 20
4.975000215074466
 42
0.0
 10
12.47110644064184
 20
4.975000215074466
 42
-0.4142135623730928
 10
11.77110644064185
 20
5.67500021507446
 42
0.0
 97
        0
 92
        7
 72
     1
 73
     1
 93
        2
 10
12.12110644064182
 20
7.600000215074466
 42
1.0
 10
13.87110644064182
 20
7.600000215074466
 42
1.0
 97
        0
 92
        7
 72
     1
 73
     1
 93
       26
 10
18.65742968173083
 20
9.60252381185618
 42
0.0
 10
19.18824949829974
 20
11.28345323099097
 42
0.5069206636600134
 10
18.93793404870206
 20
11.62500021507446
 42
0.0
 10
18.08848935889744
 20
11.62500021507446
 42
0.3272098845218764
 10
17.83817390929977
 20
11.44154719915795
 42
0.0
 10
16.90403897198388
 20
8.483453230991006
 42
-0.3272098845219541
 10
16.65372352238614
 20
8.300000215074465
 42
0.0
 10
16.58360644064191
 20
8.300000215074465
 42
-0.4142135623731526
 10
16.32110644064186
 20
8.562500215074459
 42
0.0
 10
16.32110644064186
 20
11.36250021507446
 42
0.4142135623730951
 10
16.05860644064188
 20
11.62500021507446
 42
0.0
 10
15.18360644064182
 20
11.62500021507446
 42
0.4142135623730871
 10
14.92110644064183
 20
11.36250021507447
 42
0.0
 10
14.92110644064183
 20
3.837500215074461
 42
0.4142135623730891
 10
15.18360644064182
 20
3.575000215074467
 42
0.0
 10
16.05860644064182
 20
3.575000215074467
 42
0.4142135623731526
 10
16.32110644064186
 20
3.837500215074461
 42
0.0
 10
16.32110644064186
 20
6.637500215074473
 42
-0.4142135623731526
 10
16.58360644064191
 20
6.900000215074467
 42
0.0
 10
16.6537235223862
 20
6.900000215074467
 42
-0.3272098845218915
 10
16.90403897198388
 20
6.716547199157929
 42
0.0
 10
17.83817390929977
 20
3.758453230991003
 42
0.3272098845218902
 10
18.08848935889744
 20
3.575000215074467
 42
0.0
 10
18.93793404870206
 20
3.575000215074467
 42
0.5069206636600335
 10
19.18824949829974
 20
3.916547199157971
 42
0.0
 10
18.02505380906291
 20
7.600000215074535
 42
0.0
 97
        0
 92
        7
 72
     1
 73
     1
 93
        8
 10
21.74610644064182
 20
11.36250021507447
 42
0.4142135623731546
 10
21.48360644064177
 20
11.62500021507446
 42
0.0
 10
20.60860644064189
 20
11.62500021507446
 42
0.4142135623731507
 10
20.34610644064184
 20
11.36250021507447
 42
0.0
 10
20.34610644064184
 20
3.837500215074461
 42
0.4142135623731526
 10
20.60860644064189
 20
3.575000215074467
 42
0.0
 10
21.48360644064177
 20
3.575000215074467
 42
0.4142135623731526
 10
21.74610644064182
 20
3.837500215074461
 42
0.0
 97
        0
 92
        7
 72
     1
 73
     1
 93
       24
 10
24.19610644064187
 20
9.96250021507447
 42
-0.4142135623731546
 10
24.45860644064191
 20
10.22500021507446
 42
0.0
 10
25.94610644064187
 20
10.22500021507446
 42
0.4142135623730911
 10
26.20860644064185
 20
10.48750021507446
 42
0.0
 10
26.20860644064185
 20
11.36250021507446
 42
0.4142135623730952
 10
25.94610644064187
 20
11.62500021507446
 42
0.0
 10
24.19610644064187
 20
11.62500021507446
 42
0.4142135623731048
 10
22.79610644064183
 20
10.22500021507448
 42
0.0
 10
22.79610644064183
 20
9.317399202396845
 42
0.1989123673796613
 10
23.4111822001501
 20
7.83247496190507
 42
0.0
 10
24.86608118747244
 20
6.377575974582736
 42
-0.1989123673796402
 10
25.07110644064187
 20
5.8826012277522
 42
0.0
 10
25.07110644064187
 20
5.237500215074462
 42
-0.4142135623730911
 10
24.80860644064188
 20
4.975000215074466
 42
0.0
 10
23.32110644064186
 20
4.975000215074466
 42
0.4142135623731526
 10
23.05860644064182
 20
4.712500215074472
 42
0.0
 10
23.05860644064182
 20
3.837500215074461
 42
0.4142135623730891
 10
23.32110644064181
 20
3.575000215074467
 42
0.0
 10
25.07110644064187
 20
3.575000215074467
 42
0.4142135623730925
 10
26.47110644064184
 20
4.975000215074455
 42
0.0
 10
26.47110644064184
 20
5.882601227752092
 42
0.1989123673796675
 10
25.85603068113357
 20
7.367525468243918
 42
0.0
 10
24.40113169381129
 20
8.822424455566176
 42
-0.1989123673796652
 10
24.19610644064187
 20
9.31739920239676
 42
0.0
 97
        0
 92
        7
 72
     1
 73
     1
 93
       16
 10
28.92110644064183
 20
11.36250021507446
 42
0.414213562373103
 10
28.65860644064184
 20
11.62500021507446
 42
0.0
 10
27.78360644064184
 20
11.62500021507446
 42
0.4142135623730871
 10
27.52110644064186
 20
11.36250021507447
 42
0.0
 10
27.52110644064186
 20
4.975000215074455
 42
0.4142135623730926
 10
28.92110644064183
 20
3.575000215074467
 42
0.0
 10
30.67110644064183
 20
3.575000215074467
 42
0.4142135623731044
 10
32.07110644064186
 20
4.975000215074455
 42
0.0
 10
32.07110644064186
 20
11.36250021507446
 42
0.4142135623730951
 10
31.80860644064188
 20
11.62500021507446
 42
0.0
 10
30.93360644064182
 20
11.62500021507446
 42
0.4142135623730871
 10
30.67110644064183
 20
11.36250021507447
 42
0.0
 10
30.67110644064183
 20
5.500000215074454
 42
-0.414213562373088
 10
30.14610644064186
 20
4.975000215074466
 42
0.0
 10
29.44610644064187
 20
4.975000215074466
 42
-0.4142135623731197
 10
28.92110644064183
 20
5.500000215074454
 42
0.0
 97
        0
 92
        7
 72
     1
 73
     1
 93
        8
 10
34.52110644064186
 20
11.36250021507447
 42
0.4142135623730871
 10
34.25860644064186
 20
11.62500021507446
 42
0.0
 10
33.38360644064187
 20
11.62500021507446
 42
0.4142135623731507
 10
33.12110644064182
 20
11.36250021507447
 42
0.0
 10
33.12110644064182
 20
3.837500215074461
 42
0.4142135623730891
 10
33.38360644064181
 20
3.575000215074467
 42
0.0
 10
34.25860644064186
 20
3.575000215074467
 42
0.4142135623730891
 10
34.52110644064186
 20
3.837500215074461
 42
0.0
 97
        0
 75
     0
 76
     1
 52
0.0
 41
0.1
 77
     0
 78
     2
 53
45.0
 43
-450.4711518040882
 44
-6.5999997849255
 45
-0.2245064030267288
 46
0.2245064030267288
 79
     0
 53
135.0
 43
-450.4711518040882
 44
-6.5999997849255
 45
-0.2245064030267288
 46
-0.2245064030267288
 79
     0
 47
0.057451373970553
 98
        8
 10
8.039927844762928
 20
7.583587038017242
 10
11.20225786647085
 20
9.42203130629997
 10
12.5821843060811
 20
7.755941038109824
 10
15.45703035406984
 20
8.100649038295216
 10
20.91923637272964
 20
8.330455172066024
 10
23.44910081081605
 20
9.70928837327807
 10
28.27884334945144
 20
9.364579172621972
 10
33.91354017306264
 20
9.59438530639278
  0
ARC
  5
75C
330
1A
100
AcDbEntity
  8
ZUWAKU
100
AcDbCircle
 10
7.746106440641824
 20
9.317399202396817
 30
0.0
 40
2.099999999999999
100
AcDbArc
 50
180.0
 51
225.0
  0
LINE
  5
75D
330
1A
100
AcDbEntity
  8
ZUWAKU
100
AcDbLine
 10
10.37110644064182
 20
5.675000215074469
 30
0.0
 11
10.37110644064182
 21
9.525000215074445
 31
0.0
  0
LINE
  5
75E
330
1A
100
AcDbEntity
  8
ZUWAKU
100
AcDbLine
 10
11.77110644064185
 20
9.525000215074467
 30
0.0
 11
11.77110644064185
 21
5.675000215074469
 31
0.0
  0
ARC
  5
75F
330
1A
100
AcDbEntity
  8
ZUWAKU
100
AcDbCircle
 10
7.746106440641824
 20
9.317399202396817
 30
0.0
 40
0.7
100
AcDbArc
 50
180.0000000000016
 51
224.9999999999988
  0
ARC
  5
760
330
1A
100
AcDbEntity
  8
ZUWAKU
100
AcDbCircle
 10
12.47110644064184
 20
5.675000215074469
 30
0.0
 40
2.099999999999999
100
AcDbArc
 50
180.0
 51
270.0
  0
ARC
  5
761
330
1A
100
AcDbEntity
  8
ZUWAKU
100
AcDbCircle
 10
7.921106440641835
 20
4.975000215074466
 30
0.0
 40
1.399999999999999
100
AcDbArc
 50
270.0
 51
0.0
  0
ARC
  5
762
330
1A
100
AcDbEntity
  8
ZUWAKU
100
AcDbCircle
 10
7.221106440641847
 20
5.882601227752118
 30
0.0
 40
2.099999999999999
100
AcDbArc
 50
0.0
 51
45.0
  0
LINE
  5
763
330
1A
100
AcDbEntity
  8
ZUWAKU
100
AcDbLine
 10
6.261182200150074
 20
7.832474961905056
 30
0.0
 11
7.716081187472411
 21
6.377575974582725
 31
0.0
  0
LINE
  5
764
330
1A
100
AcDbEntity
  8
ZUWAKU
100
AcDbLine
 10
6.171106440641835
 20
4.975000215074466
 30
0.0
 11
7.658606440641847
 21
4.975000215074466
 31
0.0
  0
LINE
  5
765
330
1A
100
AcDbEntity
  8
ZUWAKU
100
AcDbLine
 10
6.171106440641835
 20
3.575000215074467
 30
0.0
 11
7.921106440641835
 21
3.575000215074467
 31
0.0
  0
ARC
  5
766
330
1A
100
AcDbEntity
  8
ZUWAKU
100
AcDbCircle
 10
6.171106440641835
 20
4.712500215074467
 30
0.0
 40
0.2625
100
AcDbArc
 50
90.0
 51
180.0
  0
ARC
  5
767
330
1A
100
AcDbEntity
  8
ZUWAKU
100
AcDbCircle
 10
6.171106440641835
 20
3.837500215074467
 30
0.0
 40
0.2625
100
AcDbArc
 50
180.0
 51
270.0
  0
LINE
  5
768
330
1A
100
AcDbEntity
  8
ZUWAKU
100
AcDbLine
 10
5.908606440641847
 20
3.837500215074467
 30
0.0
 11
5.908606440641847
 21
4.712500215074467
 31
0.0
  0
ARC
  5
769
330
1A
100
AcDbEntity
  8
ZUWAKU
100
AcDbCircle
 10
7.221106440641847
 20
5.88260122775214
 30
0.0
 40
0.7
100
AcDbArc
 50
0.0
 51
45.0
  0
ARC
  5
76A
330
1A
100
AcDbEntity
  8
ZUWAKU
100
AcDbCircle
 10
7.658606440641847
 20
5.237500215074469
 30
0.0
 40
0.2625
100
AcDbArc
 50
270.0
 51
0.0
  0
LINE
  5
76B
330
1A
100
AcDbEntity
  8
ZUWAKU
100
AcDbLine
 10
7.921106440641835
 20
5.237500215074469
 30
0.0
 11
7.921106440641835
 21
5.88260122775214
 31
0.0
  0
LINE
  5
76C
330
1A
100
AcDbEntity
  8
ZUWAKU
100
AcDbLine
 10
8.706030681133597
 20
7.367525468243879
 30
0.0
 11
7.251131693811259
 21
8.822424455566217
 31
0.0
  0
ARC
  5
76D
330
1A
100
AcDbEntity
  8
ZUWAKU
100
AcDbCircle
 10
12.47110644064184
 20
5.675000215074469
 30
0.0
 40
0.7
100
AcDbArc
 50
180.0
 51
270.0
  0
LINE
  5
76E
330
1A
100
AcDbEntity
  8
ZUWAKU
100
AcDbLine
 10
9.321106440641869
 20
4.975000215074466
 30
0.0
 11
9.321106440641869
 21
5.88260122775214
 31
0.0
  0
ARC
  5
76F
330
1A
100
AcDbEntity
  8
ZUWAKU
100
AcDbCircle
 10
8.796106440641835
 20
10.48750021507446
 30
0.0
 40
0.2625
100
AcDbArc
 50
270.0
 51
0.0
  0
ARC
  5
770
330
1A
100
AcDbEntity
  8
ZUWAKU
100
AcDbCircle
 10
8.796106440641835
 20
11.36250021507446
 30
0.0
 40
0.2625
100
AcDbArc
 50
0.0
 51
90.0
  0
ARC
  5
771
330
1A
100
AcDbEntity
  8
ZUWAKU
100
AcDbCircle
 10
7.046106440641835
 20
10.22500021507446
 30
0.0
 40
1.399999999999999
100
AcDbArc
 50
90.0
 51
180.0
  0
LINE
  5
772
330
1A
100
AcDbEntity
  8
ZUWAKU
100
AcDbLine
 10
5.646106440641858
 20
10.22500021507446
 30
0.0
 11
5.646106440641858
 21
9.317399202396796
 31
0.0
  0
LINE
  5
773
330
1A
100
AcDbEntity
  8
ZUWAKU
100
AcDbLine
 10
8.796106440641835
 20
10.22500021507446
 30
0.0
 11
7.308606440641824
 21
10.22500021507446
 31
0.0
  0
LINE
  5
774
330
1A
100
AcDbEntity
  8
ZUWAKU
100
AcDbLine
 10
7.046106440641835
 20
9.962500215074467
 30
0.0
 11
7.046106440641835
 21
9.317399202396796
 31
0.0
  0
ARC
  5
775
330
1A
100
AcDbEntity
  8
ZUWAKU
100
AcDbCircle
 10
7.308606440641824
 20
9.962500215074467
 30
0.0
 40
0.2625
100
AcDbArc
 50
90.0
 51
180.0
  0
LINE
  5
776
330
1A
100
AcDbEntity
  8
ZUWAKU
100
AcDbLine
 10
7.046106440641835
 20
11.62500021507446
 30
0.0
 11
8.796106440641835
 21
11.62500021507446
 31
0.0
  0
ARC
  5
777
330
1A
100
AcDbEntity
  8
ZUWAKU
100
AcDbCircle
 10
12.47110644064184
 20
9.525000215074445
 30
0.0
 40
2.099999999999999
100
AcDbArc
 50
90.0
 51
180.0
  0
ARC
  5
778
330
1A
100
AcDbEntity
  8
ZUWAKU
100
AcDbCircle
 10
12.47110644064184
 20
9.525000215074467
 30
0.0
 40
0.7
100
AcDbArc
 50
90.0
 51
180.0
  0
LINE
  5
779
330
1A
100
AcDbEntity
  8
ZUWAKU
100
AcDbLine
 10
9.058606440641824
 20
11.36250021507446
 30
0.0
 11
9.058606440641824
 21
10.48750021507446
 31
0.0
  0
LINE
  5
77A
330
1A
100
AcDbEntity
  8
ZUWAKU
100
AcDbLine
 10
17.83817390929977
 20
11.44154719915795
 30
0.0
 11
16.90403897198388
 21
8.483453230990981
 31
0.0
  0
LINE
  5
77B
330
1A
100
AcDbEntity
  8
ZUWAKU
100
AcDbLine
 10
14.92110644064183
 20
11.36250021507446
 30
0.0
 11
14.92110644064183
 21
3.837500215074467
 31
0.0
  0
LINE
  5
77C
330
1A
100
AcDbEntity
  8
ZUWAKU
100
AcDbLine
 10
16.32110644064186
 20
8.562500215074468
 30
0.0
 11
16.32110644064186
 21
11.36250021507446
 31
0.0
  0
LINE
  5
77D
330
1A
100
AcDbEntity
  8
ZUWAKU
100
AcDbLine
 10
28.92110644064183
 20
5.500000215074464
 30
0.0
 11
28.92110644064183
 21
11.36250021507446
 31
0.0
  0
LINE
  5
77E
330
1A
100
AcDbEntity
  8
ZUWAKU
100
AcDbLine
 10
27.52110644064186
 20
11.36250021507446
 30
0.0
 11
27.52110644064186
 21
4.975000215074466
 31
0.0
  0
LINE
  5
77F
330
1A
100
AcDbEntity
  8
ZUWAKU
100
AcDbLine
 10
21.74610644064182
 20
3.837500215074467
 30
0.0
 11
21.74610644064182
 21
11.36250021507446
 31
0.0
  0
LINE
  5
780
330
1A
100
AcDbEntity
  8
ZUWAKU
100
AcDbLine
 10
20.34610644064184
 20
11.36250021507446
 30
0.0
 11
20.34610644064184
 21
3.837500215074467
 31
0.0
  0
LINE
  5
781
330
1A
100
AcDbEntity
  8
ZUWAKU
100
AcDbLine
 10
18.65742968173083
 20
9.60252381185618
 30
0.0
 11
18.02505380906291
 21
7.600000215074476
 31
0.0
  0
ARC
  5
782
330
1A
100
AcDbEntity
  8
ZUWAKU
100
AcDbCircle
 10
24.89610644064185
 20
9.317399202396817
 30
0.0
 40
2.099999999999999
100
AcDbArc
 50
180.0
 51
225.0
  0
ARC
  5
783
330
1A
100
AcDbEntity
  8
ZUWAKU
100
AcDbCircle
 10
24.89610644064185
 20
9.317399202396817
 30
0.0
 40
0.7
100
AcDbArc
 50
180.0000000000016
 51
224.9999999999988
  0
LINE
  5
784
330
1A
100
AcDbEntity
  8
ZUWAKU
100
AcDbLine
 10
33.12110644064182
 20
11.36250021507446
 30
0.0
 11
33.12110644064182
 21
3.837500215074467
 31
0.0
  0
LINE
  5
785
330
1A
100
AcDbEntity
  8
ZUWAKU
100
AcDbLine
 10
34.52110644064186
 20
3.837500215074467
 30
0.0
 11
34.52110644064186
 21
11.36250021507446
 31
0.0
  0
LINE
  5
786
330
1A
100
AcDbEntity
  8
ZUWAKU
100
AcDbLine
 10
30.67110644064183
 20
11.36250021507446
 30
0.0
 11
30.67110644064183
 21
5.500000215074464
 31
0.0
  0
LINE
  5
787
330
1A
100
AcDbEntity
  8
ZUWAKU
100
AcDbLine
 10
32.07110644064186
 20
4.975000215074466
 30
0.0
 11
32.07110644064186
 21
11.36250021507446
 31
0.0
  0
LINE
  5
788
330
1A
100
AcDbEntity
  8
ZUWAKU
100
AcDbLine
 10
39.56331513724546
 20
15.00000021507446
 30
0.0
 11
39.56331513724546
 21
0.400000215074499
 31
0.0
  0
LINE
  5
789
330
1A
100
AcDbEntity
  8
ZUWAKU
100
AcDbLine
 10
39.7633151372454
 20
15.00000021507446
 30
0.0
 11
39.76331513724551
 21
0.400000215074499
 31
0.0
  0
LINE
  5
78A
330
1A
100
AcDbEntity
  8
ZUWAKU
100
AcDbLine
 10
39.66331513724537
 20
15.00000021507446
 30
0.0
 11
39.66331513724549
 21
0.400000215074499
 31
0.0
  0
TEXT
  5
78B
330
1A
100
AcDbEntity
  8
MOJI
100
AcDbText
 10
46.47889515733583
 20
6.370589280211845
 30
0.0
 40
3.0
  1
ライナートップ
 41
0.9
  7
ｽﾀｲﾙ1
100
AcDbText
  0
LINE
  5
78C
330
1A
100
AcDbEntity
  8
ZUWAKU
100
AcDbLine
 10
28.92110644064183
 20
3.575000215074467
 30
0.0
 11
30.67110644064183
 21
3.575000215074467
 31
0.0
  0
LINE
  5
78D
330
1A
100
AcDbEntity
  8
ZUWAKU
100
AcDbLine
 10
30.14610644064186
 20
4.975000215074466
 30
0.0
 11
29.44610644064187
 21
4.975000215074466
 31
0.0
  0
LINE
  5
78E
330
1A
100
AcDbEntity
  8
ZUWAKU
100
AcDbLine
 10
20.60860644064183
 20
3.575000215074467
 30
0.0
 11
21.48360644064183
 21
3.575000215074467
 31
0.0
  0
LINE
  5
78F
330
1A
100
AcDbEntity
  8
ZUWAKU
100
AcDbLine
 10
17.83817390929977
 20
3.75845323099098
 30
0.0
 11
16.90403897198388
 21
6.71654719915795
 31
0.0
  0
ARC
  5
790
330
1A
100
AcDbEntity
  8
ZUWAKU
100
AcDbCircle
 10
16.58360644064186
 20
6.637500215074467
 30
0.0
 40
0.2625
100
AcDbArc
 50
90.0
 51
180.0
  0
ARC
  5
791
330
1A
100
AcDbEntity
  8
ZUWAKU
100
AcDbCircle
 10
16.6537235223862
 20
6.637500215074467
 30
0.0
 40
0.2625
100
AcDbArc
 50
17.52556837372303
 51
90.0
  0
ARC
  5
792
330
1A
100
AcDbEntity
  8
ZUWAKU
100
AcDbCircle
 10
15.18360644064182
 20
3.837500215074467
 30
0.0
 40
0.2625
100
AcDbArc
 50
180.0
 51
270.0
  0
ARC
  5
793
330
1A
100
AcDbEntity
  8
ZUWAKU
100
AcDbCircle
 10
13.43360644064182
 20
4.712500215074467
 30
0.0
 40
0.2625
100
AcDbArc
 50
0.0
 51
90.0
  0
ARC
  5
794
330
1A
100
AcDbEntity
  8
ZUWAKU
100
AcDbCircle
 10
13.43360644064182
 20
3.837500215074467
 30
0.0
 40
0.2625
100
AcDbArc
 50
270.0
 51
0.0
  0
LINE
  5
795
330
1A
100
AcDbEntity
  8
ZUWAKU
100
AcDbLine
 10
13.69610644064187
 20
4.712500215074467
 30
0.0
 11
13.69610644064187
 21
3.837500215074467
 31
0.0
  0
LINE
  5
796
330
1A
100
AcDbEntity
  8
ZUWAKU
100
AcDbLine
 10
16.32110644064186
 20
3.837500215074467
 30
0.0
 11
16.32110644064186
 21
6.637500215074467
 31
0.0
  0
ARC
  5
797
330
1A
100
AcDbEntity
  8
ZUWAKU
100
AcDbCircle
 10
16.05860644064182
 20
3.837500215074467
 30
0.0
 40
0.2625
100
AcDbArc
 50
270.0
 51
0.0
  0
LINE
  5
798
330
1A
100
AcDbEntity
  8
ZUWAKU
100
AcDbLine
 10
15.18360644064182
 20
3.575000215074467
 30
0.0
 11
16.05860644064182
 21
3.575000215074467
 31
0.0
  0
ARC
  5
799
330
1A
100
AcDbEntity
  8
ZUWAKU
100
AcDbCircle
 10
16.58360644064186
 20
8.562500215074468
 30
0.0
 40
0.2625
100
AcDbArc
 50
180.0
 51
270.0
  0
LINE
  5
79A
330
1A
100
AcDbEntity
  8
ZUWAKU
100
AcDbLine
 10
16.58360644064186
 20
6.900000215074467
 30
0.0
 11
16.6537235223862
 21
6.900000215074467
 31
0.0
  0
LINE
  5
79B
330
1A
100
AcDbEntity
  8
ZUWAKU
100
AcDbLine
 10
16.6537235223862
 20
8.300000215074465
 30
0.0
 11
16.58360644064186
 21
8.300000215074465
 31
0.0
  0
ARC
  5
79C
330
1A
100
AcDbEntity
  8
ZUWAKU
100
AcDbCircle
 10
16.6537235223862
 20
8.562500215074468
 30
0.0
 40
0.2625
100
AcDbArc
 50
270.0
 51
342.4744316262769
  0
ARC
  5
79D
330
1A
100
AcDbEntity
  8
ZUWAKU
100
AcDbCircle
 10
18.0884893588975
 20
3.837500215074467
 30
0.0
 40
0.2625
100
AcDbArc
 50
197.525568373723
 51
270.0
  0
LINE
  5
79E
330
1A
100
AcDbEntity
  8
ZUWAKU
100
AcDbLine
 10
19.18824949829974
 20
3.916547199157953
 30
0.0
 11
18.02505380906291
 21
7.600000215074476
 31
0.0
  0
ARC
  5
79F
330
1A
100
AcDbEntity
  8
ZUWAKU
100
AcDbCircle
 10
18.937934048702
 20
3.837500215074467
 30
0.0
 40
0.2625
100
AcDbArc
 50
270.0
 51
17.52556837372303
  0
LINE
  5
7A0
330
1A
100
AcDbEntity
  8
ZUWAKU
100
AcDbLine
 10
18.0884893588975
 20
3.575000215074467
 30
0.0
 11
18.937934048702
 21
3.575000215074467
 31
0.0
  0
ARC
  5
7A1
330
1A
100
AcDbEntity
  8
ZUWAKU
100
AcDbCircle
 10
20.60860644064183
 20
3.837500215074467
 30
0.0
 40
0.2625
100
AcDbArc
 50
180.0
 51
270.0
  0
ARC
  5
7A2
330
1A
100
AcDbEntity
  8
ZUWAKU
100
AcDbCircle
 10
25.07110644064187
 20
4.975000215074466
 30
0.0
 40
1.399999999999999
100
AcDbArc
 50
270.0
 51
0.0
  0
ARC
  5
7A3
330
1A
100
AcDbEntity
  8
ZUWAKU
100
AcDbCircle
 10
28.92110644064183
 20
4.975000215074466
 30
0.0
 40
1.399999999999999
100
AcDbArc
 50
180.0
 51
270.0
  0
LINE
  5
7A4
330
1A
100
AcDbEntity
  8
ZUWAKU
100
AcDbLine
 10
25.85603068113363
 20
7.367525468243879
 30
0.0
 11
24.40113169381123
 21
8.822424455566217
 31
0.0
  0
LINE
  5
7A5
330
1A
100
AcDbEntity
  8
ZUWAKU
100
AcDbLine
 10
23.4111822001501
 20
7.832474961905056
 30
0.0
 11
24.86608118747244
 21
6.377575974582725
 31
0.0
  0
LINE
  5
7A6
330
1A
100
AcDbEntity
  8
ZUWAKU
100
AcDbLine
 10
23.32110644064186
 20
3.575000215074467
 30
0.0
 11
25.07110644064187
 21
3.575000215074467
 31
0.0
  0
LINE
  5
7A7
330
1A
100
AcDbEntity
  8
ZUWAKU
100
AcDbLine
 10
23.32110644064186
 20
4.975000215074466
 30
0.0
 11
24.80860644064182
 21
4.975000215074466
 31
0.0
  0
ARC
  5
7A8
330
1A
100
AcDbEntity
  8
ZUWAKU
100
AcDbCircle
 10
23.32110644064186
 20
4.712500215074467
 30
0.0
 40
0.2625
100
AcDbArc
 50
90.0
 51
180.0
  0
ARC
  5
7A9
330
1A
100
AcDbEntity
  8
ZUWAKU
100
AcDbCircle
 10
21.48360644064183
 20
3.837500215074467
 30
0.0
 40
0.2625
100
AcDbArc
 50
270.0
 51
0.0
  0
ARC
  5
7AA
330
1A
100
AcDbEntity
  8
ZUWAKU
100
AcDbCircle
 10
23.32110644064186
 20
3.837500215074467
 30
0.0
 40
0.2625
100
AcDbArc
 50
180.0
 51
270.0
  0
LINE
  5
7AB
330
1A
100
AcDbEntity
  8
ZUWAKU
100
AcDbLine
 10
23.05860644064182
 20
3.837500215074467
 30
0.0
 11
23.05860644064182
 21
4.712500215074467
 31
0.0
  0
ARC
  5
7AC
330
1A
100
AcDbEntity
  8
ZUWAKU
100
AcDbCircle
 10
24.80860644064182
 20
5.237500215074469
 30
0.0
 40
0.2625
100
AcDbArc
 50
270.0
 51
0.0
  0
ARC
  5
7AD
330
1A
100
AcDbEntity
  8
ZUWAKU
100
AcDbCircle
 10
24.37110644064182
 20
5.88260122775214
 30
0.0
 40
0.7
100
AcDbArc
 50
0.0
 51
45.0
  0
LINE
  5
7AE
330
1A
100
AcDbEntity
  8
ZUWAKU
100
AcDbLine
 10
25.07110644064187
 20
5.237500215074469
 30
0.0
 11
25.07110644064187
 21
5.88260122775214
 31
0.0
  0
ARC
  5
7AF
330
1A
100
AcDbEntity
  8
ZUWAKU
100
AcDbCircle
 10
29.44610644064187
 20
5.500000215074464
 30
0.0
 40
0.525
100
AcDbArc
 50
180.0
 51
270.0
  0
ARC
  5
7B0
330
1A
100
AcDbEntity
  8
ZUWAKU
100
AcDbCircle
 10
24.37110644064182
 20
5.882601227752118
 30
0.0
 40
2.099999999999999
100
AcDbArc
 50
0.0
 51
45.0
  0
LINE
  5
7B1
330
1A
100
AcDbEntity
  8
ZUWAKU
100
AcDbLine
 10
26.47110644064184
 20
4.975000215074466
 30
0.0
 11
26.47110644064184
 21
5.88260122775214
 31
0.0
  0
ARC
  5
7B2
330
1A
100
AcDbEntity
  8
ZUWAKU
100
AcDbCircle
 10
30.67110644064183
 20
4.975000215074466
 30
0.0
 40
1.399999999999999
100
AcDbArc
 50
270.0
 51
0.0
  0
LINE
  5
7B3
330
1A
100
AcDbEntity
  8
ZUWAKU
100
AcDbLine
 10
33.38360644064187
 20
3.575000215074467
 30
0.0
 11
34.25860644064186
 21
3.575000215074467
 31
0.0
  0
ARC
  5
7B4
330
1A
100
AcDbEntity
  8
ZUWAKU
100
AcDbCircle
 10
30.14610644064186
 20
5.500000215074464
 30
0.0
 40
0.525
100
AcDbArc
 50
270.0
 51
0.0
  0
ARC
  5
7B5
330
1A
100
AcDbEntity
  8
ZUWAKU
100
AcDbCircle
 10
33.38360644064187
 20
3.837500215074467
 30
0.0
 40
0.2625
100
AcDbArc
 50
180.0
 51
270.0
  0
ARC
  5
7B6
330
1A
100
AcDbEntity
  8
ZUWAKU
100
AcDbCircle
 10
34.25860644064186
 20
3.837500215074467
 30
0.0
 40
0.2625
100
AcDbArc
 50
270.0
 51
0.0
  0
LINE
  5
7B7
330
1A
100
AcDbEntity
  8
ZUWAKU
100
AcDbLine
 10
21.48360644064183
 20
11.62500021507446
 30
0.0
 11
20.60860644064183
 21
11.62500021507446
 31
0.0
  0
LINE
  5
7B8
330
1A
100
AcDbEntity
  8
ZUWAKU
100
AcDbLine
 10
13.69610644064187
 20
11.36250021507446
 30
0.0
 11
13.69610644064187
 21
10.48750021507446
 31
0.0
  0
ARC
  5
7B9
330
1A
100
AcDbEntity
  8
ZUWAKU
100
AcDbCircle
 10
13.43360644064182
 20
10.48750021507446
 30
0.0
 40
0.2625
100
AcDbArc
 50
270.0
 51
0.0
  0
ARC
  5
7BA
330
1A
100
AcDbEntity
  8
ZUWAKU
100
AcDbCircle
 10
15.18360644064182
 20
11.36250021507446
 30
0.0
 40
0.2625
100
AcDbArc
 50
90.0
 51
180.0
  0
ARC
  5
7BB
330
1A
100
AcDbEntity
  8
ZUWAKU
100
AcDbCircle
 10
13.43360644064182
 20
11.36250021507446
 30
0.0
 40
0.2625
100
AcDbArc
 50
0.0
 51
90.0
  0
LINE
  5
7BC
330
1A
100
AcDbEntity
  8
ZUWAKU
100
AcDbLine
 10
16.05860644064182
 20
11.62500021507446
 30
0.0
 11
15.18360644064182
 21
11.62500021507446
 31
0.0
  0
ARC
  5
7BD
330
1A
100
AcDbEntity
  8
ZUWAKU
100
AcDbCircle
 10
16.05860644064182
 20
11.36250021507446
 30
0.0
 40
0.2625
100
AcDbArc
 50
0.0
 51
90.0
  0
ARC
  5
7BE
330
1A
100
AcDbEntity
  8
ZUWAKU
100
AcDbCircle
 10
18.0884893588975
 20
11.36250021507446
 30
0.0
 40
0.2625
100
AcDbArc
 50
90.0
 51
162.4744316262769
  0
LINE
  5
7BF
330
1A
100
AcDbEntity
  8
ZUWAKU
100
AcDbLine
 10
19.18824949829974
 20
11.28345323099098
 30
0.0
 11
18.65742968173083
 21
9.60252381185618
 31
0.0
  0
ARC
  5
7C0
330
1A
100
AcDbEntity
  8
ZUWAKU
100
AcDbCircle
 10
18.937934048702
 20
11.36250021507446
 30
0.0
 40
0.2625
100
AcDbArc
 50
342.4744316262769
 51
90.0
  0
LINE
  5
7C1
330
1A
100
AcDbEntity
  8
ZUWAKU
100
AcDbLine
 10
18.0884893588975
 20
11.62500021507446
 30
0.0
 11
18.937934048702
 21
11.62500021507446
 31
0.0
  0
ARC
  5
7C2
330
1A
100
AcDbEntity
  8
ZUWAKU
100
AcDbCircle
 10
20.60860644064183
 20
11.36250021507446
 30
0.0
 40
0.2625
100
AcDbArc
 50
90.0
 51
180.0
  0
LINE
  5
7C3
330
1A
100
AcDbEntity
  8
ZUWAKU
100
AcDbLine
 10
25.94610644064187
 20
10.22500021507446
 30
0.0
 11
24.45860644064186
 21
10.22500021507446
 31
0.0
  0
LINE
  5
7C4
330
1A
100
AcDbEntity
  8
ZUWAKU
100
AcDbLine
 10
24.19610644064187
 20
11.62500021507446
 30
0.0
 11
25.94610644064187
 21
11.62500021507446
 31
0.0
  0
ARC
  5
7C5
330
1A
100
AcDbEntity
  8
ZUWAKU
100
AcDbCircle
 10
24.19610644064187
 20
10.22500021507446
 30
0.0
 40
1.399999999999999
100
AcDbArc
 50
90.0
 51
180.0
  0
LINE
  5
7C6
330
1A
100
AcDbEntity
  8
ZUWAKU
100
AcDbLine
 10
22.79610644064183
 20
10.22500021507446
 30
0.0
 11
22.79610644064183
 21
9.317399202396796
 31
0.0
  0
ARC
  5
7C7
330
1A
100
AcDbEntity
  8
ZUWAKU
100
AcDbCircle
 10
21.48360644064183
 20
11.36250021507446
 30
0.0
 40
0.2625
100
AcDbArc
 50
0.0
 51
90.0
  0
LINE
  5
7C8
330
1A
100
AcDbEntity
  8
ZUWAKU
100
AcDbLine
 10
24.19610644064187
 20
9.962500215074467
 30
0.0
 11
24.19610644064187
 21
9.317399202396796
 31
0.0
  0
ARC
  5
7C9
330
1A
100
AcDbEntity
  8
ZUWAKU
100
AcDbCircle
 10
24.45860644064186
 20
9.962500215074467
 30
0.0
 40
0.2625
100
AcDbArc
 50
90.0
 51
180.0
  0
LINE
  5
7CA
330
1A
100
AcDbEntity
  8
ZUWAKU
100
AcDbLine
 10
26.20860644064185
 20
11.36250021507446
 30
0.0
 11
26.20860644064185
 21
10.48750021507446
 31
0.0
  0
ARC
  5
7CB
330
1A
100
AcDbEntity
  8
ZUWAKU
100
AcDbCircle
 10
25.94610644064187
 20
10.48750021507446
 30
0.0
 40
0.2625
100
AcDbArc
 50
270.0
 51
0.0
  0
ARC
  5
7CC
330
1A
100
AcDbEntity
  8
ZUWAKU
100
AcDbCircle
 10
25.94610644064187
 20
11.36250021507446
 30
0.0
 40
0.2625
100
AcDbArc
 50
0.0
 51
90.0
  0
LINE
  5
7CD
330
1A
100
AcDbEntity
  8
ZUWAKU
100
AcDbLine
 10
28.65860644064184
 20
11.62500021507446
 30
0.0
 11
27.78360644064184
 21
11.62500021507446
 31
0.0
  0
ARC
  5
7CE
330
1A
100
AcDbEntity
  8
ZUWAKU
100
AcDbCircle
 10
27.78360644064184
 20
11.36250021507446
 30
0.0
 40
0.2625
100
AcDbArc
 50
90.0
 51
180.0
  0
ARC
  5
7CF
330
1A
100
AcDbEntity
  8
ZUWAKU
100
AcDbCircle
 10
28.65860644064184
 20
11.36250021507446
 30
0.0
 40
0.2625
100
AcDbArc
 50
0.0
 51
90.0
  0
LINE
  5
7D0
330
1A
100
AcDbEntity
  8
ZUWAKU
100
AcDbLine
 10
34.25860644064186
 20
11.62500021507446
 30
0.0
 11
33.38360644064187
 21
11.62500021507446
 31
0.0
  0
ARC
  5
7D1
330
1A
100
AcDbEntity
  8
ZUWAKU
100
AcDbCircle
 10
30.93360644064182
 20
11.36250021507446
 30
0.0
 40
0.2625
100
AcDbArc
 50
90.0
 51
180.0
  0
LINE
  5
7D2
330
1A
100
AcDbEntity
  8
ZUWAKU
100
AcDbLine
 10
31.80860644064182
 20
11.62500021507446
 30
0.0
 11
30.93360644064182
 21
11.62500021507446
 31
0.0
  0
ARC
  5
7D3
330
1A
100
AcDbEntity
  8
ZUWAKU
100
AcDbCircle
 10
31.80860644064182
 20
11.36250021507446
 30
0.0
 40
0.2625
100
AcDbArc
 50
0.0
 51
90.0
  0
ARC
  5
7D4
330
1A
100
AcDbEntity
  8
ZUWAKU
100
AcDbCircle
 10
33.38360644064187
 20
11.36250021507446
 30
0.0
 40
0.2625
100
AcDbArc
 50
90.0
 51
180.0
  0
ARC
  5
7D5
330
1A
100
AcDbEntity
  8
ZUWAKU
100
AcDbCircle
 10
34.25860644064186
 20
11.36250021507446
 30
0.0
 40
0.2625
100
AcDbArc
 50
0.0
 51
90.0
  0
LINE
  5
7D6
330
1A
100
AcDbEntity
  8
ZUWAKU
100
AcDbLine
 10
104.2233010082851
 20
15.00000021507446
 30
0.0
 11
104.2233010082852
 21
0.400000215074499
 31
0.0
  0
LINE
  5
7D7
330
1A
100
AcDbEntity
  8
ZUWAKU
100
AcDbLine
 10
104.3233010082851
 20
15.00000021507446
 30
0.0
 11
104.3233010082852
 21
0.400000215074499
 31
0.0
  0
LINE
  5
7D8
330
1A
100
AcDbEntity
  8
ZUWAKU
100
AcDbLine
 10
104.1233010082852
 20
15.00000021507446
 30
0.0
 11
104.1233010082852
 21
0.400000215074499
 31
0.0
  0
TEXT
  5
7D9
330
1A
100
AcDbEntity
  8
MOJI
100
AcDbText
 10
119.9136017036768
 20
9.002460743778158
 30
0.0
 40
2.799999999999999
  1
止り
 41
0.9
  7
ｽﾀｲﾙ1
100
AcDbText
  0
TEXT
  5
7DA
330
1A
100
AcDbEntity
  8
ZUWAKU
100
AcDbText
 10
104.86202351939
 20
4.827678484267273
 30
0.0
 40
2.0
  1
サイズ
 41
0.9
  7
ｽﾀｲﾙ1
100
AcDbText
  0
TEXT
  5
7DB
330
1A
100
AcDbEntity
  8
MOJI
100
AcDbText
 10
119.9136017036768
 20
1.602460743778175
 30
0.0
 40
2.799999999999999
  1
Ｘ４０
 41
0.9
  7
ｽﾀｲﾙ1
100
AcDbText
  0
TEXT
  5
7DC
330
1A
100
AcDbEntity
  8
ZUWAKU
100
AcDbText
 10
104.8620235193899
 20
12.02767848426725
 30
0.0
 40
2.0
  1
品名
 41
0.9
  7
ｽﾀｲﾙ1
100
AcDbText
  0
TEXT
  5
7DD
330
1A
100
AcDbEntity
  8
ZUWAKU
100
AcDbText
 10
329.1019692069024
 20
9.002460743778158
 30
0.0
 40
2.799999999999999
  1
　　．　　．　　
 41
0.9
  7
ｽﾀｲﾙ1
100
AcDbText
  0
LINE
  5
7DE
330
1A
100
AcDbEntity
  8
ZUWAKU
100
AcDbLine
 10
324.4086016183533
 20
7.800000215074481
 30
0.0
 11
348.6245056375218
 21
7.800000215074481
 31
0.0
  0
LINE
  5
7DF
330
1A
100
AcDbEntity
  8
ZUWAKU
100
AcDbLine
 10
324.4086016183534
 20
7.700000215074483
 30
0.0
 11
348.6245056375218
 21
7.700000215074481
 31
0.0
  0
LINE
  5
7E0
330
1A
100
AcDbEntity
  8
ZUWAKU
100
AcDbLine
 10
324.4086016183533
 20
7.60000021507448
 30
0.0
 11
348.6245056375218
 21
7.600000215074482
 31
0.0
  0
LINE
  5
7E1
330
1A
100
AcDbEntity
  8
ZUWAKU
100
AcDbLine
 10
252.5995901123217
 20
7.800000215074481
 30
0.0
 11
276.2634782463075
 21
7.800000215074481
 31
0.0
  0
LINE
  5
7E2
330
1A
100
AcDbEntity
  8
ZUWAKU
100
AcDbLine
 10
252.5995901123217
 20
7.700000215074481
 30
0.0
 11
276.2634782463075
 21
7.700000215074481
 31
0.0
  0
LINE
  5
7E3
330
1A
100
AcDbEntity
  8
ZUWAKU
100
AcDbLine
 10
252.5995901123217
 20
7.600000215074484
 30
0.0
 11
276.2634782463075
 21
7.600000215074484
 31
0.0
  0
LINE
  5
7E4
330
1A
100
AcDbEntity
  8
ZUWAKU
100
AcDbLine
 10
252.3995901123218
 20
15.00000021507446
 30
0.0
 11
252.3995901123218
 21
0.400000215074499
 31
0.0
  0
LINE
  5
7E5
330
1A
100
AcDbEntity
  8
ZUWAKU
100
AcDbLine
 10
252.5995901123217
 20
15.00000021507446
 30
0.0
 11
252.5995901123218
 21
0.400000215074499
 31
0.0
  0
LINE
  5
7E6
330
1A
100
AcDbEntity
  8
ZUWAKU
100
AcDbLine
 10
252.4995901123217
 20
15.00000021507446
 30
0.0
 11
252.4995901123218
 21
0.400000215074499
 31
0.0
  0
TEXT
  5
7E7
330
1A
100
AcDbEntity
  8
MOJI
100
AcDbText
 10
264.0204543494077
 20
9.002460743778158
 30
0.0
 40
2.799999999999999
  1
Ａ３
 41
0.9
  7
ｽﾀｲﾙ1
100
AcDbText
  0
LINE
  5
7E8
330
1A
100
AcDbEntity
  8
ZUWAKU
100
AcDbLine
 10
223.7121823487469
 20
15.00000021507446
 30
0.0
 11
223.7121823487469
 21
0.400000215074499
 31
0.0
  0
LINE
  5
7E9
330
1A
100
AcDbEntity
  8
ZUWAKU
100
AcDbLine
 10
223.9121823487469
 20
15.00000021507446
 30
0.0
 11
223.912182348747
 21
0.400000215074499
 31
0.0
  0
LINE
  5
7EA
330
1A
100
AcDbEntity
  8
ZUWAKU
100
AcDbLine
 10
223.8121823487468
 20
15.00000021507446
 30
0.0
 11
223.812182348747
 21
0.400000215074499
 31
0.0
  0
TEXT
  5
7EB
330
1A
100
AcDbEntity
  8
MOJI
100
AcDbText
 10
231.2836395242455
 20
5.971309075904457
 30
0.0
 40
2.799999999999999
  1
ＧＪ３０□
 41
0.9
  7
ｽﾀｲﾙ1
100
AcDbText
  0
TEXT
  5
7EC
330
1A
100
AcDbEntity
  8
ZUWAKU
100
AcDbText
 10
231.3468811910048
 20
1.307035670644211
 30
0.0
 40
1.5
  1
□には色品番が入ります
 41
0.9
  7
ｽﾀｲﾙ1
100
AcDbText
  0
TEXT
  5
7ED
330
1A
100
AcDbEntity
  8
ZUWAKU
100
AcDbText
 10
253.3383126234266
 20
4.827678484267273
 30
0.0
 40
2.0
  1
縮尺
 41
0.9
  7
ｽﾀｲﾙ1
100
AcDbText
  0
TEXT
  5
7EE
330
1A
100
AcDbEntity
  8
MOJI
100
AcDbText
 10
264.0204543494077
 20
1.602460743778175
 30
0.0
 40
2.799999999999999
  1
１/１
 41
0.9
  7
ｽﾀｲﾙ1
100
AcDbText
  0
TEXT
  5
7EF
330
1A
100
AcDbEntity
  8
ZUWAKU
100
AcDbText
 10
224.6509048598517
 20
12.02767848426725
 30
0.0
 40
2.0
  1
品番
 41
0.9
  7
ｽﾀｲﾙ1
100
AcDbText
  0
TEXT
  5
7F0
330
1A
100
AcDbEntity
  8
ZUWAKU
100
AcDbText
 10
253.3383126234265
 20
12.02767848426725
 30
0.0
 40
2.0
  1
用紙
 41
0.9
  7
ｽﾀｲﾙ1
100
AcDbText
  0
LINE
  5
7F1
330
1A
100
AcDbEntity
  8
ZUWAKU
100
AcDbLine
 10
276.2634782463075
 20
15.00000021507446
 30
0.0
 11
276.2634782463075
 21
0.400000215074499
 31
0.0
  0
LINE
  5
7F2
330
1A
100
AcDbEntity
  8
ZUWAKU
100
AcDbLine
 10
276.4634782463074
 20
15.00000021507446
 30
0.0
 11
276.4634782463075
 21
0.400000215074499
 31
0.0
  0
LINE
  5
7F3
330
1A
100
AcDbEntity
  8
ZUWAKU
100
AcDbLine
 10
276.3634782463074
 20
15.00000021507446
 30
0.0
 11
276.3634782463075
 21
0.400000215074499
 31
0.0
  0
LINE
  5
7F4
330
1A
100
AcDbEntity
  8
ZUWAKU
100
AcDbLine
 10
324.2086016183535
 20
15.00000021507446
 30
0.0
 11
324.2086016183535
 21
0.400000215074499
 31
0.0
  0
LINE
  5
7F5
330
1A
100
AcDbEntity
  8
ZUWAKU
100
AcDbLine
 10
324.4086016183534
 20
15.00000021507446
 30
0.0
 11
324.4086016183536
 21
0.400000215074499
 31
0.0
  0
LINE
  5
7F6
330
1A
100
AcDbEntity
  8
ZUWAKU
100
AcDbLine
 10
324.3086016183534
 20
15.00000021507446
 30
0.0
 11
324.3086016183535
 21
0.400000215074499
 31
0.0
  0
TEXT
  5
7F7
330
1A
100
AcDbEntity
  8
ZUWAKU
100
AcDbText
 10
325.1473241294583
 20
12.02767848426725
 30
0.0
 40
2.0
  1
DATE
 41
0.9
  7
ｽﾀｲﾙ1
100
AcDbText
  0
TEXT
  5
7F8
330
1A
100
AcDbEntity
  8
ZUWAKU
100
AcDbText
 10
354.2640424593731
 20
8.776919882917866
 30
0.0
 40
3.0
  1
積水化学工業株式会社
 41
0.9
  7
ｽﾀｲﾙ1
100
AcDbText
  0
LINE
  5
7F9
330
1A
100
AcDbEntity
  8
ZUWAKU
100
AcDbLine
 10
348.9245056375218
 20
15.00000021507446
 30
0.0
 11
348.9245056375219
 21
0.400000215074499
 31
0.0
  0
LINE
  5
7FA
330
1A
100
AcDbEntity
  8
ZUWAKU
100
AcDbLine
 10
348.8245056375218
 20
15.00000021507446
 30
0.0
 11
348.8245056375219
 21
0.400000215074499
 31
0.0
  0
LINE
  5
7FB
330
1A
100
AcDbEntity
  8
ZUWAKU
100
AcDbLine
 10
348.7245056375219
 20
15.00000021507446
 30
0.0
 11
348.7245056375219
 21
0.400000215074499
 31
0.0
  0
LINE
  5
7FC
330
1A
100
AcDbEntity
  8
ZUWAKU
100
AcDbLine
 10
348.6245056375218
 20
15.00000021507446
 30
0.0
 11
348.6245056375218
 21
0.400000215074499
 31
0.0
  0
TEXT
  5
7FD
330
1A
100
AcDbEntity
  8
ZUWAKU
100
AcDbText
 10
354.2640424593731
 20
3.324420372001497
 30
0.0
 40
3.0
  1
建材事業部
 41
0.9
  7
ｽﾀｲﾙ1
100
AcDbText
  0
VIEWPORT
  5
22
330
17
100
AcDbEntity
 67
     1
  8
0
100
AcDbViewport
 10
313.6808219178082
 20
148.5
 30
0.0
 40
627.3616438356165
 41
297.0
 68
     2
 69
     1
1001
ACAD
1000
MVIEW
1002
{
1070
    16
1010
0.0
1020
0.0
1030
0.0
1010
0.0
1020
0.0
1030
1.0
1040
0.0
1040
297.0
1040
313.6808219178082
1040
148.5
1040
50.0
1040
0.0
1040
0.0
1070
     0
1070
   100
1070
     1
1070
     0
1070
     0
1070
     0
1070
     0
1070
     0
1040
0.0
1040
0.0
1040
0.0
1040
1.0
1040
1.0
1040
10.0
1040
10.0
1070
     0
1002
{
1002
}
1002
}
  0
VIEWPORT
  5
64
330
17
100
AcDbEntity
 67
     1
  8
VIEWPORT
100
AcDbViewport
 10
210.0
 20
148.5
 30
0.0
 40
420.0
 41
297.0
 68
     1
 69
     2
1001
ACAD
1000
MVIEW
1002
{
1070
    16
1010
0.0
1020
0.0
1030
0.0
1010
0.0
1020
0.0
1030
1.0
1040
0.0
1040
302.9399999999998
1040
210.0
1040
148.5
1040
50.0
1040
0.0
1040
0.0
1070
     0
1070
   100
1070
     1
1070
     0
1070
     0
1070
     0
1070
     0
1070
     0
1040
0.0
1040
0.0
1040
0.0
1040
5.0
1040
5.0
1040
0.0
1040
0.0
1070
     0
1002
{
1002
}
1002
}
  0
ENDSEC
  0
SECTION
  2
OBJECTS
  0
DICTIONARY
  5
C
330
0
100
AcDbDictionary
  3
ACAD_GROUP
350
D
  3
ACAD_LAYOUT
350
4AB
  3
ACAD_MLINESTYLE
350
E
  3
ACAD_PLOTSETTINGS
350
4AC
  3
ACAD_PLOTSTYLENAME
350
4A9
  3
ACDBHEADERROUNDTRIPXREC
350
805
  0
DICTIONARY
  5
4DA
330
1A
100
AcDbDictionary
280
     1
  3
ACAD_LAYOUTSELFREF
360
827
  0
DICTIONARY
  5
4D8
330
17
100
AcDbDictionary
280
     1
  3
ACAD_LAYOUTSELFREF
360
826
  0
DICTIONARY
  5
D
102
{ACAD_REACTORS
330
C
102
}
330
C
100
AcDbDictionary
  0
DICTIONARY
  5
4AB
102
{ACAD_REACTORS
330
C
102
}
330
C
100
AcDbDictionary
  0
DICTIONARY
  5
E
102
{ACAD_REACTORS
330
C
102
}
330
C
100
AcDbDictionary
  3
STANDARD
350
13
  0
DICTIONARY
  5
4AC
102
{ACAD_REACTORS
330
C
102
}
330
C
100
AcDbDictionary
  0
ACDBDICTIONARYWDFLT
  5
4A9
102
{ACAD_REACTORS
330
C
102
}
330
C
100
AcDbDictionary
281
     1
  3
Normal
350
4AA
100
AcDbDictionaryWithDefault
340
4AA
1001
ACAD
1000
TREAT_AS_HARD
1070
     0
1000
TREAT_AS_HARD
1070
     0
  0
DICTIONARY
  5
805
102
{ACAD_REACTORS
330
C
102
}
330
C
100
AcDbDictionary
  3
TSTACKALIGN
350
806
  3
TSTACKSIZE
350
807
  3
HYPERLINKBASE
350
808
  3
STYLESHEET
350
809
  3
LAYOUTDICT
350
80A
  3
PLOTSETDICT
350
80B
  3
PLOTSTYLNAMDICT
350
80C
  3
LWETCUNION
350
80D
  3
INSUNITS
350
80E
  3
CEPSNTYPE
350
80F
  3
FINGERPRINTGUID
350
810
  3
VERSIONGUID
350
811
  3
PSVPSCALE
350
812
  3
DIMSTYLEDATA
350
813
  3
PUCSORTHOREF
350
814
  3
PUCSORTHOVIEW
350
815
  3
PUCSBASE
350
816
  3
PUCSORGTOP
350
817
  3
PUCSORGBOTTOM
350
818
  3
PUCSORGLEFT
350
819
  3
PUCSORGRIGHT
350
81A
  3
PUCSORGFRONT
350
81B
  3
PUCSORGBACK
350
81C
  3
UCSORTHOREF
350
81D
  3
UCSORTHOVIEW
350
81E
  3
UCSBASE
350
81F
  3
UCSORGTOP
350
820
  3
UCSORGBOTTOM
350
821
  3
UCSORGLEFT
350
822
  3
UCSORGRIGHT
350
823
  3
UCSORGFRONT
350
824
  3
UCSORGBACK
350
825
  0
XRECORD
  5
827
102
{ACAD_REACTORS
330
4DA
102
}
330
4DA
100
AcDbXrecord
340
1A
  0
XRECORD
  5
826
102
{ACAD_REACTORS
330
4D8
102
}
330
4D8
100
AcDbXrecord
340
17
  0
MLINESTYLE
  5
13
102
{ACAD_REACTORS
330
E
102
}
330
E
100
AcDbMlineStyle
  2
STANDARD
 70
     0
  3

 62
     0
 51
90.0
 52
90.0
 71
     2
 49
0.5
 62
   256
  6
BYLAYER
 49
-0.5
 62
   256
  6
BYLAYER
  0
ACDBPLACEHOLDER
  5
4AA
102
{ACAD_REACTORS
330
4A9
102
}
330
4A9
100
AcDbPlaceHolder
280
     0
  0
XRECORD
  5
806
102
{ACAD_REACTORS
330
805
102
}
330
805
100
AcDbXrecord
 90
        1
  0
XRECORD
  5
807
102
{ACAD_REACTORS
330
805
102
}
330
805
100
AcDbXrecord
 90
       70
  0
XRECORD
  5
808
102
{ACAD_REACTORS
330
805
102
}
330
805
100
AcDbXrecord
  1

  0
XRECORD
  5
809
102
{ACAD_REACTORS
330
805
102
}
330
805
100
AcDbXrecord
  1
systemprinter.ctb
  0
XRECORD
  5
80A
102
{ACAD_REACTORS
330
805
102
}
330
805
100
AcDbXrecord
340
4AB
  0
XRECORD
  5
80B
102
{ACAD_REACTORS
330
805
102
}
330
805
100
AcDbXrecord
340
4AC
  0
XRECORD
  5
80C
102
{ACAD_REACTORS
330
805
102
}
330
805
100
AcDbXrecord
340
4A9
  0
XRECORD
  5
80D
102
{ACAD_REACTORS
330
805
102
}
330
805
100
AcDbXrecord
 90
    10781
  0
XRECORD
  5
80E
102
{ACAD_REACTORS
330
805
102
}
330
805
100
AcDbXrecord
 90
        0
  0
XRECORD
  5
80F
102
{ACAD_REACTORS
330
805
102
}
330
805
100
AcDbXrecord
 90
        0
  0
XRECORD
  5
810
102
{ACAD_REACTORS
330
805
102
}
330
805
100
AcDbXrecord
  1
{73395BCE-60D4-4FC6-B70F-9EB320F168E5}
  0
XRECORD
  5
811
102
{ACAD_REACTORS
330
805
102
}
330
805
100
AcDbXrecord
  1
{58D3E642-CB79-42E0-98BB-0112DD6039B3}
  0
XRECORD
  5
812
102
{ACAD_REACTORS
330
805
102
}
330
805
100
AcDbXrecord
 40
0.0
  0
XRECORD
  5
813
102
{ACAD_REACTORS
330
805
102
}
330
805
100
AcDbXrecord
1000
DSTYLE
1002
{
1070
   341
340
B2
1070
   343
340
B2
1070
   344
340
B2
1070
   371
 70
    -1
1070
   372
 70
    -1
1002
}
  0
XRECORD
  5
814
102
{ACAD_REACTORS
330
805
102
}
330
805
100
AcDbXrecord
340
0
  0
XRECORD
  5
815
102
{ACAD_REACTORS
330
805
102
}
330
805
100
AcDbXrecord
 70
     0
  0
XRECORD
  5
816
102
{ACAD_REACTORS
330
805
102
}
330
805
100
AcDbXrecord
340
0
  0
XRECORD
  5
817
102
{ACAD_REACTORS
330
805
102
}
330
805
100
AcDbXrecord
 10
0.0
 20
0.0
 30
0.0
  0
XRECORD
  5
818
102
{ACAD_REACTORS
330
805
102
}
330
805
100
AcDbXrecord
 10
0.0
 20
0.0
 30
0.0
  0
XRECORD
  5
819
102
{ACAD_REACTORS
330
805
102
}
330
805
100
AcDbXrecord
 10
0.0
 20
0.0
 30
0.0
  0
XRECORD
  5
81A
102
{ACAD_REACTORS
330
805
102
}
330
805
100
AcDbXrecord
 10
0.0
 20
0.0
 30
0.0
  0
XRECORD
  5
81B
102
{ACAD_REACTORS
330
805
102
}
330
805
100
AcDbXrecord
 10
0.0
 20
0.0
 30
0.0
  0
XRECORD
  5
81C
102
{ACAD_REACTORS
330
805
102
}
330
805
100
AcDbXrecord
 10
0.0
 20
0.0
 30
0.0
  0
XRECORD
  5
81D
102
{ACAD_REACTORS
330
805
102
}
330
805
100
AcDbXrecord
340
0
  0
XRECORD
  5
81E
102
{ACAD_REACTORS
330
805
102
}
330
805
100
AcDbXrecord
 70
     0
  0
XRECORD
  5
81F
102
{ACAD_REACTORS
330
805
102
}
330
805
100
AcDbXrecord
340
0
  0
XRECORD
  5
820
102
{ACAD_REACTORS
330
805
102
}
330
805
100
AcDbXrecord
 10
0.0
 20
0.0
 30
0.0
  0
XRECORD
  5
821
102
{ACAD_REACTORS
330
805
102
}
330
805
100
AcDbXrecord
 10
0.0
 20
0.0
 30
0.0
  0
XRECORD
  5
822
102
{ACAD_REACTORS
330
805
102
}
330
805
100
AcDbXrecord
 10
0.0
 20
0.0
 30
0.0
  0
XRECORD
  5
823
102
{ACAD_REACTORS
330
805
102
}
330
805
100
AcDbXrecord
 10
0.0
 20
0.0
 30
0.0
  0
XRECORD
  5
824
102
{ACAD_REACTORS
330
805
102
}
330
805
100
AcDbXrecord
 10
0.0
 20
0.0
 30
0.0
  0
XRECORD
  5
825
102
{ACAD_REACTORS
330
805
102
}
330
805
100
AcDbXrecord
 10
0.0
 20
0.0
 30
0.0
  0
ENDSEC
  0
EOF
