  0
SECTION
  2
HEADER
  9
$ACADVER
  1
AC1012
  9
$DWGCODEPAGE
  3
dos932
  9
$INSBASE
 10
0.0
 20
0.0
 30
0.0
  9
$EXTMIN
 10
10.05047808566086
 20
4.949376903717846
 30
-0.00000001
  9
$EXTMAX
 10
806.2246110975902
 20
563.7825862828226
 30
0.00000001
  9
$LIMMIN
 10
0.0
 20
0.0
  9
$LIMMAX
 10
840.0
 20
594.0
  9
$ORTHOMODE
 70
     0
  9
$REGENMODE
 70
     1
  9
$FILLMODE
 70
     1
  9
$QTEXTMODE
 70
     0
  9
$MIRRTEXT
 70
     1
  9
$DRAGMODE
 70
     2
  9
$LTSCALE
 40
2.0
  9
$OSMODE
 70
   319
  9
$ATTMODE
 70
     1
  9
$TEXTSIZE
 40
5.0
  9
$TRACEWID
 40
1.0
  9
$TEXTSTYLE
  7
STANDARD
  9
$CLAYER
  8
CENTER_L
  9
$CELTYPE
  6
BYLAYER
  9
$CECOLOR
 62
   256
  9
$CELTSCALE
 40
1.0
  9
$DELOBJ
 70
     1
  9
$DISPSILH
 70
     0
  9
$DIMSCALE
 40
1.0
  9
$DIMASZ
 40
7.0
  9
$DIMEXO
 40
6.0
  9
$DIMDLI
 40
14.0
  9
$DIMRND
 40
0.0
  9
$DIMDLE
 40
0.0
  9
$DIMEXE
 40
3.0
  9
$DIMTP
 40
0.0
  9
$DIMTM
 40
0.0
  9
$DIMTXT
 40
6.0
  9
$DIMCEN
 40
150.0
  9
$DIMTSZ
 40
0.0
  9
$DIMTOL
 70
     0
  9
$DIMLIM
 70
     0
  9
$DIMTIH
 70
     0
  9
$DIMTOH
 70
     0
  9
$DIMSE1
 70
     0
  9
$DIMSE2
 70
     0
  9
$DIMTAD
 70
     3
  9
$DIMZIN
 70
     0
  9
$DIMBLK
  1

  9
$DIMASO
 70
     1
  9
$DIMSHO
 70
     1
  9
$DIMPOST
  1

  9
$DIMAPOST
  1

  9
$DIMALT
 70
     0
  9
$DIMALTD
 70
     2
  9
$DIMALTF
 40
25.4
  9
$DIMLFAC
 40
1.0
  9
$DIMTOFL
 70
     1
  9
$DIMTVP
 40
0.0
  9
$DIMTIX
 70
     0
  9
$DIMSOXD
 70
     0
  9
$DIMSAH
 70
     1
  9
$DIMBLK1
  1
OPEN
  9
$DIMBLK2
  1
OPEN
  9
$DIMSTYLE
  2
STANDARD
  9
$DIMCLRD
 70
   256
  9
$DIMCLRE
 70
   256
  9
$DIMCLRT
 70
   256
  9
$DIMTFAC
 40
1.0
  9
$DIMGAP
 40
2.0
  9
$DIMJUST
 70
     0
  9
$DIMSD1
 70
     0
  9
$DIMSD2
 70
     0
  9
$DIMTOLJ
 70
     1
  9
$DIMTZIN
 70
     0
  9
$DIMALTZ
 70
     0
  9
$DIMALTTZ
 70
     0
  9
$DIMFIT
 70
     3
  9
$DIMUPT
 70
     0
  9
$DIMUNIT
 70
     2
  9
$DIMDEC
 70
     0
  9
$DIMTDEC
 70
     0
  9
$DIMALTU
 70
     2
  9
$DIMALTTD
 70
     2
  9
$DIMTXSTY
  7
STANDARD
  9
$DIMAUNIT
 70
     0
  9
$LUNITS
 70
     2
  9
$LUPREC
 70
     4
  9
$SKETCHINC
 40
1.0
  9
$FILLETRAD
 40
1.0
  9
$AUNITS
 70
     0
  9
$AUPREC
 70
     0
  9
$MENU
  1
.
  9
$ELEVATION
 40
0.0
  9
$PELEVATION
 40
0.0
  9
$THICKNESS
 40
0.0
  9
$LIMCHECK
 70
     0
  9
$BLIPMODE
 70
     0
  9
$CHAMFERA
 40
20.0
  9
$CHAMFERB
 40
20.0
  9
$CHAMFERC
 40
40.0
  9
$CHAMFERD
 40
0.0
  9
$SKPOLY
 70
     0
  9
$TDCREATE
 40
2451186.492404514
  9
$TDUPDATE
 40
2452422.708713657
  9
$TDINDWG
 40
0.0059515046
  9
$TDUSRTIMER
 40
0.0059515046
  9
$USRTIMER
 70
     1
  9
$ANGBASE
 50
0.0
  9
$ANGDIR
 70
     0
  9
$PDMODE
 70
     0
  9
$PDSIZE
 40
0.0
  9
$PLINEWID
 40
0.0
  9
$COORDS
 70
     1
  9
$SPLFRAME
 70
     0
  9
$SPLINETYPE
 70
     6
  9
$SPLINESEGS
 70
     8
  9
$ATTDIA
 70
     0
  9
$ATTREQ
 70
     1
  9
$HANDLING
 70
 10241
  9
$HANDSEED
  5
469
  9
$SURFTAB1
 70
     6
  9
$SURFTAB2
 70
     6
  9
$SURFTYPE
 70
     6
  9
$SURFU
 70
     6
  9
$SURFV
 70
     6
  9
$UCSNAME
  2

  9
$UCSORG
 10
0.0
 20
0.0
 30
0.0
  9
$UCSXDIR
 10
1.0
 20
0.0
 30
0.0
  9
$UCSYDIR
 10
0.0
 20
1.0
 30
0.0
  9
$PUCSNAME
  2

  9
$PUCSORG
 10
0.0
 20
0.0
 30
0.0
  9
$PUCSXDIR
 10
1.0
 20
0.0
 30
0.0
  9
$PUCSYDIR
 10
0.0
 20
1.0
 30
0.0
  9
$USERI1
 70
     0
  9
$USERI2
 70
     0
  9
$USERI3
 70
     0
  9
$USERI4
 70
     0
  9
$USERI5
 70
     0
  9
$USERR1
 40
0.0
  9
$USERR2
 40
0.0
  9
$USERR3
 40
0.0
  9
$USERR4
 40
0.0
  9
$USERR5
 40
0.0
  9
$WORLDVIEW
 70
     1
  9
$SHADEDGE
 70
     3
  9
$SHADEDIF
 70
    70
  9
$TILEMODE
 70
     1
  9
$MAXACTVP
 70
    16
  9
$PINSBASE
 10
0.0
 20
0.0
 30
0.0
  9
$PLIMCHECK
 70
     0
  9
$PEXTMIN
 10
0.0
 20
0.0
 30
0.0
  9
$PEXTMAX
 10
420.0
 20
297.0
 30
0.0
  9
$PLIMMIN
 10
0.0
 20
0.0
  9
$PLIMMAX
 10
420.0
 20
297.0
  9
$UNITMODE
 70
     0
  9
$VISRETAIN
 70
     0
  9
$PLINEGEN
 70
     0
  9
$PSLTSCALE
 70
     1
  9
$TREEDEPTH
 70
  3020
  9
$PICKSTYLE
 70
     1
  9
$CMLSTYLE
  2
STANDARD
  9
$CMLJUST
 70
     0
  9
$CMLSCALE
 40
1.0
  9
$SAVEIMAGES
 70
     1
  0
ENDSEC
  0
SECTION
  2
CLASSES
  0
CLASS
  1
ACDBDICTIONARYWDFLT
  2
AcDbDictionaryWithDefault
  3
AutoCAD 2000
 90
    32768
280
     0
281
     0
  0
CLASS
  1
ACDBPLACEHOLDER
  2
AcDbPlaceHolder
  3
AutoCAD 2000
 90
    32768
280
     0
281
     0
  0
CLASS
  1
LAYOUT
  2
AcDbLayout
  3
AutoCAD 2000
 90
    32768
280
     0
281
     0
  0
CLASS
  1
LONG_TRANSACTION
  2
AcDbLongTransaction
  3
AutoCAD 2000
 90
    32768
280
     0
281
     0
  0
CLASS
  1
LWPOLYLINE
  2
AcDbPolyline
  3
AutoCAD 2000
 90
    32768
280
     0
281
     1
  0
CLASS
  1
HATCH
  2
AcDbHatch
  3
AutoCAD 2000
 90
    32768
280
     0
281
     1
  0
CLASS
  1
XRECORD
  2
AcDbXrecord
  3
AutoCAD 2000
 90
    32768
280
     0
281
     0
  0
CLASS
  1
LONG_TRANSACTION
  2
AcDbLongTransaction
  3
AutoCAD 2000
 90
    32768
280
     0
281
     0
  0
CLASS
  1
LWPOLYLINE
  2
AcDbPolyline
  3
AutoCAD 2000
 90
    32768
280
     0
281
     1
  0
CLASS
  1
HATCH
  2
AcDbHatch
  3
AutoCAD 2000
 90
    32768
280
     0
281
     1
  0
CLASS
  1
XRECORD
  2
AcDbXrecord
  3
AutoCAD 2000
 90
    32768
280
     0
281
     0
  0
ENDSEC
  0
SECTION
  2
TABLES
  0
TABLE
  2
VPORT
  5
8
330
0
100
AcDbSymbolTable
 70
     2
  0
VPORT
  5
45D
330
8
100
AcDbSymbolTableRecord
100
AcDbViewportTableRecord
  2
*ACTIVE
 70
     0
 10
0.0
 20
0.0
 11
1.0
 21
1.0
 12
426.5319833761293
 22
304.1358061403827
 13
0.0
 23
0.0
 14
5.0
 24
5.0
 15
0.0
 25
0.0
 16
0.0
 26
0.0
 36
1.0
 17
0.0
 27
0.0
 37
0.0
 40
614.9185912329129
 41
1.70990990990991
 42
50.0
 43
0.0
 44
0.0
 50
0.0
 51
0.0
 71
     0
 72
   100
 73
     1
 74
     0
 75
     0
 76
     0
 77
     0
 78
     0
  0
ENDTAB
  0
TABLE
  2
LTYPE
  5
5
330
0
100
AcDbSymbolTable
 70
     2
  0
LTYPE
  5
14
330
5
100
AcDbSymbolTableRecord
100
AcDbLinetypeTableRecord
  2
BYBLOCK
 70
     0
  3

 72
    65
 73
     0
 40
0.0
  0
LTYPE
  5
15
330
5
100
AcDbSymbolTableRecord
100
AcDbLinetypeTableRecord
  2
BYLAYER
 70
     0
  3

 72
    65
 73
     0
 40
0.0
  0
LTYPE
  5
16
330
5
100
AcDbSymbolTableRecord
100
AcDbLinetypeTableRecord
  2
CONTINUOUS
 70
     0
  3
Solid line
 72
    65
 73
     0
 40
0.0
  0
LTYPE
  5
135
330
5
100
AcDbSymbolTableRecord
100
AcDbLinetypeTableRecord
  2
CENTER
 70
     0
  3
____ _ ____ _ ____ _ ____ _ ____ _ ____ _ ____ 
 72
    65
 73
     4
 40
2.0
 49
1.25
 74
     0
 49
-0.25
 74
     0
 49
0.25
 74
     0
 49
-0.25
 74
     0
  0
ENDTAB
  0
TABLE
  2
LAYER
  5
2
330
0
100
AcDbSymbolTable
 70
     7
  0
LAYER
  5
F
330
2
100
AcDbSymbolTableRecord
100
AcDbLayerTableRecord
  2
0
 70
     0
 62
     7
  6
CONTINUOUS
  0
LAYER
  5
62
330
2
100
AcDbSymbolTableRecord
100
AcDbLayerTableRecord
  2
VIEWPORT
 70
     0
 62
     7
  6
CONTINUOUS
  0
LAYER
  5
65
330
2
100
AcDbSymbolTableRecord
100
AcDbLayerTableRecord
  2
ZUWAKU
 70
     0
 62
     7
  6
CONTINUOUS
  0
LAYER
  5
143
330
2
100
AcDbSymbolTableRecord
100
AcDbLayerTableRecord
  2
SEIHIN
 70
     0
 62
     3
  6
CONTINUOUS
  0
LAYER
  5
144
330
2
100
AcDbSymbolTableRecord
100
AcDbLayerTableRecord
  2
SUNPOU
 70
     0
 62
     4
  6
CONTINUOUS
  0
LAYER
  5
145
330
2
100
AcDbSymbolTableRecord
100
AcDbLayerTableRecord
  2
CENTER_L
 70
     0
 62
     1
  6
CENTER
  0
LAYER
  5
389
330
2
100
AcDbSymbolTableRecord
100
AcDbLayerTableRecord
  2
DEFPOINTS
 70
     0
 62
     7
  6
CONTINUOUS
  0
ENDTAB
  0
TABLE
  2
STYLE
  5
3
330
0
100
AcDbSymbolTable
 70
     1
  0
STYLE
  5
10
330
3
100
AcDbSymbolTableRecord
100
AcDbTextStyleTableRecord
  2
STANDARD
 70
     0
 40
0.0
 41
1.0
 50
0.0
 71
     0
 42
5.0
  3
TXT
  4
bigfont.shx
  0
ENDTAB
  0
TABLE
  2
VIEW
  5
6
330
0
100
AcDbSymbolTable
 70
     0
  0
ENDTAB
  0
TABLE
  2
UCS
  5
7
330
0
100
AcDbSymbolTable
 70
     0
  0
ENDTAB
  0
TABLE
  2
APPID
  5
9
330
0
100
AcDbSymbolTable
 70
     1
  0
APPID
  5
11
330
9
100
AcDbSymbolTableRecord
100
AcDbRegAppTableRecord
  2
ACAD
 70
     0
  0
ENDTAB
  0
TABLE
  2
DIMSTYLE
  5
A
330
0
100
AcDbSymbolTable
 70
     1
  0
DIMSTYLE
105
1D
102
{ACAD_REACTORS
330
38E
330
39B
330
3A8
330
3B5
330
3F8
102
}
330
A
100
AcDbSymbolTableRecord
100
AcDbDimStyleTableRecord
  2
STANDARD
 70
     0
  3

  4

  5

  6

  7

 40
1.0
 41
0.18
 42
0.0625
 43
0.38
 44
0.18
 45
0.0
 46
0.0
 47
0.0
 48
0.0
140
0.18
141
0.09
142
0.0
143
25.4
144
1.0
145
0.0
146
1.0
147
0.09
 71
     0
 72
     0
 73
     1
 74
     1
 75
     0
 76
     0
 77
     0
 78
     0
170
     0
171
     2
172
     0
173
     0
174
     0
175
     0
176
     0
177
     0
178
     0
270
     2
271
     4
272
     4
273
     2
274
     2
340
10
275
     0
280
     0
281
     0
282
     0
283
     1
284
     0
285
     0
286
     0
287
     3
288
     0
  0
ENDTAB
  0
TABLE
  2
BLOCK_RECORD
  5
1
330
0
100
AcDbSymbolTable
 70
     6
  0
BLOCK_RECORD
  5
1A
102
{ACAD_XDICTIONARY
360
446
102
}
330
1
100
AcDbSymbolTableRecord
100
AcDbBlockTableRecord
  2
*MODEL_SPACE
  0
BLOCK_RECORD
  5
17
102
{ACAD_XDICTIONARY
360
444
102
}
330
1
100
AcDbSymbolTableRecord
100
AcDbBlockTableRecord
  2
*PAPER_SPACE
  0
BLOCK_RECORD
  5
6D
330
1
100
AcDbSymbolTableRecord
100
AcDbBlockTableRecord
  2
_OPEN
  0
BLOCK_RECORD
  5
381
330
1
100
AcDbSymbolTableRecord
100
AcDbBlockTableRecord
  2
*D1
  0
BLOCK_RECORD
  5
38F
330
1
100
AcDbSymbolTableRecord
100
AcDbBlockTableRecord
  2
*D2
  0
BLOCK_RECORD
  5
39C
330
1
100
AcDbSymbolTableRecord
100
AcDbBlockTableRecord
  2
*D3
  0
BLOCK_RECORD
  5
3A9
330
1
100
AcDbSymbolTableRecord
100
AcDbBlockTableRecord
  2
*D4
  0
BLOCK_RECORD
  5
3EC
330
1
100
AcDbSymbolTableRecord
100
AcDbBlockTableRecord
  2
*D5
  0
ENDTAB
  0
ENDSEC
  0
SECTION
  2
BLOCKS
  0
BLOCK
  5
1B
330
1A
100
AcDbEntity
  8
0
100
AcDbBlockBegin
  2
*MODEL_SPACE
 70
     0
 10
0.0
 20
0.0
 30
0.0
  3
*MODEL_SPACE
  1

  0
ENDBLK
  5
1C
330
1A
100
AcDbEntity
  8
0
100
AcDbBlockEnd
  0
BLOCK
  5
18
330
17
100
AcDbEntity
 67
     1
  8
0
100
AcDbBlockBegin
  2
*PAPER_SPACE
 70
     0
 10
0.0
 20
0.0
 30
0.0
  3
*PAPER_SPACE
  1

  0
ENDBLK
  5
19
330
17
100
AcDbEntity
 67
     1
  8
0
100
AcDbBlockEnd
  0
BLOCK
  5
6E
330
6D
100
AcDbEntity
  8
0
100
AcDbBlockBegin
  2
_OPEN
 70
     0
 10
0.0
 20
0.0
 30
0.0
  3
_OPEN
  1

  0
LINE
  5
6F
330
6D
100
AcDbEntity
  8
0
  6
BYBLOCK
 62
     0
100
AcDbLine
 10
-1.0
 20
0.1666666666666666
 30
0.0
 11
0.0
 21
0.0
 31
0.0
  0
LINE
  5
70
330
6D
100
AcDbEntity
  8
0
  6
BYBLOCK
 62
     0
100
AcDbLine
 10
0.0
 20
0.0
 30
0.0
 11
-1.0
 21
-0.1666666666666666
 31
0.0
  0
LINE
  5
71
330
6D
100
AcDbEntity
  8
0
  6
BYBLOCK
 62
     0
100
AcDbLine
 10
0.0
 20
0.0
 30
0.0
 11
-1.0
 21
0.0
 31
0.0
  0
ENDBLK
  5
72
330
6D
100
AcDbEntity
  8
0
100
AcDbBlockEnd
  0
BLOCK
  5
3CE
330
381
100
AcDbEntity
  8
0
100
AcDbBlockBegin
  2
*D1
 70
     1
 10
0.0
 20
0.0
 30
0.0
  3
*D1
  1

  0
LINE
  5
3CF
330
381
100
AcDbEntity
  8
0
  6
BYBLOCK
 62
     4
100
AcDbLine
 10
380.0190986770728
 20
329.5119202776649
 30
0.0
 11
318.1258538859442
 21
329.5119202776649
 31
0.0
  0
LINE
  5
3D0
330
381
100
AcDbEntity
  8
0
  6
BYBLOCK
 62
     4
100
AcDbLine
 10
356.8690986770728
 20
294.5119202776649
 30
0.0
 11
318.1258538859442
 21
294.5119202776649
 31
0.0
  0
LINE
  5
3D1
330
381
100
AcDbEntity
  8
0
  6
BYBLOCK
 62
     4
100
AcDbLine
 10
321.1258538859442
 20
336.5119202776649
 30
0.0
 11
321.1258538859442
 21
343.5119202776649
 31
0.0
  0
LINE
  5
3D2
330
381
100
AcDbEntity
  8
0
  6
BYBLOCK
 62
     4
100
AcDbLine
 10
321.1258538859442
 20
287.5119202776649
 30
0.0
 11
321.1258538859442
 21
280.5119202776649
 31
0.0
  0
LINE
  5
3D3
330
381
100
AcDbEntity
  8
0
  6
BYBLOCK
 62
     4
100
AcDbLine
 10
321.1258538859442
 20
329.5119202776649
 30
0.0
 11
321.1258538859442
 21
294.5119202776649
 31
0.0
  0
INSERT
  5
3D4
330
381
100
AcDbEntity
  8
0
  6
BYBLOCK
 62
     4
100
AcDbBlockReference
  2
_OPEN
 10
321.1258538859442
 20
329.5119202776649
 30
0.0
 41
7.0
 42
7.0
 43
7.0
 50
270.0
  0
INSERT
  5
3D5
330
381
100
AcDbEntity
  8
0
  6
BYBLOCK
 62
     4
100
AcDbBlockReference
  2
_OPEN
 10
321.1258538859442
 20
294.5119202776649
 30
0.0
 41
7.0
 42
7.0
 43
7.0
 50
90.0
  0
MTEXT
  5
3D6
330
381
100
AcDbEntity
  8
0
  6
BYBLOCK
 62
     4
100
AcDbMText
 10
316.1258538859442
 20
312.0119202776649
 30
0.0
 40
6.0
 41
0.0
 71
     5
 72
     1
  1
\A1;※35
 11
0.0
 21
1.0
 31
0.0
1001
ACAD
1000
MTEXTBEGIN
1070
    73
1070
     1
1070
    44
1040
1.0
1070
    74
1070
     0
1000
MTEXTEND
1000
MTEXTBEGIN
1070
    73
1070
     1
1070
    44
1040
1.0
1070
    74
1070
     0
1000
MTEXTEND
  0
POINT
  5
3D7
330
381
100
AcDbEntity
  8
DEFPOINTS
  6
BYBLOCK
 62
     0
100
AcDbPoint
 10
386.0190986770728
 20
329.5119202776649
 30
0.0
  0
POINT
  5
3D8
330
381
100
AcDbEntity
  8
DEFPOINTS
  6
BYBLOCK
 62
     0
100
AcDbPoint
 10
362.8690986770728
 20
294.5119202776649
 30
0.0
  0
POINT
  5
3D9
330
381
100
AcDbEntity
  8
DEFPOINTS
  6
BYBLOCK
 62
     0
100
AcDbPoint
 10
321.1258538859442
 20
294.5119202776649
 30
0.0
  0
ENDBLK
  5
3DA
330
381
100
AcDbEntity
  8
0
100
AcDbBlockEnd
  0
BLOCK
  5
3DD
330
38F
100
AcDbEntity
  8
0
100
AcDbBlockBegin
  2
*D2
 70
     1
 10
0.0
 20
0.0
 30
0.0
  3
*D2
  1

  0
LINE
  5
3DE
330
38F
100
AcDbEntity
  8
0
  6
BYBLOCK
 62
     4
100
AcDbLine
 10
349.9490986770729
 20
468.5126202776652
 30
0.0
 11
296.8453969910606
 21
468.5126202776652
 31
0.0
  0
LINE
  5
3DF
330
38F
100
AcDbEntity
  8
0
  6
BYBLOCK
 62
     4
100
AcDbLine
 10
356.8690986770728
 20
294.5119202776649
 30
0.0
 11
296.8453969910606
 21
294.5119202776649
 31
0.0
  0
LINE
  5
3E0
330
38F
100
AcDbEntity
  8
0
  6
BYBLOCK
 62
     4
100
AcDbLine
 10
299.8453969910606
 20
461.5126202776653
 30
0.0
 11
299.8453969910606
 21
301.5119202776649
 31
0.0
  0
INSERT
  5
3E1
330
38F
100
AcDbEntity
  8
0
  6
BYBLOCK
 62
     4
100
AcDbBlockReference
  2
_OPEN
 10
299.8453969910606
 20
468.5126202776652
 30
0.0
 41
7.0
 42
7.0
 43
7.0
 50
90.0
  0
INSERT
  5
3E2
330
38F
100
AcDbEntity
  8
0
  6
BYBLOCK
 62
     4
100
AcDbBlockReference
  2
_OPEN
 10
299.8453969910606
 20
294.5119202776649
 30
0.0
 41
7.0
 42
7.0
 43
7.0
 50
270.0
  0
MTEXT
  5
3E3
330
38F
100
AcDbEntity
  8
0
  6
BYBLOCK
 62
     4
100
AcDbMText
 10
294.8453969910606
 20
381.5122702776651
 30
0.0
 40
6.0
 41
0.0
 71
     5
 72
     1
  1
\A1;174
 11
0.0
 21
1.0
 31
0.0
1001
ACAD
1000
MTEXTBEGIN
1070
    73
1070
     1
1070
    44
1040
1.0
1070
    74
1070
     0
1000
MTEXTEND
1000
MTEXTBEGIN
1070
    73
1070
     1
1070
    44
1040
1.0
1070
    74
1070
     0
1000
MTEXTEND
  0
POINT
  5
3E4
330
38F
100
AcDbEntity
  8
DEFPOINTS
  6
BYBLOCK
 62
     0
100
AcDbPoint
 10
355.9490986770729
 20
468.5126202776652
 30
0.0
  0
POINT
  5
3E5
330
38F
100
AcDbEntity
  8
DEFPOINTS
  6
BYBLOCK
 62
     0
100
AcDbPoint
 10
362.8690986770728
 20
294.5119202776649
 30
0.0
  0
POINT
  5
3E6
330
38F
100
AcDbEntity
  8
DEFPOINTS
  6
BYBLOCK
 62
     0
100
AcDbPoint
 10
299.8453969910606
 20
294.5119202776649
 30
0.0
  0
ENDBLK
  5
3E7
330
38F
100
AcDbEntity
  8
0
100
AcDbBlockEnd
  0
BLOCK
  5
39D
330
39C
100
AcDbEntity
  8
0
100
AcDbBlockBegin
  2
*D3
 70
     1
 10
0.0
 20
0.0
 30
0.0
  3
*D3
  1

  0
LINE
  5
39E
330
39C
100
AcDbEntity
  8
0
  6
BYBLOCK
 62
     4
100
AcDbLine
 10
481.1689986770728
 20
191.5927202776649
 30
0.0
 11
481.1689986770728
 21
235.5180097874706
 31
0.0
  0
LINE
  5
39F
330
39C
100
AcDbEntity
  8
0
  6
BYBLOCK
 62
     4
100
AcDbLine
 10
362.8689986770728
 20
191.5927202776649
 30
0.0
 11
362.8689986770728
 21
235.5180097874706
 31
0.0
  0
LINE
  5
3A0
330
39C
100
AcDbEntity
  8
0
  6
BYBLOCK
 62
     4
100
AcDbLine
 10
474.1689986770729
 20
232.5180097874706
 30
0.0
 11
369.8689986770728
 21
232.5180097874706
 31
0.0
  0
INSERT
  5
3A1
330
39C
100
AcDbEntity
  8
0
  6
BYBLOCK
 62
     4
100
AcDbBlockReference
  2
_OPEN
 10
481.1689986770728
 20
232.5180097874706
 30
0.0
 41
7.0
 42
7.0
 43
7.0
  0
INSERT
  5
3A2
330
39C
100
AcDbEntity
  8
0
  6
BYBLOCK
 62
     4
100
AcDbBlockReference
  2
_OPEN
 10
362.8689986770728
 20
232.5180097874706
 30
0.0
 41
7.0
 42
7.0
 43
7.0
 50
180.0
  0
MTEXT
  5
3A3
330
39C
100
AcDbEntity
  8
0
  6
BYBLOCK
 62
     4
100
AcDbMText
 10
422.0189986770728
 20
237.5180097874706
 30
0.0
 40
6.0
 41
0.0
 71
     5
 72
     1
  1
\A1;118
1001
ACAD
1000
MTEXTBEGIN
1070
    73
1070
     1
1070
    44
1040
1.0
1070
    74
1070
     0
1000
MTEXTEND
1000
MTEXTBEGIN
1070
    73
1070
     1
1070
    44
1040
1.0
1070
    74
1070
     0
1000
MTEXTEND
  0
POINT
  5
3A4
330
39C
100
AcDbEntity
  8
DEFPOINTS
  6
BYBLOCK
 62
     0
100
AcDbPoint
 10
481.1689986770728
 20
185.5927202776649
 30
0.0
  0
POINT
  5
3A5
330
39C
100
AcDbEntity
  8
DEFPOINTS
  6
BYBLOCK
 62
     0
100
AcDbPoint
 10
362.8689986770728
 20
185.5927202776649
 30
0.0
  0
POINT
  5
3A6
330
39C
100
AcDbEntity
  8
DEFPOINTS
  6
BYBLOCK
 62
     0
100
AcDbPoint
 10
362.8689986770728
 20
232.5180097874706
 30
0.0
  0
ENDBLK
  5
3A7
330
39C
100
AcDbEntity
  8
0
100
AcDbBlockEnd
  0
BLOCK
  5
3AA
330
3A9
100
AcDbEntity
  8
0
100
AcDbBlockBegin
  2
*D4
 70
     1
 10
0.0
 20
0.0
 30
0.0
  3
*D4
  1

  0
LINE
  5
3AB
330
3A9
100
AcDbEntity
  8
0
  6
BYBLOCK
 62
     4
100
AcDbLine
 10
356.8689986770728
 20
185.5927202776649
 30
0.0
 11
318.0806152672703
 21
185.5927202776649
 31
0.0
  0
LINE
  5
3AC
330
3A9
100
AcDbEntity
  8
0
  6
BYBLOCK
 62
     4
100
AcDbLine
 10
416.0188986770728
 20
131.4927202776649
 30
0.0
 11
318.0806152672703
 21
131.4927202776649
 31
0.0
  0
LINE
  5
3AD
330
3A9
100
AcDbEntity
  8
0
  6
BYBLOCK
 62
     4
100
AcDbLine
 10
321.0806152672703
 20
178.5927202776649
 30
0.0
 11
321.0806152672703
 21
138.4927202776649
 31
0.0
  0
INSERT
  5
3AE
330
3A9
100
AcDbEntity
  8
0
  6
BYBLOCK
 62
     4
100
AcDbBlockReference
  2
_OPEN
 10
321.0806152672703
 20
185.5927202776649
 30
0.0
 41
7.0
 42
7.0
 43
7.0
 50
90.0
  0
INSERT
  5
3AF
330
3A9
100
AcDbEntity
  8
0
  6
BYBLOCK
 62
     4
100
AcDbBlockReference
  2
_OPEN
 10
321.0806152672703
 20
131.4927202776649
 30
0.0
 41
7.0
 42
7.0
 43
7.0
 50
270.0
  0
MTEXT
  5
3B0
330
3A9
100
AcDbEntity
  8
0
  6
BYBLOCK
 62
     4
100
AcDbMText
 10
316.0806152672703
 20
158.5427202776649
 30
0.0
 40
6.0
 41
0.0
 71
     5
 72
     1
  1
\A1;54
 11
0.0
 21
1.0
 31
0.0
1001
ACAD
1000
MTEXTBEGIN
1070
    73
1070
     1
1070
    44
1040
1.0
1070
    74
1070
     0
1000
MTEXTEND
1000
MTEXTBEGIN
1070
    73
1070
     1
1070
    44
1040
1.0
1070
    74
1070
     0
1000
MTEXTEND
  0
POINT
  5
3B1
330
3A9
100
AcDbEntity
  8
DEFPOINTS
  6
BYBLOCK
 62
     0
100
AcDbPoint
 10
362.8689986770728
 20
185.5927202776649
 30
0.0
  0
POINT
  5
3B2
330
3A9
100
AcDbEntity
  8
DEFPOINTS
  6
BYBLOCK
 62
     0
100
AcDbPoint
 10
422.0188986770729
 20
131.4927202776649
 30
0.0
  0
POINT
  5
3B3
330
3A9
100
AcDbEntity
  8
DEFPOINTS
  6
BYBLOCK
 62
     0
100
AcDbPoint
 10
321.0806152672703
 20
131.4927202776649
 30
0.0
  0
ENDBLK
  5
3B4
330
3A9
100
AcDbEntity
  8
0
100
AcDbBlockEnd
  0
BLOCK
  5
404
330
3EC
100
AcDbEntity
  8
0
100
AcDbBlockBegin
  2
*D5
 70
     1
 10
0.0
 20
0.0
 30
0.0
  3
*D5
  1

  0
ARC
  5
460
330
3EC
100
AcDbEntity
  8
SUNPOU
  6
CONTINUOUS
 62
     4
100
AcDbCircle
 10
422.0190864965607
 20
396.4114427387333
 30
0.0
 40
37.53241218524726
100
AcDbArc
 50
280.7014797214062
 51
344.2983170282011
  0
INSERT
  5
461
330
3EC
100
AcDbEntity
  8
SUNPOU
  6
CONTINUOUS
 62
     4
100
AcDbBlockReference
  2
_OPEN
 10
422.0190570900958
 20
358.8790305534975
 30
0.0
 41
7.0
 42
7.0
 43
7.0
 50
185.3507174152188
  0
INSERT
  5
462
330
3EC
100
AcDbEntity
  8
SUNPOU
  6
CONTINUOUS
 62
     4
100
AcDbBlockReference
  2
_OPEN
 10
459.4086674808034
 20
393.1401741367899
 30
0.0
 41
7.0
 42
7.0
 43
7.0
 50
79.64907933438848
  0
MTEXT
  5
463
330
3EC
100
AcDbEntity
  8
SUNPOU
  6
CONTINUOUS
 62
     4
100
AcDbMText
 10
437.5326888184548
 20
367.8162336017301
 30
0.0
 40
6.0
 41
0.0
 71
     5
 72
     1
  1
\A1;85°
 11
0.8789759878294679
 21
0.476866032360464
 31
0.0
  0
POINT
  5
464
330
3EC
100
AcDbEntity
  8
DEFPOINTS
  6
CONTINUOUS
 62
     0
100
AcDbPoint
 10
453.3769160213963
 20
375.7869793048727
 30
0.0
  0
POINT
  5
465
330
3EC
100
AcDbEntity
  8
DEFPOINTS
  6
CONTINUOUS
 62
     0
100
AcDbPoint
 10
422.0189986770728
 20
284.324620277665
 30
0.0
  0
POINT
  5
466
330
3EC
100
AcDbEntity
  8
DEFPOINTS
  6
CONTINUOUS
 62
     0
100
AcDbPoint
 10
533.6793986770727
 20
386.6421202776648
 30
0.0
  0
POINT
  5
467
330
3EC
100
AcDbEntity
  8
DEFPOINTS
  6
CONTINUOUS
 62
     0
100
AcDbPoint
 10
393.9365986770728
 20
398.8684202776648
 30
0.0
  0
POINT
  5
468
330
3EC
100
AcDbEntity
  8
DEFPOINTS
  6
CONTINUOUS
 62
     0
100
AcDbPoint
 10
422.019098677073
 20
411.957820277665
 30
0.0
  0
ENDBLK
  5
40E
330
3EC
100
AcDbEntity
  8
0
100
AcDbBlockEnd
  0
ENDSEC
  0
SECTION
  2
ENTITIES
  0
TEXT
  5
11A
330
1A
100
AcDbEntity
  8
ZUWAKU
 62
     7
 48
10.0
100
AcDbText
 10
795.5579444309237
 20
4.974918402528146
 30
0.0
 40
8.0
  1
A1
100
AcDbText
  0
LINE
  5
11B
330
1A
100
AcDbEntity
  8
ZUWAKU
 62
     7
 48
10.0
100
AcDbLine
 10
10.05047808566086
 20
25.78258628282265
 30
0.0
 11
806.0504780856609
 21
25.78258628282253
 31
0.0
  0
LINE
  5
11C
330
1A
100
AcDbEntity
  8
ZUWAKU
  6
CONTINUOUS
 62
     7
100
AcDbLine
 10
806.0504780856609
 20
563.7825862828226
 30
0.0
 11
10.05047808566086
 21
563.7825862828226
 31
0.0
  0
LINE
  5
11D
330
1A
100
AcDbEntity
  8
ZUWAKU
  6
CONTINUOUS
 62
     7
100
AcDbLine
 10
806.0504780856609
 20
13.78258628282265
 30
0.0
 11
10.05047808566086
 21
13.78258628282265
 31
0.0
  0
LINE
  5
11E
330
1A
100
AcDbEntity
  8
ZUWAKU
  6
CONTINUOUS
 62
     7
100
AcDbLine
 10
10.05047808566086
 20
563.7825862828226
 30
0.0
 11
10.05047808566086
 21
13.78258628282265
 31
0.0
  0
LINE
  5
11F
330
1A
100
AcDbEntity
  8
ZUWAKU
 62
     7
 48
10.0
100
AcDbLine
 10
44.55797523147839
 20
13.78258628282265
 30
0.0
 11
44.5579752314784
 21
25.78258628282265
 31
0.0
  0
TEXT
  5
120
330
1A
100
AcDbEntity
  8
ZUWAKU
 62
     7
100
AcDbText
 10
16.05676551180931
 20
15.52294263804401
 30
0.0
 40
8.0
  1
品 種
100
AcDbText
  0
LINE
  5
121
330
1A
100
AcDbEntity
  8
ZUWAKU
 62
     7
 48
10.0
100
AcDbLine
 10
276.1028387068254
 20
13.78258628282265
 30
0.0
 11
276.1028387068254
 21
25.78258628282261
 31
0.0
  0
LINE
  5
122
330
1A
100
AcDbEntity
  8
ZUWAKU
 62
     7
 48
10.0
100
AcDbLine
 10
209.5138526425484
 20
13.78258628282265
 30
0.0
 11
209.5138526425485
 21
25.78258628282263
 31
0.0
  0
TEXT
  5
124
330
1A
100
AcDbEntity
  8
ZUWAKU
 62
     7
100
AcDbText
 10
215.4560837190756
 20
16.18358115302453
 30
0.0
 40
8.0
  1
品名・ｻ ｲ ｽﾞ
100
AcDbText
  0
LINE
  5
126
330
1A
100
AcDbEntity
  8
ZUWAKU
 62
     7
 48
10.0
100
AcDbLine
 10
768.7231079932794
 20
13.78258628282237
 30
0.0
 11
768.7231079932794
 21
25.78258628282254
 31
0.0
  0
LINE
  5
127
330
1A
100
AcDbEntity
  8
ZUWAKU
 62
     7
 48
10.0
100
AcDbLine
 10
733.8119002376948
 20
13.78258628282242
 30
0.0
 11
733.8119002376946
 21
25.78258628282254
 31
0.0
  0
TEXT
  5
128
330
1A
100
AcDbEntity
  8
ZUWAKU
 62
     7
100
AcDbText
 10
739.6955629973526
 20
15.24227755810852
 30
0.0
 40
8.0
  1
尺 度
100
AcDbText
  0
TEXT
  5
129
330
1A
100
AcDbEntity
  8
ZUWAKU
 62
     7
100
AcDbText
 10
779.7374630323229
 20
15.55488920081529
 30
0.0
 40
8.0
  1
1/2
100
AcDbText
  0
TEXT
  5
12B
330
1A
100
AcDbEntity
  8
ZUWAKU
 62
     7
100
AcDbText
 10
620.3363288383084
 20
15.6519090944263
 30
0.0
 40
8.0
  1
品 番
100
AcDbText
  0
LINE
  5
12C
330
1A
100
AcDbEntity
  8
ZUWAKU
 62
     7
 48
10.0
100
AcDbLine
 10
614.3351028194128
 20
13.78258628282232
 30
0.0
 11
614.3351028194128
 21
25.78258628282256
 31
0.0
  0
LINE
  5
12D
330
1A
100
AcDbEntity
  8
ZUWAKU
 62
     7
 48
10.0
100
AcDbLine
 10
648.7607587371021
 20
13.78258628282232
 30
0.0
 11
648.7607587371021
 21
25.78258628282255
 31
0.0
  0
TEXT
  5
12E
330
1A
100
AcDbEntity
  8
ZUWAKU
 62
     7
 48
10.0
100
AcDbText
 10
646.2758615931216
 20
4.949376903717848
 30
0.0
 40
8.0
  1
積水化学工業株式会社  建材
100
AcDbText
  0
LINE
  5
12F
330
1A
100
AcDbEntity
  8
ZUWAKU
  6
CONTINUOUS
 62
     7
100
AcDbLine
 10
806.0504780856609
 20
563.7825862828226
 30
0.0
 11
806.0504780856609
 21
13.78258628282265
 31
0.0
  0
LINE
  5
263
330
1A
100
AcDbEntity
  8
SEIHIN
  6
CONTINUOUS
 62
     3
 48
16.0
100
AcDbLine
 10
417.0189986770728
 20
329.5119202776649
 30
0.0
 11
422.0189986770728
 21
329.5119202776649
 31
0.0
  0
LINE
  5
264
330
1A
100
AcDbEntity
  8
SEIHIN
  6
CONTINUOUS
 62
     3
 48
16.0
100
AcDbLine
 10
362.8690986770728
 20
294.5119202776649
 30
0.0
 11
422.0189986770728
 21
294.5119202776649
 31
0.0
  0
ARC
  5
266
330
1A
100
AcDbEntity
  8
SEIHIN
  6
CONTINUOUS
 62
     3
 48
16.0
100
AcDbCircle
 10
422.0188859158803
 20
183.7913337512785
 30
0.0
 40
48.29861347361531
100
AcDbArc
 50
266.2848238922975
 51
270.000015138374
  0
ARC
  5
267
330
1A
100
AcDbEntity
  8
SEIHIN
  6
CONTINUOUS
 62
     3
 48
16.0
100
AcDbCircle
 10
422.0189774005278
 20
183.7926725207056
 30
0.0
 40
50.29995224304525
100
AcDbArc
 50
191.8106019718703
 51
270.0000242357335
  0
ARC
  5
268
330
1A
100
AcDbEntity
  8
SEIHIN
  6
CONTINUOUS
 62
     3
 48
16.0
100
AcDbCircle
 10
422.0189794549452
 20
183.7926707774087
 30
0.0
 40
52.29995049980619
100
AcDbArc
 50
193.5632919207528
 51
269.9999115060126
  0
LINE
  5
269
330
1A
100
AcDbEntity
  8
SEIHIN
  6
CONTINUOUS
 62
     3
 48
16.0
100
AcDbLine
 10
367.9323509596557
 20
455.4370518544478
 30
0.0
 11
472.9020986770728
 21
340.8822202776649
 31
0.0
  0
LINE
  5
26A
330
1A
100
AcDbEntity
  8
CENTER_L
  6
CENTER
 62
     1
 48
5.0
100
AcDbLine
 10
533.6793986770728
 20
386.6421202776649
 30
0.0
 11
393.9365986770728
 21
398.8684202776649
 31
0.0
  0
ARC
  5
26B
330
1A
100
AcDbEntity
  8
SEIHIN
  6
CONTINUOUS
 62
     3
 48
16.0
100
AcDbCircle
 10
615.8384194808617
 20
1844.170297956237
 30
0.0
 40
1409.901858762392
100
AcDbArc
 50
259.9430107622337
 51
263.1708415378286
  0
ARC
  5
26C
330
1A
100
AcDbEntity
  8
SEIHIN
  6
CONTINUOUS
 62
     3
 48
16.0
100
AcDbCircle
 10
615.8475753603368
 20
1844.205935789946
 30
0.0
 40
1402.028375015415
100
AcDbArc
 50
259.5192885092416
 51
264.9996163453949
  0
ARC
  5
26D
330
1A
100
AcDbEntity
  8
SEIHIN
  6
CONTINUOUS
 62
     3
 48
16.0
100
AcDbCircle
 10
615.8411646730042
 20
1844.157247534539
 30
0.0
 40
1399.979295014157
100
AcDbArc
 50
259.301555691345
 51
264.9997070526856
  0
ARC
  5
26E
330
1A
100
AcDbEntity
  8
SEIHIN
  6
CONTINUOUS
 62
     3
 48
16.0
100
AcDbCircle
 10
502.4597358711845
 20
1185.209346231382
 30
0.0
 40
1000.006980971009
100
AcDbArc
 50
261.5753215595091
 51
268.3988362463142
  0
ARC
  5
26F
330
1A
100
AcDbEntity
  8
SEIHIN
  6
CONTINUOUS
 62
     3
 48
16.0
100
AcDbCircle
 10
502.4612734978486
 20
1185.228419047446
 30
0.0
 40
1011.32614178368
100
AcDbArc
 50
263.0822660151267
 51
266.8900223008216
  0
LINE
  5
271
330
1A
100
AcDbEntity
  8
SEIHIN
  6
CONTINUOUS
 62
     3
 48
16.0
100
AcDbLine
 10
373.7283986770728
 20
294.5119202776649
 30
0.0
 11
373.7284986770728
 21
319.5127202776649
 31
0.0
  0
LINE
  5
272
330
1A
100
AcDbEntity
  8
SEIHIN
  6
CONTINUOUS
 62
     3
 48
16.0
100
AcDbLine
 10
362.8690986770728
 20
294.5119202776649
 30
0.0
 11
362.8690986770728
 21
329.5110202776649
 31
0.0
  0
TEXT
  5
274
330
1A
100
AcDbEntity
  8
ZUWAKU
 62
     7
100
AcDbText
 10
50.3519382305086
 20
16.10306189639755
 30
0.0
 40
8.0
  1
丸トップ　のきとい
100
AcDbText
  0
TEXT
  5
279
330
1A
100
AcDbEntity
  8
ZUWAKU
 62
     7
100
AcDbText
 10
282.3131429914078
 20
15.64241700452384
 30
0.0
 40
8.0
  1
テリ曲り　１０５－８５°
100
AcDbText
  0
LINE
  5
284
330
1A
100
AcDbEntity
  8
SEIHIN
  6
CONTINUOUS
 62
     3
 48
16.0
100
AcDbLine
 10
377.2838986770729
 20
172.2511202776649
 30
0.0
 11
377.2838986770729
 21
180.9157202776649
 31
0.0
  0
LINE
  5
285
330
1A
100
AcDbEntity
  8
SEIHIN
  6
CONTINUOUS
 62
     3
 48
16.0
100
AcDbLine
 10
378.9833986770728
 20
170.5927202776649
 30
0.0
 11
379.1099986770729
 21
184.6017202776649
 31
0.0
  0
LINE
  5
286
330
1A
100
AcDbEntity
  8
SEIHIN
  6
CONTINUOUS
 62
     3
 48
16.0
100
AcDbLine
 10
380.6190986770729
 20
185.5927202776649
 30
0.0
 11
380.8034986770728
 21
162.9187202776649
 31
0.0
  0
LINE
  5
287
330
1A
100
AcDbEntity
  8
SEIHIN
  6
CONTINUOUS
 62
     3
 48
16.0
100
AcDbLine
 10
370.3689986770728
 20
174.2927202776649
 30
0.0
 11
370.8689986770728
 21
180.5927202776649
 31
0.0
  0
ARC
  5
288
330
1A
100
AcDbEntity
  8
SEIHIN
  6
CONTINUOUS
 62
     3
 48
16.0
100
AcDbCircle
 10
369.5189952031733
 20
178.9427168037653
 30
0.0
 40
4.649996526101713
100
AcDbArc
 50
179.9999571957131
 51
270.0000428042871
  0
ARC
  5
289
330
1A
100
AcDbEntity
  8
SEIHIN
  6
CONTINUOUS
 62
     3
 48
16.0
100
AcDbCircle
 10
369.5189937090229
 20
178.9427153096149
 30
0.0
 40
6.649995031951904
100
AcDbArc
 50
179.9999571957132
 51
270.0000428042871
  0
LINE
  5
28A
330
1A
100
AcDbEntity
  8
SEIHIN
  6
CONTINUOUS
 62
     3
 48
16.0
100
AcDbLine
 10
355.9511986770728
 20
187.4120202776649
 30
0.0
 11
364.4402986770728
 21
174.6498202776649
 31
0.0
  0
LINE
  5
28B
330
1A
100
AcDbEntity
  8
SEIHIN
  6
CONTINUOUS
 62
     3
 48
16.0
100
AcDbLine
 10
375.7838986770729
 20
169.8212202776649
 30
0.0
 11
375.7838986770729
 21
180.9157202776649
 31
0.0
  0
ARC
  5
28C
330
1A
100
AcDbEntity
  8
SEIHIN
  6
CONTINUOUS
 62
     3
 48
16.0
100
AcDbCircle
 10
422.0197881596091
 20
183.7922893493009
 30
0.0
 40
48.30023450631092
100
AcDbArc
 50
222.7473085669945
 51
227.0304714936762
  0
ARC
  5
28D
330
1A
100
AcDbEntity
  8
SEIHIN
  6
CONTINUOUS
 62
     3
 48
16.0
100
AcDbCircle
 10
422.0191257714594
 20
183.7926990590214
 30
0.0
 40
46.20006791820595
100
AcDbArc
 50
194.4665764021859
 51
218.8105672876191
  0
ARC
  5
28E
330
1A
100
AcDbEntity
  8
SEIHIN
  6
CONTINUOUS
 62
     3
 48
16.0
100
AcDbCircle
 10
422.0190658784026
 20
183.7926784591677
 30
0.0
 40
48.29999519224371
100
AcDbArc
 50
196.8137843647776
 51
216.3347807136431
  0
LINE
  5
28F
330
1A
100
AcDbEntity
  8
SEIHIN
  6
CONTINUOUS
 62
     3
 48
16.0
100
AcDbLine
 10
386.0189986770728
 20
154.8369202776649
 30
0.0
 11
385.9747986770729
 21
154.8013202776649
 31
0.0
  0
LINE
  5
290
330
1A
100
AcDbEntity
  8
SEIHIN
  6
CONTINUOUS
 62
     3
 48
16.0
100
AcDbLine
 10
386.0189986770728
 20
152.3652202776649
 30
0.0
 11
386.0189986770728
 21
154.8369202776649
 31
0.0
  0
ARC
  5
291
330
1A
100
AcDbEntity
  8
SEIHIN
  6
CONTINUOUS
 62
     3
 48
16.0
100
AcDbCircle
 10
388.0190187788822
 20
152.3651701561942
 30
0.0
 40
2.000020102437417
100
AcDbArc
 50
179.9985641400631
 51
222.7474541849784
  0
ARC
  5
292
330
1A
100
AcDbEntity
  8
SEIHIN
  6
CONTINUOUS
 62
     3
 48
16.0
100
AcDbCircle
 10
384.7212440295291
 20
156.3597263467099
 30
0.0
 40
2.000007182590808
100
AcDbArc
 50
216.3346817022957
 51
308.8125920039031
  0
LINE
  5
293
330
1A
100
AcDbEntity
  8
SEIHIN
  6
CONTINUOUS
 62
     3
 48
16.0
100
AcDbLine
 10
369.5189986770728
 20
174.2927202776649
 30
0.0
 11
375.7838986770729
 21
174.2927202776649
 31
0.0
  0
LINE
  5
294
330
1A
100
AcDbEntity
  8
SEIHIN
  6
CONTINUOUS
 62
     3
 48
16.0
100
AcDbLine
 10
369.5189986770728
 20
172.2927202776649
 30
0.0
 11
370.9258680788896
 21
172.2927202776649
 31
0.0
  0
ARC
  5
295
330
1A
100
AcDbEntity
  8
SEIHIN
  6
CONTINUOUS
 62
     3
 48
16.0
100
AcDbCircle
 10
370.2054888197353
 20
171.2927282302217
 30
0.0
 40
0.9999920474918214
100
AcDbArc
 50
13.56179252061935
 51
89.99943521167237
  0
LINE
  5
296
330
1A
100
AcDbEntity
  8
SEIHIN
  6
CONTINUOUS
 62
     3
 48
16.0
100
AcDbLine
 10
377.7448986770729
 20
170.5927202776649
 30
0.0
 11
378.9833986770728
 21
170.5927202776649
 31
0.0
  0
ARC
  5
297
330
1A
100
AcDbEntity
  8
SEIHIN
  6
CONTINUOUS
 62
     3
 48
16.0
100
AcDbCircle
 10
371.8050839580826
 20
173.2927326353316
 30
0.0
 40
0.9999876424416562
100
AcDbArc
 50
11.81136260658115
 51
89.9991566535578
  0
ARC
  5
298
330
1A
100
AcDbEntity
  8
SEIHIN
  6
CONTINUOUS
 62
     3
 48
16.0
100
AcDbCircle
 10
422.0191080931616
 20
183.7927534270161
 30
0.0
 40
48.30007248723229
100
AcDbArc
 50
231.9829639828127
 51
261.3110393355431
  0
ARC
  5
299
330
1A
100
AcDbEntity
  8
SEIHIN
  6
CONTINUOUS
 62
     3
 48
16.0
100
AcDbCircle
 10
422.0188928771683
 20
183.7926521474434
 30
0.0
 40
46.19988075445008
100
AcDbArc
 50
229.5073847687962
 51
263.7871049582252
  0
LINE
  5
29A
330
1A
100
AcDbEntity
  8
SEIHIN
  6
CONTINUOUS
 62
     3
 48
16.0
100
AcDbLine
 10
391.9820986770728
 20
148.6149202776649
 30
0.0
 11
392.0189986770728
 21
148.6581202776649
 31
0.0
  0
ARC
  5
29B
330
1A
100
AcDbEntity
  8
SEIHIN
  6
CONTINUOUS
 62
     3
 48
16.0
100
AcDbCircle
 10
393.5030947399313
 20
147.3162574715481
 30
0.0
 40
1.999988526772563
100
AcDbArc
 50
139.5085078838758
 51
231.9825411760126
  0
ARC
  5
29C
330
1A
100
AcDbEntity
  8
SEIHIN
  6
CONTINUOUS
 62
     3
 48
16.0
100
AcDbCircle
 10
390.4611823366038
 20
149.9136171055142
 30
0.0
 40
1.999949990717637
100
AcDbArc
 50
227.0305056482715
 51
319.5062836016006
  0
LINE
  5
29D
330
1A
100
AcDbEntity
  8
SEIHIN
  6
CONTINUOUS
 62
     3
 48
16.0
100
AcDbLine
 10
417.0189986770728
 20
137.8641202776649
 30
0.0
 11
417.0128986770728
 21
137.8076202776649
 31
0.0
  0
LINE
  5
29E
330
1A
100
AcDbEntity
  8
SEIHIN
  6
CONTINUOUS
 62
     3
 48
16.0
100
AcDbLine
 10
417.0189986770728
 20
137.8641202776649
 30
0.0
 11
417.0189986770728
 21
137.5900202776649
 31
0.0
  0
ARC
  5
29F
330
1A
100
AcDbEntity
  8
SEIHIN
  6
CONTINUOUS
 62
     3
 48
16.0
100
AcDbCircle
 10
415.0246009717475
 20
138.0241230632363
 30
0.0
 40
2.000050304657878
100
AcDbArc
 50
261.3123732161486
 51
353.7856310996711
  0
ARC
  5
2A0
330
1A
100
AcDbEntity
  8
SEIHIN
  6
CONTINUOUS
 62
     3
 48
16.0
100
AcDbCircle
 10
415.0246009717475
 20
138.0241230632363
 30
0.0
 40
2.000050304657878
100
AcDbArc
 50
261.3123732161486
 51
353.7856310996711
  0
ARC
  5
2A1
330
1A
100
AcDbEntity
  8
SEIHIN
  6
CONTINUOUS
 62
     3
 48
16.0
100
AcDbCircle
 10
419.0189998475025
 20
137.590017917294
 30
0.0
 40
2.000001170431076
100
AcDbArc
 50
179.999932380393
 51
266.2845987993855
  0
ARC
  5
2A2
330
1A
100
AcDbEntity
  8
SEIHIN
  6
CONTINUOUS
 62
     3
 48
16.0
100
AcDbCircle
 10
502.4579435043111
 20
1185.252732981748
 30
0.0
 40
1011.349837357707
100
AcDbArc
 50
262.3153700928783
 51
262.7897784696499
  0
LINE
  5
2A3
330
1A
100
AcDbEntity
  8
SEIHIN
  6
CONTINUOUS
 62
     3
 48
16.0
100
AcDbLine
 10
370.8689986770728
 20
180.5927202776649
 30
0.0
 11
372.7177986770728
 21
180.5927202776649
 31
0.0
  0
ARC
  5
2A4
330
1A
100
AcDbEntity
  8
SEIHIN
  6
CONTINUOUS
 62
     3
 48
16.0
100
AcDbCircle
 10
369.5189919882076
 20
178.9427192626462
 30
0.0
 40
4.64999331113486
100
AcDbArc
 50
55.38746874963291
 51
179.999987493253
  0
ARC
  5
2A5
330
1A
100
AcDbEntity
  8
SEIHIN
  6
CONTINUOUS
 62
     3
 48
16.0
100
AcDbCircle
 10
369.5189966246081
 20
178.9427223390335
 30
0.0
 40
6.64999794753561
100
AcDbArc
 50
55.38699547526611
 51
180.0000177605655
  0
LINE
  5
2A6
330
1A
100
AcDbEntity
  8
SEIHIN
  6
CONTINUOUS
 62
     3
 48
16.0
100
AcDbLine
 10
355.9511986770728
 20
195.9927202776649
 30
0.0
 11
355.9511986770728
 21
187.4120202776649
 31
0.0
  0
LINE
  5
2A7
330
1A
100
AcDbEntity
  8
SEIHIN
  6
CONTINUOUS
 62
     3
 48
16.0
100
AcDbLine
 10
355.9510986770728
 20
195.9928202776649
 30
0.0
 11
362.8689986770728
 21
185.5927202776649
 31
0.0
  0
LINE
  5
2A8
330
1A
100
AcDbEntity
  8
SEIHIN
  6
CONTINUOUS
 62
     3
 48
16.0
100
AcDbLine
 10
358.1678986770728
 20
195.6670202776649
 30
0.0
 11
364.8689986770728
 21
185.5927202776649
 31
0.0
  0
LINE
  5
2A9
330
1A
100
AcDbEntity
  8
SEIHIN
  6
CONTINUOUS
 62
     3
 48
16.0
100
AcDbLine
 10
364.8689986770728
 20
185.5927202776649
 30
0.0
 11
362.8689986770728
 21
185.5927202776649
 31
0.0
  0
LINE
  5
2AA
330
1A
100
AcDbEntity
  8
SEIHIN
  6
CONTINUOUS
 62
     3
 48
16.0
100
AcDbLine
 10
362.8689986770728
 20
178.9427202776649
 30
0.0
 11
362.8689986770728
 21
185.5927202776649
 31
0.0
  0
LINE
  5
2AB
330
1A
100
AcDbEntity
  8
SEIHIN
  6
CONTINUOUS
 62
     3
 48
16.0
100
AcDbLine
 10
364.8689986770728
 20
183.6967202776649
 30
0.0
 11
364.8689986770728
 21
185.5927202776649
 31
0.0
  0
ARC
  5
2AC
330
1A
100
AcDbEntity
  8
SEIHIN
  6
CONTINUOUS
 62
     3
 48
16.0
100
AcDbCircle
 10
380.1099774645452
 20
184.5926998997537
 30
0.0
 40
1.000020378136229
100
AcDbArc
 50
89.99878463645435
 51
179.4774442423337
  0
ARC
  5
2AD
330
1A
100
AcDbEntity
  8
SEIHIN
  6
CONTINUOUS
 62
     3
 48
16.0
100
AcDbCircle
 10
502.604622258682
 20
1186.157471056703
 30
0.0
 40
1012.265741417214
100
AcDbArc
 50
262.8833624170272
 51
262.9908492915127
  0
ARC
  5
2AE
330
1A
100
AcDbEntity
  8
SEIHIN
  6
CONTINUOUS
 62
     3
 48
16.0
100
AcDbCircle
 10
372.728426426901
 20
183.5927598253234
 30
0.0
 40
1.000024810484575
100
AcDbArc
 50
235.3881721439882
 51
55.16897830174319
  0
ARC
  5
2AF
330
1A
100
AcDbEntity
  8
SEIHIN
  6
CONTINUOUS
 62
     3
 48
16.0
100
AcDbCircle
 10
372.7178297122978
 20
176.5927111567813
 30
0.0
 40
4.00000912100403
100
AcDbArc
 50
39.95799391943394
 51
90.00044454583871
  0
ARC
  5
2B0
330
1A
100
AcDbEntity
  8
SEIHIN
  6
CONTINUOUS
 62
     3
 48
16.0
100
AcDbCircle
 10
373.7839047861067
 20
180.9157132168415
 30
0.0
 40
1.999993890978587
100
AcDbArc
 50
0.0002022783075972
 51
100.0497712729512
  0
ARC
  5
2B1
330
1A
100
AcDbEntity
  8
SEIHIN
  6
CONTINUOUS
 62
     3
 48
16.0
100
AcDbCircle
 10
373.7839085176209
 20
180.915708977394
 30
0.0
 40
3.499990159470196
100
AcDbArc
 50
0.0001849884719591
 51
97.35256782769276
  0
LINE
  5
2B2
330
1A
100
AcDbEntity
  8
SEIHIN
  6
CONTINUOUS
 62
     3
 48
16.0
100
AcDbLine
 10
380.1099986770728
 20
185.5927202776649
 30
0.0
 11
380.6190986770729
 21
185.5927202776649
 31
0.0
  0
ARC
  5
2B7
330
1A
100
AcDbEntity
  8
SEIHIN
  6
CONTINUOUS
 62
     3
 48
16.0
100
AcDbCircle
 10
-1037.11610884459
 20
329.5119274134646
 30
0.0
 40
1409.895225557596
100
AcDbArc
 50
1.829030873887404
 51
5.056861649482225
  0
ARC
  5
2B8
330
1A
100
AcDbEntity
  8
SEIHIN
  6
CONTINUOUS
 62
     3
 48
16.0
100
AcDbCircle
 10
-1037.103744990129
 20
329.5127436503784
 30
0.0
 40
1399.972743667444
100
AcDbArc
 50
359.9999663023571
 51
5.698117663697798
  0
ARC
  5
2B9
330
1A
100
AcDbEntity
  8
SEIHIN
  6
CONTINUOUS
 62
     3
 48
16.0
100
AcDbCircle
 10
-1037.151120370019
 20
329.5105276708243
 30
0.0
 40
1402.020119047783
100
AcDbArc
 50
0.0000569110909328
 51
5.480384747244166
  0
LINE
  5
2BB
330
1A
100
AcDbEntity
  8
SEIHIN
  6
CONTINUOUS
 62
     3
 48
16.0
100
AcDbLine
 10
376.8690986770729
 20
354.5119202776648
 30
0.0
 11
376.8690986770729
 21
374.5119202776649
 31
0.0
  0
LINE
  5
2BC
330
1A
100
AcDbEntity
  8
SEIHIN
  6
CONTINUOUS
 62
     3
 48
16.0
100
AcDbLine
 10
378.8690986770729
 20
354.5119202776648
 30
0.0
 11
378.8690986770729
 21
374.5119202776649
 31
0.0
  0
ARC
  5
2BD
330
1A
100
AcDbEntity
  8
SEIHIN
  6
CONTINUOUS
 62
     3
 48
16.0
100
AcDbCircle
 10
-1037.101310281828
 20
329.5051050166149
 30
0.0
 40
1409.880495773705
100
AcDbArc
 50
1.097590315201666
 51
1.748010258024286
  0
LINE
  5
2BE
330
1A
100
AcDbEntity
  8
SEIHIN
  6
CONTINUOUS
 62
     3
 48
16.0
100
AcDbLine
 10
386.0189986770728
 20
329.5119202776649
 30
0.0
 11
392.0189986770728
 21
329.5119202776649
 31
0.0
  0
ARC
  5
2BF
330
1A
100
AcDbEntity
  8
SEIHIN
  6
CONTINUOUS
 62
     3
 48
16.0
100
AcDbCircle
 10
-1037.089536413148
 20
329.5048711982376
 30
0.0
 40
1409.868629406137
100
AcDbArc
 50
0.1628430513721118
 51
1.016317037637759
  0
LINE
  5
2C0
330
1A
100
AcDbEntity
  8
SEIHIN
  6
CONTINUOUS
 62
     3
 48
16.0
100
AcDbLine
 10
362.8690986770728
 20
329.5119202776649
 30
0.0
 11
377.2838986770729
 21
329.5119202776649
 31
0.0
  0
LINE
  5
2C1
330
1A
100
AcDbEntity
  8
SEIHIN
  6
CONTINUOUS
 62
     3
 48
16.0
100
AcDbLine
 10
386.0190986770728
 20
329.5119202776649
 30
0.0
 11
385.6139986770728
 21
321.4120202776649
 31
0.0
  0
LINE
  5
2C2
330
1A
100
AcDbEntity
  8
SEIHIN
  6
CONTINUOUS
 62
     3
 48
16.0
100
AcDbLine
 10
383.6164986770728
 20
319.5119202776649
 30
0.0
 11
373.7283986770728
 21
319.5119202776649
 31
0.0
  0
ARC
  5
2C3
330
1A
100
AcDbEntity
  8
SEIHIN
  6
CONTINUOUS
 62
     3
 48
16.0
100
AcDbCircle
 10
383.6164967893491
 20
321.5119186465551
 30
0.0
 40
1.999998368891037
100
AcDbArc
 50
270.0000540793453
 51
357.1369288398174
  0
LINE
  5
2C4
330
1A
100
AcDbEntity
  8
SEIHIN
  6
CONTINUOUS
 62
     3
 48
16.0
100
AcDbLine
 10
386.0189986770728
 20
331.5119202776649
 30
0.0
 11
377.2839986770728
 21
331.5119202776649
 31
0.0
  0
LINE
  5
2C5
330
1A
100
AcDbEntity
  8
SEIHIN
  6
CONTINUOUS
 62
     3
 48
16.0
100
AcDbLine
 10
386.0189986770728
 20
333.5119202776649
 30
0.0
 11
372.7732986770728
 21
333.5119202776649
 31
0.0
  0
LINE
  5
2C6
330
1A
100
AcDbEntity
  8
SEIHIN
  6
CONTINUOUS
 62
     3
 48
16.0
100
AcDbLine
 10
377.2838986770729
 20
329.5110202776649
 30
0.0
 11
377.2838986770729
 21
331.5119202776649
 31
0.0
  0
LINE
  5
2C7
330
1A
100
AcDbEntity
  8
SEIHIN
  6
CONTINUOUS
 62
     3
 48
16.0
100
AcDbLine
 10
372.7732986770728
 20
333.5119202776649
 30
0.0
 11
377.2839986770728
 21
331.5119202776649
 31
0.0
  0
LINE
  5
2C8
330
1A
100
AcDbEntity
  8
SEIHIN
  6
CONTINUOUS
 62
     3
 48
16.0
100
AcDbLine
 10
386.0190986770728
 20
329.5119202776649
 30
0.0
 11
386.0190986770728
 21
333.5119202776649
 31
0.0
  0
LINE
  5
2C9
330
1A
100
AcDbEntity
  8
SEIHIN
  6
CONTINUOUS
 62
     3
 48
16.0
100
AcDbLine
 10
378.8690986770729
 20
354.5119202776648
 30
0.0
 11
368.3690986770729
 21
354.5119202776648
 31
0.0
  0
LINE
  5
2CA
330
1A
100
AcDbEntity
  8
SEIHIN
  6
CONTINUOUS
 62
     3
 48
16.0
100
AcDbLine
 10
376.8690986770729
 20
356.5119202776648
 30
0.0
 11
368.3690986770729
 21
356.5119202776648
 31
0.0
  0
LINE
  5
2CB
330
1A
100
AcDbEntity
  8
SEIHIN
  6
CONTINUOUS
 62
     3
 48
16.0
100
AcDbLine
 10
368.3690986770729
 20
354.5119202776648
 30
0.0
 11
368.3690986770729
 21
356.5119202776648
 31
0.0
  0
LINE
  5
2CC
330
1A
100
AcDbEntity
  8
SEIHIN
  6
CONTINUOUS
 62
     3
 48
16.0
100
AcDbLine
 10
374.8690986770728
 20
354.5119202776648
 30
0.0
 11
374.8690986770728
 21
356.5119202776648
 31
0.0
  0
LINE
  5
2CD
330
1A
100
AcDbEntity
  8
SEIHIN
  6
CONTINUOUS
 62
     3
 48
16.0
100
AcDbLine
 10
417.0190986770728
 20
331.5119202776649
 30
0.0
 11
392.0189986770728
 21
331.5119202776649
 31
0.0
  0
LINE
  5
2CE
330
1A
100
AcDbEntity
  8
SEIHIN
  6
CONTINUOUS
 62
     3
 48
16.0
100
AcDbLine
 10
417.0190986770728
 20
333.5119202776649
 30
0.0
 11
392.0189986770728
 21
333.5119202776649
 31
0.0
  0
LINE
  5
2CF
330
1A
100
AcDbEntity
  8
SEIHIN
  6
CONTINUOUS
 62
     3
 48
16.0
100
AcDbLine
 10
414.6164986770728
 20
319.5119202776649
 30
0.0
 11
394.4214986770728
 21
319.5119202776649
 31
0.0
  0
LINE
  5
2D0
330
1A
100
AcDbEntity
  8
SEIHIN
  6
CONTINUOUS
 62
     3
 48
16.0
100
AcDbLine
 10
392.0190986770728
 20
329.5118202776649
 30
0.0
 11
392.4239986770728
 21
321.4120202776649
 31
0.0
  0
ARC
  5
2D1
330
1A
100
AcDbEntity
  8
SEIHIN
  6
CONTINUOUS
 62
     3
 48
16.0
100
AcDbCircle
 10
394.4215005647965
 20
321.5119186465551
 30
0.0
 40
1.99999836889103
100
AcDbArc
 50
182.8630711601824
 51
269.9999459206547
  0
LINE
  5
2D2
330
1A
100
AcDbEntity
  8
SEIHIN
  6
CONTINUOUS
 62
     3
 48
16.0
100
AcDbLine
 10
392.0190986770728
 20
329.5119202776649
 30
0.0
 11
392.0190986770728
 21
333.5124202776649
 31
0.0
  0
LINE
  5
2D3
330
1A
100
AcDbEntity
  8
SEIHIN
  6
CONTINUOUS
 62
     3
 48
16.0
100
AcDbLine
 10
417.0190986770728
 20
329.5119202776649
 30
0.0
 11
416.6139986770728
 21
321.4120202776649
 31
0.0
  0
ARC
  5
2D4
330
1A
100
AcDbEntity
  8
SEIHIN
  6
CONTINUOUS
 62
     3
 48
16.0
100
AcDbCircle
 10
414.6164967893491
 20
321.5119186465551
 30
0.0
 40
1.999998368891037
100
AcDbArc
 50
270.0000540793453
 51
357.1369288398174
  0
LINE
  5
2D5
330
1A
100
AcDbEntity
  8
SEIHIN
  6
CONTINUOUS
 62
     3
 48
16.0
100
AcDbLine
 10
417.0190986770728
 20
329.5119202776649
 30
0.0
 11
417.0190986770728
 21
333.5119202776649
 31
0.0
  0
LINE
  5
2D6
330
1A
100
AcDbEntity
  8
SEIHIN
  6
CONTINUOUS
 62
     3
 48
16.0
100
AcDbLine
 10
378.8690986770729
 20
374.5119202776649
 30
0.0
 11
368.3690986770729
 21
374.5119202776649
 31
0.0
  0
LINE
  5
2D7
330
1A
100
AcDbEntity
  8
SEIHIN
  6
CONTINUOUS
 62
     3
 48
16.0
100
AcDbLine
 10
376.8690986770729
 20
372.5119202776649
 30
0.0
 11
368.3690986770729
 21
372.5119202776649
 31
0.0
  0
LINE
  5
2D8
330
1A
100
AcDbEntity
  8
SEIHIN
  6
CONTINUOUS
 62
     3
 48
16.0
100
AcDbLine
 10
368.3690986770729
 20
372.5119202776649
 30
0.0
 11
368.3690986770729
 21
374.5117202776649
 31
0.0
  0
LINE
  5
2D9
330
1A
100
AcDbEntity
  8
SEIHIN
  6
CONTINUOUS
 62
     3
 48
16.0
100
AcDbLine
 10
374.8690986770728
 20
372.5119202776649
 30
0.0
 11
374.8690986770728
 21
374.5119202776649
 31
0.0
  0
ARC
  5
2DD
330
1A
100
AcDbEntity
  8
SEIHIN
  6
CONTINUOUS
 62
     3
 48
16.0
100
AcDbCircle
 10
369.2835680062908
 20
453.9625947300392
 30
0.0
 40
1.999952829152812
100
AcDbArc
 50
79.94348655819988
 51
185.0565716809768
  0
ARC
  5
2DE
330
1A
100
AcDbEntity
  8
SEIHIN
  6
CONTINUOUS
 62
     3
 48
16.0
100
AcDbCircle
 10
360.4512102616399
 20
463.6014297700967
 30
0.0
 40
2.000053390227913
100
AcDbArc
 50
79.52017139617173
 51
185.4802249921828
  0
LINE
  5
2DF
330
1A
100
AcDbEntity
  8
SEIHIN
  6
CONTINUOUS
 62
     3
 48
16.0
100
AcDbLine
 10
470.3095986770728
 20
294.5118202776649
 30
0.0
 11
470.3095986770728
 21
319.5127202776649
 31
0.0
  0
LINE
  5
2E0
330
1A
100
AcDbEntity
  8
SEIHIN
  6
CONTINUOUS
 62
     3
 48
16.0
100
AcDbLine
 10
481.1689986770728
 20
294.5118202776649
 30
0.0
 11
481.1689986770728
 21
327.4951202776648
 31
0.0
  0
LINE
  5
2E1
330
1A
100
AcDbEntity
  8
CENTER_L
  6
CENTER
 62
     1
 48
5.0
100
AcDbLine
 10
422.0189986770728
 20
284.3246202776649
 30
0.0
 11
422.0190986770728
 21
411.9578202776649
 31
0.0
  0
TEXT
  5
2E2
330
1A
100
AcDbEntity
  8
ZUWAKU
 62
     7
100
AcDbText
 10
654.2531733678779
 20
15.90287984531518
 30
0.0
 40
8.0
  1
ＧＫ３５
100
AcDbText
  0
LINE
  5
2E3
330
1A
100
AcDbEntity
  8
SEIHIN
  6
CONTINUOUS
 62
     3
 48
16.0
100
AcDbLine
 10
523.5271986770729
 20
132.9926202776649
 30
0.0
 11
518.5461986770729
 21
131.4926202776649
 31
0.0
  0
ELLIPSE
  5
2E4
330
1A
100
AcDbEntity
  8
SEIHIN
  6
CONTINUOUS
 48
16.0
100
AcDbEllipse
 10
518.5499171086267
 20
183.7926596842697
 30
0.0
 11
0.0
 21
-52.30003940660481
 31
0.0
210
0.0
220
0.0
230
1.0
 40
0.086998022403505
 41
-1.349102566187053
 42
0.000000000000025
  0
LINE
  5
2E5
330
1A
100
AcDbEntity
  8
SEIHIN
  6
CONTINUOUS
 48
16.0
100
AcDbLine
 10
485.6754920715992
 20
131.4926202776649
 30
0.0
 11
480.5173986770729
 21
132.9926202776649
 31
0.0
  0
ELLIPSE
  5
2E6
330
1A
100
AcDbEntity
  8
SEIHIN
  6
CONTINUOUS
 48
16.0
100
AcDbEllipse
 10
485.6754920715991
 20
183.7926596842697
 30
0.0
 11
0.0
 21
-52.30003940660481
 31
0.0
210
0.0
220
0.0
230
1.0
 40
0.086998022403505
 41
-1.34910111319678
 42
0.000000000000025
  0
LINE
  5
2E7
330
1A
100
AcDbEntity
  8
CENTER_L
  6
CENTER
 62
     1
 48
5.0
100
AcDbLine
 10
422.0189986770728
 20
125.8865202776649
 30
0.0
 11
422.0189986770728
 21
196.3391202776649
 31
0.0
  0
ARC
  5
2E8
330
1A
100
AcDbEntity
  8
SEIHIN
  6
CONTINUOUS
 62
     3
 48
16.0
100
AcDbCircle
 10
422.0190448930047
 20
183.7926977712129
 30
0.0
 40
52.29997749375237
100
AcDbArc
 50
269.9998398172199
 51
346.4364594024796
  0
ARC
  5
2E9
330
1A
100
AcDbEntity
  8
SEIHIN
  6
CONTINUOUS
 62
     3
 48
16.0
100
AcDbCircle
 10
422.0189921522781
 20
183.7927324721107
 30
0.0
 40
50.30001219444619
100
AcDbArc
 50
270.0000074322686
 51
348.1892261694702
  0
LINE
  5
2EA
330
1A
100
AcDbEntity
  8
SEIHIN
  6
CONTINUOUS
 62
     3
 48
16.0
100
AcDbLine
 10
485.6754920715991
 20
131.4926202776649
 30
0.0
 11
518.5461986770729
 21
131.4926202776649
 31
0.0
  0
LINE
  5
2F0
330
1A
100
AcDbEntity
  8
SEIHIN
  6
CONTINUOUS
 62
     3
 48
16.0
100
AcDbLine
 10
474.5189986770729
 20
185.5927202776649
 30
0.0
 11
528.2986986770729
 21
185.5921202776649
 31
0.0
  0
LINE
  5
2F1
330
1A
100
AcDbEntity
  8
SEIHIN
  6
CONTINUOUS
 62
     3
 48
16.0
100
AcDbLine
 10
473.1121744239428
 20
172.2927171052835
 30
0.0
 11
518.8649986770728
 21
172.2928202776649
 31
0.0
  0
ARC
  5
2F2
330
1A
100
AcDbEntity
  8
SEIHIN
  6
CONTINUOUS
 62
     3
 48
16.0
100
AcDbCircle
 10
474.5190021509724
 20
178.9427168037653
 30
0.0
 40
4.649996526101678
100
AcDbArc
 50
269.9999571957131
 51
0.0000428042872374
  0
ARC
  5
2F3
330
1A
100
AcDbEntity
  8
SEIHIN
  6
CONTINUOUS
 62
     3
 48
16.0
100
AcDbCircle
 10
474.5190036451228
 20
178.9427153096149
 30
0.0
 40
6.649995031951883
100
AcDbArc
 50
269.9999571957132
 51
0.0000428042870425
  0
LINE
  5
2F4
330
1A
100
AcDbEntity
  8
SEIHIN
  6
CONTINUOUS
 48
16.0
100
AcDbLine
 10
483.4612001954583
 20
185.5926205128668
 30
0.0
 11
483.4612001954583
 21
172.2927404422829
 31
0.0
  0
LINE
  5
2F5
330
1A
100
AcDbEntity
  8
SEIHIN
  6
CONTINUOUS
 62
     3
 48
16.0
100
AcDbLine
 10
466.7541986770728
 20
172.2511202776649
 30
0.0
 11
466.7541986770728
 21
180.9157202776649
 31
0.0
  0
LINE
  5
2F6
330
1A
100
AcDbEntity
  8
SEIHIN
  6
CONTINUOUS
 62
     3
 48
16.0
100
AcDbLine
 10
447.5958986770728
 20
186.7084202776649
 30
0.0
 11
447.5957986770729
 21
154.8657202776649
 31
0.0
  0
LINE
  5
2F7
330
1A
100
AcDbEntity
  8
SEIHIN
  6
CONTINUOUS
 62
     3
 48
16.0
100
AcDbLine
 10
468.2541986770728
 20
169.8212202776649
 30
0.0
 11
468.2541986770728
 21
180.9157202776649
 31
0.0
  0
LINE
  5
2F8
330
1A
100
AcDbEntity
  8
SEIHIN
  6
CONTINUOUS
 62
     3
 48
16.0
100
AcDbLine
 10
447.5960986770728
 20
154.8658202776649
 30
0.0
 11
458.0421986770728
 21
154.8658202776649
 31
0.0
  0
ARC
  5
2F9
330
1A
100
AcDbEntity
  8
SEIHIN
  6
CONTINUOUS
 62
     3
 48
16.0
100
AcDbCircle
 10
453.5768626138623
 20
149.9136228975081
 30
0.0
 40
1.999989947925146
100
AcDbArc
 50
220.4929571484775
 51
312.970479751658
  0
LINE
  5
2FA
330
1A
100
AcDbEntity
  8
SEIHIN
  6
CONTINUOUS
 62
     3
 48
16.0
100
AcDbLine
 10
434.4549986770728
 20
132.9927202776649
 30
0.0
 11
480.5173986770729
 21
132.9926202776649
 31
0.0
  0
ARC
  5
2FB
330
1A
100
AcDbEntity
  8
SEIHIN
  6
CONTINUOUS
 62
     3
 48
16.0
100
AcDbCircle
 10
422.0189803381836
 20
183.7927034270161
 30
0.0
 40
48.29999419532043
100
AcDbArc
 50
278.6887455612574
 51
308.016820913988
  0
ARC
  5
2FC
330
1A
100
AcDbEntity
  8
SEIHIN
  6
CONTINUOUS
 62
     3
 48
16.0
100
AcDbCircle
 10
422.0190544769772
 20
183.7927142735708
 30
0.0
 40
46.20003651724526
100
AcDbArc
 50
276.2128116378834
 51
310.4925318273123
  0
ARC
  5
2FD
330
1A
100
AcDbEntity
  8
SEIHIN
  6
CONTINUOUS
 62
     3
 48
16.0
100
AcDbCircle
 10
429.0134592662034
 20
138.024074778031
 30
0.0
 40
2.000008180237927
100
AcDbArc
 50
186.2131088654266
 51
278.6888868187551
  0
ARC
  5
2FE
330
1A
100
AcDbEntity
  8
SEIHIN
  6
CONTINUOUS
 62
     3
 48
16.0
100
AcDbCircle
 10
429.0134592662034
 20
138.024074778031
 30
0.0
 40
2.000008180237927
100
AcDbArc
 50
186.2131088654266
 51
278.6888868187551
  0
LINE
  5
2FF
330
1A
100
AcDbEntity
  8
SEIHIN
  6
CONTINUOUS
 62
     3
 48
16.0
100
AcDbLine
 10
427.0189986770729
 20
137.8641202776649
 30
0.0
 11
427.0251986770729
 21
137.8076202776649
 31
0.0
  0
LINE
  5
300
330
1A
100
AcDbEntity
  8
SEIHIN
  6
CONTINUOUS
 62
     3
 48
16.0
100
AcDbLine
 10
427.0189986770729
 20
137.8641202776649
 30
0.0
 11
427.0189986770729
 21
137.5900202776649
 31
0.0
  0
ARC
  5
301
330
1A
100
AcDbEntity
  8
SEIHIN
  6
CONTINUOUS
 62
     3
 48
16.0
100
AcDbCircle
 10
425.0189975066431
 20
137.590017917294
 30
0.0
 40
2.000001170431104
100
AcDbArc
 50
273.7154012006136
 51
0.000067619606152
  0
ARC
  5
302
330
1A
100
AcDbEntity
  8
SEIHIN
  6
CONTINUOUS
 62
     3
 48
16.0
100
AcDbCircle
 10
422.0190114382655
 20
183.7913337512777
 30
0.0
 40
48.29861347361443
100
AcDbArc
 50
269.9999848616259
 51
273.7151761077025
  0
LINE
  5
303
330
1A
100
AcDbEntity
  8
SEIHIN
  6
CONTINUOUS
 62
     3
 48
16.0
100
AcDbLine
 10
452.0558986770729
 20
148.6149202776649
 30
0.0
 11
452.0189986770729
 21
148.6581202776649
 31
0.0
  0
ARC
  5
304
330
1A
100
AcDbEntity
  8
SEIHIN
  6
CONTINUOUS
 62
     3
 48
16.0
100
AcDbCircle
 10
450.5349026142144
 20
147.3162574715481
 30
0.0
 40
1.99998852677257
100
AcDbArc
 50
308.0174588239874
 51
40.4914921161241
  0
ARC
  5
305
330
1A
100
AcDbEntity
  8
SEIHIN
  6
CONTINUOUS
 62
     3
 48
16.0
100
AcDbCircle
 10
422.0188814757431
 20
183.792769122925
 30
0.0
 40
48.30012713347038
100
AcDbArc
 50
323.664906384896
 51
343.1859027337616
  0
ARC
  5
306
330
1A
100
AcDbEntity
  8
SEIHIN
  6
CONTINUOUS
 62
     3
 48
16.0
100
AcDbCircle
 10
422.0189215826862
 20
183.792830866657
 30
0.0
 40
46.20017424243767
100
AcDbArc
 50
321.189169838506
 51
345.5331607239393
  0
ELLIPSE
  5
307
330
1A
100
AcDbEntity
  8
SEIHIN
  6
CONTINUOUS
 48
16.0
100
AcDbEllipse
 10
480.6945185811405
 20
183.7926596842697
 30
0.0
 11
0.0
 21
-50.80003979112645
 31
0.0
210
0.0
220
0.0
230
1.0
 40
0.0861416648095694
 41
-1.342440337975225
 42
0.000000000000026
  0
LINE
  5
308
330
1A
100
AcDbEntity
  8
SEIHIN
  6
CONTINUOUS
 62
     3
 48
16.0
100
AcDbLine
 10
458.0189986770728
 20
152.3652202776649
 30
0.0
 11
458.0189986770728
 21
154.8369202776649
 31
0.0
  0
LINE
  5
309
330
1A
100
AcDbEntity
  8
SEIHIN
  6
CONTINUOUS
 62
     3
 48
16.0
100
AcDbLine
 10
458.0189986770728
 20
154.8369202776649
 30
0.0
 11
458.0632986770728
 21
154.8013202776649
 31
0.0
  0
ARC
  5
30A
330
1A
100
AcDbEntity
  8
SEIHIN
  6
CONTINUOUS
 62
     3
 48
16.0
100
AcDbCircle
 10
456.0189785752635
 20
152.3651701561942
 30
0.0
 40
2.000020102437422
100
AcDbArc
 50
317.2525458150214
 51
0.0014358599368907
  0
ARC
  5
30B
330
1A
100
AcDbEntity
  8
SEIHIN
  6
CONTINUOUS
 62
     3
 48
16.0
100
AcDbCircle
 10
459.3167978751518
 20
156.3597202701203
 30
0.0
 40
1.999967693756491
100
AcDbArc
 50
231.1885366718904
 51
323.6647023261661
  0
ARC
  5
30C
330
1A
100
AcDbEntity
  8
SEIHIN
  6
CONTINUOUS
 62
     3
 48
16.0
100
AcDbCircle
 10
422.0194462693942
 20
183.7921393493009
 30
0.0
 40
48.29928656705607
100
AcDbArc
 50
312.9684083406721
 51
317.2515712673537
  0
LINE
  5
30D
330
1A
100
AcDbEntity
  8
SEIHIN
  6
CONTINUOUS
 62
     3
 48
16.0
100
AcDbLine
 10
474.5189986770729
 20
174.2927202776649
 30
0.0
 11
468.2541986770728
 21
174.2927202776649
 31
0.0
  0
ARC
  5
30E
330
1A
100
AcDbEntity
  8
SEIHIN
  6
CONTINUOUS
 62
     3
 48
16.0
100
AcDbCircle
 10
502.4642846536219
 20
1185.501820217226
 30
0.0
 40
1011.59948154025
100
AcDbArc
 50
268.0619103001816
 51
268.3990384236728
  0
LINE
  5
30F
330
1A
100
AcDbEntity
  8
SEIHIN
  6
CONTINUOUS
 62
     3
 48
16.0
100
AcDbLine
 10
474.5189986770729
 20
172.2927202776649
 30
0.0
 11
473.8324986770728
 21
172.2927202776649
 31
0.0
  0
ARC
  5
310
330
1A
100
AcDbEntity
  8
SEIHIN
  6
CONTINUOUS
 62
     3
 48
16.0
100
AcDbCircle
 10
473.8325085344103
 20
171.2927282302217
 30
0.0
 40
0.9999920474918267
100
AcDbArc
 50
90.0005647883268
 51
166.4382074793804
  0
ARC
  5
311
330
1A
100
AcDbEntity
  8
SEIHIN
  6
CONTINUOUS
 62
     3
 48
16.0
100
AcDbCircle
 10
472.2330133960631
 20
173.2927326353316
 30
0.0
 40
0.9999876424416489
100
AcDbArc
 50
90.00084334644219
 51
168.1886373934188
  0
ARC
  5
312
330
1A
100
AcDbEntity
  8
SEIHIN
  6
CONTINUOUS
 62
     3
 48
16.0
100
AcDbCircle
 10
471.3096034009524
 20
183.5927130305353
 30
0.0
 40
1.000024656709777
100
AcDbArc
 50
124.8263146503855
 51
304.616534903883
  0
ARC
  5
313
330
1A
100
AcDbEntity
  8
SEIHIN
  6
CONTINUOUS
 62
     3
 48
16.0
100
AcDbCircle
 10
470.2541797124964
 20
180.9157064520008
 30
0.0
 40
3.499981035450849
100
AcDbArc
 50
82.64891289849053
 51
179.9997736695735
  0
ARC
  5
314
330
1A
100
AcDbEntity
  8
SEIHIN
  6
CONTINUOUS
 62
     3
 48
16.0
100
AcDbCircle
 10
470.2541838780524
 20
180.9157058620955
 30
0.0
 40
1.99998520103151
100
AcDbArc
 50
79.95284121709814
 51
179.9995870212996
  0
LINE
  5
315
330
1A
100
AcDbEntity
  8
SEIHIN
  6
CONTINUOUS
 62
     3
 48
16.0
100
AcDbLine
 10
467.5198986770729
 20
185.8128202776649
 30
0.0
 11
467.5198986770729
 21
183.1007202776649
 31
0.0
  0
ARC
  5
316
330
1A
100
AcDbEntity
  8
SEIHIN
  6
CONTINUOUS
 62
     3
 48
16.0
100
AcDbCircle
 10
474.5190053659381
 20
178.9427192626462
 30
0.0
 40
4.649993311134832
100
AcDbArc
 50
0.0000125067469986
 51
124.6125312503667
  0
ARC
  5
317
330
1A
100
AcDbEntity
  8
SEIHIN
  6
CONTINUOUS
 62
     3
 48
16.0
100
AcDbCircle
 10
474.5190007295375
 20
178.9427223390336
 30
0.0
 40
6.649997947535587
100
AcDbArc
 50
359.9999822394343
 51
124.6130045247337
  0
LINE
  5
318
330
1A
100
AcDbEntity
  8
SEIHIN
  6
CONTINUOUS
 62
     3
 48
16.0
100
AcDbLine
 10
479.1689986770728
 20
185.5927202776649
 30
0.0
 11
481.1689986770728
 21
185.5927202776649
 31
0.0
  0
LINE
  5
319
330
1A
100
AcDbEntity
  8
SEIHIN
  6
CONTINUOUS
 62
     3
 48
16.0
100
AcDbLine
 10
479.1689986770728
 20
183.6967202776649
 30
0.0
 11
479.1689986770728
 21
185.5927202776649
 31
0.0
  0
LINE
  5
31A
330
1A
100
AcDbEntity
  8
SEIHIN
  6
CONTINUOUS
 62
     3
 48
16.0
100
AcDbLine
 10
481.1689986770728
 20
178.9427202776649
 30
0.0
 11
481.1689986770728
 21
185.5927202776649
 31
0.0
  0
ELLIPSE
  5
31C
330
1A
100
AcDbEntity
  8
SEIHIN
  6
CONTINUOUS
 62
     3
 48
16.0
100
AcDbEllipse
 10
518.9534986770728
 20
178.9428192482316
 30
0.0
 11
-0.0000000000001635
 21
-6.65
 31
0.0
210
0.0
220
0.0
230
1.0
 40
0.0869172932330789
 41
2.151810933582346
 42
6.675570347938792
  0
ELLIPSE
  5
31D
330
1A
100
AcDbEntity
  8
SEIHIN
  6
CONTINUOUS
 48
16.0
100
AcDbEllipse
 10
518.9534986770728
 20
178.9428192482316
 30
0.0
 11
0.0
 21
4.65
 31
0.0
210
0.0
220
0.0
230
1.0
 40
0.0860215053763392
 41
-0.66818662347282
 42
3.856659417011394
  0
ELLIPSE
  5
31E
330
1A
100
AcDbEntity
  8
SEIHIN
  6
CONTINUOUS
 48
16.0
100
AcDbEllipse
 10
528.1082825210981
 20
178.9428192482316
 30
0.0
 11
0.0
 21
4.65
 31
0.0
210
0.0
220
0.0
230
-1.0
 40
0.0860215053763392
 41
-0.66818662347282
 42
3.85665941701139
  0
ELLIPSE
  5
31F
330
1A
100
AcDbEntity
  8
SEIHIN
  6
CONTINUOUS
 62
     3
 48
16.0
100
AcDbEllipse
 10
528.1082825210981
 20
178.9428192482316
 30
0.0
 11
0.0000000000001635
 21
-6.65
 31
0.0
210
0.0
220
0.0
230
-1.0
 40
0.0869172932330789
 41
2.151810933582346
 42
6.675570347939005
  0
ELLIPSE
  5
320
330
1A
100
AcDbEntity
  8
SEIHIN
  6
CONTINUOUS
 48
16.0
100
AcDbEllipse
 10
523.5308905990855
 20
183.7926596842697
 30
0.0
 11
0.0
 21
51.29999999999999
 31
0.0
210
0.0
220
0.0
230
1.0
 40
0.0869395711500982
 41
1.786788378549021
 42
4.496396928630751
  0
ELLIPSE
  5
321
330
1A
100
AcDbEntity
  8
SEIHIN
  6
CONTINUOUS
 48
16.0
100
AcDbEllipse
 10
523.5308905990855
 20
183.7926596842697
 30
0.0
 11
0.0
 21
50.3
 31
0.0
210
0.0
220
0.0
230
1.0
 40
0.086998011928429
 41
1.737790502590623
 42
4.545394804589101
  0
LINE
  5
322
330
1A
100
AcDbEntity
  8
SEIHIN
  6
CONTINUOUS
 62
     3
 48
16.0
100
AcDbLine
 10
518.7056732358725
 20
182.5928202776649
 30
0.0
 11
527.860457079898
 21
182.5928202776649
 31
0.0
  0
LINE
  5
323
330
1A
100
AcDbEntity
  8
SEIHIN
  6
CONTINUOUS
 62
     3
 48
16.0
100
AcDbLine
 10
481.1689986770728
 20
294.5118202776649
 30
0.0
 11
422.0189986770728
 21
294.5119202776649
 31
0.0
  0
LINE
  5
324
330
1A
100
AcDbEntity
  8
SEIHIN
  6
CONTINUOUS
 62
     3
 48
16.0
100
AcDbLine
 10
528.6863986770729
 20
446.4549202776649
 30
0.0
 11
523.5308986770728
 21
387.5301202776649
 31
0.0
  0
LINE
  5
325
330
1A
100
AcDbEntity
  8
SEIHIN
  6
CONTINUOUS
 62
     3
 48
16.0
100
AcDbLine
 10
499.2711986770728
 20
397.0833202776649
 30
0.0
 11
501.0313986770728
 21
417.2015202776649
 31
0.0
  0
LINE
  5
326
330
1A
100
AcDbEntity
  8
SEIHIN
  6
CONTINUOUS
 62
     3
 48
16.0
100
AcDbLine
 10
485.1150986770728
 20
395.9101202776649
 30
0.0
 11
487.2940986770728
 21
420.8150202776649
 31
0.0
  0
LINE
  5
327
330
1A
100
AcDbEntity
  8
SEIHIN
  6
CONTINUOUS
 62
     3
 48
16.0
100
AcDbLine
 10
487.1074986770729
 20
395.7358202776649
 30
0.0
 11
489.2864986770728
 21
420.6408202776649
 31
0.0
  0
LINE
  5
328
330
1A
100
AcDbEntity
  8
SEIHIN
  6
CONTINUOUS
 62
     3
 48
16.0
100
AcDbLine
 10
489.0998986770728
 20
395.5614202776649
 30
0.0
 11
485.1150986770728
 21
395.9101202776649
 31
0.0
  0
LINE
  5
329
330
1A
100
AcDbEntity
  8
SEIHIN
  6
CONTINUOUS
 62
     3
 48
16.0
100
AcDbLine
 10
488.2282986770729
 20
385.5997202776649
 30
0.0
 11
484.2434986770729
 21
385.9483202776649
 31
0.0
  0
LINE
  5
32A
330
1A
100
AcDbEntity
  8
SEIHIN
  6
CONTINUOUS
 62
     3
 48
16.0
100
AcDbLine
 10
486.0493986770729
 20
360.6948202776649
 30
0.0
 11
494.1536986770729
 21
360.3922202776649
 31
0.0
  0
LINE
  5
32B
330
1A
100
AcDbEntity
  8
SEIHIN
  6
CONTINUOUS
 62
     3
 48
16.0
100
AcDbLine
 10
485.5264986770729
 20
354.7176202776649
 30
0.0
 11
493.5599986770728
 21
353.6082202776649
 31
0.0
  0
LINE
  5
32C
330
1A
100
AcDbEntity
  8
SEIHIN
  6
CONTINUOUS
 62
     3
 48
16.0
100
AcDbLine
 10
518.3754986770728
 20
328.6052202776649
 30
0.0
 11
485.5175986770729
 21
331.4799202776649
 31
0.0
  0
LINE
  5
32D
330
1A
100
AcDbEntity
  8
SEIHIN
  6
CONTINUOUS
 62
     3
 48
16.0
100
AcDbLine
 10
484.2434986770729
 20
385.9483202776649
 30
0.0
 11
482.0645986770728
 21
361.0434202776649
 31
0.0
  0
LINE
  5
32E
330
1A
100
AcDbEntity
  8
SEIHIN
  6
CONTINUOUS
 62
     3
 48
16.0
100
AcDbLine
 10
486.2358986770728
 20
385.7740202776649
 30
0.0
 11
484.0569986770729
 21
360.8690202776649
 31
0.0
  0
LINE
  5
330
330
1A
100
AcDbEntity
  8
SEIHIN
  6
CONTINUOUS
 62
     3
 48
16.0
100
AcDbLine
 10
458.0190986770729
 20
329.5118202776649
 30
0.0
 11
452.0190986770728
 21
329.5118202776649
 31
0.0
  0
LINE
  5
331
330
1A
100
AcDbEntity
  8
SEIHIN
  6
CONTINUOUS
 62
     3
 48
16.0
100
AcDbLine
 10
429.4215986770729
 20
319.5119202776649
 30
0.0
 11
449.6165986770728
 21
319.5118202776649
 31
0.0
  0
LINE
  5
332
330
1A
100
AcDbEntity
  8
SEIHIN
  6
CONTINUOUS
 62
     3
 48
16.0
100
AcDbLine
 10
427.0189986770729
 20
333.5119202776649
 30
0.0
 11
452.0190986770728
 21
333.5118202776649
 31
0.0
  0
LINE
  5
333
330
1A
100
AcDbEntity
  8
SEIHIN
  6
CONTINUOUS
 62
     3
 48
16.0
100
AcDbLine
 10
427.0189986770729
 20
331.5119202776649
 30
0.0
 11
452.0190986770728
 21
331.5118202776649
 31
0.0
  0
LINE
  5
334
330
1A
100
AcDbEntity
  8
SEIHIN
  6
CONTINUOUS
 62
     3
 48
16.0
100
AcDbLine
 10
427.0189986770729
 20
329.5119202776649
 30
0.0
 11
427.4240986770728
 21
321.4120202776649
 31
0.0
  0
ARC
  5
335
330
1A
100
AcDbEntity
  8
SEIHIN
  6
CONTINUOUS
 62
     3
 48
16.0
100
AcDbCircle
 10
429.4216005647966
 20
321.5119186465551
 30
0.0
 40
1.99999836889103
100
AcDbArc
 50
182.8630711601824
 51
269.9999459206547
  0
LINE
  5
336
330
1A
100
AcDbEntity
  8
SEIHIN
  6
CONTINUOUS
 62
     3
 48
16.0
100
AcDbLine
 10
427.0189986770729
 20
329.5119202776649
 30
0.0
 11
427.0189986770729
 21
333.5119202776649
 31
0.0
  0
LINE
  5
337
330
1A
100
AcDbEntity
  8
SEIHIN
  6
CONTINUOUS
 62
     3
 48
16.0
100
AcDbLine
 10
427.0190986770728
 20
329.5119202776649
 30
0.0
 11
422.0190986770728
 21
329.5119202776649
 31
0.0
  0
LINE
  5
338
330
1A
100
AcDbEntity
  8
SEIHIN
  6
CONTINUOUS
 62
     3
 48
16.0
100
AcDbLine
 10
452.0189986770729
 20
329.5118202776649
 30
0.0
 11
451.6140986770729
 21
321.4120202776649
 31
0.0
  0
ARC
  5
339
330
1A
100
AcDbEntity
  8
SEIHIN
  6
CONTINUOUS
 62
     3
 48
16.0
100
AcDbCircle
 10
449.6165959638337
 20
321.511814259717
 30
0.0
 40
1.999993982053915
100
AcDbArc
 50
270.0000777288117
 51
357.1399167598826
  0
LINE
  5
33A
330
1A
100
AcDbEntity
  8
SEIHIN
  6
CONTINUOUS
 62
     3
 48
16.0
100
AcDbLine
 10
452.0189986770729
 20
329.5118202776649
 30
0.0
 11
452.0189986770729
 21
333.5124202776649
 31
0.0
  0
ARC
  5
33B
330
1A
100
AcDbEntity
  8
SEIHIN
  6
CONTINUOUS
 62
     3
 48
16.0
100
AcDbCircle
 10
476.2801709704452
 20
337.195890019043
 30
0.0
 40
5.000047535131939
100
AcDbArc
 50
85.31343760539447
 51
179.6856738016112
  0
LINE
  5
33C
330
1A
100
AcDbEntity
  8
SEIHIN
  6
CONTINUOUS
 62
     3
 48
16.0
100
AcDbLine
 10
483.4611986770728
 20
331.1122202776649
 30
0.0
 11
484.7650986770728
 21
346.0157202776649
 31
0.0
  0
LINE
  5
33D
330
1A
100
AcDbEntity
  8
SEIHIN
  6
CONTINUOUS
 62
     3
 48
16.0
100
AcDbLine
 10
471.2646986770728
 20
333.5118202776649
 30
0.0
 11
466.7540986770728
 21
331.5118202776649
 31
0.0
  0
LINE
  5
33E
330
1A
100
AcDbEntity
  8
SEIHIN
  6
CONTINUOUS
 62
     3
 48
16.0
100
AcDbLine
 10
458.0190986770729
 20
333.5118202776649
 30
0.0
 11
471.2646986770728
 21
333.5118202776649
 31
0.0
  0
LINE
  5
33F
330
1A
100
AcDbEntity
  8
SEIHIN
  6
CONTINUOUS
 62
     3
 48
16.0
100
AcDbLine
 10
481.7145986770728
 20
329.5118202776649
 30
0.0
 11
466.7541986770728
 21
329.5118202776649
 31
0.0
  0
LINE
  5
340
330
1A
100
AcDbEntity
  8
SEIHIN
  6
CONTINUOUS
 62
     3
 48
16.0
100
AcDbLine
 10
460.4215986770729
 20
319.5118202776649
 30
0.0
 11
470.3096986770728
 21
319.5118202776649
 31
0.0
  0
LINE
  5
341
330
1A
100
AcDbEntity
  8
SEIHIN
  6
CONTINUOUS
 62
     3
 48
16.0
100
AcDbLine
 10
458.0189986770728
 20
329.5118202776649
 30
0.0
 11
458.4239986770728
 21
321.4120202776649
 31
0.0
  0
ARC
  5
342
330
1A
100
AcDbEntity
  8
SEIHIN
  6
CONTINUOUS
 62
     3
 48
16.0
100
AcDbCircle
 10
460.4216005647966
 20
321.5118186465551
 30
0.0
 40
1.999998368891057
100
AcDbArc
 50
182.8630711601816
 51
269.9999459206538
  0
LINE
  5
343
330
1A
100
AcDbEntity
  8
SEIHIN
  6
CONTINUOUS
 62
     3
 48
16.0
100
AcDbLine
 10
458.0190986770729
 20
331.5118202776649
 30
0.0
 11
466.7540986770728
 21
331.5118202776649
 31
0.0
  0
LINE
  5
344
330
1A
100
AcDbEntity
  8
SEIHIN
  6
CONTINUOUS
 62
     3
 48
16.0
100
AcDbLine
 10
458.0189986770728
 20
329.5118202776649
 30
0.0
 11
458.0189986770728
 21
333.5118202776649
 31
0.0
  0
LINE
  5
345
330
1A
100
AcDbEntity
  8
SEIHIN
  6
CONTINUOUS
 62
     3
 48
16.0
100
AcDbLine
 10
466.7541986770728
 20
329.5109202776649
 30
0.0
 11
466.7541986770728
 21
331.5118202776649
 31
0.0
  0
ARC
  5
346
330
1A
100
AcDbEntity
  8
SEIHIN
  6
CONTINUOUS
 62
     3
 48
16.0
100
AcDbCircle
 10
485.1690063103606
 20
327.4951311454336
 30
0.0
 40
4.000007633302529
100
AcDbArc
 50
85.00044961342483
 51
180.0001556690232
  0
ARC
  5
347
330
1A
100
AcDbEntity
  8
SEIHIN
  6
CONTINUOUS
 62
     3
 48
16.0
100
AcDbCircle
 10
1882.062111411914
 20
329.4795650766647
 30
0.0
 40
1410.803175667772
100
AcDbArc
 50
179.6854305477945
 51
179.8362330177089
  0
LINE
  5
348
330
1A
100
AcDbEntity
  8
SEIHIN
  6
CONTINUOUS
 62
     3
 48
16.0
100
AcDbLine
 10
481.5416986770729
 20
355.0662202776649
 30
0.0
 11
480.3871986770729
 21
341.8709202776649
 31
0.0
  0
LINE
  5
349
330
1A
100
AcDbEntity
  8
SEIHIN
  6
CONTINUOUS
 62
     3
 48
16.0
100
AcDbLine
 10
483.5339986770728
 20
354.8919202776648
 30
0.0
 11
482.7726986770728
 21
346.1901202776649
 31
0.0
  0
ARC
  5
34A
330
1A
100
AcDbEntity
  8
SEIHIN
  6
CONTINUOUS
 62
     3
 48
16.0
100
AcDbCircle
 10
361.3660471292353
 20
-1063.635465346611
 30
0.0
 40
1410.536921079738
100
AcDbArc
 50
85.15954726245176
 51
85.3103497323662
  0
LINE
  5
34B
330
1A
100
AcDbEntity
  8
SEIHIN
  6
CONTINUOUS
 62
     3
 48
16.0
100
AcDbLine
 10
480.3871986770729
 20
341.8709202776649
 30
0.0
 11
482.7726986770728
 21
346.1901202776649
 31
0.0
  0
LINE
  5
34C
330
1A
100
AcDbEntity
  8
SEIHIN
  6
CONTINUOUS
 62
     3
 48
16.0
100
AcDbLine
 10
484.7658986770729
 20
346.0157202776649
 30
0.0
 11
482.7725986770729
 21
346.1900202776649
 31
0.0
  0
LINE
  5
34D
330
1A
100
AcDbEntity
  8
SEIHIN
  6
CONTINUOUS
 62
     3
 48
16.0
100
AcDbLine
 10
485.5264986770729
 20
354.7176202776649
 30
0.0
 11
486.0492986770728
 21
360.6947202776649
 31
0.0
  0
LINE
  5
34E
330
1A
100
AcDbEntity
  8
SEIHIN
  6
CONTINUOUS
 62
     3
 48
16.0
100
AcDbLine
 10
485.5264986770729
 20
354.7176202776649
 30
0.0
 11
481.5416986770729
 21
355.0663202776649
 31
0.0
  0
LINE
  5
34F
330
1A
100
AcDbEntity
  8
SEIHIN
  6
CONTINUOUS
 62
     3
 48
16.0
100
AcDbLine
 10
486.0492986770728
 20
360.6948202776649
 30
0.0
 11
482.0640986770729
 21
361.0435202776649
 31
0.0
  0
LINE
  5
355
330
1A
100
AcDbEntity
  8
SEIHIN
  6
CONTINUOUS
 62
     3
 48
16.0
100
AcDbLine
 10
497.9807986770729
 20
382.3346202776649
 30
0.0
 11
496.2206986770728
 21
362.2165202776649
 31
0.0
  0
LINE
  5
356
330
1A
100
AcDbEntity
  8
SEIHIN
  6
CONTINUOUS
 62
     3
 48
16.0
100
AcDbLine
 10
518.3754986770728
 20
328.6052202776649
 30
0.0
 11
523.5308986770728
 21
387.5301202776649
 31
0.0
  0
LINE
  5
357
330
1A
100
AcDbEntity
  8
SEIHIN
  6
CONTINUOUS
 62
     3
 48
16.0
100
AcDbLine
 10
519.3219986770729
 20
339.4232202776649
 30
0.0
 11
494.4162986770728
 21
341.6023202776649
 31
0.0
  0
ARC
  5
358
330
1A
100
AcDbEntity
  8
SEIHIN
  6
CONTINUOUS
 62
     3
 48
16.0
100
AcDbCircle
 10
493.2866005748738
 20
351.6269153307571
 30
0.0
 40
2.000007240781639
100
AcDbArc
 50
355.0004906979624
 51
82.13736545843461
  0
LINE
  5
359
330
1A
100
AcDbEntity
  8
SEIHIN
  6
CONTINUOUS
 62
     3
 48
16.0
100
AcDbLine
 10
495.2789986770729
 20
351.4526202776649
 30
0.0
 11
494.4170986770728
 21
341.6022202776649
 31
0.0
  0
ARC
  5
35A
330
1A
100
AcDbEntity
  8
SEIHIN
  6
CONTINUOUS
 62
     3
 48
16.0
100
AcDbCircle
 10
494.2283095048916
 20
362.3908275044909
 30
0.0
 40
1.999999405687175
100
AcDbArc
 50
267.8620605059847
 51
355.0001209783747
  0
LINE
  5
35B
330
1A
100
AcDbEntity
  8
SEIHIN
  6
CONTINUOUS
 62
     3
 48
16.0
100
AcDbLine
 10
488.2282986770729
 20
385.5996202776649
 30
0.0
 11
488.6640986770728
 21
390.5805202776649
 31
0.0
  0
LINE
  5
35C
330
1A
100
AcDbEntity
  8
SEIHIN
  6
CONTINUOUS
 62
     3
 48
16.0
100
AcDbLine
 10
488.2282986770729
 20
385.5997202776649
 30
0.0
 11
496.2620986770728
 21
384.4901202776649
 31
0.0
  0
ARC
  5
35D
330
1A
100
AcDbEntity
  8
SEIHIN
  6
CONTINUOUS
 62
     3
 48
16.0
100
AcDbCircle
 10
495.9884005748738
 20
382.508915330757
 30
0.0
 40
2.000007240781639
100
AcDbArc
 50
355.0004906979624
 51
82.13736545843461
  0
LINE
  5
35E
330
1A
100
AcDbEntity
  8
SEIHIN
  6
CONTINUOUS
 62
     3
 48
16.0
100
AcDbLine
 10
489.0998986770728
 20
395.5614202776649
 30
0.0
 11
497.2042986770729
 21
395.2591202776649
 31
0.0
  0
LINE
  5
35F
330
1A
100
AcDbEntity
  8
SEIHIN
  6
CONTINUOUS
 62
     3
 48
16.0
100
AcDbLine
 10
489.0998986770728
 20
395.5616202776649
 30
0.0
 11
488.6640986770728
 21
390.5806202776649
 31
0.0
  0
ARC
  5
360
330
1A
100
AcDbEntity
  8
SEIHIN
  6
CONTINUOUS
 62
     3
 48
16.0
100
AcDbCircle
 10
497.2789123966754
 20
397.2577337858227
 30
0.0
 40
2.000005790527615
100
AcDbArc
 50
267.8619844333621
 51
354.9970806167655
  0
ARC
  5
361
330
1A
100
AcDbEntity
  8
SEIHIN
  6
CONTINUOUS
 62
     3
 48
16.0
100
AcDbCircle
 10
615.8363376033616
 20
1844.186699237472
 30
0.0
 40
1409.918136601797
100
AcDbArc
 50
263.9840121785184
 51
264.8374861647841
  0
LINE
  5
362
330
1A
100
AcDbEntity
  8
SEIHIN
  6
CONTINUOUS
 62
     3
 48
16.0
100
AcDbLine
 10
467.6944986770728
 20
437.7378202776649
 30
0.0
 11
447.7705986770728
 21
439.4809202776649
 31
0.0
  0
LINE
  5
363
330
1A
100
AcDbEntity
  8
SEIHIN
  6
CONTINUOUS
 62
     3
 48
16.0
100
AcDbLine
 10
467.5201986770728
 20
435.7454202776649
 30
0.0
 11
447.5962986770729
 21
437.4886202776649
 31
0.0
  0
ARC
  5
364
330
1A
100
AcDbEntity
  8
SEIHIN
  6
CONTINUOUS
 62
     3
 48
16.0
100
AcDbCircle
 10
615.8430302910192
 20
1844.185518274493
 30
0.0
 40
1409.91756053414
100
AcDbArc
 50
263.2520546179545
 51
263.9024745607771
  0
LINE
  5
365
330
1A
100
AcDbEntity
  8
SEIHIN
  6
CONTINUOUS
 62
     3
 48
16.0
100
AcDbLine
 10
447.5962986770729
 20
437.4886202776649
 30
0.0
 11
448.5113986770728
 21
447.9486202776649
 31
0.0
  0
LINE
  5
366
330
1A
100
AcDbEntity
  8
SEIHIN
  6
CONTINUOUS
 62
     3
 48
16.0
100
AcDbLine
 10
449.7629986770729
 20
439.3066202776649
 30
0.0
 11
450.5038986770729
 21
447.7743202776649
 31
0.0
  0
LINE
  5
367
330
1A
100
AcDbEntity
  8
SEIHIN
  6
CONTINUOUS
 62
     3
 48
16.0
100
AcDbLine
 10
449.9372986770729
 20
441.2990202776649
 30
0.0
 11
447.9448986770728
 21
441.4733202776649
 31
0.0
  0
LINE
  5
368
330
1A
100
AcDbEntity
  8
SEIHIN
  6
CONTINUOUS
 62
     3
 48
16.0
100
AcDbLine
 10
450.5038986770729
 20
447.7743202776649
 30
0.0
 11
448.5115986770728
 21
447.9486202776649
 31
0.0
  0
LINE
  5
369
330
1A
100
AcDbEntity
  8
SEIHIN
  6
CONTINUOUS
 62
     3
 48
16.0
100
AcDbLine
 10
467.5201986770728
 20
435.7454202776649
 30
0.0
 11
468.4352986770728
 21
446.2054202776648
 31
0.0
  0
LINE
  5
36A
330
1A
100
AcDbEntity
  8
SEIHIN
  6
CONTINUOUS
 62
     3
 48
16.0
100
AcDbLine
 10
465.7020986770728
 20
437.9121202776649
 30
0.0
 11
466.4429986770728
 21
446.3797202776649
 31
0.0
  0
LINE
  5
36B
330
1A
100
AcDbEntity
  8
SEIHIN
  6
CONTINUOUS
 62
     3
 48
16.0
100
AcDbLine
 10
467.8687986770728
 20
439.7301202776649
 30
0.0
 11
465.8763986770728
 21
439.9044202776649
 31
0.0
  0
LINE
  5
36C
330
1A
100
AcDbEntity
  8
SEIHIN
  6
CONTINUOUS
 62
     3
 48
16.0
100
AcDbLine
 10
468.4352986770728
 20
446.2054202776648
 30
0.0
 11
466.4429986770728
 21
446.3797202776649
 31
0.0
  0
LINE
  5
36D
330
1A
100
AcDbEntity
  8
SEIHIN
  6
CONTINUOUS
 62
     3
 48
16.0
100
AcDbLine
 10
527.7398986770728
 20
435.6369202776648
 30
0.0
 11
502.8341986770729
 21
437.8159202776649
 31
0.0
  0
LINE
  5
36E
330
1A
100
AcDbEntity
  8
SEIHIN
  6
CONTINUOUS
 62
     3
 48
16.0
100
AcDbLine
 10
528.6863986770729
 20
446.4549202776649
 30
0.0
 11
493.8203986770728
 21
449.5054202776649
 31
0.0
  0
LINE
  5
36F
330
1A
100
AcDbEntity
  8
SEIHIN
  6
CONTINUOUS
 62
     3
 48
16.0
100
AcDbLine
 10
501.9731986770728
 20
427.9654202776649
 30
0.0
 11
502.8350986770728
 21
437.8158202776649
 31
0.0
  0
LINE
  5
370
330
1A
100
AcDbEntity
  8
SEIHIN
  6
CONTINUOUS
 62
     3
 48
16.0
100
AcDbLine
 10
487.8170986770729
 20
426.7922202776649
 30
0.0
 11
488.9714986770728
 21
439.9875202776649
 31
0.0
  0
LINE
  5
371
330
1A
100
AcDbEntity
  8
SEIHIN
  6
CONTINUOUS
 62
     3
 48
16.0
100
AcDbLine
 10
489.8094986770728
 20
426.6179202776649
 30
0.0
 11
490.5707986770728
 21
435.3197202776649
 31
0.0
  0
LINE
  5
372
330
1A
100
AcDbEntity
  8
SEIHIN
  6
CONTINUOUS
 62
     3
 48
16.0
100
AcDbLine
 10
491.8018986770729
 20
426.4436202776649
 30
0.0
 11
491.2787986770728
 21
420.4665202776649
 31
0.0
  0
LINE
  5
373
330
1A
100
AcDbEntity
  8
SEIHIN
  6
CONTINUOUS
 62
     3
 48
16.0
100
AcDbLine
 10
491.2788986770729
 20
420.4664202776649
 30
0.0
 11
499.3125986770728
 21
419.3570202776649
 31
0.0
  0
LINE
  5
374
330
1A
100
AcDbEntity
  8
SEIHIN
  6
CONTINUOUS
 62
     3
 48
16.0
100
AcDbLine
 10
491.2787986770728
 20
420.4664202776649
 30
0.0
 11
487.2935986770728
 21
420.8151202776649
 31
0.0
  0
ARC
  5
375
330
1A
100
AcDbEntity
  8
SEIHIN
  6
CONTINUOUS
 62
     3
 48
16.0
100
AcDbCircle
 10
499.0390005748737
 20
417.3758153307571
 30
0.0
 40
2.000007240781642
100
AcDbArc
 50
355.0004906979616
 51
82.13736545843472
  0
LINE
  5
376
330
1A
100
AcDbEntity
  8
SEIHIN
  6
CONTINUOUS
 62
     3
 48
16.0
100
AcDbLine
 10
491.8018986770729
 20
426.4436202776649
 30
0.0
 11
499.9061986770729
 21
426.1410202776649
 31
0.0
  0
LINE
  5
377
330
1A
100
AcDbEntity
  8
SEIHIN
  6
CONTINUOUS
 62
     3
 48
16.0
100
AcDbLine
 10
491.8018986770729
 20
426.4436202776649
 30
0.0
 11
487.8170986770729
 21
426.7921202776649
 31
0.0
  0
ARC
  5
378
330
1A
100
AcDbEntity
  8
SEIHIN
  6
CONTINUOUS
 62
     3
 48
16.0
100
AcDbCircle
 10
499.9808098319193
 20
428.1397312210666
 30
0.0
 40
1.999999403820364
100
AcDbArc
 50
267.8649179115142
 51
355.0000140949176
  0
LINE
  5
379
330
1A
100
AcDbEntity
  8
SEIHIN
  6
CONTINUOUS
 62
     3
 48
16.0
100
AcDbLine
 10
493.8195986770728
 20
449.5055202776649
 30
0.0
 11
492.5631986770729
 21
435.1455202776649
 31
0.0
  0
LINE
  5
37A
330
1A
100
AcDbEntity
  8
SEIHIN
  6
CONTINUOUS
 62
     3
 48
16.0
100
AcDbLine
 10
492.5639986770728
 20
435.1454202776649
 30
0.0
 11
490.5706986770728
 21
435.3198202776649
 31
0.0
  0
LINE
  5
37B
330
1A
100
AcDbEntity
  8
SEIHIN
  6
CONTINUOUS
 62
     3
 48
16.0
100
AcDbLine
 10
488.9714986770728
 20
439.9875202776649
 30
0.0
 11
490.5707986770728
 21
435.3198202776649
 31
0.0
  0
ARC
  5
37C
330
1A
100
AcDbEntity
  8
SEIHIN
  6
CONTINUOUS
 62
     3
 48
16.0
100
AcDbCircle
 10
422.0190448930047
 20
183.7926977712129
 30
0.0
 40
51.59997749375237
100
AcDbArc
 50
269.9998398172199
 51
346.2525701717044
  0
ARC
  5
37D
330
1A
100
AcDbEntity
  8
SEIHIN
  6
CONTINUOUS
 62
     3
 48
16.0
100
AcDbCircle
 10
422.0189794549452
 20
183.7926707774087
 30
0.0
 40
51.59995049980619
100
AcDbArc
 50
193.7474031936263
 51
269.9999115060126
  0
ARC
  5
37F
330
1A
100
AcDbEntity
  8
SEIHIN
  6
CONTINUOUS
 62
     3
 48
16.0
100
AcDbCircle
 10
370.9258680788896
 20
171.2927202776649
 30
0.0
 40
1.0
100
AcDbArc
 50
13.74740319362504
 51
90.0
  0
ARC
  5
380
330
1A
100
AcDbEntity
  8
SEIHIN
  6
CONTINUOUS
 62
     3
 48
16.0
100
AcDbCircle
 10
473.1121766789375
 20
171.2927171052861
 30
0.0
 40
1.0
100
AcDbArc
 50
90.00012920168469
 51
166.2525701717032
  0
DIMENSION
  5
38E
330
1A
100
AcDbEntity
  8
SUNPOU
100
AcDbDimension
  2
*D1
 10
321.1258538859442
 20
294.5119202776649
 30
0.0
 11
316.1258538859442
 21
312.0119202776649
 31
0.0
 70
    32
  1
※<>
  3
STANDARD
100
AcDbAlignedDimension
 13
386.0190986770728
 23
329.5119202776649
 33
0.0
 14
362.8690986770728
 24
294.5119202776649
 34
0.0
 50
90.0
100
AcDbRotatedDimension
1001
ACAD
1000
DSTYLE
1002
{
1070
   140
1040
6.0
1070
    74
1070
     0
1070
   172
1070
     1
1070
    73
1070
     0
1070
   272
1070
     2
1070
    77
1070
     3
1070
   173
1070
     1
1070
   147
1040
2.0
1070
    42
1040
6.0
1070
    44
1040
3.0
1070
    43
1040
14.0
1070
   271
1070
     0
1070
   178
1070
     4
1070
   177
1070
     4
1070
   176
1070
     4
1070
   141
1040
150.0
1070
     7
1000
_OPEN
1070
     6
1000
_OPEN
1070
    41
1040
7.0
1002
}
  0
DIMENSION
  5
39B
330
1A
100
AcDbEntity
  8
SUNPOU
100
AcDbDimension
  2
*D2
 10
299.8453969910606
 20
294.5119202776649
 30
0.0
 11
294.8453969910606
 21
381.5122702776651
 31
0.0
 70
    32
  3
STANDARD
100
AcDbAlignedDimension
 13
355.9490986770729
 23
468.5126202776652
 33
0.0
 14
362.8690986770728
 24
294.5119202776649
 34
0.0
 50
90.0
100
AcDbRotatedDimension
1001
ACAD
1000
DSTYLE
1002
{
1070
   140
1040
6.0
1070
    74
1070
     0
1070
   172
1070
     1
1070
    73
1070
     0
1070
   272
1070
     2
1070
    77
1070
     3
1070
   173
1070
     1
1070
   147
1040
2.0
1070
    42
1040
6.0
1070
    44
1040
3.0
1070
    43
1040
14.0
1070
   271
1070
     0
1070
   178
1070
     4
1070
   177
1070
     4
1070
   176
1070
     4
1070
   141
1040
150.0
1070
     7
1000
_OPEN
1070
     6
1000
_OPEN
1070
    41
1040
7.0
1002
}
  0
DIMENSION
  5
3A8
330
1A
100
AcDbEntity
  8
SUNPOU
100
AcDbDimension
  2
*D3
 10
362.8689986770728
 20
232.5180097874706
 30
0.0
 11
422.0189986770728
 21
237.5180097874706
 31
0.0
 70
    32
  3
STANDARD
100
AcDbAlignedDimension
 13
481.1689986770728
 23
185.5927202776649
 33
0.0
 14
362.8689986770728
 24
185.5927202776649
 34
0.0
100
AcDbRotatedDimension
1001
ACAD
1000
DSTYLE
1002
{
1070
   140
1040
6.0
1070
    74
1070
     0
1070
   172
1070
     1
1070
    73
1070
     0
1070
   272
1070
     2
1070
    77
1070
     3
1070
   173
1070
     1
1070
   147
1040
2.0
1070
    42
1040
6.0
1070
    44
1040
3.0
1070
    43
1040
14.0
1070
   271
1070
     0
1070
   178
1070
     4
1070
   177
1070
     4
1070
   176
1070
     4
1070
   141
1040
150.0
1070
     7
1000
_OPEN
1070
     6
1000
_OPEN
1070
    41
1040
7.0
1002
}
  0
DIMENSION
  5
3B5
330
1A
100
AcDbEntity
  8
SUNPOU
100
AcDbDimension
  2
*D4
 10
321.0806152672703
 20
131.4927202776649
 30
0.0
 11
316.0806152672703
 21
158.5427202776649
 31
0.0
 70
    32
  3
STANDARD
100
AcDbAlignedDimension
 13
362.8689986770728
 23
185.5927202776649
 33
0.0
 14
422.0188986770729
 24
131.4927202776649
 34
0.0
 50
90.0
100
AcDbRotatedDimension
1001
ACAD
1000
DSTYLE
1002
{
1070
   140
1040
6.0
1070
    74
1070
     0
1070
   172
1070
     1
1070
    73
1070
     0
1070
   272
1070
     2
1070
    77
1070
     3
1070
   173
1070
     1
1070
   147
1040
2.0
1070
    42
1040
6.0
1070
    44
1040
3.0
1070
    43
1040
14.0
1070
   271
1070
     0
1070
   178
1070
     4
1070
   177
1070
     4
1070
   176
1070
     4
1070
   141
1040
150.0
1070
     7
1000
_OPEN
1070
     6
1000
_OPEN
1070
    41
1040
7.0
1002
}
  0
TEXT
  5
3DB
330
1A
100
AcDbEntity
  8
SUNPOU
 62
     4
100
AcDbText
 10
597.1531929806032
 20
60.62614797468372
 30
0.0
 40
8.0
  1
※　テリといの差込み寸法を示す。
100
AcDbText
  0
DIMENSION
  5
3F8
330
1A
100
AcDbEntity
  8
SUNPOU
  6
CONTINUOUS
100
AcDbDimension
  2
*D5
 10
422.019098677073
 20
411.9578202776651
 30
0.0
 11
437.5326888184548
 21
367.8162336017301
 31
0.0
 70
    34
  3
STANDARD
100
AcDb2LineAngularDimension
 13
533.6793986770728
 23
386.6421202776649
 33
0.0
 14
393.9365986770728
 24
398.8684202776649
 34
0.0
 15
422.0189986770729
 25
284.324620277665
 35
0.0
 16
453.3769160213963
 26
375.7869793048727
 36
0.0
1001
ACAD
1000
DSTYLE
1002
{
1070
   271
1070
     0
1070
   271
1070
     0
1070
   140
1040
6.0
1070
    74
1070
     0
1070
   172
1070
     1
1070
    73
1070
     0
1070
   272
1070
     2
1070
    77
1070
     3
1070
   173
1070
     1
1070
   280
1070
     2
1070
   147
1040
2.0
1070
    42
1040
6.0
1070
    44
1040
3.0
1070
    43
1040
14.0
1070
   271
1070
     0
1070
   178
1070
     4
1070
   177
1070
     4
1070
   176
1070
     4
1070
   141
1040
150.0
1070
     7
1000
_OPEN
1070
     6
1000
_OPEN
1070
    41
1040
7.0
1002
}
  0
VIEWPORT
  5
22
330
17
100
AcDbEntity
 67
     1
  8
0
100
AcDbViewport
 10
313.6808219178082
 20
148.5
 30
0.0
 40
627.3616438356165
 41
297.0
 68
     2
 69
     1
1001
ACAD
1000
MVIEW
1002
{
1070
    16
1010
0.0
1020
0.0
1030
0.0
1010
0.0
1020
0.0
1030
1.0
1040
0.0
1040
297.0
1040
313.6808219178082
1040
148.5
1040
50.0
1040
0.0
1040
0.0
1070
     0
1070
   100
1070
     1
1070
     0
1070
     0
1070
     0
1070
     0
1070
     0
1040
0.0
1040
0.0
1040
0.0
1040
1.0
1040
1.0
1040
10.0
1040
10.0
1070
     0
1002
{
1002
}
1002
}
  0
VIEWPORT
  5
64
330
17
100
AcDbEntity
 67
     1
  8
VIEWPORT
100
AcDbViewport
 10
210.0
 20
148.5
 30
0.0
 40
420.0
 41
297.0
 68
     1
 69
     2
1001
ACAD
1000
MVIEW
1002
{
1070
    16
1010
0.0
1020
0.0
1030
0.0
1010
0.0
1020
0.0
1030
1.0
1040
0.0
1040
605.8799999999998
1040
420.0
1040
297.0
1040
50.0
1040
0.0
1040
0.0
1070
     0
1070
   100
1070
     1
1070
     0
1070
     0
1070
     0
1070
     0
1070
     0
1040
0.0
1040
0.0
1040
0.0
1040
10.0
1040
10.0
1040
0.0
1040
0.0
1070
     0
1002
{
1002
}
1002
}
  0
ENDSEC
  0
SECTION
  2
OBJECTS
  0
DICTIONARY
  5
C
330
0
100
AcDbDictionary
  3
ACAD_GROUP
350
D
  3
ACAD_LAYOUT
350
417
  3
ACAD_MLINESTYLE
350
E
  3
ACAD_PLOTSETTINGS
350
418
1001
ACAD
1000
TREAT_AS_HARD
1070
     0
  0
DICTIONARY
  5
446
330
1A
100
AcDbDictionary
  3
ACAD_LAYOUTSELFREF
350
45F
1001
ACAD
1000
TREAT_AS_HARD
1070
     1
  0
DICTIONARY
  5
444
330
17
100
AcDbDictionary
  3
ACAD_LAYOUTSELFREF
350
45E
1001
ACAD
1000
TREAT_AS_HARD
1070
     1
  0
DICTIONARY
  5
D
102
{ACAD_REACTORS
330
C
102
}
330
C
100
AcDbDictionary
1001
ACAD
1000
TREAT_AS_HARD
1070
     0
  0
DICTIONARY
  5
417
102
{ACAD_REACTORS
330
C
102
}
330
C
100
AcDbDictionary
1001
ACAD
1000
TREAT_AS_HARD
1070
     0
  0
DICTIONARY
  5
E
102
{ACAD_REACTORS
330
C
102
}
330
C
100
AcDbDictionary
  3
STANDARD
350
13
1001
ACAD
1000
TREAT_AS_HARD
1070
     0
  0
DICTIONARY
  5
418
102
{ACAD_REACTORS
330
C
102
}
330
C
100
AcDbDictionary
1001
ACAD
1000
TREAT_AS_HARD
1070
     0
  0
XRECORD
  5
45F
102
{ACAD_REACTORS
330
446
102
}
330
446
100
AcDbXrecord
340
1A
  0
XRECORD
  5
45E
102
{ACAD_REACTORS
330
444
102
}
330
444
100
AcDbXrecord
340
17
  0
MLINESTYLE
  5
13
102
{ACAD_REACTORS
330
E
102
}
330
E
100
AcDbMlineStyle
  2
STANDARD
 70
     0
  3

 62
     0
 51
90.0
 52
90.0
 71
     2
 49
0.5
 62
   256
  6
BYLAYER
 49
-0.5
 62
   256
  6
BYLAYER
  0
ENDSEC
  0
EOF
