  0
SECTION
  2
HEADER
  9
$ACADVER
  1
AC1012
  9
$DWGCODEPAGE
  3
dos932
  9
$INSBASE
 10
0.0
 20
0.0
 30
0.0
  9
$EXTMIN
 10
5.0
 20
2.449000558492456
 30
0.0
  9
$EXTMAX
 10
403.0
 20
282.0
 30
0.0
  9
$LIMMIN
 10
0.0
 20
0.0
  9
$LIMMAX
 10
420.0
 20
297.0
  9
$ORTHOMODE
 70
     1
  9
$REGENMODE
 70
     1
  9
$FILLMODE
 70
     1
  9
$QTEXTMODE
 70
     0
  9
$MIRRTEXT
 70
     1
  9
$DRAGMODE
 70
     2
  9
$LTSCALE
 40
1.0
  9
$OSMODE
 70
    37
  9
$ATTMODE
 70
     1
  9
$TEXTSIZE
 40
2.5
  9
$TRACEWID
 40
1.0
  9
$TEXTSTYLE
  7
STANDARD
  9
$CLAYER
  8
CENTER_L
  9
$CELTYPE
  6
BYLAYER
  9
$CECOLOR
 62
   256
  9
$CELTSCALE
 40
1.0
  9
$DELOBJ
 70
     1
  9
$DISPSILH
 70
     0
  9
$DIMSCALE
 40
1.0
  9
$DIMASZ
 40
3.0
  9
$DIMEXO
 40
3.0
  9
$DIMDLI
 40
7.0
  9
$DIMRND
 40
0.0
  9
$DIMDLE
 40
0.0
  9
$DIMEXE
 40
1.5
  9
$DIMTP
 40
0.0
  9
$DIMTM
 40
0.0
  9
$DIMTXT
 40
3.0
  9
$DIMCEN
 40
150.0
  9
$DIMTSZ
 40
0.0
  9
$DIMTOL
 70
     0
  9
$DIMLIM
 70
     0
  9
$DIMTIH
 70
     0
  9
$DIMTOH
 70
     0
  9
$DIMSE1
 70
     0
  9
$DIMSE2
 70
     0
  9
$DIMTAD
 70
     3
  9
$DIMZIN
 70
     0
  9
$DIMBLK
  1

  9
$DIMASO
 70
     1
  9
$DIMSHO
 70
     1
  9
$DIMPOST
  1

  9
$DIMAPOST
  1

  9
$DIMALT
 70
     0
  9
$DIMALTD
 70
     2
  9
$DIMALTF
 40
25.4
  9
$DIMLFAC
 40
1.0
  9
$DIMTOFL
 70
     1
  9
$DIMTVP
 40
0.0
  9
$DIMTIX
 70
     0
  9
$DIMSOXD
 70
     0
  9
$DIMSAH
 70
     1
  9
$DIMBLK1
  1
OPEN
  9
$DIMBLK2
  1
OPEN
  9
$DIMSTYLE
  2
STANDARD
  9
$DIMCLRD
 70
   256
  9
$DIMCLRE
 70
   256
  9
$DIMCLRT
 70
   256
  9
$DIMTFAC
 40
1.0
  9
$DIMGAP
 40
1.0
  9
$DIMJUST
 70
     0
  9
$DIMSD1
 70
     0
  9
$DIMSD2
 70
     0
  9
$DIMTOLJ
 70
     1
  9
$DIMTZIN
 70
     0
  9
$DIMALTZ
 70
     0
  9
$DIMALTTZ
 70
     0
  9
$DIMFIT
 70
     3
  9
$DIMUPT
 70
     0
  9
$DIMUNIT
 70
     2
  9
$DIMDEC
 70
     0
  9
$DIMTDEC
 70
     0
  9
$DIMALTU
 70
     2
  9
$DIMALTTD
 70
     2
  9
$DIMTXSTY
  7
STANDARD
  9
$DIMAUNIT
 70
     0
  9
$LUNITS
 70
     2
  9
$LUPREC
 70
     4
  9
$SKETCHINC
 40
1.0
  9
$FILLETRAD
 40
2.0
  9
$AUNITS
 70
     0
  9
$AUPREC
 70
     0
  9
$MENU
  1
.
  9
$ELEVATION
 40
0.0
  9
$PELEVATION
 40
0.0
  9
$THICKNESS
 40
0.0
  9
$LIMCHECK
 70
     0
  9
$BLIPMODE
 70
     0
  9
$CHAMFERA
 40
10.0
  9
$CHAMFERB
 40
10.0
  9
$CHAMFERC
 40
20.0
  9
$CHAMFERD
 40
0.0
  9
$SKPOLY
 70
     0
  9
$TDCREATE
 40
2451071.777472106
  9
$TDUPDATE
 40
2452393.842845451
  9
$TDINDWG
 40
0.0146322569
  9
$TDUSRTIMER
 40
0.0146322569
  9
$USRTIMER
 70
     1
  9
$ANGBASE
 50
0.0
  9
$ANGDIR
 70
     0
  9
$PDMODE
 70
     0
  9
$PDSIZE
 40
0.0
  9
$PLINEWID
 40
0.0
  9
$COORDS
 70
     1
  9
$SPLFRAME
 70
     0
  9
$SPLINETYPE
 70
     6
  9
$SPLINESEGS
 70
     8
  9
$ATTDIA
 70
     0
  9
$ATTREQ
 70
     1
  9
$HANDLING
 70
 10241
  9
$HANDSEED
  5
486
  9
$SURFTAB1
 70
     6
  9
$SURFTAB2
 70
     6
  9
$SURFTYPE
 70
     6
  9
$SURFU
 70
     6
  9
$SURFV
 70
     6
  9
$UCSNAME
  2

  9
$UCSORG
 10
0.0
 20
0.0
 30
0.0
  9
$UCSXDIR
 10
1.0
 20
0.0
 30
0.0
  9
$UCSYDIR
 10
0.0
 20
1.0
 30
0.0
  9
$PUCSNAME
  2

  9
$PUCSORG
 10
0.0
 20
0.0
 30
0.0
  9
$PUCSXDIR
 10
1.0
 20
0.0
 30
0.0
  9
$PUCSYDIR
 10
0.0
 20
1.0
 30
0.0
  9
$USERI1
 70
     0
  9
$USERI2
 70
     0
  9
$USERI3
 70
     0
  9
$USERI4
 70
     0
  9
$USERI5
 70
     0
  9
$USERR1
 40
0.0
  9
$USERR2
 40
0.0
  9
$USERR3
 40
0.0
  9
$USERR4
 40
0.0
  9
$USERR5
 40
0.0
  9
$WORLDVIEW
 70
     1
  9
$SHADEDGE
 70
     3
  9
$SHADEDIF
 70
    70
  9
$TILEMODE
 70
     1
  9
$MAXACTVP
 70
    16
  9
$PINSBASE
 10
0.0
 20
0.0
 30
0.0
  9
$PLIMCHECK
 70
     0
  9
$PEXTMIN
 10
0.0
 20
0.0
 30
0.0
  9
$PEXTMAX
 10
420.0
 20
297.0
 30
0.0
  9
$PLIMMIN
 10
0.0
 20
0.0
  9
$PLIMMAX
 10
420.0
 20
297.0
  9
$UNITMODE
 70
     0
  9
$VISRETAIN
 70
     0
  9
$PLINEGEN
 70
     0
  9
$PSLTSCALE
 70
     1
  9
$TREEDEPTH
 70
  3020
  9
$PICKSTYLE
 70
     1
  9
$CMLSTYLE
  2
STANDARD
  9
$CMLJUST
 70
     0
  9
$CMLSCALE
 40
1.0
  9
$SAVEIMAGES
 70
     1
  0
ENDSEC
  0
SECTION
  2
CLASSES
  0
CLASS
  1
ACDBDICTIONARYWDFLT
  2
AcDbDictionaryWithDefault
  3
AutoCAD 2000
 90
    32768
280
     0
281
     0
  0
CLASS
  1
ACDBPLACEHOLDER
  2
AcDbPlaceHolder
  3
AutoCAD 2000
 90
    32768
280
     0
281
     0
  0
CLASS
  1
LAYOUT
  2
AcDbLayout
  3
AutoCAD 2000
 90
    32768
280
     0
281
     0
  0
CLASS
  1
LONG_TRANSACTION
  2
AcDbLongTransaction
  3
AutoCAD 2000
 90
    32768
280
     0
281
     0
  0
CLASS
  1
LWPOLYLINE
  2
AcDbPolyline
  3
AutoCAD 2000
 90
    32768
280
     0
281
     1
  0
CLASS
  1
HATCH
  2
AcDbHatch
  3
AutoCAD 2000
 90
    32768
280
     0
281
     1
  0
CLASS
  1
XRECORD
  2
AcDbXrecord
  3
AutoCAD 2000
 90
    32768
280
     0
281
     0
  0
CLASS
  1
LONG_TRANSACTION
  2
AcDbLongTransaction
  3
AutoCAD 2000
 90
    32768
280
     0
281
     0
  0
CLASS
  1
LWPOLYLINE
  2
AcDbPolyline
  3
AutoCAD 2000
 90
    32768
280
     0
281
     1
  0
CLASS
  1
HATCH
  2
AcDbHatch
  3
AutoCAD 2000
 90
    32768
280
     0
281
     1
  0
CLASS
  1
XRECORD
  2
AcDbXrecord
  3
AutoCAD 2000
 90
    32768
280
     0
281
     0
  0
CLASS
  1
LONG_TRANSACTION
  2
AcDbLongTransaction
  3
AutoCAD 2000
 90
    32768
280
     0
281
     0
  0
CLASS
  1
LWPOLYLINE
  2
AcDbPolyline
  3
AutoCAD 2000
 90
    32768
280
     0
281
     1
  0
CLASS
  1
HATCH
  2
AcDbHatch
  3
AutoCAD 2000
 90
    32768
280
     0
281
     1
  0
CLASS
  1
XRECORD
  2
AcDbXrecord
  3
AutoCAD 2000
 90
    32768
280
     0
281
     0
  0
ENDSEC
  0
SECTION
  2
TABLES
  0
TABLE
  2
VPORT
  5
8
330
0
100
AcDbSymbolTable
 70
     2
  0
VPORT
  5
483
330
8
100
AcDbSymbolTableRecord
100
AcDbViewportTableRecord
  2
*ACTIVE
 70
     0
 10
0.0
 20
0.0
 11
1.0
 21
1.0
 12
259.9706265041426
 22
144.2991189790908
 13
0.0
 23
0.0
 14
5.0
 24
5.0
 15
0.0
 25
0.0
 16
0.0
 26
0.0
 36
1.0
 17
0.0
 27
0.0
 37
0.0
 40
296.3974997452177
 41
2.169459962756052
 42
50.0
 43
0.0
 44
0.0
 50
0.0
 51
0.0
 71
     0
 72
   100
 73
     1
 74
     0
 75
     0
 76
     0
 77
     0
 78
     0
  0
ENDTAB
  0
TABLE
  2
LTYPE
  5
5
330
0
100
AcDbSymbolTable
 70
     4
  0
LTYPE
  5
14
330
5
100
AcDbSymbolTableRecord
100
AcDbLinetypeTableRecord
  2
BYBLOCK
 70
     0
  3

 72
    65
 73
     0
 40
0.0
  0
LTYPE
  5
15
330
5
100
AcDbSymbolTableRecord
100
AcDbLinetypeTableRecord
  2
BYLAYER
 70
     0
  3

 72
    65
 73
     0
 40
0.0
  0
LTYPE
  5
16
330
5
100
AcDbSymbolTableRecord
100
AcDbLinetypeTableRecord
  2
CONTINUOUS
 70
     0
  3
Solid line
 72
    65
 73
     0
 40
0.0
  0
LTYPE
  5
120
330
5
100
AcDbSymbolTableRecord
100
AcDbLinetypeTableRecord
  2
CENTER
 70
     0
  3
____ _ ____ _ ____ _ ____ _ ____ _ ____ _ ____ 
 72
    65
 73
     4
 40
2.0
 49
1.25
 74
     0
 49
-0.25
 74
     0
 49
0.25
 74
     0
 49
-0.25
 74
     0
  0
LTYPE
  5
122
330
5
100
AcDbSymbolTableRecord
100
AcDbLinetypeTableRecord
  2
PHANTOM
 70
     0
  3
______  __  __  ______  __  __  ______  __  __ 
 72
    65
 73
     6
 40
2.5
 49
1.25
 74
     0
 49
-0.25
 74
     0
 49
0.25
 74
     0
 49
-0.25
 74
     0
 49
0.25
 74
     0
 49
-0.25
 74
     0
  0
LTYPE
  5
12B
330
5
100
AcDbSymbolTableRecord
100
AcDbLinetypeTableRecord
  2
DASHED
 70
     0
  3
__ __ __ __ __ __ __ __ __ __ __ __ __ __ __ __
 72
    65
 73
     2
 40
0.75
 49
0.5
 74
     0
 49
-0.25
 74
     0
  0
ENDTAB
  0
TABLE
  2
LAYER
  5
2
330
0
100
AcDbSymbolTable
 70
     7
  0
LAYER
  5
F
330
2
100
AcDbSymbolTableRecord
100
AcDbLayerTableRecord
  2
0
 70
     0
 62
     7
  6
CONTINUOUS
  0
LAYER
  5
62
330
2
100
AcDbSymbolTableRecord
100
AcDbLayerTableRecord
  2
VIEWPORT
 70
     0
 62
     7
  6
CONTINUOUS
  0
LAYER
  5
6B
330
2
100
AcDbSymbolTableRecord
100
AcDbLayerTableRecord
  2
ZUWAKU
 70
     0
 62
     7
  6
CONTINUOUS
  0
LAYER
  5
134
330
2
100
AcDbSymbolTableRecord
100
AcDbLayerTableRecord
  2
SEIHIN
 70
     0
 62
     3
  6
CONTINUOUS
  0
LAYER
  5
135
330
2
100
AcDbSymbolTableRecord
100
AcDbLayerTableRecord
  2
SUNPOU
 70
     0
 62
     4
  6
CONTINUOUS
  0
LAYER
  5
136
330
2
100
AcDbSymbolTableRecord
100
AcDbLayerTableRecord
  2
CENTER_L
 70
     0
 62
     1
  6
CENTER
  0
LAYER
  5
3A7
330
2
100
AcDbSymbolTableRecord
100
AcDbLayerTableRecord
  2
DEFPOINTS
 70
     0
 62
     7
  6
CONTINUOUS
  0
ENDTAB
  0
TABLE
  2
STYLE
  5
3
330
0
100
AcDbSymbolTable
 70
     1
  0
STYLE
  5
10
330
3
100
AcDbSymbolTableRecord
100
AcDbTextStyleTableRecord
  2
STANDARD
 70
     0
 40
0.0
 41
1.0
 50
0.0
 71
     0
 42
2.5
  3
TXT
  4
bigfont.shx
  0
ENDTAB
  0
TABLE
  2
VIEW
  5
6
330
0
100
AcDbSymbolTable
 70
     0
  0
ENDTAB
  0
TABLE
  2
UCS
  5
7
330
0
100
AcDbSymbolTable
 70
     0
  0
ENDTAB
  0
TABLE
  2
APPID
  5
9
330
0
100
AcDbSymbolTable
 70
     1
  0
APPID
  5
11
330
9
100
AcDbSymbolTableRecord
100
AcDbRegAppTableRecord
  2
ACAD
 70
     0
  0
ENDTAB
  0
TABLE
  2
DIMSTYLE
  5
A
330
0
100
AcDbSymbolTable
 70
     8
  0
DIMSTYLE
105
1D
102
{ACAD_REACTORS
330
3AC
330
3BC
330
3C9
330
3D6
330
3E7
102
}
330
A
100
AcDbSymbolTableRecord
100
AcDbDimStyleTableRecord
  2
STANDARD
 70
     0
  3

  4

  5

  6

  7

 40
1.0
 41
0.18
 42
0.0625
 43
0.38
 44
0.18
 45
0.0
 46
0.0
 47
0.0
 48
0.0
140
0.18
141
0.09
142
0.0
143
25.4
144
1.0
145
0.0
146
1.0
147
0.09
 71
     0
 72
     0
 73
     1
 74
     1
 75
     0
 76
     0
 77
     0
 78
     0
170
     0
171
     2
172
     0
173
     0
174
     0
175
     0
176
     0
177
     0
178
     0
270
     2
271
     4
272
     4
273
     2
274
     2
340
10
275
     0
280
     0
281
     0
282
     0
283
     1
284
     0
285
     0
286
     0
287
     3
288
     0
  0
DIMSTYLE
105
24
330
A
100
AcDbSymbolTableRecord
100
AcDbDimStyleTableRecord
  2
ISO-25
 70
     0
  3

  4

  5

  6

  7

 40
1.0
 41
2.5
 42
0.625
 43
3.75
 44
1.25
 45
0.0
 46
0.0
 47
0.0
 48
0.0
140
2.5
141
2.5
142
0.0
143
0.0394
144
1.0
145
1.0
146
1.0
147
0.625
 71
     0
 72
     0
 73
     1
 74
     0
 75
     0
 76
     0
 77
     1
 78
     8
170
     0
171
     2
172
     1
173
     0
174
     0
175
     0
176
     0
177
     0
178
     0
270
     2
271
     4
272
     4
273
     2
274
     2
340
10
275
     0
280
     0
281
     0
282
     0
283
     1
284
     0
285
     0
286
     0
287
     3
288
     0
  0
DIMSTYLE
105
25
330
A
100
AcDbSymbolTableRecord
100
AcDbDimStyleTableRecord
  2
ISO-35
 70
     0
  3

  4

  5

  6

  7

 40
1.0
 41
3.5
 42
0.875
 43
5.25
 44
1.75
 45
0.0
 46
0.0
 47
0.0
 48
0.0
140
3.5
141
3.5
142
0.0
143
0.0394
144
1.0
145
1.399999999999999
146
1.0
147
0.875
 71
     0
 72
     0
 73
     1
 74
     0
 75
     0
 76
     0
 77
     1
 78
     8
170
     0
171
     2
172
     1
173
     0
174
     0
175
     0
176
     0
177
     0
178
     0
270
     2
271
     4
272
     4
273
     2
274
     2
340
10
275
     0
280
     0
281
     0
282
     0
283
     1
284
     0
285
     0
286
     0
287
     3
288
     0
  0
DIMSTYLE
105
26
330
A
100
AcDbSymbolTableRecord
100
AcDbDimStyleTableRecord
  2
ISO-5
 70
     0
  3

  4

  5

  6

  7

 40
1.0
 41
5.0
 42
1.25
 43
7.5
 44
2.5
 45
0.0
 46
0.0
 47
0.0
 48
0.0
140
5.0
141
5.0
142
0.0
143
0.0394
144
1.0
145
2.0
146
1.0
147
1.25
 71
     0
 72
     0
 73
     1
 74
     0
 75
     0
 76
     0
 77
     1
 78
     8
170
     0
171
     2
172
     1
173
     0
174
     0
175
     0
176
     0
177
     0
178
     0
270
     2
271
     4
272
     4
273
     2
274
     2
340
10
275
     0
280
     0
281
     0
282
     0
283
     1
284
     0
285
     0
286
     0
287
     3
288
     0
  0
DIMSTYLE
105
27
330
A
100
AcDbSymbolTableRecord
100
AcDbDimStyleTableRecord
  2
ISO-7
 70
     0
  3

  4

  5

  6

  7

 40
1.0
 41
7.0
 42
1.75
 43
10.5
 44
3.5
 45
0.0
 46
0.0
 47
0.0
 48
0.0
140
7.0
141
7.0
142
0.0
143
0.0394
144
1.0
145
2.799999999999999
146
1.0
147
1.75
 71
     0
 72
     0
 73
     1
 74
     0
 75
     0
 76
     0
 77
     1
 78
     8
170
     0
171
     2
172
     1
173
     0
174
     0
175
     0
176
     0
177
     0
178
     0
270
     2
271
     4
272
     4
273
     2
274
     2
340
10
275
     0
280
     0
281
     0
282
     0
283
     1
284
     0
285
     0
286
     0
287
     3
288
     0
  0
DIMSTYLE
105
28
330
A
100
AcDbSymbolTableRecord
100
AcDbDimStyleTableRecord
  2
ISO1
 70
     0
  3

  4

  5

  6

  7

 40
1.0
 41
10.0
 42
2.5
 43
15.0
 44
5.0
 45
0.0
 46
0.0
 47
0.0
 48
0.0
140
10.0
141
10.0
142
0.0
143
0.0394
144
1.0
145
4.0
146
1.0
147
2.5
 71
     0
 72
     0
 73
     1
 74
     0
 75
     0
 76
     0
 77
     1
 78
     8
170
     0
171
     2
172
     1
173
     0
174
     0
175
     0
176
     0
177
     0
178
     0
270
     2
271
     4
272
     4
273
     2
274
     2
340
10
275
     0
280
     0
281
     0
282
     0
283
     1
284
     0
285
     0
286
     0
287
     3
288
     0
  0
DIMSTYLE
105
29
330
A
100
AcDbSymbolTableRecord
100
AcDbDimStyleTableRecord
  2
ISO1-4
 70
     0
  3

  4

  5

  6

  7

 40
1.0
 41
14.0
 42
3.5
 43
21.0
 44
7.0
 45
0.0
 46
0.0
 47
0.0
 48
0.0
140
14.0
141
14.0
142
0.0
143
0.0394
144
1.0
145
5.599999999999999
146
1.0
147
3.5
 71
     0
 72
     0
 73
     1
 74
     0
 75
     0
 76
     0
 77
     1
 78
     8
170
     0
171
     2
172
     1
173
     0
174
     0
175
     0
176
     0
177
     0
178
     0
270
     2
271
     4
272
     4
273
     2
274
     2
340
10
275
     0
280
     0
281
     0
282
     0
283
     1
284
     0
285
     0
286
     0
287
     3
288
     0
  0
DIMSTYLE
105
2A
330
A
100
AcDbSymbolTableRecord
100
AcDbDimStyleTableRecord
  2
ISO2
 70
     0
  3

  4

  5

  6

  7

 40
1.0
 41
20.0
 42
5.0
 43
30.0
 44
10.0
 45
0.0
 46
0.0
 47
0.0
 48
0.0
140
20.0
141
20.0
142
0.0
143
0.0394
144
1.0
145
8.0
146
1.0
147
5.0
 71
     0
 72
     0
 73
     1
 74
     0
 75
     0
 76
     0
 77
     1
 78
     8
170
     0
171
     2
172
     1
173
     0
174
     0
175
     0
176
     0
177
     0
178
     0
270
     2
271
     4
272
     4
273
     2
274
     2
340
10
275
     0
280
     0
281
     0
282
     0
283
     1
284
     0
285
     0
286
     0
287
     3
288
     0
  0
ENDTAB
  0
TABLE
  2
BLOCK_RECORD
  5
1
330
0
100
AcDbSymbolTable
 70
     8
  0
BLOCK_RECORD
  5
1A
102
{ACAD_XDICTIONARY
360
440
102
}
330
1
100
AcDbSymbolTableRecord
100
AcDbBlockTableRecord
  2
*MODEL_SPACE
  0
BLOCK_RECORD
  5
17
102
{ACAD_XDICTIONARY
360
43E
102
}
330
1
100
AcDbSymbolTableRecord
100
AcDbBlockTableRecord
  2
*PAPER_SPACE
  0
BLOCK_RECORD
  5
70
330
1
100
AcDbSymbolTableRecord
100
AcDbBlockTableRecord
  2
A$C13B5
  0
BLOCK_RECORD
  5
B2
330
1
100
AcDbSymbolTableRecord
100
AcDbBlockTableRecord
  2
_OPEN
  0
BLOCK_RECORD
  5
137
330
1
100
AcDbSymbolTableRecord
100
AcDbBlockTableRecord
  2
A$C7181
  0
BLOCK_RECORD
  5
39F
330
1
100
AcDbSymbolTableRecord
100
AcDbBlockTableRecord
  2
*D3
  0
BLOCK_RECORD
  5
3B0
330
1
100
AcDbSymbolTableRecord
100
AcDbBlockTableRecord
  2
*D4
  0
BLOCK_RECORD
  5
3BD
330
1
100
AcDbSymbolTableRecord
100
AcDbBlockTableRecord
  2
*D5
  0
BLOCK_RECORD
  5
3CA
330
1
100
AcDbSymbolTableRecord
100
AcDbBlockTableRecord
  2
*D6
  0
BLOCK_RECORD
  5
3D9
330
1
100
AcDbSymbolTableRecord
100
AcDbBlockTableRecord
  2
*D7
  0
ENDTAB
  0
ENDSEC
  0
SECTION
  2
BLOCKS
  0
BLOCK
  5
1B
330
1A
100
AcDbEntity
  8
0
100
AcDbBlockBegin
  2
*MODEL_SPACE
 70
     0
 10
0.0
 20
0.0
 30
0.0
  3
*MODEL_SPACE
  1

  0
ENDBLK
  5
1C
330
1A
100
AcDbEntity
  8
0
100
AcDbBlockEnd
  0
BLOCK
  5
18
330
17
100
AcDbEntity
 67
     1
  8
0
100
AcDbBlockBegin
  2
*PAPER_SPACE
 70
     0
 10
0.0
 20
0.0
 30
0.0
  3
*PAPER_SPACE
  1

  0
ENDBLK
  5
19
330
17
100
AcDbEntity
 67
     1
  8
0
100
AcDbBlockEnd
  0
BLOCK
  5
8A
330
70
100
AcDbEntity
  8
0
100
AcDbBlockBegin
  2
A$C13B5
 70
     0
 10
0.0
 20
0.0
 30
0.0
  3
A$C13B5
  1

  0
LINE
  5
71
330
70
100
AcDbEntity
  8
ZUWAKU
 62
     4
 48
10.0
100
AcDbLine
 10
1.288909537446727
 20
14.55345049516773
 30
0.0
 11
389.2889095374467
 21
14.55345049516768
 31
0.0
  0
LINE
  5
72
330
70
100
AcDbEntity
  8
ZUWAKU
 62
     6
 48
10.0
100
AcDbLine
 10
1.288909537446727
 20
6.553450495167737
 30
0.0
 11
389.2889095374467
 21
6.553450495167737
 31
0.0
  0
LINE
  5
73
330
70
100
AcDbEntity
  8
ZUWAKU
 62
     6
 48
10.0
100
AcDbLine
 10
1.288909537446727
 20
282.5534504951677
 30
0.0
 11
389.2889095374466
 21
282.5534504951676
 31
0.0
  0
LINE
  5
74
330
70
100
AcDbEntity
  8
ZUWAKU
 62
     6
 48
10.0
100
AcDbLine
 10
1.288909537446727
 20
6.553450495167737
 30
0.0
 11
1.288909537446727
 21
282.5534504951677
 31
0.0
  0
TEXT
  5
75
330
70
100
AcDbEntity
  8
ZUWAKU
100
AcDbText
 10
27.01140845066024
 20
7.713688301955187
 30
0.0
 40
6.0
  1
たてとい ｱｰﾊﾞﾝﾄｯﾌﾟ 
100
AcDbText
  0
TEXT
  5
76
330
70
100
AcDbEntity
  8
ZUWAKU
100
AcDbText
 10
5.016931864020591
 20
7.42362867277842
 30
0.0
 40
6.0
  1
品 名
100
AcDbText
  0
LINE
  5
77
330
70
100
AcDbEntity
  8
ZUWAKU
 62
     4
 48
10.0
100
AcDbLine
 10
23.28890953744672
 20
6.553450495167737
 30
0.0
 11
23.28890953744672
 21
14.55345049516773
 31
0.0
  0
LINE
  5
78
330
70
100
AcDbEntity
  8
ZUWAKU
 62
     4
 48
10.0
100
AcDbLine
 10
200.2889095374467
 20
6.553450495167737
 30
0.0
 11
200.2889095374467
 21
14.55345049516773
 31
0.0
  0
LINE
  5
79
330
70
100
AcDbEntity
  8
ZUWAKU
 62
     6
 48
10.0
100
AcDbLine
 10
170.2889095374467
 20
6.553450495167737
 30
0.0
 11
170.2889095374467
 21
14.55345049516773
 31
0.0
  0
TEXT
  5
7A
330
70
100
AcDbEntity
  8
ZUWAKU
100
AcDbText
 10
176.0849013274096
 20
7.75394793026868
 30
0.0
 40
6.0
  1
ｻ ｲ ｽﾞ
100
AcDbText
  0
LINE
  5
7B
330
70
100
AcDbEntity
  8
ZUWAKU
 62
     6
 48
10.0
100
AcDbLine
 10
389.2889095374467
 20
282.5534504951677
 30
0.0
 11
389.2889095374467
 21
6.553450495167737
 31
0.0
  0
TEXT
  5
7C
330
70
100
AcDbEntity
  8
ZUWAKU
100
AcDbText
 10
204.037089117081
 20
7.483365856018338
 30
0.0
 40
6.0
  1
MY60
100
AcDbText
  0
LINE
  5
7D
330
70
100
AcDbEntity
  8
ZUWAKU
 62
     4
 48
10.0
100
AcDbLine
 10
302.2889095374467
 20
6.553450495167624
 30
0.0
 11
302.2889095374467
 21
14.55345049516773
 31
0.0
  0
LINE
  5
7E
330
70
100
AcDbEntity
  8
ZUWAKU
 62
     6
 48
10.0
100
AcDbLine
 10
280.2889095374467
 20
6.553450495167624
 30
0.0
 11
280.2889095374467
 21
14.55345049516773
 31
0.0
  0
TEXT
  5
7F
330
70
100
AcDbEntity
  8
ZUWAKU
100
AcDbText
 10
283.0671879169738
 20
7.488111900969613
 30
0.0
 40
6.0
  1
品 番
100
AcDbText
  0
TEXT
  5
80
330
70
100
AcDbEntity
  8
ZUWAKU
100
AcDbText
 10
305.435780230139
 20
7.613597276414054
 30
0.0
 40
6.0
  1
C
100
AcDbText
  0
TEXT
  5
81
330
70
100
AcDbEntity
  8
ZUWAKU
 62
     6
 48
10.0
100
AcDbText
 10
287.5750180087266
 20
1.264336022576742
 30
0.0
 40
4.0
  1
積水化学工業株式会社
100
AcDbText
  0
TEXT
  5
82
330
70
100
AcDbEntity
  8
ZUWAKU
100
AcDbText
 10
378.9143972244913
 20
7.28414306680321
 30
0.0
 40
6.0
  1
1
100
AcDbText
  0
LINE
  5
83
330
70
100
AcDbEntity
  8
ZUWAKU
 62
     6
 48
10.0
100
AcDbLine
 10
363.2889095374467
 20
6.553450495167624
 30
0.0
 11
363.2889095374467
 21
14.55345049516773
 31
0.0
  0
TEXT
  5
84
330
70
100
AcDbEntity
  8
ZUWAKU
100
AcDbText
 10
366.7712800492436
 20
7.439601954164061
 30
0.0
 40
6.0
  1
1
100
AcDbText
  0
TEXT
  5
85
330
70
100
AcDbEntity
  8
ZUWAKU
100
AcDbText
 10
343.2307409172756
 20
7.283296132810676
 30
0.0
 40
6.0
  1
尺 度
100
AcDbText
  0
LINE
  5
86
330
70
100
AcDbEntity
  8
ZUWAKU
 62
     6
 48
10.0
100
AcDbLine
 10
340.2889095374467
 20
6.553450495167624
 30
0.0
 11
340.2889095374467
 21
14.55345049516773
 31
0.0
  0
LINE
  5
87
330
70
100
AcDbEntity
  8
ZUWAKU
 62
     4
100
AcDbLine
 10
375.8063876295765
 20
13.2465143593065
 30
0.0
 11
371.5781694695176
 21
7.361027351289919
 31
0.0
  0
TEXT
  5
88
330
70
100
AcDbEntity
  8
ZUWAKU
 62
     6
 48
10.0
100
AcDbText
 10
341.4974857461839
 20
1.41668541775158
 30
0.0
 40
4.0
  1
建材
100
AcDbText
  0
TEXT
  5
89
330
70
100
AcDbEntity
  8
ZUWAKU
 62
     6
 48
10.0
100
AcDbText
 10
380.7768613132437
 20
1.181327481845247
 30
0.0
 40
4.0
  1
A3
100
AcDbText
  0
ENDBLK
  5
8B
330
70
100
AcDbEntity
  8
0
100
AcDbBlockEnd
  0
BLOCK
  5
B3
330
B2
100
AcDbEntity
  8
0
100
AcDbBlockBegin
  2
_OPEN
 70
     0
 10
0.0
 20
0.0
 30
0.0
  3
_OPEN
  1

  0
LINE
  5
B4
330
B2
100
AcDbEntity
  8
0
  6
BYBLOCK
 62
     0
100
AcDbLine
 10
-1.0
 20
0.1666666666666666
 30
0.0
 11
0.0
 21
0.0
 31
0.0
  0
LINE
  5
B5
330
B2
100
AcDbEntity
  8
0
  6
BYBLOCK
 62
     0
100
AcDbLine
 10
0.0
 20
0.0
 30
0.0
 11
-1.0
 21
-0.1666666666666666
 31
0.0
  0
LINE
  5
B6
330
B2
100
AcDbEntity
  8
0
  6
BYBLOCK
 62
     0
100
AcDbLine
 10
0.0
 20
0.0
 30
0.0
 11
-1.0
 21
0.0
 31
0.0
  0
ENDBLK
  5
B7
330
B2
100
AcDbEntity
  8
0
100
AcDbBlockEnd
  0
BLOCK
  5
268
330
137
100
AcDbEntity
  8
0
100
AcDbBlockBegin
  2
A$C7181
 70
     0
 10
0.0
 20
0.0
 30
0.0
  3
A$C7181
  1

  0
LINE
  5
138
330
137
100
AcDbEntity
  8
SUNPOU
  6
CONTINUOUS
 62
     4
 48
8.0
100
AcDbLine
 10
206.3192619236829
 20
161.1532809671988
 30
0.0
 11
200.5237619236829
 21
159.6003809671988
 31
0.0
  0
LINE
  5
139
330
137
100
AcDbEntity
  8
SUNPOU
  6
CONTINUOUS
 62
     4
 48
8.0
100
AcDbLine
 10
206.3192619236829
 20
161.1532809671988
 30
0.0
 11
200.5237619236829
 21
162.7061809671989
 31
0.0
  0
LINE
  5
13A
330
137
100
AcDbEntity
  8
SUNPOU
  6
CONTINUOUS
 62
     4
 48
8.0
100
AcDbLine
 10
145.6192619236829
 20
161.1532809671988
 30
0.0
 11
206.3192619236829
 21
161.1532809671988
 31
0.0
  0
ARC
  5
13B
330
137
100
AcDbEntity
  8
SEIHIN
  6
CONTINUOUS
 62
     3
 48
8.0
100
AcDbCircle
 10
208.2896619236829
 20
129.4372809671988
 30
0.0
 40
11.000012
100
AcDbArc
 50
199.4145509999999
 51
255.573649
  0
ARC
  5
13C
330
137
100
AcDbEntity
  8
SEIHIN
  6
CONTINUOUS
 62
     3
 48
8.0
100
AcDbCircle
 10
208.077761923683
 20
65.27248096719889
 30
0.0
 40
10.99997299999999
100
AcDbArc
 50
103.2896119999999
 51
166.7103879999999
  0
LINE
  5
13D
330
137
100
AcDbEntity
  8
SUNPOU
  6
CONTINUOUS
 62
     4
 48
8.0
100
AcDbLine
 10
142.6192619236829
 20
173.3473809671988
 30
0.0
 11
213.3193619236829
 21
173.3473809671988
 31
0.0
  0
ARC
  5
13E
330
137
100
AcDbEntity
  8
SEIHIN
  6
CONTINUOUS
 62
     3
 48
8.0
100
AcDbCircle
 10
208.2643619236829
 20
129.5085809671989
 30
0.0
 40
9.000000999999999
100
AcDbArc
 50
199.954062
 51
270.0
  0
ARC
  5
13F
330
137
100
AcDbEntity
  8
SEIHIN
  6
CONTINUOUS
 62
     3
 48
8.0
100
AcDbCircle
 10
208.077761923683
 20
65.27248096719889
 30
0.0
 40
7.999975999999999
100
AcDbArc
 50
93.95371099999998
 51
163.148808
  0
ARC
  5
140
330
137
100
AcDbEntity
  8
SEIHIN
  6
CONTINUOUS
 62
     3
 48
8.0
100
AcDbCircle
 10
208.077761923683
 20
65.27248096719889
 30
0.0
 40
8.999940999999999
100
AcDbArc
 50
93.95403400000001
 51
163.148617
  0
ARC
  5
141
330
137
100
AcDbEntity
  8
SEIHIN
  6
CONTINUOUS
 62
     3
 48
8.0
100
AcDbCircle
 10
208.2643619236829
 20
129.5085809671989
 30
0.0
 40
7.999978999999999
100
AcDbArc
 50
199.953919
 51
270.0
  0
LINE
  5
142
330
137
100
AcDbEntity
  8
SEIHIN
  6
CONTINUOUS
 62
     3
 48
8.0
100
AcDbLine
 10
213.3190619236829
 20
208.3811809671988
 30
0.0
 11
143.6191619236829
 21
208.3809809671988
 31
0.0
  0
LINE
  5
143
330
137
100
AcDbEntity
  8
SEIHIN
  6
CONTINUOUS
 62
     3
 48
8.0
100
AcDbLine
 10
213.318961923683
 20
210.8811809671988
 30
0.0
 11
197.6193619236829
 21
210.8810809671989
 31
0.0
  0
LINE
  5
144
330
137
100
AcDbEntity
  8
CENTER_L
  6
CENTER
 62
     1
 48
5.0
100
AcDbLine
 10
221.5722619236829
 20
217.3811809671988
 30
0.0
 11
132.6191619236829
 21
217.3809809671988
 31
0.0
  0
LINE
  5
145
330
137
100
AcDbEntity
  8
SEIHIN
  6
CONTINUOUS
 62
     3
 48
8.0
100
AcDbLine
 10
213.3193619236829
 20
226.3810809671988
 30
0.0
 11
143.6191619236829
 21
226.3810809671988
 31
0.0
  0
LINE
  5
146
330
137
100
AcDbEntity
  8
SEIHIN
  6
CONTINUOUS
 62
     3
 48
8.0
100
AcDbLine
 10
213.3191619236829
 20
223.8810809671988
 30
0.0
 11
197.6193619236829
 21
223.8810809671988
 31
0.0
  0
LINE
  5
147
330
137
100
AcDbEntity
  8
CENTER_L
  6
CENTER
 62
     1
 48
5.0
100
AcDbLine
 10
220.3985619236829
 20
97.38098096719888
 30
0.0
 11
135.7487619236829
 21
97.38108096719889
 31
0.0
  0
TEXT
  5
148
330
137
100
AcDbEntity
  8
ZUWAKU
 62
     7
100
AcDbText
 10
133.3136289407955
 20
5.997614574863794
 30
0.0
 40
4.0
  1
ブラケットデンデン（直）　Ｙ６０
100
AcDbText
  0
LINE
  5
149
330
137
100
AcDbEntity
  8
SUNPOU
  6
CONTINUOUS
 62
     4
 48
8.0
100
AcDbLine
 10
72.53426192368298
 20
142.2311809671988
 30
0.0
 11
72.53426192368298
 21
156.4635809671988
 31
0.0
  0
LINE
  5
14A
330
137
100
AcDbEntity
  8
SUNPOU
  6
CONTINUOUS
 62
     4
 48
8.0
100
AcDbLine
 10
54.53416192368297
 20
142.2311809671988
 30
0.0
 11
54.53416192368297
 21
156.4635809671988
 31
0.0
  0
LINE
  5
14B
330
137
100
AcDbEntity
  8
SUNPOU
  6
CONTINUOUS
 62
     4
 48
8.0
100
AcDbLine
 10
145.6192619236829
 20
121.0447809671988
 30
0.0
 11
145.6192619236829
 21
165.1532809671989
 31
0.0
  0
LINE
  5
14C
330
137
100
AcDbEntity
  8
SUNPOU
  6
CONTINUOUS
 62
     4
 48
8.0
100
AcDbLine
 10
142.6192619236829
 20
122.6311809671988
 30
0.0
 11
142.6192619236829
 21
165.1532809671989
 31
0.0
  0
LINE
  5
14D
330
137
100
AcDbEntity
  8
SUNPOU
  6
CONTINUOUS
 62
     4
 48
8.0
100
AcDbLine
 10
145.6192619236829
 20
121.0447809671988
 30
0.0
 11
145.6192619236829
 21
165.1532809671989
 31
0.0
  0
LINE
  5
14E
330
137
100
AcDbEntity
  8
SUNPOU
  6
CONTINUOUS
 62
     4
 48
8.0
100
AcDbLine
 10
142.6192619236829
 20
122.6311809671988
 30
0.0
 11
142.6192619236829
 21
177.3473809671988
 31
0.0
  0
LINE
  5
14F
330
137
100
AcDbEntity
  8
SEIHIN
  6
CONTINUOUS
 62
     3
 48
8.0
100
AcDbLine
 10
72.53426192368298
 20
138.2311809671989
 30
0.0
 11
54.53436192368298
 21
138.2311809671989
 31
0.0
  0
LINE
  5
150
330
137
100
AcDbEntity
  8
SEIHIN
  6
CONTINUOUS
 62
     3
 48
8.0
100
AcDbLine
 10
72.53426192368298
 20
129.2311809671988
 30
0.0
 11
70.03426192368298
 21
130.7311809671988
 31
0.0
  0
LINE
  5
151
330
137
100
AcDbEntity
  8
SEIHIN
  6
CONTINUOUS
 62
     3
 48
8.0
100
AcDbLine
 10
72.53426192368298
 20
120.0926809671988
 30
0.0
 11
70.03426192368298
 21
121.5926809671988
 31
0.0
  0
LINE
  5
152
330
137
100
AcDbEntity
  8
SEIHIN
  6
CONTINUOUS
 62
     3
 48
8.0
100
AcDbLine
 10
72.53426192368298
 20
136.2313809671989
 30
0.0
 11
54.53426192368297
 21
136.2313809671989
 31
0.0
  0
LINE
  5
153
330
137
100
AcDbEntity
  8
CENTER_L
  6
CENTER
 62
     1
 48
5.0
100
AcDbLine
 10
50.68076192368298
 20
97.38118096719889
 30
0.0
 11
76.08056192368298
 21
97.38118096719889
 31
0.0
  0
LINE
  5
154
330
137
100
AcDbEntity
  8
SEIHIN
  6
CONTINUOUS
 62
     3
 48
8.0
100
AcDbLine
 10
70.03426192368298
 20
73.16978096719889
 30
0.0
 11
72.53426192368298
 21
74.66978096719889
 31
0.0
  0
LINE
  5
155
330
137
100
AcDbEntity
  8
SEIHIN
  6
CONTINUOUS
 62
     3
 48
8.0
100
AcDbLine
 10
70.03426192368298
 20
64.03118096719889
 30
0.0
 11
72.53426192368298
 21
65.53118096719889
 31
0.0
  0
LINE
  5
156
330
137
100
AcDbEntity
  8
SEIHIN
  6
CONTINUOUS
 62
     3
 48
8.0
100
AcDbLine
 10
70.03426192368298
 20
56.5310809671989
 30
0.0
 11
72.53426192368298
 21
58.03108096719889
 31
0.0
  0
TEXT
  5
157
330
137
100
AcDbEntity
  8
ZUWAKU
 62
     7
100
AcDbText
 10
17.33302656034595
 20
6.227937020800643
 30
0.0
 40
4.0
  1
ライナートップ　たてとい
100
AcDbText
  0
LINE
  5
158
330
137
100
AcDbEntity
  8
CENTER_L
  6
CENTER
 62
     1
 48
5.0
100
AcDbLine
 10
63.53436192368298
 20
142.5881809671988
 30
0.0
 11
63.53416192368297
 21
52.36478096719888
 31
0.0
  0
TEXT
  5
159
330
137
100
AcDbEntity
  8
ZUWAKU
 62
     7
100
AcDbText
 10
0.185440200996311
 20
5.937877391623876
 30
0.0
 40
4.0
  1
品 種
100
AcDbText
  0
LINE
  5
15A
330
137
100
AcDbEntity
  8
ZUWAKU
 62
     7
 48
10.0
100
AcDbLine
 10
14.43604506083085
 20
5.067699214013194
 30
0.0
 11
14.43604506083085
 21
11.06769921401319
 31
0.0
  0
LINE
  5
15B
330
137
100
AcDbEntity
  8
SEIHIN
  6
CONTINUOUS
 62
     3
 48
8.0
100
AcDbLine
 10
70.03426192368298
 20
130.7310809671989
 30
0.0
 11
70.03426192368298
 21
56.5310809671989
 31
0.0
  0
LINE
  5
15C
330
137
100
AcDbEntity
  8
SEIHIN
  6
CONTINUOUS
 62
     3
 48
8.0
100
AcDbLine
 10
57.03416192368297
 20
130.7310809671989
 30
0.0
 11
57.03416192368297
 21
56.53098096719889
 31
0.0
  0
LINE
  5
15D
330
137
100
AcDbEntity
  8
SEIHIN
  6
CONTINUOUS
 62
     3
 48
8.0
100
AcDbLine
 10
54.53426192368297
 20
58.0311809671989
 30
0.0
 11
54.53416192368297
 21
138.2311809671989
 31
0.0
  0
LINE
  5
15E
330
137
100
AcDbEntity
  8
SEIHIN
  6
CONTINUOUS
 62
     3
 48
8.0
100
AcDbLine
 10
54.53426192368297
 20
65.53118096719889
 30
0.0
 11
57.03416192368297
 21
64.03118096719889
 31
0.0
  0
LINE
  5
15F
330
137
100
AcDbEntity
  8
SEIHIN
  6
CONTINUOUS
 62
     3
 48
8.0
100
AcDbLine
 10
67.03426192368297
 20
62.54408096719887
 30
0.0
 11
60.03426192368298
 21
62.54408096719887
 31
0.0
  0
LINE
  5
160
330
137
100
AcDbEntity
  8
SEIHIN
  6
CONTINUOUS
 62
     3
 48
8.0
100
AcDbLine
 10
70.03416192368297
 20
64.03118096719889
 30
0.0
 11
57.03416192368297
 21
64.03118096719889
 31
0.0
  0
LINE
  5
161
330
137
100
AcDbEntity
  8
SEIHIN
  6
CONTINUOUS
 62
     3
 48
8.0
100
AcDbLine
 10
70.03416192368297
 20
56.5310809671989
 30
0.0
 11
57.03406192368297
 21
56.5310809671989
 31
0.0
  0
LINE
  5
162
330
137
100
AcDbEntity
  8
SEIHIN
  6
CONTINUOUS
 62
     3
 48
8.0
100
AcDbLine
 10
54.53426192368297
 20
58.0311809671989
 30
0.0
 11
57.03416192368297
 21
56.5310809671989
 31
0.0
  0
LINE
  5
163
330
137
100
AcDbEntity
  8
SEIHIN
  6
CONTINUOUS
 62
     3
 48
8.0
100
AcDbLine
 10
60.03426192368298
 20
62.54398096719889
 30
0.0
 11
60.03426192368298
 21
64.03108096719889
 31
0.0
  0
LINE
  5
164
330
137
100
AcDbEntity
  8
SEIHIN
  6
CONTINUOUS
 62
     3
 48
8.0
100
AcDbLine
 10
67.03426192368297
 20
62.54398096719889
 30
0.0
 11
67.03426192368297
 21
64.03108096719889
 31
0.0
  0
LINE
  5
165
330
137
100
AcDbEntity
  8
SEIHIN
  6
CONTINUOUS
 62
     3
 48
8.0
100
AcDbLine
 10
70.03416192368297
 20
73.16978096719889
 30
0.0
 11
57.03416192368297
 21
73.16978096719889
 31
0.0
  0
LINE
  5
166
330
137
100
AcDbEntity
  8
SEIHIN
  6
CONTINUOUS
 62
     3
 48
8.0
100
AcDbLine
 10
54.53426192368297
 20
74.66978096719889
 30
0.0
 11
57.03416192368297
 21
73.16978096719889
 31
0.0
  0
LINE
  5
167
330
137
100
AcDbEntity
  8
SEIHIN
  6
CONTINUOUS
 62
     3
 48
8.0
100
AcDbLine
 10
70.03426192368298
 20
121.5926809671988
 30
0.0
 11
57.03416192368297
 21
121.5926809671988
 31
0.0
  0
LINE
  5
168
330
137
100
AcDbEntity
  8
SEIHIN
  6
CONTINUOUS
 62
     3
 48
8.0
100
AcDbLine
 10
57.03416192368297
 20
121.5926809671988
 30
0.0
 11
54.53416192368297
 21
120.0926809671988
 31
0.0
  0
LINE
  5
169
330
137
100
AcDbEntity
  8
SEIHIN
  6
CONTINUOUS
 62
     3
 48
8.0
100
AcDbLine
 10
70.03426192368298
 20
130.7311809671988
 30
0.0
 11
57.03426192368297
 21
130.7311809671988
 31
0.0
  0
LINE
  5
16A
330
137
100
AcDbEntity
  8
SEIHIN
  6
CONTINUOUS
 62
     3
 48
8.0
100
AcDbLine
 10
57.03426192368297
 20
130.7311809671988
 30
0.0
 11
54.53416192368297
 21
129.2311809671988
 31
0.0
  0
LINE
  5
16B
330
137
100
AcDbEntity
  8
SEIHIN
  6
CONTINUOUS
 62
     3
 48
8.0
100
AcDbLine
 10
60.03416192368297
 20
136.2310809671989
 30
0.0
 11
60.03416192368297
 21
138.2310809671989
 31
0.0
  0
LINE
  5
16C
330
137
100
AcDbEntity
  8
SEIHIN
  6
CONTINUOUS
 62
     3
 48
8.0
100
AcDbLine
 10
67.03416192368297
 20
136.2310809671989
 30
0.0
 11
67.03416192368297
 21
138.2310809671989
 31
0.0
  0
LINE
  5
16D
330
137
100
AcDbEntity
  8
ZUWAKU
 62
     7
 48
10.0
100
AcDbLine
 10
130.2084767985043
 20
5.067699214013194
 30
0.0
 11
130.2084767985043
 21
11.06769921401317
 31
0.0
  0
LINE
  5
16E
330
137
100
AcDbEntity
  8
ZUWAKU
 62
     7
 48
10.0
100
AcDbLine
 10
96.91398376636591
 20
5.067699214013194
 30
0.0
 11
96.91398376636591
 21
11.06769921401318
 31
0.0
  0
TEXT
  5
16F
330
137
100
AcDbEntity
  8
ZUWAKU
 62
     7
100
AcDbText
 10
99.88509930462948
 20
6.268196649114136
 30
0.0
 40
4.0
  1
品名・ｻ ｲ ｽﾞ
100
AcDbText
  0
LINE
  5
170
330
137
100
AcDbEntity
  8
SUNPOU
  6
CONTINUOUS
 62
     4
 48
8.0
100
AcDbLine
 10
188.6193619236829
 20
138.2308809671989
 30
0.0
 11
104.8266619236829
 21
138.2308809671989
 31
0.0
  0
LINE
  5
171
330
137
100
AcDbEntity
  8
SUNPOU
  6
CONTINUOUS
 62
     4
 48
8.0
100
AcDbLine
 10
150.719061923683
 20
64.03108096719889
 30
0.0
 11
120.8716619236829
 21
64.03108096719889
 31
0.0
  0
LINE
  5
172
330
137
100
AcDbEntity
  8
SUNPOU
  6
CONTINUOUS
 62
     4
 48
8.0
100
AcDbLine
 10
150.7192619236829
 20
130.7308809671989
 30
0.0
 11
120.8716619236829
 21
130.7308809671989
 31
0.0
  0
LINE
  5
173
330
137
100
AcDbEntity
  8
SUNPOU
  6
CONTINUOUS
 62
     4
 48
8.0
100
AcDbLine
 10
185.6191619236829
 20
56.53098096719889
 30
0.0
 11
104.8266619236829
 21
56.53098096719889
 31
0.0
  0
LINE
  5
174
330
137
100
AcDbEntity
  8
SUNPOU
  6
CONTINUOUS
 62
     4
 48
8.0
100
AcDbLine
 10
124.8716619236829
 20
130.7308809671989
 30
0.0
 11
124.8716619236829
 21
64.03108096719889
 31
0.0
  0
TEXT
  5
175
330
137
100
AcDbEntity
  8
0
 62
     4
 48
8.0
100
AcDbText
 10
107.0359642492644
 20
91.38088296719887
 30
0.0
 40
6.0
  1
82
 50
90.0
 41
1.199999999999999
100
AcDbText
  0
TEXT
  5
176
330
137
100
AcDbEntity
  8
0
 62
     4
 48
8.0
100
AcDbText
 10
123.0111968074038
 20
91.38098296719887
 30
0.0
 40
6.0
  1
67
 50
90.0
 41
1.199999999999999
100
AcDbText
  0
LINE
  5
177
330
137
100
AcDbEntity
  8
SUNPOU
  6
CONTINUOUS
 62
     4
 48
8.0
100
AcDbLine
 10
108.8266619236829
 20
138.2308809671989
 30
0.0
 11
108.8266619236829
 21
56.53098096719889
 31
0.0
  0
LINE
  5
178
330
137
100
AcDbEntity
  8
SEIHIN
  6
CONTINUOUS
 62
     3
 48
8.0
100
AcDbLine
 10
72.53426192368298
 20
58.03108096719889
 30
0.0
 11
72.53426192368298
 21
138.2311809671989
 31
0.0
  0
LINE
  5
179
330
137
100
AcDbEntity
  8
SUNPOU
  6
CONTINUOUS
 62
     4
 48
8.0
100
AcDbLine
 10
108.8266619236829
 20
56.53098096719889
 30
0.0
 11
107.2737619236829
 21
62.32658096719887
 31
0.0
  0
LINE
  5
17A
330
137
100
AcDbEntity
  8
SUNPOU
  6
CONTINUOUS
 62
     4
 48
8.0
100
AcDbLine
 10
108.8266619236829
 20
56.53098096719889
 30
0.0
 11
110.3795619236829
 21
62.32658096719887
 31
0.0
  0
LINE
  5
17B
330
137
100
AcDbEntity
  8
SUNPOU
  6
CONTINUOUS
 62
     4
 48
8.0
100
AcDbLine
 10
124.8716619236829
 20
64.03108096719889
 30
0.0
 11
123.3187619236829
 21
69.82668096719887
 31
0.0
  0
LINE
  5
17C
330
137
100
AcDbEntity
  8
SUNPOU
  6
CONTINUOUS
 62
     4
 48
8.0
100
AcDbLine
 10
124.8716619236829
 20
64.03108096719889
 30
0.0
 11
126.4245619236829
 21
69.82668096719887
 31
0.0
  0
LINE
  5
17D
330
137
100
AcDbEntity
  8
SUNPOU
  6
CONTINUOUS
 62
     4
 48
8.0
100
AcDbLine
 10
108.8266619236829
 20
138.2308809671989
 30
0.0
 11
110.3795619236829
 21
132.4352809671988
 31
0.0
  0
LINE
  5
17E
330
137
100
AcDbEntity
  8
SUNPOU
  6
CONTINUOUS
 62
     4
 48
8.0
100
AcDbLine
 10
108.8266619236829
 20
138.2308809671989
 30
0.0
 11
107.2737619236829
 21
132.4352809671988
 31
0.0
  0
LINE
  5
17F
330
137
100
AcDbEntity
  8
SUNPOU
  6
CONTINUOUS
 62
     4
 48
8.0
100
AcDbLine
 10
124.8716619236829
 20
130.7308809671989
 30
0.0
 11
126.4245619236829
 21
124.9352809671988
 31
0.0
  0
LINE
  5
180
330
137
100
AcDbEntity
  8
SUNPOU
  6
CONTINUOUS
 62
     4
 48
8.0
100
AcDbLine
 10
124.8716619236829
 20
130.7308809671989
 30
0.0
 11
123.3187619236829
 21
124.9352809671988
 31
0.0
  0
LINE
  5
181
330
137
100
AcDbEntity
  8
SEIHIN
  6
CONTINUOUS
 62
     3
 48
8.0
100
AcDbLine
 10
145.6191619236829
 20
97.38108096719889
 30
0.0
 11
145.6192619236829
 21
117.0447809671989
 31
0.0
  0
LINE
  5
182
330
137
100
AcDbEntity
  8
SUNPOU
  6
CONTINUOUS
 62
     4
 48
8.0
100
AcDbLine
 10
162.6377619236829
 20
126.7308809671989
 30
0.0
 11
162.6377619236829
 21
68.03098096719889
 31
0.0
  0
LINE
  5
183
330
137
100
AcDbEntity
  8
SEIHIN
  6
CONTINUOUS
 62
     3
 48
8.0
100
AcDbLine
 10
142.6191619236829
 20
97.38108096719889
 30
0.0
 11
142.6192619236829
 21
118.6311809671988
 31
0.0
  0
LINE
  5
184
330
137
100
AcDbEntity
  8
SEIHIN
  6
CONTINUOUS
 62
     3
 48
8.0
100
AcDbLine
 10
143.6191619236829
 20
97.38108096719889
 30
0.0
 11
143.6192619236829
 21
118.6311809671988
 31
0.0
  0
LINE
  5
185
330
137
100
AcDbEntity
  8
SEIHIN
  6
CONTINUOUS
 62
     3
 48
8.0
100
AcDbLine
 10
156.305361923683
 20
67.03108096719889
 30
0.0
 11
170.9692619236829
 21
67.03108096719889
 31
0.0
  0
LINE
  5
186
330
137
100
AcDbEntity
  8
SEIHIN
  6
CONTINUOUS
 62
     3
 48
8.0
100
AcDbLine
 10
154.719061923683
 20
64.03108096719889
 30
0.0
 11
188.376461923683
 21
64.03098096719888
 31
0.0
  0
LINE
  5
187
330
137
100
AcDbEntity
  8
SEIHIN
  6
CONTINUOUS
 62
     3
 48
8.0
100
AcDbLine
 10
154.719061923683
 20
65.03108096719889
 30
0.0
 11
187.3276619236829
 21
65.03098096719888
 31
0.0
  0
ARC
  5
188
330
137
100
AcDbEntity
  8
SEIHIN
  6
CONTINUOUS
 62
     3
 48
8.0
100
AcDbCircle
 10
147.6191619236829
 20
77.71738096719888
 30
0.0
 40
2.000016
100
AcDbArc
 50
180.0
 51
253.193194
  0
LINE
  5
189
330
137
100
AcDbEntity
  8
SEIHIN
  6
CONTINUOUS
 62
     3
 48
8.0
100
AcDbLine
 10
142.6191619236829
 20
97.38108096719889
 30
0.0
 11
142.6190619236829
 21
76.13108096719888
 31
0.0
  0
LINE
  5
18A
330
137
100
AcDbEntity
  8
SEIHIN
  6
CONTINUOUS
 62
     3
 48
8.0
100
AcDbLine
 10
143.6191619236829
 20
97.38108096719889
 30
0.0
 11
143.6191619236829
 21
76.13108096719888
 31
0.0
  0
ARC
  5
18B
330
137
100
AcDbEntity
  8
SEIHIN
  6
CONTINUOUS
 62
     3
 48
8.0
100
AcDbCircle
 10
154.719061923683
 20
67.03108096719889
 30
0.0
 40
1.999959
100
AcDbArc
 50
189.1985679999999
 51
270.0
  0
ARC
  5
18C
330
137
100
AcDbEntity
  8
SEIHIN
  6
CONTINUOUS
 62
     3
 48
8.0
100
AcDbCircle
 10
154.719061923683
 20
67.03108096719889
 30
0.0
 40
2.999991999999999
100
AcDbArc
 50
189.1992059999999
 51
270.0
  0
ARC
  5
18D
330
137
100
AcDbEntity
  8
SEIHIN
  6
CONTINUOUS
 62
     3
 48
8.0
100
AcDbCircle
 10
143.8605619236829
 20
65.27258096719889
 30
0.0
 40
9.000052
100
AcDbArc
 50
9.199104
 51
80.80089599999999
  0
ARC
  5
18E
330
137
100
AcDbEntity
  8
SEIHIN
  6
CONTINUOUS
 62
     3
 48
8.0
100
AcDbCircle
 10
143.8605619236829
 20
65.27258096719889
 30
0.0
 40
11.000022
100
AcDbArc
 50
16.80506099999999
 51
73.194788
  0
ARC
  5
18F
330
137
100
AcDbEntity
  8
SEIHIN
  6
CONTINUOUS
 62
     3
 48
8.0
100
AcDbCircle
 10
145.6191619236829
 20
76.13108096719888
 30
0.0
 40
2.999991999999999
100
AcDbArc
 50
180.0
 51
260.8007939999999
  0
ARC
  5
190
330
137
100
AcDbEntity
  8
SEIHIN
  6
CONTINUOUS
 62
     3
 48
8.0
100
AcDbCircle
 10
145.6191619236829
 20
76.13108096719888
 30
0.0
 40
2.000008999999999
100
AcDbArc
 50
180.0
 51
260.80189
  0
ARC
  5
191
330
137
100
AcDbEntity
  8
SEIHIN
  6
CONTINUOUS
 62
     3
 48
8.0
100
AcDbCircle
 10
143.8605619236829
 20
65.27258096719889
 30
0.0
 40
7.999994
100
AcDbArc
 50
9.198932
 51
80.80036099999999
  0
LINE
  5
192
330
137
100
AcDbEntity
  8
SUNPOU
  6
CONTINUOUS
 62
     4
 48
8.0
100
AcDbLine
 10
167.9692619236829
 20
68.03098096719889
 30
0.0
 11
158.6377619236829
 21
68.03098096719889
 31
0.0
  0
LINE
  5
193
330
137
100
AcDbEntity
  8
SUNPOU
  6
CONTINUOUS
 62
     4
 48
8.0
100
AcDbLine
 10
162.6377619236829
 20
68.03098096719889
 30
0.0
 11
161.0848619236829
 21
73.82658096719886
 31
0.0
  0
ARC
  5
194
330
137
100
AcDbEntity
  8
SEIHIN
  6
CONTINUOUS
 62
     3
 48
8.0
100
AcDbCircle
 10
156.3054619236829
 20
69.03108096719889
 30
0.0
 40
2.000000999999999
100
AcDbArc
 50
196.8040639999999
 51
270.0
  0
LINE
  5
195
330
137
100
AcDbEntity
  8
SUNPOU
  6
CONTINUOUS
 62
     4
 48
8.0
100
AcDbLine
 10
162.6377619236829
 20
68.03098096719889
 30
0.0
 11
164.1906619236829
 21
73.82658096719886
 31
0.0
  0
LINE
  5
196
330
137
100
AcDbEntity
  8
SEIHIN
  6
CONTINUOUS
 62
     3
 48
8.0
100
AcDbLine
 10
145.6191619236829
 20
97.38108096719889
 30
0.0
 11
145.6191619236829
 21
77.71738096719888
 31
0.0
  0
LINE
  5
197
330
137
100
AcDbEntity
  8
SEIHIN
  6
CONTINUOUS
 62
     3
 48
8.0
100
AcDbLine
 10
192.6191619236829
 20
67.03108096719889
 30
0.0
 11
180.9692619236829
 21
67.03108096719889
 31
0.0
  0
LINE
  5
198
330
137
100
AcDbEntity
  8
SEIHIN
  6
CONTINUOUS
 62
     3
 48
8.0
100
AcDbLine
 10
179.9692619236829
 20
68.03098096719889
 30
0.0
 11
171.9692619236829
 21
68.03098096719889
 31
0.0
  0
ARC
  5
199
330
137
100
AcDbEntity
  8
SEIHIN
  6
CONTINUOUS
 62
     3
 48
8.0
100
AcDbCircle
 10
171.9692619236829
 20
67.03098096719888
 30
0.0
 40
1.0
100
AcDbArc
 50
90.0
 51
180.0
  0
ARC
  5
19A
330
137
100
AcDbEntity
  8
SEIHIN
  6
CONTINUOUS
 62
     3
 48
8.0
100
AcDbCircle
 10
179.9692619236829
 20
67.03098096719888
 30
0.0
 40
1.0
100
AcDbArc
 50
0.0
 51
90.0
  0
ARC
  5
19B
330
137
100
AcDbEntity
  8
SEIHIN
  6
CONTINUOUS
 62
     3
 48
8.0
100
AcDbCircle
 10
192.6191619236829
 20
62.53098096719889
 30
0.0
 40
4.500017999999999
100
AcDbArc
 50
33.74868699999999
 51
90.0
  0
LINE
  5
19C
330
137
100
AcDbEntity
  8
SEIHIN
  6
CONTINUOUS
 62
     3
 48
8.0
100
AcDbLine
 10
197.4195619236829
 20
67.99348096719889
 30
0.0
 11
195.816661923683
 21
61.71468096719888
 31
0.0
  0
LINE
  5
19D
330
137
100
AcDbEntity
  8
SEIHIN
  6
CONTINUOUS
 62
     3
 48
8.0
100
AcDbLine
 10
199.4642619236829
 20
67.88148096719886
 30
0.0
 11
197.4045619236829
 21
61.08148096719889
 31
0.0
  0
LINE
  5
19E
330
137
100
AcDbEntity
  8
SEIHIN
  6
CONTINUOUS
 62
     3
 48
8.0
100
AcDbLine
 10
200.4212619236829
 20
67.59158096719888
 30
0.0
 11
198.3615619236829
 21
60.79158096719887
 31
0.0
  0
ARC
  5
19F
330
137
100
AcDbEntity
  8
SEIHIN
  6
CONTINUOUS
 62
     3
 48
8.0
100
AcDbCircle
 10
192.6192619236829
 20
62.53098096719889
 30
0.0
 40
3.300030999999999
100
AcDbArc
 50
162.4155269999999
 51
345.6782459999999
  0
ARC
  5
1A0
330
137
100
AcDbEntity
  8
SEIHIN
  6
CONTINUOUS
 62
     3
 48
8.0
100
AcDbCircle
 10
192.6192619236829
 20
62.53098096719889
 30
0.0
 40
5.999979999999999
100
AcDbArc
 50
270.0
 51
343.147915
  0
ARC
  5
1A1
330
137
100
AcDbEntity
  8
SEIHIN
  6
CONTINUOUS
 62
     3
 48
8.0
100
AcDbCircle
 10
192.6192619236829
 20
62.53098096719889
 30
0.0
 40
4.999958999999999
100
AcDbArc
 50
270.0
 51
343.147749
  0
ARC
  5
1A2
330
137
100
AcDbEntity
  8
SEIHIN
  6
CONTINUOUS
 62
     3
 48
8.0
100
AcDbCircle
 10
189.6191619236829
 20
60.03098096719889
 30
0.0
 40
3.500019
100
AcDbArc
 50
92.387443
 51
270.0
  0
LINE
  5
1A3
330
137
100
AcDbEntity
  8
SEIHIN
  6
CONTINUOUS
 62
     3
 48
8.0
100
AcDbLine
 10
187.1696619236829
 20
57.53098096719889
 30
0.0
 11
192.6192619236829
 21
57.53098096719889
 31
0.0
  0
LINE
  5
1A4
330
137
100
AcDbEntity
  8
SEIHIN
  6
CONTINUOUS
 62
     3
 48
8.0
100
AcDbLine
 10
189.6191619236829
 20
56.53098096719889
 30
0.0
 11
192.6192619236829
 21
56.53098096719889
 31
0.0
  0
ARC
  5
1A5
330
137
100
AcDbEntity
  8
SEIHIN
  6
CONTINUOUS
 62
     3
 48
8.0
100
AcDbCircle
 10
187.3276619236829
 20
64.03098096719888
 30
0.0
 40
1.0
100
AcDbArc
 50
344.175018
 51
90.0
  0
ARC
  5
1A6
330
137
100
AcDbEntity
  8
SEIHIN
  6
CONTINUOUS
 62
     3
 48
8.0
100
AcDbCircle
 10
192.6191619236829
 20
62.53098096719889
 30
0.0
 40
4.5
100
AcDbArc
 50
164.173007
 51
171.222377
  0
LINE
  5
1A7
330
137
100
AcDbEntity
  8
SEIHIN
  6
CONTINUOUS
 62
     3
 48
8.0
100
AcDbLine
 10
186.6191619236829
 20
62.53098096719889
 30
0.0
 11
186.6191619236829
 21
64.03098096719888
 31
0.0
  0
LINE
  5
1A8
330
137
100
AcDbEntity
  8
SEIHIN
  6
CONTINUOUS
 62
     3
 48
8.0
100
AcDbLine
 10
186.6191619236829
 20
62.54398096719889
 30
0.0
 11
187.1829619236829
 21
62.54398096719889
 31
0.0
  0
LINE
  5
1A9
330
137
100
AcDbEntity
  8
SEIHIN
  6
CONTINUOUS
 62
     3
 48
8.0
100
AcDbLine
 10
197.0913619236829
 20
63.03098096719889
 30
0.0
 11
197.1039619236829
 21
63.03098096719889
 31
0.0
  0
LINE
  5
1AA
330
137
100
AcDbEntity
  8
SEIHIN
  6
CONTINUOUS
 62
     3
 48
8.0
100
AcDbLine
 10
156.305561923683
 20
127.7308809671989
 30
0.0
 11
170.9692619236829
 21
127.7308809671989
 31
0.0
  0
LINE
  5
1AB
330
137
100
AcDbEntity
  8
SEIHIN
  6
CONTINUOUS
 62
     3
 48
8.0
100
AcDbLine
 10
154.7192619236829
 20
130.7308809671989
 30
0.0
 11
182.640261923683
 21
130.7308809671989
 31
0.0
  0
LINE
  5
1AC
330
137
100
AcDbEntity
  8
SEIHIN
  6
CONTINUOUS
 62
     3
 48
8.0
100
AcDbLine
 10
154.7192619236829
 20
129.7308809671989
 30
0.0
 11
182.6193619236829
 21
129.7308809671989
 31
0.0
  0
LINE
  5
1AD
330
137
100
AcDbEntity
  8
SUNPOU
  6
CONTINUOUS
 62
     4
 48
8.0
100
AcDbLine
 10
162.6377619236829
 20
126.7308809671989
 30
0.0
 11
164.1906619236829
 21
120.9352809671988
 31
0.0
  0
LINE
  5
1AE
330
137
100
AcDbEntity
  8
SUNPOU
  6
CONTINUOUS
 62
     4
 48
8.0
100
AcDbLine
 10
162.6377619236829
 20
126.7308809671989
 30
0.0
 11
161.0848619236829
 21
120.9352809671988
 31
0.0
  0
ARC
  5
1AF
330
137
100
AcDbEntity
  8
SEIHIN
  6
CONTINUOUS
 62
     3
 48
8.0
100
AcDbCircle
 10
143.8607619236829
 20
129.4896809671988
 30
0.0
 40
7.999985999999999
100
AcDbArc
 50
279.1989319999999
 51
350.801068
  0
ARC
  5
1B0
330
137
100
AcDbEntity
  8
SEIHIN
  6
CONTINUOUS
 62
     3
 48
8.0
100
AcDbCircle
 10
143.8607619236829
 20
129.4896809671988
 30
0.0
 40
8.999994
100
AcDbArc
 50
279.1984749999999
 51
350.800794
  0
ARC
  5
1B1
330
137
100
AcDbEntity
  8
SEIHIN
  6
CONTINUOUS
 62
     3
 48
8.0
100
AcDbCircle
 10
143.8607619236829
 20
129.4896809671988
 30
0.0
 40
11.000007
100
AcDbArc
 50
286.804562
 51
343.194788
  0
ARC
  5
1B2
330
137
100
AcDbEntity
  8
SEIHIN
  6
CONTINUOUS
 62
     3
 48
8.0
100
AcDbCircle
 10
145.6192619236829
 20
118.6310809671988
 30
0.0
 40
3.000041999999999
100
AcDbArc
 50
99.1989
 51
180.0
  0
ARC
  5
1B3
330
137
100
AcDbEntity
  8
SEIHIN
  6
CONTINUOUS
 62
     3
 48
8.0
100
AcDbCircle
 10
145.6192619236829
 20
118.6310809671988
 30
0.0
 40
2.000008999999999
100
AcDbArc
 50
99.19811000000002
 51
180.0
  0
ARC
  5
1B4
330
137
100
AcDbEntity
  8
SEIHIN
  6
CONTINUOUS
 62
     3
 48
8.0
100
AcDbCircle
 10
147.6192619236829
 20
117.0447809671989
 30
0.0
 40
2.000000999999999
100
AcDbArc
 50
106.8040639999999
 51
180.0
  0
TEXT
  5
1B5
330
137
100
AcDbEntity
  8
0
 62
     4
 48
8.0
100
AcDbText
 10
160.8470642492644
 20
100.9996829671989
 30
0.0
 40
6.0
  1
59
 50
90.0
 41
1.199999999999999
100
AcDbText
  0
ARC
  5
1B6
330
137
100
AcDbEntity
  8
SEIHIN
  6
CONTINUOUS
 62
     3
 48
8.0
100
AcDbCircle
 10
154.7192619236829
 20
127.7308809671989
 30
0.0
 40
2.000008999999999
100
AcDbArc
 50
90.0
 51
170.8018899999999
  0
ARC
  5
1B7
330
137
100
AcDbEntity
  8
SEIHIN
  6
CONTINUOUS
 62
     3
 48
8.0
100
AcDbCircle
 10
154.7192619236829
 20
127.7308809671989
 30
0.0
 40
2.999991999999999
100
AcDbArc
 50
90.0
 51
170.8007939999999
  0
LINE
  5
1B8
330
137
100
AcDbEntity
  8
SUNPOU
  6
CONTINUOUS
 62
     4
 48
8.0
100
AcDbLine
 10
167.9692619236829
 20
126.7308809671989
 30
0.0
 11
158.6377619236829
 21
126.7308809671989
 31
0.0
  0
ARC
  5
1B9
330
137
100
AcDbEntity
  8
SEIHIN
  6
CONTINUOUS
 62
     3
 48
8.0
100
AcDbCircle
 10
156.305561923683
 20
125.7308809671989
 30
0.0
 40
2.000000999999999
100
AcDbArc
 50
90.0
 51
163.195936
  0
ARC
  5
1BA
330
137
100
AcDbEntity
  8
SEIHIN
  6
CONTINUOUS
 62
     3
 48
8.0
100
AcDbCircle
 10
188.6193619236829
 20
133.2308809671989
 30
0.0
 40
3.0
100
AcDbArc
 50
90.0
 51
180.0
  0
ARC
  5
1BB
330
137
100
AcDbEntity
  8
SEIHIN
  6
CONTINUOUS
 62
     3
 48
8.0
100
AcDbCircle
 10
182.640261923683
 20
133.7308809671989
 30
0.0
 40
3.000021999999999
100
AcDbArc
 50
270.0
 51
355.21796
  0
ARC
  5
1BC
330
137
100
AcDbEntity
  8
SEIHIN
  6
CONTINUOUS
 62
     3
 48
8.0
100
AcDbCircle
 10
182.6193619236829
 20
132.7308809671989
 30
0.0
 40
3.0
100
AcDbArc
 50
270.0
 51
0.0
  0
LINE
  5
1BD
330
137
100
AcDbEntity
  8
SEIHIN
  6
CONTINUOUS
 62
     3
 48
8.0
100
AcDbLine
 10
180.9693619236829
 20
127.7308809671989
 30
0.0
 11
192.6193619236829
 21
127.7308809671989
 31
0.0
  0
LINE
  5
1BE
330
137
100
AcDbEntity
  8
SEIHIN
  6
CONTINUOUS
 62
     3
 48
8.0
100
AcDbLine
 10
179.9692619236829
 20
126.7308809671989
 30
0.0
 11
171.9692619236829
 21
126.7308809671989
 31
0.0
  0
ARC
  5
1BF
330
137
100
AcDbEntity
  8
SEIHIN
  6
CONTINUOUS
 62
     3
 48
8.0
100
AcDbCircle
 10
171.9692619236829
 20
127.7308809671989
 30
0.0
 40
1.0
100
AcDbArc
 50
180.0
 51
270.0
  0
ARC
  5
1C0
330
137
100
AcDbEntity
  8
SEIHIN
  6
CONTINUOUS
 62
     3
 48
8.0
100
AcDbCircle
 10
179.9692619236829
 20
127.7308809671989
 30
0.0
 40
1.0
100
AcDbArc
 50
270.0
 51
0.0
  0
LINE
  5
1C1
330
137
100
AcDbEntity
  8
SEIHIN
  6
CONTINUOUS
 62
     3
 48
8.0
100
AcDbLine
 10
185.6193619236829
 20
132.7308809671989
 30
0.0
 11
185.6193619236829
 21
133.2308809671989
 31
0.0
  0
CIRCLE
  5
1C2
330
137
100
AcDbEntity
  8
SEIHIN
  6
CONTINUOUS
 62
     3
 48
8.0
100
AcDbCircle
 10
192.6193619236829
 20
133.2308809671989
 30
0.0
 40
2.399999999999999
  0
CIRCLE
  5
1C3
330
137
100
AcDbEntity
  8
SEIHIN
  6
CONTINUOUS
 62
     3
 48
8.0
100
AcDbCircle
 10
192.6193619236829
 20
133.2308809671989
 30
0.0
 40
2.25
  0
ARC
  5
1C4
330
137
100
AcDbEntity
  8
SEIHIN
  6
CONTINUOUS
 62
     3
 48
8.0
100
AcDbCircle
 10
192.6193619236829
 20
133.2308809671989
 30
0.0
 40
5.000046
100
AcDbArc
 50
328.738122
 51
270.0
  0
LINE
  5
1C5
330
137
100
AcDbEntity
  8
SEIHIN
  6
CONTINUOUS
 62
     3
 48
8.0
100
AcDbLine
 10
192.6193619236829
 20
127.7308809671989
 30
0.0
 11
195.1048619236829
 21
127.7308809671989
 31
0.0
  0
LINE
  5
1C6
330
137
100
AcDbEntity
  8
SEIHIN
  6
CONTINUOUS
 62
     3
 48
8.0
100
AcDbLine
 10
192.6193619236829
 20
128.2308809671989
 30
0.0
 11
192.6193619236829
 21
127.7308809671989
 31
0.0
  0
LINE
  5
1C7
330
137
100
AcDbEntity
  8
SEIHIN
  6
CONTINUOUS
 62
     3
 48
8.0
100
AcDbLine
 10
192.6193619236829
 20
128.2307809671988
 30
0.0
 11
192.6193619236829
 21
127.7308809671989
 31
0.0
  0
ARC
  5
1C8
330
137
100
AcDbEntity
  8
SEIHIN
  6
CONTINUOUS
 62
     3
 48
8.0
100
AcDbCircle
 10
197.7482619236829
 20
130.1171809671989
 30
0.0
 40
0.9999829999999999
100
AcDbArc
 50
148.7404659999999
 51
243.857741
  0
ARC
  5
1C9
330
137
100
AcDbEntity
  8
SEIHIN
  6
CONTINUOUS
 62
     3
 48
8.0
100
AcDbCircle
 10
195.1048619236829
 20
124.7308809671989
 30
0.0
 40
6.000018999999999
100
AcDbArc
 50
19.954062
 51
63.811187
  0
ARC
  5
1CA
330
137
100
AcDbEntity
  8
SEIHIN
  6
CONTINUOUS
 62
     3
 48
8.0
100
AcDbCircle
 10
195.1048619236829
 20
124.7308809671989
 30
0.0
 40
4.999972
100
AcDbArc
 50
19.953834
 51
63.860303
  0
ARC
  5
1CB
330
137
100
AcDbEntity
  8
SEIHIN
  6
CONTINUOUS
 62
     3
 48
8.0
100
AcDbCircle
 10
195.1048619236829
 20
124.7308809671989
 30
0.0
 40
3.000024
100
AcDbArc
 50
20.486975
 51
90.0
  0
ARC
  5
1CC
330
137
100
AcDbEntity
  8
SEIHIN
  6
CONTINUOUS
 62
     3
 48
8.0
100
AcDbCircle
 10
198.1941619236829
 20
131.0122809671988
 30
0.0
 40
0.9999680000000001
100
AcDbArc
 50
158.296476
 51
243.8116359999999
  0
LINE
  5
1CD
330
137
100
AcDbEntity
  8
SUNPOU
  6
CONTINUOUS
 62
     4
 48
8.0
100
AcDbLine
 10
72.53426192368298
 20
152.4635809671988
 30
0.0
 11
66.73866192368297
 21
150.9106809671989
 31
0.0
  0
LINE
  5
1CE
330
137
100
AcDbEntity
  8
SUNPOU
  6
CONTINUOUS
 62
     4
 48
8.0
100
AcDbLine
 10
72.53426192368298
 20
152.4635809671988
 30
0.0
 11
66.73866192368297
 21
154.0164809671989
 31
0.0
  0
LINE
  5
1CF
330
137
100
AcDbEntity
  8
SUNPOU
  6
CONTINUOUS
 62
     4
 48
8.0
100
AcDbLine
 10
54.53416192368297
 20
152.4635809671988
 30
0.0
 11
72.53426192368298
 21
152.4635809671988
 31
0.0
  0
TEXT
  5
1D0
330
137
100
AcDbEntity
  8
0
 62
     4
 48
8.0
100
AcDbText
 10
57.53426192368298
 20
154.2542786416174
 30
0.0
 40
6.0
  1
18
 41
1.5
100
AcDbText
  0
LINE
  5
1D1
330
137
100
AcDbEntity
  8
SUNPOU
  6
CONTINUOUS
 62
     4
 48
8.0
100
AcDbLine
 10
54.53416192368297
 20
152.4635809671988
 30
0.0
 11
60.32976192368298
 21
150.9106809671989
 31
0.0
  0
LINE
  5
1D2
330
137
100
AcDbEntity
  8
SUNPOU
  6
CONTINUOUS
 62
     4
 48
8.0
100
AcDbLine
 10
54.53416192368297
 20
152.4635809671988
 30
0.0
 11
60.32976192368298
 21
154.0164809671989
 31
0.0
  0
LINE
  5
1D3
330
137
100
AcDbEntity
  8
SUNPOU
  6
CONTINUOUS
 62
     4
 48
8.0
100
AcDbLine
 10
139.6191619236829
 20
226.3810809671988
 30
0.0
 11
115.5640619236829
 21
226.3810809671988
 31
0.0
  0
LINE
  5
1D4
330
137
100
AcDbEntity
  8
SUNPOU
  6
CONTINUOUS
 62
     4
 48
8.0
100
AcDbLine
 10
139.6191619236829
 20
208.3809809671988
 30
0.0
 11
115.5640619236829
 21
208.3809809671988
 31
0.0
  0
TEXT
  5
1D5
330
137
100
AcDbEntity
  8
0
 62
     4
 48
8.0
100
AcDbText
 10
131.8050619236829
 20
162.9439786416174
 30
0.0
 40
6.0
  1
3
 41
1.5
100
AcDbText
  0
LINE
  5
1D6
330
137
100
AcDbEntity
  8
SUNPOU
  6
CONTINUOUS
 62
     4
 48
8.0
100
AcDbLine
 10
131.8050619236829
 20
161.1532809671988
 30
0.0
 11
155.6192619236829
 21
161.1532809671988
 31
0.0
  0
TEXT
  5
1D7
330
137
100
AcDbEntity
  8
0
 62
     4
 48
8.0
100
AcDbText
 10
117.7733642492643
 20
211.3809829671989
 30
0.0
 40
6.0
  1
18
 50
90.0
 41
1.5
100
AcDbText
  0
LINE
  5
1D8
330
137
100
AcDbEntity
  8
SUNPOU
  6
CONTINUOUS
 62
     4
 48
8.0
100
AcDbLine
 10
119.5640619236829
 20
226.3810809671988
 30
0.0
 11
119.5640619236829
 21
208.3809809671988
 31
0.0
  0
LINE
  5
1D9
330
137
100
AcDbEntity
  8
SUNPOU
  6
CONTINUOUS
 62
     4
 48
8.0
100
AcDbLine
 10
119.5640619236829
 20
208.3809809671988
 30
0.0
 11
121.1169619236829
 21
214.1764809671988
 31
0.0
  0
LINE
  5
1DA
330
137
100
AcDbEntity
  8
SUNPOU
  6
CONTINUOUS
 62
     4
 48
8.0
100
AcDbLine
 10
119.5640619236829
 20
208.3809809671988
 30
0.0
 11
118.0111619236829
 21
214.1764809671988
 31
0.0
  0
LINE
  5
1DB
330
137
100
AcDbEntity
  8
SUNPOU
  6
CONTINUOUS
 62
     4
 48
8.0
100
AcDbLine
 10
119.5640619236829
 20
226.3810809671988
 30
0.0
 11
121.1169619236829
 21
220.5855809671989
 31
0.0
  0
LINE
  5
1DC
330
137
100
AcDbEntity
  8
SUNPOU
  6
CONTINUOUS
 62
     4
 48
8.0
100
AcDbLine
 10
119.5640619236829
 20
226.3810809671988
 30
0.0
 11
118.0111619236829
 21
220.5855809671989
 31
0.0
  0
LINE
  5
1DD
330
137
100
AcDbEntity
  8
SUNPOU
  6
CONTINUOUS
 62
     4
 48
8.0
100
AcDbLine
 10
142.6192619236829
 20
161.1532809671988
 30
0.0
 11
136.8236619236829
 21
159.6003809671988
 31
0.0
  0
LINE
  5
1DE
330
137
100
AcDbEntity
  8
SUNPOU
  6
CONTINUOUS
 62
     4
 48
8.0
100
AcDbLine
 10
142.6192619236829
 20
161.1532809671988
 30
0.0
 11
136.8236619236829
 21
162.7061809671989
 31
0.0
  0
LINE
  5
1DF
330
137
100
AcDbEntity
  8
SUNPOU
  6
CONTINUOUS
 62
     4
 48
8.0
100
AcDbLine
 10
145.6192619236829
 20
161.1532809671988
 30
0.0
 11
151.4148619236829
 21
162.7061809671989
 31
0.0
  0
LINE
  5
1E0
330
137
100
AcDbEntity
  8
SUNPOU
  6
CONTINUOUS
 62
     4
 48
8.0
100
AcDbLine
 10
145.6192619236829
 20
161.1532809671988
 30
0.0
 11
151.4148619236829
 21
159.6003809671988
 31
0.0
  0
LINE
  5
1E1
330
137
100
AcDbEntity
  8
SUNPOU
  6
CONTINUOUS
 62
     4
 48
8.0
100
AcDbLine
 10
145.6192619236829
 20
161.1532809671988
 30
0.0
 11
151.4148619236829
 21
162.7061809671989
 31
0.0
  0
LINE
  5
1E2
330
137
100
AcDbEntity
  8
SUNPOU
  6
CONTINUOUS
 62
     4
 48
8.0
100
AcDbLine
 10
145.6192619236829
 20
161.1532809671988
 30
0.0
 11
151.4148619236829
 21
159.6003809671988
 31
0.0
  0
LINE
  5
1E3
330
137
100
AcDbEntity
  8
SUNPOU
  6
CONTINUOUS
 62
     4
 48
8.0
100
AcDbLine
 10
142.6192619236829
 20
173.3473809671988
 30
0.0
 11
148.4147619236829
 21
174.9003809671988
 31
0.0
  0
LINE
  5
1E4
330
137
100
AcDbEntity
  8
SUNPOU
  6
CONTINUOUS
 62
     4
 48
8.0
100
AcDbLine
 10
142.6192619236829
 20
173.3473809671988
 30
0.0
 11
148.4147619236829
 21
171.7944809671988
 31
0.0
  0
TEXT
  5
1E5
330
137
100
AcDbEntity
  8
0
 62
     4
 48
8.0
100
AcDbText
 10
169.9692619236829
 20
162.9439786416174
 30
0.0
 40
6.0
  1
61
 41
1.5
100
AcDbText
  0
TEXT
  5
1E6
330
137
100
AcDbEntity
  8
0
 62
     4
 48
8.0
100
AcDbText
 10
171.9692619236829
 20
175.1380786416174
 30
0.0
 40
6.0
  1
71
 41
1.5
100
AcDbText
  0
LINE
  5
1E7
330
137
100
AcDbEntity
  8
SEIHIN
  6
CONTINUOUS
 62
     3
 48
8.0
100
AcDbLine
 10
188.6194619236829
 20
223.8810809671988
 30
0.0
 11
142.6191619236829
 21
223.8810809671988
 31
0.0
  0
LINE
  5
1E8
330
137
100
AcDbEntity
  8
SEIHIN
  6
CONTINUOUS
 62
     3
 48
8.0
100
AcDbLine
 10
188.6194619236829
 20
210.8809809671988
 30
0.0
 11
142.6191619236829
 21
210.8809809671988
 31
0.0
  0
LINE
  5
1E9
330
137
100
AcDbEntity
  8
SEIHIN
  6
CONTINUOUS
 62
     3
 48
8.0
100
AcDbLine
 10
151.9871619236829
 20
210.8811809671988
 30
0.0
 11
151.9871619236829
 21
217.3810809671989
 31
0.0
  0
LINE
  5
1EA
330
137
100
AcDbEntity
  8
SEIHIN
  6
CONTINUOUS
 62
     3
 48
8.0
100
AcDbLine
 10
142.6191619236829
 20
217.3810809671989
 30
0.0
 11
142.6191619236829
 21
210.8811809671988
 31
0.0
  0
LINE
  5
1EB
330
137
100
AcDbEntity
  8
SEIHIN
  6
CONTINUOUS
 62
     3
 48
8.0
100
AcDbLine
 10
151.9871619236829
 20
210.8811809671988
 30
0.0
 11
152.9871619236829
 21
208.3811809671988
 31
0.0
  0
LINE
  5
1EC
330
137
100
AcDbEntity
  8
SEIHIN
  6
CONTINUOUS
 62
     3
 48
8.0
100
AcDbLine
 10
142.6191619236829
 20
210.8810809671989
 30
0.0
 11
143.6191619236829
 21
208.3810809671989
 31
0.0
  0
LINE
  5
1ED
330
137
100
AcDbEntity
  8
SEIHIN
  6
CONTINUOUS
 62
     3
 48
8.0
100
AcDbLine
 10
151.9871619236829
 20
223.8811809671988
 30
0.0
 11
152.9871619236829
 21
226.3811809671988
 31
0.0
  0
LINE
  5
1EE
330
137
100
AcDbEntity
  8
SEIHIN
  6
CONTINUOUS
 62
     3
 48
8.0
100
AcDbLine
 10
142.6191619236829
 20
217.3809809671988
 30
0.0
 11
142.6190619236829
 21
223.8809809671988
 31
0.0
  0
LINE
  5
1EF
330
137
100
AcDbEntity
  8
SEIHIN
  6
CONTINUOUS
 62
     3
 48
8.0
100
AcDbLine
 10
142.6190619236829
 20
223.8810809671988
 30
0.0
 11
143.6190619236829
 21
226.3810809671988
 31
0.0
  0
LINE
  5
1F0
330
137
100
AcDbEntity
  8
SEIHIN
  6
CONTINUOUS
 62
     3
 48
8.0
100
AcDbLine
 10
151.9871619236829
 20
223.8811809671988
 30
0.0
 11
151.9871619236829
 21
217.3810809671989
 31
0.0
  0
LINE
  5
1F1
330
137
100
AcDbEntity
  8
SEIHIN
  6
CONTINUOUS
 62
     3
 48
8.0
100
AcDbLine
 10
197.6193619236829
 20
208.3811809671988
 30
0.0
 11
197.6193619236829
 21
226.3810809671988
 31
0.0
  0
LINE
  5
1F2
330
137
100
AcDbEntity
  8
SEIHIN
  6
CONTINUOUS
 62
     3
 48
8.0
100
AcDbLine
 10
188.6194619236829
 20
208.3811809671988
 30
0.0
 11
188.6194619236829
 21
226.3810809671988
 31
0.0
  0
LINE
  5
1F3
330
137
100
AcDbEntity
  8
SEIHIN
  6
CONTINUOUS
 62
     3
 48
8.0
100
AcDbLine
 10
194.8694619236829
 20
210.8809809671988
 30
0.0
 11
192.6193619236829
 21
210.8809809671988
 31
0.0
  0
LINE
  5
1F4
330
137
100
AcDbEntity
  8
SEIHIN
  6
CONTINUOUS
 62
     3
 48
8.0
100
AcDbLine
 10
192.619661923683
 20
210.3809809671988
 30
0.0
 11
195.2167619236829
 21
210.3809809671988
 31
0.0
  0
LINE
  5
1F5
330
137
100
AcDbEntity
  8
SEIHIN
  6
CONTINUOUS
 62
     3
 48
8.0
100
AcDbLine
 10
197.618961923683
 20
214.8809809671988
 30
0.0
 11
188.6193619236829
 21
214.8809809671988
 31
0.0
  0
LINE
  5
1F6
330
137
100
AcDbEntity
  8
SEIHIN
  6
CONTINUOUS
 62
     3
 48
8.0
100
AcDbLine
 10
192.6193619236829
 20
210.3809809671988
 30
0.0
 11
192.6193619236829
 21
214.8809809671988
 31
0.0
  0
LINE
  5
1F7
330
137
100
AcDbEntity
  8
SEIHIN
  6
CONTINUOUS
 62
     3
 48
8.0
100
AcDbLine
 10
197.618961923683
 20
210.3809809671988
 30
0.0
 11
195.3694619236829
 21
210.3809809671988
 31
0.0
  0
LINE
  5
1F8
330
137
100
AcDbEntity
  8
SEIHIN
  6
CONTINUOUS
 62
     3
 48
8.0
100
AcDbLine
 10
194.8693619236829
 20
214.8809809671988
 30
0.0
 11
194.8693619236829
 21
210.3809809671988
 31
0.0
  0
LINE
  5
1F9
330
137
100
AcDbEntity
  8
SEIHIN
  6
CONTINUOUS
 62
     3
 48
8.0
100
AcDbLine
 10
192.6193619236829
 20
220.3809809671988
 30
0.0
 11
194.8693619236829
 21
220.3809809671988
 31
0.0
  0
LINE
  5
1FA
330
137
100
AcDbEntity
  8
SEIHIN
  6
CONTINUOUS
 62
     3
 48
8.0
100
AcDbLine
 10
192.619661923683
 20
224.3809809671988
 30
0.0
 11
195.2167619236829
 21
224.3809809671988
 31
0.0
  0
LINE
  5
1FB
330
137
100
AcDbEntity
  8
SEIHIN
  6
CONTINUOUS
 62
     3
 48
8.0
100
AcDbLine
 10
197.618961923683
 20
219.8809809671988
 30
0.0
 11
188.6193619236829
 21
219.8809809671988
 31
0.0
  0
LINE
  5
1FC
330
137
100
AcDbEntity
  8
SEIHIN
  6
CONTINUOUS
 62
     3
 48
8.0
100
AcDbLine
 10
192.6193619236829
 20
219.8809809671988
 30
0.0
 11
192.6193619236829
 21
224.3809809671988
 31
0.0
  0
LINE
  5
1FD
330
137
100
AcDbEntity
  8
SEIHIN
  6
CONTINUOUS
 62
     3
 48
8.0
100
AcDbLine
 10
194.8693619236829
 20
219.8809809671988
 30
0.0
 11
194.8693619236829
 21
224.3809809671988
 31
0.0
  0
LINE
  5
1FE
330
137
100
AcDbEntity
  8
SEIHIN
  6
CONTINUOUS
 62
     3
 48
8.0
100
AcDbLine
 10
197.6188619236829
 20
224.3809809671988
 30
0.0
 11
195.3693619236829
 21
224.3809809671988
 31
0.0
  0
LINE
  5
1FF
330
137
100
AcDbEntity
  8
SUNPOU
  6
CONTINUOUS
 62
     4
 48
8.0
100
AcDbLine
 10
213.3193619236829
 20
125.5085809671988
 30
0.0
 11
213.3193619236829
 21
165.1532809671989
 31
0.0
  0
LINE
  5
200
330
137
100
AcDbEntity
  8
SUNPOU
  6
CONTINUOUS
 62
     4
 48
8.0
100
AcDbLine
 10
213.3193619236829
 20
125.5085809671988
 30
0.0
 11
213.3193619236829
 21
177.3473809671988
 31
0.0
  0
LINE
  5
201
330
137
100
AcDbEntity
  8
SUNPOU
  6
CONTINUOUS
 62
     4
 48
8.0
100
AcDbLine
 10
206.3192619236829
 20
121.8108809671988
 30
0.0
 11
206.3192619236829
 21
165.1532809671989
 31
0.0
  0
LINE
  5
202
330
137
100
AcDbEntity
  8
SUNPOU
  6
CONTINUOUS
 62
     4
 48
8.0
100
AcDbLine
 10
206.3192619236829
 20
121.8108809671988
 30
0.0
 11
206.3192619236829
 21
165.1532809671989
 31
0.0
  0
LINE
  5
203
330
137
100
AcDbEntity
  8
SUNPOU
  6
CONTINUOUS
 62
     4
 48
8.0
100
AcDbLine
 10
304.3755619236829
 20
98.77888096719887
 30
0.0
 11
336.3748619236829
 21
115.6446809671988
 31
0.0
  0
TEXT
  5
204
330
137
100
AcDbEntity
  8
ZUWAKU
 62
     7
 48
10.0
100
AcDbText
 10
315.1336725894417
 20
0.5166997725056515
 30
0.0
 40
4.0
  1
積水化学工業株式会社  建材
100
AcDbText
  0
TEXT
  5
205
330
137
100
AcDbEntity
  8
ZUWAKU
 62
     7
100
AcDbText
 10
319.2836441290306
 20
6.127845995259461
 30
0.0
 40
4.0
  1
ＧＫ７３
100
AcDbText
  0
LINE
  5
206
330
137
100
AcDbEntity
  8
CENTER_L
  6
CENTER
 62
     1
 48
5.0
100
AcDbLine
 10
302.8086619236829
 20
141.9386809671988
 30
0.0
 11
302.8084619236829
 21
52.36438096719887
 31
0.0
  0
TEXT
  5
207
330
137
100
AcDbEntity
  8
ZUWAKU
 62
     7
100
AcDbText
 10
302.3252218642458
 20
6.00236061981502
 30
0.0
 40
4.0
  1
品 番
100
AcDbText
  0
LINE
  5
208
330
137
100
AcDbEntity
  8
ZUWAKU
 62
     7
 48
10.0
100
AcDbLine
 10
299.324608854798
 20
5.06769921401303
 30
0.0
 11
299.324608854798
 21
11.06769921401315
 31
0.0
  0
LINE
  5
209
330
137
100
AcDbEntity
  8
ZUWAKU
 62
     7
 48
10.0
100
AcDbLine
 10
316.5374368136427
 20
5.06769921401303
 30
0.0
 11
316.5374368136427
 21
11.06769921401314
 31
0.0
  0
LINE
  5
20A
330
137
100
AcDbEntity
  8
SUNPOU
  6
CONTINUOUS
 62
     4
 48
8.0
100
AcDbLine
 10
243.9438619236829
 20
102.6309809671988
 30
0.0
 11
245.4967619236829
 21
96.83538096719887
 31
0.0
  0
LINE
  5
20B
330
137
100
AcDbEntity
  8
SUNPOU
  6
CONTINUOUS
 62
     4
 48
8.0
100
AcDbLine
 10
243.9438619236829
 20
102.6309809671988
 30
0.0
 11
242.3909619236829
 21
96.83538096719887
 31
0.0
  0
LINE
  5
20C
330
137
100
AcDbEntity
  8
SEIHIN
  6
CONTINUOUS
 62
     3
 48
8.0
100
AcDbLine
 10
207.3193619236829
 20
111.3809809671988
 30
0.0
 11
207.3192619236829
 21
97.38098096719888
 31
0.0
  0
LINE
  5
20D
330
137
100
AcDbEntity
  8
SEIHIN
  6
CONTINUOUS
 62
     3
 48
8.0
100
AcDbLine
 10
210.3192619236829
 20
97.38098096719888
 30
0.0
 11
210.3193619236829
 21
117.5085809671988
 31
0.0
  0
LINE
  5
20E
330
137
100
AcDbEntity
  8
SUNPOU
  6
CONTINUOUS
 62
     4
 48
8.0
100
AcDbLine
 10
259.9646619236829
 20
121.6309809671988
 30
0.0
 11
259.9646619236829
 21
73.13098096719888
 31
0.0
  0
LINE
  5
20F
330
137
100
AcDbEntity
  8
SUNPOU
  6
CONTINUOUS
 62
     4
 48
8.0
100
AcDbLine
 10
243.9438619236829
 20
119.0176809671988
 30
0.0
 11
243.9438619236829
 21
92.63098096719888
 31
0.0
  0
LINE
  5
210
330
137
100
AcDbEntity
  8
SEIHIN
  6
CONTINUOUS
 62
     3
 48
8.0
100
AcDbLine
 10
212.8192619236829
 20
92.63098096719888
 30
0.0
 11
212.8192619236829
 21
102.6309809671988
 31
0.0
  0
TEXT
  5
211
330
137
100
AcDbEntity
  8
0
 62
     4
 48
8.0
100
AcDbText
 10
258.1739642492643
 20
91.38098296719887
 30
0.0
 40
6.0
  1
49
 50
90.0
 41
1.199999999999999
100
AcDbText
  0
LINE
  5
212
330
137
100
AcDbEntity
  8
SEIHIN
  6
CONTINUOUS
 62
     3
 48
8.0
100
AcDbLine
 10
206.3192619236829
 20
98.38098096719889
 30
0.0
 11
206.3192619236829
 21
110.3809809671988
 31
0.0
  0
LINE
  5
213
330
137
100
AcDbEntity
  8
SUNPOU
  6
CONTINUOUS
 62
     4
 48
8.0
100
AcDbLine
 10
217.3192619236829
 20
73.13098096719888
 30
0.0
 11
263.9646619236829
 21
73.13098096719888
 31
0.0
  0
LINE
  5
214
330
137
100
AcDbEntity
  8
SUNPOU
  6
CONTINUOUS
 62
     4
 48
8.0
100
AcDbLine
 10
216.8192619236829
 20
92.63098096719888
 30
0.0
 11
247.9438619236829
 21
92.63098096719888
 31
0.0
  0
ARC
  5
215
330
137
100
AcDbEntity
  8
SEIHIN
  6
CONTINUOUS
 62
     3
 48
8.0
100
AcDbCircle
 10
211.3191619236829
 20
77.25338096719887
 30
0.0
 40
1.0
100
AcDbArc
 50
180.0
 51
270.0
  0
LINE
  5
216
330
137
100
AcDbEntity
  8
SEIHIN
  6
CONTINUOUS
 62
     3
 48
8.0
100
AcDbLine
 10
206.3192619236829
 20
82.38098096719888
 30
0.0
 11
206.3192619236829
 21
76.95108096719888
 31
0.0
  0
LINE
  5
217
330
137
100
AcDbEntity
  8
SEIHIN
  6
CONTINUOUS
 62
     3
 48
8.0
100
AcDbLine
 10
207.5260619236829
 20
74.25338096719888
 30
0.0
 11
213.3191619236829
 21
74.25338096719888
 31
0.0
  0
LINE
  5
218
330
137
100
AcDbEntity
  8
SEIHIN
  6
CONTINUOUS
 62
     3
 48
8.0
100
AcDbLine
 10
207.5260619236829
 20
73.25338096719888
 30
0.0
 11
213.3191619236829
 21
73.25338096719888
 31
0.0
  0
ARC
  5
219
330
137
100
AcDbEntity
  8
SEIHIN
  6
CONTINUOUS
 62
     3
 48
8.0
100
AcDbCircle
 10
205.3192619236829
 20
76.95108096719888
 30
0.0
 40
0.999993
100
AcDbArc
 50
283.291372
 51
0.0
  0
LINE
  5
21A
330
137
100
AcDbEntity
  8
SEIHIN
  6
CONTINUOUS
 62
     3
 48
8.0
100
AcDbLine
 10
213.3191619236829
 20
76.25338096719888
 30
0.0
 11
213.3191619236829
 21
73.25338096719888
 31
0.0
  0
LINE
  5
21B
330
137
100
AcDbEntity
  8
SEIHIN
  6
CONTINUOUS
 62
     3
 48
8.0
100
AcDbLine
 10
211.3191619236829
 20
76.25338096719888
 30
0.0
 11
213.3191619236829
 21
76.25338096719888
 31
0.0
  0
LINE
  5
21C
330
137
100
AcDbEntity
  8
SEIHIN
  6
CONTINUOUS
 62
     3
 48
8.0
100
AcDbLine
 10
210.3192619236829
 20
97.38098096719888
 30
0.0
 11
210.3192619236829
 21
77.25338096719887
 31
0.0
  0
LINE
  5
21D
330
137
100
AcDbEntity
  8
SEIHIN
  6
CONTINUOUS
 62
     3
 48
8.0
100
AcDbLine
 10
207.3192619236829
 20
83.38098096719887
 30
0.0
 11
207.3192619236829
 21
97.38098096719888
 31
0.0
  0
LINE
  5
21E
330
137
100
AcDbEntity
  8
SEIHIN
  6
CONTINUOUS
 62
     3
 48
8.0
100
AcDbLine
 10
206.3192619236829
 20
96.38098096719888
 30
0.0
 11
206.3192619236829
 21
84.38098096719889
 31
0.0
  0
ARC
  5
21F
330
137
100
AcDbEntity
  8
SEIHIN
  6
CONTINUOUS
 62
     3
 48
8.0
100
AcDbCircle
 10
206.3192619236829
 20
83.38098096719887
 30
0.0
 40
1.0
100
AcDbArc
 50
270.0
 51
90.0
  0
ARC
  5
220
330
137
100
AcDbEntity
  8
SEIHIN
  6
CONTINUOUS
 62
     3
 48
8.0
100
AcDbCircle
 10
211.3192619236829
 20
91.63098096719888
 30
0.0
 40
1.0
100
AcDbArc
 50
90.0
 51
180.0
  0
ARC
  5
221
330
137
100
AcDbEntity
  8
SEIHIN
  6
CONTINUOUS
 62
     3
 48
8.0
100
AcDbCircle
 10
206.3192619236829
 20
97.38098096719888
 30
0.0
 40
1.0
100
AcDbArc
 50
270.0
 51
90.0
  0
LINE
  5
222
330
137
100
AcDbEntity
  8
SEIHIN
  6
CONTINUOUS
 62
     3
 48
8.0
100
AcDbLine
 10
211.3192619236829
 20
92.63098096719888
 30
0.0
 11
212.8192619236829
 21
92.63098096719888
 31
0.0
  0
LINE
  5
223
330
137
100
AcDbEntity
  8
SUNPOU
  6
CONTINUOUS
 62
     4
 48
8.0
100
AcDbLine
 10
259.9646619236829
 20
73.13098096719888
 30
0.0
 11
258.411761923683
 21
78.92648096719888
 31
0.0
  0
LINE
  5
224
330
137
100
AcDbEntity
  8
SUNPOU
  6
CONTINUOUS
 62
     4
 48
8.0
100
AcDbLine
 10
259.9646619236829
 20
73.13098096719888
 30
0.0
 11
261.517561923683
 21
78.92658096719888
 31
0.0
  0
LINE
  5
225
330
137
100
AcDbEntity
  8
SUNPOU
  6
CONTINUOUS
 62
     4
 48
8.0
100
AcDbLine
 10
243.9438619236829
 20
92.63098096719888
 30
0.0
 11
242.3909619236829
 21
98.42648096719889
 31
0.0
  0
LINE
  5
226
330
137
100
AcDbEntity
  8
SUNPOU
  6
CONTINUOUS
 62
     4
 48
8.0
100
AcDbLine
 10
243.9438619236829
 20
92.63098096719888
 30
0.0
 11
245.4967619236829
 21
98.42658096719889
 31
0.0
  0
LINE
  5
227
330
137
100
AcDbEntity
  8
SUNPOU
  6
CONTINUOUS
 62
     4
 48
8.0
100
AcDbLine
 10
217.3193619236829
 20
121.6309809671988
 30
0.0
 11
263.9646619236829
 21
121.6309809671988
 31
0.0
  0
LINE
  5
228
330
137
100
AcDbEntity
  8
SUNPOU
  6
CONTINUOUS
 62
     4
 48
8.0
100
AcDbLine
 10
216.8192619236829
 20
102.6309809671988
 30
0.0
 11
247.9438619236829
 21
102.6309809671988
 31
0.0
  0
ARC
  5
229
330
137
100
AcDbEntity
  8
SEIHIN
  6
CONTINUOUS
 62
     3
 48
8.0
100
AcDbCircle
 10
206.3193619236829
 20
111.3809809671988
 30
0.0
 40
1.0
100
AcDbArc
 50
270.0
 51
90.0
  0
ARC
  5
22A
330
137
100
AcDbEntity
  8
SEIHIN
  6
CONTINUOUS
 62
     3
 48
8.0
100
AcDbCircle
 10
211.3192619236829
 20
103.6309809671988
 30
0.0
 40
1.0
100
AcDbArc
 50
180.0
 51
270.0
  0
LINE
  5
22B
330
137
100
AcDbEntity
  8
SEIHIN
  6
CONTINUOUS
 62
     3
 48
8.0
100
AcDbLine
 10
211.3192619236829
 20
102.6309809671988
 30
0.0
 11
212.8192619236829
 21
102.6309809671988
 31
0.0
  0
LINE
  5
22C
330
137
100
AcDbEntity
  8
SEIHIN
  6
CONTINUOUS
 62
     3
 48
8.0
100
AcDbLine
 10
208.2643619236829
 20
121.5085809671988
 30
0.0
 11
213.3193619236829
 21
121.5085809671988
 31
0.0
  0
ARC
  5
22D
330
137
100
AcDbEntity
  8
SEIHIN
  6
CONTINUOUS
 62
     3
 48
8.0
100
AcDbCircle
 10
211.3193619236829
 20
117.5085809671988
 30
0.0
 40
1.0
100
AcDbArc
 50
90.0
 51
180.0
  0
LINE
  5
22E
330
137
100
AcDbEntity
  8
SEIHIN
  6
CONTINUOUS
 62
     3
 48
8.0
100
AcDbLine
 10
208.2643619236829
 20
120.5085809671988
 30
0.0
 11
213.3193619236829
 21
120.5085809671988
 31
0.0
  0
LINE
  5
22F
330
137
100
AcDbEntity
  8
SEIHIN
  6
CONTINUOUS
 62
     3
 48
8.0
100
AcDbLine
 10
206.3192619236829
 20
112.3809809671988
 30
0.0
 11
206.3192619236829
 21
117.8108809671988
 31
0.0
  0
ARC
  5
230
330
137
100
AcDbEntity
  8
SEIHIN
  6
CONTINUOUS
 62
     3
 48
8.0
100
AcDbCircle
 10
205.3193619236829
 20
117.8108809671988
 30
0.0
 40
0.9999819999999999
100
AcDbArc
 50
0.0
 51
76.71420400000001
  0
LINE
  5
231
330
137
100
AcDbEntity
  8
SEIHIN
  6
CONTINUOUS
 62
     3
 48
8.0
100
AcDbLine
 10
211.3193619236829
 20
118.5085809671988
 30
0.0
 11
213.3193619236829
 21
118.5085809671988
 31
0.0
  0
LINE
  5
232
330
137
100
AcDbEntity
  8
SEIHIN
  6
CONTINUOUS
 62
     3
 48
8.0
100
AcDbLine
 10
213.3193619236829
 20
118.5085809671988
 30
0.0
 11
213.3193619236829
 21
121.5085809671988
 31
0.0
  0
TEXT
  5
233
330
137
100
AcDbEntity
  8
0
 62
     4
 48
8.0
100
AcDbText
 10
242.1531642492643
 20
104.0176829671988
 30
0.0
 40
6.0
  1
φ10
 50
90.0
 41
1.384614999999999
100
AcDbText
  0
LINE
  5
234
330
137
100
AcDbEntity
  8
SUNPOU
  6
CONTINUOUS
 62
     4
 48
8.0
100
AcDbLine
 10
259.9646619236829
 20
121.6309809671988
 30
0.0
 11
258.411761923683
 21
115.8354809671988
 31
0.0
  0
LINE
  5
235
330
137
100
AcDbEntity
  8
SUNPOU
  6
CONTINUOUS
 62
     4
 48
8.0
100
AcDbLine
 10
259.9646619236829
 20
121.6309809671988
 30
0.0
 11
261.517561923683
 21
115.8354809671988
 31
0.0
  0
LINE
  5
236
330
137
100
AcDbEntity
  8
SUNPOU
  6
CONTINUOUS
 62
     4
 48
8.0
100
AcDbLine
 10
304.3755619236829
 20
98.77888096719887
 30
0.0
 11
308.7784619236829
 21
102.8549809671988
 31
0.0
  0
CIRCLE
  5
237
330
137
100
AcDbEntity
  8
SEIHIN
  6
CONTINUOUS
 62
     3
 48
8.0
100
AcDbCircle
 10
302.8086619236829
 20
97.38078096719888
 30
0.0
 40
5.0
  0
LINE
  5
238
330
137
100
AcDbEntity
  8
SEIHIN
  6
CONTINUOUS
 62
     3
 48
8.0
100
AcDbLine
 10
311.808561923683
 20
58.03078096719889
 30
0.0
 11
311.8087619236829
 21
136.7305809671988
 31
0.0
  0
LINE
  5
239
330
137
100
AcDbEntity
  8
SEIHIN
  6
CONTINUOUS
 62
     3
 48
8.0
100
AcDbLine
 10
293.8085619236829
 20
58.03078096719889
 30
0.0
 11
293.808761923683
 21
136.7306809671989
 31
0.0
  0
LINE
  5
23A
330
137
100
AcDbEntity
  8
CENTER_L
  6
CENTER
 62
     1
 48
5.0
100
AcDbLine
 10
315.2953619236829
 20
97.38078096719888
 30
0.0
 11
290.2622619236829
 21
97.38078096719888
 31
0.0
  0
LINE
  5
23B
330
137
100
AcDbEntity
  8
SEIHIN
  6
CONTINUOUS
 62
     3
 48
8.0
100
AcDbLine
 10
293.8085619236829
 20
76.25338096719888
 30
0.0
 11
311.808561923683
 21
76.25338096719888
 31
0.0
  0
LINE
  5
23C
330
137
100
AcDbEntity
  8
SEIHIN
  6
CONTINUOUS
 62
     3
 48
8.0
100
AcDbLine
 10
296.3086619236829
 20
73.16938096719887
 30
0.0
 11
309.3086619236829
 21
73.16938096719887
 31
0.0
  0
LINE
  5
23D
330
137
100
AcDbEntity
  8
SEIHIN
  6
CONTINUOUS
 62
     3
 48
8.0
100
AcDbLine
 10
296.3085619236829
 20
56.53078096719888
 30
0.0
 11
309.3086619236829
 21
56.53078096719888
 31
0.0
  0
LINE
  5
23E
330
137
100
AcDbEntity
  8
SEIHIN
  6
CONTINUOUS
 62
     3
 48
8.0
100
AcDbLine
 10
296.3085619236829
 20
73.16938096719887
 30
0.0
 11
296.3085619236829
 21
56.53068096719888
 31
0.0
  0
LINE
  5
23F
330
137
100
AcDbEntity
  8
SEIHIN
  6
CONTINUOUS
 62
     3
 48
8.0
100
AcDbLine
 10
296.3085619236829
 20
56.53078096719888
 30
0.0
 11
293.8085619236829
 21
58.03078096719889
 31
0.0
  0
LINE
  5
240
330
137
100
AcDbEntity
  8
SEIHIN
  6
CONTINUOUS
 62
     3
 48
8.0
100
AcDbLine
 10
296.3085619236829
 20
73.16948096719888
 30
0.0
 11
293.8085619236829
 21
74.66948096719888
 31
0.0
  0
LINE
  5
241
330
137
100
AcDbEntity
  8
SEIHIN
  6
CONTINUOUS
 62
     3
 48
8.0
100
AcDbLine
 10
309.308561923683
 20
73.16938096719887
 30
0.0
 11
309.308561923683
 21
56.53058096719888
 31
0.0
  0
LINE
  5
242
330
137
100
AcDbEntity
  8
SEIHIN
  6
CONTINUOUS
 62
     3
 48
8.0
100
AcDbLine
 10
311.808561923683
 20
58.03078096719889
 30
0.0
 11
309.308561923683
 21
56.53078096719888
 31
0.0
  0
LINE
  5
243
330
137
100
AcDbEntity
  8
SEIHIN
  6
CONTINUOUS
 62
     3
 48
8.0
100
AcDbLine
 10
311.808561923683
 20
74.66938096719887
 30
0.0
 11
309.3086619236829
 21
73.16938096719887
 31
0.0
  0
LINE
  5
244
330
137
100
AcDbEntity
  8
SUNPOU
  6
CONTINUOUS
 62
     4
 48
8.0
100
AcDbLine
 10
304.3755619236829
 20
98.77888096719887
 30
0.0
 11
310.2266619236829
 21
100.1073809671988
 31
0.0
  0
CIRCLE
  5
245
330
137
100
AcDbEntity
  8
SEIHIN
  6
CONTINUOUS
 62
     3
 48
8.0
100
AcDbCircle
 10
302.8086619236829
 20
97.38078096719888
 30
0.0
 40
2.1
  0
LINE
  5
246
330
137
100
AcDbEntity
  8
SEIHIN
  6
CONTINUOUS
 62
     3
 48
8.0
100
AcDbLine
 10
293.8085619236829
 20
118.5085809671988
 30
0.0
 11
311.808561923683
 21
118.5085809671988
 31
0.0
  0
LINE
  5
247
330
137
100
AcDbEntity
  8
SEIHIN
  6
CONTINUOUS
 62
     3
 48
8.0
100
AcDbLine
 10
296.3086619236829
 20
121.5922809671988
 30
0.0
 11
309.3087619236829
 21
121.5922809671988
 31
0.0
  0
LINE
  5
248
330
137
100
AcDbEntity
  8
SEIHIN
  6
CONTINUOUS
 62
     3
 48
8.0
100
AcDbLine
 10
296.3086619236829
 20
130.7307809671988
 30
0.0
 11
309.3087619236829
 21
130.7307809671988
 31
0.0
  0
LINE
  5
249
330
137
100
AcDbEntity
  8
SEIHIN
  6
CONTINUOUS
 62
     3
 48
8.0
100
AcDbLine
 10
293.8086619236829
 20
136.7307809671988
 30
0.0
 11
311.8086619236829
 21
136.7307809671988
 31
0.0
  0
LINE
  5
24A
330
137
100
AcDbEntity
  8
SEIHIN
  6
CONTINUOUS
 62
     3
 48
8.0
100
AcDbLine
 10
296.3086619236829
 20
130.7306809671989
 30
0.0
 11
296.3086619236829
 21
121.5922809671988
 31
0.0
  0
LINE
  5
24B
330
137
100
AcDbEntity
  8
SEIHIN
  6
CONTINUOUS
 62
     3
 48
8.0
100
AcDbLine
 10
293.8086619236829
 20
120.0922809671989
 30
0.0
 11
296.3086619236829
 21
121.5922809671988
 31
0.0
  0
LINE
  5
24C
330
137
100
AcDbEntity
  8
SEIHIN
  6
CONTINUOUS
 62
     3
 48
8.0
100
AcDbLine
 10
299.3087619236829
 20
130.7307809671988
 30
0.0
 11
299.3087619236829
 21
136.7306809671989
 31
0.0
  0
LINE
  5
24D
330
137
100
AcDbEntity
  8
SEIHIN
  6
CONTINUOUS
 62
     3
 48
8.0
100
AcDbLine
 10
293.8086619236829
 20
129.2307809671988
 30
0.0
 11
296.3086619236829
 21
130.7307809671988
 31
0.0
  0
LINE
  5
24E
330
137
100
AcDbEntity
  8
SEIHIN
  6
CONTINUOUS
 62
     3
 48
8.0
100
AcDbLine
 10
295.808761923683
 20
135.9059809671989
 30
0.0
 11
299.3087619236829
 21
135.9059809671989
 31
0.0
  0
LINE
  5
24F
330
137
100
AcDbEntity
  8
SEIHIN
  6
CONTINUOUS
 62
     3
 48
8.0
100
AcDbLine
 10
295.808761923683
 20
136.7306809671989
 30
0.0
 11
295.808761923683
 21
135.9059809671989
 31
0.0
  0
LINE
  5
250
330
137
100
AcDbEntity
  8
SEIHIN
  6
CONTINUOUS
 62
     3
 48
8.0
100
AcDbLine
 10
309.3087619236829
 20
130.7306809671989
 30
0.0
 11
309.3086619236829
 21
121.5922809671988
 31
0.0
  0
LINE
  5
251
330
137
100
AcDbEntity
  8
SEIHIN
  6
CONTINUOUS
 62
     3
 48
8.0
100
AcDbLine
 10
309.3087619236829
 20
121.5922809671988
 30
0.0
 11
311.8087619236829
 21
120.0922809671989
 31
0.0
  0
LINE
  5
252
330
137
100
AcDbEntity
  8
SEIHIN
  6
CONTINUOUS
 62
     3
 48
8.0
100
AcDbLine
 10
306.308761923683
 20
130.7307809671988
 30
0.0
 11
306.308761923683
 21
136.7306809671989
 31
0.0
  0
LINE
  5
253
330
137
100
AcDbEntity
  8
SEIHIN
  6
CONTINUOUS
 62
     3
 48
8.0
100
AcDbLine
 10
309.3087619236829
 20
130.7307809671988
 30
0.0
 11
311.8087619236829
 21
129.2307809671988
 31
0.0
  0
LINE
  5
254
330
137
100
AcDbEntity
  8
SEIHIN
  6
CONTINUOUS
 62
     3
 48
8.0
100
AcDbLine
 10
306.308761923683
 20
135.9059809671989
 30
0.0
 11
309.8087619236829
 21
135.9059809671989
 31
0.0
  0
LINE
  5
255
330
137
100
AcDbEntity
  8
SEIHIN
  6
CONTINUOUS
 62
     3
 48
8.0
100
AcDbLine
 10
309.8087619236829
 20
136.7305809671988
 30
0.0
 11
309.8087619236829
 21
135.9059809671989
 31
0.0
  0
LINE
  5
256
330
137
100
AcDbEntity
  8
ZUWAKU
 62
     7
 48
10.0
100
AcDbLine
 10
376.5186114417313
 20
5.067699214013056
 30
0.0
 11
376.5186114417313
 21
11.06769921401314
 31
0.0
  0
LINE
  5
257
330
137
100
AcDbEntity
  8
ZUWAKU
 62
     7
 48
10.0
100
AcDbLine
 10
359.063007563939
 20
5.06769921401308
 30
0.0
 11
359.0630075639389
 21
11.06769921401314
 31
0.0
  0
TEXT
  5
258
330
137
100
AcDbEntity
  8
ZUWAKU
 62
     7
100
AcDbText
 10
362.004838943768
 20
5.797544851656132
 30
0.0
 40
4.0
  1
尺 度
100
AcDbText
  0
LINE
  5
259
330
137
100
AcDbEntity
  8
SUNPOU
  6
CONTINUOUS
 62
     4
 48
8.0
100
AcDbLine
 10
336.3748619236829
 20
115.6446809671988
 30
0.0
 11
359.9046619236829
 21
115.6446809671988
 31
0.0
  0
TEXT
  5
25A
330
137
100
AcDbEntity
  8
0
 62
     4
 48
8.0
100
AcDbText
 10
336.9586619236829
 20
116.5166786416174
 30
0.0
 40
6.0
  1
φ4.2
 41
1.333333
100
AcDbText
  0
LINE
  5
25B
330
137
100
AcDbEntity
  8
SUNPOU
  6
CONTINUOUS
 62
     4
 48
8.0
100
AcDbLine
 10
213.3193619236829
 20
161.1532809671988
 30
0.0
 11
207.5237619236829
 21
159.6003809671988
 31
0.0
  0
LINE
  5
25C
330
137
100
AcDbEntity
  8
SUNPOU
  6
CONTINUOUS
 62
     4
 48
8.0
100
AcDbLine
 10
213.3193619236829
 20
161.1532809671988
 30
0.0
 11
207.5237619236829
 21
162.7061809671989
 31
0.0
  0
TEXT
  5
25D
330
137
100
AcDbEntity
  8
0
 62
     4
 48
8.0
100
AcDbText
 10
206.8193619236829
 20
163.0137460834779
 30
0.0
 40
6.0
  1
7
 41
1.5
100
AcDbText
  0
LINE
  5
25E
330
137
100
AcDbEntity
  8
SUNPOU
  6
CONTINUOUS
 62
     4
 48
8.0
100
AcDbLine
 10
206.3192619236829
 20
161.1532809671988
 30
0.0
 11
212.1148619236829
 21
162.7061809671989
 31
0.0
  0
LINE
  5
25F
330
137
100
AcDbEntity
  8
SUNPOU
  6
CONTINUOUS
 62
     4
 48
8.0
100
AcDbLine
 10
206.3192619236829
 20
161.1532809671988
 30
0.0
 11
212.1148619236829
 21
159.6003809671988
 31
0.0
  0
LINE
  5
260
330
137
100
AcDbEntity
  8
SUNPOU
  6
CONTINUOUS
 62
     4
 48
8.0
100
AcDbLine
 10
206.3192619236829
 20
161.1532809671988
 30
0.0
 11
213.3193619236829
 21
161.1532809671988
 31
0.0
  0
LINE
  5
261
330
137
100
AcDbEntity
  8
SUNPOU
  6
CONTINUOUS
 62
     4
 48
8.0
100
AcDbLine
 10
213.3193619236829
 20
173.3473809671988
 30
0.0
 11
207.5237619236829
 21
171.7944809671988
 31
0.0
  0
LINE
  5
262
330
137
100
AcDbEntity
  8
SUNPOU
  6
CONTINUOUS
 62
     4
 48
8.0
100
AcDbLine
 10
213.3193619236829
 20
173.3473809671988
 30
0.0
 11
207.5237619236829
 21
174.9003809671988
 31
0.0
  0
LINE
  5
263
330
137
100
AcDbEntity
  8
SEIHIN
  6
CONTINUOUS
 62
     3
 48
8.0
100
AcDbLine
 10
210.3316619236829
 20
210.8811809671988
 30
0.0
 11
210.3316619236829
 21
217.3810809671989
 31
0.0
  0
LINE
  5
264
330
137
100
AcDbEntity
  8
SEIHIN
  6
CONTINUOUS
 62
     3
 48
8.0
100
AcDbLine
 10
213.3193619236829
 20
208.3811809671988
 30
0.0
 11
213.3193619236829
 21
226.3810809671988
 31
0.0
  0
LINE
  5
265
330
137
100
AcDbEntity
  8
SEIHIN
  6
CONTINUOUS
 62
     3
 48
8.0
100
AcDbLine
 10
210.3316619236829
 20
210.8811809671988
 30
0.0
 11
209.3316619236829
 21
208.3811809671988
 31
0.0
  0
LINE
  5
266
330
137
100
AcDbEntity
  8
SEIHIN
  6
CONTINUOUS
 62
     3
 48
8.0
100
AcDbLine
 10
210.3316619236829
 20
223.8811809671988
 30
0.0
 11
210.3316619236829
 21
217.3810809671989
 31
0.0
  0
LINE
  5
267
330
137
100
AcDbEntity
  8
SEIHIN
  6
CONTINUOUS
 62
     3
 48
8.0
100
AcDbLine
 10
210.3316619236829
 20
223.8811809671988
 30
0.0
 11
209.3316619236829
 21
226.3811809671988
 31
0.0
  0
ENDBLK
  5
269
330
137
100
AcDbEntity
  8
0
100
AcDbBlockEnd
  0
BLOCK
  5
3A0
330
39F
100
AcDbEntity
  8
0
100
AcDbBlockBegin
  2
*D3
 70
     1
 10
0.0
 20
0.0
 30
0.0
  3
*D3
  1

  0
LINE
  5
3A1
330
39F
100
AcDbEntity
  8
0
  6
BYBLOCK
 62
     4
100
AcDbLine
 10
153.0562753140487
 20
138.670890826293
 30
0.0
 11
153.0562753140487
 21
179.0921351101445
 31
0.0
  0
LINE
  5
3A2
330
39F
100
AcDbEntity
  8
0
  6
BYBLOCK
 62
     4
100
AcDbLine
 10
223.7563753140487
 20
141.548290826293
 30
0.0
 11
223.7563753140487
 21
179.0921351101445
 31
0.0
  0
LINE
  5
3A3
330
39F
100
AcDbEntity
  8
0
  6
BYBLOCK
 62
     4
100
AcDbLine
 10
156.0562753140487
 20
177.5921351101445
 30
0.0
 11
220.7563753140487
 21
177.5921351101445
 31
0.0
  0
INSERT
  5
3A4
330
39F
100
AcDbEntity
  8
0
  6
BYBLOCK
 62
     4
100
AcDbBlockReference
  2
_OPEN
 10
153.0562753140487
 20
177.5921351101445
 30
0.0
 41
3.0
 42
3.0
 43
3.0
 50
180.0
  0
INSERT
  5
3A5
330
39F
100
AcDbEntity
  8
0
  6
BYBLOCK
 62
     4
100
AcDbBlockReference
  2
_OPEN
 10
223.7563753140487
 20
177.5921351101445
 30
0.0
 41
3.0
 42
3.0
 43
3.0
  0
MTEXT
  5
3A6
330
39F
100
AcDbEntity
  8
0
  6
BYBLOCK
 62
     4
100
AcDbMText
 10
188.4063253140487
 20
180.0921351101445
 30
0.0
 40
3.0
 41
0.0
 71
     5
 72
     1
  1
\A1;71
1001
ACAD
1000
MTEXTBEGIN
1070
    73
1070
     1
1070
    44
1040
1.0
1070
    74
1070
     0
1000
MTEXTEND
1000
MTEXTBEGIN
1070
    73
1070
     1
1070
    44
1040
1.0
1070
    74
1070
     0
1000
MTEXTEND
1000
MTEXTBEGIN
1070
    73
1070
     1
1070
    44
1040
1.0
1070
    74
1070
     0
1000
MTEXTEND
  0
POINT
  5
3A8
330
39F
100
AcDbEntity
  8
DEFPOINTS
  6
BYBLOCK
 62
     0
100
AcDbPoint
 10
153.0562753140487
 20
135.670890826293
 30
0.0
  0
POINT
  5
3A9
330
39F
100
AcDbEntity
  8
DEFPOINTS
  6
BYBLOCK
 62
     0
100
AcDbPoint
 10
223.7563753140487
 20
138.548290826293
 30
0.0
  0
POINT
  5
3AA
330
39F
100
AcDbEntity
  8
DEFPOINTS
  6
BYBLOCK
 62
     0
100
AcDbPoint
 10
223.7563753140487
 20
177.5921351101445
 30
0.0
  0
ENDBLK
  5
3AB
330
39F
100
AcDbEntity
  8
0
100
AcDbBlockEnd
  0
BLOCK
  5
3B1
330
3B0
100
AcDbEntity
  8
0
100
AcDbBlockBegin
  2
*D4
 70
     1
 10
0.0
 20
0.0
 30
0.0
  3
*D4
  1

  0
LINE
  5
3B2
330
3B0
100
AcDbEntity
  8
0
  6
BYBLOCK
 62
     4
100
AcDbLine
 10
226.7563753140487
 20
138.548290826293
 30
0.0
 11
253.1641335665051
 21
138.548290826293
 31
0.0
  0
LINE
  5
3B3
330
3B0
100
AcDbEntity
  8
0
  6
BYBLOCK
 62
     4
100
AcDbLine
 10
226.7561753140487
 20
90.29309082629303
 30
0.0
 11
253.1641335665051
 21
90.29309082629303
 31
0.0
  0
LINE
  5
3B4
330
3B0
100
AcDbEntity
  8
0
  6
BYBLOCK
 62
     4
100
AcDbLine
 10
251.6641335665051
 20
135.548290826293
 30
0.0
 11
251.6641335665051
 21
93.29309082629304
 31
0.0
  0
INSERT
  5
3B5
330
3B0
100
AcDbEntity
  8
0
  6
BYBLOCK
 62
     4
100
AcDbBlockReference
  2
_OPEN
 10
251.6641335665051
 20
138.548290826293
 30
0.0
 41
3.0
 42
3.0
 43
3.0
 50
90.0
  0
INSERT
  5
3B6
330
3B0
100
AcDbEntity
  8
0
  6
BYBLOCK
 62
     4
100
AcDbBlockReference
  2
_OPEN
 10
251.6641335665051
 20
90.29309082629303
 30
0.0
 41
3.0
 42
3.0
 43
3.0
 50
270.0
  0
MTEXT
  5
3B7
330
3B0
100
AcDbEntity
  8
0
  6
BYBLOCK
 62
     4
100
AcDbMText
 10
249.1641335665051
 20
114.420690826293
 30
0.0
 40
3.0
 41
0.0
 71
     5
 72
     1
  1
\A1;48
 11
0.0
 21
1.0
 31
0.0
1001
ACAD
1000
MTEXTBEGIN
1070
    73
1070
     1
1070
    44
1040
1.0
1070
    74
1070
     0
1000
MTEXTEND
1000
MTEXTBEGIN
1070
    73
1070
     1
1070
    44
1040
1.0
1070
    74
1070
     0
1000
MTEXTEND
1000
MTEXTBEGIN
1070
    73
1070
     1
1070
    44
1040
1.0
1070
    74
1070
     0
1000
MTEXTEND
  0
POINT
  5
3B8
330
3B0
100
AcDbEntity
  8
DEFPOINTS
  6
BYBLOCK
 62
     0
100
AcDbPoint
 10
223.7563753140487
 20
138.548290826293
 30
0.0
  0
POINT
  5
3B9
330
3B0
100
AcDbEntity
  8
DEFPOINTS
  6
BYBLOCK
 62
     0
100
AcDbPoint
 10
223.7561753140488
 20
90.29309082629303
 30
0.0
  0
POINT
  5
3BA
330
3B0
100
AcDbEntity
  8
DEFPOINTS
  6
BYBLOCK
 62
     0
100
AcDbPoint
 10
251.6641335665051
 20
90.29309082629303
 30
0.0
  0
ENDBLK
  5
3BB
330
3B0
100
AcDbEntity
  8
0
100
AcDbBlockEnd
  0
BLOCK
  5
3BE
330
3BD
100
AcDbEntity
  8
0
100
AcDbBlockBegin
  2
*D5
 70
     1
 10
0.0
 20
0.0
 30
0.0
  3
*D5
  1

  0
LINE
  5
3BF
330
3BD
100
AcDbEntity
  8
0
  6
BYBLOCK
 62
     4
100
AcDbLine
 10
162.1562753140487
 20
147.770590826293
 30
0.0
 11
126.443649765041
 21
147.770590826293
 31
0.0
  0
LINE
  5
3C0
330
3BD
100
AcDbEntity
  8
0
  6
BYBLOCK
 62
     4
100
AcDbLine
 10
162.1560753140487
 20
81.07079082629304
 30
0.0
 11
126.443649765041
 21
81.07079082629304
 31
0.0
  0
LINE
  5
3C1
330
3BD
100
AcDbEntity
  8
0
  6
BYBLOCK
 62
     4
100
AcDbLine
 10
127.943649765041
 20
144.770590826293
 30
0.0
 11
127.943649765041
 21
84.07079082629305
 31
0.0
  0
INSERT
  5
3C2
330
3BD
100
AcDbEntity
  8
0
  6
BYBLOCK
 62
     4
100
AcDbBlockReference
  2
_OPEN
 10
127.943649765041
 20
147.770590826293
 30
0.0
 41
3.0
 42
3.0
 43
3.0
 50
90.0
  0
INSERT
  5
3C3
330
3BD
100
AcDbEntity
  8
0
  6
BYBLOCK
 62
     4
100
AcDbBlockReference
  2
_OPEN
 10
127.943649765041
 20
81.07079082629304
 30
0.0
 41
3.0
 42
3.0
 43
3.0
 50
270.0
  0
MTEXT
  5
3C4
330
3BD
100
AcDbEntity
  8
0
  6
BYBLOCK
 62
     4
100
AcDbMText
 10
125.443649765041
 20
114.420690826293
 30
0.0
 40
3.0
 41
0.0
 71
     5
 72
     1
  1
\A1;67
 11
0.0
 21
1.0
 31
0.0
1001
ACAD
1000
MTEXTBEGIN
1070
    73
1070
     1
1070
    44
1040
1.0
1070
    74
1070
     0
1000
MTEXTEND
1000
MTEXTBEGIN
1070
    73
1070
     1
1070
    44
1040
1.0
1070
    74
1070
     0
1000
MTEXTEND
1000
MTEXTBEGIN
1070
    73
1070
     1
1070
    44
1040
1.0
1070
    74
1070
     0
1000
MTEXTEND
  0
POINT
  5
3C5
330
3BD
100
AcDbEntity
  8
DEFPOINTS
  6
BYBLOCK
 62
     0
100
AcDbPoint
 10
165.1562753140487
 20
147.770590826293
 30
0.0
  0
POINT
  5
3C6
330
3BD
100
AcDbEntity
  8
DEFPOINTS
  6
BYBLOCK
 62
     0
100
AcDbPoint
 10
165.1560753140487
 20
81.07079082629304
 30
0.0
  0
POINT
  5
3C7
330
3BD
100
AcDbEntity
  8
DEFPOINTS
  6
BYBLOCK
 62
     0
100
AcDbPoint
 10
127.943649765041
 20
81.07079082629304
 30
0.0
  0
ENDBLK
  5
3C8
330
3BD
100
AcDbEntity
  8
0
100
AcDbBlockEnd
  0
BLOCK
  5
3CB
330
3CA
100
AcDbEntity
  8
0
100
AcDbBlockBegin
  2
*D6
 70
     1
 10
0.0
 20
0.0
 30
0.0
  3
*D6
  1

  0
LINE
  5
3CC
330
3CA
100
AcDbEntity
  8
0
  6
BYBLOCK
 62
     4
100
AcDbLine
 10
151.0561753140487
 20
243.420790826293
 30
0.0
 11
126.943649765041
 21
243.420790826293
 31
0.0
  0
LINE
  5
3CD
330
3CA
100
AcDbEntity
  8
0
  6
BYBLOCK
 62
     4
100
AcDbLine
 10
151.0561753140487
 20
225.420690826293
 30
0.0
 11
126.943649765041
 21
225.420690826293
 31
0.0
  0
LINE
  5
3CE
330
3CA
100
AcDbEntity
  8
0
  6
BYBLOCK
 62
     4
100
AcDbLine
 10
128.443649765041
 20
240.420790826293
 30
0.0
 11
128.443649765041
 21
228.420690826293
 31
0.0
  0
INSERT
  5
3CF
330
3CA
100
AcDbEntity
  8
0
  6
BYBLOCK
 62
     4
100
AcDbBlockReference
  2
_OPEN
 10
128.443649765041
 20
243.420790826293
 30
0.0
 41
3.0
 42
3.0
 43
3.0
 50
90.0
  0
INSERT
  5
3D0
330
3CA
100
AcDbEntity
  8
0
  6
BYBLOCK
 62
     4
100
AcDbBlockReference
  2
_OPEN
 10
128.443649765041
 20
225.420690826293
 30
0.0
 41
3.0
 42
3.0
 43
3.0
 50
270.0
  0
MTEXT
  5
3D1
330
3CA
100
AcDbEntity
  8
0
  6
BYBLOCK
 62
     4
100
AcDbMText
 10
125.943649765041
 20
234.420740826293
 30
0.0
 40
3.0
 41
0.0
 71
     5
 72
     1
  1
\A1;18
 11
0.0
 21
1.0
 31
0.0
1001
ACAD
1000
MTEXTBEGIN
1070
    73
1070
     1
1070
    44
1040
1.0
1070
    74
1070
     0
1000
MTEXTEND
1000
MTEXTBEGIN
1070
    73
1070
     1
1070
    44
1040
1.0
1070
    74
1070
     0
1000
MTEXTEND
1000
MTEXTBEGIN
1070
    73
1070
     1
1070
    44
1040
1.0
1070
    74
1070
     0
1000
MTEXTEND
  0
POINT
  5
3D2
330
3CA
100
AcDbEntity
  8
DEFPOINTS
  6
BYBLOCK
 62
     0
100
AcDbPoint
 10
154.0561753140487
 20
243.420790826293
 30
0.0
  0
POINT
  5
3D3
330
3CA
100
AcDbEntity
  8
DEFPOINTS
  6
BYBLOCK
 62
     0
100
AcDbPoint
 10
154.0561753140487
 20
225.420690826293
 30
0.0
  0
POINT
  5
3D4
330
3CA
100
AcDbEntity
  8
DEFPOINTS
  6
BYBLOCK
 62
     0
100
AcDbPoint
 10
128.443649765041
 20
225.420690826293
 30
0.0
  0
ENDBLK
  5
3D5
330
3CA
100
AcDbEntity
  8
0
100
AcDbBlockEnd
  0
BLOCK
  5
3DA
330
3D9
100
AcDbEntity
  8
0
100
AcDbBlockBegin
  2
*D7
 70
     1
 10
0.0
 20
0.0
 30
0.0
  3
*D7
  1

  0
LINE
  5
3DB
330
3D9
100
AcDbEntity
  8
0
  6
BYBLOCK
 62
     4
100
AcDbLine
 10
179.7615421017945
 20
137.850590826293
 30
0.0
 11
179.7615421017945
 21
168.6999014958172
 31
0.0
  0
LINE
  5
3DC
330
3D9
100
AcDbEntity
  8
0
  6
BYBLOCK
 62
     4
100
AcDbLine
 10
186.7616421017945
 20
141.548290826293
 30
0.0
 11
186.7616421017945
 21
168.6999014958172
 31
0.0
  0
LINE
  5
3DD
330
3D9
100
AcDbEntity
  8
0
  6
BYBLOCK
 62
     4
100
AcDbLine
 10
176.7615421017945
 20
167.1999014958172
 30
0.0
 11
173.7615421017945
 21
167.1999014958172
 31
0.0
  0
LINE
  5
3DE
330
3D9
100
AcDbEntity
  8
0
  6
BYBLOCK
 62
     4
100
AcDbLine
 10
189.7616421017945
 20
167.1999014958172
 30
0.0
 11
192.7616421017945
 21
167.1999014958172
 31
0.0
  0
LINE
  5
3DF
330
3D9
100
AcDbEntity
  8
0
  6
BYBLOCK
 62
     4
100
AcDbLine
 10
179.7615421017945
 20
167.1999014958172
 30
0.0
 11
186.7616421017945
 21
167.1999014958172
 31
0.0
  0
INSERT
  5
3E0
330
3D9
100
AcDbEntity
  8
0
  6
BYBLOCK
 62
     4
100
AcDbBlockReference
  2
_OPEN
 10
179.7615421017945
 20
167.1999014958172
 30
0.0
 41
3.0
 42
3.0
 43
3.0
  0
INSERT
  5
3E1
330
3D9
100
AcDbEntity
  8
0
  6
BYBLOCK
 62
     4
100
AcDbBlockReference
  2
_OPEN
 10
186.7616421017945
 20
167.1999014958172
 30
0.0
 41
3.0
 42
3.0
 43
3.0
 50
180.0
  0
MTEXT
  5
3E2
330
3D9
100
AcDbEntity
  8
0
  6
BYBLOCK
 62
     4
100
AcDbMText
 10
183.2615921017945
 20
169.6999014958172
 30
0.0
 40
3.0
 41
0.0
 71
     5
 72
     1
  1
\A1;7
1001
ACAD
1000
MTEXTBEGIN
1070
    73
1070
     1
1070
    44
1040
1.0
1070
    74
1070
     0
1000
MTEXTEND
1000
MTEXTBEGIN
1070
    73
1070
     1
1070
    44
1040
1.0
1070
    74
1070
     0
1000
MTEXTEND
1000
MTEXTBEGIN
1070
    73
1070
     1
1070
    44
1040
1.0
1070
    74
1070
     0
1000
MTEXTEND
  0
POINT
  5
3E3
330
3D9
100
AcDbEntity
  8
DEFPOINTS
  6
BYBLOCK
 62
     0
100
AcDbPoint
 10
179.7615421017945
 20
134.850590826293
 30
0.0
  0
POINT
  5
3E4
330
3D9
100
AcDbEntity
  8
DEFPOINTS
  6
BYBLOCK
 62
     0
100
AcDbPoint
 10
186.7616421017945
 20
138.548290826293
 30
0.0
  0
POINT
  5
3E5
330
3D9
100
AcDbEntity
  8
DEFPOINTS
  6
BYBLOCK
 62
     0
100
AcDbPoint
 10
186.7616421017945
 20
167.1999014958172
 30
0.0
  0
ENDBLK
  5
3E6
330
3D9
100
AcDbEntity
  8
0
100
AcDbBlockEnd
  0
ENDSEC
  0
SECTION
  2
ENTITIES
  0
LINE
  5
6C
330
1A
100
AcDbEntity
  8
ZUWAKU
  6
CONTINUOUS
 62
     7
100
AcDbLine
 10
403.0
 20
7.0
 30
0.0
 11
5.0
 21
7.0
 31
0.0
  0
LINE
  5
6D
330
1A
100
AcDbEntity
  8
ZUWAKU
  6
CONTINUOUS
 62
     7
100
AcDbLine
 10
5.0
 20
282.0
 30
0.0
 11
5.0
 21
7.0
 31
0.0
  0
LINE
  5
6E
330
1A
100
AcDbEntity
  8
ZUWAKU
  6
CONTINUOUS
 62
     7
100
AcDbLine
 10
403.0
 20
282.0
 30
0.0
 11
403.0
 21
7.0
 31
0.0
  0
LINE
  5
6F
330
1A
100
AcDbEntity
  8
ZUWAKU
  6
CONTINUOUS
 62
     7
100
AcDbLine
 10
403.0
 20
282.0
 30
0.0
 11
5.0
 21
282.0
 31
0.0
  0
LINE
  5
8E
330
1A
100
AcDbEntity
  8
ZUWAKU
 62
     7
 48
10.0
100
AcDbLine
 10
5.0
 20
13.0
 30
0.0
 11
403.0
 21
12.99999999999994
 31
0.0
  0
TEXT
  5
93
330
1A
100
AcDbEntity
  8
ZUWAKU
 62
     7
100
AcDbText
 10
8.003143713074223
 20
7.870178177610682
 30
0.0
 40
4.0
  1
品 種
100
AcDbText
  0
TEXT
  5
97
330
1A
100
AcDbEntity
  8
ZUWAKU
 62
     7
100
AcDbText
 10
107.7028028167073
 20
8.200497435100942
 30
0.0
 40
4.0
  1
品名・ｻ ｲ ｽﾞ
100
AcDbText
  0
LINE
  5
9A
330
1A
100
AcDbEntity
  8
ZUWAKU
 62
     7
 48
10.0
100
AcDbLine
 10
324.3551403257206
 20
6.999999999999836
 30
0.0
 11
324.3551403257206
 21
12.99999999999995
 31
0.0
  0
LINE
  5
9B
330
1A
100
AcDbEntity
  8
ZUWAKU
 62
     7
 48
10.0
100
AcDbLine
 10
307.142312366876
 20
6.999999999999836
 30
0.0
 11
307.142312366876
 21
12.99999999999995
 31
0.0
  0
TEXT
  5
9C
330
1A
100
AcDbEntity
  8
ZUWAKU
 62
     7
100
AcDbText
 10
310.1429253763237
 20
7.934661405801826
 30
0.0
 40
4.0
  1
品 番
100
AcDbText
  0
TEXT
  5
9E
330
1A
100
AcDbEntity
  8
ZUWAKU
 62
     7
 48
10.0
100
AcDbText
 10
322.9513761015196
 20
2.449000558492457
 30
0.0
 40
4.0
  1
積水化学工業株式会社  建材
100
AcDbText
  0
TEXT
  5
A1
330
1A
100
AcDbEntity
  8
ZUWAKU
 62
     7
100
AcDbText
 10
389.843492473331
 20
7.886151458996323
 30
0.0
 40
4.0
  1
1/1
100
AcDbText
  0
TEXT
  5
A2
330
1A
100
AcDbEntity
  8
ZUWAKU
 62
     7
100
AcDbText
 10
369.8225424558458
 20
7.729845637642938
 30
0.0
 40
4.0
  1
尺 度
100
AcDbText
  0
LINE
  5
A3
330
1A
100
AcDbEntity
  8
ZUWAKU
 62
     7
 48
10.0
100
AcDbLine
 10
366.8807110760169
 20
6.999999999999886
 30
0.0
 11
366.8807110760169
 21
12.99999999999994
 31
0.0
  0
TEXT
  5
A6
330
1A
100
AcDbEntity
  8
ZUWAKU
 62
     7
 48
10.0
100
AcDbText
 10
396.1622424237184
 20
2.480970960763784
 30
0.0
 40
4.0
  1
A3
100
AcDbText
  0
LINE
  5
F5
330
1A
100
AcDbEntity
  8
ZUWAKU
 62
     7
 48
10.0
100
AcDbLine
 10
22.25374857290876
 20
7.0
 30
0.0
 11
22.25374857290876
 21
13.0
 31
0.0
  0
LINE
  5
F6
330
1A
100
AcDbEntity
  8
ZUWAKU
 62
     7
 48
10.0
100
AcDbLine
 10
104.7316872784438
 20
7.0
 30
0.0
 11
104.7316872784438
 21
12.99999999999998
 31
0.0
  0
LINE
  5
F8
330
1A
100
AcDbEntity
  8
ZUWAKU
 62
     7
 48
10.0
100
AcDbLine
 10
138.0261803105822
 20
7.0
 30
0.0
 11
138.0261803105822
 21
12.99999999999998
 31
0.0
  0
LINE
  5
100
330
1A
100
AcDbEntity
  8
ZUWAKU
 62
     7
 48
10.0
100
AcDbLine
 10
384.3363149538092
 20
6.999999999999862
 30
0.0
 11
384.3363149538092
 21
12.99999999999994
 31
0.0
  0
ARC
  5
26E
330
1A
100
AcDbEntity
  8
SEIHIN
  6
CONTINUOUS
 62
     3
 48
5.0
100
AcDbCircle
 10
204.2594149491607
 20
135.8149140270143
 30
0.0
 40
11.000012
100
AcDbArc
 50
199.4145509999999
 51
255.573649
  0
ARC
  5
26F
330
1A
100
AcDbEntity
  8
SEIHIN
  6
CONTINUOUS
 62
     3
 48
5.0
100
AcDbCircle
 10
204.0475149491607
 20
71.65011402701437
 30
0.0
 40
10.99997299999999
100
AcDbArc
 50
103.2896119999999
 51
166.7103879999999
  0
ARC
  5
271
330
1A
100
AcDbEntity
  8
SEIHIN
  6
CONTINUOUS
 62
     3
 48
5.0
100
AcDbCircle
 10
204.2341149491607
 20
135.8862140270143
 30
0.0
 40
9.000000999999999
100
AcDbArc
 50
199.954062
 51
270.0
  0
ARC
  5
272
330
1A
100
AcDbEntity
  8
SEIHIN
  6
CONTINUOUS
 62
     3
 48
5.0
100
AcDbCircle
 10
204.0475149491607
 20
71.65011402701437
 30
0.0
 40
7.999975999999999
100
AcDbArc
 50
93.95371099999998
 51
163.148808
  0
ARC
  5
273
330
1A
100
AcDbEntity
  8
SEIHIN
  6
CONTINUOUS
 62
     3
 48
5.0
100
AcDbCircle
 10
204.0475149491607
 20
71.65011402701437
 30
0.0
 40
8.999940999999999
100
AcDbArc
 50
93.95403400000001
 51
163.148617
  0
ARC
  5
274
330
1A
100
AcDbEntity
  8
SEIHIN
  6
CONTINUOUS
 62
     3
 48
5.0
100
AcDbCircle
 10
204.2341149491607
 20
135.8862140270143
 30
0.0
 40
7.999978999999999
100
AcDbArc
 50
199.953919
 51
270.0
  0
LINE
  5
275
330
1A
100
AcDbEntity
  8
SEIHIN
  6
CONTINUOUS
 62
     3
 48
5.0
100
AcDbLine
 10
209.2888149491607
 20
200.1743774555206
 30
0.0
 11
139.5889149491607
 21
200.1741774555206
 31
0.0
  0
LINE
  5
276
330
1A
100
AcDbEntity
  8
SEIHIN
  6
CONTINUOUS
 62
     3
 48
5.0
100
AcDbLine
 10
209.2887149491607
 20
202.6743774555206
 30
0.0
 11
193.5891149491607
 21
202.6742774555206
 31
0.0
  0
LINE
  5
277
330
1A
100
AcDbEntity
  8
CENTER_L
  6
CENTER
 62
     1
 48
5.0
100
AcDbLine
 10
216.2891149491607
 20
209.1743746385305
 30
0.0
 11
131.5889149491607
 21
209.1741842006481
 31
0.0
  0
LINE
  5
278
330
1A
100
AcDbEntity
  8
SEIHIN
  6
CONTINUOUS
 62
     3
 48
5.0
100
AcDbLine
 10
209.2891149491606
 20
218.1742774555206
 30
0.0
 11
139.5889149491607
 21
218.1742774555206
 31
0.0
  0
LINE
  5
279
330
1A
100
AcDbEntity
  8
SEIHIN
  6
CONTINUOUS
 62
     3
 48
5.0
100
AcDbLine
 10
209.2889149491607
 20
215.6742774555206
 30
0.0
 11
193.5891149491607
 21
215.6742774555206
 31
0.0
  0
LINE
  5
27A
330
1A
100
AcDbEntity
  8
CENTER_L
  6
CENTER
 62
     1
 48
5.0
100
AcDbLine
 10
216.3683149491607
 20
103.7586140270143
 30
0.0
 11
131.7185149491607
 21
103.7587140270143
 31
0.0
  0
TEXT
  5
27B
330
1A
100
AcDbEntity
  8
ZUWAKU
 62
     7
100
AcDbText
 10
141.1313324528735
 20
7.9299153608506
 30
0.0
 40
4.0
  1
ブラケットデンデン（直）　Ｙ６０
100
AcDbText
  0
TEXT
  5
28A
330
1A
100
AcDbEntity
  8
ZUWAKU
 62
     7
100
AcDbText
 10
25.15073007242387
 20
8.160237806787449
 30
0.0
 40
4.0
  1
ライナートップ　たてとい
100
AcDbText
  0
LINE
  5
2B8
330
1A
100
AcDbEntity
  8
SEIHIN
  6
CONTINUOUS
 62
     3
 48
5.0
100
AcDbLine
 10
152.2751149491607
 20
73.40871402701437
 30
0.0
 11
166.9390149491607
 21
73.40871402701437
 31
0.0
  0
LINE
  5
2B9
330
1A
100
AcDbEntity
  8
SEIHIN
  6
CONTINUOUS
 62
     3
 48
5.0
100
AcDbLine
 10
150.6888149491607
 20
70.40871402701437
 30
0.0
 11
184.3462149491607
 21
70.40861402701437
 31
0.0
  0
LINE
  5
2BA
330
1A
100
AcDbEntity
  8
SEIHIN
  6
CONTINUOUS
 62
     3
 48
5.0
100
AcDbLine
 10
150.6888149491607
 20
71.40871402701437
 30
0.0
 11
183.2974149491607
 21
71.40861402701436
 31
0.0
  0
ARC
  5
2BB
330
1A
100
AcDbEntity
  8
SEIHIN
  6
CONTINUOUS
 62
     3
 48
5.0
100
AcDbCircle
 10
143.5889149491607
 20
84.09501402701435
 30
0.0
 40
2.000016
100
AcDbArc
 50
180.0
 51
253.193194
  0
LINE
  5
2BC
330
1A
100
AcDbEntity
  8
SEIHIN
  6
CONTINUOUS
 62
     3
 48
5.0
100
AcDbLine
 10
138.5890191253083
 20
125.8961454033111
 30
0.0
 11
138.5888149491607
 21
82.50871402701436
 31
0.0
  0
LINE
  5
2BD
330
1A
100
AcDbEntity
  8
SEIHIN
  6
CONTINUOUS
 62
     3
 48
5.0
100
AcDbLine
 10
139.5889149491607
 20
125.0087737273223
 30
0.0
 11
139.5889149491607
 21
82.50871402701436
 31
0.0
  0
ARC
  5
2BE
330
1A
100
AcDbEntity
  8
SEIHIN
  6
CONTINUOUS
 62
     3
 48
5.0
100
AcDbCircle
 10
150.6888149491607
 20
73.40871402701437
 30
0.0
 40
1.999959
100
AcDbArc
 50
189.1985679999999
 51
270.0
  0
ARC
  5
2BF
330
1A
100
AcDbEntity
  8
SEIHIN
  6
CONTINUOUS
 62
     3
 48
5.0
100
AcDbCircle
 10
150.6888149491607
 20
73.40871402701437
 30
0.0
 40
2.999991999999999
100
AcDbArc
 50
189.1992059999999
 51
270.0
  0
ARC
  5
2C0
330
1A
100
AcDbEntity
  8
SEIHIN
  6
CONTINUOUS
 62
     3
 48
5.0
100
AcDbCircle
 10
139.8303149491607
 20
71.65021402701437
 30
0.0
 40
9.000052
100
AcDbArc
 50
9.199104
 51
80.80089599999999
  0
ARC
  5
2C1
330
1A
100
AcDbEntity
  8
SEIHIN
  6
CONTINUOUS
 62
     3
 48
5.0
100
AcDbCircle
 10
139.8303149491607
 20
71.65021402701437
 30
0.0
 40
11.000022
100
AcDbArc
 50
16.80506099999999
 51
73.194788
  0
ARC
  5
2C2
330
1A
100
AcDbEntity
  8
SEIHIN
  6
CONTINUOUS
 62
     3
 48
5.0
100
AcDbCircle
 10
141.5889149491607
 20
82.50871402701436
 30
0.0
 40
2.999991999999999
100
AcDbArc
 50
180.0
 51
260.8007939999999
  0
ARC
  5
2C3
330
1A
100
AcDbEntity
  8
SEIHIN
  6
CONTINUOUS
 62
     3
 48
5.0
100
AcDbCircle
 10
141.5889149491607
 20
82.50871402701436
 30
0.0
 40
2.000008999999999
100
AcDbArc
 50
180.0
 51
260.80189
  0
ARC
  5
2C4
330
1A
100
AcDbEntity
  8
SEIHIN
  6
CONTINUOUS
 62
     3
 48
5.0
100
AcDbCircle
 10
139.8303149491607
 20
71.65021402701437
 30
0.0
 40
7.999994
100
AcDbArc
 50
9.198932
 51
80.80036099999999
  0
ARC
  5
2C7
330
1A
100
AcDbEntity
  8
SEIHIN
  6
CONTINUOUS
 62
     3
 48
5.0
100
AcDbCircle
 10
152.2752149491607
 20
75.40871402701437
 30
0.0
 40
2.000000999999999
100
AcDbArc
 50
196.8040639999999
 51
270.0
  0
LINE
  5
2C9
330
1A
100
AcDbEntity
  8
SEIHIN
  6
CONTINUOUS
 62
     3
 48
5.0
100
AcDbLine
 10
141.5889149491607
 20
123.4224511736095
 30
0.0
 11
141.5889149491607
 21
84.09501402701435
 31
0.0
  0
LINE
  5
2CA
330
1A
100
AcDbEntity
  8
SEIHIN
  6
CONTINUOUS
 62
     3
 48
5.0
100
AcDbLine
 10
188.5889149491607
 20
73.40871402701437
 30
0.0
 11
176.9390149491607
 21
73.40871402701437
 31
0.0
  0
LINE
  5
2CB
330
1A
100
AcDbEntity
  8
SEIHIN
  6
CONTINUOUS
 62
     3
 48
5.0
100
AcDbLine
 10
175.9390149491607
 20
74.40861402701436
 30
0.0
 11
167.9390149491607
 21
74.40861402701436
 31
0.0
  0
ARC
  5
2CC
330
1A
100
AcDbEntity
  8
SEIHIN
  6
CONTINUOUS
 62
     3
 48
5.0
100
AcDbCircle
 10
167.9390149491607
 20
73.40861402701436
 30
0.0
 40
1.0
100
AcDbArc
 50
90.0
 51
180.0
  0
ARC
  5
2CD
330
1A
100
AcDbEntity
  8
SEIHIN
  6
CONTINUOUS
 62
     3
 48
5.0
100
AcDbCircle
 10
175.9390149491607
 20
73.40861402701436
 30
0.0
 40
1.0
100
AcDbArc
 50
0.0
 51
90.0
  0
ARC
  5
2CE
330
1A
100
AcDbEntity
  8
SEIHIN
  6
CONTINUOUS
 62
     3
 48
5.0
100
AcDbCircle
 10
188.5889149491607
 20
68.90861402701438
 30
0.0
 40
4.500017999999999
100
AcDbArc
 50
33.74868699999999
 51
90.0
  0
LINE
  5
2CF
330
1A
100
AcDbEntity
  8
SEIHIN
  6
CONTINUOUS
 62
     3
 48
5.0
100
AcDbLine
 10
193.3893149491607
 20
74.37111402701437
 30
0.0
 11
191.7864149491607
 21
68.09231402701437
 31
0.0
  0
LINE
  5
2D0
330
1A
100
AcDbEntity
  8
SEIHIN
  6
CONTINUOUS
 62
     3
 48
5.0
100
AcDbLine
 10
195.4340149491607
 20
74.25911402701435
 30
0.0
 11
193.3743149491607
 21
67.45911402701437
 31
0.0
  0
LINE
  5
2D1
330
1A
100
AcDbEntity
  8
SEIHIN
  6
CONTINUOUS
 62
     3
 48
5.0
100
AcDbLine
 10
196.3910149491607
 20
73.96921402701436
 30
0.0
 11
194.3313149491607
 21
67.16921402701436
 31
0.0
  0
ARC
  5
2D2
330
1A
100
AcDbEntity
  8
SEIHIN
  6
CONTINUOUS
 62
     3
 48
5.0
100
AcDbCircle
 10
188.5890149491607
 20
68.90861402701438
 30
0.0
 40
3.300030999999999
100
AcDbArc
 50
162.4155269999999
 51
345.6782459999999
  0
ARC
  5
2D3
330
1A
100
AcDbEntity
  8
SEIHIN
  6
CONTINUOUS
 62
     3
 48
5.0
100
AcDbCircle
 10
188.5890149491607
 20
68.90861402701438
 30
0.0
 40
5.999979999999999
100
AcDbArc
 50
270.0
 51
343.147915
  0
ARC
  5
2D4
330
1A
100
AcDbEntity
  8
SEIHIN
  6
CONTINUOUS
 62
     3
 48
5.0
100
AcDbCircle
 10
188.5890149491607
 20
68.90861402701438
 30
0.0
 40
4.999958999999999
100
AcDbArc
 50
270.0
 51
343.147749
  0
ARC
  5
2D5
330
1A
100
AcDbEntity
  8
SEIHIN
  6
CONTINUOUS
 62
     3
 48
5.0
100
AcDbCircle
 10
185.5889149491607
 20
66.40861402701438
 30
0.0
 40
3.500019
100
AcDbArc
 50
92.387443
 51
270.0
  0
LINE
  5
2D6
330
1A
100
AcDbEntity
  8
SEIHIN
  6
CONTINUOUS
 62
     3
 48
5.0
100
AcDbLine
 10
183.1394149491607
 20
63.90861402701438
 30
0.0
 11
188.5890149491607
 21
63.90861402701438
 31
0.0
  0
LINE
  5
2D7
330
1A
100
AcDbEntity
  8
SEIHIN
  6
CONTINUOUS
 62
     3
 48
5.0
100
AcDbLine
 10
185.5889149491607
 20
62.90861402701438
 30
0.0
 11
188.5890149491607
 21
62.90861402701438
 31
0.0
  0
ARC
  5
2D8
330
1A
100
AcDbEntity
  8
SEIHIN
  6
CONTINUOUS
 62
     3
 48
5.0
100
AcDbCircle
 10
183.2974149491607
 20
70.40861402701437
 30
0.0
 40
1.0
100
AcDbArc
 50
344.175018
 51
90.0
  0
ARC
  5
2D9
330
1A
100
AcDbEntity
  8
SEIHIN
  6
CONTINUOUS
 62
     3
 48
5.0
100
AcDbCircle
 10
188.5889149491607
 20
68.90861402701438
 30
0.0
 40
4.5
100
AcDbArc
 50
164.173007
 51
171.222377
  0
LINE
  5
2DA
330
1A
100
AcDbEntity
  8
SEIHIN
  6
CONTINUOUS
 62
     3
 48
5.0
100
AcDbLine
 10
182.5889149491607
 20
68.90861402701438
 30
0.0
 11
182.5889149491607
 21
70.40861402701437
 31
0.0
  0
LINE
  5
2DB
330
1A
100
AcDbEntity
  8
SEIHIN
  6
CONTINUOUS
 62
     3
 48
5.0
100
AcDbLine
 10
182.5889149491607
 20
68.92161402701439
 30
0.0
 11
183.1527149491607
 21
68.92161402701439
 31
0.0
  0
LINE
  5
2DC
330
1A
100
AcDbEntity
  8
SEIHIN
  6
CONTINUOUS
 62
     3
 48
5.0
100
AcDbLine
 10
193.0611149491607
 20
69.40861402701438
 30
0.0
 11
193.0737149491607
 21
69.40861402701438
 31
0.0
  0
LINE
  5
2DD
330
1A
100
AcDbEntity
  8
SEIHIN
  6
CONTINUOUS
 62
     3
 48
5.0
100
AcDbLine
 10
152.2753149491607
 20
134.1085140270144
 30
0.0
 11
166.9390149491607
 21
134.1085140270144
 31
0.0
  0
LINE
  5
2DE
330
1A
100
AcDbEntity
  8
SEIHIN
  6
CONTINUOUS
 62
     3
 48
5.0
100
AcDbLine
 10
150.6890149491607
 20
137.1085140270144
 30
0.0
 11
178.6100149491607
 21
137.1085140270144
 31
0.0
  0
LINE
  5
2DF
330
1A
100
AcDbEntity
  8
SEIHIN
  6
CONTINUOUS
 62
     3
 48
5.0
100
AcDbLine
 10
150.6890149491607
 20
136.1085140270144
 30
0.0
 11
178.5891149491607
 21
136.1085140270144
 31
0.0
  0
ARC
  5
2E2
330
1A
100
AcDbEntity
  8
SEIHIN
  6
CONTINUOUS
 62
     3
 48
5.0
100
AcDbCircle
 10
139.8305149491607
 20
135.8673140270143
 30
0.0
 40
7.999985999999999
100
AcDbArc
 50
274.3500929405431
 51
350.801068
  0
ARC
  5
2E3
330
1A
100
AcDbEntity
  8
SEIHIN
  6
CONTINUOUS
 62
     3
 48
5.0
100
AcDbCircle
 10
139.8305149491607
 20
135.8673140270143
 30
0.0
 40
8.999994
100
AcDbArc
 50
279.1984586843001
 51
350.800794
  0
ARC
  5
2E4
330
1A
100
AcDbEntity
  8
SEIHIN
  6
CONTINUOUS
 62
     3
 48
5.0
100
AcDbCircle
 10
139.8305149491607
 20
135.8673140270143
 30
0.0
 40
11.000007
100
AcDbArc
 50
286.8045330910111
 51
343.194788
  0
ARC
  5
2E9
330
1A
100
AcDbEntity
  8
SEIHIN
  6
CONTINUOUS
 62
     3
 48
5.0
100
AcDbCircle
 10
150.6890149491607
 20
134.1085140270144
 30
0.0
 40
2.000008999999999
100
AcDbArc
 50
90.0
 51
170.8018899999999
  0
ARC
  5
2EA
330
1A
100
AcDbEntity
  8
SEIHIN
  6
CONTINUOUS
 62
     3
 48
5.0
100
AcDbCircle
 10
150.6890149491607
 20
134.1085140270144
 30
0.0
 40
2.999991999999999
100
AcDbArc
 50
90.0
 51
170.8007939999999
  0
ARC
  5
2EC
330
1A
100
AcDbEntity
  8
SEIHIN
  6
CONTINUOUS
 62
     3
 48
5.0
100
AcDbCircle
 10
152.2753149491607
 20
132.1085140270144
 30
0.0
 40
2.000000999999999
100
AcDbArc
 50
90.0
 51
163.195936
  0
ARC
  5
2ED
330
1A
100
AcDbEntity
  8
SEIHIN
  6
CONTINUOUS
 62
     3
 48
5.0
100
AcDbCircle
 10
184.5891149491607
 20
139.6085140270143
 30
0.0
 40
3.0
100
AcDbArc
 50
90.0
 51
180.0
  0
ARC
  5
2EE
330
1A
100
AcDbEntity
  8
SEIHIN
  6
CONTINUOUS
 62
     3
 48
5.0
100
AcDbCircle
 10
178.6100149491607
 20
140.1085140270143
 30
0.0
 40
3.000021999999999
100
AcDbArc
 50
270.0
 51
355.21796
  0
ARC
  5
2EF
330
1A
100
AcDbEntity
  8
SEIHIN
  6
CONTINUOUS
 62
     3
 48
5.0
100
AcDbCircle
 10
178.5891149491607
 20
139.1085140270144
 30
0.0
 40
3.0
100
AcDbArc
 50
270.0
 51
0.0
  0
LINE
  5
2F0
330
1A
100
AcDbEntity
  8
SEIHIN
  6
CONTINUOUS
 62
     3
 48
5.0
100
AcDbLine
 10
176.9391149491607
 20
134.1085140270144
 30
0.0
 11
188.5891149491607
 21
134.1085140270144
 31
0.0
  0
LINE
  5
2F1
330
1A
100
AcDbEntity
  8
SEIHIN
  6
CONTINUOUS
 62
     3
 48
5.0
100
AcDbLine
 10
175.9390149491607
 20
133.1085140270144
 30
0.0
 11
167.9390149491607
 21
133.1085140270144
 31
0.0
  0
ARC
  5
2F2
330
1A
100
AcDbEntity
  8
SEIHIN
  6
CONTINUOUS
 62
     3
 48
5.0
100
AcDbCircle
 10
167.9390149491607
 20
134.1085140270144
 30
0.0
 40
1.0
100
AcDbArc
 50
180.0
 51
270.0
  0
ARC
  5
2F3
330
1A
100
AcDbEntity
  8
SEIHIN
  6
CONTINUOUS
 62
     3
 48
5.0
100
AcDbCircle
 10
175.9390149491607
 20
134.1085140270144
 30
0.0
 40
1.0
100
AcDbArc
 50
270.0
 51
0.0
  0
LINE
  5
2F4
330
1A
100
AcDbEntity
  8
SEIHIN
  6
CONTINUOUS
 62
     3
 48
5.0
100
AcDbLine
 10
181.5891149491607
 20
139.1085140270144
 30
0.0
 11
181.5891149491607
 21
139.6085140270143
 31
0.0
  0
CIRCLE
  5
2F5
330
1A
100
AcDbEntity
  8
SEIHIN
  6
CONTINUOUS
 62
     3
 48
5.0
100
AcDbCircle
 10
188.5891149491607
 20
139.6085140270143
 30
0.0
 40
2.399999999999999
  0
CIRCLE
  5
2F6
330
1A
100
AcDbEntity
  8
SEIHIN
  6
CONTINUOUS
 62
     3
 48
5.0
100
AcDbCircle
 10
188.5891149491607
 20
139.6085140270143
 30
0.0
 40
2.25
  0
ARC
  5
2F7
330
1A
100
AcDbEntity
  8
SEIHIN
  6
CONTINUOUS
 62
     3
 48
5.0
100
AcDbCircle
 10
188.5891149491607
 20
139.6085140270143
 30
0.0
 40
5.000046
100
AcDbArc
 50
328.738122
 51
270.0
  0
LINE
  5
2F8
330
1A
100
AcDbEntity
  8
SEIHIN
  6
CONTINUOUS
 62
     3
 48
5.0
100
AcDbLine
 10
188.5891149491607
 20
134.1085140270144
 30
0.0
 11
191.0746149491607
 21
134.1085140270144
 31
0.0
  0
LINE
  5
2F9
330
1A
100
AcDbEntity
  8
SEIHIN
  6
CONTINUOUS
 62
     3
 48
5.0
100
AcDbLine
 10
188.5891149491607
 20
134.6085140270143
 30
0.0
 11
188.5891149491607
 21
134.1085140270144
 31
0.0
  0
LINE
  5
2FA
330
1A
100
AcDbEntity
  8
SEIHIN
  6
CONTINUOUS
 62
     3
 48
5.0
100
AcDbLine
 10
188.5891149491607
 20
134.6084140270143
 30
0.0
 11
188.5891149491607
 21
134.1085140270144
 31
0.0
  0
ARC
  5
2FB
330
1A
100
AcDbEntity
  8
SEIHIN
  6
CONTINUOUS
 62
     3
 48
5.0
100
AcDbCircle
 10
193.7180149491607
 20
136.4948140270143
 30
0.0
 40
0.9999829999999999
100
AcDbArc
 50
148.7404659999999
 51
243.857741
  0
ARC
  5
2FC
330
1A
100
AcDbEntity
  8
SEIHIN
  6
CONTINUOUS
 62
     3
 48
5.0
100
AcDbCircle
 10
191.0746149491607
 20
131.1085140270144
 30
0.0
 40
6.000018999999999
100
AcDbArc
 50
19.954062
 51
63.811187
  0
ARC
  5
2FD
330
1A
100
AcDbEntity
  8
SEIHIN
  6
CONTINUOUS
 62
     3
 48
5.0
100
AcDbCircle
 10
191.0746149491607
 20
131.1085140270144
 30
0.0
 40
4.999972
100
AcDbArc
 50
19.953834
 51
63.860303
  0
ARC
  5
2FE
330
1A
100
AcDbEntity
  8
SEIHIN
  6
CONTINUOUS
 62
     3
 48
5.0
100
AcDbCircle
 10
191.0746149491607
 20
131.1085140270144
 30
0.0
 40
3.000024
100
AcDbArc
 50
20.486975
 51
90.0
  0
ARC
  5
2FF
330
1A
100
AcDbEntity
  8
SEIHIN
  6
CONTINUOUS
 62
     3
 48
5.0
100
AcDbCircle
 10
194.1639149491607
 20
137.3899140270143
 30
0.0
 40
0.9999680000000001
100
AcDbArc
 50
158.296476
 51
243.8116359999999
  0
LINE
  5
31A
330
1A
100
AcDbEntity
  8
SEIHIN
  6
CONTINUOUS
 62
     3
 48
5.0
100
AcDbLine
 10
184.5892149491606
 20
215.6742774555206
 30
0.0
 11
138.5889149491607
 21
215.6742774555206
 31
0.0
  0
LINE
  5
31B
330
1A
100
AcDbEntity
  8
SEIHIN
  6
CONTINUOUS
 62
     3
 48
5.0
100
AcDbLine
 10
184.5892149491606
 20
202.6741774555206
 30
0.0
 11
138.5889149491607
 21
202.6741774555206
 31
0.0
  0
LINE
  5
31C
330
1A
100
AcDbEntity
  8
SEIHIN
  6
CONTINUOUS
 62
     3
 48
5.0
100
AcDbLine
 10
147.9569149491607
 20
202.6743774555206
 30
0.0
 11
147.9569149491607
 21
215.6742774555206
 31
0.0
  0
LINE
  5
31D
330
1A
100
AcDbEntity
  8
SEIHIN
  6
CONTINUOUS
 62
     3
 48
5.0
100
AcDbLine
 10
138.5889149491607
 20
215.6742774555206
 30
0.0
 11
138.5889149491607
 21
202.6743774555206
 31
0.0
  0
LINE
  5
31E
330
1A
100
AcDbEntity
  8
SEIHIN
  6
CONTINUOUS
 62
     3
 48
5.0
100
AcDbLine
 10
147.9569149491607
 20
202.6743774555206
 30
0.0
 11
148.9569149491607
 21
200.1743774555206
 31
0.0
  0
LINE
  5
31F
330
1A
100
AcDbEntity
  8
SEIHIN
  6
CONTINUOUS
 62
     3
 48
5.0
100
AcDbLine
 10
138.5889149491607
 20
202.6742774555206
 30
0.0
 11
139.5889149491607
 21
200.1742774555206
 31
0.0
  0
LINE
  5
320
330
1A
100
AcDbEntity
  8
SEIHIN
  6
CONTINUOUS
 62
     3
 48
5.0
100
AcDbLine
 10
147.9569149491607
 20
215.6743774555206
 30
0.0
 11
148.9569149491607
 21
218.1743774555206
 31
0.0
  0
LINE
  5
322
330
1A
100
AcDbEntity
  8
SEIHIN
  6
CONTINUOUS
 62
     3
 48
5.0
100
AcDbLine
 10
138.5888149491607
 20
215.6742774555206
 30
0.0
 11
139.5888149491607
 21
218.1742774555206
 31
0.0
  0
LINE
  5
324
330
1A
100
AcDbEntity
  8
SEIHIN
  6
CONTINUOUS
 62
     3
 48
5.0
100
AcDbLine
 10
193.5891149491607
 20
200.1743774555206
 30
0.0
 11
193.5891149491607
 21
218.1742774555206
 31
0.0
  0
LINE
  5
325
330
1A
100
AcDbEntity
  8
SEIHIN
  6
CONTINUOUS
 62
     3
 48
5.0
100
AcDbLine
 10
184.5892149491606
 20
200.1743774555206
 30
0.0
 11
184.5892149491606
 21
218.1742774555206
 31
0.0
  0
LINE
  5
326
330
1A
100
AcDbEntity
  8
SEIHIN
  6
CONTINUOUS
 62
     3
 48
5.0
100
AcDbLine
 10
190.8392149491606
 20
202.6741774555206
 30
0.0
 11
188.5891149491607
 21
202.6741774555206
 31
0.0
  0
LINE
  5
327
330
1A
100
AcDbEntity
  8
SEIHIN
  6
CONTINUOUS
 62
     3
 48
5.0
100
AcDbLine
 10
188.5894149491607
 20
202.1741774555206
 30
0.0
 11
191.1865149491607
 21
202.1741774555206
 31
0.0
  0
LINE
  5
328
330
1A
100
AcDbEntity
  8
SEIHIN
  6
CONTINUOUS
 62
     3
 48
5.0
100
AcDbLine
 10
193.5887149491607
 20
206.6741774555206
 30
0.0
 11
184.5891149491607
 21
206.6741774555206
 31
0.0
  0
LINE
  5
329
330
1A
100
AcDbEntity
  8
SEIHIN
  6
CONTINUOUS
 62
     3
 48
5.0
100
AcDbLine
 10
188.5891149491607
 20
202.1741774555206
 30
0.0
 11
188.5891149491607
 21
206.6741774555206
 31
0.0
  0
LINE
  5
32A
330
1A
100
AcDbEntity
  8
SEIHIN
  6
CONTINUOUS
 62
     3
 48
5.0
100
AcDbLine
 10
193.5887149491607
 20
202.1741774555206
 30
0.0
 11
191.3392149491606
 21
202.1741774555206
 31
0.0
  0
LINE
  5
32B
330
1A
100
AcDbEntity
  8
SEIHIN
  6
CONTINUOUS
 62
     3
 48
5.0
100
AcDbLine
 10
190.8391149491607
 20
206.6741774555206
 30
0.0
 11
190.8391149491607
 21
202.1741774555206
 31
0.0
  0
LINE
  5
32C
330
1A
100
AcDbEntity
  8
SEIHIN
  6
CONTINUOUS
 62
     3
 48
5.0
100
AcDbLine
 10
188.5891149491607
 20
212.1741774555206
 30
0.0
 11
190.8391149491607
 21
212.1741774555206
 31
0.0
  0
LINE
  5
32D
330
1A
100
AcDbEntity
  8
SEIHIN
  6
CONTINUOUS
 62
     3
 48
5.0
100
AcDbLine
 10
188.5894149491607
 20
216.1741774555206
 30
0.0
 11
191.1865149491607
 21
216.1741774555206
 31
0.0
  0
LINE
  5
32E
330
1A
100
AcDbEntity
  8
SEIHIN
  6
CONTINUOUS
 62
     3
 48
5.0
100
AcDbLine
 10
193.5887149491607
 20
211.6741774555206
 30
0.0
 11
184.5891149491607
 21
211.6741774555206
 31
0.0
  0
LINE
  5
32F
330
1A
100
AcDbEntity
  8
SEIHIN
  6
CONTINUOUS
 62
     3
 48
5.0
100
AcDbLine
 10
188.5891149491607
 20
211.6741774555206
 30
0.0
 11
188.5891149491607
 21
216.1741774555206
 31
0.0
  0
LINE
  5
330
330
1A
100
AcDbEntity
  8
SEIHIN
  6
CONTINUOUS
 62
     3
 48
5.0
100
AcDbLine
 10
190.8391149491607
 20
211.6741774555206
 30
0.0
 11
190.8391149491607
 21
216.1741774555206
 31
0.0
  0
LINE
  5
331
330
1A
100
AcDbEntity
  8
SEIHIN
  6
CONTINUOUS
 62
     3
 48
5.0
100
AcDbLine
 10
193.5886149491607
 20
216.1741774555206
 30
0.0
 11
191.3391149491607
 21
216.1741774555206
 31
0.0
  0
TEXT
  5
338
330
1A
100
AcDbEntity
  8
ZUWAKU
 62
     7
100
AcDbText
 10
327.1013476411085
 20
8.060146781246267
 30
0.0
 40
4.0
  1
ＧＫ７３
100
AcDbText
  0
LINE
  5
339
330
1A
100
AcDbEntity
  8
CENTER_L
  6
CENTER
 62
     1
 48
5.0
100
AcDbLine
 10
298.7784149491607
 20
148.3163140270143
 30
0.0
 11
298.7782149491607
 21
58.74201402701436
 31
0.0
  0
LINE
  5
33F
330
1A
100
AcDbEntity
  8
SEIHIN
  6
CONTINUOUS
 62
     3
 48
5.0
100
AcDbLine
 10
203.2891149491606
 20
117.7586140270143
 30
0.0
 11
203.2890149491607
 21
103.7586140270143
 31
0.0
  0
LINE
  5
340
330
1A
100
AcDbEntity
  8
SEIHIN
  6
CONTINUOUS
 62
     3
 48
5.0
100
AcDbLine
 10
206.2890149491607
 20
103.7586140270143
 30
0.0
 11
206.2891149491607
 21
123.8862140270143
 31
0.0
  0
LINE
  5
343
330
1A
100
AcDbEntity
  8
SEIHIN
  6
CONTINUOUS
 62
     3
 48
5.0
100
AcDbLine
 10
208.7890149491607
 20
99.00861402701437
 30
0.0
 11
208.7890149491607
 21
109.0086140270143
 31
0.0
  0
LINE
  5
345
330
1A
100
AcDbEntity
  8
SEIHIN
  6
CONTINUOUS
 62
     3
 48
5.0
100
AcDbLine
 10
202.2890149491607
 20
104.7586140270143
 30
0.0
 11
202.2890149491607
 21
116.7586140270143
 31
0.0
  0
ARC
  5
348
330
1A
100
AcDbEntity
  8
SEIHIN
  6
CONTINUOUS
 62
     3
 48
5.0
100
AcDbCircle
 10
207.2889149491607
 20
83.63101402701436
 30
0.0
 40
1.0
100
AcDbArc
 50
180.0
 51
270.0
  0
LINE
  5
349
330
1A
100
AcDbEntity
  8
SEIHIN
  6
CONTINUOUS
 62
     3
 48
5.0
100
AcDbLine
 10
202.2890149491607
 20
88.75861402701437
 30
0.0
 11
202.2890149491607
 21
83.32871402701435
 31
0.0
  0
LINE
  5
34A
330
1A
100
AcDbEntity
  8
SEIHIN
  6
CONTINUOUS
 62
     3
 48
5.0
100
AcDbLine
 10
203.4958149491607
 20
80.63101402701436
 30
0.0
 11
209.2889149491607
 21
80.63101402701436
 31
0.0
  0
LINE
  5
34B
330
1A
100
AcDbEntity
  8
SEIHIN
  6
CONTINUOUS
 62
     3
 48
5.0
100
AcDbLine
 10
203.4958149491607
 20
79.63101402701436
 30
0.0
 11
209.2889149491607
 21
79.63101402701436
 31
0.0
  0
ARC
  5
34C
330
1A
100
AcDbEntity
  8
SEIHIN
  6
CONTINUOUS
 62
     3
 48
5.0
100
AcDbCircle
 10
201.2890149491607
 20
83.32871402701435
 30
0.0
 40
0.999993
100
AcDbArc
 50
283.291372
 51
0.0
  0
LINE
  5
34D
330
1A
100
AcDbEntity
  8
SEIHIN
  6
CONTINUOUS
 62
     3
 48
5.0
100
AcDbLine
 10
209.2889149491607
 20
82.63101402701435
 30
0.0
 11
209.2889149491607
 21
79.63101402701436
 31
0.0
  0
LINE
  5
34E
330
1A
100
AcDbEntity
  8
SEIHIN
  6
CONTINUOUS
 62
     3
 48
5.0
100
AcDbLine
 10
207.2889149491607
 20
82.63101402701435
 30
0.0
 11
209.2889149491607
 21
82.63101402701435
 31
0.0
  0
LINE
  5
34F
330
1A
100
AcDbEntity
  8
SEIHIN
  6
CONTINUOUS
 62
     3
 48
5.0
100
AcDbLine
 10
206.2890149491607
 20
103.7586140270143
 30
0.0
 11
206.2890149491607
 21
83.63101402701436
 31
0.0
  0
LINE
  5
350
330
1A
100
AcDbEntity
  8
SEIHIN
  6
CONTINUOUS
 62
     3
 48
5.0
100
AcDbLine
 10
203.2890149491607
 20
89.75861402701436
 30
0.0
 11
203.2890149491607
 21
103.7586140270143
 31
0.0
  0
LINE
  5
351
330
1A
100
AcDbEntity
  8
SEIHIN
  6
CONTINUOUS
 62
     3
 48
5.0
100
AcDbLine
 10
202.2890149491607
 20
102.7586140270143
 30
0.0
 11
202.2890149491607
 21
90.75861402701436
 31
0.0
  0
ARC
  5
352
330
1A
100
AcDbEntity
  8
SEIHIN
  6
CONTINUOUS
 62
     3
 48
5.0
100
AcDbCircle
 10
202.2890149491607
 20
89.75861402701436
 30
0.0
 40
1.0
100
AcDbArc
 50
270.0
 51
90.0
  0
ARC
  5
353
330
1A
100
AcDbEntity
  8
SEIHIN
  6
CONTINUOUS
 62
     3
 48
5.0
100
AcDbCircle
 10
207.2890149491607
 20
98.00861402701436
 30
0.0
 40
1.0
100
AcDbArc
 50
90.0
 51
180.0
  0
ARC
  5
354
330
1A
100
AcDbEntity
  8
SEIHIN
  6
CONTINUOUS
 62
     3
 48
5.0
100
AcDbCircle
 10
202.2890149491607
 20
103.7586140270143
 30
0.0
 40
1.0
100
AcDbArc
 50
270.0
 51
90.0
  0
LINE
  5
355
330
1A
100
AcDbEntity
  8
SEIHIN
  6
CONTINUOUS
 62
     3
 48
5.0
100
AcDbLine
 10
207.2890149491607
 20
99.00861402701437
 30
0.0
 11
208.7890149491607
 21
99.00861402701437
 31
0.0
  0
ARC
  5
35C
330
1A
100
AcDbEntity
  8
SEIHIN
  6
CONTINUOUS
 62
     3
 48
5.0
100
AcDbCircle
 10
202.2891149491607
 20
117.7586140270143
 30
0.0
 40
1.0
100
AcDbArc
 50
270.0
 51
90.0
  0
ARC
  5
35D
330
1A
100
AcDbEntity
  8
SEIHIN
  6
CONTINUOUS
 62
     3
 48
5.0
100
AcDbCircle
 10
207.2890149491607
 20
110.0086140270143
 30
0.0
 40
1.0
100
AcDbArc
 50
180.0
 51
270.0
  0
LINE
  5
35E
330
1A
100
AcDbEntity
  8
SEIHIN
  6
CONTINUOUS
 62
     3
 48
5.0
100
AcDbLine
 10
207.2890149491607
 20
109.0086140270143
 30
0.0
 11
208.7890149491607
 21
109.0086140270143
 31
0.0
  0
LINE
  5
35F
330
1A
100
AcDbEntity
  8
SEIHIN
  6
CONTINUOUS
 62
     3
 48
5.0
100
AcDbLine
 10
204.2341149491607
 20
127.8862140270143
 30
0.0
 11
209.2891149491606
 21
127.8862140270143
 31
0.0
  0
ARC
  5
360
330
1A
100
AcDbEntity
  8
SEIHIN
  6
CONTINUOUS
 62
     3
 48
5.0
100
AcDbCircle
 10
207.2891149491606
 20
123.8862140270143
 30
0.0
 40
1.0
100
AcDbArc
 50
90.0
 51
180.0
  0
LINE
  5
361
330
1A
100
AcDbEntity
  8
SEIHIN
  6
CONTINUOUS
 62
     3
 48
5.0
100
AcDbLine
 10
204.2341149491607
 20
126.8862140270143
 30
0.0
 11
209.2891149491606
 21
126.8862140270143
 31
0.0
  0
LINE
  5
362
330
1A
100
AcDbEntity
  8
SEIHIN
  6
CONTINUOUS
 62
     3
 48
5.0
100
AcDbLine
 10
202.2890149491607
 20
118.7586140270143
 30
0.0
 11
202.2890149491607
 21
124.1885140270143
 31
0.0
  0
ARC
  5
363
330
1A
100
AcDbEntity
  8
SEIHIN
  6
CONTINUOUS
 62
     3
 48
5.0
100
AcDbCircle
 10
201.2891149491607
 20
124.1885140270143
 30
0.0
 40
0.9999819999999999
100
AcDbArc
 50
0.0
 51
76.71420400000001
  0
LINE
  5
364
330
1A
100
AcDbEntity
  8
SEIHIN
  6
CONTINUOUS
 62
     3
 48
5.0
100
AcDbLine
 10
207.2891149491606
 20
124.8862140270143
 30
0.0
 11
209.2891149491606
 21
124.8862140270143
 31
0.0
  0
LINE
  5
365
330
1A
100
AcDbEntity
  8
SEIHIN
  6
CONTINUOUS
 62
     3
 48
5.0
100
AcDbLine
 10
209.2891149491606
 20
124.8862140270143
 30
0.0
 11
209.2891149491606
 21
127.8862140270143
 31
0.0
  0
CIRCLE
  5
36A
330
1A
100
AcDbEntity
  8
SEIHIN
  6
CONTINUOUS
 62
     3
 48
5.0
100
AcDbCircle
 10
298.7784149491607
 20
103.7584140270143
 30
0.0
 40
5.0
  0
LINE
  5
36B
330
1A
100
AcDbEntity
  8
SEIHIN
  6
CONTINUOUS
 62
     3
 48
5.0
100
AcDbLine
 10
307.7783149491607
 20
64.40841402701437
 30
0.0
 11
307.7785149491607
 21
143.1082140270143
 31
0.0
  0
LINE
  5
36C
330
1A
100
AcDbEntity
  8
SEIHIN
  6
CONTINUOUS
 62
     3
 48
5.0
100
AcDbLine
 10
289.7783149491607
 20
64.40841402701437
 30
0.0
 11
289.7785149491607
 21
143.1083140270143
 31
0.0
  0
LINE
  5
36D
330
1A
100
AcDbEntity
  8
CENTER_L
  6
CENTER
 62
     1
 48
5.0
100
AcDbLine
 10
311.2651149491607
 20
103.7584140270143
 30
0.0
 11
286.2320149491607
 21
103.7584140270143
 31
0.0
  0
LINE
  5
36E
330
1A
100
AcDbEntity
  8
SEIHIN
  6
CONTINUOUS
 62
     3
 48
5.0
100
AcDbLine
 10
289.7783149491607
 20
82.63101402701435
 30
0.0
 11
307.7783149491607
 21
82.63101402701435
 31
0.0
  0
LINE
  5
36F
330
1A
100
AcDbEntity
  8
SEIHIN
  6
CONTINUOUS
 62
     3
 48
5.0
100
AcDbLine
 10
292.2784149491607
 20
79.54701402701435
 30
0.0
 11
305.2784149491607
 21
79.54701402701435
 31
0.0
  0
LINE
  5
370
330
1A
100
AcDbEntity
  8
SEIHIN
  6
CONTINUOUS
 62
     3
 48
5.0
100
AcDbLine
 10
292.2783149491607
 20
62.90841402701437
 30
0.0
 11
305.2784149491607
 21
62.90841402701437
 31
0.0
  0
LINE
  5
371
330
1A
100
AcDbEntity
  8
SEIHIN
  6
CONTINUOUS
 62
     3
 48
5.0
100
AcDbLine
 10
292.2783149491607
 20
79.54701402701435
 30
0.0
 11
292.2783149491607
 21
62.90831402701437
 31
0.0
  0
LINE
  5
372
330
1A
100
AcDbEntity
  8
SEIHIN
  6
CONTINUOUS
 62
     3
 48
5.0
100
AcDbLine
 10
292.2783149491607
 20
62.90841402701437
 30
0.0
 11
289.7783149491607
 21
64.40841402701437
 31
0.0
  0
LINE
  5
373
330
1A
100
AcDbEntity
  8
SEIHIN
  6
CONTINUOUS
 62
     3
 48
5.0
100
AcDbLine
 10
292.2783149491607
 20
79.54711402701436
 30
0.0
 11
289.7783149491607
 21
81.04711402701436
 31
0.0
  0
LINE
  5
374
330
1A
100
AcDbEntity
  8
SEIHIN
  6
CONTINUOUS
 62
     3
 48
5.0
100
AcDbLine
 10
305.2783149491607
 20
79.54701402701435
 30
0.0
 11
305.2783149491607
 21
62.90821402701436
 31
0.0
  0
LINE
  5
375
330
1A
100
AcDbEntity
  8
SEIHIN
  6
CONTINUOUS
 62
     3
 48
5.0
100
AcDbLine
 10
307.7783149491607
 20
64.40841402701437
 30
0.0
 11
305.2783149491607
 21
62.90841402701437
 31
0.0
  0
LINE
  5
376
330
1A
100
AcDbEntity
  8
SEIHIN
  6
CONTINUOUS
 62
     3
 48
5.0
100
AcDbLine
 10
307.7783149491607
 20
81.04701402701435
 30
0.0
 11
305.2784149491607
 21
79.54701402701435
 31
0.0
  0
CIRCLE
  5
378
330
1A
100
AcDbEntity
  8
SEIHIN
  6
CONTINUOUS
 62
     3
 48
5.0
100
AcDbCircle
 10
298.7784149491607
 20
103.7584140270143
 30
0.0
 40
2.1
  0
LINE
  5
379
330
1A
100
AcDbEntity
  8
SEIHIN
  6
CONTINUOUS
 62
     3
 48
5.0
100
AcDbLine
 10
289.7783149491607
 20
124.8862140270143
 30
0.0
 11
307.7783149491607
 21
124.8862140270143
 31
0.0
  0
LINE
  5
37A
330
1A
100
AcDbEntity
  8
SEIHIN
  6
CONTINUOUS
 62
     3
 48
5.0
100
AcDbLine
 10
292.2784149491607
 20
127.9699140270144
 30
0.0
 11
305.2785149491607
 21
127.9699140270144
 31
0.0
  0
LINE
  5
37B
330
1A
100
AcDbEntity
  8
SEIHIN
  6
CONTINUOUS
 62
     3
 48
5.0
100
AcDbLine
 10
292.2784149491607
 20
137.1084140270143
 30
0.0
 11
305.2785149491607
 21
137.1084140270143
 31
0.0
  0
LINE
  5
37C
330
1A
100
AcDbEntity
  8
SEIHIN
  6
CONTINUOUS
 62
     3
 48
5.0
100
AcDbLine
 10
289.7784149491607
 20
143.1084140270143
 30
0.0
 11
307.7784149491607
 21
143.1084140270143
 31
0.0
  0
LINE
  5
37D
330
1A
100
AcDbEntity
  8
SEIHIN
  6
CONTINUOUS
 62
     3
 48
5.0
100
AcDbLine
 10
292.2784149491607
 20
137.1083140270143
 30
0.0
 11
292.2784149491607
 21
127.9699140270144
 31
0.0
  0
LINE
  5
37E
330
1A
100
AcDbEntity
  8
SEIHIN
  6
CONTINUOUS
 62
     3
 48
5.0
100
AcDbLine
 10
289.7784149491607
 20
126.4699140270143
 30
0.0
 11
292.2784149491607
 21
127.9699140270144
 31
0.0
  0
LINE
  5
37F
330
1A
100
AcDbEntity
  8
SEIHIN
  6
CONTINUOUS
 62
     3
 48
5.0
100
AcDbLine
 10
295.2785149491607
 20
137.1084140270143
 30
0.0
 11
295.2785149491607
 21
143.1083140270143
 31
0.0
  0
LINE
  5
380
330
1A
100
AcDbEntity
  8
SEIHIN
  6
CONTINUOUS
 62
     3
 48
5.0
100
AcDbLine
 10
289.7784149491607
 20
135.6084140270143
 30
0.0
 11
292.2784149491607
 21
137.1084140270143
 31
0.0
  0
LINE
  5
381
330
1A
100
AcDbEntity
  8
SEIHIN
  6
CONTINUOUS
 62
     3
 48
5.0
100
AcDbLine
 10
291.7785149491607
 20
142.2836140270143
 30
0.0
 11
295.2785149491607
 21
142.2836140270143
 31
0.0
  0
LINE
  5
382
330
1A
100
AcDbEntity
  8
SEIHIN
  6
CONTINUOUS
 62
     3
 48
5.0
100
AcDbLine
 10
291.7785149491607
 20
143.1083140270143
 30
0.0
 11
291.7785149491607
 21
142.2836140270143
 31
0.0
  0
LINE
  5
383
330
1A
100
AcDbEntity
  8
SEIHIN
  6
CONTINUOUS
 62
     3
 48
5.0
100
AcDbLine
 10
305.2785149491607
 20
137.1083140270143
 30
0.0
 11
305.2784149491607
 21
127.9699140270144
 31
0.0
  0
LINE
  5
384
330
1A
100
AcDbEntity
  8
SEIHIN
  6
CONTINUOUS
 62
     3
 48
5.0
100
AcDbLine
 10
305.2785149491607
 20
127.9699140270144
 30
0.0
 11
307.7785149491607
 21
126.4699140270143
 31
0.0
  0
LINE
  5
385
330
1A
100
AcDbEntity
  8
SEIHIN
  6
CONTINUOUS
 62
     3
 48
5.0
100
AcDbLine
 10
302.2785149491607
 20
137.1084140270143
 30
0.0
 11
302.2785149491607
 21
143.1083140270143
 31
0.0
  0
LINE
  5
386
330
1A
100
AcDbEntity
  8
SEIHIN
  6
CONTINUOUS
 62
     3
 48
5.0
100
AcDbLine
 10
305.2785149491607
 20
137.1084140270143
 30
0.0
 11
307.7785149491607
 21
135.6084140270143
 31
0.0
  0
LINE
  5
387
330
1A
100
AcDbEntity
  8
SEIHIN
  6
CONTINUOUS
 62
     3
 48
5.0
100
AcDbLine
 10
302.2785149491607
 20
142.2836140270143
 30
0.0
 11
305.7785149491607
 21
142.2836140270143
 31
0.0
  0
LINE
  5
388
330
1A
100
AcDbEntity
  8
SEIHIN
  6
CONTINUOUS
 62
     3
 48
5.0
100
AcDbLine
 10
305.7785149491607
 20
143.1082140270143
 30
0.0
 11
305.7785149491607
 21
142.2836140270143
 31
0.0
  0
LINE
  5
397
330
1A
100
AcDbEntity
  8
SEIHIN
  6
CONTINUOUS
 62
     3
 48
5.0
100
AcDbLine
 10
209.2891149491606
 20
200.1743774555206
 30
0.0
 11
209.2891149491606
 21
218.1742774555206
 31
0.0
  0
DIMENSION
  5
3AC
330
1A
100
AcDbEntity
  8
SUNPOU
  6
CONTINUOUS
 62
     4
 48
5.0
100
AcDbDimension
  2
*D3
 10
209.2891149491606
 20
166.9300583108658
 30
0.0
 11
173.9390649491607
 21
169.4300583108658
 31
0.0
 12
-14.46726036488803
 22
-10.66207679927867
 32
0.0
 70
    32
  3
STANDARD
100
AcDbAlignedDimension
 13
138.5890149491607
 23
125.0088140270143
 33
0.0
 14
209.2891149491606
 24
127.8862140270143
 34
0.0
100
AcDbRotatedDimension
1001
ACAD
1000
DSTYLE
1002
{
1070
   140
1040
3.0
1070
    74
1070
     0
1070
   172
1070
     1
1070
    73
1070
     0
1070
   272
1070
     2
1070
    77
1070
     3
1070
   173
1070
     1
1070
   147
1040
1.0
1070
    42
1040
3.0
1070
    44
1040
1.5
1070
    43
1040
7.0
1070
   271
1070
     0
1070
   178
1070
     4
1070
   177
1070
     4
1070
   176
1070
     4
1070
   141
1040
150.0
1070
     7
1000
_OPEN
1070
     6
1000
_OPEN
1070
    41
1040
3.0
1002
}
  0
LINE
  5
3AD
330
1A
100
AcDbEntity
  8
CENTER_L
  6
CENTER
 62
     1
 48
5.0
100
AcDbLine
 10
179.4260248411553
 20
139.6085140270143
 30
0.0
 11
197.7522050571663
 21
139.6085140270143
 31
0.0
  0
LINE
  5
3AE
330
1A
100
AcDbEntity
  8
CENTER_L
  6
CENTER
 62
     1
 48
5.0
100
AcDbLine
 10
188.5891149491607
 20
130.4454239190089
 30
0.0
 11
188.5891149491607
 21
148.7716041350199
 31
0.0
  0
DIMENSION
  5
3BC
330
1A
100
AcDbEntity
  8
SUNPOU
  6
CONTINUOUS
 62
     4
 48
5.0
100
AcDbDimension
  2
*D4
 10
237.1968732016171
 20
79.63101402701436
 30
0.0
 11
234.6968732016171
 21
103.7586140270143
 31
0.0
 12
-14.46726036488803
 22
-10.66207679927867
 32
0.0
 70
    32
  3
STANDARD
100
AcDbAlignedDimension
 13
209.2891149491606
 23
127.8862140270143
 33
0.0
 14
209.2889149491607
 24
79.63101402701436
 34
0.0
 50
90.0
100
AcDbRotatedDimension
1001
ACAD
1000
DSTYLE
1002
{
1070
   140
1040
3.0
1070
    74
1070
     0
1070
   172
1070
     1
1070
    73
1070
     0
1070
   272
1070
     2
1070
    77
1070
     3
1070
   173
1070
     1
1070
   147
1040
1.0
1070
    42
1040
3.0
1070
    44
1040
1.5
1070
    43
1040
7.0
1070
   271
1070
     0
1070
   178
1070
     4
1070
   177
1070
     4
1070
   176
1070
     4
1070
   141
1040
150.0
1070
     7
1000
_OPEN
1070
     6
1000
_OPEN
1070
    41
1040
3.0
1002
}
  0
DIMENSION
  5
3C9
330
1A
100
AcDbEntity
  8
SUNPOU
  6
CONTINUOUS
 62
     4
 48
5.0
100
AcDbDimension
  2
*D5
 10
113.476389400153
 20
70.40871402701437
 30
0.0
 11
110.976389400153
 21
103.7586140270143
 31
0.0
 12
-14.46726036488803
 22
-10.66207679927867
 32
0.0
 70
    32
  3
STANDARD
100
AcDbAlignedDimension
 13
150.6890149491607
 23
137.1085140270144
 33
0.0
 14
150.6888149491607
 24
70.40871402701437
 34
0.0
 50
90.0
100
AcDbRotatedDimension
1001
ACAD
1000
DSTYLE
1002
{
1070
   140
1040
3.0
1070
    74
1070
     0
1070
   172
1070
     1
1070
    73
1070
     0
1070
   272
1070
     2
1070
    77
1070
     3
1070
   173
1070
     1
1070
   147
1040
1.0
1070
    42
1040
3.0
1070
    44
1040
1.5
1070
    43
1040
7.0
1070
   271
1070
     0
1070
   178
1070
     4
1070
   177
1070
     4
1070
   176
1070
     4
1070
   141
1040
150.0
1070
     7
1000
_OPEN
1070
     6
1000
_OPEN
1070
    41
1040
3.0
1002
}
  0
DIMENSION
  5
3D6
330
1A
100
AcDbEntity
  8
SUNPOU
  6
CONTINUOUS
 62
     4
 48
5.0
100
AcDbDimension
  2
*D6
 10
113.976389400153
 20
200.1741774555206
 30
0.0
 11
111.476389400153
 21
209.1742274555206
 31
0.0
 12
-14.46726036488803
 22
-25.24651337077239
 32
0.0
 70
    32
  3
STANDARD
100
AcDbAlignedDimension
 13
139.5889149491607
 23
218.1742774555206
 33
0.0
 14
139.5889149491607
 24
200.1741774555206
 34
0.0
 50
90.0
100
AcDbRotatedDimension
1001
ACAD
1000
DSTYLE
1002
{
1070
   140
1040
3.0
1070
    74
1070
     0
1070
   172
1070
     1
1070
    73
1070
     0
1070
   272
1070
     2
1070
    77
1070
     3
1070
   173
1070
     1
1070
   147
1040
1.0
1070
    42
1040
3.0
1070
    44
1040
1.5
1070
    43
1040
7.0
1070
   271
1070
     0
1070
   178
1070
     4
1070
   177
1070
     4
1070
   176
1070
     4
1070
   141
1040
150.0
1070
     7
1000
_OPEN
1070
     6
1000
_OPEN
1070
    41
1040
3.0
1002
}
  0
DIMENSION
  5
3E7
330
1A
100
AcDbEntity
  8
SUNPOU
  6
CONTINUOUS
 62
     4
 48
5.0
100
AcDbDimension
  2
*D7
 10
209.2891149491606
 20
156.5378246965385
 30
0.0
 11
205.7890649491607
 21
159.0378246965385
 31
0.0
 12
22.52747284736619
 22
-10.66207679927867
 32
0.0
 70
    32
  3
STANDARD
100
AcDbAlignedDimension
 13
202.2890149491607
 23
124.1885140270143
 33
0.0
 14
209.2891149491606
 24
127.8862140270143
 34
0.0
100
AcDbRotatedDimension
1001
ACAD
1000
DSTYLE
1002
{
1070
   140
1040
3.0
1070
    74
1070
     0
1070
   172
1070
     1
1070
    73
1070
     0
1070
   272
1070
     2
1070
    77
1070
     3
1070
   173
1070
     1
1070
   147
1040
1.0
1070
    42
1040
3.0
1070
    44
1040
1.5
1070
    43
1040
7.0
1070
   271
1070
     0
1070
   178
1070
     4
1070
   177
1070
     4
1070
   176
1070
     4
1070
   141
1040
150.0
1070
     7
1000
_OPEN
1070
     6
1000
_OPEN
1070
    41
1040
3.0
1002
}
  0
LINE
  5
3E8
330
1A
100
AcDbEntity
  8
CENTER_L
  6
CENTER
 62
     1
 48
5.0
100
AcDbLine
 10
171.9390149491607
 20
144.1085140270143
 30
0.0
 11
171.9390149491607
 21
63.40865089019931
 31
0.0
  0
ARC
  5
3FB
330
1A
100
AcDbEntity
  8
SEIHIN
  6
CONTINUOUS
 62
     3
 48
5.0
100
AcDbCircle
 10
143.5889149491607
 20
123.4224511736095
 30
0.0
 40
2.0
100
AcDbArc
 50
106.8045330910113
 51
180.0
  0
ARC
  5
3FC
330
1A
100
AcDbEntity
  8
SEIHIN
  6
CONTINUOUS
 62
     3
 48
5.0
100
AcDbCircle
 10
141.5889149491607
 20
125.0087737273223
 30
0.0
 40
2.0
100
AcDbArc
 50
99.19845868430012
 51
180.0
  0
ARC
  5
3FD
330
1A
100
AcDbEntity
  8
SEIHIN
  6
CONTINUOUS
 62
     3
 48
5.0
100
AcDbCircle
 10
140.5890191252862
 20
125.8961359915464
 30
0.0
 40
2.0
100
AcDbArc
 50
94.35009294054321
 51
179.9997303728026
  0
LEADER
  5
40B
330
1A
100
AcDbEntity
  8
SUNPOU
  6
CONTINUOUS
 62
     4
100
AcDbLeader
  3
STANDARD
 73
     0
 40
3.0
 41
9.600000000000001
 76
     3
 10
297.2539121041116
 20
105.3083705943018
 30
0.0
 10
281.4992148403505
 20
130.8222954169424
 30
0.0
 10
280.5722053092599
 20
130.8222954169424
 30
0.0
1001
ACAD
1000
DSTYLE
1002
{
1070
     6
1000
OPEN
1070
    41
1040
3.0
1070
    42
1040
3.0
1070
    43
1040
7.0
1070
    44
1040
1.5
1070
    73
1070
     0
1070
    74
1070
     0
1070
    77
1070
     3
1070
   140
1040
3.0
1070
   141
1040
150.0
1070
   147
1040
1.0
1070
   172
1070
     1
1070
   173
1070
     1
1070
   176
1070
     4
1070
   177
1070
     4
1070
   178
1070
     4
1070
   271
1070
     0
1070
   272
1070
     2
1070
   341
1005
B2
1070
   343
1005
B2
1070
   344
1005
B2
1002
}
1000
LEANOF
1010
0.0
1020
0.0
1030
0.0
  0
MTEXT
  5
40C
330
1A
100
AcDbEntity
  8
SUNPOU
  6
CONTINUOUS
 62
     4
100
AcDbMText
 10
279.5722053092599
 20
131.8222954169424
 30
0.0
 40
3.0
 41
0.0
 71
     9
 72
     1
  1
φ4.2
1001
ACAD
1000
MTEXTBEGIN
1070
    73
1070
     1
1070
    44
1040
1.0
1070
    74
1070
     0
1000
MTEXTEND
1000
MTEXTBEGIN
1070
    73
1070
     1
1070
    44
1040
1.0
1070
    74
1070
     0
1000
MTEXTEND
1000
MTEXTBEGIN
1070
    73
1070
     1
1070
    44
1040
1.0
1070
    74
1070
     0
1000
MTEXTEND
  0
LINE
  5
44E
330
1A
100
AcDbEntity
  8
CENTER_L
  6
CENTER
 62
     1
 48
5.0
100
AcDbLine
 10
171.9390149491607
 20
227.6238313518787
 30
0.0
 11
171.9390149491607
 21
190.5921082588889
 31
0.0
  0
VIEWPORT
  5
22
330
17
100
AcDbEntity
 67
     1
  8
0
100
AcDbViewport
 10
313.6808219178082
 20
148.5
 30
0.0
 40
627.3616438356165
 41
297.0
 68
     2
 69
     1
1001
ACAD
1000
MVIEW
1002
{
1070
    16
1010
0.0
1020
0.0
1030
0.0
1010
0.0
1020
0.0
1030
1.0
1040
0.0
1040
297.0
1040
313.6808219178082
1040
148.5
1040
50.0
1040
0.0
1040
0.0
1070
     0
1070
   100
1070
     1
1070
     0
1070
     0
1070
     0
1070
     0
1070
     0
1040
0.0
1040
0.0
1040
0.0
1040
1.0
1040
1.0
1040
10.0
1040
10.0
1070
     0
1002
{
1002
}
1002
}
  0
VIEWPORT
  5
64
330
17
100
AcDbEntity
 67
     1
  8
VIEWPORT
100
AcDbViewport
 10
210.0
 20
148.5
 30
0.0
 40
420.0
 41
297.0
 68
     1
 69
     2
1001
ACAD
1000
MVIEW
1002
{
1070
    16
1010
0.0
1020
0.0
1030
0.0
1010
0.0
1020
0.0
1030
1.0
1040
0.0
1040
302.9399999999998
1040
210.0
1040
148.5
1040
50.0
1040
0.0
1040
0.0
1070
     0
1070
   100
1070
     1
1070
     0
1070
     0
1070
     0
1070
     0
1070
     0
1040
0.0
1040
0.0
1040
0.0
1040
5.0
1040
5.0
1040
0.0
1040
0.0
1070
     0
1002
{
1002
}
1002
}
  0
ENDSEC
  0
SECTION
  2
OBJECTS
  0
DICTIONARY
  5
C
330
0
100
AcDbDictionary
  3
ACAD_GROUP
350
D
  3
ACAD_LAYOUT
350
411
  3
ACAD_MLINESTYLE
350
E
  3
ACAD_PLOTSETTINGS
350
412
1001
ACAD
1000
TREAT_AS_HARD
1070
     0
  0
DICTIONARY
  5
440
330
1A
100
AcDbDictionary
  3
ACAD_LAYOUTSELFREF
350
485
1001
ACAD
1000
TREAT_AS_HARD
1070
     1
  0
DICTIONARY
  5
43E
330
17
100
AcDbDictionary
  3
ACAD_LAYOUTSELFREF
350
484
1001
ACAD
1000
TREAT_AS_HARD
1070
     1
  0
DICTIONARY
  5
D
102
{ACAD_REACTORS
330
C
102
}
330
C
100
AcDbDictionary
1001
ACAD
1000
TREAT_AS_HARD
1070
     0
  0
DICTIONARY
  5
411
102
{ACAD_REACTORS
330
C
102
}
330
C
100
AcDbDictionary
1001
ACAD
1000
TREAT_AS_HARD
1070
     0
  0
DICTIONARY
  5
E
102
{ACAD_REACTORS
330
C
102
}
330
C
100
AcDbDictionary
  3
STANDARD
350
13
1001
ACAD
1000
TREAT_AS_HARD
1070
     0
  0
DICTIONARY
  5
412
102
{ACAD_REACTORS
330
C
102
}
330
C
100
AcDbDictionary
1001
ACAD
1000
TREAT_AS_HARD
1070
     0
  0
XRECORD
  5
485
102
{ACAD_REACTORS
330
440
102
}
330
440
100
AcDbXrecord
340
1A
  0
XRECORD
  5
484
102
{ACAD_REACTORS
330
43E
102
}
330
43E
100
AcDbXrecord
340
17
  0
MLINESTYLE
  5
13
102
{ACAD_REACTORS
330
E
102
}
330
E
100
AcDbMlineStyle
  2
STANDARD
 70
     0
  3

 62
     0
 51
90.0
 52
90.0
 71
     2
 49
0.5
 62
   256
  6
BYLAYER
 49
-0.5
 62
   256
  6
BYLAYER
  0
ENDSEC
  0
EOF
