  0
SECTION
  2
HEADER
  9
$ACADVER
  1
AC1012
  9
$DWGCODEPAGE
  3
dos932
  9
$INSBASE
 10
0.0
 20
0.0
 30
0.0
  9
$EXTMIN
 10
10.05047808566086
 20
4.949376903717846
 30
0.0
  9
$EXTMAX
 10
806.2246110975902
 20
563.7825862828226
 30
0.0
  9
$LIMMIN
 10
0.0
 20
0.0
  9
$LIMMAX
 10
840.0
 20
594.0
  9
$ORTHOMODE
 70
     0
  9
$REGENMODE
 70
     1
  9
$FILLMODE
 70
     1
  9
$QTEXTMODE
 70
     0
  9
$MIRRTEXT
 70
     1
  9
$DRAGMODE
 70
     2
  9
$LTSCALE
 40
2.0
  9
$OSMODE
 70
   319
  9
$ATTMODE
 70
     1
  9
$TEXTSIZE
 40
5.0
  9
$TRACEWID
 40
1.0
  9
$TEXTSTYLE
  7
STANDARD
  9
$CLAYER
  8
CENTER_L
  9
$CELTYPE
  6
BYLAYER
  9
$CECOLOR
 62
   256
  9
$CELTSCALE
 40
1.0
  9
$DELOBJ
 70
     1
  9
$DISPSILH
 70
     0
  9
$DIMSCALE
 40
1.0
  9
$DIMASZ
 40
7.0
  9
$DIMEXO
 40
6.0
  9
$DIMDLI
 40
14.0
  9
$DIMRND
 40
0.0
  9
$DIMDLE
 40
0.0
  9
$DIMEXE
 40
3.0
  9
$DIMTP
 40
0.0
  9
$DIMTM
 40
0.0
  9
$DIMTXT
 40
6.0
  9
$DIMCEN
 40
150.0
  9
$DIMTSZ
 40
0.0
  9
$DIMTOL
 70
     0
  9
$DIMLIM
 70
     0
  9
$DIMTIH
 70
     0
  9
$DIMTOH
 70
     0
  9
$DIMSE1
 70
     0
  9
$DIMSE2
 70
     0
  9
$DIMTAD
 70
     3
  9
$DIMZIN
 70
     0
  9
$DIMBLK
  1

  9
$DIMASO
 70
     1
  9
$DIMSHO
 70
     1
  9
$DIMPOST
  1

  9
$DIMAPOST
  1

  9
$DIMALT
 70
     0
  9
$DIMALTD
 70
     2
  9
$DIMALTF
 40
25.4
  9
$DIMLFAC
 40
1.0
  9
$DIMTOFL
 70
     1
  9
$DIMTVP
 40
0.0
  9
$DIMTIX
 70
     0
  9
$DIMSOXD
 70
     0
  9
$DIMSAH
 70
     1
  9
$DIMBLK1
  1
OPEN
  9
$DIMBLK2
  1
OPEN
  9
$DIMSTYLE
  2
STANDARD
  9
$DIMCLRD
 70
   256
  9
$DIMCLRE
 70
   256
  9
$DIMCLRT
 70
   256
  9
$DIMTFAC
 40
1.0
  9
$DIMGAP
 40
2.0
  9
$DIMJUST
 70
     0
  9
$DIMSD1
 70
     0
  9
$DIMSD2
 70
     0
  9
$DIMTOLJ
 70
     1
  9
$DIMTZIN
 70
     0
  9
$DIMALTZ
 70
     0
  9
$DIMALTTZ
 70
     0
  9
$DIMFIT
 70
     3
  9
$DIMUPT
 70
     0
  9
$DIMUNIT
 70
     2
  9
$DIMDEC
 70
     0
  9
$DIMTDEC
 70
     0
  9
$DIMALTU
 70
     2
  9
$DIMALTTD
 70
     2
  9
$DIMTXSTY
  7
STANDARD
  9
$DIMAUNIT
 70
     0
  9
$LUNITS
 70
     2
  9
$LUPREC
 70
     4
  9
$SKETCHINC
 40
1.0
  9
$FILLETRAD
 40
20.0
  9
$AUNITS
 70
     0
  9
$AUPREC
 70
     0
  9
$MENU
  1
.
  9
$ELEVATION
 40
0.0
  9
$PELEVATION
 40
0.0
  9
$THICKNESS
 40
0.0
  9
$LIMCHECK
 70
     0
  9
$BLIPMODE
 70
     0
  9
$CHAMFERA
 40
20.0
  9
$CHAMFERB
 40
20.0
  9
$CHAMFERC
 40
40.0
  9
$CHAMFERD
 40
0.0
  9
$SKPOLY
 70
     0
  9
$TDCREATE
 40
2450994.354346065
  9
$TDUPDATE
 40
2452422.703459490
  9
$TDINDWG
 40
0.0061075231
  9
$TDUSRTIMER
 40
0.0061075231
  9
$USRTIMER
 70
     1
  9
$ANGBASE
 50
0.0
  9
$ANGDIR
 70
     0
  9
$PDMODE
 70
     1
  9
$PDSIZE
 40
0.0
  9
$PLINEWID
 40
0.0
  9
$COORDS
 70
     1
  9
$SPLFRAME
 70
     0
  9
$SPLINETYPE
 70
     6
  9
$SPLINESEGS
 70
     8
  9
$ATTDIA
 70
     0
  9
$ATTREQ
 70
     1
  9
$HANDLING
 70
 10241
  9
$HANDSEED
  5
532
  9
$SURFTAB1
 70
     6
  9
$SURFTAB2
 70
     6
  9
$SURFTYPE
 70
     6
  9
$SURFU
 70
     6
  9
$SURFV
 70
     6
  9
$UCSNAME
  2

  9
$UCSORG
 10
0.0
 20
0.0
 30
0.0
  9
$UCSXDIR
 10
1.0
 20
0.0
 30
0.0
  9
$UCSYDIR
 10
0.0
 20
1.0
 30
0.0
  9
$PUCSNAME
  2

  9
$PUCSORG
 10
0.0
 20
0.0
 30
0.0
  9
$PUCSXDIR
 10
1.0
 20
0.0
 30
0.0
  9
$PUCSYDIR
 10
0.0
 20
1.0
 30
0.0
  9
$USERI1
 70
     0
  9
$USERI2
 70
     0
  9
$USERI3
 70
     0
  9
$USERI4
 70
     0
  9
$USERI5
 70
     0
  9
$USERR1
 40
0.0
  9
$USERR2
 40
0.0
  9
$USERR3
 40
0.0
  9
$USERR4
 40
0.0
  9
$USERR5
 40
0.0
  9
$WORLDVIEW
 70
     1
  9
$SHADEDGE
 70
     3
  9
$SHADEDIF
 70
    70
  9
$TILEMODE
 70
     1
  9
$MAXACTVP
 70
    16
  9
$PINSBASE
 10
0.0
 20
0.0
 30
0.0
  9
$PLIMCHECK
 70
     0
  9
$PEXTMIN
 10
0.0
 20
0.0
 30
0.0
  9
$PEXTMAX
 10
420.0
 20
297.0
 30
0.0
  9
$PLIMMIN
 10
0.0
 20
0.0
  9
$PLIMMAX
 10
420.0
 20
297.0
  9
$UNITMODE
 70
     0
  9
$VISRETAIN
 70
     0
  9
$PLINEGEN
 70
     0
  9
$PSLTSCALE
 70
     1
  9
$TREEDEPTH
 70
  3020
  9
$PICKSTYLE
 70
     1
  9
$CMLSTYLE
  2
STANDARD
  9
$CMLJUST
 70
     0
  9
$CMLSCALE
 40
1.0
  9
$SAVEIMAGES
 70
     1
  0
ENDSEC
  0
SECTION
  2
CLASSES
  0
CLASS
  1
ACDBDICTIONARYWDFLT
  2
AcDbDictionaryWithDefault
  3
AutoCAD 2000
 90
    32768
280
     0
281
     0
  0
CLASS
  1
ACDBPLACEHOLDER
  2
AcDbPlaceHolder
  3
AutoCAD 2000
 90
    32768
280
     0
281
     0
  0
CLASS
  1
LAYOUT
  2
AcDbLayout
  3
AutoCAD 2000
 90
    32768
280
     0
281
     0
  0
CLASS
  1
LONG_TRANSACTION
  2
AcDbLongTransaction
  3
AutoCAD 2000
 90
    32768
280
     0
281
     0
  0
CLASS
  1
LWPOLYLINE
  2
AcDbPolyline
  3
AutoCAD 2000
 90
    32768
280
     0
281
     1
  0
CLASS
  1
HATCH
  2
AcDbHatch
  3
AutoCAD 2000
 90
    32768
280
     0
281
     1
  0
CLASS
  1
XRECORD
  2
AcDbXrecord
  3
AutoCAD 2000
 90
    32768
280
     0
281
     0
  0
CLASS
  1
LONG_TRANSACTION
  2
AcDbLongTransaction
  3
AutoCAD 2000
 90
    32768
280
     0
281
     0
  0
CLASS
  1
LWPOLYLINE
  2
AcDbPolyline
  3
AutoCAD 2000
 90
    32768
280
     0
281
     1
  0
CLASS
  1
HATCH
  2
AcDbHatch
  3
AutoCAD 2000
 90
    32768
280
     0
281
     1
  0
CLASS
  1
XRECORD
  2
AcDbXrecord
  3
AutoCAD 2000
 90
    32768
280
     0
281
     0
  0
ENDSEC
  0
SECTION
  2
TABLES
  0
TABLE
  2
VPORT
  5
8
330
0
100
AcDbSymbolTable
 70
     2
  0
VPORT
  5
52F
330
8
100
AcDbSymbolTableRecord
100
AcDbViewportTableRecord
  2
*ACTIVE
 70
     0
 10
0.0
 20
0.0
 11
1.0
 21
1.0
 12
408.9824747425057
 22
296.7303656638288
 13
0.0
 23
0.0
 14
5.0
 24
5.0
 15
0.0
 25
0.0
 16
0.0
 26
0.0
 36
1.0
 17
0.0
 27
0.0
 37
0.0
 40
606.4271038086557
 41
1.709909909909909
 42
50.0
 43
0.0
 44
0.0
 50
0.0
 51
0.0
 71
     0
 72
   100
 73
     1
 74
     0
 75
     0
 76
     0
 77
     0
 78
     0
  0
ENDTAB
  0
TABLE
  2
LTYPE
  5
5
330
0
100
AcDbSymbolTable
 70
     3
  0
LTYPE
  5
14
330
5
100
AcDbSymbolTableRecord
100
AcDbLinetypeTableRecord
  2
BYBLOCK
 70
     0
  3

 72
    65
 73
     0
 40
0.0
  0
LTYPE
  5
15
330
5
100
AcDbSymbolTableRecord
100
AcDbLinetypeTableRecord
  2
BYLAYER
 70
     0
  3

 72
    65
 73
     0
 40
0.0
  0
LTYPE
  5
16
330
5
100
AcDbSymbolTableRecord
100
AcDbLinetypeTableRecord
  2
CONTINUOUS
 70
     0
  3
Solid line
 72
    65
 73
     0
 40
0.0
  0
LTYPE
  5
115
330
5
100
AcDbSymbolTableRecord
100
AcDbLinetypeTableRecord
  2
PHANTOM
 70
     0
  3
______  __  __  ______  __  __  ______  __  __ 
 72
    65
 73
     6
 40
2.5
 49
1.25
 74
     0
 49
-0.25
 74
     0
 49
0.25
 74
     0
 49
-0.25
 74
     0
 49
0.25
 74
     0
 49
-0.25
 74
     0
  0
LTYPE
  5
135
330
5
100
AcDbSymbolTableRecord
100
AcDbLinetypeTableRecord
  2
CENTER
 70
     0
  3
____ _ ____ _ ____ _ ____ _ ____ _ ____ _ ____ 
 72
    65
 73
     4
 40
2.0
 49
1.25
 74
     0
 49
-0.25
 74
     0
 49
0.25
 74
     0
 49
-0.25
 74
     0
  0
ENDTAB
  0
TABLE
  2
LAYER
  5
2
330
0
100
AcDbSymbolTable
 70
     8
  0
LAYER
  5
F
330
2
100
AcDbSymbolTableRecord
100
AcDbLayerTableRecord
  2
0
 70
     0
 62
     7
  6
CONTINUOUS
  0
LAYER
  5
62
330
2
100
AcDbSymbolTableRecord
100
AcDbLayerTableRecord
  2
VIEWPORT
 70
     0
 62
     7
  6
CONTINUOUS
  0
LAYER
  5
65
330
2
100
AcDbSymbolTableRecord
100
AcDbLayerTableRecord
  2
ZUWAKU
 70
     0
 62
     7
  6
CONTINUOUS
  0
LAYER
  5
1D3
330
2
100
AcDbSymbolTableRecord
100
AcDbLayerTableRecord
  2
SEIHIN
 70
     0
 62
     3
  6
CONTINUOUS
  0
LAYER
  5
1D4
330
2
100
AcDbSymbolTableRecord
100
AcDbLayerTableRecord
  2
SUNPOU
 70
     0
 62
     4
  6
CONTINUOUS
  0
LAYER
  5
1D5
330
2
100
AcDbSymbolTableRecord
100
AcDbLayerTableRecord
  2
CENTER_L
 70
     0
 62
     1
  6
CENTER
  0
LAYER
  5
1D6
330
2
100
AcDbSymbolTableRecord
100
AcDbLayerTableRecord
  2
NOKITOI
 70
     0
 62
     8
  6
PHANTOM
  0
LAYER
  5
1D7
330
2
100
AcDbSymbolTableRecord
100
AcDbLayerTableRecord
  2
DEFPOINTS
 70
     0
 62
     7
  6
CONTINUOUS
  0
ENDTAB
  0
TABLE
  2
STYLE
  5
3
330
0
100
AcDbSymbolTable
 70
     1
  0
STYLE
  5
10
330
3
100
AcDbSymbolTableRecord
100
AcDbTextStyleTableRecord
  2
STANDARD
 70
     0
 40
0.0
 41
1.0
 50
0.0
 71
     0
 42
5.0
  3
TXT
  4
bigfont.shx
  0
ENDTAB
  0
TABLE
  2
VIEW
  5
6
330
0
100
AcDbSymbolTable
 70
     0
  0
ENDTAB
  0
TABLE
  2
UCS
  5
7
330
0
100
AcDbSymbolTable
 70
     0
  0
ENDTAB
  0
TABLE
  2
APPID
  5
9
330
0
100
AcDbSymbolTable
 70
     1
  0
APPID
  5
11
330
9
100
AcDbSymbolTableRecord
100
AcDbRegAppTableRecord
  2
ACAD
 70
     0
  0
ENDTAB
  0
TABLE
  2
DIMSTYLE
  5
A
330
0
100
AcDbSymbolTable
 70
     1
  0
DIMSTYLE
105
1D
102
{ACAD_REACTORS
330
2EF
330
2F0
330
2F1
330
314
330
336
330
35E
330
372
330
386
330
387
330
388
102
}
330
A
100
AcDbSymbolTableRecord
100
AcDbDimStyleTableRecord
  2
STANDARD
 70
     0
  3

  4

  5

  6

  7

 40
1.0
 41
0.18
 42
0.0625
 43
0.38
 44
0.18
 45
0.0
 46
0.0
 47
0.0
 48
0.0
140
0.18
141
0.09
142
0.0
143
25.4
144
1.0
145
0.0
146
1.0
147
0.09
 71
     0
 72
     0
 73
     1
 74
     1
 75
     0
 76
     0
 77
     0
 78
     0
170
     0
171
     2
172
     0
173
     0
174
     0
175
     0
176
     0
177
     0
178
     0
270
     2
271
     4
272
     4
273
     2
274
     2
340
10
275
     0
280
     0
281
     0
282
     0
283
     1
284
     0
285
     0
286
     0
287
     3
288
     0
  0
ENDTAB
  0
TABLE
  2
BLOCK_RECORD
  5
1
330
0
100
AcDbSymbolTable
 70
    11
  0
BLOCK_RECORD
  5
1A
102
{ACAD_XDICTIONARY
360
521
102
}
330
1
100
AcDbSymbolTableRecord
100
AcDbBlockTableRecord
  2
*MODEL_SPACE
  0
BLOCK_RECORD
  5
17
102
{ACAD_XDICTIONARY
360
51F
102
}
330
1
100
AcDbSymbolTableRecord
100
AcDbBlockTableRecord
  2
*PAPER_SPACE
  0
BLOCK_RECORD
  5
6D
330
1
100
AcDbSymbolTableRecord
100
AcDbBlockTableRecord
  2
_OPEN
  0
BLOCK_RECORD
  5
402
330
1
100
AcDbSymbolTableRecord
100
AcDbBlockTableRecord
  2
*D1
  0
BLOCK_RECORD
  5
40F
330
1
100
AcDbSymbolTableRecord
100
AcDbBlockTableRecord
  2
*D2
  0
BLOCK_RECORD
  5
41B
330
1
100
AcDbSymbolTableRecord
100
AcDbBlockTableRecord
  2
*D3
  0
BLOCK_RECORD
  5
427
330
1
100
AcDbSymbolTableRecord
100
AcDbBlockTableRecord
  2
*D4
  0
BLOCK_RECORD
  5
433
330
1
100
AcDbSymbolTableRecord
100
AcDbBlockTableRecord
  2
*D5
  0
BLOCK_RECORD
  5
43F
330
1
100
AcDbSymbolTableRecord
100
AcDbBlockTableRecord
  2
*D6
  0
BLOCK_RECORD
  5
44B
330
1
100
AcDbSymbolTableRecord
100
AcDbBlockTableRecord
  2
*D7
  0
BLOCK_RECORD
  5
457
330
1
100
AcDbSymbolTableRecord
100
AcDbBlockTableRecord
  2
*D8
  0
BLOCK_RECORD
  5
465
330
1
100
AcDbSymbolTableRecord
100
AcDbBlockTableRecord
  2
*D9
  0
BLOCK_RECORD
  5
471
330
1
100
AcDbSymbolTableRecord
100
AcDbBlockTableRecord
  2
*D10
  0
ENDTAB
  0
ENDSEC
  0
SECTION
  2
BLOCKS
  0
BLOCK
  5
1B
330
1A
100
AcDbEntity
  8
0
100
AcDbBlockBegin
  2
*MODEL_SPACE
 70
     0
 10
0.0
 20
0.0
 30
0.0
  3
*MODEL_SPACE
  1

  0
ENDBLK
  5
1C
330
1A
100
AcDbEntity
  8
0
100
AcDbBlockEnd
  0
BLOCK
  5
18
330
17
100
AcDbEntity
 67
     1
  8
0
100
AcDbBlockBegin
  2
*PAPER_SPACE
 70
     0
 10
0.0
 20
0.0
 30
0.0
  3
*PAPER_SPACE
  1

  0
ENDBLK
  5
19
330
17
100
AcDbEntity
 67
     1
  8
0
100
AcDbBlockEnd
  0
BLOCK
  5
6E
330
6D
100
AcDbEntity
  8
0
100
AcDbBlockBegin
  2
_OPEN
 70
     0
 10
0.0
 20
0.0
 30
0.0
  3
_OPEN
  1

  0
LINE
  5
6F
330
6D
100
AcDbEntity
  8
0
  6
BYBLOCK
 62
     0
100
AcDbLine
 10
-1.0
 20
0.1666666666666666
 30
0.0
 11
0.0
 21
0.0
 31
0.0
  0
LINE
  5
70
330
6D
100
AcDbEntity
  8
0
  6
BYBLOCK
 62
     0
100
AcDbLine
 10
0.0
 20
0.0
 30
0.0
 11
-1.0
 21
-0.1666666666666666
 31
0.0
  0
LINE
  5
71
330
6D
100
AcDbEntity
  8
0
  6
BYBLOCK
 62
     0
100
AcDbLine
 10
0.0
 20
0.0
 30
0.0
 11
-1.0
 21
0.0
 31
0.0
  0
ENDBLK
  5
72
330
6D
100
AcDbEntity
  8
0
100
AcDbBlockEnd
  0
BLOCK
  5
47D
330
402
100
AcDbEntity
  8
0
100
AcDbBlockBegin
  2
*D1
 70
     1
 10
0.0
 20
0.0
 30
0.0
  3
*D1
  1

  0
LINE
  5
47E
330
402
100
AcDbEntity
  8
0
  6
BYBLOCK
 62
     4
100
AcDbLine
 10
555.3670996597705
 20
212.7873339423219
 30
0.0
 11
423.6801906669192
 21
212.7873339423219
 31
0.0
  0
LINE
  5
47F
330
402
100
AcDbEntity
  8
0
  6
BYBLOCK
 62
     4
100
AcDbLine
 10
426.6801906669193
 20
242.7874339423219
 30
0.0
 11
426.6801906669193
 21
249.787433942322
 31
0.0
  0
LINE
  5
480
330
402
100
AcDbEntity
  8
0
  6
BYBLOCK
 62
     4
100
AcDbLine
 10
426.6801906669193
 20
205.787333942322
 30
0.0
 11
426.6801906669193
 21
198.7873339423219
 31
0.0
  0
LINE
  5
481
330
402
100
AcDbEntity
  8
0
  6
BYBLOCK
 62
     4
100
AcDbLine
 10
426.6801906669193
 20
235.787433942322
 30
0.0
 11
426.6801906669193
 21
212.7873339423219
 31
0.0
  0
INSERT
  5
482
330
402
100
AcDbEntity
  8
0
  6
BYBLOCK
 62
     4
100
AcDbBlockReference
  2
_OPEN
 10
426.6801906669193
 20
235.787433942322
 30
0.0
 41
7.0
 42
7.0
 43
7.0
 50
270.0
  0
INSERT
  5
483
330
402
100
AcDbEntity
  8
0
  6
BYBLOCK
 62
     4
100
AcDbBlockReference
  2
_OPEN
 10
426.6801906669193
 20
212.7873339423219
 30
0.0
 41
7.0
 42
7.0
 43
7.0
 50
90.0
  0
MTEXT
  5
484
330
402
100
AcDbEntity
  8
0
  6
BYBLOCK
 62
     4
100
AcDbMText
 10
421.6801906669193
 20
224.2873839423219
 30
0.0
 40
6.0
 41
0.0
 71
     5
 72
     1
  1
\A1;23
 11
0.0
 21
1.0
 31
0.0
1001
ACAD
1000
MTEXTBEGIN
1070
    73
1070
     1
1070
    44
1040
1.0
1070
    74
1070
     0
1000
MTEXTEND
1000
MTEXTBEGIN
1070
    73
1070
     1
1070
    44
1040
1.0
1070
    74
1070
     0
1000
MTEXTEND
  0
POINT
  5
485
330
402
100
AcDbEntity
  8
DEFPOINTS
  6
BYBLOCK
 62
     0
100
AcDbPoint
 10
556.2670996597705
 20
235.787433942322
 30
0.0
  0
POINT
  5
486
330
402
100
AcDbEntity
  8
DEFPOINTS
  6
BYBLOCK
 62
     0
100
AcDbPoint
 10
561.3670996597704
 20
212.7873339423219
 30
0.0
  0
POINT
  5
487
330
402
100
AcDbEntity
  8
DEFPOINTS
  6
BYBLOCK
 62
     0
100
AcDbPoint
 10
426.6801906669193
 20
212.7873339423219
 30
0.0
  0
ENDBLK
  5
488
330
402
100
AcDbEntity
  8
0
100
AcDbBlockEnd
  0
BLOCK
  5
489
330
40F
100
AcDbEntity
  8
0
100
AcDbBlockBegin
  2
*D2
 70
     1
 10
0.0
 20
0.0
 30
0.0
  3
*D2
  1

  0
LINE
  5
48A
330
40F
100
AcDbEntity
  8
0
  6
BYBLOCK
 62
     4
100
AcDbLine
 10
450.2673996597706
 20
448.4430339423219
 30
0.0
 11
423.6801906669192
 21
448.4430339423219
 31
0.0
  0
LINE
  5
48B
330
40F
100
AcDbEntity
  8
0
  6
BYBLOCK
 62
     4
100
AcDbLine
 10
550.2670996597705
 20
235.787433942322
 30
0.0
 11
423.6801906669192
 21
235.787433942322
 31
0.0
  0
LINE
  5
48C
330
40F
100
AcDbEntity
  8
0
  6
BYBLOCK
 62
     4
100
AcDbLine
 10
426.6801906669193
 20
441.443033942322
 30
0.0
 11
426.6801906669193
 21
242.7874339423219
 31
0.0
  0
INSERT
  5
48D
330
40F
100
AcDbEntity
  8
0
  6
BYBLOCK
 62
     4
100
AcDbBlockReference
  2
_OPEN
 10
426.6801906669193
 20
448.4430339423219
 30
0.0
 41
7.0
 42
7.0
 43
7.0
 50
90.0
  0
INSERT
  5
48E
330
40F
100
AcDbEntity
  8
0
  6
BYBLOCK
 62
     4
100
AcDbBlockReference
  2
_OPEN
 10
426.6801906669193
 20
235.787433942322
 30
0.0
 41
7.0
 42
7.0
 43
7.0
 50
270.0
  0
MTEXT
  5
48F
330
40F
100
AcDbEntity
  8
0
  6
BYBLOCK
 62
     4
100
AcDbMText
 10
421.6801906669193
 20
342.1152339423219
 30
0.0
 40
6.0
 41
0.0
 71
     5
 72
     1
  1
\A1;213
 11
0.0
 21
1.0
 31
0.0
1001
ACAD
1000
MTEXTBEGIN
1070
    73
1070
     1
1070
    44
1040
1.0
1070
    74
1070
     0
1000
MTEXTEND
1000
MTEXTBEGIN
1070
    73
1070
     1
1070
    44
1040
1.0
1070
    74
1070
     0
1000
MTEXTEND
  0
POINT
  5
490
330
40F
100
AcDbEntity
  8
DEFPOINTS
  6
BYBLOCK
 62
     0
100
AcDbPoint
 10
456.2673996597705
 20
448.4430339423219
 30
0.0
  0
POINT
  5
491
330
40F
100
AcDbEntity
  8
DEFPOINTS
  6
BYBLOCK
 62
     0
100
AcDbPoint
 10
556.2670996597705
 20
235.787433942322
 30
0.0
  0
POINT
  5
492
330
40F
100
AcDbEntity
  8
DEFPOINTS
  6
BYBLOCK
 62
     0
100
AcDbPoint
 10
426.6801906669193
 20
235.787433942322
 30
0.0
  0
ENDBLK
  5
493
330
40F
100
AcDbEntity
  8
0
100
AcDbBlockEnd
  0
BLOCK
  5
494
330
41B
100
AcDbEntity
  8
0
100
AcDbBlockBegin
  2
*D3
 70
     1
 10
0.0
 20
0.0
 30
0.0
  3
*D3
  1

  0
LINE
  5
495
330
41B
100
AcDbEntity
  8
0
  6
BYBLOCK
 62
     4
100
AcDbLine
 10
450.2673996597706
 20
448.4430339423219
 30
0.0
 11
401.8762171997964
 21
448.4430339423219
 31
0.0
  0
LINE
  5
496
330
41B
100
AcDbEntity
  8
0
  6
BYBLOCK
 62
     4
100
AcDbLine
 10
560.2670996597705
 20
199.787333942322
 30
0.0
 11
401.8762171997964
 21
199.787333942322
 31
0.0
  0
LINE
  5
497
330
41B
100
AcDbEntity
  8
0
  6
BYBLOCK
 62
     4
100
AcDbLine
 10
404.8762171997964
 20
441.443033942322
 30
0.0
 11
404.8762171997964
 21
206.7873339423219
 31
0.0
  0
INSERT
  5
498
330
41B
100
AcDbEntity
  8
0
  6
BYBLOCK
 62
     4
100
AcDbBlockReference
  2
_OPEN
 10
404.8762171997964
 20
448.4430339423219
 30
0.0
 41
7.0
 42
7.0
 43
7.0
 50
90.0
  0
INSERT
  5
499
330
41B
100
AcDbEntity
  8
0
  6
BYBLOCK
 62
     4
100
AcDbBlockReference
  2
_OPEN
 10
404.8762171997964
 20
199.787333942322
 30
0.0
 41
7.0
 42
7.0
 43
7.0
 50
270.0
  0
MTEXT
  5
49A
330
41B
100
AcDbEntity
  8
0
  6
BYBLOCK
 62
     4
100
AcDbMText
 10
399.8762171997964
 20
324.115183942322
 30
0.0
 40
6.0
 41
0.0
 71
     5
 72
     1
  1
\A1;249
 11
0.0
 21
1.0
 31
0.0
1001
ACAD
1000
MTEXTBEGIN
1070
    73
1070
     1
1070
    44
1040
1.0
1070
    74
1070
     0
1000
MTEXTEND
1000
MTEXTBEGIN
1070
    73
1070
     1
1070
    44
1040
1.0
1070
    74
1070
     0
1000
MTEXTEND
  0
POINT
  5
49B
330
41B
100
AcDbEntity
  8
DEFPOINTS
  6
BYBLOCK
 62
     0
100
AcDbPoint
 10
456.2673996597705
 20
448.4430339423219
 30
0.0
  0
POINT
  5
49C
330
41B
100
AcDbEntity
  8
DEFPOINTS
  6
BYBLOCK
 62
     0
100
AcDbPoint
 10
566.2670996597706
 20
199.787333942322
 30
0.0
  0
POINT
  5
49D
330
41B
100
AcDbEntity
  8
DEFPOINTS
  6
BYBLOCK
 62
     0
100
AcDbPoint
 10
404.8762171997964
 20
199.787333942322
 30
0.0
  0
ENDBLK
  5
49E
330
41B
100
AcDbEntity
  8
0
100
AcDbBlockEnd
  0
BLOCK
  5
49F
330
427
100
AcDbEntity
  8
0
100
AcDbBlockBegin
  2
*D4
 70
     1
 10
0.0
 20
0.0
 30
0.0
  3
*D4
  1

  0
LINE
  5
4A0
330
427
100
AcDbEntity
  8
0
  6
BYBLOCK
 62
     4
100
AcDbLine
 10
272.1428491100543
 20
231.443133942322
 30
0.0
 11
272.1428491100543
 21
163.7218344212151
 31
0.0
  0
LINE
  5
4A1
330
427
100
AcDbEntity
  8
0
  6
BYBLOCK
 62
     4
100
AcDbLine
 10
194.1430491100543
 20
231.4433339423219
 30
0.0
 11
194.1430491100543
 21
163.7218344212151
 31
0.0
  0
LINE
  5
4A2
330
427
100
AcDbEntity
  8
0
  6
BYBLOCK
 62
     4
100
AcDbLine
 10
265.1428491100543
 20
166.7218344212152
 30
0.0
 11
201.1430491100543
 21
166.7218344212152
 31
0.0
  0
INSERT
  5
4A3
330
427
100
AcDbEntity
  8
0
  6
BYBLOCK
 62
     4
100
AcDbBlockReference
  2
_OPEN
 10
272.1428491100543
 20
166.7218344212152
 30
0.0
 41
7.0
 42
7.0
 43
7.0
  0
INSERT
  5
4A4
330
427
100
AcDbEntity
  8
0
  6
BYBLOCK
 62
     4
100
AcDbBlockReference
  2
_OPEN
 10
194.1430491100543
 20
166.7218344212152
 30
0.0
 41
7.0
 42
7.0
 43
7.0
 50
180.0
  0
MTEXT
  5
4A5
330
427
100
AcDbEntity
  8
0
  6
BYBLOCK
 62
     4
100
AcDbMText
 10
233.1429491100543
 20
171.7218344212152
 30
0.0
 40
6.0
 41
0.0
 71
     5
 72
     1
  1
\A1;78
1001
ACAD
1000
MTEXTBEGIN
1070
    73
1070
     1
1070
    44
1040
1.0
1070
    74
1070
     0
1000
MTEXTEND
1000
MTEXTBEGIN
1070
    73
1070
     1
1070
    44
1040
1.0
1070
    74
1070
     0
1000
MTEXTEND
  0
POINT
  5
4A6
330
427
100
AcDbEntity
  8
DEFPOINTS
  6
BYBLOCK
 62
     0
100
AcDbPoint
 10
272.1428491100543
 20
237.443133942322
 30
0.0
  0
POINT
  5
4A7
330
427
100
AcDbEntity
  8
DEFPOINTS
  6
BYBLOCK
 62
     0
100
AcDbPoint
 10
194.1430491100543
 20
237.4433339423219
 30
0.0
  0
POINT
  5
4A8
330
427
100
AcDbEntity
  8
DEFPOINTS
  6
BYBLOCK
 62
     0
100
AcDbPoint
 10
194.1430491100543
 20
166.7218344212152
 30
0.0
  0
ENDBLK
  5
4A9
330
427
100
AcDbEntity
  8
0
100
AcDbBlockEnd
  0
BLOCK
  5
4AA
330
433
100
AcDbEntity
  8
0
100
AcDbBlockBegin
  2
*D5
 70
     1
 10
0.0
 20
0.0
 30
0.0
  3
*D5
  1

  0
LINE
  5
4AB
330
433
100
AcDbEntity
  8
0
  6
BYBLOCK
 62
     4
100
AcDbLine
 10
352.1433491100543
 20
433.4431365579626
 30
0.0
 11
352.1433491100543
 21
494.8588750884467
 31
0.0
  0
LINE
  5
4AC
330
433
100
AcDbEntity
  8
0
  6
BYBLOCK
 62
     4
100
AcDbLine
 10
114.1432791100543
 20
433.4435351196634
 30
0.0
 11
114.1432791100543
 21
494.8588750884467
 31
0.0
  0
LINE
  5
4AD
330
433
100
AcDbEntity
  8
0
  6
BYBLOCK
 62
     4
100
AcDbLine
 10
345.1433491100543
 20
491.8588750884467
 30
0.0
 11
121.1432791100543
 21
491.8588750884467
 31
0.0
  0
INSERT
  5
4AE
330
433
100
AcDbEntity
  8
0
  6
BYBLOCK
 62
     4
100
AcDbBlockReference
  2
_OPEN
 10
352.1433491100543
 20
491.8588750884467
 30
0.0
 41
7.0
 42
7.0
 43
7.0
  0
INSERT
  5
4AF
330
433
100
AcDbEntity
  8
0
  6
BYBLOCK
 62
     4
100
AcDbBlockReference
  2
_OPEN
 10
114.1432791100543
 20
491.8588750884467
 30
0.0
 41
7.0
 42
7.0
 43
7.0
 50
180.0
  0
MTEXT
  5
4B0
330
433
100
AcDbEntity
  8
0
  6
BYBLOCK
 62
     4
100
AcDbMText
 10
233.1433141100543
 20
496.8588750884467
 30
0.0
 40
6.0
 41
0.0
 71
     5
 72
     1
  1
\A1;238
1001
ACAD
1000
MTEXTBEGIN
1070
    73
1070
     1
1070
    44
1040
1.0
1070
    74
1070
     0
1000
MTEXTEND
1000
MTEXTBEGIN
1070
    73
1070
     1
1070
    44
1040
1.0
1070
    74
1070
     0
1000
MTEXTEND
  0
POINT
  5
4B1
330
433
100
AcDbEntity
  8
DEFPOINTS
  6
BYBLOCK
 62
     0
100
AcDbPoint
 10
352.1433491100543
 20
427.4431365579626
 30
0.0
  0
POINT
  5
4B2
330
433
100
AcDbEntity
  8
DEFPOINTS
  6
BYBLOCK
 62
     0
100
AcDbPoint
 10
114.1432791100543
 20
427.4435351196633
 30
0.0
  0
POINT
  5
4B3
330
433
100
AcDbEntity
  8
DEFPOINTS
  6
BYBLOCK
 62
     0
100
AcDbPoint
 10
114.1432791100543
 20
491.8588750884467
 30
0.0
  0
ENDBLK
  5
4B4
330
433
100
AcDbEntity
  8
0
100
AcDbBlockEnd
  0
BLOCK
  5
4B5
330
43F
100
AcDbEntity
  8
0
100
AcDbBlockBegin
  2
*D6
 70
     1
 10
0.0
 20
0.0
 30
0.0
  3
*D6
  1

  0
LINE
  5
4B6
330
43F
100
AcDbEntity
  8
0
  6
BYBLOCK
 62
     4
100
AcDbLine
 10
203.1433089953599
 20
451.6739960382241
 30
0.0
 11
203.1433089953599
 21
474.64745696154
 31
0.0
  0
LINE
  5
4B7
330
43F
100
AcDbEntity
  8
0
  6
BYBLOCK
 62
     4
100
AcDbLine
 10
263.1433089952958
 20
451.6739068759918
 30
0.0
 11
263.1433089952958
 21
474.64745696154
 31
0.0
  0
LINE
  5
4B8
330
43F
100
AcDbEntity
  8
0
  6
BYBLOCK
 62
     4
100
AcDbLine
 10
210.1433089953598
 20
471.64745696154
 30
0.0
 11
256.1433089952958
 21
471.64745696154
 31
0.0
  0
INSERT
  5
4B9
330
43F
100
AcDbEntity
  8
0
  6
BYBLOCK
 62
     4
100
AcDbBlockReference
  2
_OPEN
 10
203.1433089953599
 20
471.64745696154
 30
0.0
 41
7.0
 42
7.0
 43
7.0
 50
180.0
  0
INSERT
  5
4BA
330
43F
100
AcDbEntity
  8
0
  6
BYBLOCK
 62
     4
100
AcDbBlockReference
  2
_OPEN
 10
263.1433089952958
 20
471.64745696154
 30
0.0
 41
7.0
 42
7.0
 43
7.0
  0
MTEXT
  5
4BB
330
43F
100
AcDbEntity
  8
0
  6
BYBLOCK
 62
     4
100
AcDbMText
 10
233.1433089953278
 20
476.64745696154
 30
0.0
 40
6.0
 41
0.0
 71
     5
 72
     1
  1
\A1;※a60
1001
ACAD
1000
MTEXTBEGIN
1070
    73
1070
     1
1070
    44
1040
1.0
1070
    74
1070
     0
1000
MTEXTEND
1000
MTEXTBEGIN
1070
    73
1070
     1
1070
    44
1040
1.0
1070
    74
1070
     0
1000
MTEXTEND
  0
POINT
  5
4BC
330
43F
100
AcDbEntity
  8
DEFPOINTS
  6
BYBLOCK
 62
     0
100
AcDbPoint
 10
203.1433089953599
 20
445.6739960382241
 30
0.0
  0
POINT
  5
4BD
330
43F
100
AcDbEntity
  8
DEFPOINTS
  6
BYBLOCK
 62
     0
100
AcDbPoint
 10
263.1433089952958
 20
445.6739068759919
 30
0.0
  0
POINT
  5
4BE
330
43F
100
AcDbEntity
  8
DEFPOINTS
  6
BYBLOCK
 62
     0
100
AcDbPoint
 10
263.1433089952958
 20
471.64745696154
 30
0.0
  0
ENDBLK
  5
4BF
330
43F
100
AcDbEntity
  8
0
100
AcDbBlockEnd
  0
BLOCK
  5
4C0
330
44B
100
AcDbEntity
  8
0
100
AcDbBlockBegin
  2
*D7
 70
     1
 10
0.0
 20
0.0
 30
0.0
  3
*D7
  1

  0
LINE
  5
4C1
330
44B
100
AcDbEntity
  8
0
  6
BYBLOCK
 62
     4
100
AcDbLine
 10
667.2672996597705
 20
377.787233942322
 30
0.0
 11
689.1056164824658
 21
377.787233942322
 31
0.0
  0
LINE
  5
4C2
330
44B
100
AcDbEntity
  8
0
  6
BYBLOCK
 62
     4
100
AcDbLine
 10
601.2666910713866
 20
315.4872527975792
 30
0.0
 11
689.1056164824658
 21
315.4872527975792
 31
0.0
  0
LINE
  5
4C3
330
44B
100
AcDbEntity
  8
0
  6
BYBLOCK
 62
     4
100
AcDbLine
 10
686.1056164824658
 20
370.787233942322
 30
0.0
 11
686.1056164824658
 21
322.4872527975792
 31
0.0
  0
INSERT
  5
4C4
330
44B
100
AcDbEntity
  8
0
  6
BYBLOCK
 62
     4
100
AcDbBlockReference
  2
_OPEN
 10
686.1056164824658
 20
377.787233942322
 30
0.0
 41
7.0
 42
7.0
 43
7.0
 50
90.0
  0
INSERT
  5
4C5
330
44B
100
AcDbEntity
  8
0
  6
BYBLOCK
 62
     4
100
AcDbBlockReference
  2
_OPEN
 10
686.1056164824658
 20
315.4872527975792
 30
0.0
 41
7.0
 42
7.0
 43
7.0
 50
270.0
  0
MTEXT
  5
4C6
330
44B
100
AcDbEntity
  8
0
  6
BYBLOCK
 62
     4
100
AcDbMText
 10
681.1056164824658
 20
346.6372433699506
 30
0.0
 40
6.0
 41
0.0
 71
     5
 72
     1
  1
\A1;62
 11
0.0
 21
1.0
 31
0.0
1001
ACAD
1000
MTEXTBEGIN
1070
    73
1070
     1
1070
    44
1040
1.0
1070
    74
1070
     0
1000
MTEXTEND
1000
MTEXTBEGIN
1070
    73
1070
     1
1070
    44
1040
1.0
1070
    74
1070
     0
1000
MTEXTEND
  0
POINT
  5
4C7
330
44B
100
AcDbEntity
  8
DEFPOINTS
  6
BYBLOCK
 62
     0
100
AcDbPoint
 10
661.2672996597705
 20
377.787233942322
 30
0.0
  0
POINT
  5
4C8
330
44B
100
AcDbEntity
  8
DEFPOINTS
  6
BYBLOCK
 62
     0
100
AcDbPoint
 10
595.2666910713865
 20
315.4872527975792
 30
0.0
  0
POINT
  5
4C9
330
44B
100
AcDbEntity
  8
DEFPOINTS
  6
BYBLOCK
 62
     0
100
AcDbPoint
 10
686.1056164824658
 20
315.4872527975792
 30
0.0
  0
ENDBLK
  5
4CA
330
44B
100
AcDbEntity
  8
0
100
AcDbBlockEnd
  0
BLOCK
  5
4CB
330
457
100
AcDbEntity
  8
0
100
AcDbBlockBegin
  2
*D8
 70
     1
 10
0.0
 20
0.0
 30
0.0
  3
*D8
  1

  0
LINE
  5
4CC
330
457
100
AcDbEntity
  8
0
  6
BYBLOCK
 62
     4
100
AcDbLine
 10
635.1669996597705
 20
212.7873339423219
 30
0.0
 11
674.4177053437583
 21
212.7873339423219
 31
0.0
  0
LINE
  5
4CD
330
457
100
AcDbEntity
  8
0
  6
BYBLOCK
 62
     4
100
AcDbLine
 10
638.2170446597704
 20
224.7873339423219
 30
0.0
 11
674.4177053437583
 21
224.7873339423219
 31
0.0
  0
LINE
  5
4CE
330
457
100
AcDbEntity
  8
0
  6
BYBLOCK
 62
     4
100
AcDbLine
 10
671.4177053437583
 20
205.787333942322
 30
0.0
 11
671.4177053437583
 21
198.7873339423219
 31
0.0
  0
LINE
  5
4CF
330
457
100
AcDbEntity
  8
0
  6
BYBLOCK
 62
     4
100
AcDbLine
 10
671.4177053437583
 20
231.7873339423219
 30
0.0
 11
671.4177053437583
 21
267.5873339423219
 31
0.0
  0
LINE
  5
4D0
330
457
100
AcDbEntity
  8
0
  6
BYBLOCK
 62
     4
100
AcDbLine
 10
671.4177053437583
 20
212.7873339423219
 30
0.0
 11
671.4177053437583
 21
224.7873339423219
 31
0.0
  0
INSERT
  5
4D1
330
457
100
AcDbEntity
  8
0
  6
BYBLOCK
 62
     4
100
AcDbBlockReference
  2
_OPEN
 10
671.4177053437583
 20
212.7873339423219
 30
0.0
 41
7.0
 42
7.0
 43
7.0
 50
90.0
  0
INSERT
  5
4D2
330
457
100
AcDbEntity
  8
0
  6
BYBLOCK
 62
     4
100
AcDbBlockReference
  2
_OPEN
 10
671.4177053437583
 20
224.7873339423219
 30
0.0
 41
7.0
 42
7.0
 43
7.0
 50
270.0
  0
MTEXT
  5
4D3
330
457
100
AcDbEntity
  8
0
  6
BYBLOCK
 62
     4
100
AcDbMText
 10
666.4177053437583
 20
253.187333942322
 30
0.0
 40
6.0
 41
0.0
 71
     5
 72
     1
  1
\A1;※b 12
 11
0.0
 21
1.0
 31
0.0
1001
ACAD
1000
MTEXTBEGIN
1070
    73
1070
     1
1070
    44
1040
1.0
1070
    74
1070
     0
1000
MTEXTEND
1000
MTEXTBEGIN
1070
    73
1070
     1
1070
    44
1040
1.0
1070
    74
1070
     0
1000
MTEXTEND
  0
POINT
  5
4D4
330
457
100
AcDbEntity
  8
DEFPOINTS
  6
BYBLOCK
 62
     0
100
AcDbPoint
 10
629.1669996597704
 20
212.7873339423219
 30
0.0
  0
POINT
  5
4D5
330
457
100
AcDbEntity
  8
DEFPOINTS
  6
BYBLOCK
 62
     0
100
AcDbPoint
 10
632.2170446597705
 20
224.7873339423219
 30
0.0
  0
POINT
  5
4D6
330
457
100
AcDbEntity
  8
DEFPOINTS
  6
BYBLOCK
 62
     0
100
AcDbPoint
 10
671.4177053437583
 20
224.7873339423219
 30
0.0
  0
ENDBLK
  5
4D7
330
457
100
AcDbEntity
  8
0
100
AcDbBlockEnd
  0
BLOCK
  5
4D8
330
465
100
AcDbEntity
  8
0
100
AcDbBlockBegin
  2
*D9
 70
     1
 10
0.0
 20
0.0
 30
0.0
  3
*D9
  1

  0
LINE
  5
4D9
330
465
100
AcDbEntity
  8
0
  6
BYBLOCK
 62
     4
100
AcDbLine
 10
624.2670996597706
 20
193.7873339423219
 30
0.0
 11
624.2670996597706
 21
163.7218344212151
 31
0.0
  0
LINE
  5
4DA
330
465
100
AcDbEntity
  8
0
  6
BYBLOCK
 62
     4
100
AcDbLine
 10
566.2670996597706
 20
193.7873339423219
 30
0.0
 11
566.2670996597706
 21
163.7218344212151
 31
0.0
  0
LINE
  5
4DB
330
465
100
AcDbEntity
  8
0
  6
BYBLOCK
 62
     4
100
AcDbLine
 10
617.2670996597705
 20
166.7218344212152
 30
0.0
 11
573.2670996597705
 21
166.7218344212152
 31
0.0
  0
INSERT
  5
4DC
330
465
100
AcDbEntity
  8
0
  6
BYBLOCK
 62
     4
100
AcDbBlockReference
  2
_OPEN
 10
624.2670996597706
 20
166.7218344212152
 30
0.0
 41
7.0
 42
7.0
 43
7.0
  0
INSERT
  5
4DD
330
465
100
AcDbEntity
  8
0
  6
BYBLOCK
 62
     4
100
AcDbBlockReference
  2
_OPEN
 10
566.2670996597706
 20
166.7218344212152
 30
0.0
 41
7.0
 42
7.0
 43
7.0
 50
180.0
  0
MTEXT
  5
4DE
330
465
100
AcDbEntity
  8
0
  6
BYBLOCK
 62
     4
100
AcDbMText
 10
595.2670996597706
 20
171.7218344212152
 30
0.0
 40
6.0
 41
0.0
 71
     5
 72
     1
  1
\A1;φ58
1001
ACAD
1000
MTEXTBEGIN
1070
    73
1070
     1
1070
    44
1040
1.0
1070
    74
1070
     0
1000
MTEXTEND
1000
MTEXTBEGIN
1070
    73
1070
     1
1070
    44
1040
1.0
1070
    74
1070
     0
1000
MTEXTEND
  0
POINT
  5
4DF
330
465
100
AcDbEntity
  8
DEFPOINTS
  6
BYBLOCK
 62
     0
100
AcDbPoint
 10
624.2670996597706
 20
199.787333942322
 30
0.0
  0
POINT
  5
4E0
330
465
100
AcDbEntity
  8
DEFPOINTS
  6
BYBLOCK
 62
     0
100
AcDbPoint
 10
566.2670996597706
 20
199.787333942322
 30
0.0
  0
POINT
  5
4E1
330
465
100
AcDbEntity
  8
DEFPOINTS
  6
BYBLOCK
 62
     0
100
AcDbPoint
 10
566.2670996597706
 20
166.7218344212152
 30
0.0
  0
ENDBLK
  5
4E2
330
465
100
AcDbEntity
  8
0
100
AcDbBlockEnd
  0
BLOCK
  5
4E3
330
471
100
AcDbEntity
  8
0
100
AcDbBlockBegin
  2
*D10
 70
     1
 10
0.0
 20
0.0
 30
0.0
  3
*D10
  1

  0
LINE
  5
4E4
330
471
100
AcDbEntity
  8
0
  6
BYBLOCK
 62
     4
100
AcDbLine
 10
632.2169996597706
 20
209.7873339423219
 30
0.0
 11
632.2169996597706
 21
143.6698871921963
 31
0.0
  0
LINE
  5
4E5
330
471
100
AcDbEntity
  8
0
  6
BYBLOCK
 62
     4
100
AcDbLine
 10
558.3170996597705
 20
209.7873339423219
 30
0.0
 11
558.3170996597705
 21
143.6698871921963
 31
0.0
  0
LINE
  5
4E6
330
471
100
AcDbEntity
  8
0
  6
BYBLOCK
 62
     4
100
AcDbLine
 10
625.2169996597706
 20
146.6698871921963
 30
0.0
 11
565.3170996597705
 21
146.6698871921963
 31
0.0
  0
INSERT
  5
4E7
330
471
100
AcDbEntity
  8
0
  6
BYBLOCK
 62
     4
100
AcDbBlockReference
  2
_OPEN
 10
632.2169996597706
 20
146.6698871921963
 30
0.0
 41
7.0
 42
7.0
 43
7.0
  0
INSERT
  5
4E8
330
471
100
AcDbEntity
  8
0
  6
BYBLOCK
 62
     4
100
AcDbBlockReference
  2
_OPEN
 10
558.3170996597705
 20
146.6698871921963
 30
0.0
 41
7.0
 42
7.0
 43
7.0
 50
180.0
  0
MTEXT
  5
4E9
330
471
100
AcDbEntity
  8
0
  6
BYBLOCK
 62
     4
100
AcDbMText
 10
595.2670496597705
 20
151.6698871921963
 30
0.0
 40
6.0
 41
0.0
 71
     5
 72
     1
  1
\A1;φ74
1001
ACAD
1000
MTEXTBEGIN
1070
    73
1070
     1
1070
    44
1040
1.0
1070
    74
1070
     0
1000
MTEXTEND
1000
MTEXTBEGIN
1070
    73
1070
     1
1070
    44
1040
1.0
1070
    74
1070
     0
1000
MTEXTEND
  0
POINT
  5
4EA
330
471
100
AcDbEntity
  8
DEFPOINTS
  6
BYBLOCK
 62
     0
100
AcDbPoint
 10
632.2169996597706
 20
215.7873339423219
 30
0.0
  0
POINT
  5
4EB
330
471
100
AcDbEntity
  8
DEFPOINTS
  6
BYBLOCK
 62
     0
100
AcDbPoint
 10
558.3170996597705
 20
215.7873339423219
 30
0.0
  0
POINT
  5
4EC
330
471
100
AcDbEntity
  8
DEFPOINTS
  6
BYBLOCK
 62
     0
100
AcDbPoint
 10
558.3170996597705
 20
146.6698871921963
 30
0.0
  0
ENDBLK
  5
4ED
330
471
100
AcDbEntity
  8
0
100
AcDbBlockEnd
  0
ENDSEC
  0
SECTION
  2
ENTITIES
  0
TEXT
  5
11A
330
1A
100
AcDbEntity
  8
ZUWAKU
 62
     7
 48
10.0
100
AcDbText
 10
795.5579444309237
 20
4.974918402528146
 30
0.0
 40
8.0
  1
A1
100
AcDbText
  0
LINE
  5
11B
330
1A
100
AcDbEntity
  8
ZUWAKU
 62
     7
 48
10.0
100
AcDbLine
 10
10.05047808566086
 20
25.78258628282265
 30
0.0
 11
806.0504780856609
 21
25.78258628282253
 31
0.0
  0
LINE
  5
11C
330
1A
100
AcDbEntity
  8
ZUWAKU
  6
CONTINUOUS
 62
     7
100
AcDbLine
 10
806.0504780856609
 20
563.7825862828226
 30
0.0
 11
10.05047808566086
 21
563.7825862828226
 31
0.0
  0
LINE
  5
11D
330
1A
100
AcDbEntity
  8
ZUWAKU
  6
CONTINUOUS
 62
     7
100
AcDbLine
 10
806.0504780856609
 20
13.78258628282265
 30
0.0
 11
10.05047808566086
 21
13.78258628282265
 31
0.0
  0
LINE
  5
11E
330
1A
100
AcDbEntity
  8
ZUWAKU
  6
CONTINUOUS
 62
     7
100
AcDbLine
 10
10.05047808566086
 20
563.7825862828226
 30
0.0
 11
10.05047808566086
 21
13.78258628282265
 31
0.0
  0
LINE
  5
11F
330
1A
100
AcDbEntity
  8
ZUWAKU
 62
     7
 48
10.0
100
AcDbLine
 10
44.55797523147839
 20
13.78258628282265
 30
0.0
 11
44.5579752314784
 21
25.78258628282265
 31
0.0
  0
TEXT
  5
120
330
1A
100
AcDbEntity
  8
ZUWAKU
 62
     7
100
AcDbText
 10
16.05676551180931
 20
15.52294263804401
 30
0.0
 40
8.0
  1
品 種
100
AcDbText
  0
LINE
  5
121
330
1A
100
AcDbEntity
  8
ZUWAKU
 62
     7
 48
10.0
100
AcDbLine
 10
276.1028387068254
 20
13.78258628282265
 30
0.0
 11
276.1028387068254
 21
25.78258628282261
 31
0.0
  0
LINE
  5
122
330
1A
100
AcDbEntity
  8
ZUWAKU
 62
     7
 48
10.0
100
AcDbLine
 10
209.5138526425484
 20
13.78258628282265
 30
0.0
 11
209.5138526425485
 21
25.78258628282263
 31
0.0
  0
TEXT
  5
123
330
1A
100
AcDbEntity
  8
ZUWAKU
 62
     7
100
AcDbText
 10
282.3131429914078
 20
15.64241700452384
 30
0.0
 40
8.0
  1
飾りじょうご　型　１０５－ＵＴ６０
100
AcDbText
  0
TEXT
  5
124
330
1A
100
AcDbEntity
  8
ZUWAKU
 62
     7
100
AcDbText
 10
215.4560837190756
 20
16.18358115302453
 30
0.0
 40
8.0
  1
品名・ｻ ｲ ｽﾞ
100
AcDbText
  0
TEXT
  5
125
330
1A
100
AcDbEntity
  8
ZUWAKU
 62
     7
100
AcDbText
 10
50.3519382305086
 20
16.10306189639755
 30
0.0
 40
8.0
  1
丸トップ　のきとい
100
AcDbText
  0
LINE
  5
126
330
1A
100
AcDbEntity
  8
ZUWAKU
 62
     7
 48
10.0
100
AcDbLine
 10
768.7231079932794
 20
13.78258628282237
 30
0.0
 11
768.7231079932794
 21
25.78258628282254
 31
0.0
  0
LINE
  5
127
330
1A
100
AcDbEntity
  8
ZUWAKU
 62
     7
 48
10.0
100
AcDbLine
 10
733.8119002376948
 20
13.78258628282242
 30
0.0
 11
733.8119002376946
 21
25.78258628282254
 31
0.0
  0
TEXT
  5
128
330
1A
100
AcDbEntity
  8
ZUWAKU
 62
     7
100
AcDbText
 10
739.6955629973526
 20
15.24227755810852
 30
0.0
 40
8.0
  1
尺 度
100
AcDbText
  0
TEXT
  5
129
330
1A
100
AcDbEntity
  8
ZUWAKU
 62
     7
100
AcDbText
 10
779.7374630323229
 20
15.55488920081529
 30
0.0
 40
8.0
  1
1/2
100
AcDbText
  0
TEXT
  5
12A
330
1A
100
AcDbEntity
  8
ZUWAKU
 62
     7
100
AcDbText
 10
654.2531733678779
 20
15.90287984531518
 30
0.0
 40
8.0
  1
ＧＬ２０
100
AcDbText
  0
TEXT
  5
12B
330
1A
100
AcDbEntity
  8
ZUWAKU
 62
     7
100
AcDbText
 10
620.3363288383084
 20
15.6519090944263
 30
0.0
 40
8.0
  1
品 番
100
AcDbText
  0
LINE
  5
12C
330
1A
100
AcDbEntity
  8
ZUWAKU
 62
     7
 48
10.0
100
AcDbLine
 10
614.3351028194128
 20
13.78258628282232
 30
0.0
 11
614.3351028194128
 21
25.78258628282256
 31
0.0
  0
LINE
  5
12D
330
1A
100
AcDbEntity
  8
ZUWAKU
 62
     7
 48
10.0
100
AcDbLine
 10
648.7607587371021
 20
13.78258628282232
 30
0.0
 11
648.7607587371021
 21
25.78258628282255
 31
0.0
  0
TEXT
  5
12E
330
1A
100
AcDbEntity
  8
ZUWAKU
 62
     7
 48
10.0
100
AcDbText
 10
646.2758615931216
 20
4.949376903717848
 30
0.0
 40
8.0
  1
積水化学工業株式会社  建材
100
AcDbText
  0
LINE
  5
12F
330
1A
100
AcDbEntity
  8
ZUWAKU
  6
CONTINUOUS
 62
     7
100
AcDbLine
 10
806.0504780856609
 20
563.7825862828226
 30
0.0
 11
806.0504780856609
 21
13.78258628282265
 31
0.0
  0
DIMENSION
  5
2EF
330
1A
100
AcDbEntity
  8
SUNPOU
  6
CONTINUOUS
100
AcDbDimension
  2
*D1
 10
440.3320075185924
 20
170.7290676421623
 30
0.0
 11
435.3320075185925
 21
182.2291176421623
 31
0.0
 12
13.65181685167317
 22
-42.05826630015963
 32
0.0
 70
    32
  3
STANDARD
100
AcDbAlignedDimension
 13
569.9189165114437
 23
193.7291676421623
 33
0.0
 14
575.0189165114436
 24
170.7290676421623
 34
0.0
 50
90.0
100
AcDbRotatedDimension
1001
ACAD
1000
DSTYLE
1002
{
1070
   140
1040
6.0
1070
    74
1070
     0
1070
   172
1070
     1
1070
    73
1070
     0
1070
   272
1070
     2
1070
    77
1070
     3
1070
    75
1070
     1
1070
   173
1070
     1
1070
   147
1040
2.0
1070
    42
1040
6.0
1070
    44
1040
3.0
1070
    43
1040
14.0
1070
   271
1070
     0
1070
   178
1070
     4
1070
   177
1070
     4
1070
   176
1070
     4
1070
   141
1040
150.0
1070
     7
1000
_OPEN
1070
     6
1000
_OPEN
1070
    41
1040
7.0
1002
}
  0
DIMENSION
  5
2F0
330
1A
100
AcDbEntity
  8
SUNPOU
  6
CONTINUOUS
100
AcDbDimension
  2
*D2
 10
440.3320075185924
 20
193.7291676421623
 30
0.0
 11
435.3320075185925
 21
300.0569676421623
 31
0.0
 12
13.65181685167317
 22
-42.05826630015963
 32
0.0
 70
    32
  3
STANDARD
100
AcDbAlignedDimension
 13
469.9192165114437
 23
406.3847676421623
 33
0.0
 14
569.9189165114437
 24
193.7291676421623
 34
0.0
 50
90.0
100
AcDbRotatedDimension
1001
ACAD
1000
DSTYLE
1002
{
1070
   140
1040
6.0
1070
    74
1070
     0
1070
   172
1070
     1
1070
    73
1070
     0
1070
   272
1070
     2
1070
    77
1070
     3
1070
   173
1070
     1
1070
   147
1040
2.0
1070
    42
1040
6.0
1070
    44
1040
3.0
1070
    43
1040
14.0
1070
   271
1070
     0
1070
   178
1070
     4
1070
   177
1070
     4
1070
   176
1070
     4
1070
   141
1040
150.0
1070
     7
1000
_OPEN
1070
     6
1000
_OPEN
1070
    41
1040
7.0
1002
}
  0
DIMENSION
  5
2F1
330
1A
100
AcDbEntity
  8
SUNPOU
  6
CONTINUOUS
100
AcDbDimension
  2
*D3
 10
418.5280340514696
 20
157.7290676421623
 30
0.0
 11
413.5280340514696
 21
282.0569176421623
 31
0.0
 12
13.65181685167317
 22
-42.05826630015963
 32
0.0
 70
    32
  3
STANDARD
100
AcDbAlignedDimension
 13
469.9192165114437
 23
406.3847676421623
 33
0.0
 14
579.9189165114437
 24
157.7290676421623
 34
0.0
 50
90.0
100
AcDbRotatedDimension
1001
ACAD
1000
DSTYLE
1002
{
1070
   140
1040
6.0
1070
    74
1070
     0
1070
   172
1070
     1
1070
    73
1070
     0
1070
   272
1070
     2
1070
    77
1070
     3
1070
   173
1070
     1
1070
   147
1040
2.0
1070
    42
1040
6.0
1070
    44
1040
3.0
1070
    43
1040
14.0
1070
   271
1070
     0
1070
   178
1070
     4
1070
   177
1070
     4
1070
   176
1070
     4
1070
   141
1040
150.0
1070
     7
1000
_OPEN
1070
     6
1000
_OPEN
1070
    41
1040
7.0
1002
}
  0
LINE
  5
2F2
330
1A
100
AcDbEntity
  8
CENTER_L
  6
CENTER
 62
     1
 48
5.0
100
AcDbLine
 10
246.7951659617275
 20
419.5088704390316
 30
0.0
 11
246.7946737560608
 21
146.6001773740334
 31
0.0
  0
LINE
  5
2F3
330
1A
100
AcDbEntity
  8
SEIHIN
  6
CONTINUOUS
 62
     3
 48
16.0
100
AcDbLine
 10
324.7950659617274
 20
325.3848676421623
 30
0.0
 11
321.2950659617275
 21
275.3848676421623
 31
0.0
  0
ARC
  5
2F4
330
1A
100
AcDbEntity
  8
SEIHIN
  6
CONTINUOUS
 62
     3
 48
16.0
100
AcDbCircle
 10
220.2947726116357
 20
280.3849765644056
 30
0.0
 40
18.00000665013864
100
AcDbArc
 50
106.604697155793
 51
179.9997100906032
  0
LINE
  5
2F5
330
1A
100
AcDbEntity
  8
SEIHIN
  6
CONTINUOUS
 62
     3
 48
16.0
100
AcDbLine
 10
168.7948659617274
 20
325.3851676421622
 30
0.0
 11
172.2947659617275
 21
275.3851676421622
 31
0.0
  0
ARC
  5
2F6
330
1A
100
AcDbEntity
  8
SEIHIN
  6
CONTINUOUS
 62
     3
 48
16.0
100
AcDbCircle
 10
220.2947843966354
 20
280.3849849873066
 30
0.0
 40
12.00001843519249
100
AcDbArc
 50
86.51149021489116
 51
179.9996053527404
  0
ARC
  5
2F7
330
1A
100
AcDbEntity
  8
SEIHIN
  6
CONTINUOUS
 62
     3
 48
16.0
100
AcDbCircle
 10
273.2951475267558
 20
280.3848849875115
 30
0.0
 40
12.00001843498422
100
AcDbArc
 50
359.9999171821853
 51
93.48850978486415
  0
ARC
  5
2F8
330
1A
100
AcDbEntity
  8
SEIHIN
  6
CONTINUOUS
 62
     3
 48
16.0
100
AcDbCircle
 10
273.29515931173
 20
280.384876564577
 30
0.0
 40
18.0000066499998
100
AcDbArc
 50
359.9999715990824
 51
73.39530284377897
  0
LINE
  5
2F9
330
1A
100
AcDbEntity
  8
SEIHIN
  6
CONTINUOUS
 62
     3
 48
16.0
100
AcDbLine
 10
249.7949659617274
 20
310.6876676421622
 30
0.0
 11
249.7948659617275
 21
211.2162676421623
 31
0.0
  0
LINE
  5
2FA
330
1A
100
AcDbEntity
  8
SEIHIN
  6
CONTINUOUS
 62
     3
 48
16.0
100
AcDbLine
 10
252.7949659617275
 20
308.9216676421622
 30
0.0
 11
252.7948659617275
 21
211.2421676421623
 31
0.0
  0
LINE
  5
2FB
330
1A
100
AcDbEntity
  8
SEIHIN
  6
CONTINUOUS
 62
     3
 48
16.0
100
AcDbLine
 10
255.7949659617274
 20
307.3943676421623
 30
0.0
 11
255.7948659617275
 21
211.3072676421623
 31
0.0
  0
LINE
  5
2FC
330
1A
100
AcDbEntity
  8
SEIHIN
  6
CONTINUOUS
 62
     3
 48
16.0
100
AcDbLine
 10
258.7949659617275
 20
306.0847676421623
 30
0.0
 11
258.7948659617274
 21
211.4115676421623
 31
0.0
  0
LINE
  5
2FD
330
1A
100
AcDbEntity
  8
SEIHIN
  6
CONTINUOUS
 62
     3
 48
16.0
100
AcDbLine
 10
261.7949659617274
 20
304.8823676421623
 30
0.0
 11
261.7948659617275
 21
211.5550676421623
 31
0.0
  0
LINE
  5
2FE
330
1A
100
AcDbEntity
  8
SEIHIN
  6
CONTINUOUS
 62
     3
 48
16.0
100
AcDbLine
 10
264.7949659617274
 20
303.6800676421623
 30
0.0
 11
264.7948659617274
 21
211.7378676421623
 31
0.0
  0
LINE
  5
2FF
330
1A
100
AcDbEntity
  8
SEIHIN
  6
CONTINUOUS
 62
     3
 48
16.0
100
AcDbLine
 10
267.7949659617274
 20
302.4472676421623
 30
0.0
 11
267.7948659617275
 21
211.9600676421622
 31
0.0
  0
LINE
  5
300
330
1A
100
AcDbEntity
  8
SEIHIN
  6
CONTINUOUS
 62
     3
 48
16.0
100
AcDbLine
 10
270.7949659617274
 20
300.0419676421623
 30
0.0
 11
270.7948659617275
 21
212.2217676421622
 31
0.0
  0
LINE
  5
301
330
1A
100
AcDbEntity
  8
SEIHIN
  6
CONTINUOUS
 62
     3
 48
16.0
100
AcDbLine
 10
273.7949659617274
 20
292.3744676421622
 30
0.0
 11
273.7948659617275
 21
212.5230676421623
 31
0.0
  0
LINE
  5
302
330
1A
100
AcDbEntity
  8
SEIHIN
  6
CONTINUOUS
 62
     3
 48
16.0
100
AcDbLine
 10
276.7949659617274
 20
291.8631676421623
 30
0.0
 11
276.7948659617275
 21
212.8642676421622
 31
0.0
  0
LINE
  5
303
330
1A
100
AcDbEntity
  8
SEIHIN
  6
CONTINUOUS
 62
     3
 48
16.0
100
AcDbLine
 10
279.7949659617275
 20
290.4721676421622
 30
0.0
 11
279.7948659617275
 21
213.2454676421623
 31
0.0
  0
LINE
  5
304
330
1A
100
AcDbEntity
  8
SEIHIN
  6
CONTINUOUS
 62
     3
 48
16.0
100
AcDbLine
 10
282.7949659617274
 20
287.7165676421623
 30
0.0
 11
282.7948659617275
 21
213.6667676421624
 31
0.0
  0
LINE
  5
305
330
1A
100
AcDbEntity
  8
SEIHIN
  6
CONTINUOUS
 62
     3
 48
16.0
100
AcDbLine
 10
246.7949659617274
 20
312.7202676421623
 30
0.0
 11
246.7948659617274
 21
211.2294676421623
 31
0.0
  0
LINE
  5
306
330
1A
100
AcDbEntity
  8
SEIHIN
  6
CONTINUOUS
 62
     3
 48
16.0
100
AcDbLine
 10
243.7949659617275
 20
310.6876676421622
 30
0.0
 11
243.7948659617275
 21
211.2163676421622
 31
0.0
  0
LINE
  5
307
330
1A
100
AcDbEntity
  8
SEIHIN
  6
CONTINUOUS
 62
     3
 48
16.0
100
AcDbLine
 10
240.7949659617274
 20
308.9216676421622
 30
0.0
 11
240.7948659617275
 21
211.2422676421623
 31
0.0
  0
LINE
  5
308
330
1A
100
AcDbEntity
  8
SEIHIN
  6
CONTINUOUS
 62
     3
 48
16.0
100
AcDbLine
 10
237.7949659617275
 20
307.3944676421622
 30
0.0
 11
237.7948659617274
 21
211.3073676421623
 31
0.0
  0
LINE
  5
309
330
1A
100
AcDbEntity
  8
SEIHIN
  6
CONTINUOUS
 62
     3
 48
16.0
100
AcDbLine
 10
234.7949659617274
 20
306.0847676421623
 30
0.0
 11
234.7948659617275
 21
211.4116676421623
 31
0.0
  0
LINE
  5
30A
330
1A
100
AcDbEntity
  8
SEIHIN
  6
CONTINUOUS
 62
     3
 48
16.0
100
AcDbLine
 10
231.7949659617275
 20
304.8823676421623
 30
0.0
 11
231.7948659617274
 21
211.5551676421623
 31
0.0
  0
LINE
  5
30B
330
1A
100
AcDbEntity
  8
SEIHIN
  6
CONTINUOUS
 62
     3
 48
16.0
100
AcDbLine
 10
228.7949659617275
 20
303.6800676421623
 30
0.0
 11
228.7948659617275
 21
211.7379676421623
 31
0.0
  0
LINE
  5
30C
330
1A
100
AcDbEntity
  8
SEIHIN
  6
CONTINUOUS
 62
     3
 48
16.0
100
AcDbLine
 10
225.7949659617275
 20
302.4472676421623
 30
0.0
 11
225.7948659617274
 21
211.9601676421623
 31
0.0
  0
LINE
  5
30D
330
1A
100
AcDbEntity
  8
SEIHIN
  6
CONTINUOUS
 62
     3
 48
16.0
100
AcDbLine
 10
222.7949659617274
 20
300.0419676421623
 30
0.0
 11
222.7948659617275
 21
212.2218676421622
 31
0.0
  0
LINE
  5
30E
330
1A
100
AcDbEntity
  8
SEIHIN
  6
CONTINUOUS
 62
     3
 48
16.0
100
AcDbLine
 10
219.7949659617274
 20
292.3745676421622
 30
0.0
 11
219.7948659617274
 21
212.5232676421623
 31
0.0
  0
LINE
  5
30F
330
1A
100
AcDbEntity
  8
SEIHIN
  6
CONTINUOUS
 62
     3
 48
16.0
100
AcDbLine
 10
216.7949659617275
 20
291.8632676421623
 30
0.0
 11
216.7948659617275
 21
212.8644676421623
 31
0.0
  0
LINE
  5
310
330
1A
100
AcDbEntity
  8
SEIHIN
  6
CONTINUOUS
 62
     3
 48
16.0
100
AcDbLine
 10
213.7949659617274
 20
290.4722676421623
 30
0.0
 11
213.7948659617274
 21
213.2455676421622
 31
0.0
  0
LINE
  5
311
330
1A
100
AcDbEntity
  8
SEIHIN
  6
CONTINUOUS
 62
     3
 48
16.0
100
AcDbLine
 10
210.7949659617275
 20
287.7166676421623
 30
0.0
 11
210.7948659617274
 21
213.6669676421623
 31
0.0
  0
ARC
  5
312
330
1A
100
AcDbEntity
  8
SEIHIN
  6
CONTINUOUS
 62
     3
 48
16.0
100
AcDbCircle
 10
471.6828759584616
 20
294.537099097017
 30
0.0
 40
300.0000063690833
100
AcDbArc
 50
183.6603724625905
 51
192.9348184277824
  0
LINE
  5
313
330
1A
100
AcDbEntity
  8
SEIHIN
  6
CONTINUOUS
 62
     3
 48
16.0
100
AcDbLine
 10
309.2537659617274
 20
216.1652676421623
 30
0.0
 11
291.8587659617275
 21
207.8156676421623
 31
0.0
  0
DIMENSION
  5
314
330
1A
100
AcDbEntity
  8
SUNPOU
  6
CONTINUOUS
100
AcDbDimension
  2
*D4
 10
207.7948659617274
 20
124.6635681210555
 30
0.0
 11
246.7947659617275
 21
129.6635681210555
 31
0.0
 12
13.65181685167317
 22
-42.05826630015963
 32
0.0
 70
    32
  3
STANDARD
100
AcDbAlignedDimension
 13
285.7946659617275
 23
195.3848676421623
 33
0.0
 14
207.7948659617274
 24
195.3850676421623
 34
0.0
100
AcDbRotatedDimension
1001
ACAD
1000
DSTYLE
1002
{
1070
   140
1040
6.0
1070
    74
1070
     0
1070
   172
1070
     1
1070
    73
1070
     0
1070
   272
1070
     2
1070
    77
1070
     3
1070
   173
1070
     1
1070
   147
1040
2.0
1070
    42
1040
6.0
1070
    44
1040
3.0
1070
    43
1040
14.0
1070
   271
1070
     0
1070
   178
1070
     4
1070
   177
1070
     4
1070
   176
1070
     4
1070
   141
1040
150.0
1070
     7
1000
_OPEN
1070
     6
1000
_OPEN
1070
    41
1040
7.0
1002
}
  0
LINE
  5
315
330
1A
100
AcDbEntity
  8
SEIHIN
  6
CONTINUOUS
 62
     3
 48
16.0
100
AcDbLine
 10
209.8442659617275
 20
195.3850676421623
 30
0.0
 11
209.8442659617275
 21
175.3849676421623
 31
0.0
  0
LINE
  5
316
330
1A
100
AcDbEntity
  8
SEIHIN
  6
CONTINUOUS
 62
     3
 48
16.0
100
AcDbLine
 10
283.7453659617274
 20
195.3848676421623
 30
0.0
 11
283.7452659617274
 21
175.3848676421623
 31
0.0
  0
LINE
  5
317
330
1A
100
AcDbEntity
  8
SEIHIN
  6
CONTINUOUS
 62
     3
 48
16.0
100
AcDbLine
 10
209.8442659617275
 20
175.3849676421623
 30
0.0
 11
246.7942659617275
 21
175.3848676421623
 31
0.0
  0
LINE
  5
318
330
1A
100
AcDbEntity
  8
SEIHIN
  6
CONTINUOUS
 62
     3
 48
16.0
100
AcDbLine
 10
212.8942659617275
 20
172.3849676421623
 30
0.0
 11
246.7942659617275
 21
172.3848676421623
 31
0.0
  0
LINE
  5
319
330
1A
100
AcDbEntity
  8
SEIHIN
  6
CONTINUOUS
 62
     3
 48
16.0
100
AcDbLine
 10
217.7941659617275
 20
159.3850676421623
 30
0.0
 11
246.7941659617275
 21
159.3849676421623
 31
0.0
  0
LINE
  5
31A
330
1A
100
AcDbEntity
  8
SEIHIN
  6
CONTINUOUS
 62
     3
 48
16.0
100
AcDbLine
 10
217.7941659617275
 20
159.3850676421623
 30
0.0
 11
217.7942659617274
 21
172.3850676421623
 31
0.0
  0
LINE
  5
31B
330
1A
100
AcDbEntity
  8
SEIHIN
  6
CONTINUOUS
 62
     3
 48
16.0
100
AcDbLine
 10
209.8442659617275
 20
175.3849676421623
 30
0.0
 11
212.8942659617275
 21
172.3849676421623
 31
0.0
  0
LINE
  5
31C
330
1A
100
AcDbEntity
  8
SEIHIN
  6
CONTINUOUS
 62
     3
 48
16.0
100
AcDbLine
 10
280.6952659617275
 20
172.3848676421623
 30
0.0
 11
246.7952659617274
 21
172.3848676421623
 31
0.0
  0
LINE
  5
31D
330
1A
100
AcDbEntity
  8
SEIHIN
  6
CONTINUOUS
 62
     3
 48
16.0
100
AcDbLine
 10
283.7452659617274
 20
175.3848676421623
 30
0.0
 11
246.7952659617274
 21
175.3848676421623
 31
0.0
  0
LINE
  5
31E
330
1A
100
AcDbEntity
  8
SEIHIN
  6
CONTINUOUS
 62
     3
 48
16.0
100
AcDbLine
 10
275.7952659617274
 20
159.3849676421623
 30
0.0
 11
246.7952659617274
 21
159.3849676421623
 31
0.0
  0
LINE
  5
31F
330
1A
100
AcDbEntity
  8
SEIHIN
  6
CONTINUOUS
 62
     3
 48
16.0
100
AcDbLine
 10
275.7952659617274
 20
159.3849676421623
 30
0.0
 11
275.7952659617274
 21
172.3849676421623
 31
0.0
  0
LINE
  5
320
330
1A
100
AcDbEntity
  8
SEIHIN
  6
CONTINUOUS
 62
     3
 48
16.0
100
AcDbLine
 10
283.7452659617274
 20
175.3848676421623
 30
0.0
 11
280.6952659617275
 21
172.3848676421623
 31
0.0
  0
LINE
  5
321
330
1A
100
AcDbEntity
  8
SEIHIN
  6
CONTINUOUS
 62
     3
 48
16.0
100
AcDbLine
 10
206.7952659617274
 20
205.3849676421623
 30
0.0
 11
286.7953659617274
 21
205.3848676421623
 31
0.0
  0
LINE
  5
322
330
1A
100
AcDbEntity
  8
SEIHIN
  6
CONTINUOUS
 62
     3
 48
16.0
100
AcDbLine
 10
246.7942659617275
 20
195.3848676421623
 30
0.0
 11
207.7948659617274
 21
195.3850676421623
 31
0.0
  0
ARC
  5
323
330
1A
100
AcDbEntity
  8
SEIHIN
  6
CONTINUOUS
 62
     3
 48
16.0
100
AcDbCircle
 10
244.2838248253356
 20
441.2157634325285
 30
0.0
 40
229.9999067139549
100
AcDbArc
 50
261.1932616526533
 51
270.6256181116218
  0
LINE
  5
324
330
1A
100
AcDbEntity
  8
SEIHIN
  6
CONTINUOUS
 62
     3
 48
16.0
100
AcDbLine
 10
202.2947659617275
 20
221.8331676421622
 30
0.0
 11
202.2947659617275
 21
280.3850676421623
 31
0.0
  0
LINE
  5
325
330
1A
100
AcDbEntity
  8
SEIHIN
  6
CONTINUOUS
 62
     3
 48
16.0
100
AcDbLine
 10
208.2947659617275
 20
214.0871676421622
 30
0.0
 11
208.2947659617275
 21
280.3850676421623
 31
0.0
  0
LINE
  5
326
330
1A
100
AcDbEntity
  8
SEIHIN
  6
CONTINUOUS
 62
     3
 48
16.0
100
AcDbLine
 10
207.3539659617275
 20
199.7956676421623
 30
0.0
 11
207.7948659617274
 21
195.3850676421623
 31
0.0
  0
ARC
  5
327
330
1A
100
AcDbEntity
  8
SEIHIN
  6
CONTINUOUS
 62
     3
 48
16.0
100
AcDbCircle
 10
210.2947807273252
 20
221.8331504126192
 30
0.0
 40
8.000014765616235
100
AcDbArc
 50
179.9998766027151
 51
261.1925655555548
  0
ARC
  5
328
330
1A
100
AcDbEntity
  8
SEIHIN
  6
CONTINUOUS
 62
     3
 48
16.0
100
AcDbCircle
 10
197.4035990411999
 20
198.8006204605684
 30
0.0
 40
9.999996037335648
100
AcDbArc
 50
5.710652939898748
 51
64.35926136181345
  0
LINE
  5
329
330
1A
100
AcDbEntity
  8
SEIHIN
  6
CONTINUOUS
 62
     3
 48
16.0
100
AcDbLine
 10
184.3359659617274
 20
216.1654676421624
 30
0.0
 11
201.7308659617274
 21
207.8158676421623
 31
0.0
  0
LINE
  5
32A
330
1A
100
AcDbEntity
  8
SEIHIN
  6
CONTINUOUS
 62
     3
 48
16.0
100
AcDbLine
 10
179.2950659617275
 20
227.3851676421624
 30
0.0
 11
181.1114659617275
 21
220.1194676421623
 31
0.0
  0
ARC
  5
32B
330
1A
100
AcDbEntity
  8
SEIHIN
  6
CONTINUOUS
 62
     3
 48
16.0
100
AcDbCircle
 10
186.9323537816607
 20
221.5745599554129
 30
0.0
 40
6.000002387693512
100
AcDbArc
 50
194.0350424442554
 51
244.3579308931894
  0
LINE
  5
32C
330
1A
100
AcDbEntity
  8
SEIHIN
  6
CONTINUOUS
 62
     3
 48
16.0
100
AcDbLine
 10
285.2949659617276
 20
214.0870676421624
 30
0.0
 11
285.2951659617275
 21
280.3848676421623
 31
0.0
  0
LINE
  5
32D
330
1A
100
AcDbEntity
  8
SEIHIN
  6
CONTINUOUS
 62
     3
 48
16.0
100
AcDbLine
 10
291.2949659617276
 20
221.8329676421623
 30
0.0
 11
291.2951659617275
 21
280.3848676421623
 31
0.0
  0
LINE
  5
32E
330
1A
100
AcDbEntity
  8
SEIHIN
  6
CONTINUOUS
 62
     3
 48
16.0
100
AcDbLine
 10
246.7952659617274
 20
195.3848676421623
 30
0.0
 11
285.7946659617275
 21
195.3848676421623
 31
0.0
  0
ARC
  5
32F
330
1A
100
AcDbEntity
  8
SEIHIN
  6
CONTINUOUS
 62
     3
 48
16.0
100
AcDbCircle
 10
249.3065024610844
 20
441.2157631010822
 30
0.0
 40
230.0000128780309
100
AcDbArc
 50
269.3742338562192
 51
278.8065841685155
  0
ARC
  5
330
330
1A
100
AcDbEntity
  8
SEIHIN
  6
CONTINUOUS
 62
     3
 48
16.0
100
AcDbCircle
 10
283.2949588516301
 20
221.8330593458068
 30
0.0
 40
8.000007110623005
100
AcDbArc
 50
278.8066627148146
 51
359.9993432216091
  0
ARC
  5
331
330
1A
100
AcDbEntity
  8
SEIHIN
  6
CONTINUOUS
 62
     3
 48
16.0
100
AcDbCircle
 10
296.1860853682825
 20
198.8004953216103
 30
0.0
 40
9.999951260661017
100
AcDbArc
 50
115.6411953556925
 51
174.2891766498084
  0
LINE
  5
332
330
1A
100
AcDbEntity
  8
SEIHIN
  6
CONTINUOUS
 62
     3
 48
16.0
100
AcDbLine
 10
286.2357659617274
 20
199.7954676421622
 30
0.0
 11
285.7946659617275
 21
195.3848676421623
 31
0.0
  0
ARC
  5
333
330
1A
100
AcDbEntity
  8
SEIHIN
  6
CONTINUOUS
 62
     3
 48
16.0
100
AcDbCircle
 10
21.90719524136227
 20
294.5381369668504
 30
0.0
 40
299.9999527922716
100
AcDbArc
 50
347.0649366511016
 51
356.3393708461096
  0
LINE
  5
334
330
1A
100
AcDbEntity
  8
SEIHIN
  6
CONTINUOUS
 62
     3
 48
16.0
100
AcDbLine
 10
314.2946659617274
 20
227.3849676421623
 30
0.0
 11
312.4782659617275
 21
220.1192676421624
 31
0.0
  0
ARC
  5
335
330
1A
100
AcDbEntity
  8
SEIHIN
  6
CONTINUOUS
 62
     3
 48
16.0
100
AcDbCircle
 10
306.6573502457655
 20
221.5744483708217
 30
0.0
 40
6.000050893567139
100
AcDbArc
 50
295.6410830129158
 51
345.9642030647551
  0
DIMENSION
  5
336
330
1A
100
AcDbEntity
  8
SUNPOU
  6
CONTINUOUS
100
AcDbDimension
  2
*D5
 10
127.7950959617275
 20
449.800608788287
 30
0.0
 11
246.7951309617275
 21
454.800608788287
 31
0.0
 12
13.65181685167317
 22
-42.05826630015963
 32
0.0
 70
    32
  3
STANDARD
100
AcDbAlignedDimension
 13
365.7951659617275
 23
385.384870257803
 33
0.0
 14
127.7950959617275
 24
385.3852688195037
 34
0.0
100
AcDbRotatedDimension
1001
ACAD
1000
DSTYLE
1002
{
1070
   140
1040
6.0
1070
    74
1070
     0
1070
   172
1070
     1
1070
    73
1070
     0
1070
   272
1070
     2
1070
    77
1070
     3
1070
   173
1070
     1
1070
   147
1040
2.0
1070
    42
1040
6.0
1070
    44
1040
3.0
1070
    43
1040
14.0
1070
   271
1070
     0
1070
   178
1070
     4
1070
   177
1070
     4
1070
   176
1070
     4
1070
   141
1040
150.0
1070
     7
1000
_OPEN
1070
     6
1000
_OPEN
1070
    41
1040
7.0
1002
}
  0
LINE
  5
337
330
1A
100
AcDbEntity
  8
SEIHIN
  6
CONTINUOUS
 62
     3
 48
16.0
100
AcDbLine
 10
146.8883659617274
 20
353.3852676421624
 30
0.0
 11
246.7948659617274
 21
353.3848676421623
 31
0.0
  0
ARC
  5
338
330
1A
100
AcDbEntity
  8
SEIHIN
  6
CONTINUOUS
 62
     3
 48
16.0
100
AcDbCircle
 10
129.1031867988903
 20
485.3767456525848
 30
0.0
 40
100.000032704489
100
AcDbArc
 50
269.250549598229
 51
301.7976286163296
  0
ARC
  5
339
330
1A
100
AcDbEntity
  8
SEIHIN
  6
CONTINUOUS
 62
     3
 48
16.0
100
AcDbCircle
 10
129.1032495196273
 20
485.3767631530327
 30
0.0
 40
109.9999955110236
100
AcDbArc
 50
269.9999043900601
 51
300.5422642986032
  0
ARC
  5
33A
330
1A
100
AcDbEntity
  8
SEIHIN
  6
CONTINUOUS
 62
     3
 48
16.0
100
AcDbCircle
 10
129.1032649546875
 20
485.3767673671146
 30
0.0
 40
104.0000266010061
100
AcDbArc
 50
269.279322032394
 51
301.2733104285133
  0
LINE
  5
33B
330
1A
100
AcDbEntity
  8
SEIHIN
  6
CONTINUOUS
 62
     3
 48
16.0
100
AcDbLine
 10
157.6227659617274
 20
337.3851676421622
 30
0.0
 11
246.7947659617275
 21
337.3848676421622
 31
0.0
  0
LINE
  5
33C
330
1A
100
AcDbEntity
  8
SEIHIN
  6
CONTINUOUS
 62
     3
 48
16.0
100
AcDbLine
 10
165.5916659617275
 20
327.3851676421622
 30
0.0
 11
246.7947659617275
 21
327.3848676421623
 31
0.0
  0
LINE
  5
33D
330
1A
100
AcDbEntity
  8
SEIHIN
  6
CONTINUOUS
 62
     3
 48
16.0
100
AcDbLine
 10
166.7333659617274
 20
325.3851676421622
 30
0.0
 11
246.7946659617275
 21
325.3848676421623
 31
0.0
  0
LINE
  5
33E
330
1A
100
AcDbEntity
  8
SEIHIN
  6
CONTINUOUS
 62
     3
 48
16.0
100
AcDbLine
 10
129.2950659617274
 20
381.3852676421623
 30
0.0
 11
129.2950659617274
 21
375.3852676421623
 31
0.0
  0
ARC
  5
33F
330
1A
100
AcDbEntity
  8
SEIHIN
  6
CONTINUOUS
 62
     3
 48
16.0
100
AcDbCircle
 10
165.5916619904874
 20
333.3851715168741
 30
0.0
 40
6.000027984101932
100
AcDbArc
 50
187.1249393235749
 51
264.2848873851203
  0
ARC
  5
340
330
1A
100
AcDbEntity
  8
SEIHIN
  6
CONTINUOUS
 62
     3
 48
16.0
100
AcDbCircle
 10
164.7948436307268
 20
325.4248923199846
 30
0.0
 40
2.000022331152869
100
AcDbArc
 50
359.9992930403618
 51
84.28328393780889
  0
ARC
  5
341
330
1A
100
AcDbEntity
  8
SEIHIN
  6
CONTINUOUS
 62
     3
 48
16.0
100
AcDbCircle
 10
146.888438865398
 20
368.3852912944723
 30
0.0
 40
15.00002365248712
100
AcDbArc
 50
187.7652523161254
 51
269.9997215289299
  0
LINE
  5
342
330
1A
100
AcDbEntity
  8
SEIHIN
  6
CONTINUOUS
 62
     3
 48
16.0
100
AcDbLine
 10
130.7950659617274
 20
375.3852676421623
 30
0.0
 11
132.0259659617275
 21
366.3585676421623
 31
0.0
  0
LINE
  5
343
330
1A
100
AcDbEntity
  8
SEIHIN
  6
CONTINUOUS
 62
     3
 48
16.0
100
AcDbLine
 10
146.7949659617276
 20
353.3852676421624
 30
0.0
 11
147.7000659617275
 21
346.1447676421623
 31
0.0
  0
ARC
  5
344
330
1A
100
AcDbEntity
  8
SEIHIN
  6
CONTINUOUS
 62
     3
 48
16.0
100
AcDbCircle
 10
157.6228065313056
 20
347.3851318282839
 30
0.0
 40
9.999964186204032
100
AcDbArc
 50
187.125139237394
 51
269.999767552607
  0
LINE
  5
345
330
1A
100
AcDbEntity
  8
SEIHIN
  6
CONTINUOUS
 62
     3
 48
16.0
100
AcDbLine
 10
158.7949659617274
 20
337.3852676421623
 30
0.0
 11
159.6379659617275
 21
332.6409676421623
 31
0.0
  0
LINE
  5
346
330
1A
100
AcDbEntity
  8
SEIHIN
  6
CONTINUOUS
 62
     3
 48
16.0
100
AcDbLine
 10
127.7950959617275
 20
385.3852676421622
 30
0.0
 11
127.7950959617275
 21
381.3852676421623
 31
0.0
  0
LINE
  5
347
330
1A
100
AcDbEntity
  8
SEIHIN
  6
CONTINUOUS
 62
     3
 48
16.0
100
AcDbLine
 10
326.8566659617274
 20
325.3848676421623
 30
0.0
 11
246.7952659617274
 21
325.3848676421623
 31
0.0
  0
LINE
  5
348
330
1A
100
AcDbEntity
  8
SEIHIN
  6
CONTINUOUS
 62
     3
 48
16.0
100
AcDbLine
 10
346.7017659617275
 20
353.3848676421623
 30
0.0
 11
246.7952659617274
 21
353.3848676421623
 31
0.0
  0
LINE
  5
349
330
1A
100
AcDbEntity
  8
SEIHIN
  6
CONTINUOUS
 62
     3
 48
16.0
100
AcDbLine
 10
335.9672659617275
 20
337.3848676421622
 30
0.0
 11
246.7952659617274
 21
337.3848676421622
 31
0.0
  0
LINE
  5
34A
330
1A
100
AcDbEntity
  8
SEIHIN
  6
CONTINUOUS
 62
     3
 48
16.0
100
AcDbLine
 10
327.9984659617274
 20
327.3848676421623
 30
0.0
 11
246.7952659617274
 21
327.3848676421623
 31
0.0
  0
LINE
  5
34B
330
1A
100
AcDbEntity
  8
SEIHIN
  6
CONTINUOUS
 62
     3
 48
16.0
100
AcDbLine
 10
246.4274659617275
 20
402.4018676421621
 30
0.0
 11
310.4984659617274
 21
396.4875676421622
 31
0.0
  0
LINE
  5
34C
330
1A
100
AcDbEntity
  8
SEIHIN
  6
CONTINUOUS
 62
     3
 48
16.0
100
AcDbLine
 10
246.7951659617275
 20
406.3848676421621
 30
0.0
 11
311.7951659617275
 21
400.3848676421624
 31
0.0
  0
LINE
  5
34D
330
1A
100
AcDbEntity
  8
SEIHIN
  6
CONTINUOUS
 62
     3
 48
16.0
100
AcDbLine
 10
308.5879659617276
 20
390.6384676421623
 30
0.0
 11
276.8018659617275
 21
393.5725676421623
 31
0.0
  0
ARC
  5
34E
330
1A
100
AcDbEntity
  8
SEIHIN
  6
CONTINUOUS
 62
     3
 48
16.0
100
AcDbCircle
 10
254.7952693347387
 20
381.3411728431267
 30
0.0
 40
6.000055730575613
100
AcDbArc
 50
293.6529494730635
 51
0.4172544077508901
  0
ARC
  5
34F
330
1A
100
AcDbEntity
  8
SEIHIN
  6
CONTINUOUS
 62
     3
 48
16.0
100
AcDbCircle
 10
238.7949120334131
 20
381.3410966026003
 30
0.0
 40
6.000005732316187
100
AcDbArc
 50
179.5820140531493
 51
246.3463259428865
  0
ARC
  5
350
330
1A
100
AcDbEntity
  8
SEIHIN
  6
CONTINUOUS
 62
     3
 48
16.0
100
AcDbCircle
 10
213.9000945713952
 20
358.0405730048527
 30
0.0
 40
56.00000140077863
100
AcDbArc
 50
291.8396446869616
 51
305.9734419133547
  0
ARC
  5
351
330
1A
100
AcDbEntity
  8
SEIHIN
  6
CONTINUOUS
 62
     3
 48
16.0
100
AcDbCircle
 10
213.9003745748404
 20
358.0407403068255
 30
0.0
 40
49.99998199686193
100
AcDbArc
 50
296.4275607351384
 51
311.1390028013863
  0
LINE
  5
352
330
1A
100
AcDbEntity
  8
SEIHIN
  6
CONTINUOUS
 62
     3
 48
16.0
100
AcDbLine
 10
236.1296659617274
 20
375.9557676421623
 30
0.0
 11
246.7948659617274
 21
371.3848676421623
 31
0.0
  0
ARC
  5
353
330
1A
100
AcDbEntity
  8
SEIHIN
  6
CONTINUOUS
 62
     3
 48
16.0
100
AcDbCircle
 10
229.7948452715143
 20
294.3849432759344
 30
0.0
 40
14.99996770615107
100
AcDbArc
 50
111.8393912483001
 51
167.4888995154621
  0
ARC
  5
354
330
1A
100
AcDbEntity
  8
SEIHIN
  6
CONTINUOUS
 62
     3
 48
16.0
100
AcDbCircle
 10
229.7948723218886
 20
294.3849798142736
 30
0.0
 40
9.00003331299556
100
AcDbArc
 50
111.8396599163877
 51
192.9846150127285
  0
LINE
  5
355
330
1A
100
AcDbEntity
  8
SEIHIN
  6
CONTINUOUS
 62
     3
 48
16.0
100
AcDbLine
 10
234.7325659617275
 20
306.0597676421622
 30
0.0
 11
226.4467659617274
 21
302.7389676421623
 31
0.0
  0
LINE
  5
356
330
1A
100
AcDbEntity
  8
SEIHIN
  6
CONTINUOUS
 62
     3
 48
16.0
100
AcDbLine
 10
235.9882659617274
 20
313.0268676421623
 30
0.0
 11
224.2146659617275
 21
308.3083676421622
 31
0.0
  0
ARC
  5
357
330
1A
100
AcDbEntity
  8
SEIHIN
  6
CONTINUOUS
 62
     3
 48
16.0
100
AcDbCircle
 10
263.7951222934251
 20
294.38491906885
 30
0.0
 40
15.00001411774551
100
AcDbArc
 50
12.51076459771829
 51
68.16041496097527
  0
ARC
  5
358
330
1A
100
AcDbEntity
  8
SEIHIN
  6
CONTINUOUS
 62
     3
 48
16.0
100
AcDbCircle
 10
263.7951249106673
 20
294.3849462061463
 30
0.0
 40
8.999984591720696
100
AcDbArc
 50
347.0148797106868
 51
68.15997784919073
  0
ARC
  5
359
330
1A
100
AcDbEntity
  8
SEIHIN
  6
CONTINUOUS
 62
     3
 48
16.0
100
AcDbCircle
 10
279.6898417676962
 20
358.0405810016063
 30
0.0
 40
56.00001046625612
100
AcDbArc
 50
234.0265592364963
 51
248.1603541631875
  0
LINE
  5
35A
330
1A
100
AcDbEntity
  8
SEIHIN
  6
CONTINUOUS
 62
     3
 48
16.0
100
AcDbLine
 10
258.8573659617275
 20
306.0597676421622
 30
0.0
 11
267.1431659617275
 21
302.7389676421623
 31
0.0
  0
ARC
  5
35B
330
1A
100
AcDbEntity
  8
SEIHIN
  6
CONTINUOUS
 62
     3
 48
16.0
100
AcDbCircle
 10
279.6900771894892
 20
358.0404263249665
 30
0.0
 40
50.00002174321995
100
AcDbArc
 50
228.86039816728
 51
243.5717966902298
  0
LINE
  5
35C
330
1A
100
AcDbEntity
  8
SEIHIN
  6
CONTINUOUS
 62
     3
 48
16.0
100
AcDbLine
 10
257.6017659617275
 20
313.0268676421623
 30
0.0
 11
269.3752659617274
 21
308.3083676421622
 31
0.0
  0
LINE
  5
35D
330
1A
100
AcDbEntity
  8
SEIHIN
  6
CONTINUOUS
 62
     3
 48
16.0
100
AcDbLine
 10
257.4605659617274
 20
375.9557676421623
 30
0.0
 11
246.7952659617274
 21
371.3848676421623
 31
0.0
  0
DIMENSION
  5
35E
330
1A
100
AcDbEntity
  8
SUNPOU
  6
CONTINUOUS
100
AcDbDimension
  2
*D6
 10
276.795125846969
 20
429.5891906613804
 30
0.0
 11
246.795125847001
 21
434.5891906613804
 31
0.0
 12
13.65181685167317
 22
-42.05826630015963
 32
0.0
 70
    32
  1
※a<>
  3
STANDARD
100
AcDbAlignedDimension
 13
216.795125847033
 23
403.6157297380645
 33
0.0
 14
276.795125846969
 24
403.6156405758323
 34
0.0
100
AcDbRotatedDimension
1001
ACAD
1000
DSTYLE
1002
{
1070
   140
1040
6.0
1070
    74
1070
     0
1070
   172
1070
     1
1070
    73
1070
     0
1070
   272
1070
     2
1070
    77
1070
     3
1070
   173
1070
     1
1070
   147
1040
2.0
1070
    42
1040
6.0
1070
    44
1040
3.0
1070
    43
1040
14.0
1070
   271
1070
     0
1070
   178
1070
     4
1070
   177
1070
     4
1070
   176
1070
     4
1070
   141
1040
150.0
1070
     7
1000
_OPEN
1070
     6
1000
_OPEN
1070
    41
1040
7.0
1002
}
  0
LINE
  5
35F
330
1A
100
AcDbEntity
  8
SEIHIN
  6
CONTINUOUS
 62
     3
 48
16.0
100
AcDbLine
 10
246.7951659617275
 20
406.3848676421621
 30
0.0
 11
181.7950659617274
 21
400.3850676421623
 31
0.0
  0
LINE
  5
360
330
1A
100
AcDbEntity
  8
SEIHIN
  6
CONTINUOUS
 62
     3
 48
16.0
100
AcDbLine
 10
247.1627659617275
 20
402.4018676421621
 30
0.0
 11
183.0917659617275
 21
396.4877676421622
 31
0.0
  0
LINE
  5
361
330
1A
100
AcDbEntity
  8
SEIHIN
  6
CONTINUOUS
 62
     3
 48
16.0
100
AcDbLine
 10
185.0022659617274
 20
390.6386676421623
 30
0.0
 11
216.7883659617274
 21
393.5726676421623
 31
0.0
  0
ARC
  5
362
330
1A
100
AcDbEntity
  8
SEIHIN
  6
CONTINUOUS
 62
     3
 48
16.0
100
AcDbCircle
 10
217.1996790823691
 20
383.5692585830636
 30
0.0
 40
9.999983343488816
100
AcDbArc
 50
16.35401167957987
 51
94.40013859033664
  0
ARC
  5
363
330
1A
100
AcDbEntity
  8
SEIHIN
  6
CONTINUOUS
 62
     3
 48
16.0
100
AcDbCircle
 10
233.514205306189
 20
388.3478348555158
 30
0.0
 40
7.000005272211655
100
AcDbArc
 50
196.2854926601411
 51
264.1033651553257
  0
ARC
  5
364
330
1A
100
AcDbEntity
  8
SEIHIN
  6
CONTINUOUS
 62
     3
 48
16.0
100
AcDbCircle
 10
276.3905528410858
 20
383.5691585830636
 30
0.0
 40
9.99998334348883
100
AcDbArc
 50
85.59986140966259
 51
163.6459883204194
  0
ARC
  5
365
330
1A
100
AcDbEntity
  8
SEIHIN
  6
CONTINUOUS
 62
     3
 48
16.0
100
AcDbCircle
 10
260.0759195434418
 20
388.3478289601765
 30
0.0
 40
7.000010409019457
100
AcDbArc
 50
275.8975115746559
 51
343.7145698941884
  0
LINE
  5
366
330
1A
100
AcDbEntity
  8
SEIHIN
  6
CONTINUOUS
 62
     3
 48
16.0
100
AcDbLine
 10
364.2951659617275
 20
381.3848676421621
 30
0.0
 11
364.2951659617275
 21
375.3848676421623
 31
0.0
  0
ARC
  5
367
330
1A
100
AcDbEntity
  8
SEIHIN
  6
CONTINUOUS
 62
     3
 48
16.0
100
AcDbCircle
 10
364.4872255976124
 20
485.3763786628024
 30
0.0
 40
110.0000110207561
100
AcDbArc
 50
239.4575329106583
 51
269.9999168503495
  0
ARC
  5
368
330
1A
100
AcDbEntity
  8
SEIHIN
  6
CONTINUOUS
 62
     3
 48
16.0
100
AcDbCircle
 10
327.9984700908629
 20
333.3848716709298
 30
0.0
 40
5.999928618742677
100
AcDbArc
 50
275.7152060632024
 51
352.8749405850433
  0
ARC
  5
369
330
1A
100
AcDbEntity
  8
SEIHIN
  6
CONTINUOUS
 62
     3
 48
16.0
100
AcDbCircle
 10
328.7950833140768
 20
325.4246868171554
 30
0.0
 40
2.00001735244135
100
AcDbArc
 50
95.7137079257191
 51
180.0005493183203
  0
ARC
  5
36A
330
1A
100
AcDbEntity
  8
SEIHIN
  6
CONTINUOUS
 62
     3
 48
16.0
100
AcDbCircle
 10
335.9672745688403
 20
347.3848752404065
 30
0.0
 40
10.00000759824798
100
AcDbArc
 50
269.9999506849134
 51
352.8752186022519
  0
LINE
  5
36B
330
1A
100
AcDbEntity
  8
SEIHIN
  6
CONTINUOUS
 62
     3
 48
16.0
100
AcDbLine
 10
334.7950659617274
 20
337.3849676421622
 30
0.0
 11
333.9520659617273
 21
332.6406676421624
 31
0.0
  0
LINE
  5
36C
330
1A
100
AcDbEntity
  8
SEIHIN
  6
CONTINUOUS
 62
     3
 48
16.0
100
AcDbLine
 10
346.7950659617275
 20
353.3848676421623
 30
0.0
 11
345.8900659617276
 21
346.1445676421623
 31
0.0
  0
ARC
  5
36D
330
1A
100
AcDbEntity
  8
SEIHIN
  6
CONTINUOUS
 62
     3
 48
16.0
100
AcDbCircle
 10
346.7017363025545
 20
368.3848417529509
 30
0.0
 40
14.99997411081789
100
AcDbArc
 50
270.0001132898913
 51
352.2349128650521
  0
LINE
  5
36E
330
1A
100
AcDbEntity
  8
SEIHIN
  6
CONTINUOUS
 62
     3
 48
16.0
100
AcDbLine
 10
362.7951659617275
 20
375.3848676421623
 30
0.0
 11
361.5641659617275
 21
366.3581676421622
 31
0.0
  0
ARC
  5
36F
330
1A
100
AcDbEntity
  8
SEIHIN
  6
CONTINUOUS
 62
     3
 48
16.0
100
AcDbCircle
 10
364.4873570494851
 20
485.3763423397591
 30
0.0
 40
100.0000242663348
100
AcDbArc
 50
238.2021581063515
 51
270.7492258894246
  0
ARC
  5
370
330
1A
100
AcDbEntity
  8
SEIHIN
  6
CONTINUOUS
 62
     3
 48
16.0
100
AcDbCircle
 10
364.4871939161108
 20
485.376387319921
 30
0.0
 40
104.0000424404469
100
AcDbArc
 50
238.7264841285062
 51
270.7204977215236
  0
LINE
  5
371
330
1A
100
AcDbEntity
  8
SEIHIN
  6
CONTINUOUS
 62
     3
 48
16.0
100
AcDbLine
 10
365.7951659617275
 20
385.3848676421621
 30
0.0
 11
365.7951659617275
 21
381.3848676421621
 31
0.0
  0
DIMENSION
  5
372
330
1A
100
AcDbEntity
  8
SUNPOU
  6
CONTINUOUS
100
AcDbDimension
  2
*D7
 10
699.757433334139
 20
273.4289864974196
 30
0.0
 11
694.757433334139
 21
304.578977069791
 31
0.0
 12
13.65181685167317
 22
-42.05826630015963
 32
0.0
 70
    32
  3
STANDARD
100
AcDbAlignedDimension
 13
674.9191165114437
 23
335.7289676421623
 33
0.0
 14
608.9185079230597
 24
273.4289864974196
 34
0.0
 50
90.0
100
AcDbRotatedDimension
1001
ACAD
1000
DSTYLE
1002
{
1070
   140
1040
6.0
1070
    74
1070
     0
1070
   172
1070
     1
1070
    73
1070
     0
1070
   272
1070
     2
1070
    77
1070
     3
1070
   173
1070
     1
1070
   147
1040
2.0
1070
    42
1040
6.0
1070
    44
1040
3.0
1070
    43
1040
14.0
1070
   271
1070
     0
1070
   178
1070
     4
1070
   177
1070
     4
1070
   176
1070
     4
1070
   141
1040
150.0
1070
     7
1000
_OPEN
1070
     6
1000
_OPEN
1070
    41
1040
7.0
1002
}
  0
LINE
  5
373
330
1A
100
AcDbEntity
  8
CENTER_L
  6
CENTER
 62
     1
 48
5.0
100
AcDbLine
 10
608.9186165114435
 20
344.1774676421621
 30
0.0
 11
608.9183165114437
 21
148.7187676421623
 31
0.0
  0
LINE
  5
374
330
1A
100
AcDbEntity
  8
SEIHIN
  6
CONTINUOUS
 62
     3
 48
16.0
100
AcDbLine
 10
531.9603165114435
 20
296.7296676421623
 30
0.0
 11
542.5513165114437
 21
211.2412676421623
 31
0.0
  0
LINE
  5
375
330
1A
100
AcDbEntity
  8
SEIHIN
  6
CONTINUOUS
 62
     3
 48
16.0
100
AcDbLine
 10
541.7827165114438
 20
324.9443676421623
 30
0.0
 11
551.8560165114437
 21
235.1995676421622
 31
0.0
  0
LINE
  5
376
330
1A
100
AcDbEntity
  8
SEIHIN
  6
CONTINUOUS
 62
     3
 48
16.0
100
AcDbLine
 10
671.9191165114437
 20
323.7289676421624
 30
0.0
 11
664.4019165114436
 21
222.2495676421623
 31
0.0
  0
ARC
  5
377
330
1A
100
AcDbEntity
  8
SEIHIN
  6
CONTINUOUS
 62
     3
 48
16.0
100
AcDbCircle
 10
442.6161008424941
 20
262.8155270273377
 30
0.0
 40
96.92027999839156
100
AcDbArc
 50
9.450302928722894
 51
18.36196761808533
  0
ARC
  5
378
330
1A
100
AcDbEntity
  8
SEIHIN
  6
CONTINUOUS
 62
     3
 48
16.0
100
AcDbCircle
 10
608.9190814400216
 20
323.7289677072566
 30
0.0
 40
50.29998121310669
100
AcDbArc
 50
191.9287936728967
 51
347.8585354012614
  0
ARC
  5
379
330
1A
100
AcDbEntity
  8
NOKITOI
  6
PHANTOM
 62
     8
 48
2.0
100
AcDbCircle
 10
608.9185079230597
 20
323.7289984974196
 30
0.0
 40
49.00000099999999
100
AcDbArc
 50
185.413376
 51
354.5863799999999
  0
ARC
  5
37A
330
1A
100
AcDbEntity
  8
NOKITOI
  6
PHANTOM
 62
     8
 48
2.0
100
AcDbCircle
 10
608.9185079230597
 20
323.7289984974196
 30
0.0
 40
50.300012
100
AcDbArc
 50
188.6764639999999
 51
351.2914929999999
  0
TEXT
  5
37B
330
1A
100
AcDbEntity
  8
SUNPOU
 62
     4
100
AcDbText
 10
599.3804721988115
 20
55.90143914235238
 30
0.0
 40
8.0
  1
※b　エルボの差込み寸法を示す。　
100
AcDbText
  0
TEXT
  5
37C
330
1A
100
AcDbEntity
  8
SUNPOU
 62
     4
100
AcDbText
 10
599.3804721988115
 20
68.63579666091562
 30
0.0
 40
8.0
  1
※a　のきといの縁切り間隔寸法を示す。　
100
AcDbText
  0
ARC
  5
37D
330
1A
100
AcDbEntity
  8
SEIHIN
  6
CONTINUOUS
 62
     3
 48
16.0
100
AcDbCircle
 10
608.9191786842093
 20
375.6091677302628
 30
0.0
 40
160.0000301997821
100
AcDbArc
 50
253.0979032186218
 51
286.6352369439761
  0
ARC
  5
37E
330
1A
100
AcDbEntity
  8
SEIHIN
  6
CONTINUOUS
 62
     3
 48
16.0
100
AcDbCircle
 10
559.6917764449911
 20
195.5019989361488
 30
0.0
 40
9.999971458346013
100
AcDbArc
 50
5.710790964129546
 51
76.48766634906971
  0
LINE
  5
37F
330
1A
100
AcDbEntity
  8
SEIHIN
  6
CONTINUOUS
 62
     3
 48
16.0
100
AcDbLine
 10
538.2209165114438
 20
278.7292676421623
 30
0.0
 11
544.5621165114437
 21
227.5448676421623
 31
0.0
  0
ARC
  5
380
330
1A
100
AcDbEntity
  8
SEIHIN
  6
CONTINUOUS
 62
     3
 48
16.0
100
AcDbCircle
 10
540.1034310496643
 20
227.3769195606425
 30
0.0
 40
16.33705077292822
100
AcDbArc
 50
278.7306190389117
 51
319.994972477721
  0
ARC
  5
381
330
1A
100
AcDbEntity
  8
SEIHIN
  6
CONTINUOUS
 62
     3
 48
16.0
100
AcDbCircle
 10
599.4142980587522
 20
360.7960188999202
 30
0.0
 40
159.9999538049667
100
AcDbArc
 50
249.1823458254741
 51
256.4871343211246
  0
ARC
  5
382
330
1A
100
AcDbEntity
  8
SEIHIN
  6
CONTINUOUS
 62
     3
 48
16.0
100
AcDbCircle
 10
566.7623985320569
 20
236.872689259335
 30
0.0
 40
14.99998536300322
100
AcDbArc
 50
186.4041868018976
 51
253.0977908565794
  0
ARC
  5
383
330
1A
100
AcDbEntity
  8
SEIHIN
  6
CONTINUOUS
 62
     3
 48
16.0
100
AcDbCircle
 10
559.9684047565013
 20
230.672383423969
 30
0.0
 40
15.72053028543403
100
AcDbArc
 50
191.4752532641722
 51
241.8854072237454
  0
LINE
  5
384
330
1A
100
AcDbEntity
  8
SEIHIN
  6
CONTINUOUS
 62
     3
 48
16.0
100
AcDbLine
 10
571.9689165114437
 20
193.7291676421623
 30
0.0
 11
571.9689165114437
 21
173.7290676421622
 31
0.0
  0
LINE
  5
385
330
1A
100
AcDbEntity
  8
SEIHIN
  6
CONTINUOUS
 62
     3
 48
16.0
100
AcDbLine
 10
645.8689165114435
 20
193.7290676421623
 30
0.0
 11
645.8688165114438
 21
173.7290676421622
 31
0.0
  0
DIMENSION
  5
386
330
1A
100
AcDbEntity
  8
SUNPOU
  6
CONTINUOUS
100
AcDbDimension
  2
*D8
 10
685.0695221954315
 20
182.7290676421623
 30
0.0
 11
680.0695221954315
 21
211.1290676421623
 31
0.0
 12
13.65181685167317
 22
-42.05826630015963
 32
0.0
 70
    32
  1
※b <>
  3
STANDARD
100
AcDbAlignedDimension
 13
642.8188165114436
 23
170.7290676421623
 33
0.0
 14
645.8688615114437
 24
182.7290676421623
 34
0.0
 50
90.0
100
AcDbRotatedDimension
1001
ACAD
1000
DSTYLE
1002
{
1070
   140
1040
6.0
1070
    74
1070
     0
1070
   172
1070
     1
1070
    73
1070
     0
1070
   272
1070
     2
1070
    77
1070
     3
1070
   173
1070
     1
1070
   147
1040
2.0
1070
    42
1040
6.0
1070
    44
1040
3.0
1070
    43
1040
14.0
1070
   271
1070
     0
1070
   178
1070
     4
1070
   177
1070
     4
1070
   176
1070
     4
1070
   141
1040
150.0
1070
     7
1000
_OPEN
1070
     6
1000
_OPEN
1070
    41
1040
7.0
1002
}
  0
DIMENSION
  5
387
330
1A
100
AcDbEntity
  8
SUNPOU
  6
CONTINUOUS
100
AcDbDimension
  2
*D9
 10
579.9189165114437
 20
124.6635681210555
 30
0.0
 11
608.9189165114437
 21
129.6635681210555
 31
0.0
 12
13.65181685167317
 22
-42.05826630015963
 32
0.0
 70
    32
  1
φ<>
  3
STANDARD
100
AcDbAlignedDimension
 13
637.9189165114437
 23
157.7290676421623
 33
0.0
 14
579.9189165114437
 24
157.7290676421623
 34
0.0
100
AcDbRotatedDimension
1001
ACAD
1000
DSTYLE
1002
{
1070
   140
1040
6.0
1070
    74
1070
     0
1070
   172
1070
     1
1070
    73
1070
     0
1070
   272
1070
     2
1070
    77
1070
     3
1070
   173
1070
     1
1070
   147
1040
2.0
1070
    42
1040
6.0
1070
    44
1040
3.0
1070
    43
1040
14.0
1070
   271
1070
     0
1070
   178
1070
     4
1070
   177
1070
     4
1070
   176
1070
     4
1070
   141
1040
150.0
1070
     7
1000
_OPEN
1070
     6
1000
_OPEN
1070
    41
1040
7.0
1002
}
  0
DIMENSION
  5
388
330
1A
100
AcDbEntity
  8
SUNPOU
  6
CONTINUOUS
100
AcDbDimension
  2
*D10
 10
571.9689165114437
 20
104.6116208920366
 30
0.0
 11
608.9188665114437
 21
109.6116208920366
 31
0.0
 12
13.65181685167317
 22
-42.05826630015963
 32
0.0
 70
    32
  1
φ<>
  3
STANDARD
100
AcDbAlignedDimension
 13
645.8688165114438
 23
173.7290676421622
 33
0.0
 14
571.9689165114437
 24
173.7290676421622
 34
0.0
100
AcDbRotatedDimension
1001
ACAD
1000
DSTYLE
1002
{
1070
   140
1040
6.0
1070
    74
1070
     0
1070
   172
1070
     1
1070
    73
1070
     0
1070
   272
1070
     2
1070
    77
1070
     3
1070
   173
1070
     1
1070
   147
1040
2.0
1070
    42
1040
6.0
1070
    44
1040
3.0
1070
    43
1040
14.0
1070
   271
1070
     0
1070
   178
1070
     4
1070
   177
1070
     4
1070
   176
1070
     4
1070
   141
1040
150.0
1070
     7
1000
_OPEN
1070
     6
1000
_OPEN
1070
    41
1040
7.0
1002
}
  0
LINE
  5
389
330
1A
100
AcDbEntity
  8
SEIHIN
  6
CONTINUOUS
 62
     3
 48
16.0
100
AcDbLine
 10
637.9189165114437
 20
157.7290676421623
 30
0.0
 11
608.9189165114437
 21
157.7291676421623
 31
0.0
  0
LINE
  5
38A
330
1A
100
AcDbEntity
  8
SEIHIN
  6
CONTINUOUS
 62
     3
 48
16.0
100
AcDbLine
 10
645.8688165114438
 20
173.7290676421622
 30
0.0
 11
608.9189165114437
 21
173.7290676421622
 31
0.0
  0
LINE
  5
38B
330
1A
100
AcDbEntity
  8
SEIHIN
  6
CONTINUOUS
 62
     3
 48
16.0
100
AcDbLine
 10
642.8188165114436
 20
170.7290676421623
 30
0.0
 11
608.9189165114437
 21
170.7290676421623
 31
0.0
  0
LINE
  5
38C
330
1A
100
AcDbEntity
  8
SEIHIN
  6
CONTINUOUS
 62
     3
 48
16.0
100
AcDbLine
 10
579.9189165114437
 20
157.7290676421623
 30
0.0
 11
608.9189165114437
 21
157.7291676421623
 31
0.0
  0
LINE
  5
38D
330
1A
100
AcDbEntity
  8
SEIHIN
  6
CONTINUOUS
 62
     3
 48
16.0
100
AcDbLine
 10
571.9689165114437
 20
173.7290676421622
 30
0.0
 11
608.9189165114437
 21
173.7290676421622
 31
0.0
  0
LINE
  5
38E
330
1A
100
AcDbEntity
  8
SEIHIN
  6
CONTINUOUS
 62
     3
 48
16.0
100
AcDbLine
 10
575.0189165114436
 20
170.7290676421623
 30
0.0
 11
608.9189165114437
 21
170.7290676421623
 31
0.0
  0
LINE
  5
38F
330
1A
100
AcDbEntity
  8
SEIHIN
  6
CONTINUOUS
 62
     3
 48
16.0
100
AcDbLine
 10
579.9189165114437
 20
157.7290676421623
 30
0.0
 11
579.9189165114437
 21
170.7290676421623
 31
0.0
  0
LINE
  5
390
330
1A
100
AcDbEntity
  8
SEIHIN
  6
CONTINUOUS
 62
     3
 48
16.0
100
AcDbLine
 10
571.9689165114437
 20
173.7290676421622
 30
0.0
 11
575.0189165114436
 21
170.7290676421623
 31
0.0
  0
LINE
  5
391
330
1A
100
AcDbEntity
  8
SEIHIN
  6
CONTINUOUS
 62
     3
 48
16.0
100
AcDbLine
 10
637.9189165114437
 20
157.7290676421623
 30
0.0
 11
637.9189165114437
 21
170.7290676421623
 31
0.0
  0
LINE
  5
392
330
1A
100
AcDbEntity
  8
SEIHIN
  6
CONTINUOUS
 62
     3
 48
16.0
100
AcDbLine
 10
645.8688165114438
 20
173.7290676421622
 30
0.0
 11
642.8188165114436
 21
170.7290676421623
 31
0.0
  0
LINE
  5
393
330
1A
100
AcDbEntity
  8
SEIHIN
  6
CONTINUOUS
 62
     3
 48
16.0
100
AcDbLine
 10
568.9189165114437
 20
203.7291676421622
 30
0.0
 11
648.9189165114437
 21
203.7290676421623
 31
0.0
  0
LINE
  5
394
330
1A
100
AcDbEntity
  8
SEIHIN
  6
CONTINUOUS
 62
     3
 48
16.0
100
AcDbLine
 10
569.9189165114437
 20
193.7291676421623
 30
0.0
 11
647.9189165114437
 21
193.7290676421623
 31
0.0
  0
LINE
  5
395
330
1A
100
AcDbEntity
  8
SEIHIN
  6
CONTINUOUS
 62
     3
 48
16.0
100
AcDbLine
 10
569.6421165114436
 20
196.4970676421623
 30
0.0
 11
569.9189165114437
 21
193.7291676421623
 31
0.0
  0
ARC
  5
396
330
1A
100
AcDbEntity
  8
SEIHIN
  6
CONTINUOUS
 62
     3
 48
16.0
100
AcDbCircle
 10
650.4296073396192
 20
236.6779562350209
 30
0.0
 40
15.00000124533584
100
AcDbArc
 50
286.6354106768661
 51
355.7631715546116
  0
ARC
  5
397
330
1A
100
AcDbEntity
  8
SEIHIN
  6
CONTINUOUS
 62
     3
 48
16.0
100
AcDbCircle
 10
649.4429320962723
 20
223.3576972160035
 30
0.0
 40
14.99997219616625
100
AcDbArc
 50
308.6596912011214
 51
355.7633893887087
  0
ARC
  5
398
330
1A
100
AcDbEntity
  8
SEIHIN
  6
CONTINUOUS
 62
     3
 48
16.0
100
AcDbCircle
 10
658.4507202222185
 20
198.5482744693192
 30
0.0
 40
10.0000372214328
100
AcDbArc
 50
128.6600282534334
 51
174.2891058331963
  0
LINE
  5
399
330
1A
100
AcDbEntity
  8
SEIHIN
  6
CONTINUOUS
 62
     3
 48
16.0
100
AcDbLine
 10
647.9189165114437
 20
193.7290676421623
 30
0.0
 11
648.5003165114435
 21
199.5432676421623
 31
0.0
  0
LINE
  5
39A
330
1A
100
AcDbEntity
  8
SEIHIN
  6
CONTINUOUS
 62
     3
 48
16.0
100
AcDbLine
 10
652.2037165114436
 20
206.3569676421622
 30
0.0
 11
658.8133165114436
 21
211.6446676421623
 31
0.0
  0
TEXT
  5
39B
330
1A
100
AcDbEntity
  8
SUNPOU
  6
CONTINUOUS
 62
     4
 48
16.0
100
AcDbText
 10
563.4191165114437
 20
451.761595107029
 30
0.0
 40
6.0
  1
205
 41
1.2
 72
     5
 11
581.4191165114436
 21
451.761595107029
 31
0.0
100
AcDbText
  0
LINE
  5
39C
330
1A
100
AcDbEntity
  8
SUNPOU
  6
CONTINUOUS
 62
     4
 48
16.0
100
AcDbLine
 10
469.9192165114437
 20
449.7615951070291
 30
0.0
 11
674.9191165114437
 21
449.7615951070291
 31
0.0
  0
LINE
  5
39D
330
1A
100
AcDbEntity
  8
SEIHIN
  6
CONTINUOUS
 62
     3
 48
16.0
100
AcDbLine
 10
494.6575165114437
 20
353.3847676421623
 30
0.0
 11
572.5858165114437
 21
353.3847676421623
 31
0.0
  0
LINE
  5
39E
330
1A
100
AcDbEntity
  8
SEIHIN
  6
CONTINUOUS
 62
     3
 48
16.0
100
AcDbLine
 10
516.5390165114438
 20
325.7291676421622
 30
0.0
 11
571.1518165114437
 21
325.7291676421622
 31
0.0
  0
LINE
  5
39F
330
1A
100
AcDbEntity
  8
SEIHIN
  6
CONTINUOUS
 62
     3
 48
16.0
100
AcDbLine
 10
508.0390165114438
 20
335.7291676421622
 30
0.0
 11
577.3675165114436
 21
335.7291676421622
 31
0.0
  0
LINE
  5
3A0
330
1A
100
AcDbEntity
  8
SEIHIN
  6
CONTINUOUS
 62
     3
 48
16.0
100
AcDbLine
 10
564.7193165114436
 20
382.4305676421623
 30
0.0
 11
577.3675165114436
 21
335.7291676421622
 31
0.0
  0
ARC
  5
3A1
330
1A
100
AcDbEntity
  8
SEIHIN
  6
CONTINUOUS
 62
     3
 48
16.0
100
AcDbCircle
 10
559.8130087566263
 20
339.7087611405473
 30
0.0
 40
17.9999639681593
100
AcDbArc
 50
272.7261095274283
 51
347.2266721126665
  0
ARC
  5
3A2
330
1A
100
AcDbEntity
  8
SEIHIN
  6
CONTINUOUS
 62
     3
 48
16.0
100
AcDbCircle
 10
510.5432159377515
 20
397.7717680576404
 30
0.0
 40
22.43761071571559
100
AcDbArc
 50
198.2294394493673
 51
269.9450999220239
  0
LINE
  5
3A3
330
1A
100
AcDbEntity
  8
SEIHIN
  6
CONTINUOUS
 62
     3
 48
16.0
100
AcDbLine
 10
471.3405165114436
 20
401.9971676421621
 30
0.0
 11
477.6939165114438
 21
371.3847676421623
 31
0.0
  0
ARC
  5
3A4
330
1A
100
AcDbEntity
  8
SEIHIN
  6
CONTINUOUS
 62
     3
 48
16.0
100
AcDbCircle
 10
458.6243292634202
 20
381.8033179086136
 30
0.0
 40
22.63165976651771
100
AcDbArc
 50
332.5898328050652
 51
358.9400573427389
  0
ARC
  5
3A5
330
1A
100
AcDbEntity
  8
SEIHIN
  6
CONTINUOUS
 62
     3
 48
16.0
100
AcDbCircle
 10
457.6030292634203
 20
381.8033179086132
 30
0.0
 40
22.63165976651761
100
AcDbArc
 50
332.5898328050661
 51
358.9400573427398
  0
LINE
  5
3A6
330
1A
100
AcDbEntity
  8
SEIHIN
  6
CONTINUOUS
 62
     3
 48
16.0
100
AcDbLine
 10
513.2600165114437
 20
381.3849676421623
 30
0.0
 11
514.5053165114437
 21
375.3849676421622
 31
0.0
  0
ARC
  5
3A7
330
1A
100
AcDbEntity
  8
SEIHIN
  6
CONTINUOUS
 62
     3
 48
16.0
100
AcDbCircle
 10
505.9741704282339
 20
345.729124858229
 30
0.0
 40
9.999957216212182
100
AcDbArc
 50
193.134438751714
 51
269.9996910782248
  0
LINE
  5
3A8
330
1A
100
AcDbEntity
  8
SEIHIN
  6
CONTINUOUS
 62
     3
 48
16.0
100
AcDbLine
 10
493.9191165114437
 20
353.3847676421623
 30
0.0
 11
496.2358165114437
 21
343.4567676421622
 31
0.0
  0
ARC
  5
3A9
330
1A
100
AcDbEntity
  8
SEIHIN
  6
CONTINUOUS
 62
     3
 48
16.0
100
AcDbCircle
 10
494.6575144246306
 20
368.3847693403289
 30
0.0
 40
15.00000169816664
100
AcDbArc
 50
191.7253246285289
 51
270.0000079710379
  0
LINE
  5
3AA
330
1A
100
AcDbEntity
  8
SEIHIN
  6
CONTINUOUS
 62
     3
 48
16.0
100
AcDbLine
 10
478.7152165114435
 20
371.3847676421623
 30
0.0
 11
477.6939165114438
 21
371.3847676421623
 31
0.0
  0
LINE
  5
3AB
330
1A
100
AcDbEntity
  8
SEIHIN
  6
CONTINUOUS
 62
     3
 48
16.0
100
AcDbLine
 10
479.9705165114438
 20
365.3364676421623
 30
0.0
 11
478.7153165114438
 21
371.3847676421623
 31
0.0
  0
ARC
  5
3AC
330
1A
100
AcDbEntity
  8
SEIHIN
  6
CONTINUOUS
 62
     3
 48
16.0
100
AcDbCircle
 10
541.8658207528417
 20
330.2025620316492
 30
0.0
 40
4.476699766011269
100
AcDbArc
 50
175.5171029675542
 51
258.6593779109831
  0
ARC
  5
3AD
330
1A
100
AcDbEntity
  8
SEIHIN
  6
CONTINUOUS
 62
     3
 48
16.0
100
AcDbCircle
 10
514.9578065934349
 20
331.7291757729845
 30
0.0
 40
6.000008130830598
100
AcDbArc
 50
191.3100271838998
 51
270.0000947098797
  0
LINE
  5
3AE
330
1A
100
AcDbEntity
  8
SEIHIN
  6
CONTINUOUS
 62
     3
 48
16.0
100
AcDbLine
 10
518.5390165114438
 20
323.7291676421622
 30
0.0
 11
568.0985165114436
 21
323.7291676421622
 31
0.0
  0
ARC
  5
3AF
330
1A
100
AcDbEntity
  8
SEIHIN
  6
CONTINUOUS
 62
     3
 48
16.0
100
AcDbCircle
 10
495.0938372797021
 20
290.2543215942293
 30
0.0
 40
37.43084684581309
100
AcDbArc
 50
9.961218362663563
 51
44.50368867660899
  0
ARC
  5
3B0
330
1A
100
AcDbEntity
  8
SEIHIN
  6
CONTINUOUS
 62
     3
 48
16.0
100
AcDbCircle
 10
528.8839274930109
 20
291.6038535817843
 30
0.0
 40
5.977675454993627
100
AcDbArc
 50
16.95701562017497
 51
59.0250607946689
  0
ARC
  5
3B1
330
1A
100
AcDbEntity
  8
SEIHIN
  6
CONTINUOUS
 62
     3
 48
16.0
100
AcDbCircle
 10
556.4729838907858
 20
336.4180185895778
 30
0.0
 40
40.00000507882727
100
AcDbArc
 50
198.4949598269442
 51
210.155345774484
  0
ARC
  5
3B2
330
1A
100
AcDbEntity
  8
SEIHIN
  6
CONTINUOUS
 62
     3
 48
16.0
100
AcDbCircle
 10
515.0390165114437
 20
324.2291676421621
 30
0.0
 40
1.500000000000028
100
AcDbArc
 50
0.0000000000054281
 51
90.00000000000543
  0
LINE
  5
3B3
330
1A
100
AcDbEntity
  8
SEIHIN
  6
CONTINUOUS
 62
     3
 48
16.0
100
AcDbLine
 10
516.5390165114438
 20
324.2291676421623
 30
0.0
 11
516.5390165114438
 21
323.7291676421622
 31
0.0
  0
LINE
  5
3B4
330
1A
100
AcDbEntity
  8
SEIHIN
  6
CONTINUOUS
 62
     3
 48
16.0
100
AcDbLine
 10
514.9578165114437
 20
325.7291676421622
 30
0.0
 11
515.0390165114436
 21
325.7291676421622
 31
0.0
  0
LINE
  5
3B5
330
1A
100
AcDbEntity
  8
SEIHIN
  6
CONTINUOUS
 62
     3
 48
16.0
100
AcDbLine
 10
516.5390165114438
 20
323.7291676421622
 30
0.0
 11
518.5390165114438
 21
323.7291676421622
 31
0.0
  0
ARC
  5
3B6
330
1A
100
AcDbEntity
  8
SEIHIN
  6
CONTINUOUS
 62
     3
 48
16.0
100
AcDbCircle
 10
555.1691165114436
 20
320.2291676421621
 30
0.0
 40
3.500000000000085
100
AcDbArc
 50
89.99999999999859
 51
179.9999999999986
  0
ARC
  5
3B7
330
1A
100
AcDbEntity
  8
SEIHIN
  6
CONTINUOUS
 62
     3
 48
16.0
100
AcDbCircle
 10
555.1691165114436
 20
318.2291676421622
 30
0.0
 40
3.500000000000085
100
AcDbArc
 50
180.0000000000014
 51
270.0000000000014
  0
ARC
  5
3B8
330
1A
100
AcDbEntity
  8
NOKITOI
  6
PHANTOM
 62
     8
 48
2.0
100
AcDbCircle
 10
556.1569079230597
 20
318.7290984974196
 30
0.0
 40
4.000029
100
AcDbArc
 50
185.413851
 51
319.252818
  0
ARC
  5
3B9
330
1A
100
AcDbEntity
  8
NOKITOI
  6
PHANTOM
 62
     8
 48
2.0
100
AcDbCircle
 10
556.1569079230597
 20
318.7290984974196
 30
0.0
 40
3.999994
100
AcDbArc
 50
5.413986
 51
185.413851
  0
ARC
  5
3BA
330
1A
100
AcDbEntity
  8
SEIHIN
  6
CONTINUOUS
 62
     3
 48
16.0
100
AcDbCircle
 10
540.7889725881952
 20
324.8328065059885
 30
0.0
 40
0.9999864359568437
100
AcDbArc
 50
6.405403302720858
 51
78.6590710928602
  0
LINE
  5
3BB
330
1A
100
AcDbEntity
  8
SEIHIN
  6
CONTINUOUS
 62
     3
 48
16.0
100
AcDbLine
 10
551.6691165114435
 20
320.2291676421622
 30
0.0
 11
551.6691165114435
 21
318.2291676421622
 31
0.0
  0
CIRCLE
  5
3BC
330
1A
100
AcDbEntity
  8
NOKITOI
  6
PHANTOM
 62
     8
 48
2.0
100
AcDbCircle
 10
556.1569079230597
 20
318.7290984974196
 30
0.0
 40
2.7
  0
LINE
  5
3BD
330
1A
100
AcDbEntity
  8
SEIHIN
  6
CONTINUOUS
 62
     3
 48
16.0
100
AcDbLine
 10
555.1691165114436
 20
314.7291676421622
 30
0.0
 11
557.7889165114437
 21
314.7291676421622
 31
0.0
  0
ARC
  5
3BE
330
1A
100
AcDbEntity
  8
SEIHIN
  6
CONTINUOUS
 62
     3
 48
16.0
100
AcDbCircle
 10
557.7889323652454
 20
312.7291548359942
 30
0.0
 40
2.000012806230779
100
AcDbArc
 50
12.1402299269439
 51
90.00045417505516
  0
ARC
  5
3BF
330
1A
100
AcDbEntity
  8
SEIHIN
  6
CONTINUOUS
 62
     3
 48
16.0
100
AcDbCircle
 10
558.8691165114437
 20
321.9291676421623
 30
0.0
 40
1.799999999999897
100
AcDbArc
 50
0.0000000000018094
 51
90.00000000000179
  0
LINE
  5
3C0
330
1A
100
AcDbEntity
  8
SEIHIN
  6
CONTINUOUS
 62
     3
 48
16.0
100
AcDbLine
 10
558.8691165114436
 20
323.7291676421622
 30
0.0
 11
555.1691165114436
 21
323.7291676421622
 31
0.0
  0
ARC
  5
3C1
330
1A
100
AcDbEntity
  8
SEIHIN
  6
CONTINUOUS
 62
     3
 48
16.0
100
AcDbCircle
 10
537.9135409279402
 20
343.5908384577753
 30
0.0
 40
8.012146228402276
100
AcDbArc
 50
180.9588005767946
 51
258.8744179944916
  0
LINE
  5
3C2
330
1A
100
AcDbEntity
  8
SEIHIN
  6
CONTINUOUS
 62
     3
 48
16.0
100
AcDbLine
 10
566.6275165114436
 20
375.3848676421623
 30
0.0
 11
510.1260165114438
 21
375.3849676421622
 31
0.0
  0
LINE
  5
3C3
330
1A
100
AcDbEntity
  8
SEIHIN
  6
CONTINUOUS
 62
     3
 48
16.0
100
AcDbLine
 10
527.5858165114437
 20
353.3847676421623
 30
0.0
 11
529.9025165114437
 21
343.4567676421622
 31
0.0
  0
ARC
  5
3C4
330
1A
100
AcDbEntity
  8
SEIHIN
  6
CONTINUOUS
 62
     3
 48
16.0
100
AcDbCircle
 10
530.5674973758502
 20
365.8171870114226
 30
0.0
 40
12.78497055727252
100
AcDbArc
 50
192.7913986037911
 51
256.513417051119
  0
LINE
  5
3C5
330
1A
100
AcDbEntity
  8
SEIHIN
  6
CONTINUOUS
 62
     3
 48
16.0
100
AcDbLine
 10
505.9741165114436
 20
335.7291676421622
 30
0.0
 11
508.0390165114438
 21
335.7291676421622
 31
0.0
  0
LINE
  5
3C6
330
1A
100
AcDbEntity
  8
SEIHIN
  6
CONTINUOUS
 62
     3
 48
16.0
100
AcDbLine
 10
508.0390165114438
 20
335.7291676421622
 30
0.0
 11
509.0743165114436
 21
330.5524676421622
 31
0.0
  0
LINE
  5
3C7
330
1A
100
AcDbEntity
  8
SEIHIN
  6
CONTINUOUS
 62
     3
 48
16.0
100
AcDbLine
 10
518.0998165114435
 20
362.9865676421621
 30
0.0
 11
515.5266165114437
 21
375.3849676421622
 31
0.0
  0
LINE
  5
3C8
330
1A
100
AcDbEntity
  8
SEIHIN
  6
CONTINUOUS
 62
     3
 48
16.0
100
AcDbLine
 10
536.3675165114436
 20
335.7291676421622
 30
0.0
 11
537.4028165114436
 21
330.5524676421622
 31
0.0
  0
ARC
  5
3C9
330
1A
100
AcDbEntity
  8
SEIHIN
  6
CONTINUOUS
 62
     3
 48
16.0
100
AcDbCircle
 10
513.0991217401857
 20
403.7914638707928
 30
0.0
 40
22.43763192908325
100
AcDbArc
 50
199.2741254220288
 51
269.1217838941624
  0
ARC
  5
3CA
330
1A
100
AcDbEntity
  8
SEIHIN
  6
CONTINUOUS
 62
     3
 48
16.0
100
AcDbCircle
 10
513.0991319129041
 20
407.7914560909301
 30
0.0
 40
22.43763896358407
100
AcDbArc
 50
199.2740980946433
 51
266.9853732312103
  0
ARC
  5
3CB
330
1A
100
AcDbEntity
  8
SEIHIN
  6
CONTINUOUS
 62
     3
 48
16.0
100
AcDbCircle
 10
517.0991319129041
 20
407.7914560909301
 30
0.0
 40
22.43763896358407
100
AcDbArc
 50
199.2740980946433
 51
266.9853732312103
  0
LINE
  5
3CC
330
1A
100
AcDbEntity
  8
SUNPOU
  6
CONTINUOUS
 62
     4
 48
16.0
100
AcDbLine
 10
469.9192165114437
 20
410.3847676421623
 30
0.0
 11
469.9192165114437
 21
451.761595107029
 31
0.0
  0
LINE
  5
3CD
330
1A
100
AcDbEntity
  8
SEIHIN
  6
CONTINUOUS
 62
     3
 48
16.0
100
AcDbLine
 10
469.9192165114437
 20
406.3847676421623
 30
0.0
 11
470.7992165114437
 21
402.1447676421622
 31
0.0
  0
LINE
  5
3CE
330
1A
100
AcDbEntity
  8
SEIHIN
  6
CONTINUOUS
 62
     3
 48
16.0
100
AcDbLine
 10
469.9192165114437
 20
406.3847676421623
 30
0.0
 11
473.9192165114437
 21
406.3847676421623
 31
0.0
  0
LINE
  5
3CF
330
1A
100
AcDbEntity
  8
SEIHIN
  6
CONTINUOUS
 62
     3
 48
16.0
100
AcDbLine
 10
469.9192165114437
 20
406.3847676421623
 30
0.0
 11
491.9192165114437
 21
400.3849676421622
 31
0.0
  0
LINE
  5
3D0
330
1A
100
AcDbEntity
  8
SEIHIN
  6
CONTINUOUS
 62
     3
 48
16.0
100
AcDbLine
 10
470.7992165114437
 20
402.1447676421622
 30
0.0
 11
491.9192165114437
 21
396.3849676421622
 31
0.0
  0
LINE
  5
3D1
330
1A
100
AcDbEntity
  8
SEIHIN
  6
CONTINUOUS
 62
     3
 48
16.0
100
AcDbLine
 10
485.4300165114437
 20
391.7894676421624
 30
0.0
 11
489.2888165114437
 21
390.7370676421622
 31
0.0
  0
ARC
  5
3D2
330
1A
100
AcDbEntity
  8
SEIHIN
  6
CONTINUOUS
 62
     3
 48
16.0
100
AcDbCircle
 10
488.5829041284282
 20
387.5180347308591
 30
0.0
 40
5.309051019768499
100
AcDbArc
 50
126.4361629740713
 51
192.3251620615794
  0
ARC
  5
3D3
330
1A
100
AcDbEntity
  8
SEIHIN
  6
CONTINUOUS
 62
     3
 48
16.0
100
AcDbCircle
 10
489.6042040216364
 20
387.5180309885677
 30
0.0
 40
5.309050116611785
100
AcDbArc
 50
130.0408095346719
 51
192.3251228512706
  0
ARC
  5
3D4
330
1A
100
AcDbEntity
  8
SEIHIN
  6
CONTINUOUS
 62
     3
 48
16.0
100
AcDbCircle
 10
474.3512313731327
 20
388.608991117524
 30
0.0
 40
9.314447177402087
100
AcDbArc
 50
309.1411394507268
 51
346.1846950946936
  0
LINE
  5
3D5
330
1A
100
AcDbEntity
  8
SEIHIN
  6
CONTINUOUS
 62
     3
 48
16.0
100
AcDbLine
 10
481.2521165114437
 20
381.3847676421623
 30
0.0
 11
480.2308165114437
 21
381.3847676421623
 31
0.0
  0
ARC
  5
3D6
330
1A
100
AcDbEntity
  8
SEIHIN
  6
CONTINUOUS
 62
     3
 48
16.0
100
AcDbCircle
 10
475.3725313731328
 20
388.6089911175242
 30
0.0
 40
9.31444717740225
100
AcDbArc
 50
309.1411394507255
 51
346.1846950946922
  0
LINE
  5
3D7
330
1A
100
AcDbEntity
  8
SEIHIN
  6
CONTINUOUS
 62
     3
 48
16.0
100
AcDbLine
 10
473.9192165114437
 20
406.3847676421623
 30
0.0
 11
495.9192165114436
 21
400.3849676421622
 31
0.0
  0
LINE
  5
3D8
330
1A
100
AcDbEntity
  8
SEIHIN
  6
CONTINUOUS
 62
     3
 48
16.0
100
AcDbLine
 10
491.9192165114437
 20
400.3849676421622
 30
0.0
 11
495.9192165114436
 21
400.3849676421622
 31
0.0
  0
LINE
  5
3D9
330
1A
100
AcDbEntity
  8
SUNPOU
  6
CONTINUOUS
 62
     4
 48
16.0
100
AcDbLine
 10
469.9192165114437
 20
449.7615951070291
 30
0.0
 11
473.8584165114438
 21
449.0669951070292
 31
0.0
  0
LINE
  5
3DA
330
1A
100
AcDbEntity
  8
SUNPOU
  6
CONTINUOUS
 62
     4
 48
16.0
100
AcDbLine
 10
469.9192165114437
 20
449.7615951070291
 30
0.0
 11
473.8584165114438
 21
450.456195107029
 31
0.0
  0
LINE
  5
3DB
330
1A
100
AcDbEntity
  8
SEIHIN
  6
CONTINUOUS
 62
     3
 48
16.0
100
AcDbLine
 10
565.0025165114437
 20
381.3848676421621
 30
0.0
 11
512.7493165114437
 21
381.3849676421623
 31
0.0
  0
LINE
  5
3DC
330
1A
100
AcDbEntity
  8
SEIHIN
  6
CONTINUOUS
 62
     3
 48
16.0
100
AcDbLine
 10
560.8584165114435
 20
385.3848676421621
 30
0.0
 11
511.9192165114437
 21
385.3849676421623
 31
0.0
  0
LINE
  5
3DD
330
1A
100
AcDbEntity
  8
SEIHIN
  6
CONTINUOUS
 62
     3
 48
16.0
100
AcDbLine
 10
511.9192165114437
 20
385.3849676421623
 30
0.0
 11
512.7493165114437
 21
381.3849676421623
 31
0.0
  0
ARC
  5
3DE
330
1A
100
AcDbEntity
  8
SEIHIN
  6
CONTINUOUS
 62
     3
 48
16.0
100
AcDbCircle
 10
560.8584195580887
 20
381.3848653109136
 30
0.0
 40
4.000002331249782
100
AcDbArc
 50
15.15465896283138
 51
90.00004363995314
  0
LINE
  5
3DF
330
1A
100
AcDbEntity
  8
SUNPOU
  6
CONTINUOUS
 62
     4
 48
16.0
100
AcDbLine
 10
608.9186165114435
 20
348.1774676421621
 30
0.0
 11
608.9186165114435
 21
431.2656951070291
 31
0.0
  0
LINE
  5
3E0
330
1A
100
AcDbEntity
  8
SUNPOU
  6
CONTINUOUS
 62
     4
 48
16.0
100
AcDbLine
 10
674.9191165114437
 20
339.7289676421623
 30
0.0
 11
674.9191165114437
 21
431.2656951070291
 31
0.0
  0
LINE
  5
3E1
330
1A
100
AcDbEntity
  8
SUNPOU
  6
CONTINUOUS
 62
     4
 48
16.0
100
AcDbLine
 10
674.9191165114437
 20
339.7289676421623
 30
0.0
 11
674.9191165114437
 21
451.761595107029
 31
0.0
  0
ARC
  5
3E2
330
1A
100
AcDbEntity
  8
SEIHIN
  6
CONTINUOUS
 62
     3
 48
16.0
100
AcDbCircle
 10
649.7818139813212
 20
330.4426108772132
 30
0.0
 40
2.999959662393144
100
AcDbArc
 50
141.3378236142955
 51
213.5562357407469
  0
LINE
  5
3E3
330
1A
100
AcDbEntity
  8
SEIHIN
  6
CONTINUOUS
 62
     3
 48
16.0
100
AcDbLine
 10
674.9191165114437
 20
335.7289676421623
 30
0.0
 11
673.9191165114436
 21
323.7289676421624
 31
0.0
  0
ARC
  5
3E4
330
1A
100
AcDbEntity
  8
SEIHIN
  6
CONTINUOUS
 62
     3
 48
16.0
100
AcDbCircle
 10
662.6691165114436
 20
318.2289676421623
 30
0.0
 40
3.5
100
AcDbArc
 50
270.0
 51
0.0
  0
ARC
  5
3E5
330
1A
100
AcDbEntity
  8
SEIHIN
  6
CONTINUOUS
 62
     3
 48
16.0
100
AcDbCircle
 10
662.6691165114436
 20
320.2289676421623
 30
0.0
 40
3.5
100
AcDbArc
 50
0.0
 51
90.0
  0
LINE
  5
3E6
330
1A
100
AcDbEntity
  8
SEIHIN
  6
CONTINUOUS
 62
     3
 48
16.0
100
AcDbLine
 10
671.0301165114437
 20
311.7289676421624
 30
0.0
 11
657.7666165114435
 21
311.7290676421623
 31
0.0
  0
LINE
  5
3E7
330
1A
100
AcDbEntity
  8
SEIHIN
  6
CONTINUOUS
 62
     3
 48
16.0
100
AcDbLine
 10
673.9191165114436
 20
323.7289676421624
 30
0.0
 11
652.4973165114438
 21
323.7289676421624
 31
0.0
  0
ARC
  5
3E8
330
1A
100
AcDbEntity
  8
SEIHIN
  6
CONTINUOUS
 62
     3
 48
16.0
100
AcDbCircle
 10
661.4484110002698
 20
338.181648452752
 30
0.0
 40
17.00003782477901
100
AcDbArc
 50
213.5579420230337
 51
251.54618381517
  0
CIRCLE
  5
3E9
330
1A
100
AcDbEntity
  8
NOKITOI
  6
PHANTOM
 62
     8
 48
2.0
100
AcDbCircle
 10
661.6801079230597
 20
318.7288984974196
 30
0.0
 40
2.7
  0
ARC
  5
3EA
330
1A
100
AcDbEntity
  8
NOKITOI
  6
PHANTOM
 62
     8
 48
2.0
100
AcDbCircle
 10
661.6801079230597
 20
318.7288984974196
 30
0.0
 40
3.999994
100
AcDbArc
 50
220.269583
 51
121.7840119999999
  0
ARC
  5
3EB
330
1A
100
AcDbEntity
  8
SEIHIN
  6
CONTINUOUS
 62
     3
 48
16.0
100
AcDbCircle
 10
660.0491876375087
 20
312.7289443199343
 30
0.0
 40
2.000023322436483
100
AcDbArc
 50
89.99917283233635
 51
167.8565964206902
  0
LINE
  5
3EC
330
1A
100
AcDbEntity
  8
SEIHIN
  6
CONTINUOUS
 62
     3
 48
16.0
100
AcDbLine
 10
662.6691165114436
 20
314.7289676421623
 30
0.0
 11
660.0492165114437
 21
314.7289676421623
 31
0.0
  0
ARC
  5
3ED
330
1A
100
AcDbEntity
  8
SEIHIN
  6
CONTINUOUS
 62
     3
 48
16.0
100
AcDbCircle
 10
658.9690566320498
 20
321.9289944064492
 30
0.0
 40
1.79997323616026
100
AcDbArc
 50
90.00127709754563
 51
157.4154478361081
  0
ARC
  5
3EE
330
1A
100
AcDbEntity
  8
NOKITOI
  6
PHANTOM
 62
     8
 48
2.0
100
AcDbCircle
 10
661.6801079230597
 20
318.7288984974196
 30
0.0
 40
3.999958
100
AcDbArc
 50
121.784767
 51
174.584588
  0
ARC
  5
3EF
330
1A
100
AcDbEntity
  8
SEIHIN
  6
CONTINUOUS
 62
     3
 48
16.0
100
AcDbCircle
 10
656.3837958620117
 20
323.0043582413309
 30
0.0
 40
1.000023304746988
100
AcDbArc
 50
251.5442615235824
 51
337.4132603089476
  0
LINE
  5
3F0
330
1A
100
AcDbEntity
  8
SEIHIN
  6
CONTINUOUS
 62
     3
 48
16.0
100
AcDbLine
 10
666.1691165114437
 20
320.2289676421623
 30
0.0
 11
666.1691165114437
 21
318.2289676421623
 31
0.0
  0
LINE
  5
3F1
330
1A
100
AcDbEntity
  8
SEIHIN
  6
CONTINUOUS
 62
     3
 48
16.0
100
AcDbLine
 10
658.9690165114436
 20
323.7290676421622
 30
0.0
 11
662.6691165114436
 21
323.7289676421624
 31
0.0
  0
LINE
  5
3F2
330
1A
100
AcDbEntity
  8
SEIHIN
  6
CONTINUOUS
 62
     3
 48
16.0
100
AcDbLine
 10
651.1303165114436
 20
335.7290676421623
 30
0.0
 11
674.9191165114437
 21
335.7289676421623
 31
0.0
  0
ARC
  5
3F3
330
1A
100
AcDbEntity
  8
SEIHIN
  6
CONTINUOUS
 62
     3
 48
16.0
100
AcDbCircle
 10
651.1303406343103
 20
333.7290792359796
 30
0.0
 40
1.999988406328202
100
AcDbArc
 50
90.00069107323527
 51
141.3399879990279
  0
LINE
  5
3F4
330
1A
100
AcDbEntity
  8
SEIHIN
  6
CONTINUOUS
 62
     3
 48
16.0
100
AcDbLine
 10
649.5686165114436
 20
334.9784676421622
 30
0.0
 11
647.4393165114438
 21
332.3167676421622
 31
0.0
  0
LINE
  5
3F5
330
1A
100
AcDbEntity
  8
SUNPOU
  6
CONTINUOUS
 62
     4
 48
16.0
100
AcDbLine
 10
608.9186165114435
 20
429.265695107029
 30
0.0
 11
674.9191165114437
 21
429.265695107029
 31
0.0
  0
LINE
  5
3F6
330
1A
100
AcDbEntity
  8
SUNPOU
  6
CONTINUOUS
 62
     4
 48
16.0
100
AcDbLine
 10
608.9186165114435
 20
429.265695107029
 30
0.0
 11
612.8578165114438
 21
429.960295107029
 31
0.0
  0
LINE
  5
3F7
330
1A
100
AcDbEntity
  8
SUNPOU
  6
CONTINUOUS
 62
     4
 48
16.0
100
AcDbLine
 10
608.9186165114435
 20
429.265695107029
 30
0.0
 11
612.8578165114438
 21
428.571195107029
 31
0.0
  0
TEXT
  5
3F8
330
1A
100
AcDbEntity
  8
SUNPOU
  6
CONTINUOUS
 62
     4
 48
16.0
100
AcDbText
 10
635.9189165114437
 20
431.2656951070291
 30
0.0
 40
6.0
  1
66
 41
1.2
 72
     5
 11
647.9189165114437
 21
431.2656951070291
 31
0.0
100
AcDbText
  0
LINE
  5
3F9
330
1A
100
AcDbEntity
  8
SUNPOU
  6
CONTINUOUS
 62
     4
 48
16.0
100
AcDbLine
 10
674.9191165114437
 20
429.265695107029
 30
0.0
 11
670.9798165114436
 21
429.960295107029
 31
0.0
  0
LINE
  5
3FA
330
1A
100
AcDbEntity
  8
SUNPOU
  6
CONTINUOUS
 62
     4
 48
16.0
100
AcDbLine
 10
674.9191165114437
 20
429.265695107029
 30
0.0
 11
670.9798165114436
 21
428.5710951070289
 31
0.0
  0
LINE
  5
3FB
330
1A
100
AcDbEntity
  8
SUNPOU
  6
CONTINUOUS
 62
     4
 48
16.0
100
AcDbLine
 10
674.9191165114437
 20
449.7615951070291
 30
0.0
 11
670.9798165114436
 21
449.0669951070292
 31
0.0
  0
LINE
  5
3FC
330
1A
100
AcDbEntity
  8
SUNPOU
  6
CONTINUOUS
 62
     4
 48
16.0
100
AcDbLine
 10
674.9191165114437
 20
449.7615951070291
 30
0.0
 11
670.9798165114436
 21
450.456195107029
 31
0.0
  0
LINE
  5
3FD
330
1A
100
AcDbEntity
  8
ZUWAKU
100
AcDbLine
 10
346.5743550729835
 20
23.7221364049511
 30
0.0
 11
344.5743550729835
 21
15.92023047277061
 31
0.0
  0
LINE
  5
3FE
330
1A
100
AcDbEntity
  8
ZUWAKU
100
AcDbLine
 10
342.5743550729835
 20
23.7221364049511
 30
0.0
 11
344.5743550729835
 21
15.92023047277061
 31
0.0
  0
LINE
  5
3FF
330
1A
100
AcDbEntity
  8
ZUWAKU
100
AcDbLine
 10
340.5743550729835
 20
23.72213640495111
 30
0.0
 11
340.5743550729834
 21
15.92023047277061
 31
0.0
  0
LINE
  5
400
330
1A
100
AcDbEntity
  8
ZUWAKU
100
AcDbLine
 10
339.0743550729835
 20
15.92023047277061
 30
0.0
 11
342.0743550729834
 21
15.92023047277061
 31
0.0
  0
LINE
  5
401
330
1A
100
AcDbEntity
  8
ZUWAKU
100
AcDbLine
 10
339.0743550729834
 20
23.7221364049511
 30
0.0
 11
348.0743550729834
 21
23.7221364049511
 31
0.0
  0
VIEWPORT
  5
22
330
17
100
AcDbEntity
 67
     1
  8
0
100
AcDbViewport
 10
313.6808219178082
 20
148.5
 30
0.0
 40
627.3616438356165
 41
297.0
 68
     2
 69
     1
1001
ACAD
1000
MVIEW
1002
{
1070
    16
1010
0.0
1020
0.0
1030
0.0
1010
0.0
1020
0.0
1030
1.0
1040
0.0
1040
297.0
1040
313.6808219178082
1040
148.5
1040
50.0
1040
0.0
1040
0.0
1070
     0
1070
   100
1070
     1
1070
     0
1070
     0
1070
     0
1070
     0
1070
     0
1040
0.0
1040
0.0
1040
0.0
1040
1.0
1040
1.0
1040
10.0
1040
10.0
1070
     0
1002
{
1002
}
1002
}
  0
VIEWPORT
  5
64
330
17
100
AcDbEntity
 67
     1
  8
VIEWPORT
100
AcDbViewport
 10
210.0
 20
148.5
 30
0.0
 40
420.0
 41
297.0
 68
     1
 69
     2
1001
ACAD
1000
MVIEW
1002
{
1070
    16
1010
0.0
1020
0.0
1030
0.0
1010
0.0
1020
0.0
1030
1.0
1040
0.0
1040
605.8799999999998
1040
420.0
1040
297.0
1040
50.0
1040
0.0
1040
0.0
1070
     0
1070
   100
1070
     1
1070
     0
1070
     0
1070
     0
1070
     0
1070
     0
1040
0.0
1040
0.0
1040
0.0
1040
10.0
1040
10.0
1040
0.0
1040
0.0
1070
     0
1002
{
1002
}
1002
}
  0
ENDSEC
  0
SECTION
  2
OBJECTS
  0
DICTIONARY
  5
C
330
0
100
AcDbDictionary
  3
ACAD_GROUP
350
D
  3
ACAD_LAYOUT
350
4F2
  3
ACAD_MLINESTYLE
350
E
  3
ACAD_PLOTSETTINGS
350
4F3
1001
ACAD
1000
TREAT_AS_HARD
1070
     0
  0
DICTIONARY
  5
521
330
1A
100
AcDbDictionary
  3
ACAD_LAYOUTSELFREF
350
531
1001
ACAD
1000
TREAT_AS_HARD
1070
     1
  0
DICTIONARY
  5
51F
330
17
100
AcDbDictionary
  3
ACAD_LAYOUTSELFREF
350
530
1001
ACAD
1000
TREAT_AS_HARD
1070
     1
  0
DICTIONARY
  5
D
102
{ACAD_REACTORS
330
C
102
}
330
C
100
AcDbDictionary
1001
ACAD
1000
TREAT_AS_HARD
1070
     0
  0
DICTIONARY
  5
4F2
102
{ACAD_REACTORS
330
C
102
}
330
C
100
AcDbDictionary
1001
ACAD
1000
TREAT_AS_HARD
1070
     0
  0
DICTIONARY
  5
E
102
{ACAD_REACTORS
330
C
102
}
330
C
100
AcDbDictionary
  3
STANDARD
350
13
1001
ACAD
1000
TREAT_AS_HARD
1070
     0
  0
DICTIONARY
  5
4F3
102
{ACAD_REACTORS
330
C
102
}
330
C
100
AcDbDictionary
1001
ACAD
1000
TREAT_AS_HARD
1070
     0
  0
XRECORD
  5
531
102
{ACAD_REACTORS
330
521
102
}
330
521
100
AcDbXrecord
340
1A
  0
XRECORD
  5
530
102
{ACAD_REACTORS
330
51F
102
}
330
51F
100
AcDbXrecord
340
17
  0
MLINESTYLE
  5
13
102
{ACAD_REACTORS
330
E
102
}
330
E
100
AcDbMlineStyle
  2
STANDARD
 70
     0
  3

 62
     0
 51
90.0
 52
90.0
 71
     2
 49
0.5
 62
   256
  6
BYLAYER
 49
-0.5
 62
   256
  6
BYLAYER
  0
ENDSEC
  0
EOF
