  0
SECTION
  2
HEADER
  9
$ACADVER
  1
AC1012
  9
$DWGCODEPAGE
  3
dos932
  9
$INSBASE
 10
0.0
 20
0.0
 30
0.0
  9
$EXTMIN
 10
10.05047808566086
 20
4.949376903717846
 30
0.0
  9
$EXTMAX
 10
806.2246110975902
 20
563.7825862828226
 30
0.0
  9
$LIMMIN
 10
0.0
 20
0.0
  9
$LIMMAX
 10
840.0
 20
594.0
  9
$ORTHOMODE
 70
     0
  9
$REGENMODE
 70
     1
  9
$FILLMODE
 70
     1
  9
$QTEXTMODE
 70
     0
  9
$MIRRTEXT
 70
     1
  9
$DRAGMODE
 70
     2
  9
$LTSCALE
 40
2.0
  9
$OSMODE
 70
   319
  9
$ATTMODE
 70
     1
  9
$TEXTSIZE
 40
5.0
  9
$TRACEWID
 40
1.0
  9
$TEXTSTYLE
  7
STANDARD
  9
$CLAYER
  8
ZUWAKU
  9
$CELTYPE
  6
BYLAYER
  9
$CECOLOR
 62
   256
  9
$CELTSCALE
 40
1.0
  9
$DELOBJ
 70
     1
  9
$DISPSILH
 70
     0
  9
$DIMSCALE
 40
1.0
  9
$DIMASZ
 40
7.0
  9
$DIMEXO
 40
6.0
  9
$DIMDLI
 40
14.0
  9
$DIMRND
 40
0.0
  9
$DIMDLE
 40
0.0
  9
$DIMEXE
 40
3.0
  9
$DIMTP
 40
0.0
  9
$DIMTM
 40
0.0
  9
$DIMTXT
 40
6.0
  9
$DIMCEN
 40
150.0
  9
$DIMTSZ
 40
0.0
  9
$DIMTOL
 70
     0
  9
$DIMLIM
 70
     0
  9
$DIMTIH
 70
     0
  9
$DIMTOH
 70
     0
  9
$DIMSE1
 70
     0
  9
$DIMSE2
 70
     0
  9
$DIMTAD
 70
     3
  9
$DIMZIN
 70
     0
  9
$DIMBLK
  1

  9
$DIMASO
 70
     1
  9
$DIMSHO
 70
     1
  9
$DIMPOST
  1

  9
$DIMAPOST
  1

  9
$DIMALT
 70
     0
  9
$DIMALTD
 70
     2
  9
$DIMALTF
 40
25.4
  9
$DIMLFAC
 40
1.0
  9
$DIMTOFL
 70
     1
  9
$DIMTVP
 40
0.0
  9
$DIMTIX
 70
     0
  9
$DIMSOXD
 70
     0
  9
$DIMSAH
 70
     1
  9
$DIMBLK1
  1
OPEN
  9
$DIMBLK2
  1
OPEN
  9
$DIMSTYLE
  2
STANDARD
  9
$DIMCLRD
 70
   256
  9
$DIMCLRE
 70
   256
  9
$DIMCLRT
 70
   256
  9
$DIMTFAC
 40
1.0
  9
$DIMGAP
 40
2.0
  9
$DIMJUST
 70
     0
  9
$DIMSD1
 70
     0
  9
$DIMSD2
 70
     0
  9
$DIMTOLJ
 70
     1
  9
$DIMTZIN
 70
     0
  9
$DIMALTZ
 70
     0
  9
$DIMALTTZ
 70
     0
  9
$DIMFIT
 70
     3
  9
$DIMUPT
 70
     0
  9
$DIMUNIT
 70
     2
  9
$DIMDEC
 70
     0
  9
$DIMTDEC
 70
     0
  9
$DIMALTU
 70
     2
  9
$DIMALTTD
 70
     2
  9
$DIMTXSTY
  7
STANDARD
  9
$DIMAUNIT
 70
     0
  9
$LUNITS
 70
     2
  9
$LUPREC
 70
     4
  9
$SKETCHINC
 40
1.0
  9
$FILLETRAD
 40
20.0
  9
$AUNITS
 70
     0
  9
$AUPREC
 70
     0
  9
$MENU
  1
.
  9
$ELEVATION
 40
0.0
  9
$PELEVATION
 40
0.0
  9
$THICKNESS
 40
0.0
  9
$LIMCHECK
 70
     0
  9
$BLIPMODE
 70
     0
  9
$CHAMFERA
 40
20.0
  9
$CHAMFERB
 40
20.0
  9
$CHAMFERC
 40
40.0
  9
$CHAMFERD
 40
0.0
  9
$SKPOLY
 70
     0
  9
$TDCREATE
 40
2450994.354346065
  9
$TDUPDATE
 40
2452422.704245254
  9
$TDINDWG
 40
0.0063392361
  9
$TDUSRTIMER
 40
0.0063392361
  9
$USRTIMER
 70
     1
  9
$ANGBASE
 50
0.0
  9
$ANGDIR
 70
     0
  9
$PDMODE
 70
     1
  9
$PDSIZE
 40
0.0
  9
$PLINEWID
 40
0.0
  9
$COORDS
 70
     1
  9
$SPLFRAME
 70
     0
  9
$SPLINETYPE
 70
     6
  9
$SPLINESEGS
 70
     8
  9
$ATTDIA
 70
     0
  9
$ATTREQ
 70
     1
  9
$HANDLING
 70
 10241
  9
$HANDSEED
  5
715
  9
$SURFTAB1
 70
     6
  9
$SURFTAB2
 70
     6
  9
$SURFTYPE
 70
     6
  9
$SURFU
 70
     6
  9
$SURFV
 70
     6
  9
$UCSNAME
  2

  9
$UCSORG
 10
0.0
 20
0.0
 30
0.0
  9
$UCSXDIR
 10
1.0
 20
0.0
 30
0.0
  9
$UCSYDIR
 10
0.0
 20
1.0
 30
0.0
  9
$PUCSNAME
  2

  9
$PUCSORG
 10
0.0
 20
0.0
 30
0.0
  9
$PUCSXDIR
 10
1.0
 20
0.0
 30
0.0
  9
$PUCSYDIR
 10
0.0
 20
1.0
 30
0.0
  9
$USERI1
 70
     0
  9
$USERI2
 70
     0
  9
$USERI3
 70
     0
  9
$USERI4
 70
     0
  9
$USERI5
 70
     0
  9
$USERR1
 40
0.0
  9
$USERR2
 40
0.0
  9
$USERR3
 40
0.0
  9
$USERR4
 40
0.0
  9
$USERR5
 40
0.0
  9
$WORLDVIEW
 70
     1
  9
$SHADEDGE
 70
     3
  9
$SHADEDIF
 70
    70
  9
$TILEMODE
 70
     1
  9
$MAXACTVP
 70
    16
  9
$PINSBASE
 10
0.0
 20
0.0
 30
0.0
  9
$PLIMCHECK
 70
     0
  9
$PEXTMIN
 10
0.0
 20
0.0
 30
0.0
  9
$PEXTMAX
 10
420.0
 20
297.0
 30
0.0
  9
$PLIMMIN
 10
0.0
 20
0.0
  9
$PLIMMAX
 10
420.0
 20
297.0
  9
$UNITMODE
 70
     0
  9
$VISRETAIN
 70
     0
  9
$PLINEGEN
 70
     0
  9
$PSLTSCALE
 70
     1
  9
$TREEDEPTH
 70
  3020
  9
$PICKSTYLE
 70
     1
  9
$CMLSTYLE
  2
STANDARD
  9
$CMLJUST
 70
     0
  9
$CMLSCALE
 40
1.0
  9
$SAVEIMAGES
 70
     1
  0
ENDSEC
  0
SECTION
  2
CLASSES
  0
CLASS
  1
ACDBDICTIONARYWDFLT
  2
AcDbDictionaryWithDefault
  3
AutoCAD 2000
 90
    32768
280
     0
281
     0
  0
CLASS
  1
ACDBPLACEHOLDER
  2
AcDbPlaceHolder
  3
AutoCAD 2000
 90
    32768
280
     0
281
     0
  0
CLASS
  1
LAYOUT
  2
AcDbLayout
  3
AutoCAD 2000
 90
    32768
280
     0
281
     0
  0
CLASS
  1
LONG_TRANSACTION
  2
AcDbLongTransaction
  3
AutoCAD 2000
 90
    32768
280
     0
281
     0
  0
CLASS
  1
LWPOLYLINE
  2
AcDbPolyline
  3
AutoCAD 2000
 90
    32768
280
     0
281
     1
  0
CLASS
  1
HATCH
  2
AcDbHatch
  3
AutoCAD 2000
 90
    32768
280
     0
281
     1
  0
CLASS
  1
XRECORD
  2
AcDbXrecord
  3
AutoCAD 2000
 90
    32768
280
     0
281
     0
  0
CLASS
  1
LONG_TRANSACTION
  2
AcDbLongTransaction
  3
AutoCAD 2000
 90
    32768
280
     0
281
     0
  0
CLASS
  1
LWPOLYLINE
  2
AcDbPolyline
  3
AutoCAD 2000
 90
    32768
280
     0
281
     1
  0
CLASS
  1
HATCH
  2
AcDbHatch
  3
AutoCAD 2000
 90
    32768
280
     0
281
     1
  0
CLASS
  1
XRECORD
  2
AcDbXrecord
  3
AutoCAD 2000
 90
    32768
280
     0
281
     0
  0
CLASS
  1
LONG_TRANSACTION
  2
AcDbLongTransaction
  3
AutoCAD 2000
 90
    32768
280
     0
281
     0
  0
CLASS
  1
LWPOLYLINE
  2
AcDbPolyline
  3
AutoCAD 2000
 90
    32768
280
     0
281
     1
  0
CLASS
  1
HATCH
  2
AcDbHatch
  3
AutoCAD 2000
 90
    32768
280
     0
281
     1
  0
CLASS
  1
XRECORD
  2
AcDbXrecord
  3
AutoCAD 2000
 90
    32768
280
     0
281
     0
  0
ENDSEC
  0
SECTION
  2
TABLES
  0
TABLE
  2
VPORT
  5
8
330
0
100
AcDbSymbolTable
 70
     2
  0
VPORT
  5
712
330
8
100
AcDbSymbolTableRecord
100
AcDbViewportTableRecord
  2
*ACTIVE
 70
     0
 10
0.0
 20
0.0
 11
1.0
 21
1.0
 12
415.2196456138414
 22
292.3328965179616
 13
0.0
 23
0.0
 14
5.0
 24
5.0
 15
0.0
 25
0.0
 16
0.0
 26
0.0
 36
1.0
 17
0.0
 27
0.0
 37
0.0
 40
616.7367696337167
 41
1.709909909909909
 42
50.0
 43
0.0
 44
0.0
 50
0.0
 51
0.0
 71
     0
 72
   100
 73
     1
 74
     0
 75
     0
 76
     0
 77
     0
 78
     0
  0
ENDTAB
  0
TABLE
  2
LTYPE
  5
5
330
0
100
AcDbSymbolTable
 70
     3
  0
LTYPE
  5
14
330
5
100
AcDbSymbolTableRecord
100
AcDbLinetypeTableRecord
  2
BYBLOCK
 70
     0
  3

 72
    65
 73
     0
 40
0.0
  0
LTYPE
  5
15
330
5
100
AcDbSymbolTableRecord
100
AcDbLinetypeTableRecord
  2
BYLAYER
 70
     0
  3

 72
    65
 73
     0
 40
0.0
  0
LTYPE
  5
16
330
5
100
AcDbSymbolTableRecord
100
AcDbLinetypeTableRecord
  2
CONTINUOUS
 70
     0
  3
Solid line
 72
    65
 73
     0
 40
0.0
  0
LTYPE
  5
115
330
5
100
AcDbSymbolTableRecord
100
AcDbLinetypeTableRecord
  2
PHANTOM
 70
     0
  3
______  __  __  ______  __  __  ______  __  __ 
 72
    65
 73
     6
 40
2.5
 49
1.25
 74
     0
 49
-0.25
 74
     0
 49
0.25
 74
     0
 49
-0.25
 74
     0
 49
0.25
 74
     0
 49
-0.25
 74
     0
  0
LTYPE
  5
135
330
5
100
AcDbSymbolTableRecord
100
AcDbLinetypeTableRecord
  2
CENTER
 70
     0
  3
____ _ ____ _ ____ _ ____ _ ____ _ ____ _ ____ 
 72
    65
 73
     4
 40
2.0
 49
1.25
 74
     0
 49
-0.25
 74
     0
 49
0.25
 74
     0
 49
-0.25
 74
     0
  0
ENDTAB
  0
TABLE
  2
LAYER
  5
2
330
0
100
AcDbSymbolTable
 70
     8
  0
LAYER
  5
F
330
2
100
AcDbSymbolTableRecord
100
AcDbLayerTableRecord
  2
0
 70
     0
 62
     7
  6
CONTINUOUS
  0
LAYER
  5
62
330
2
100
AcDbSymbolTableRecord
100
AcDbLayerTableRecord
  2
VIEWPORT
 70
     0
 62
     7
  6
CONTINUOUS
  0
LAYER
  5
65
330
2
100
AcDbSymbolTableRecord
100
AcDbLayerTableRecord
  2
ZUWAKU
 70
     0
 62
     7
  6
CONTINUOUS
  0
LAYER
  5
372
330
2
100
AcDbSymbolTableRecord
100
AcDbLayerTableRecord
  2
SEIHIN
 70
     0
 62
     3
  6
CONTINUOUS
  0
LAYER
  5
373
330
2
100
AcDbSymbolTableRecord
100
AcDbLayerTableRecord
  2
SUNPOU
 70
     0
 62
     4
  6
CONTINUOUS
  0
LAYER
  5
374
330
2
100
AcDbSymbolTableRecord
100
AcDbLayerTableRecord
  2
CENTER_L
 70
     0
 62
     1
  6
CENTER
  0
LAYER
  5
375
330
2
100
AcDbSymbolTableRecord
100
AcDbLayerTableRecord
  2
NOKITOI
 70
     0
 62
     8
  6
PHANTOM
  0
LAYER
  5
376
330
2
100
AcDbSymbolTableRecord
100
AcDbLayerTableRecord
  2
DEFPOINTS
 70
     0
 62
     7
  6
CONTINUOUS
  0
ENDTAB
  0
TABLE
  2
STYLE
  5
3
330
0
100
AcDbSymbolTable
 70
     1
  0
STYLE
  5
10
330
3
100
AcDbSymbolTableRecord
100
AcDbTextStyleTableRecord
  2
STANDARD
 70
     0
 40
0.0
 41
1.0
 50
0.0
 71
     0
 42
5.0
  3
TXT
  4
bigfont.shx
  0
ENDTAB
  0
TABLE
  2
VIEW
  5
6
330
0
100
AcDbSymbolTable
 70
     0
  0
ENDTAB
  0
TABLE
  2
UCS
  5
7
330
0
100
AcDbSymbolTable
 70
     0
  0
ENDTAB
  0
TABLE
  2
APPID
  5
9
330
0
100
AcDbSymbolTable
 70
     1
  0
APPID
  5
11
330
9
100
AcDbSymbolTableRecord
100
AcDbRegAppTableRecord
  2
ACAD
 70
     0
  0
ENDTAB
  0
TABLE
  2
DIMSTYLE
  5
A
330
0
100
AcDbSymbolTable
 70
     1
  0
DIMSTYLE
105
1D
102
{ACAD_REACTORS
330
496
330
4DE
330
50E
330
526
330
52F
330
531
330
539
330
53E
330
55C
330
55E
102
}
330
A
100
AcDbSymbolTableRecord
100
AcDbDimStyleTableRecord
  2
STANDARD
 70
     0
  3

  4

  5

  6

  7

 40
1.0
 41
0.18
 42
0.0625
 43
0.38
 44
0.18
 45
0.0
 46
0.0
 47
0.0
 48
0.0
140
0.18
141
0.09
142
0.0
143
25.4
144
1.0
145
0.0
146
1.0
147
0.09
 71
     0
 72
     0
 73
     1
 74
     1
 75
     0
 76
     0
 77
     0
 78
     0
170
     0
171
     2
172
     0
173
     0
174
     0
175
     0
176
     0
177
     0
178
     0
270
     2
271
     4
272
     4
273
     2
274
     2
340
10
275
     0
280
     0
281
     0
282
     0
283
     1
284
     0
285
     0
286
     0
287
     3
288
     0
  0
ENDTAB
  0
TABLE
  2
BLOCK_RECORD
  5
1
330
0
100
AcDbSymbolTable
 70
    11
  0
BLOCK_RECORD
  5
1A
102
{ACAD_XDICTIONARY
360
6D0
102
}
330
1
100
AcDbSymbolTableRecord
100
AcDbBlockTableRecord
  2
*MODEL_SPACE
  0
BLOCK_RECORD
  5
17
102
{ACAD_XDICTIONARY
360
6CE
102
}
330
1
100
AcDbSymbolTableRecord
100
AcDbBlockTableRecord
  2
*PAPER_SPACE
  0
BLOCK_RECORD
  5
6D
330
1
100
AcDbSymbolTableRecord
100
AcDbBlockTableRecord
  2
_OPEN
  0
BLOCK_RECORD
  5
5B1
330
1
100
AcDbSymbolTableRecord
100
AcDbBlockTableRecord
  2
*D1
  0
BLOCK_RECORD
  5
5BD
330
1
100
AcDbSymbolTableRecord
100
AcDbBlockTableRecord
  2
*D2
  0
BLOCK_RECORD
  5
5C9
330
1
100
AcDbSymbolTableRecord
100
AcDbBlockTableRecord
  2
*D3
  0
BLOCK_RECORD
  5
5D5
330
1
100
AcDbSymbolTableRecord
100
AcDbBlockTableRecord
  2
*D4
  0
BLOCK_RECORD
  5
5E1
330
1
100
AcDbSymbolTableRecord
100
AcDbBlockTableRecord
  2
*D5
  0
BLOCK_RECORD
  5
5ED
330
1
100
AcDbSymbolTableRecord
100
AcDbBlockTableRecord
  2
*D6
  0
BLOCK_RECORD
  5
5FB
330
1
100
AcDbSymbolTableRecord
100
AcDbBlockTableRecord
  2
*D7
  0
BLOCK_RECORD
  5
608
330
1
100
AcDbSymbolTableRecord
100
AcDbBlockTableRecord
  2
*D8
  0
BLOCK_RECORD
  5
614
330
1
100
AcDbSymbolTableRecord
100
AcDbBlockTableRecord
  2
*D9
  0
BLOCK_RECORD
  5
620
330
1
100
AcDbSymbolTableRecord
100
AcDbBlockTableRecord
  2
*D10
  0
ENDTAB
  0
ENDSEC
  0
SECTION
  2
BLOCKS
  0
BLOCK
  5
1B
330
1A
100
AcDbEntity
  8
0
100
AcDbBlockBegin
  2
*MODEL_SPACE
 70
     0
 10
0.0
 20
0.0
 30
0.0
  3
*MODEL_SPACE
  1

  0
ENDBLK
  5
1C
330
1A
100
AcDbEntity
  8
0
100
AcDbBlockEnd
  0
BLOCK
  5
18
330
17
100
AcDbEntity
 67
     1
  8
0
100
AcDbBlockBegin
  2
*PAPER_SPACE
 70
     0
 10
0.0
 20
0.0
 30
0.0
  3
*PAPER_SPACE
  1

  0
ENDBLK
  5
19
330
17
100
AcDbEntity
 67
     1
  8
0
100
AcDbBlockEnd
  0
BLOCK
  5
6E
330
6D
100
AcDbEntity
  8
0
100
AcDbBlockBegin
  2
_OPEN
 70
     0
 10
0.0
 20
0.0
 30
0.0
  3
_OPEN
  1

  0
LINE
  5
6F
330
6D
100
AcDbEntity
  8
0
  6
BYBLOCK
 62
     0
100
AcDbLine
 10
-1.0
 20
0.1666666666666666
 30
0.0
 11
0.0
 21
0.0
 31
0.0
  0
LINE
  5
70
330
6D
100
AcDbEntity
  8
0
  6
BYBLOCK
 62
     0
100
AcDbLine
 10
0.0
 20
0.0
 30
0.0
 11
-1.0
 21
-0.1666666666666666
 31
0.0
  0
LINE
  5
71
330
6D
100
AcDbEntity
  8
0
  6
BYBLOCK
 62
     0
100
AcDbLine
 10
0.0
 20
0.0
 30
0.0
 11
-1.0
 21
0.0
 31
0.0
  0
ENDBLK
  5
72
330
6D
100
AcDbEntity
  8
0
100
AcDbBlockEnd
  0
BLOCK
  5
62C
330
5B1
100
AcDbEntity
  8
0
100
AcDbBlockBegin
  2
*D1
 70
     1
 10
0.0
 20
0.0
 30
0.0
  3
*D1
  1

  0
LINE
  5
62D
330
5B1
100
AcDbEntity
  8
0
  6
BYBLOCK
 62
     4
100
AcDbLine
 10
428.7745125708648
 20
444.8694245778309
 30
0.0
 11
373.782274831443
 21
444.8694245778309
 31
0.0
  0
LINE
  5
62E
330
5B1
100
AcDbEntity
  8
0
  6
BYBLOCK
 62
     4
100
AcDbLine
 10
547.0745125708647
 20
185.8694245778311
 30
0.0
 11
373.782274831443
 21
185.8694245778311
 31
0.0
  0
LINE
  5
62F
330
5B1
100
AcDbEntity
  8
0
  6
BYBLOCK
 62
     4
100
AcDbLine
 10
376.782274831443
 20
437.869424577831
 30
0.0
 11
376.782274831443
 21
192.869424577831
 31
0.0
  0
INSERT
  5
630
330
5B1
100
AcDbEntity
  8
0
  6
BYBLOCK
 62
     4
100
AcDbBlockReference
  2
_OPEN
 10
376.782274831443
 20
444.8694245778309
 30
0.0
 41
7.0
 42
7.0
 43
7.0
 50
90.0
  0
INSERT
  5
631
330
5B1
100
AcDbEntity
  8
0
  6
BYBLOCK
 62
     4
100
AcDbBlockReference
  2
_OPEN
 10
376.782274831443
 20
185.8694245778311
 30
0.0
 41
7.0
 42
7.0
 43
7.0
 50
270.0
  0
MTEXT
  5
632
330
5B1
100
AcDbEntity
  8
0
  6
BYBLOCK
 62
     4
100
AcDbMText
 10
371.782274831443
 20
315.369424577831
 30
0.0
 40
6.0
 41
0.0
 71
     5
 72
     1
  1
\A1;259
 11
0.0
 21
1.0
 31
0.0
1001
ACAD
1000
MTEXTBEGIN
1070
    73
1070
     1
1070
    44
1040
1.0
1070
    74
1070
     0
1000
MTEXTEND
1000
MTEXTBEGIN
1070
    73
1070
     1
1070
    44
1040
1.0
1070
    74
1070
     0
1000
MTEXTEND
1000
MTEXTBEGIN
1070
    73
1070
     1
1070
    44
1040
1.0
1070
    74
1070
     0
1000
MTEXTEND
  0
POINT
  5
633
330
5B1
100
AcDbEntity
  8
DEFPOINTS
  6
BYBLOCK
 62
     0
100
AcDbPoint
 10
434.7745125708648
 20
444.8694245778309
 30
0.0
  0
POINT
  5
634
330
5B1
100
AcDbEntity
  8
DEFPOINTS
  6
BYBLOCK
 62
     0
100
AcDbPoint
 10
553.0745125708647
 20
185.8694245778311
 30
0.0
  0
POINT
  5
635
330
5B1
100
AcDbEntity
  8
DEFPOINTS
  6
BYBLOCK
 62
     0
100
AcDbPoint
 10
376.782274831443
 20
185.8694245778311
 30
0.0
  0
ENDBLK
  5
636
330
5B1
100
AcDbEntity
  8
0
100
AcDbBlockEnd
  0
BLOCK
  5
637
330
5BD
100
AcDbEntity
  8
0
100
AcDbBlockBegin
  2
*D2
 70
     1
 10
0.0
 20
0.0
 30
0.0
  3
*D2
  1

  0
LINE
  5
638
330
5BD
100
AcDbEntity
  8
0
  6
BYBLOCK
 62
     4
100
AcDbLine
 10
72.26030551437069
 20
430.2051680722621
 30
0.0
 11
72.26030551437069
 21
490.4890371849166
 31
0.0
  0
LINE
  5
639
330
5BD
100
AcDbEntity
  8
0
  6
BYBLOCK
 62
     4
100
AcDbLine
 10
319.2603855143707
 20
430.2047680722623
 30
0.0
 11
319.2603855143707
 21
490.4890371849166
 31
0.0
  0
LINE
  5
63A
330
5BD
100
AcDbEntity
  8
0
  6
BYBLOCK
 62
     4
100
AcDbLine
 10
79.26030551437069
 20
487.4890371849166
 30
0.0
 11
312.2603855143706
 21
487.4890371849166
 31
0.0
  0
INSERT
  5
63B
330
5BD
100
AcDbEntity
  8
0
  6
BYBLOCK
 62
     4
100
AcDbBlockReference
  2
_OPEN
 10
72.26030551437069
 20
487.4890371849166
 30
0.0
 41
7.0
 42
7.0
 43
7.0
 50
180.0
  0
INSERT
  5
63C
330
5BD
100
AcDbEntity
  8
0
  6
BYBLOCK
 62
     4
100
AcDbBlockReference
  2
_OPEN
 10
319.2603855143707
 20
487.4890371849166
 30
0.0
 41
7.0
 42
7.0
 43
7.0
  0
MTEXT
  5
63D
330
5BD
100
AcDbEntity
  8
0
  6
BYBLOCK
 62
     4
100
AcDbMText
 10
195.7603455143706
 20
492.4890371849166
 30
0.0
 40
6.0
 41
0.0
 71
     5
 72
     1
  1
\A1;247
1001
ACAD
1000
MTEXTBEGIN
1070
    73
1070
     1
1070
    44
1040
1.0
1070
    74
1070
     0
1000
MTEXTEND
1000
MTEXTBEGIN
1070
    73
1070
     1
1070
    44
1040
1.0
1070
    74
1070
     0
1000
MTEXTEND
1000
MTEXTBEGIN
1070
    73
1070
     1
1070
    44
1040
1.0
1070
    74
1070
     0
1000
MTEXTEND
  0
POINT
  5
63E
330
5BD
100
AcDbEntity
  8
DEFPOINTS
  6
BYBLOCK
 62
     0
100
AcDbPoint
 10
72.26030551437069
 20
424.2051680722621
 30
0.0
  0
POINT
  5
63F
330
5BD
100
AcDbEntity
  8
DEFPOINTS
  6
BYBLOCK
 62
     0
100
AcDbPoint
 10
319.2603855143707
 20
424.2047680722623
 30
0.0
  0
POINT
  5
640
330
5BD
100
AcDbEntity
  8
DEFPOINTS
  6
BYBLOCK
 62
     0
100
AcDbPoint
 10
319.2603855143707
 20
487.4890371849166
 30
0.0
  0
ENDBLK
  5
641
330
5BD
100
AcDbEntity
  8
0
100
AcDbBlockEnd
  0
BLOCK
  5
642
330
5C9
100
AcDbEntity
  8
0
100
AcDbBlockBegin
  2
*D3
 70
     1
 10
0.0
 20
0.0
 30
0.0
  3
*D3
  1

  0
LINE
  5
643
330
5C9
100
AcDbEntity
  8
0
  6
BYBLOCK
 62
     4
100
AcDbLine
 10
165.7603511310443
 20
447.5381872382905
 30
0.0
 11
165.7603511310443
 21
467.9513412102846
 31
0.0
  0
LINE
  5
644
330
5C9
100
AcDbEntity
  8
0
  6
BYBLOCK
 62
     4
100
AcDbLine
 10
225.7603511309937
 20
447.5381044618957
 30
0.0
 11
225.7603511309937
 21
467.9513412102846
 31
0.0
  0
LINE
  5
645
330
5C9
100
AcDbEntity
  8
0
  6
BYBLOCK
 62
     4
100
AcDbLine
 10
172.7603511310443
 20
464.9513412102846
 30
0.0
 11
218.7603511309937
 21
464.9513412102846
 31
0.0
  0
INSERT
  5
646
330
5C9
100
AcDbEntity
  8
0
  6
BYBLOCK
 62
     4
100
AcDbBlockReference
  2
_OPEN
 10
165.7603511310443
 20
464.9513412102846
 30
0.0
 41
7.0
 42
7.0
 43
7.0
 50
180.0
  0
INSERT
  5
647
330
5C9
100
AcDbEntity
  8
0
  6
BYBLOCK
 62
     4
100
AcDbBlockReference
  2
_OPEN
 10
225.7603511309937
 20
464.9513412102846
 30
0.0
 41
7.0
 42
7.0
 43
7.0
  0
MTEXT
  5
648
330
5C9
100
AcDbEntity
  8
0
  6
BYBLOCK
 62
     4
100
AcDbMText
 10
195.760351131019
 20
469.9513412102846
 30
0.0
 40
6.0
 41
0.0
 71
     5
 72
     1
  1
\A1;※a60
1001
ACAD
1000
MTEXTBEGIN
1070
    73
1070
     1
1070
    44
1040
1.0
1070
    74
1070
     0
1000
MTEXTEND
1000
MTEXTBEGIN
1070
    73
1070
     1
1070
    44
1040
1.0
1070
    74
1070
     0
1000
MTEXTEND
1000
MTEXTBEGIN
1070
    73
1070
     1
1070
    44
1040
1.0
1070
    74
1070
     0
1000
MTEXTEND
  0
POINT
  5
649
330
5C9
100
AcDbEntity
  8
DEFPOINTS
  6
BYBLOCK
 62
     0
100
AcDbPoint
 10
165.7603511310443
 20
441.5381872382906
 30
0.0
  0
POINT
  5
64A
330
5C9
100
AcDbEntity
  8
DEFPOINTS
  6
BYBLOCK
 62
     0
100
AcDbPoint
 10
225.7603511309937
 20
441.5381044618956
 30
0.0
  0
POINT
  5
64B
330
5C9
100
AcDbEntity
  8
DEFPOINTS
  6
BYBLOCK
 62
     0
100
AcDbPoint
 10
225.7603511309937
 20
464.9513412102846
 30
0.0
  0
ENDBLK
  5
64C
330
5C9
100
AcDbEntity
  8
0
100
AcDbBlockEnd
  0
BLOCK
  5
64D
330
5D5
100
AcDbEntity
  8
0
100
AcDbBlockBegin
  2
*D4
 70
     1
 10
0.0
 20
0.0
 30
0.0
  3
*D4
  1

  0
LINE
  5
64E
330
5D5
100
AcDbEntity
  8
0
  6
BYBLOCK
 62
     4
100
AcDbLine
 10
661.2744125708648
 20
376.8692245778311
 30
0.0
 11
687.3115552297392
 21
376.8692245778311
 31
0.0
  0
LINE
  5
64F
330
5D5
100
AcDbEntity
  8
0
  6
BYBLOCK
 62
     4
100
AcDbLine
 10
595.2743125708648
 20
314.5691944554942
 30
0.0
 11
687.3115552297392
 21
314.5691944554942
 31
0.0
  0
LINE
  5
650
330
5D5
100
AcDbEntity
  8
0
  6
BYBLOCK
 62
     4
100
AcDbLine
 10
684.3115552297391
 20
369.8692245778311
 30
0.0
 11
684.3115552297391
 21
321.5691944554942
 31
0.0
  0
INSERT
  5
651
330
5D5
100
AcDbEntity
  8
0
  6
BYBLOCK
 62
     4
100
AcDbBlockReference
  2
_OPEN
 10
684.3115552297391
 20
376.8692245778311
 30
0.0
 41
7.0
 42
7.0
 43
7.0
 50
90.0
  0
INSERT
  5
652
330
5D5
100
AcDbEntity
  8
0
  6
BYBLOCK
 62
     4
100
AcDbBlockReference
  2
_OPEN
 10
684.3115552297391
 20
314.5691944554942
 30
0.0
 41
7.0
 42
7.0
 43
7.0
 50
270.0
  0
MTEXT
  5
653
330
5D5
100
AcDbEntity
  8
0
  6
BYBLOCK
 62
     4
100
AcDbMText
 10
679.3115552297392
 20
345.7192095166626
 30
0.0
 40
6.0
 41
0.0
 71
     5
 72
     1
  1
\A1;62
 11
0.0
 21
1.0
 31
0.0
1001
ACAD
1000
MTEXTBEGIN
1070
    73
1070
     1
1070
    44
1040
1.0
1070
    74
1070
     0
1000
MTEXTEND
1000
MTEXTBEGIN
1070
    73
1070
     1
1070
    44
1040
1.0
1070
    74
1070
     0
1000
MTEXTEND
1000
MTEXTBEGIN
1070
    73
1070
     1
1070
    44
1040
1.0
1070
    74
1070
     0
1000
MTEXTEND
  0
POINT
  5
654
330
5D5
100
AcDbEntity
  8
DEFPOINTS
  6
BYBLOCK
 62
     0
100
AcDbPoint
 10
655.2744125708648
 20
376.8692245778311
 30
0.0
  0
POINT
  5
655
330
5D5
100
AcDbEntity
  8
DEFPOINTS
  6
BYBLOCK
 62
     0
100
AcDbPoint
 10
589.2743125708648
 20
314.5691944554942
 30
0.0
  0
POINT
  5
656
330
5D5
100
AcDbEntity
  8
DEFPOINTS
  6
BYBLOCK
 62
     0
100
AcDbPoint
 10
684.3115552297391
 20
314.5691944554942
 30
0.0
  0
ENDBLK
  5
657
330
5D5
100
AcDbEntity
  8
0
100
AcDbBlockEnd
  0
BLOCK
  5
658
330
5E1
100
AcDbEntity
  8
0
100
AcDbBlockBegin
  2
*D5
 70
     1
 10
0.0
 20
0.0
 30
0.0
  3
*D5
  1

  0
LINE
  5
659
330
5E1
100
AcDbEntity
  8
0
  6
BYBLOCK
 62
     4
100
AcDbLine
 10
428.7745125708648
 20
444.8694245778309
 30
0.0
 11
396.6221918015545
 21
444.8694245778309
 31
0.0
  0
LINE
  5
65A
330
5E1
100
AcDbEntity
  8
0
  6
BYBLOCK
 62
     4
100
AcDbLine
 10
537.524512570865
 20
226.869324577831
 30
0.0
 11
396.6221918015545
 21
226.869324577831
 31
0.0
  0
LINE
  5
65B
330
5E1
100
AcDbEntity
  8
0
  6
BYBLOCK
 62
     4
100
AcDbLine
 10
399.6221918015545
 20
437.869424577831
 30
0.0
 11
399.6221918015545
 21
233.8693245778311
 31
0.0
  0
INSERT
  5
65C
330
5E1
100
AcDbEntity
  8
0
  6
BYBLOCK
 62
     4
100
AcDbBlockReference
  2
_OPEN
 10
399.6221918015545
 20
444.8694245778309
 30
0.0
 41
7.0
 42
7.0
 43
7.0
 50
90.0
  0
INSERT
  5
65D
330
5E1
100
AcDbEntity
  8
0
  6
BYBLOCK
 62
     4
100
AcDbBlockReference
  2
_OPEN
 10
399.6221918015545
 20
226.869324577831
 30
0.0
 41
7.0
 42
7.0
 43
7.0
 50
270.0
  0
MTEXT
  5
65E
330
5E1
100
AcDbEntity
  8
0
  6
BYBLOCK
 62
     4
100
AcDbMText
 10
394.6221918015545
 20
335.869374577831
 30
0.0
 40
6.0
 41
0.0
 71
     5
 72
     1
  1
\A1;218
 11
0.0
 21
1.0
 31
0.0
1001
ACAD
1000
MTEXTBEGIN
1070
    73
1070
     1
1070
    44
1040
1.0
1070
    74
1070
     0
1000
MTEXTEND
1000
MTEXTBEGIN
1070
    73
1070
     1
1070
    44
1040
1.0
1070
    74
1070
     0
1000
MTEXTEND
1000
MTEXTBEGIN
1070
    73
1070
     1
1070
    44
1040
1.0
1070
    74
1070
     0
1000
MTEXTEND
  0
POINT
  5
65F
330
5E1
100
AcDbEntity
  8
DEFPOINTS
  6
BYBLOCK
 62
     0
100
AcDbPoint
 10
434.7745125708648
 20
444.8694245778309
 30
0.0
  0
POINT
  5
660
330
5E1
100
AcDbEntity
  8
DEFPOINTS
  6
BYBLOCK
 62
     0
100
AcDbPoint
 10
543.5245125708649
 20
226.869324577831
 30
0.0
  0
POINT
  5
661
330
5E1
100
AcDbEntity
  8
DEFPOINTS
  6
BYBLOCK
 62
     0
100
AcDbPoint
 10
399.6221918015545
 20
226.869324577831
 30
0.0
  0
ENDBLK
  5
662
330
5E1
100
AcDbEntity
  8
0
100
AcDbBlockEnd
  0
BLOCK
  5
663
330
5ED
100
AcDbEntity
  8
0
100
AcDbBlockBegin
  2
*D6
 70
     1
 10
0.0
 20
0.0
 30
0.0
  3
*D6
  1

  0
LINE
  5
664
330
5ED
100
AcDbEntity
  8
0
  6
BYBLOCK
 62
     4
100
AcDbLine
 10
635.6744125708648
 20
198.869224577831
 30
0.0
 11
673.1561657099824
 21
198.869224577831
 31
0.0
  0
LINE
  5
665
330
5ED
100
AcDbEntity
  8
0
  6
BYBLOCK
 62
     4
100
AcDbLine
 10
641.2743485708094
 20
210.8692107166743
 30
0.0
 11
673.1561657099824
 21
210.8692107166743
 31
0.0
  0
LINE
  5
666
330
5ED
100
AcDbEntity
  8
0
  6
BYBLOCK
 62
     4
100
AcDbLine
 10
670.1561657099825
 20
191.8692245778309
 30
0.0
 11
670.1561657099825
 21
184.869224577831
 31
0.0
  0
LINE
  5
667
330
5ED
100
AcDbEntity
  8
0
  6
BYBLOCK
 62
     4
100
AcDbLine
 10
670.1561657099825
 20
217.8692107166743
 30
0.0
 11
670.1561657099825
 21
253.6692107166743
 31
0.0
  0
LINE
  5
668
330
5ED
100
AcDbEntity
  8
0
  6
BYBLOCK
 62
     4
100
AcDbLine
 10
670.1561657099825
 20
198.869224577831
 30
0.0
 11
670.1561657099825
 21
210.8692107166743
 31
0.0
  0
INSERT
  5
669
330
5ED
100
AcDbEntity
  8
0
  6
BYBLOCK
 62
     4
100
AcDbBlockReference
  2
_OPEN
 10
670.1561657099825
 20
198.869224577831
 30
0.0
 41
7.0
 42
7.0
 43
7.0
 50
90.0
  0
INSERT
  5
66A
330
5ED
100
AcDbEntity
  8
0
  6
BYBLOCK
 62
     4
100
AcDbBlockReference
  2
_OPEN
 10
670.1561657099825
 20
210.8692107166743
 30
0.0
 41
7.0
 42
7.0
 43
7.0
 50
270.0
  0
MTEXT
  5
66B
330
5ED
100
AcDbEntity
  8
0
  6
BYBLOCK
 62
     4
100
AcDbMText
 10
665.1561657099825
 20
239.2692107166743
 30
0.0
 40
6.0
 41
0.0
 71
     5
 72
     1
  1
\A1;※b 12
 11
0.0
 21
1.0
 31
0.0
1001
ACAD
1000
MTEXTBEGIN
1070
    73
1070
     1
1070
    44
1040
1.0
1070
    74
1070
     0
1000
MTEXTEND
1000
MTEXTBEGIN
1070
    73
1070
     1
1070
    44
1040
1.0
1070
    74
1070
     0
1000
MTEXTEND
1000
MTEXTBEGIN
1070
    73
1070
     1
1070
    44
1040
1.0
1070
    74
1070
     0
1000
MTEXTEND
  0
POINT
  5
66C
330
5ED
100
AcDbEntity
  8
DEFPOINTS
  6
BYBLOCK
 62
     0
100
AcDbPoint
 10
629.6744125708649
 20
198.869224577831
 30
0.0
  0
POINT
  5
66D
330
5ED
100
AcDbEntity
  8
DEFPOINTS
  6
BYBLOCK
 62
     0
100
AcDbPoint
 10
635.2743485708093
 20
210.8692107166743
 30
0.0
  0
POINT
  5
66E
330
5ED
100
AcDbEntity
  8
DEFPOINTS
  6
BYBLOCK
 62
     0
100
AcDbPoint
 10
670.1561657099825
 20
210.8692107166743
 30
0.0
  0
ENDBLK
  5
66F
330
5ED
100
AcDbEntity
  8
0
100
AcDbBlockEnd
  0
BLOCK
  5
670
330
5FB
100
AcDbEntity
  8
0
100
AcDbBlockBegin
  2
*D7
 70
     1
 10
0.0
 20
0.0
 30
0.0
  3
*D7
  1

  0
LINE
  5
671
330
5FB
100
AcDbEntity
  8
0
  6
BYBLOCK
 62
     4
100
AcDbLine
 10
542.8743125708647
 20
198.8695245778311
 30
0.0
 11
396.6221918015545
 21
198.8695245778311
 31
0.0
  0
LINE
  5
672
330
5FB
100
AcDbEntity
  8
0
  6
BYBLOCK
 62
     4
100
AcDbLine
 10
399.6221918015545
 20
233.8693245778311
 30
0.0
 11
399.6221918015545
 21
240.8693245778311
 31
0.0
  0
LINE
  5
673
330
5FB
100
AcDbEntity
  8
0
  6
BYBLOCK
 62
     4
100
AcDbLine
 10
399.6221918015545
 20
191.8695245778311
 30
0.0
 11
399.6221918015545
 21
184.869524577831
 31
0.0
  0
LINE
  5
674
330
5FB
100
AcDbEntity
  8
0
  6
BYBLOCK
 62
     4
100
AcDbLine
 10
399.6221918015545
 20
226.869324577831
 30
0.0
 11
399.6221918015545
 21
198.8695245778311
 31
0.0
  0
INSERT
  5
675
330
5FB
100
AcDbEntity
  8
0
  6
BYBLOCK
 62
     4
100
AcDbBlockReference
  2
_OPEN
 10
399.6221918015545
 20
226.869324577831
 30
0.0
 41
7.0
 42
7.0
 43
7.0
 50
270.0
  0
INSERT
  5
676
330
5FB
100
AcDbEntity
  8
0
  6
BYBLOCK
 62
     4
100
AcDbBlockReference
  2
_OPEN
 10
399.6221918015545
 20
198.8695245778311
 30
0.0
 41
7.0
 42
7.0
 43
7.0
 50
90.0
  0
MTEXT
  5
677
330
5FB
100
AcDbEntity
  8
0
  6
BYBLOCK
 62
     4
100
AcDbMText
 10
394.6221918015545
 20
212.869424577831
 30
0.0
 40
6.0
 41
0.0
 71
     5
 72
     1
  1
\A1;28
 11
0.0
 21
1.0
 31
0.0
1001
ACAD
1000
MTEXTBEGIN
1070
    73
1070
     1
1070
    44
1040
1.0
1070
    74
1070
     0
1000
MTEXTEND
1000
MTEXTBEGIN
1070
    73
1070
     1
1070
    44
1040
1.0
1070
    74
1070
     0
1000
MTEXTEND
1000
MTEXTBEGIN
1070
    73
1070
     1
1070
    44
1040
1.0
1070
    74
1070
     0
1000
MTEXTEND
  0
POINT
  5
678
330
5FB
100
AcDbEntity
  8
DEFPOINTS
  6
BYBLOCK
 62
     0
100
AcDbPoint
 10
543.5245125708649
 20
226.869324577831
 30
0.0
  0
POINT
  5
679
330
5FB
100
AcDbEntity
  8
DEFPOINTS
  6
BYBLOCK
 62
     0
100
AcDbPoint
 10
548.8743125708647
 20
198.8695245778311
 30
0.0
  0
POINT
  5
67A
330
5FB
100
AcDbEntity
  8
DEFPOINTS
  6
BYBLOCK
 62
     0
100
AcDbPoint
 10
399.6221918015545
 20
198.8695245778311
 30
0.0
  0
ENDBLK
  5
67B
330
5FB
100
AcDbEntity
  8
0
100
AcDbBlockEnd
  0
BLOCK
  5
67C
330
608
100
AcDbEntity
  8
0
100
AcDbBlockBegin
  2
*D8
 70
     1
 10
0.0
 20
0.0
 30
0.0
  3
*D8
  1

  0
LINE
  5
67D
330
608
100
AcDbEntity
  8
0
  6
BYBLOCK
 62
     4
100
AcDbLine
 10
625.4743125708649
 20
179.8693245778309
 30
0.0
 11
625.4743125708649
 21
152.5344373726134
 31
0.0
  0
LINE
  5
67E
330
608
100
AcDbEntity
  8
0
  6
BYBLOCK
 62
     4
100
AcDbLine
 10
553.0745125708647
 20
179.8694245778311
 30
0.0
 11
553.0745125708647
 21
152.5344373726134
 31
0.0
  0
LINE
  5
67F
330
608
100
AcDbEntity
  8
0
  6
BYBLOCK
 62
     4
100
AcDbLine
 10
618.4743125708648
 20
155.5344373726134
 30
0.0
 11
560.0745125708647
 21
155.5344373726134
 31
0.0
  0
INSERT
  5
680
330
608
100
AcDbEntity
  8
0
  6
BYBLOCK
 62
     4
100
AcDbBlockReference
  2
_OPEN
 10
625.4743125708649
 20
155.5344373726134
 30
0.0
 41
7.0
 42
7.0
 43
7.0
  0
INSERT
  5
681
330
608
100
AcDbEntity
  8
0
  6
BYBLOCK
 62
     4
100
AcDbBlockReference
  2
_OPEN
 10
553.0745125708647
 20
155.5344373726134
 30
0.0
 41
7.0
 42
7.0
 43
7.0
 50
180.0
  0
MTEXT
  5
682
330
608
100
AcDbEntity
  8
0
  6
BYBLOCK
 62
     4
100
AcDbMText
 10
589.2744125708648
 20
160.5344373726134
 30
0.0
 40
6.0
 41
0.0
 71
     5
 72
     1
  1
\A1;φ72
1001
ACAD
1000
MTEXTBEGIN
1070
    73
1070
     1
1070
    44
1040
1.0
1070
    74
1070
     0
1000
MTEXTEND
1000
MTEXTBEGIN
1070
    73
1070
     1
1070
    44
1040
1.0
1070
    74
1070
     0
1000
MTEXTEND
1000
MTEXTBEGIN
1070
    73
1070
     1
1070
    44
1040
1.0
1070
    74
1070
     0
1000
MTEXTEND
  0
POINT
  5
683
330
608
100
AcDbEntity
  8
DEFPOINTS
  6
BYBLOCK
 62
     0
100
AcDbPoint
 10
625.4743125708649
 20
185.869324577831
 30
0.0
  0
POINT
  5
684
330
608
100
AcDbEntity
  8
DEFPOINTS
  6
BYBLOCK
 62
     0
100
AcDbPoint
 10
553.0745125708647
 20
185.8694245778311
 30
0.0
  0
POINT
  5
685
330
608
100
AcDbEntity
  8
DEFPOINTS
  6
BYBLOCK
 62
     0
100
AcDbPoint
 10
553.0745125708647
 20
155.5344373726134
 30
0.0
  0
ENDBLK
  5
686
330
608
100
AcDbEntity
  8
0
100
AcDbBlockEnd
  0
BLOCK
  5
687
330
614
100
AcDbEntity
  8
0
100
AcDbBlockBegin
  2
*D9
 70
     1
 10
0.0
 20
0.0
 30
0.0
  3
*D9
  1

  0
LINE
  5
688
330
614
100
AcDbEntity
  8
0
  6
BYBLOCK
 62
     4
100
AcDbLine
 10
655.2744125708648
 20
382.8692245778311
 30
0.0
 11
655.2744125708648
 21
490.3238970231474
 31
0.0
  0
LINE
  5
689
330
614
100
AcDbEntity
  8
0
  6
BYBLOCK
 62
     4
100
AcDbLine
 10
434.7745125708648
 20
450.8694245778309
 30
0.0
 11
434.7745125708648
 21
490.3238970231474
 31
0.0
  0
LINE
  5
68A
330
614
100
AcDbEntity
  8
0
  6
BYBLOCK
 62
     4
100
AcDbLine
 10
648.2744125708648
 20
487.3238970231474
 30
0.0
 11
441.7745125708648
 21
487.3238970231474
 31
0.0
  0
INSERT
  5
68B
330
614
100
AcDbEntity
  8
0
  6
BYBLOCK
 62
     4
100
AcDbBlockReference
  2
_OPEN
 10
655.2744125708648
 20
487.3238970231474
 30
0.0
 41
7.0
 42
7.0
 43
7.0
  0
INSERT
  5
68C
330
614
100
AcDbEntity
  8
0
  6
BYBLOCK
 62
     4
100
AcDbBlockReference
  2
_OPEN
 10
434.7745125708648
 20
487.3238970231474
 30
0.0
 41
7.0
 42
7.0
 43
7.0
 50
180.0
  0
MTEXT
  5
68D
330
614
100
AcDbEntity
  8
0
  6
BYBLOCK
 62
     4
100
AcDbMText
 10
545.0244625708648
 20
492.3238970231474
 30
0.0
 40
6.0
 41
0.0
 71
     5
 72
     1
  1
\A1;220
1001
ACAD
1000
MTEXTBEGIN
1070
    73
1070
     1
1070
    44
1040
1.0
1070
    74
1070
     0
1000
MTEXTEND
1000
MTEXTBEGIN
1070
    73
1070
     1
1070
    44
1040
1.0
1070
    74
1070
     0
1000
MTEXTEND
1000
MTEXTBEGIN
1070
    73
1070
     1
1070
    44
1040
1.0
1070
    74
1070
     0
1000
MTEXTEND
  0
POINT
  5
68E
330
614
100
AcDbEntity
  8
DEFPOINTS
  6
BYBLOCK
 62
     0
100
AcDbPoint
 10
655.2744125708648
 20
376.8692245778311
 30
0.0
  0
POINT
  5
68F
330
614
100
AcDbEntity
  8
DEFPOINTS
  6
BYBLOCK
 62
     0
100
AcDbPoint
 10
434.7745125708648
 20
444.8694245778309
 30
0.0
  0
POINT
  5
690
330
614
100
AcDbEntity
  8
DEFPOINTS
  6
BYBLOCK
 62
     0
100
AcDbPoint
 10
434.7745125708648
 20
487.3238970231474
 30
0.0
  0
ENDBLK
  5
691
330
614
100
AcDbEntity
  8
0
100
AcDbBlockEnd
  0
BLOCK
  5
692
330
620
100
AcDbEntity
  8
0
100
AcDbBlockBegin
  2
*D10
 70
     1
 10
0.0
 20
0.0
 30
0.0
  3
*D10
  1

  0
LINE
  5
693
330
620
100
AcDbEntity
  8
0
  6
BYBLOCK
 62
     4
100
AcDbLine
 10
655.2744125708648
 20
382.8692245778311
 30
0.0
 11
655.2744125708648
 21
434.9434199374277
 31
0.0
  0
LINE
  5
694
330
620
100
AcDbEntity
  8
0
  6
BYBLOCK
 62
     4
100
AcDbLine
 10
589.2743125708648
 20
380.569224577831
 30
0.0
 11
589.2743125708648
 21
434.9434199374277
 31
0.0
  0
LINE
  5
695
330
620
100
AcDbEntity
  8
0
  6
BYBLOCK
 62
     4
100
AcDbLine
 10
648.2744125708648
 20
431.9434199374277
 30
0.0
 11
596.2743125708648
 21
431.9434199374277
 31
0.0
  0
INSERT
  5
696
330
620
100
AcDbEntity
  8
0
  6
BYBLOCK
 62
     4
100
AcDbBlockReference
  2
_OPEN
 10
655.2744125708648
 20
431.9434199374277
 30
0.0
 41
7.0
 42
7.0
 43
7.0
  0
INSERT
  5
697
330
620
100
AcDbEntity
  8
0
  6
BYBLOCK
 62
     4
100
AcDbBlockReference
  2
_OPEN
 10
589.2743125708648
 20
431.9434199374277
 30
0.0
 41
7.0
 42
7.0
 43
7.0
 50
180.0
  0
MTEXT
  5
698
330
620
100
AcDbEntity
  8
0
  6
BYBLOCK
 62
     4
100
AcDbMText
 10
622.2743625708647
 20
436.9434199374277
 30
0.0
 40
6.0
 41
0.0
 71
     5
 72
     1
  1
\A1;66
1001
ACAD
1000
MTEXTBEGIN
1070
    73
1070
     1
1070
    44
1040
1.0
1070
    74
1070
     0
1000
MTEXTEND
1000
MTEXTBEGIN
1070
    73
1070
     1
1070
    44
1040
1.0
1070
    74
1070
     0
1000
MTEXTEND
1000
MTEXTBEGIN
1070
    73
1070
     1
1070
    44
1040
1.0
1070
    74
1070
     0
1000
MTEXTEND
  0
POINT
  5
699
330
620
100
AcDbEntity
  8
DEFPOINTS
  6
BYBLOCK
 62
     0
100
AcDbPoint
 10
655.2744125708648
 20
376.8692245778311
 30
0.0
  0
POINT
  5
69A
330
620
100
AcDbEntity
  8
DEFPOINTS
  6
BYBLOCK
 62
     0
100
AcDbPoint
 10
589.2743125708648
 20
374.569224577831
 30
0.0
  0
POINT
  5
69B
330
620
100
AcDbEntity
  8
DEFPOINTS
  6
BYBLOCK
 62
     0
100
AcDbPoint
 10
589.2743125708648
 20
431.9434199374277
 30
0.0
  0
ENDBLK
  5
69C
330
620
100
AcDbEntity
  8
0
100
AcDbBlockEnd
  0
ENDSEC
  0
SECTION
  2
ENTITIES
  0
TEXT
  5
11A
330
1A
100
AcDbEntity
  8
ZUWAKU
 62
     7
 48
10.0
100
AcDbText
 10
795.5579444309237
 20
4.974918402528146
 30
0.0
 40
8.0
  1
A1
100
AcDbText
  0
LINE
  5
11B
330
1A
100
AcDbEntity
  8
ZUWAKU
 62
     7
 48
10.0
100
AcDbLine
 10
10.05047808566086
 20
25.78258628282265
 30
0.0
 11
806.0504780856609
 21
25.78258628282253
 31
0.0
  0
LINE
  5
11C
330
1A
100
AcDbEntity
  8
ZUWAKU
  6
CONTINUOUS
 62
     7
100
AcDbLine
 10
806.0504780856609
 20
563.7825862828226
 30
0.0
 11
10.05047808566086
 21
563.7825862828226
 31
0.0
  0
LINE
  5
11D
330
1A
100
AcDbEntity
  8
ZUWAKU
  6
CONTINUOUS
 62
     7
100
AcDbLine
 10
806.0504780856609
 20
13.78258628282265
 30
0.0
 11
10.05047808566086
 21
13.78258628282265
 31
0.0
  0
LINE
  5
11E
330
1A
100
AcDbEntity
  8
ZUWAKU
  6
CONTINUOUS
 62
     7
100
AcDbLine
 10
10.05047808566086
 20
563.7825862828226
 30
0.0
 11
10.05047808566086
 21
13.78258628282265
 31
0.0
  0
LINE
  5
11F
330
1A
100
AcDbEntity
  8
ZUWAKU
 62
     7
 48
10.0
100
AcDbLine
 10
44.55797523147839
 20
13.78258628282265
 30
0.0
 11
44.5579752314784
 21
25.78258628282265
 31
0.0
  0
TEXT
  5
120
330
1A
100
AcDbEntity
  8
ZUWAKU
 62
     7
100
AcDbText
 10
16.05676551180931
 20
15.52294263804401
 30
0.0
 40
8.0
  1
品 種
100
AcDbText
  0
LINE
  5
121
330
1A
100
AcDbEntity
  8
ZUWAKU
 62
     7
 48
10.0
100
AcDbLine
 10
276.1028387068254
 20
13.78258628282265
 30
0.0
 11
276.1028387068254
 21
25.78258628282261
 31
0.0
  0
LINE
  5
122
330
1A
100
AcDbEntity
  8
ZUWAKU
 62
     7
 48
10.0
100
AcDbLine
 10
209.5138526425484
 20
13.78258628282265
 30
0.0
 11
209.5138526425485
 21
25.78258628282263
 31
0.0
  0
TEXT
  5
123
330
1A
100
AcDbEntity
  8
ZUWAKU
 62
     7
100
AcDbText
 10
282.3131429914078
 20
15.64241700452384
 30
0.0
 40
8.0
  1
飾りじょうご　型　１０５－ＵＴ７５
100
AcDbText
  0
TEXT
  5
124
330
1A
100
AcDbEntity
  8
ZUWAKU
 62
     7
100
AcDbText
 10
215.4560837190756
 20
16.18358115302453
 30
0.0
 40
8.0
  1
品名・ｻ ｲ ｽﾞ
100
AcDbText
  0
TEXT
  5
125
330
1A
100
AcDbEntity
  8
ZUWAKU
 62
     7
100
AcDbText
 10
50.3519382305086
 20
16.10306189639755
 30
0.0
 40
8.0
  1
丸トップ　のきとい
100
AcDbText
  0
LINE
  5
126
330
1A
100
AcDbEntity
  8
ZUWAKU
 62
     7
 48
10.0
100
AcDbLine
 10
768.7231079932794
 20
13.78258628282237
 30
0.0
 11
768.7231079932794
 21
25.78258628282254
 31
0.0
  0
LINE
  5
127
330
1A
100
AcDbEntity
  8
ZUWAKU
 62
     7
 48
10.0
100
AcDbLine
 10
733.8119002376948
 20
13.78258628282242
 30
0.0
 11
733.8119002376946
 21
25.78258628282254
 31
0.0
  0
TEXT
  5
128
330
1A
100
AcDbEntity
  8
ZUWAKU
 62
     7
100
AcDbText
 10
739.6955629973526
 20
15.24227755810852
 30
0.0
 40
8.0
  1
尺 度
100
AcDbText
  0
TEXT
  5
129
330
1A
100
AcDbEntity
  8
ZUWAKU
 62
     7
100
AcDbText
 10
779.7374630323229
 20
15.55488920081529
 30
0.0
 40
8.0
  1
1/2
100
AcDbText
  0
TEXT
  5
12A
330
1A
100
AcDbEntity
  8
ZUWAKU
 62
     7
100
AcDbText
 10
654.2531733678779
 20
15.90287984531518
 30
0.0
 40
8.0
  1
ＧＬ２１
100
AcDbText
  0
TEXT
  5
12B
330
1A
100
AcDbEntity
  8
ZUWAKU
 62
     7
100
AcDbText
 10
620.3363288383084
 20
15.6519090944263
 30
0.0
 40
8.0
  1
品 番
100
AcDbText
  0
LINE
  5
12C
330
1A
100
AcDbEntity
  8
ZUWAKU
 62
     7
 48
10.0
100
AcDbLine
 10
614.3351028194128
 20
13.78258628282232
 30
0.0
 11
614.3351028194128
 21
25.78258628282256
 31
0.0
  0
LINE
  5
12D
330
1A
100
AcDbEntity
  8
ZUWAKU
 62
     7
 48
10.0
100
AcDbLine
 10
648.7607587371021
 20
13.78258628282232
 30
0.0
 11
648.7607587371021
 21
25.78258628282255
 31
0.0
  0
TEXT
  5
12E
330
1A
100
AcDbEntity
  8
ZUWAKU
 62
     7
 48
10.0
100
AcDbText
 10
646.2758615931216
 20
4.949376903717848
 30
0.0
 40
8.0
  1
積水化学工業株式会社  建材
100
AcDbText
  0
LINE
  5
12F
330
1A
100
AcDbEntity
  8
ZUWAKU
  6
CONTINUOUS
 62
     7
100
AcDbLine
 10
806.0504780856609
 20
563.7825862828226
 30
0.0
 11
806.0504780856609
 21
13.78258628282265
 31
0.0
  0
DIMENSION
  5
496
330
1A
100
AcDbEntity
  8
SUNPOU
  6
CONTINUOUS
100
AcDbDimension
  2
*D1
 10
410.5622317587019
 20
170.7625476911518
 30
0.0
 11
405.5622317587019
 21
300.2625476911517
 31
0.0
 12
33.77995692725892
 22
-15.10687688667923
 32
0.0
 70
    32
  3
STANDARD
100
AcDbAlignedDimension
 13
468.5544694981238
 23
429.7625476911517
 33
0.0
 14
586.8544694981236
 24
170.7625476911518
 34
0.0
 50
90.0
100
AcDbRotatedDimension
1001
ACAD
1000
DSTYLE
1002
{
1070
   140
1040
6.0
1070
    74
1070
     0
1070
   172
1070
     1
1070
    73
1070
     0
1070
   272
1070
     2
1070
    77
1070
     3
1070
   173
1070
     1
1070
   147
1040
2.0
1070
    42
1040
6.0
1070
    44
1040
3.0
1070
    43
1040
14.0
1070
   271
1070
     0
1070
   178
1070
     4
1070
   177
1070
     4
1070
   176
1070
     4
1070
   141
1040
150.0
1070
     7
1000
_OPEN
1070
     6
1000
_OPEN
1070
    41
1040
7.0
1002
}
  0
LINE
  5
497
330
1A
100
AcDbEntity
  8
CENTER_L
  6
CENTER
 62
     1
 48
5.0
100
AcDbLine
 10
229.5403424416295
 20
438.1064688110906
 30
0.0
 11
229.5398134291982
 21
157.9517980166707
 31
0.0
  0
LINE
  5
498
330
1A
100
AcDbEntity
  8
SEIHIN
  6
CONTINUOUS
 62
     3
 48
16.0
100
AcDbLine
 10
312.0401424416295
 20
349.0977911855831
 30
0.0
 11
308.5401424416294
 21
289.0977911855829
 31
0.0
  0
ARC
  5
499
330
1A
100
AcDbEntity
  8
SEIHIN
  6
CONTINUOUS
 62
     3
 48
16.0
100
AcDbCircle
 10
259.0483454472784
 20
300.5460875357347
 30
0.0
 40
17.99995391702442
100
AcDbArc
 50
1.75640683552343
 51
77.1865045265048
  0
ARC
  5
49A
330
1A
100
AcDbEntity
  8
SEIHIN
  6
CONTINUOUS
 62
     3
 48
16.0
100
AcDbCircle
 10
259.0483453645469
 20
300.5460863063019
 30
0.0
 40
11.99999707708361
100
AcDbArc
 50
0.0000232968568827
 51
61.84718177336722
  0
ARC
  5
49B
330
1A
100
AcDbEntity
  8
SEIHIN
  6
CONTINUOUS
 62
     3
 48
16.0
100
AcDbCircle
 10
200.0319769848805
 20
300.5461331319536
 30
0.0
 40
17.99999311585263
100
AcDbArc
 50
102.8132632298635
 51
178.2434237365387
  0
ARC
  5
49C
330
1A
100
AcDbEntity
  8
SEIHIN
  6
CONTINUOUS
 62
     3
 48
16.0
100
AcDbCircle
 10
200.0319569168134
 20
300.5461153482322
 30
0.0
 40
12.00001447542354
100
AcDbArc
 50
118.1512434054075
 51
179.9996379037594
  0
LINE
  5
49D
330
1A
100
AcDbEntity
  8
SEIHIN
  6
CONTINUOUS
 62
     3
 48
16.0
100
AcDbLine
 10
147.0402424416296
 20
349.0980911855829
 30
0.0
 11
150.5400424416295
 21
289.0980911855829
 31
0.0
  0
LINE
  5
49E
330
1A
100
AcDbEntity
  8
SEIHIN
  6
CONTINUOUS
 62
     3
 48
16.0
100
AcDbLine
 10
268.5401424416295
 20
307.8880911855831
 30
0.0
 11
268.5400424416295
 21
228.101191185583
 31
0.0
  0
LINE
  5
49F
330
1A
100
AcDbEntity
  8
SEIHIN
  6
CONTINUOUS
 62
     3
 48
16.0
100
AcDbLine
 10
190.5401424416296
 20
307.8881911855829
 30
0.0
 11
190.5400424416296
 21
228.1012911855831
 31
0.0
  0
LINE
  5
4A0
330
1A
100
AcDbEntity
  8
SEIHIN
  6
CONTINUOUS
 62
     3
 48
16.0
100
AcDbLine
 10
229.5401424416296
 20
336.5362911855829
 30
0.0
 11
229.5400424416296
 21
225.054191185583
 31
0.0
  0
LINE
  5
4A1
330
1A
100
AcDbEntity
  8
SEIHIN
  6
CONTINUOUS
 62
     3
 48
16.0
100
AcDbLine
 10
193.5401424416295
 20
310.6384911855831
 30
0.0
 11
193.5400424416295
 21
227.6638911855831
 31
0.0
  0
LINE
  5
4A2
330
1A
100
AcDbEntity
  8
SEIHIN
  6
CONTINUOUS
 62
     3
 48
16.0
100
AcDbLine
 10
196.5401424416296
 20
311.903791185583
 30
0.0
 11
196.5400424416295
 21
227.2607911855831
 31
0.0
  0
LINE
  5
4A3
330
1A
100
AcDbEntity
  8
SEIHIN
  6
CONTINUOUS
 62
     3
 48
16.0
100
AcDbLine
 10
199.5401424416296
 20
312.9784911855829
 30
0.0
 11
199.5400424416295
 21
226.891891185583
 31
0.0
  0
LINE
  5
4A4
330
1A
100
AcDbEntity
  8
SEIHIN
  6
CONTINUOUS
 62
     3
 48
16.0
100
AcDbLine
 10
202.5401424416295
 20
321.4959911855829
 30
0.0
 11
202.5400424416296
 21
226.5568911855831
 31
0.0
  0
LINE
  5
4A5
330
1A
100
AcDbEntity
  8
SEIHIN
  6
CONTINUOUS
 62
     3
 48
16.0
100
AcDbLine
 10
205.5401424416296
 20
325.6616911855831
 30
0.0
 11
205.5400424416295
 21
226.255691185583
 31
0.0
  0
LINE
  5
4A6
330
1A
100
AcDbEntity
  8
SEIHIN
  6
CONTINUOUS
 62
     3
 48
16.0
100
AcDbLine
 10
208.5401424416295
 20
327.202191185583
 30
0.0
 11
208.5400424416294
 21
225.988291185583
 31
0.0
  0
LINE
  5
4A7
330
1A
100
AcDbEntity
  8
SEIHIN
  6
CONTINUOUS
 62
     3
 48
16.0
100
AcDbLine
 10
211.5401424416296
 20
328.276891185583
 30
0.0
 11
211.5400424416296
 21
225.754491185583
 31
0.0
  0
LINE
  5
4A8
330
1A
100
AcDbEntity
  8
SEIHIN
  6
CONTINUOUS
 62
     3
 48
16.0
100
AcDbLine
 10
214.5401424416295
 20
329.351491185583
 30
0.0
 11
214.5400424416295
 21
225.5542911855831
 31
0.0
  0
LINE
  5
4A9
330
1A
100
AcDbEntity
  8
SEIHIN
  6
CONTINUOUS
 62
     3
 48
16.0
100
AcDbLine
 10
217.5401424416296
 20
330.4260911855831
 30
0.0
 11
217.5400424416296
 21
225.387491185583
 31
0.0
  0
LINE
  5
4AA
330
1A
100
AcDbEntity
  8
SEIHIN
  6
CONTINUOUS
 62
     3
 48
16.0
100
AcDbLine
 10
220.5401424416296
 20
331.5006911855829
 30
0.0
 11
220.5400424416295
 21
225.254191185583
 31
0.0
  0
LINE
  5
4AB
330
1A
100
AcDbEntity
  8
SEIHIN
  6
CONTINUOUS
 62
     3
 48
16.0
100
AcDbLine
 10
223.5401424416296
 20
332.8645911855829
 30
0.0
 11
223.5400424416296
 21
225.154191185583
 31
0.0
  0
LINE
  5
4AC
330
1A
100
AcDbEntity
  8
SEIHIN
  6
CONTINUOUS
 62
     3
 48
16.0
100
AcDbLine
 10
226.5401424416296
 20
334.570891185583
 30
0.0
 11
226.5400424416295
 21
225.087491185583
 31
0.0
  0
LINE
  5
4AD
330
1A
100
AcDbEntity
  8
SEIHIN
  6
CONTINUOUS
 62
     3
 48
16.0
100
AcDbLine
 10
265.5401424416296
 20
310.6384911855831
 30
0.0
 11
265.5400424416295
 21
227.6638911855831
 31
0.0
  0
LINE
  5
4AE
330
1A
100
AcDbEntity
  8
SEIHIN
  6
CONTINUOUS
 62
     3
 48
16.0
100
AcDbLine
 10
262.5401424416295
 20
311.903691185583
 30
0.0
 11
262.5400424416295
 21
227.2607911855831
 31
0.0
  0
LINE
  5
4AF
330
1A
100
AcDbEntity
  8
SEIHIN
  6
CONTINUOUS
 62
     3
 48
16.0
100
AcDbLine
 10
259.5401424416296
 20
312.978291185583
 30
0.0
 11
259.5400424416295
 21
226.891791185583
 31
0.0
  0
LINE
  5
4B0
330
1A
100
AcDbEntity
  8
SEIHIN
  6
CONTINUOUS
 62
     3
 48
16.0
100
AcDbLine
 10
256.5401424416295
 20
321.4959911855829
 30
0.0
 11
256.5400424416295
 21
226.556791185583
 31
0.0
  0
LINE
  5
4B1
330
1A
100
AcDbEntity
  8
SEIHIN
  6
CONTINUOUS
 62
     3
 48
16.0
100
AcDbLine
 10
253.5401424416296
 20
325.6615911855831
 30
0.0
 11
253.5400424416295
 21
226.255691185583
 31
0.0
  0
LINE
  5
4B2
330
1A
100
AcDbEntity
  8
SEIHIN
  6
CONTINUOUS
 62
     3
 48
16.0
100
AcDbLine
 10
250.5401424416296
 20
327.202191185583
 30
0.0
 11
250.5400424416296
 21
225.988291185583
 31
0.0
  0
LINE
  5
4B3
330
1A
100
AcDbEntity
  8
SEIHIN
  6
CONTINUOUS
 62
     3
 48
16.0
100
AcDbLine
 10
247.5401424416296
 20
328.2767911855829
 30
0.0
 11
247.5400424416295
 21
225.754491185583
 31
0.0
  0
LINE
  5
4B4
330
1A
100
AcDbEntity
  8
SEIHIN
  6
CONTINUOUS
 62
     3
 48
16.0
100
AcDbLine
 10
244.5401424416296
 20
329.3513911855831
 30
0.0
 11
244.5400424416296
 21
225.5542911855831
 31
0.0
  0
LINE
  5
4B5
330
1A
100
AcDbEntity
  8
SEIHIN
  6
CONTINUOUS
 62
     3
 48
16.0
100
AcDbLine
 10
241.5401424416296
 20
330.4260911855831
 30
0.0
 11
241.5400424416295
 21
225.3875911855829
 31
0.0
  0
LINE
  5
4B6
330
1A
100
AcDbEntity
  8
SEIHIN
  6
CONTINUOUS
 62
     3
 48
16.0
100
AcDbLine
 10
238.5401424416296
 20
331.5006911855829
 30
0.0
 11
238.5400424416296
 21
225.254191185583
 31
0.0
  0
LINE
  5
4B7
330
1A
100
AcDbEntity
  8
SEIHIN
  6
CONTINUOUS
 62
     3
 48
16.0
100
AcDbLine
 10
235.5401424416295
 20
332.8644911855831
 30
0.0
 11
235.5400424416295
 21
225.154191185583
 31
0.0
  0
LINE
  5
4B8
330
1A
100
AcDbEntity
  8
SEIHIN
  6
CONTINUOUS
 62
     3
 48
16.0
100
AcDbLine
 10
232.5401424416296
 20
334.570891185583
 30
0.0
 11
232.5400424416296
 21
225.0875911855831
 31
0.0
  0
ARC
  5
4B9
330
1A
100
AcDbEntity
  8
SEIHIN
  6
CONTINUOUS
 62
     3
 48
16.0
100
AcDbCircle
 10
165.1844192251911
 20
233.160120436856
 30
0.0
 40
5.999966929152918
100
AcDbArc
 50
194.2994416675195
 51
242.5785580333693
  0
ARC
  5
4BA
330
1A
100
AcDbEntity
  8
SEIHIN
  6
CONTINUOUS
 62
     3
 48
16.0
100
AcDbCircle
 10
450.0762826638989
 20
305.7729296407821
 30
0.0
 40
299.9999603619033
100
AcDbArc
 50
183.1864550953983
 51
194.2991809686441
  0
ARC
  5
4BB
330
1A
100
AcDbEntity
  8
SEIHIN
  6
CONTINUOUS
 62
     3
 48
16.0
100
AcDbCircle
 10
230.341399105845
 20
355.6542717229924
 30
0.0
 40
144.0000457671702
100
AcDbArc
 50
290.9491389712305
 51
297.4216723360938
  0
ARC
  5
4BC
330
1A
100
AcDbEntity
  8
SEIHIN
  6
CONTINUOUS
 62
     3
 48
16.0
100
AcDbCircle
 10
285.4027785635415
 20
211.8341387687052
 30
0.0
 40
9.999988785322788
100
AcDbArc
 50
110.9494418605517
 51
174.6444835433165
  0
ARC
  5
4BD
330
1A
100
AcDbEntity
  8
SEIHIN
  6
CONTINUOUS
 62
     3
 48
16.0
100
AcDbCircle
 10
173.6772598273112
 20
211.8342682834708
 30
0.0
 40
9.999942090350627
100
AcDbArc
 50
5.355947161275294
 51
69.050783987629
  0
LINE
  5
4BE
330
1A
100
AcDbEntity
  8
SEIHIN
  6
CONTINUOUS
 62
     3
 48
16.0
100
AcDbLine
 10
183.5403424416296
 20
211.0979911855829
 30
0.0
 11
229.5399424416295
 21
211.097791185583
 31
0.0
  0
LINE
  5
4BF
330
1A
100
AcDbEntity
  8
SEIHIN
  6
CONTINUOUS
 62
     3
 48
16.0
100
AcDbLine
 10
229.5395424416295
 20
211.097791185583
 30
0.0
 11
183.7901424416296
 21
211.0979911855829
 31
0.0
  0
LINE
  5
4C0
330
1A
100
AcDbEntity
  8
SEIHIN
  6
CONTINUOUS
 62
     3
 48
16.0
100
AcDbLine
 10
189.1399424416295
 20
183.0978911855829
 30
0.0
 11
229.5399424416295
 21
183.0978911855829
 31
0.0
  0
LINE
  5
4C1
330
1A
100
AcDbEntity
  8
SEIHIN
  6
CONTINUOUS
 62
     3
 48
16.0
100
AcDbLine
 10
229.5399424416295
 20
170.0977911855829
 30
0.0
 11
193.3399424416295
 21
170.0979911855829
 31
0.0
  0
LINE
  5
4C2
330
1A
100
AcDbEntity
  8
SEIHIN
  6
CONTINUOUS
 62
     3
 48
16.0
100
AcDbLine
 10
193.3399424416295
 20
170.0979911855829
 30
0.0
 11
229.5394424416295
 21
170.0977911855829
 31
0.0
  0
LINE
  5
4C3
330
1A
100
AcDbEntity
  8
SEIHIN
  6
CONTINUOUS
 62
     3
 48
16.0
100
AcDbLine
 10
183.5400424416295
 20
186.097891185583
 30
0.0
 11
229.5399424416295
 21
186.097891185583
 31
0.0
  0
LINE
  5
4C4
330
1A
100
AcDbEntity
  8
SEIHIN
  6
CONTINUOUS
 62
     3
 48
16.0
100
AcDbLine
 10
183.5400424416295
 20
211.0979911855829
 30
0.0
 11
183.5400424416295
 21
186.097891185583
 31
0.0
  0
LINE
  5
4C5
330
1A
100
AcDbEntity
  8
SEIHIN
  6
CONTINUOUS
 62
     3
 48
16.0
100
AcDbLine
 10
183.5400424416295
 20
186.097891185583
 30
0.0
 11
189.1399424416295
 21
183.0978911855829
 31
0.0
  0
LINE
  5
4C6
330
1A
100
AcDbEntity
  8
SEIHIN
  6
CONTINUOUS
 62
     3
 48
16.0
100
AcDbLine
 10
183.6335424416295
 20
212.7675911855829
 30
0.0
 11
183.7901424416296
 21
211.0979911855829
 31
0.0
  0
LINE
  5
4C7
330
1A
100
AcDbEntity
  8
SEIHIN
  6
CONTINUOUS
 62
     3
 48
16.0
100
AcDbLine
 10
193.3398424416296
 20
170.097891185583
 30
0.0
 11
193.3399424416295
 21
183.098091185583
 31
0.0
  0
LINE
  5
4C8
330
1A
100
AcDbEntity
  8
SEIHIN
  6
CONTINUOUS
 62
     3
 48
16.0
100
AcDbLine
 10
275.5396424416295
 20
211.097891185583
 30
0.0
 11
229.5399424416295
 21
211.097891185583
 31
0.0
  0
LINE
  5
4C9
330
1A
100
AcDbEntity
  8
SEIHIN
  6
CONTINUOUS
 62
     3
 48
16.0
100
AcDbLine
 10
229.5403424416295
 20
211.097891185583
 30
0.0
 11
275.2898424416295
 21
211.097891185583
 31
0.0
  0
LINE
  5
4CA
330
1A
100
AcDbEntity
  8
SEIHIN
  6
CONTINUOUS
 62
     3
 48
16.0
100
AcDbLine
 10
229.5399424416295
 20
170.0977911855829
 30
0.0
 11
265.7399424416296
 21
170.097891185583
 31
0.0
  0
LINE
  5
4CB
330
1A
100
AcDbEntity
  8
SEIHIN
  6
CONTINUOUS
 62
     3
 48
16.0
100
AcDbLine
 10
275.5399424416294
 20
186.097791185583
 30
0.0
 11
229.5399424416295
 21
186.097891185583
 31
0.0
  0
LINE
  5
4CC
330
1A
100
AcDbEntity
  8
SEIHIN
  6
CONTINUOUS
 62
     3
 48
16.0
100
AcDbLine
 10
269.9399424416295
 20
183.097791185583
 30
0.0
 11
229.5399424416295
 21
183.0978911855829
 31
0.0
  0
LINE
  5
4CD
330
1A
100
AcDbEntity
  8
SEIHIN
  6
CONTINUOUS
 62
     3
 48
16.0
100
AcDbLine
 10
265.7398424416295
 20
170.0977911855829
 30
0.0
 11
229.5403424416295
 21
170.0977911855829
 31
0.0
  0
LINE
  5
4CE
330
1A
100
AcDbEntity
  8
SEIHIN
  6
CONTINUOUS
 62
     3
 48
16.0
100
AcDbLine
 10
275.5399424416294
 20
211.097791185583
 30
0.0
 11
275.5399424416294
 21
186.097791185583
 31
0.0
  0
LINE
  5
4CF
330
1A
100
AcDbEntity
  8
SEIHIN
  6
CONTINUOUS
 62
     3
 48
16.0
100
AcDbLine
 10
275.5399424416294
 20
186.097791185583
 30
0.0
 11
269.9399424416295
 21
183.097791185583
 31
0.0
  0
LINE
  5
4D0
330
1A
100
AcDbEntity
  8
SEIHIN
  6
CONTINUOUS
 62
     3
 48
16.0
100
AcDbLine
 10
265.7399424416296
 20
170.0977911855829
 30
0.0
 11
265.7399424416296
 21
183.097991185583
 31
0.0
  0
LINE
  5
4D1
330
1A
100
AcDbEntity
  8
SEIHIN
  6
CONTINUOUS
 62
     3
 48
16.0
100
AcDbLine
 10
275.4463424416295
 20
212.767491185583
 30
0.0
 11
275.2898424416295
 21
211.097891185583
 31
0.0
  0
LINE
  5
4D2
330
1A
100
AcDbEntity
  8
SEIHIN
  6
CONTINUOUS
 62
     3
 48
16.0
100
AcDbLine
 10
183.0399424416295
 20
219.097891185583
 30
0.0
 11
276.0399424416295
 21
219.097891185583
 31
0.0
  0
ARC
  5
4D3
330
1A
100
AcDbEntity
  8
SEIHIN
  6
CONTINUOUS
 62
     3
 48
16.0
100
AcDbCircle
 10
231.0483472214707
 20
495.4559439367738
 30
0.0
 40
270.4060582740402
100
AcDbArc
 50
261.384904164017
 51
269.6804491457777
  0
LINE
  5
4D4
330
1A
100
AcDbEntity
  8
SEIHIN
  6
CONTINUOUS
 62
     3
 48
16.0
100
AcDbLine
 10
182.0402424416295
 20
237.9880911855831
 30
0.0
 11
182.0404424416294
 21
301.097991185583
 31
0.0
  0
LINE
  5
4D5
330
1A
100
AcDbEntity
  8
SEIHIN
  6
CONTINUOUS
 62
     3
 48
16.0
100
AcDbLine
 10
188.0401424416296
 20
228.822991185583
 30
0.0
 11
188.0404424416295
 21
301.0978911855829
 31
0.0
  0
ARC
  5
4D6
330
1A
100
AcDbEntity
  8
SEIHIN
  6
CONTINUOUS
 62
     3
 48
16.0
100
AcDbCircle
 10
192.0402531478681
 20
237.9880787351936
 30
0.0
 40
10.00001070624628
100
AcDbArc
 50
179.9999286645997
 51
261.3851902993823
  0
ARC
  5
4D7
330
1A
100
AcDbEntity
  8
SEIHIN
  6
CONTINUOUS
 62
     3
 48
16.0
100
AcDbCircle
 10
228.7393953313926
 20
355.6541326974234
 30
0.0
 40
143.9999828472162
100
AcDbArc
 50
242.5779966151109
 51
249.0505491383379
  0
LINE
  5
4D8
330
1A
100
AcDbEntity
  8
SEIHIN
  6
CONTINUOUS
 62
     3
 48
16.0
100
AcDbLine
 10
271.0398424416295
 20
228.822891185583
 30
0.0
 11
271.0398424416295
 21
301.0977911855831
 31
0.0
  0
LINE
  5
4D9
330
1A
100
AcDbEntity
  8
SEIHIN
  6
CONTINUOUS
 62
     3
 48
16.0
100
AcDbLine
 10
277.0398424416296
 20
237.987991185583
 30
0.0
 11
277.0398424416296
 21
301.0977911855831
 31
0.0
  0
ARC
  5
4DA
330
1A
100
AcDbEntity
  8
SEIHIN
  6
CONTINUOUS
 62
     3
 48
16.0
100
AcDbCircle
 10
228.0330136200127
 20
495.4560811217972
 30
0.0
 40
270.4060866736672
100
AcDbArc
 50
270.3192168889843
 51
278.6148000484015
  0
ARC
  5
4DB
330
1A
100
AcDbEntity
  8
SEIHIN
  6
CONTINUOUS
 62
     3
 48
16.0
100
AcDbCircle
 10
267.039831735391
 20
237.9879787351936
 30
0.0
 40
10.00001070624627
100
AcDbArc
 50
278.6148097006171
 51
0.0000713353997264
  0
ARC
  5
4DC
330
1A
100
AcDbEntity
  8
SEIHIN
  6
CONTINUOUS
 62
     3
 48
16.0
100
AcDbCircle
 10
9.004029203372795
 20
305.7738961387044
 30
0.0
 40
300.0000038211619
100
AcDbArc
 50
345.700610948612
 51
356.8133031088233
  0
ARC
  5
4DD
330
1A
100
AcDbEntity
  8
SEIHIN
  6
CONTINUOUS
 62
     3
 48
16.0
100
AcDbCircle
 10
293.8956656580679
 20
233.1599204368557
 30
0.0
 40
5.999966929152757
100
AcDbArc
 50
297.421441966633
 51
345.7005583324823
  0
DIMENSION
  5
4DE
330
1A
100
AcDbEntity
  8
SUNPOU
  6
CONTINUOUS
100
AcDbDimension
  2
*D2
 10
353.0403424416296
 20
472.3821602982374
 30
0.0
 11
229.5403024416295
 21
477.3821602982374
 31
0.0
 12
33.77995692725892
 22
-15.10687688667923
 32
0.0
 70
    32
  3
STANDARD
100
AcDbAlignedDimension
 13
106.0402624416295
 23
409.0982911855828
 33
0.0
 14
353.0403424416296
 24
409.097891185583
 34
0.0
100
AcDbRotatedDimension
1001
ACAD
1000
DSTYLE
1002
{
1070
   140
1040
6.0
1070
    74
1070
     0
1070
   172
1070
     1
1070
    73
1070
     0
1070
   272
1070
     2
1070
    77
1070
     3
1070
   173
1070
     1
1070
   147
1040
2.0
1070
    42
1040
6.0
1070
    44
1040
3.0
1070
    43
1040
14.0
1070
   271
1070
     0
1070
   178
1070
     4
1070
   177
1070
     4
1070
   176
1070
     4
1070
   141
1040
150.0
1070
     7
1000
_OPEN
1070
     6
1000
_OPEN
1070
    41
1040
7.0
1002
}
  0
ARC
  5
4DF
330
1A
100
AcDbEntity
  8
SEIHIN
  6
CONTINUOUS
 62
     3
 48
16.0
100
AcDbCircle
 10
108.2963915645224
 20
519.0751834663679
 30
0.0
 40
110.000027508846
100
AcDbArc
 50
268.8248704752769
 51
299.2474334991253
  0
ARC
  5
4E0
330
1A
100
AcDbEntity
  8
SEIHIN
  6
CONTINUOUS
 62
     3
 48
16.0
100
AcDbCircle
 10
108.2964171977608
 20
519.0751898385417
 30
0.0
 40
113.9999986530778
100
AcDbArc
 50
269.9999171944641
 51
298.813310956061
  0
ARC
  5
4E1
330
1A
100
AcDbEntity
  8
SEIHIN
  6
CONTINUOUS
 62
     3
 48
16.0
100
AcDbCircle
 10
108.2964495121248
 20
519.0751979861961
 30
0.0
 40
120.0000068007919
100
AcDbArc
 50
269.9999011311269
 51
298.2039538820393
  0
LINE
  5
4E2
330
1A
100
AcDbEntity
  8
SEIHIN
  6
CONTINUOUS
 62
     3
 48
16.0
100
AcDbLine
 10
125.1335424416294
 20
377.0980911855829
 30
0.0
 11
229.5401424416296
 21
377.0978911855829
 31
0.0
  0
LINE
  5
4E3
330
1A
100
AcDbEntity
  8
SEIHIN
  6
CONTINUOUS
 62
     3
 48
16.0
100
AcDbLine
 10
229.5401424416296
 20
351.0977911855831
 30
0.0
 11
145.4146424416295
 21
351.098091185583
 31
0.0
  0
LINE
  5
4E4
330
1A
100
AcDbEntity
  8
SEIHIN
  6
CONTINUOUS
 62
     3
 48
16.0
100
AcDbLine
 10
145.0402424416296
 20
349.0980911855829
 30
0.0
 11
229.5401424416296
 21
349.0977911855831
 31
0.0
  0
LINE
  5
4E5
330
1A
100
AcDbEntity
  8
SEIHIN
  6
CONTINUOUS
 62
     3
 48
16.0
100
AcDbLine
 10
135.8680424416295
 20
361.098091185583
 30
0.0
 11
229.5401424416296
 21
361.097791185583
 31
0.0
  0
LINE
  5
4E6
330
1A
100
AcDbEntity
  8
SEIHIN
  6
CONTINUOUS
 62
     3
 48
16.0
100
AcDbLine
 10
109.0402624416295
 20
399.0981911855831
 30
0.0
 11
110.2711224416295
 21
390.071491185583
 31
0.0
  0
ARC
  5
4E7
330
1A
100
AcDbEntity
  8
SEIHIN
  6
CONTINUOUS
 62
     3
 48
16.0
100
AcDbCircle
 10
143.7073479103974
 20
357.0980864759959
 30
0.0
 40
5.999995290415409
100
AcDbArc
 50
188.5312800067014
 51
269.9999477770717
  0
ARC
  5
4E8
330
1A
100
AcDbEntity
  8
SEIHIN
  6
CONTINUOUS
 62
     3
 48
16.0
100
AcDbCircle
 10
144.0402424416295
 20
350.098091185583
 30
0.0
 40
1.000000000000056
100
AcDbArc
 50
359.9999999999967
 51
89.99999999999674
  0
LINE
  5
4E9
330
1A
100
AcDbEntity
  8
SEIHIN
  6
CONTINUOUS
 62
     3
 48
16.0
100
AcDbLine
 10
143.7073424416294
 20
351.098091185583
 30
0.0
 11
144.0402424416296
 21
351.098091185583
 31
0.0
  0
LINE
  5
4EA
330
1A
100
AcDbEntity
  8
SEIHIN
  6
CONTINUOUS
 62
     3
 48
16.0
100
AcDbLine
 10
145.0402424416296
 20
349.0980911855829
 30
0.0
 11
145.0402424416296
 21
350.0980911855829
 31
0.0
  0
ARC
  5
4EB
330
1A
100
AcDbEntity
  8
SEIHIN
  6
CONTINUOUS
 62
     3
 48
16.0
100
AcDbCircle
 10
135.8680900360622
 20
371.0980491699064
 30
0.0
 40
9.999957984436637
100
AcDbArc
 50
187.124530449948
 51
269.999727302842
  0
LINE
  5
4EC
330
1A
100
AcDbEntity
  8
SEIHIN
  6
CONTINUOUS
 62
     3
 48
16.0
100
AcDbLine
 10
125.0402424416295
 20
377.0980911855829
 30
0.0
 11
125.9452424416295
 21
369.8577911855828
 31
0.0
  0
ARC
  5
4ED
330
1A
100
AcDbEntity
  8
SEIHIN
  6
CONTINUOUS
 62
     3
 48
16.0
100
AcDbCircle
 10
125.1335664252314
 20
392.098070250522
 30
0.0
 40
14.99997906495823
100
AcDbArc
 50
187.7651036531186
 51
269.9999083892608
  0
LINE
  5
4EE
330
1A
100
AcDbEntity
  8
SEIHIN
  6
CONTINUOUS
 62
     3
 48
16.0
100
AcDbLine
 10
137.0402424416294
 20
361.098091185583
 30
0.0
 11
137.7737424416295
 21
356.2080911855829
 31
0.0
  0
LINE
  5
4EF
330
1A
100
AcDbEntity
  8
SEIHIN
  6
CONTINUOUS
 62
     3
 48
16.0
100
AcDbLine
 10
106.0402624416295
 20
409.0982911855828
 30
0.0
 11
106.0402624416295
 21
405.0981911855831
 31
0.0
  0
LINE
  5
4F0
330
1A
100
AcDbEntity
  8
SEIHIN
  6
CONTINUOUS
 62
     3
 48
16.0
100
AcDbLine
 10
107.5402924416296
 20
405.0980911855829
 30
0.0
 11
107.5402924416296
 21
399.0980911855828
 31
0.0
  0
LINE
  5
4F1
330
1A
100
AcDbEntity
  8
SEIHIN
  6
CONTINUOUS
 62
     3
 48
16.0
100
AcDbLine
 10
294.0709424416294
 20
413.322391185583
 30
0.0
 11
259.7260424416296
 21
416.3839911855829
 31
0.0
  0
LINE
  5
4F2
330
1A
100
AcDbEntity
  8
SEIHIN
  6
CONTINUOUS
 62
     3
 48
16.0
100
AcDbLine
 10
229.1861424416295
 20
425.1135911855831
 30
0.0
 11
295.8411424416295
 21
419.1886911855829
 31
0.0
  0
LINE
  5
4F3
330
1A
100
AcDbEntity
  8
SEIHIN
  6
CONTINUOUS
 62
     3
 48
16.0
100
AcDbLine
 10
229.5403424416295
 20
429.0978911855829
 30
0.0
 11
297.0403424416295
 21
423.0978911855829
 31
0.0
  0
LINE
  5
4F4
330
1A
100
AcDbEntity
  8
SEIHIN
  6
CONTINUOUS
 62
     3
 48
16.0
100
AcDbLine
 10
314.0401424416294
 20
349.0977911855831
 30
0.0
 11
229.5403424416295
 21
349.0977911855831
 31
0.0
  0
LINE
  5
4F5
330
1A
100
AcDbEntity
  8
SEIHIN
  6
CONTINUOUS
 62
     3
 48
16.0
100
AcDbLine
 10
323.2123424416296
 20
361.097791185583
 30
0.0
 11
229.5403424416295
 21
361.097791185583
 31
0.0
  0
LINE
  5
4F6
330
1A
100
AcDbEntity
  8
SEIHIN
  6
CONTINUOUS
 62
     3
 48
16.0
100
AcDbLine
 10
333.9469424416296
 20
377.0978911855829
 30
0.0
 11
229.5403424416295
 21
377.0978911855829
 31
0.0
  0
LINE
  5
4F7
330
1A
100
AcDbEntity
  8
SEIHIN
  6
CONTINUOUS
 62
     3
 48
16.0
100
AcDbLine
 10
229.5403424416295
 20
351.0977911855831
 30
0.0
 11
313.6658424416294
 21
351.0977911855831
 31
0.0
  0
LINE
  5
4F8
330
1A
100
AcDbEntity
  8
SEIHIN
  6
CONTINUOUS
 62
     3
 48
16.0
100
AcDbLine
 10
241.0067424416296
 20
400.0120911855831
 30
0.0
 11
229.5402424416296
 21
395.0978911855829
 31
0.0
  0
ARC
  5
4F9
330
1A
100
AcDbEntity
  8
SEIHIN
  6
CONTINUOUS
 62
     3
 48
16.0
100
AcDbCircle
 10
237.703959291885
 20
405.0212079142723
 30
0.0
 40
5.999946233946662
100
AcDbArc
 50
282.997931288711
 51
346.5868279984347
  0
ARC
  5
4FA
330
1A
100
AcDbEntity
  8
SEIHIN
  6
CONTINUOUS
 62
     3
 48
16.0
100
AcDbCircle
 10
221.3765752298503
 20
405.0212579138043
 30
0.0
 40
6.000006116996051
100
AcDbArc
 50
193.4135264802609
 51
257.0017142325931
  0
LINE
  5
4FB
330
1A
100
AcDbEntity
  8
SEIHIN
  6
CONTINUOUS
 62
     3
 48
16.0
100
AcDbLine
 10
218.0738424416295
 20
400.0120911855831
 30
0.0
 11
229.5402424416296
 21
395.0978911855829
 31
0.0
  0
ARC
  5
4FC
330
1A
100
AcDbEntity
  8
SEIHIN
  6
CONTINUOUS
 62
     3
 48
16.0
100
AcDbCircle
 10
197.367266661338
 20
382.3719468598996
 30
0.0
 40
55.99998691546804
100
AcDbArc
 50
295.5830737234878
 51
305.0658535473813
  0
ARC
  5
4FD
330
1A
100
AcDbEntity
  8
SEIHIN
  6
CONTINUOUS
 62
     3
 48
16.0
100
AcDbCircle
 10
197.3672749621166
 20
382.3719473841524
 30
0.0
 40
50.00001994130907
100
AcDbArc
 50
295.9255684136867
 51
310.050391329576
  0
LINE
  5
4FE
330
1A
100
AcDbEntity
  8
SEIHIN
  6
CONTINUOUS
 62
     3
 48
16.0
100
AcDbLine
 10
221.5490424416295
 20
331.862091185583
 30
0.0
 11
208.0050424416295
 21
327.010591185583
 31
0.0
  0
ARC
  5
4FF
330
1A
100
AcDbEntity
  8
SEIHIN
  6
CONTINUOUS
 62
     3
 48
16.0
100
AcDbCircle
 10
211.040048055794
 20
318.5376991600516
 30
0.0
 40
15.00000561416667
100
AcDbArc
 50
109.7076067691764
 51
180.0000304602144
  0
LINE
  5
500
330
1A
100
AcDbEntity
  8
SEIHIN
  6
CONTINUOUS
 62
     3
 48
16.0
100
AcDbLine
 10
202.0400424416295
 20
318.537691185583
 30
0.0
 11
202.0400424416295
 21
313.873891185583
 31
0.0
  0
LINE
  5
501
330
1A
100
AcDbEntity
  8
SEIHIN
  6
CONTINUOUS
 62
     3
 48
16.0
100
AcDbLine
 10
202.0400424416295
 20
313.873891185583
 30
0.0
 11
194.3700424416295
 21
311.126491185583
 31
0.0
  0
LINE
  5
502
330
1A
100
AcDbEntity
  8
SEIHIN
  6
CONTINUOUS
 62
     3
 48
16.0
100
AcDbLine
 10
196.0400424416295
 20
318.537691185583
 30
0.0
 11
196.0400424416295
 21
318.0978911855829
 31
0.0
  0
ARC
  5
503
330
1A
100
AcDbEntity
  8
SEIHIN
  6
CONTINUOUS
 62
     3
 48
16.0
100
AcDbCircle
 10
211.0400303538354
 20
318.5376740157797
 30
0.0
 40
8.999987912222263
100
AcDbArc
 50
109.7076727413851
 51
179.9998906934904
  0
LINE
  5
504
330
1A
100
AcDbEntity
  8
SEIHIN
  6
CONTINUOUS
 62
     3
 48
16.0
100
AcDbLine
 10
219.2274424416296
 20
337.4037911855829
 30
0.0
 11
205.9817424416296
 21
332.659091185583
 31
0.0
  0
ARC
  5
505
330
1A
100
AcDbEntity
  8
SEIHIN
  6
CONTINUOUS
 62
     3
 48
16.0
100
AcDbCircle
 10
248.0402376683742
 20
318.5376979657892
 30
0.0
 40
9.000004773888763
100
AcDbArc
 50
359.9993202164553
 51
70.2915754593582
  0
LINE
  5
506
330
1A
100
AcDbEntity
  8
SEIHIN
  6
CONTINUOUS
 62
     3
 48
16.0
100
AcDbLine
 10
257.0402424416295
 20
313.873791185583
 30
0.0
 11
264.7102424416295
 21
311.126391185583
 31
0.0
  0
ARC
  5
507
330
1A
100
AcDbEntity
  8
SEIHIN
  6
CONTINUOUS
 62
     3
 48
16.0
100
AcDbCircle
 10
248.040267037437
 20
318.537656248656
 30
0.0
 40
14.99997540433357
100
AcDbArc
 50
359.9997514769603
 51
70.29206873157573
  0
LINE
  5
508
330
1A
100
AcDbEntity
  8
SEIHIN
  6
CONTINUOUS
 62
     3
 48
16.0
100
AcDbLine
 10
237.5313424416295
 20
331.862091185583
 30
0.0
 11
251.0752424416295
 21
327.0104911855829
 31
0.0
  0
LINE
  5
509
330
1A
100
AcDbEntity
  8
SEIHIN
  6
CONTINUOUS
 62
     3
 48
16.0
100
AcDbLine
 10
257.0402424416295
 20
318.537691185583
 30
0.0
 11
257.0402424416295
 21
313.873791185583
 31
0.0
  0
LINE
  5
50A
330
1A
100
AcDbEntity
  8
SEIHIN
  6
CONTINUOUS
 62
     3
 48
16.0
100
AcDbLine
 10
239.8529424416295
 20
337.403691185583
 30
0.0
 11
253.0986424416294
 21
332.6589911855829
 31
0.0
  0
ARC
  5
50B
330
1A
100
AcDbEntity
  8
SEIHIN
  6
CONTINUOUS
 62
     3
 48
16.0
100
AcDbCircle
 10
261.7130522741475
 20
382.3719497141065
 30
0.0
 40
49.99999683336173
100
AcDbArc
 50
229.9498224075068
 51
244.0744921642556
  0
ARC
  5
50C
330
1A
100
AcDbEntity
  8
SEIHIN
  6
CONTINUOUS
 62
     3
 48
16.0
100
AcDbCircle
 10
261.7132710992576
 20
382.3718159302152
 30
0.0
 40
56.00002503371629
100
AcDbArc
 50
234.9338577234106
 51
244.4167715316304
  0
LINE
  5
50D
330
1A
100
AcDbEntity
  8
SEIHIN
  6
CONTINUOUS
 62
     3
 48
16.0
100
AcDbLine
 10
263.0402424416295
 20
318.537691185583
 30
0.0
 11
263.0402424416295
 21
318.0977911855829
 31
0.0
  0
DIMENSION
  5
50E
330
1A
100
AcDbEntity
  8
SUNPOU
  6
CONTINUOUS
100
AcDbDimension
  2
*D3
 10
259.5403080582526
 20
449.8444643236053
 30
0.0
 11
229.5403080582779
 21
454.8444643236053
 31
0.0
 12
33.77995692725892
 22
-15.10687688667923
 32
0.0
 70
    32
  1
※a<>
  3
STANDARD
100
AcDbAlignedDimension
 13
199.5403080583033
 23
426.4313103516114
 33
0.0
 14
259.5403080582526
 24
426.4312275752164
 34
0.0
100
AcDbRotatedDimension
1001
ACAD
1000
DSTYLE
1002
{
1070
   140
1040
6.0
1070
    74
1070
     0
1070
   172
1070
     1
1070
    73
1070
     0
1070
   272
1070
     2
1070
    77
1070
     3
1070
   173
1070
     1
1070
   147
1040
2.0
1070
    42
1040
6.0
1070
    44
1040
3.0
1070
    43
1040
14.0
1070
   271
1070
     0
1070
   178
1070
     4
1070
   177
1070
     4
1070
   176
1070
     4
1070
   141
1040
150.0
1070
     7
1000
_OPEN
1070
     6
1000
_OPEN
1070
    41
1040
7.0
1002
}
  0
LINE
  5
50F
330
1A
100
AcDbEntity
  8
SEIHIN
  6
CONTINUOUS
 62
     3
 48
16.0
100
AcDbLine
 10
229.5403424416295
 20
429.0978911855829
 30
0.0
 11
162.0403424416296
 21
423.098091185583
 31
0.0
  0
LINE
  5
510
330
1A
100
AcDbEntity
  8
SEIHIN
  6
CONTINUOUS
 62
     3
 48
16.0
100
AcDbLine
 10
229.8944424416294
 20
425.1135911855831
 30
0.0
 11
163.2394424416295
 21
419.1888911855831
 31
0.0
  0
LINE
  5
511
330
1A
100
AcDbEntity
  8
SEIHIN
  6
CONTINUOUS
 62
     3
 48
16.0
100
AcDbLine
 10
165.0097424416295
 20
413.3225911855829
 30
0.0
 11
199.3545424416296
 21
416.3840911855829
 31
0.0
  0
ARC
  5
512
330
1A
100
AcDbEntity
  8
SEIHIN
  6
CONTINUOUS
 62
     3
 48
16.0
100
AcDbCircle
 10
200.2398654655392
 20
406.4233776313732
 30
0.0
 40
9.999989833503576
100
AcDbArc
 50
21.55916045907329
 51
97.4703108628624
  0
ARC
  5
513
330
1A
100
AcDbEntity
  8
SEIHIN
  6
CONTINUOUS
 62
     3
 48
16.0
100
AcDbCircle
 10
215.4564719499458
 20
411.0973665955625
 30
0.0
 40
6.000060223883221
100
AcDbArc
 50
189.5888905839559
 51
270.7999672315135
  0
LINE
  5
514
330
1A
100
AcDbEntity
  8
SEIHIN
  6
CONTINUOUS
 62
     3
 48
16.0
100
AcDbLine
 10
215.5402424416295
 20
405.097891185583
 30
0.0
 11
215.5402424416295
 21
403.6293911855831
 31
0.0
  0
ARC
  5
515
330
1A
100
AcDbEntity
  8
SEIHIN
  6
CONTINUOUS
 62
     3
 48
16.0
100
AcDbCircle
 10
258.8407194177199
 20
406.4232776313733
 30
0.0
 40
9.999989833503484
100
AcDbArc
 50
82.52968913713788
 51
158.440839540927
  0
ARC
  5
516
330
1A
100
AcDbEntity
  8
SEIHIN
  6
CONTINUOUS
 62
     3
 48
16.0
100
AcDbCircle
 10
243.6241612889012
 20
411.0973068914801
 30
0.0
 40
6.000002598757113
100
AcDbArc
 50
269.1986082557169
 51
350.4115946629781
  0
LINE
  5
517
330
1A
100
AcDbEntity
  8
SEIHIN
  6
CONTINUOUS
 62
     3
 48
16.0
100
AcDbLine
 10
243.5402424416296
 20
405.097891185583
 30
0.0
 11
243.5402424416296
 21
403.6293911855831
 31
0.0
  0
LINE
  5
518
330
1A
100
AcDbEntity
  8
SEIHIN
  6
CONTINUOUS
 62
     3
 48
16.0
100
AcDbLine
 10
350.0403424416294
 20
399.0978911855829
 30
0.0
 11
348.8094424416296
 21
390.0711911855829
 31
0.0
  0
ARC
  5
519
330
1A
100
AcDbEntity
  8
SEIHIN
  6
CONTINUOUS
 62
     3
 48
16.0
100
AcDbCircle
 10
350.7845087254925
 20
519.0747996558261
 30
0.0
 40
120.0000084703584
100
AcDbArc
 50
241.795844265164
 51
269.9999206053094
  0
ARC
  5
51A
330
1A
100
AcDbEntity
  8
SEIHIN
  6
CONTINUOUS
 62
     3
 48
16.0
100
AcDbCircle
 10
315.3730857769611
 20
357.0978285057676
 30
0.0
 40
6.000037320341112
100
AcDbArc
 50
269.9995861806392
 51
351.4693399647896
  0
LINE
  5
51B
330
1A
100
AcDbEntity
  8
SEIHIN
  6
CONTINUOUS
 62
     3
 48
16.0
100
AcDbLine
 10
315.3730424416294
 20
351.0977911855831
 30
0.0
 11
315.0401424416294
 21
351.0977911855831
 31
0.0
  0
ARC
  5
51C
330
1A
100
AcDbEntity
  8
SEIHIN
  6
CONTINUOUS
 62
     3
 48
16.0
100
AcDbCircle
 10
315.0401424416294
 20
350.0977911855831
 30
0.0
 40
1.0
100
AcDbArc
 50
90.0
 51
180.0
  0
LINE
  5
51D
330
1A
100
AcDbEntity
  8
SEIHIN
  6
CONTINUOUS
 62
     3
 48
16.0
100
AcDbLine
 10
314.0401424416294
 20
349.0977911855831
 30
0.0
 11
314.0401424416294
 21
350.0977911855831
 31
0.0
  0
ARC
  5
51E
330
1A
100
AcDbEntity
  8
SEIHIN
  6
CONTINUOUS
 62
     3
 48
16.0
100
AcDbCircle
 10
323.2123580740807
 20
371.0979049855639
 30
0.0
 40
10.0000137999932
100
AcDbArc
 50
269.9999104327762
 51
352.8746098179871
  0
LINE
  5
51F
330
1A
100
AcDbEntity
  8
SEIHIN
  6
CONTINUOUS
 62
     3
 48
16.0
100
AcDbLine
 10
322.0401424416294
 20
361.097791185583
 30
0.0
 11
321.3067424416296
 21
356.2077911855831
 31
0.0
  0
LINE
  5
520
330
1A
100
AcDbEntity
  8
SEIHIN
  6
CONTINUOUS
 62
     3
 48
16.0
100
AcDbLine
 10
334.0401424416294
 20
377.0978911855829
 30
0.0
 11
333.1351424416295
 21
369.857491185583
 31
0.0
  0
ARC
  5
521
330
1A
100
AcDbEntity
  8
SEIHIN
  6
CONTINUOUS
 62
     3
 48
16.0
100
AcDbCircle
 10
333.9469205219446
 20
392.0978720522251
 30
0.0
 40
14.99998086665827
100
AcDbArc
 50
270.0000837271359
 51
352.2345048321167
  0
ARC
  5
522
330
1A
100
AcDbEntity
  8
SEIHIN
  6
CONTINUOUS
 62
     3
 48
16.0
100
AcDbCircle
 10
350.7846293680971
 20
519.0747694538447
 30
0.0
 40
110.0000049675312
100
AcDbArc
 50
240.752359313209
 51
271.1749130120649
  0
ARC
  5
523
330
1A
100
AcDbEntity
  8
SEIHIN
  6
CONTINUOUS
 62
     3
 48
16.0
100
AcDbCircle
 10
350.7845322979437
 20
519.0747937913244
 30
0.0
 40
114.0000026058995
100
AcDbArc
 50
241.1864809909654
 51
269.999904579252
  0
LINE
  5
524
330
1A
100
AcDbEntity
  8
SEIHIN
  6
CONTINUOUS
 62
     3
 48
16.0
100
AcDbLine
 10
353.0403424416296
 20
409.097891185583
 30
0.0
 11
353.0403424416296
 21
405.0977911855831
 31
0.0
  0
LINE
  5
525
330
1A
100
AcDbEntity
  8
SEIHIN
  6
CONTINUOUS
 62
     3
 48
16.0
100
AcDbLine
 10
351.5403424416295
 20
405.0977911855831
 30
0.0
 11
351.5403424416295
 21
399.0977911855831
 31
0.0
  0
DIMENSION
  5
526
330
1A
100
AcDbEntity
  8
SUNPOU
  6
CONTINUOUS
100
AcDbDimension
  2
*D4
 10
718.0915121569981
 20
299.462317568815
 30
0.0
 11
713.091512156998
 21
330.6123326299834
 31
0.0
 12
33.77995692725892
 22
-15.10687688667923
 32
0.0
 70
    32
  3
STANDARD
100
AcDbAlignedDimension
 13
689.0543694981237
 23
361.7623476911518
 33
0.0
 14
623.0542694981237
 24
299.462317568815
 34
0.0
 50
90.0
100
AcDbRotatedDimension
1001
ACAD
1000
DSTYLE
1002
{
1070
   140
1040
6.0
1070
    74
1070
     0
1070
   172
1070
     1
1070
    73
1070
     0
1070
   272
1070
     2
1070
    77
1070
     3
1070
   173
1070
     1
1070
   147
1040
2.0
1070
    42
1040
6.0
1070
    44
1040
3.0
1070
    43
1040
14.0
1070
   271
1070
     0
1070
   178
1070
     4
1070
   177
1070
     4
1070
   176
1070
     4
1070
   141
1040
150.0
1070
     7
1000
_OPEN
1070
     6
1000
_OPEN
1070
    41
1040
7.0
1002
}
  0
LINE
  5
527
330
1A
100
AcDbEntity
  8
SEIHIN
  6
CONTINUOUS
 62
     3
 48
16.0
100
AcDbLine
 10
689.0543694981237
 20
361.7623476911518
 30
0.0
 11
682.3656694981238
 21
236.2217476911518
 31
0.0
  0
LINE
  5
528
330
1A
100
AcDbEntity
  8
SEIHIN
  6
CONTINUOUS
 62
     3
 48
16.0
100
AcDbLine
 10
531.3541694981238
 20
319.0369476911517
 30
0.0
 11
548.3477694981237
 21
226.3440476911518
 31
0.0
  0
LINE
  5
529
330
1A
100
AcDbEntity
  8
SEIHIN
  6
CONTINUOUS
 62
     3
 48
16.0
100
AcDbLine
 10
540.5545694981237
 20
349.7624476911518
 30
0.0
 11
559.0008694981237
 21
249.1452476911518
 31
0.0
  0
ARC
  5
52A
330
1A
100
AcDbEntity
  8
SEIHIN
  6
CONTINUOUS
 62
     3
 48
16.0
100
AcDbCircle
 10
481.06625051214
 20
292.3396016917099
 30
0.0
 40
56.78433369313373
100
AcDbArc
 50
11.26612345957096
 51
27.47595359298091
  0
ARC
  5
52B
330
1A
100
AcDbEntity
  8
SEIHIN
  6
CONTINUOUS
 62
     3
 48
16.0
100
AcDbCircle
 10
623.0542844067457
 20
349.7623476634836
 30
0.0
 40
50.3000300946709
100
AcDbArc
 50
191.9287818020502
 51
347.8585474882611
  0
LINE
  5
52C
330
1A
100
AcDbEntity
  8
CENTER_L
  6
CENTER
 62
     1
 48
5.0
100
AcDbLine
 10
623.0542694981237
 20
156.5185582367179
 30
0.0
 11
623.0542694981237
 21
359.4623476911518
 31
0.0
  0
ARC
  5
52D
330
1A
100
AcDbEntity
  8
NOKITOI
  6
PHANTOM
 62
     8
 48
2.0
100
AcDbCircle
 10
623.0542694981237
 20
349.462317568815
 30
0.0
 40
49.00000099999999
100
AcDbArc
 50
185.413376
 51
354.5863799999999
  0
ARC
  5
52E
330
1A
100
AcDbEntity
  8
NOKITOI
  6
PHANTOM
 62
     8
 48
2.0
100
AcDbCircle
 10
623.0542694981237
 20
349.462317568815
 30
0.0
 40
50.300012
100
AcDbArc
 50
188.6764639999999
 51
351.2914929999999
  0
DIMENSION
  5
52F
330
1A
100
AcDbEntity
  8
SUNPOU
  6
CONTINUOUS
100
AcDbDimension
  2
*D5
 10
433.4021487288135
 20
211.7624476911518
 30
0.0
 11
428.4021487288135
 21
320.7624976911517
 31
0.0
 12
33.77995692725892
 22
-15.10687688667923
 32
0.0
 70
    32
  3
STANDARD
100
AcDbAlignedDimension
 13
468.5544694981238
 23
429.7625476911517
 33
0.0
 14
577.3044694981239
 24
211.7624476911518
 34
0.0
 50
90.0
100
AcDbRotatedDimension
1001
ACAD
1000
DSTYLE
1002
{
1070
   140
1040
6.0
1070
    74
1070
     0
1070
   172
1070
     1
1070
    73
1070
     0
1070
   272
1070
     2
1070
    77
1070
     3
1070
   173
1070
     1
1070
   147
1040
2.0
1070
    42
1040
6.0
1070
    44
1040
3.0
1070
    43
1040
14.0
1070
   271
1070
     0
1070
   178
1070
     4
1070
   177
1070
     4
1070
   176
1070
     4
1070
   141
1040
150.0
1070
     7
1000
_OPEN
1070
     6
1000
_OPEN
1070
    41
1040
7.0
1002
}
  0
ARC
  5
530
330
1A
100
AcDbEntity
  8
SEIHIN
  6
CONTINUOUS
 62
     3
 48
16.0
100
AcDbCircle
 10
668.1139229185101
 20
250.6631135078392
 30
0.0
 40
14.9999972589069
100
AcDbArc
 50
284.9203782611265
 51
356.9497900403595
  0
DIMENSION
  5
531
330
1A
100
AcDbEntity
  8
SUNPOU
  6
CONTINUOUS
100
AcDbDimension
  2
*D6
 10
703.9361226372413
 20
195.7623338299951
 30
0.0
 11
698.9361226372413
 21
224.1623338299951
 31
0.0
 12
33.77995692725892
 22
-15.10687688667923
 32
0.0
 70
    32
  1
※b <>
  3
STANDARD
100
AcDbAlignedDimension
 13
663.4543694981238
 23
183.7623476911517
 33
0.0
 14
669.0543054980683
 24
195.7623338299951
 34
0.0
 50
90.0
100
AcDbRotatedDimension
1001
ACAD
1000
DSTYLE
1002
{
1070
   140
1040
6.0
1070
    74
1070
     0
1070
   172
1070
     1
1070
    73
1070
     0
1070
   272
1070
     2
1070
    77
1070
     3
1070
   173
1070
     1
1070
   147
1040
2.0
1070
    42
1040
6.0
1070
    44
1040
3.0
1070
    43
1040
14.0
1070
   271
1070
     0
1070
   178
1070
     4
1070
   177
1070
     4
1070
   176
1070
     4
1070
   141
1040
150.0
1070
     7
1000
_OPEN
1070
     6
1000
_OPEN
1070
    41
1040
7.0
1002
}
  0
TEXT
  5
532
330
1A
100
AcDbEntity
  8
SUNPOU
 62
     4
100
AcDbText
 10
597.6555354295641
 20
66.98697679099845
 30
0.0
 40
8.0
  1
※a　のきといの縁切り間隔寸法を示す。　
100
AcDbText
  0
TEXT
  5
533
330
1A
100
AcDbEntity
  8
SUNPOU
 62
     4
100
AcDbText
 10
597.6555354295641
 20
54.25261927243522
 30
0.0
 40
8.0
  1
※b　エルボの差込み寸法を示す。　
100
AcDbText
  0
LINE
  5
534
330
1A
100
AcDbEntity
  8
SUNPOU
 62
     4
100
AcDbLine
 10
669.0542694981237
 20
180.7623476911518
 30
0.0
 11
669.0542694981237
 21
118.9463392728782
 31
0.0
  0
LINE
  5
535
330
1A
100
AcDbEntity
  8
SUNPOU
 62
     4
100
AcDbLine
 10
577.0542694981237
 20
180.7626476911518
 30
0.0
 11
577.0542694981237
 21
118.9463392728782
 31
0.0
  0
ARC
  5
536
330
1A
100
AcDbEntity
  8
SEIHIN
  6
CONTINUOUS
 62
     3
 48
16.0
100
AcDbCircle
 10
550.2404257881547
 20
254.0786602011424
 30
0.0
 40
27.79912332165849
100
AcDbArc
 50
266.0958872227823
 51
298.9636246715114
  0
ARC
  5
537
330
1A
100
AcDbEntity
  8
SEIHIN
  6
CONTINUOUS
 62
     3
 48
16.0
100
AcDbCircle
 10
621.438661218193
 20
475.8589249127086
 30
0.0
 40
259.9999530682646
100
AcDbArc
 50
253.672891769555
 51
258.4328783194267
  0
ARC
  5
538
330
1A
100
AcDbEntity
  8
SEIHIN
  6
CONTINUOUS
 62
     3
 48
16.0
100
AcDbCircle
 10
563.1760688155792
 20
245.2936481913734
 30
0.0
 40
15.54608135785348
100
AcDbArc
 50
194.6872697040146
 51
272.8390336355206
  0
DIMENSION
  5
539
330
1A
100
AcDbEntity
  8
SUNPOU
  6
CONTINUOUS
100
AcDbDimension
  2
*D7
 10
433.4021487288135
 20
183.7626476911518
 30
0.0
 11
428.4021487288135
 21
197.7625476911518
 31
0.0
 12
33.77995692725892
 22
-15.10687688667923
 32
0.0
 70
    32
  3
STANDARD
100
AcDbAlignedDimension
 13
577.3044694981239
 23
211.7624476911518
 33
0.0
 14
582.6542694981236
 24
183.7626476911518
 34
0.0
 50
90.0
100
AcDbRotatedDimension
1001
ACAD
1000
DSTYLE
1002
{
1070
   140
1040
6.0
1070
    74
1070
     0
1070
   172
1070
     1
1070
    73
1070
     0
1070
   272
1070
     2
1070
    77
1070
     3
1070
    75
1070
     1
1070
   173
1070
     1
1070
   147
1040
2.0
1070
    42
1040
6.0
1070
    44
1040
3.0
1070
    43
1040
14.0
1070
   271
1070
     0
1070
   178
1070
     4
1070
   177
1070
     4
1070
   176
1070
     4
1070
   141
1040
150.0
1070
     7
1000
_OPEN
1070
     6
1000
_OPEN
1070
    41
1040
7.0
1002
}
  0
LINE
  5
53A
330
1A
100
AcDbEntity
  8
SEIHIN
  6
CONTINUOUS
 62
     3
 48
16.0
100
AcDbLine
 10
536.6161694981236
 20
304.1989476911518
 30
0.0
 11
548.1379694981239
 21
241.3521476911518
 31
0.0
  0
LINE
  5
53B
330
1A
100
AcDbEntity
  8
SEIHIN
  6
CONTINUOUS
 62
     3
 48
16.0
100
AcDbLine
 10
669.1477694981239
 20
215.4255476911517
 30
0.0
 11
668.8043694981237
 21
211.7624476911518
 31
0.0
  0
ARC
  5
53C
330
1A
100
AcDbEntity
  8
SEIHIN
  6
CONTINUOUS
 62
     3
 48
16.0
100
AcDbCircle
 10
567.3000104615769
 20
211.3424020277802
 30
0.0
 40
10.00002030353406
100
AcDbArc
 50
5.356036132371435
 51
78.43347935551896
  0
MTEXT
  5
53D
330
1A
100
AcDbEntity
  8
SUNPOU
 62
     4
100
AcDbMText
 10
623.0542694981237
 20
126.9463392728782
 30
0.0
 40
6.0
 41
0.0
 71
     5
 72
     1
  1
\A1;φ92
1001
ACAD
1000
MTEXTBEGIN
1070
    73
1070
     1
1070
    44
1040
1.0
1070
    74
1070
     0
1000
MTEXTEND
1000
MTEXTBEGIN
1070
    73
1070
     1
1070
    44
1040
1.0
1070
    74
1070
     0
1000
MTEXTEND
1000
MTEXTBEGIN
1070
    73
1070
     1
1070
    44
1040
1.0
1070
    74
1070
     0
1000
MTEXTEND
  0
DIMENSION
  5
53E
330
1A
100
AcDbEntity
  8
SUNPOU
  6
CONTINUOUS
100
AcDbDimension
  2
*D8
 10
586.8544694981236
 20
140.4275604859341
 30
0.0
 11
623.0543694981236
 21
145.4275604859341
 31
0.0
 12
33.77995692725892
 22
-15.10687688667923
 32
0.0
 70
    32
  1
φ<>
  3
STANDARD
100
AcDbAlignedDimension
 13
659.2542694981237
 23
170.7624476911517
 33
0.0
 14
586.8544694981236
 24
170.7625476911518
 34
0.0
100
AcDbRotatedDimension
1001
ACAD
1000
DSTYLE
1002
{
1070
   140
1040
6.0
1070
    74
1070
     0
1070
   172
1070
     1
1070
    73
1070
     0
1070
   272
1070
     2
1070
    77
1070
     3
1070
   173
1070
     1
1070
   147
1040
2.0
1070
    42
1040
6.0
1070
    44
1040
3.0
1070
    43
1040
14.0
1070
   271
1070
     0
1070
   178
1070
     4
1070
   177
1070
     4
1070
   176
1070
     4
1070
   141
1040
150.0
1070
     7
1000
_OPEN
1070
     6
1000
_OPEN
1070
    41
1040
7.0
1002
}
  0
LINE
  5
53F
330
1A
100
AcDbEntity
  8
SUNPOU
 62
     4
100
AcDbLine
 10
662.0542694981237
 20
121.9463392728782
 30
0.0
 11
584.0542694981237
 21
121.9463392728782
 31
0.0
  0
LINE
  5
540
330
1A
100
AcDbEntity
  8
SEIHIN
  6
CONTINUOUS
 62
     3
 48
16.0
100
AcDbLine
 10
582.6542694981236
 20
183.7626476911518
 30
0.0
 11
623.0542694981237
 21
183.7624476911518
 31
0.0
  0
LINE
  5
541
330
1A
100
AcDbEntity
  8
SEIHIN
  6
CONTINUOUS
 62
     3
 48
16.0
100
AcDbLine
 10
623.0544694981239
 20
170.7624476911517
 30
0.0
 11
586.8543694981239
 21
170.7624476911517
 31
0.0
  0
LINE
  5
542
330
1A
100
AcDbEntity
  8
SEIHIN
  6
CONTINUOUS
 62
     3
 48
16.0
100
AcDbLine
 10
577.0542694981237
 20
186.7626476911518
 30
0.0
 11
623.0542694981237
 21
186.7624476911518
 31
0.0
  0
LINE
  5
543
330
1A
100
AcDbEntity
  8
SEIHIN
  6
CONTINUOUS
 62
     3
 48
16.0
100
AcDbLine
 10
623.053969498124
 20
211.7624476911518
 30
0.0
 11
577.3044694981239
 21
211.7624476911518
 31
0.0
  0
LINE
  5
544
330
1A
100
AcDbEntity
  8
SEIHIN
  6
CONTINUOUS
 62
     3
 48
16.0
100
AcDbLine
 10
659.2542694981237
 20
170.7625476911518
 30
0.0
 11
586.8544694981236
 21
170.7625476911518
 31
0.0
  0
LINE
  5
545
330
1A
100
AcDbEntity
  8
SEIHIN
  6
CONTINUOUS
 62
     3
 48
16.0
100
AcDbLine
 10
669.0543694981236
 20
211.7623476911517
 30
0.0
 11
577.0543694981236
 21
211.7625476911518
 31
0.0
  0
INSERT
  5
546
330
1A
100
AcDbEntity
  8
SUNPOU
 62
     4
100
AcDbBlockReference
  2
_OPEN
 10
577.0542694981237
 20
121.9463392728782
 30
0.0
 41
7.0
 42
7.0
 43
7.0
 50
180.0
  0
POINT
  5
547
330
1A
100
AcDbEntity
  8
SUNPOU
 62
     4
100
AcDbPoint
 10
543.2743125708648
 20
137.0532161595574
 30
0.0
  0
LINE
  5
548
330
1A
100
AcDbEntity
  8
SEIHIN
  6
CONTINUOUS
 62
     3
 48
16.0
100
AcDbLine
 10
577.0543694981236
 20
211.7626476911517
 30
0.0
 11
577.0542694981237
 21
186.7626476911518
 31
0.0
  0
LINE
  5
549
330
1A
100
AcDbEntity
  8
SEIHIN
  6
CONTINUOUS
 62
     3
 48
16.0
100
AcDbLine
 10
577.0542694981237
 20
186.7626476911518
 30
0.0
 11
582.6542694981236
 21
183.7626476911518
 31
0.0
  0
POINT
  5
54A
330
1A
100
AcDbEntity
  8
SUNPOU
 62
     4
100
AcDbPoint
 10
543.2743125708648
 20
201.8695245778311
 30
0.0
  0
LINE
  5
54B
330
1A
100
AcDbEntity
  8
SEIHIN
  6
CONTINUOUS
 62
     3
 48
16.0
100
AcDbLine
 10
577.2562694981237
 20
212.2758476911518
 30
0.0
 11
577.3044694981239
 21
211.7624476911518
 31
0.0
  0
LINE
  5
54C
330
1A
100
AcDbEntity
  8
SEIHIN
  6
CONTINUOUS
 62
     3
 48
16.0
100
AcDbLine
 10
586.8543694981239
 20
170.7624476911517
 30
0.0
 11
586.8543694981239
 21
183.7626476911518
 31
0.0
  0
INSERT
  5
54D
330
1A
100
AcDbEntity
  8
SUNPOU
 62
     4
100
AcDbBlockReference
  2
_OPEN
 10
669.0542694981237
 20
121.9463392728782
 30
0.0
 41
7.0
 42
7.0
 43
7.0
  0
LINE
  5
54E
330
1A
100
AcDbEntity
  8
SEIHIN
  6
CONTINUOUS
 62
     3
 48
16.0
100
AcDbLine
 10
623.0542694981237
 20
170.7624476911517
 30
0.0
 11
659.2542694981237
 21
170.7624476911517
 31
0.0
  0
LINE
  5
54F
330
1A
100
AcDbEntity
  8
SEIHIN
  6
CONTINUOUS
 62
     3
 48
16.0
100
AcDbLine
 10
663.4543694981238
 20
183.7623476911517
 30
0.0
 11
623.0542694981237
 21
183.7624476911518
 31
0.0
  0
LINE
  5
550
330
1A
100
AcDbEntity
  8
SEIHIN
  6
CONTINUOUS
 62
     3
 48
16.0
100
AcDbLine
 10
669.0542694981237
 20
186.7623476911518
 30
0.0
 11
623.0542694981237
 21
186.7624476911518
 31
0.0
  0
LINE
  5
551
330
1A
100
AcDbEntity
  8
SEIHIN
  6
CONTINUOUS
 62
     3
 48
16.0
100
AcDbLine
 10
623.0548694981238
 20
211.7624476911518
 30
0.0
 11
668.8042694981237
 21
211.7624476911518
 31
0.0
  0
LINE
  5
552
330
1A
100
AcDbEntity
  8
SEIHIN
  6
CONTINUOUS
 62
     3
 48
16.0
100
AcDbLine
 10
669.0543694981236
 20
211.7623476911517
 30
0.0
 11
669.0542694981237
 21
186.7623476911518
 31
0.0
  0
LINE
  5
553
330
1A
100
AcDbEntity
  8
SEIHIN
  6
CONTINUOUS
 62
     3
 48
16.0
100
AcDbLine
 10
669.0542694981237
 20
186.7623476911518
 30
0.0
 11
663.4543694981238
 21
183.7623476911517
 31
0.0
  0
LINE
  5
554
330
1A
100
AcDbEntity
  8
SEIHIN
  6
CONTINUOUS
 62
     3
 48
16.0
100
AcDbLine
 10
659.2543694981237
 20
170.7624476911517
 30
0.0
 11
659.2543694981237
 21
183.7626476911518
 31
0.0
  0
POINT
  5
555
330
1A
100
AcDbEntity
  8
SUNPOU
 62
     4
100
AcDbPoint
 10
635.2743125708648
 20
201.869224577831
 30
0.0
  0
LINE
  5
556
330
1A
100
AcDbEntity
  8
SEIHIN
  6
CONTINUOUS
 62
     3
 48
16.0
100
AcDbLine
 10
576.5543694981237
 20
219.7624476911518
 30
0.0
 11
669.5543694981237
 21
219.7624476911518
 31
0.0
  0
ARC
  5
557
330
1A
100
AcDbEntity
  8
SEIHIN
  6
CONTINUOUS
 62
     3
 48
16.0
100
AcDbCircle
 10
623.0544469457973
 20
419.7625479749341
 30
0.0
 40
190.0000164142773
100
AcDbArc
 50
253.6375620038174
 51
284.9205923610364
  0
ARC
  5
558
330
1A
100
AcDbEntity
  8
SEIHIN
  6
CONTINUOUS
 62
     3
 48
16.0
100
AcDbCircle
 10
573.7549947478827
 20
251.8501196612198
 30
0.0
 40
15.00000010985476
100
AcDbArc
 50
190.3882905219286
 51
253.6374111629722
  0
ARC
  5
559
330
1A
100
AcDbEntity
  8
SEIHIN
  6
CONTINUOUS
 62
     3
 48
16.0
100
AcDbCircle
 10
667.3869534207666
 20
237.0197171209
 30
0.0
 40
14.99996167131022
100
AcDbArc
 50
307.5689680829759
 51
356.9501514910557
  0
LINE
  5
55A
330
1A
100
AcDbEntity
  8
SEIHIN
  6
CONTINUOUS
 62
     3
 48
16.0
100
AcDbLine
 10
676.5326694981239
 20
225.1304476911518
 30
0.0
 11
673.0069694981238
 21
222.4183476911517
 31
0.0
  0
ARC
  5
55B
330
1A
100
AcDbEntity
  8
SEIHIN
  6
CONTINUOUS
 62
     3
 48
16.0
100
AcDbCircle
 10
679.104073418268
 20
214.4921547943694
 30
0.0
 40
9.999960502424073
100
AcDbArc
 50
127.5687394481928
 51
174.644235401409
  0
DIMENSION
  5
55C
330
1A
100
AcDbEntity
  8
SUNPOU
  6
CONTINUOUS
100
AcDbDimension
  2
*D9
 10
468.5544694981238
 20
472.2170201364682
 30
0.0
 11
578.8044194981238
 21
477.2170201364682
 31
0.0
 12
33.77995692725892
 22
-15.10687688667923
 32
0.0
 70
    32
  3
STANDARD
100
AcDbAlignedDimension
 13
689.0543694981237
 23
361.7623476911518
 33
0.0
 14
468.5544694981238
 24
429.7625476911517
 34
0.0
100
AcDbRotatedDimension
1001
ACAD
1000
DSTYLE
1002
{
1070
   140
1040
6.0
1070
    74
1070
     0
1070
   172
1070
     1
1070
    73
1070
     0
1070
   272
1070
     2
1070
    77
1070
     3
1070
   173
1070
     1
1070
   147
1040
2.0
1070
    42
1040
6.0
1070
    44
1040
3.0
1070
    43
1040
14.0
1070
   271
1070
     0
1070
   178
1070
     4
1070
   177
1070
     4
1070
   176
1070
     4
1070
   141
1040
150.0
1070
     7
1000
_OPEN
1070
     6
1000
_OPEN
1070
    41
1040
7.0
1002
}
  0
LINE
  5
55D
330
1A
100
AcDbEntity
  8
SEIHIN
  6
CONTINUOUS
 62
     3
 48
16.0
100
AcDbLine
 10
665.2655694981238
 20
361.7624476911518
 30
0.0
 11
689.0543694981237
 21
361.7623476911518
 31
0.0
  0
DIMENSION
  5
55E
330
1A
100
AcDbEntity
  8
SUNPOU
  6
CONTINUOUS
100
AcDbDimension
  2
*D10
 10
623.0542694981237
 20
416.8365430507485
 30
0.0
 11
656.0543194981237
 21
421.8365430507485
 31
0.0
 12
33.77995692725892
 22
-15.10687688667923
 32
0.0
 70
    32
  3
STANDARD
100
AcDbAlignedDimension
 13
689.0543694981237
 23
361.7623476911518
 33
0.0
 14
623.0542694981237
 24
359.4623476911518
 34
0.0
100
AcDbRotatedDimension
1001
ACAD
1000
DSTYLE
1002
{
1070
   140
1040
6.0
1070
    74
1070
     0
1070
   172
1070
     1
1070
    73
1070
     0
1070
   272
1070
     2
1070
    77
1070
     3
1070
   173
1070
     1
1070
   147
1040
2.0
1070
    42
1040
6.0
1070
    44
1040
3.0
1070
    43
1040
14.0
1070
   271
1070
     0
1070
   178
1070
     4
1070
   177
1070
     4
1070
   176
1070
     4
1070
   141
1040
150.0
1070
     7
1000
_OPEN
1070
     6
1000
_OPEN
1070
    41
1040
7.0
1002
}
  0
LINE
  5
55F
330
1A
100
AcDbEntity
  8
SEIHIN
  6
CONTINUOUS
 62
     3
 48
16.0
100
AcDbLine
 10
511.0505694981236
 20
405.7569476911519
 30
0.0
 11
573.8886694981239
 21
405.7587476911518
 31
0.0
  0
LINE
  5
560
330
1A
100
AcDbEntity
  8
SEIHIN
  6
CONTINUOUS
 62
     3
 48
16.0
100
AcDbLine
 10
510.1722694981236
 20
409.7625476911518
 30
0.0
 11
569.7436694981238
 21
409.7625476911518
 31
0.0
  0
LINE
  5
561
330
1A
100
AcDbEntity
  8
SEIHIN
  6
CONTINUOUS
 62
     3
 48
16.0
100
AcDbLine
 10
511.0505694981236
 20
399.7569476911519
 30
0.0
 11
575.5136694981239
 21
399.7588476911516
 31
0.0
  0
LINE
  5
562
330
1A
100
AcDbEntity
  8
SEIHIN
  6
CONTINUOUS
 62
     3
 48
16.0
100
AcDbLine
 10
513.5544694981238
 20
349.7624476911518
 30
0.0
 11
569.0284694981238
 21
349.7624476911518
 31
0.0
  0
LINE
  5
563
330
1A
100
AcDbEntity
  8
SEIHIN
  6
CONTINUOUS
 62
     3
 48
16.0
100
AcDbLine
 10
580.0406694981237
 20
351.7624476911518
 30
0.0
 11
513.9288694981238
 21
351.7624476911518
 31
0.0
  0
LINE
  5
564
330
1A
100
AcDbEntity
  8
SEIHIN
  6
CONTINUOUS
 62
     3
 48
16.0
100
AcDbLine
 10
504.3822694981238
 20
361.7624476911518
 30
0.0
 11
585.8044694981239
 21
361.7624476911518
 31
0.0
  0
LINE
  5
565
330
1A
100
AcDbEntity
  8
SEIHIN
  6
CONTINUOUS
 62
     3
 48
16.0
100
AcDbLine
 10
490.6477694981236
 20
377.7624476911518
 30
0.0
 11
581.4710694981236
 21
377.7624476911518
 31
0.0
  0
LINE
  5
566
330
1A
100
AcDbEntity
  8
SEIHIN
  6
CONTINUOUS
 62
     3
 48
16.0
100
AcDbLine
 10
513.5544694981238
 20
399.7625476911517
 30
0.0
 11
514.7854694981236
 21
390.7357476911518
 31
0.0
  0
ARC
  5
567
330
1A
100
AcDbEntity
  8
SEIHIN
  6
CONTINUOUS
 62
     3
 48
16.0
100
AcDbCircle
 10
511.0506240164381
 20
431.7569168265125
 30
0.0
 40
31.99996913540712
100
AcDbArc
 50
210.9686027061197
 51
269.9999023852392
  0
ARC
  5
568
330
1A
100
AcDbEntity
  8
SEIHIN
  6
CONTINUOUS
 62
     3
 48
16.0
100
AcDbCircle
 10
443.246160302939
 20
409.0234108062652
 30
0.0
 40
34.47597728247061
100
AcDbArc
 50
337.4313074733932
 51
354.572477340361
  0
ARC
  5
569
330
1A
100
AcDbEntity
  8
SEIHIN
  6
CONTINUOUS
 62
     3
 48
16.0
100
AcDbCircle
 10
441.7461603029392
 20
409.0234108062647
 30
0.0
 40
34.47597728247048
100
AcDbArc
 50
337.4313074733941
 51
354.572477340362
  0
LINE
  5
56A
330
1A
100
AcDbEntity
  8
SEIHIN
  6
CONTINUOUS
 62
     3
 48
16.0
100
AcDbLine
 10
469.5520694981238
 20
425.3443476911519
 30
0.0
 11
473.5859694981236
 21
395.7625476911517
 31
0.0
  0
ARC
  5
56B
330
1A
100
AcDbEntity
  8
SEIHIN
  6
CONTINUOUS
 62
     3
 48
16.0
100
AcDbCircle
 10
490.6478068963068
 20
392.762415046414
 30
0.0
 40
14.99996735530886
100
AcDbArc
 50
187.7646791031289
 51
269.9998571491517
  0
LINE
  5
56C
330
1A
100
AcDbEntity
  8
SEIHIN
  6
CONTINUOUS
 62
     3
 48
16.0
100
AcDbLine
 10
473.5859694981236
 20
395.7625476911517
 30
0.0
 11
475.0998694981237
 21
395.7625476911517
 31
0.0
  0
LINE
  5
56D
330
1A
100
AcDbEntity
  8
SEIHIN
  6
CONTINUOUS
 62
     3
 48
16.0
100
AcDbLine
 10
475.0998694981237
 20
395.7625476911517
 30
0.0
 11
475.7853694981236
 21
390.7357476911518
 31
0.0
  0
ARC
  5
56E
330
1A
100
AcDbEntity
  8
SEIHIN
  6
CONTINUOUS
 62
     3
 48
16.0
100
AcDbCircle
 10
541.2216835793912
 20
357.7624355644607
 30
0.0
 40
5.999987873325463
100
AcDbArc
 50
188.5302533960901
 51
269.9998655335305
  0
ARC
  5
56F
330
1A
100
AcDbEntity
  8
SEIHIN
  6
CONTINUOUS
 62
     3
 48
16.0
100
AcDbCircle
 10
512.2216261627921
 20
357.7624850113364
 30
0.0
 40
6.000037320341114
100
AcDbArc
 50
188.5306600352103
 51
270.0004138193607
  0
ARC
  5
570
330
1A
100
AcDbEntity
  8
SEIHIN
  6
CONTINUOUS
 62
     3
 48
16.0
100
AcDbCircle
 10
547.3840401773315
 20
355.4555920948353
 30
0.0
 40
32.86613822580222
100
AcDbArc
 50
200.7096749456031
 51
226.16593992903
  0
LINE
  5
571
330
1A
100
AcDbEntity
  8
SEIHIN
  6
CONTINUOUS
 62
     3
 48
16.0
100
AcDbLine
 10
512.2216694981237
 20
351.7624476911518
 30
0.0
 11
512.5544694981236
 21
351.7624476911518
 31
0.0
  0
ARC
  5
572
330
1A
100
AcDbEntity
  8
SEIHIN
  6
CONTINUOUS
 62
     3
 48
16.0
100
AcDbCircle
 10
512.5544694981236
 20
350.7624476911517
 30
0.0
 40
1.000000000000056
100
AcDbArc
 50
0.0000000000032569
 51
90.00000000000325
  0
LINE
  5
573
330
1A
100
AcDbEntity
  8
SEIHIN
  6
CONTINUOUS
 62
     3
 48
16.0
100
AcDbLine
 10
513.5544694981238
 20
349.7624476911518
 30
0.0
 11
513.5544694981238
 21
350.7624476911518
 31
0.0
  0
LINE
  5
574
330
1A
100
AcDbEntity
  8
SEIHIN
  6
CONTINUOUS
 62
     3
 48
16.0
100
AcDbLine
 10
515.5544694981236
 20
349.7624476911518
 30
0.0
 11
516.6415694981237
 21
343.8330476911518
 31
0.0
  0
ARC
  5
575
330
1A
100
AcDbEntity
  8
SEIHIN
  6
CONTINUOUS
 62
     3
 48
16.0
100
AcDbCircle
 10
516.2457974404055
 20
319.3027965581119
 30
0.0
 40
15.02870911877992
100
AcDbArc
 50
0.6731028856495538
 51
56.63717729120776
  0
LINE
  5
576
330
1A
100
AcDbEntity
  8
SEIHIN
  6
CONTINUOUS
 62
     3
 48
16.0
100
AcDbLine
 10
539.1925694981238
 20
351.7537476911517
 30
0.0
 11
539.5254694981238
 21
351.7537476911517
 31
0.0
  0
ARC
  5
577
330
1A
100
AcDbEntity
  8
SEIHIN
  6
CONTINUOUS
 62
     3
 48
16.0
100
AcDbCircle
 10
539.5254694981238
 20
350.7537476911517
 30
0.0
 40
1.0
100
AcDbArc
 50
0.0
 51
90.0
  0
LINE
  5
578
330
1A
100
AcDbEntity
  8
SEIHIN
  6
CONTINUOUS
 62
     3
 48
16.0
100
AcDbLine
 10
540.5254694981238
 20
349.7537476911517
 30
0.0
 11
540.5254694981238
 21
350.7537476911517
 31
0.0
  0
ARC
  5
579
330
1A
100
AcDbEntity
  8
SEIHIN
  6
CONTINUOUS
 62
     3
 48
16.0
100
AcDbCircle
 10
529.6479501411316
 20
392.7624645879284
 30
0.0
 40
15.00001689699348
100
AcDbArc
 50
187.764844285534
 51
269.999691966747
  0
LINE
  5
57A
330
1A
100
AcDbEntity
  8
SEIHIN
  6
CONTINUOUS
 62
     3
 48
16.0
100
AcDbLine
 10
493.5544694981238
 20
377.7624476911518
 30
0.0
 11
494.4595694981237
 21
370.5221476911518
 31
0.0
  0
ARC
  5
57B
330
1A
100
AcDbEntity
  8
SEIHIN
  6
CONTINUOUS
 62
     3
 48
16.0
100
AcDbCircle
 10
504.3823170925565
 20
371.7624056754753
 30
0.0
 40
9.999957984436729
100
AcDbArc
 50
187.1245304499476
 51
269.9997273028416
  0
LINE
  5
57C
330
1A
100
AcDbEntity
  8
SEIHIN
  6
CONTINUOUS
 62
     3
 48
16.0
100
AcDbLine
 10
505.5544694981238
 20
361.7624476911518
 30
0.0
 11
506.2879694981236
 21
356.8724476911518
 31
0.0
  0
LINE
  5
57D
330
1A
100
AcDbEntity
  8
SEIHIN
  6
CONTINUOUS
 62
     3
 48
16.0
100
AcDbLine
 10
525.5545694981237
 20
377.7624476911518
 30
0.0
 11
526.4595694981236
 21
370.5221476911518
 31
0.0
  0
ARC
  5
57E
330
1A
100
AcDbEntity
  8
SEIHIN
  6
CONTINUOUS
 62
     3
 48
16.0
100
AcDbCircle
 10
536.3823608910108
 20
371.7624552893961
 30
0.0
 40
10.00000759824793
100
AcDbArc
 50
187.1247813977483
 51
270.0000493150868
  0
LINE
  5
57F
330
1A
100
AcDbEntity
  8
SEIHIN
  6
CONTINUOUS
 62
     3
 48
16.0
100
AcDbLine
 10
534.5545694981239
 20
361.7624476911518
 30
0.0
 11
535.2880694981236
 21
356.8724476911518
 31
0.0
  0
LINE
  5
580
330
1A
100
AcDbEntity
  8
SEIHIN
  6
CONTINUOUS
 62
     3
 48
16.0
100
AcDbLine
 10
471.5544694981238
 20
429.7625476911517
 30
0.0
 11
493.5544694981238
 21
423.7625476911516
 31
0.0
  0
LINE
  5
581
330
1A
100
AcDbEntity
  8
SEIHIN
  6
CONTINUOUS
 62
     3
 48
16.0
100
AcDbLine
 10
490.5544694981236
 20
423.7625476911516
 30
0.0
 11
468.5544694981238
 21
429.7625476911517
 31
0.0
  0
LINE
  5
582
330
1A
100
AcDbEntity
  8
SEIHIN
  6
CONTINUOUS
 62
     3
 48
16.0
100
AcDbLine
 10
487.6592694981237
 20
420.4060476911516
 30
0.0
 11
469.2784694981236
 21
425.4189476911516
 31
0.0
  0
ARC
  5
583
330
1A
100
AcDbEntity
  8
SEIHIN
  6
CONTINUOUS
 62
     3
 48
16.0
100
AcDbCircle
 10
511.0505962962969
 20
431.756930908446
 30
0.0
 40
25.99998321730804
100
AcDbArc
 50
205.8851654131268
 51
269.9999409452607
  0
ARC
  5
584
330
1A
100
AcDbEntity
  8
SEIHIN
  6
CONTINUOUS
 62
     3
 48
16.0
100
AcDbCircle
 10
485.5945501108388
 20
409.9357125483162
 30
0.0
 40
6.766692692210729
100
AcDbArc
 50
121.3996879569621
 51
180.8312228097464
  0
ARC
  5
585
330
1A
100
AcDbEntity
  8
SEIHIN
  6
CONTINUOUS
 62
     3
 48
16.0
100
AcDbCircle
 10
486.7828253029052
 20
408.6154498271147
 30
0.0
 40
9.532526543080601
100
AcDbArc
 50
128.7247540191837
 51
173.9741475352345
  0
ARC
  5
586
330
1A
100
AcDbEntity
  8
SEIHIN
  6
CONTINUOUS
 62
     3
 48
16.0
100
AcDbCircle
 10
461.0377556388629
 20
413.0605067991078
 30
0.0
 40
16.62608909251038
100
AcDbArc
 50
333.9629507525923
 51
348.5919474475902
  0
ARC
  5
587
330
1A
100
AcDbEntity
  8
SEIHIN
  6
CONTINUOUS
 62
     3
 48
16.0
100
AcDbCircle
 10
462.5377556388628
 20
413.0605067991078
 30
0.0
 40
16.62608909251038
100
AcDbArc
 50
333.9629507525923
 51
348.5919474475902
  0
LINE
  5
588
330
1A
100
AcDbEntity
  8
SEIHIN
  6
CONTINUOUS
 62
     3
 48
16.0
100
AcDbLine
 10
483.6122694981238
 20
415.2906476911518
 30
0.0
 11
480.8194694981238
 21
416.0523476911516
 31
0.0
  0
LINE
  5
589
330
1A
100
AcDbEntity
  8
SEIHIN
  6
CONTINUOUS
 62
     3
 48
16.0
100
AcDbLine
 10
468.5544694981238
 20
429.7625476911517
 30
0.0
 11
471.5544694981238
 21
429.7625476911517
 31
0.0
  0
LINE
  5
58A
330
1A
100
AcDbEntity
  8
SEIHIN
  6
CONTINUOUS
 62
     3
 48
16.0
100
AcDbLine
 10
468.5544694981238
 20
429.7625476911517
 30
0.0
 11
469.2784694981236
 21
425.4189476911516
 31
0.0
  0
ARC
  5
58B
330
1A
100
AcDbEntity
  8
SEIHIN
  6
CONTINUOUS
 62
     3
 48
16.0
100
AcDbCircle
 10
511.0505560753106
 20
431.7569570871332
 30
0.0
 40
22.00000333113838
100
AcDbArc
 50
201.3080537928666
 51
268.7079058100164
  0
ARC
  5
58C
330
1A
100
AcDbEntity
  8
SEIHIN
  6
CONTINUOUS
 62
     3
 48
16.0
100
AcDbCircle
 10
512.6681379517761
 20
429.6505736705868
 30
0.0
 40
20.00002929224487
100
AcDbArc
 50
197.1216142676833
 51
263.9334660356289
  0
LINE
  5
58D
330
1A
100
AcDbEntity
  8
SEIHIN
  6
CONTINUOUS
 62
     3
 48
16.0
100
AcDbLine
 10
511.7270694981236
 20
405.7625476911518
 30
0.0
 11
512.5452694981238
 21
399.7625476911517
 31
0.0
  0
LINE
  5
58E
330
1A
100
AcDbEntity
  8
SEIHIN
  6
CONTINUOUS
 62
     3
 48
16.0
100
AcDbLine
 10
510.1722694981236
 20
409.7625476911518
 30
0.0
 11
510.7177694981236
 21
405.7625476911518
 31
0.0
  0
LINE
  5
58F
330
1A
100
AcDbEntity
  8
SEIHIN
  6
CONTINUOUS
 62
     3
 48
16.0
100
AcDbLine
 10
490.5544694981236
 20
423.7625476911516
 30
0.0
 11
493.5544694981238
 21
423.7625476911516
 31
0.0
  0
LINE
  5
590
330
1A
100
AcDbEntity
  8
SEIHIN
  6
CONTINUOUS
 62
     3
 48
16.0
100
AcDbLine
 10
573.6045694981235
 20
406.8081476911516
 30
0.0
 11
585.8044694981239
 21
361.7624476911518
 31
0.0
  0
ARC
  5
591
330
1A
100
AcDbEntity
  8
SEIHIN
  6
CONTINUOUS
 62
     3
 48
16.0
100
AcDbCircle
 10
568.1507714747911
 20
365.27645005256
 30
0.0
 40
18.00003518038243
100
AcDbArc
 50
291.3941986483263
 51
348.7423091413329
  0
LINE
  5
592
330
1A
100
AcDbEntity
  8
SEIHIN
  6
CONTINUOUS
 62
     3
 48
16.0
100
AcDbLine
 10
573.0042694981235
 20
349.7626476911518
 30
0.0
 11
569.3043694981238
 21
349.7625476911517
 31
0.0
  0
LINE
  5
593
330
1A
100
AcDbEntity
  8
SEIHIN
  6
CONTINUOUS
 62
     3
 48
16.0
100
AcDbLine
 10
569.3043694981238
 20
340.7625476911517
 30
0.0
 11
571.9241694981239
 21
340.7625476911517
 31
0.0
  0
ARC
  5
594
330
1A
100
AcDbEntity
  8
NOKITOI
  6
PHANTOM
 62
     8
 48
2.0
100
AcDbCircle
 10
570.2926694981236
 20
344.4624175688151
 30
0.0
 40
4.000029
100
AcDbArc
 50
185.413851
 51
319.252818
  0
CIRCLE
  5
595
330
1A
100
AcDbEntity
  8
NOKITOI
  6
PHANTOM
 62
     8
 48
2.0
100
AcDbCircle
 10
570.2926694981236
 20
344.4624175688151
 30
0.0
 40
2.7
  0
ARC
  5
596
330
1A
100
AcDbEntity
  8
NOKITOI
  6
PHANTOM
 62
     8
 48
2.0
100
AcDbCircle
 10
570.2926694981236
 20
344.4624175688151
 30
0.0
 40
3.999994
100
AcDbArc
 50
5.413986
 51
185.413851
  0
ARC
  5
597
330
1A
100
AcDbEntity
  8
SEIHIN
  6
CONTINUOUS
 62
     3
 48
16.0
100
AcDbCircle
 10
569.3043694981238
 20
344.2625476911517
 30
0.0
 40
3.5
100
AcDbArc
 50
180.0
 51
270.0
  0
ARC
  5
598
330
1A
100
AcDbEntity
  8
SEIHIN
  6
CONTINUOUS
 62
     3
 48
16.0
100
AcDbCircle
 10
569.3043694981237
 20
346.2625476911517
 30
0.0
 40
3.499999999999943
100
AcDbArc
 50
89.99999999999907
 51
179.999999999999
  0
LINE
  5
599
330
1A
100
AcDbEntity
  8
SEIHIN
  6
CONTINUOUS
 62
     3
 48
16.0
100
AcDbLine
 10
565.8043694981238
 20
346.2625476911518
 30
0.0
 11
565.8043694981238
 21
344.2625476911517
 31
0.0
  0
ARC
  5
59A
330
1A
100
AcDbEntity
  8
SEIHIN
  6
CONTINUOUS
 62
     3
 48
16.0
100
AcDbCircle
 10
571.9241983720588
 20
338.7625243689237
 30
0.0
 40
2.00002332243634
100
AcDbArc
 50
12.14340357930884
 51
90.000827167662
  0
ARC
  5
59B
330
1A
100
AcDbEntity
  8
SEIHIN
  6
CONTINUOUS
 62
     3
 48
16.0
100
AcDbCircle
 10
573.0042955399664
 20
347.9625287469065
 30
0.0
 40
1.80001894443349
100
AcDbArc
 50
17.93248975221187
 51
90.0008289288749
  0
ARC
  5
59C
330
1A
100
AcDbEntity
  8
SEIHIN
  6
CONTINUOUS
 62
     3
 48
16.0
100
AcDbCircle
 10
675.5837656215038
 20
364.2149506602291
 30
0.0
 40
16.99999615779399
100
AcDbArc
 50
213.5577203523503
 51
251.5457758408872
  0
ARC
  5
59D
330
1A
100
AcDbEntity
  8
SEIHIN
  6
CONTINUOUS
 62
     3
 48
16.0
100
AcDbCircle
 10
676.8043694981237
 20
344.2623476911518
 30
0.0
 40
3.5
100
AcDbArc
 50
270.0
 51
0.0
  0
ARC
  5
59E
330
1A
100
AcDbEntity
  8
SEIHIN
  6
CONTINUOUS
 62
     3
 48
16.0
100
AcDbCircle
 10
674.1845011417154
 20
338.7623732502285
 30
0.0
 40
1.999974441173628
100
AcDbArc
 50
90.00090653371104
 51
167.8577275123548
  0
ARC
  5
59F
330
1A
100
AcDbEntity
  8
NOKITOI
  6
PHANTOM
 62
     8
 48
2.0
100
AcDbCircle
 10
675.8158694981236
 20
344.462217568815
 30
0.0
 40
3.999994
100
AcDbArc
 50
220.269583
 51
121.7840119999999
  0
LINE
  5
5A0
330
1A
100
AcDbEntity
  8
SEIHIN
  6
CONTINUOUS
 62
     3
 48
16.0
100
AcDbLine
 10
676.8043694981237
 20
340.7623476911518
 30
0.0
 11
674.1844694981238
 21
340.7623476911518
 31
0.0
  0
LINE
  5
5A1
330
1A
100
AcDbEntity
  8
SEIHIN
  6
CONTINUOUS
 62
     3
 48
16.0
100
AcDbLine
 10
673.1043694981239
 20
349.7624476911518
 30
0.0
 11
676.8043694981237
 21
349.7623476911519
 31
0.0
  0
CIRCLE
  5
5A2
330
1A
100
AcDbEntity
  8
NOKITOI
  6
PHANTOM
 62
     8
 48
2.0
100
AcDbCircle
 10
675.8158694981236
 20
344.462217568815
 30
0.0
 40
2.7
  0
ARC
  5
5A3
330
1A
100
AcDbEntity
  8
SEIHIN
  6
CONTINUOUS
 62
     3
 48
16.0
100
AcDbCircle
 10
673.104340415746
 20
347.9623282899718
 30
0.0
 40
1.800019401414946
100
AcDbArc
 50
89.999074289139
 51
157.4144675245087
  0
ARC
  5
5A4
330
1A
100
AcDbEntity
  8
SEIHIN
  6
CONTINUOUS
 62
     3
 48
16.0
100
AcDbCircle
 10
670.5191693872615
 20
349.0376931782345
 30
0.0
 40
0.9999870153492055
100
AcDbArc
 50
251.542326994585
 51
337.4151948379344
  0
ARC
  5
5A5
330
1A
100
AcDbEntity
  8
NOKITOI
  6
PHANTOM
 62
     8
 48
2.0
100
AcDbCircle
 10
675.8158694981236
 20
344.462217568815
 30
0.0
 40
3.999958
100
AcDbArc
 50
121.784767
 51
174.584588
  0
ARC
  5
5A6
330
1A
100
AcDbEntity
  8
SEIHIN
  6
CONTINUOUS
 62
     3
 48
16.0
100
AcDbCircle
 10
676.8043694981237
 20
346.2623476911518
 30
0.0
 40
3.5
100
AcDbArc
 50
0.0
 51
90.0
  0
LINE
  5
5A7
330
1A
100
AcDbEntity
  8
SEIHIN
  6
CONTINUOUS
 62
     3
 48
16.0
100
AcDbLine
 10
680.3043694981237
 20
346.2623476911518
 30
0.0
 11
680.3043694981237
 21
344.2623476911518
 31
0.0
  0
LINE
  5
5A8
330
1A
100
AcDbEntity
  8
SEIHIN
  6
CONTINUOUS
 62
     3
 48
16.0
100
AcDbLine
 10
663.7038694981239
 20
361.0118476911516
 30
0.0
 11
661.5745694981239
 21
358.3501476911516
 31
0.0
  0
ARC
  5
5A9
330
1A
100
AcDbEntity
  8
SEIHIN
  6
CONTINUOUS
 62
     3
 48
16.0
100
AcDbCircle
 10
665.2655936209907
 20
359.7624592849689
 30
0.0
 40
1.999988406328315
100
AcDbArc
 50
90.00069107323366
 51
141.3399879990264
  0
ARC
  5
5AA
330
1A
100
AcDbEntity
  8
SEIHIN
  6
CONTINUOUS
 62
     3
 48
16.0
100
AcDbCircle
 10
663.9171699178767
 20
356.47605711079
 30
0.0
 40
2.999998705004291
100
AcDbArc
 50
141.340038963653
 51
213.5572579733238
  0
ARC
  5
5AB
330
1A
100
AcDbEntity
  8
SEIHIN
  6
CONTINUOUS
 62
     3
 48
16.0
100
AcDbCircle
 10
569.7436554634411
 20
405.7625584305556
 30
0.0
 40
3.999989260620824
100
AcDbArc
 50
15.15303170153693
 51
89.9997989674398
  0
LINE
  5
5AC
330
1A
100
AcDbEntity
  8
ZUWAKU
100
AcDbLine
 10
344.5459255198119
 20
15.65436479549873
 30
0.0
 11
346.5459255198119
 21
23.5068886319474
 31
0.0
  0
LINE
  5
5AD
330
1A
100
AcDbEntity
  8
ZUWAKU
100
AcDbLine
 10
342.5459255198119
 20
23.5068886319474
 30
0.0
 11
344.5459255198119
 21
15.65436479549873
 31
0.0
  0
LINE
  5
5AE
330
1A
100
AcDbEntity
  8
ZUWAKU
100
AcDbLine
 10
340.5459255198119
 20
23.50688863194739
 30
0.0
 11
340.5459255198119
 21
15.65436479549873
 31
0.0
  0
LINE
  5
5AF
330
1A
100
AcDbEntity
  8
ZUWAKU
100
AcDbLine
 10
339.0459255198119
 20
15.65436479549873
 30
0.0
 11
342.0459255198119
 21
15.65436479549873
 31
0.0
  0
LINE
  5
5B0
330
1A
100
AcDbEntity
  8
ZUWAKU
100
AcDbLine
 10
339.0459255198119
 20
23.5068886319474
 30
0.0
 11
348.0459255198119
 21
23.50688863194739
 31
0.0
  0
VIEWPORT
  5
22
330
17
100
AcDbEntity
 67
     1
  8
0
100
AcDbViewport
 10
313.6808219178082
 20
148.5
 30
0.0
 40
627.3616438356165
 41
297.0
 68
     2
 69
     1
1001
ACAD
1000
MVIEW
1002
{
1070
    16
1010
0.0
1020
0.0
1030
0.0
1010
0.0
1020
0.0
1030
1.0
1040
0.0
1040
297.0
1040
313.6808219178082
1040
148.5
1040
50.0
1040
0.0
1040
0.0
1070
     0
1070
   100
1070
     1
1070
     0
1070
     0
1070
     0
1070
     0
1070
     0
1040
0.0
1040
0.0
1040
0.0
1040
1.0
1040
1.0
1040
10.0
1040
10.0
1070
     0
1002
{
1002
}
1002
}
  0
VIEWPORT
  5
64
330
17
100
AcDbEntity
 67
     1
  8
VIEWPORT
100
AcDbViewport
 10
210.0
 20
148.5
 30
0.0
 40
420.0
 41
297.0
 68
     1
 69
     2
1001
ACAD
1000
MVIEW
1002
{
1070
    16
1010
0.0
1020
0.0
1030
0.0
1010
0.0
1020
0.0
1030
1.0
1040
0.0
1040
605.8799999999998
1040
420.0
1040
297.0
1040
50.0
1040
0.0
1040
0.0
1070
     0
1070
   100
1070
     1
1070
     0
1070
     0
1070
     0
1070
     0
1070
     0
1040
0.0
1040
0.0
1040
0.0
1040
10.0
1040
10.0
1040
0.0
1040
0.0
1070
     0
1002
{
1002
}
1002
}
  0
ENDSEC
  0
SECTION
  2
OBJECTS
  0
DICTIONARY
  5
C
330
0
100
AcDbDictionary
  3
ACAD_GROUP
350
D
  3
ACAD_LAYOUT
350
6A1
  3
ACAD_MLINESTYLE
350
E
  3
ACAD_PLOTSETTINGS
350
6A2
1001
ACAD
1000
TREAT_AS_HARD
1070
     0
  0
DICTIONARY
  5
6D0
330
1A
100
AcDbDictionary
  3
ACAD_LAYOUTSELFREF
350
714
1001
ACAD
1000
TREAT_AS_HARD
1070
     1
  0
DICTIONARY
  5
6CE
330
17
100
AcDbDictionary
  3
ACAD_LAYOUTSELFREF
350
713
1001
ACAD
1000
TREAT_AS_HARD
1070
     1
  0
DICTIONARY
  5
D
102
{ACAD_REACTORS
330
C
102
}
330
C
100
AcDbDictionary
1001
ACAD
1000
TREAT_AS_HARD
1070
     0
  0
DICTIONARY
  5
6A1
102
{ACAD_REACTORS
330
C
102
}
330
C
100
AcDbDictionary
1001
ACAD
1000
TREAT_AS_HARD
1070
     0
  0
DICTIONARY
  5
E
102
{ACAD_REACTORS
330
C
102
}
330
C
100
AcDbDictionary
  3
STANDARD
350
13
1001
ACAD
1000
TREAT_AS_HARD
1070
     0
  0
DICTIONARY
  5
6A2
102
{ACAD_REACTORS
330
C
102
}
330
C
100
AcDbDictionary
1001
ACAD
1000
TREAT_AS_HARD
1070
     0
  0
XRECORD
  5
714
102
{ACAD_REACTORS
330
6D0
102
}
330
6D0
100
AcDbXrecord
340
1A
  0
XRECORD
  5
713
102
{ACAD_REACTORS
330
6CE
102
}
330
6CE
100
AcDbXrecord
340
17
  0
MLINESTYLE
  5
13
102
{ACAD_REACTORS
330
E
102
}
330
E
100
AcDbMlineStyle
  2
STANDARD
 70
     0
  3

 62
     0
 51
90.0
 52
90.0
 71
     2
 49
0.5
 62
   256
  6
BYLAYER
 49
-0.5
 62
   256
  6
BYLAYER
  0
ENDSEC
  0
EOF
