  0
SECTION
  2
HEADER
  9
$ACADVER
  1
AC1012
  9
$DWGCODEPAGE
  3
dos932
  9
$INSBASE
 10
0.0
 20
0.0
 30
0.0
  9
$EXTMIN
 10
10.05047808566086
 20
4.949376903717846
 30
0.0
  9
$EXTMAX
 10
806.2246110975902
 20
563.7825862828226
 30
0.0
  9
$LIMMIN
 10
0.0
 20
0.0
  9
$LIMMAX
 10
840.0
 20
594.0
  9
$ORTHOMODE
 70
     0
  9
$REGENMODE
 70
     1
  9
$FILLMODE
 70
     1
  9
$QTEXTMODE
 70
     0
  9
$MIRRTEXT
 70
     1
  9
$DRAGMODE
 70
     2
  9
$LTSCALE
 40
2.0
  9
$OSMODE
 70
   319
  9
$ATTMODE
 70
     1
  9
$TEXTSIZE
 40
5.0
  9
$TRACEWID
 40
1.0
  9
$TEXTSTYLE
  7
STANDARD
  9
$CLAYER
  8
SEIHIN
  9
$CELTYPE
  6
BYLAYER
  9
$CECOLOR
 62
   256
  9
$CELTSCALE
 40
1.0
  9
$DELOBJ
 70
     1
  9
$DISPSILH
 70
     0
  9
$DIMSCALE
 40
1.0
  9
$DIMASZ
 40
7.0
  9
$DIMEXO
 40
6.0
  9
$DIMDLI
 40
14.0
  9
$DIMRND
 40
0.0
  9
$DIMDLE
 40
0.0
  9
$DIMEXE
 40
3.0
  9
$DIMTP
 40
0.0
  9
$DIMTM
 40
0.0
  9
$DIMTXT
 40
6.0
  9
$DIMCEN
 40
150.0
  9
$DIMTSZ
 40
0.0
  9
$DIMTOL
 70
     0
  9
$DIMLIM
 70
     0
  9
$DIMTIH
 70
     0
  9
$DIMTOH
 70
     0
  9
$DIMSE1
 70
     0
  9
$DIMSE2
 70
     0
  9
$DIMTAD
 70
     3
  9
$DIMZIN
 70
     0
  9
$DIMBLK
  1

  9
$DIMASO
 70
     1
  9
$DIMSHO
 70
     1
  9
$DIMPOST
  1

  9
$DIMAPOST
  1

  9
$DIMALT
 70
     0
  9
$DIMALTD
 70
     2
  9
$DIMALTF
 40
25.4
  9
$DIMLFAC
 40
1.0
  9
$DIMTOFL
 70
     1
  9
$DIMTVP
 40
0.0
  9
$DIMTIX
 70
     0
  9
$DIMSOXD
 70
     0
  9
$DIMSAH
 70
     1
  9
$DIMBLK1
  1
OPEN
  9
$DIMBLK2
  1
OPEN
  9
$DIMSTYLE
  2
STANDARD
  9
$DIMCLRD
 70
   256
  9
$DIMCLRE
 70
   256
  9
$DIMCLRT
 70
   256
  9
$DIMTFAC
 40
1.0
  9
$DIMGAP
 40
2.0
  9
$DIMJUST
 70
     0
  9
$DIMSD1
 70
     0
  9
$DIMSD2
 70
     0
  9
$DIMTOLJ
 70
     1
  9
$DIMTZIN
 70
     0
  9
$DIMALTZ
 70
     0
  9
$DIMALTTZ
 70
     0
  9
$DIMFIT
 70
     3
  9
$DIMUPT
 70
     0
  9
$DIMUNIT
 70
     2
  9
$DIMDEC
 70
     0
  9
$DIMTDEC
 70
     0
  9
$DIMALTU
 70
     2
  9
$DIMALTTD
 70
     2
  9
$DIMTXSTY
  7
STANDARD
  9
$DIMAUNIT
 70
     0
  9
$LUNITS
 70
     2
  9
$LUPREC
 70
     4
  9
$SKETCHINC
 40
1.0
  9
$FILLETRAD
 40
20.0
  9
$AUNITS
 70
     0
  9
$AUPREC
 70
     0
  9
$MENU
  1
.
  9
$ELEVATION
 40
0.0
  9
$PELEVATION
 40
0.0
  9
$THICKNESS
 40
0.0
  9
$LIMCHECK
 70
     0
  9
$BLIPMODE
 70
     0
  9
$CHAMFERA
 40
20.0
  9
$CHAMFERB
 40
20.0
  9
$CHAMFERC
 40
40.0
  9
$CHAMFERD
 40
0.0
  9
$SKPOLY
 70
     0
  9
$TDCREATE
 40
2450994.354346065
  9
$TDUPDATE
 40
2452423.334040972
  9
$TDINDWG
 40
0.0148918981
  9
$TDUSRTIMER
 40
0.0148918981
  9
$USRTIMER
 70
     1
  9
$ANGBASE
 50
0.0
  9
$ANGDIR
 70
     0
  9
$PDMODE
 70
     1
  9
$PDSIZE
 40
0.0
  9
$PLINEWID
 40
0.0
  9
$COORDS
 70
     1
  9
$SPLFRAME
 70
     0
  9
$SPLINETYPE
 70
     6
  9
$SPLINESEGS
 70
     8
  9
$ATTDIA
 70
     0
  9
$ATTREQ
 70
     1
  9
$HANDLING
 70
 10241
  9
$HANDSEED
  5
5B0
  9
$SURFTAB1
 70
     6
  9
$SURFTAB2
 70
     6
  9
$SURFTYPE
 70
     6
  9
$SURFU
 70
     6
  9
$SURFV
 70
     6
  9
$UCSNAME
  2

  9
$UCSORG
 10
0.0
 20
0.0
 30
0.0
  9
$UCSXDIR
 10
1.0
 20
0.0
 30
0.0
  9
$UCSYDIR
 10
0.0
 20
1.0
 30
0.0
  9
$PUCSNAME
  2

  9
$PUCSORG
 10
0.0
 20
0.0
 30
0.0
  9
$PUCSXDIR
 10
1.0
 20
0.0
 30
0.0
  9
$PUCSYDIR
 10
0.0
 20
1.0
 30
0.0
  9
$USERI1
 70
     0
  9
$USERI2
 70
     0
  9
$USERI3
 70
     0
  9
$USERI4
 70
     0
  9
$USERI5
 70
     0
  9
$USERR1
 40
0.0
  9
$USERR2
 40
0.0
  9
$USERR3
 40
0.0
  9
$USERR4
 40
0.0
  9
$USERR5
 40
0.0
  9
$WORLDVIEW
 70
     1
  9
$SHADEDGE
 70
     3
  9
$SHADEDIF
 70
    70
  9
$TILEMODE
 70
     1
  9
$MAXACTVP
 70
    16
  9
$PINSBASE
 10
0.0
 20
0.0
 30
0.0
  9
$PLIMCHECK
 70
     0
  9
$PEXTMIN
 10
0.0
 20
0.0
 30
0.0
  9
$PEXTMAX
 10
420.0
 20
297.0
 30
0.0
  9
$PLIMMIN
 10
0.0
 20
0.0
  9
$PLIMMAX
 10
420.0
 20
297.0
  9
$UNITMODE
 70
     0
  9
$VISRETAIN
 70
     0
  9
$PLINEGEN
 70
     0
  9
$PSLTSCALE
 70
     1
  9
$TREEDEPTH
 70
  3020
  9
$PICKSTYLE
 70
     1
  9
$CMLSTYLE
  2
STANDARD
  9
$CMLJUST
 70
     0
  9
$CMLSCALE
 40
1.0
  9
$SAVEIMAGES
 70
     1
  0
ENDSEC
  0
SECTION
  2
CLASSES
  0
CLASS
  1
ACDBDICTIONARYWDFLT
  2
AcDbDictionaryWithDefault
  3
AutoCAD 2000
 90
    32768
280
     0
281
     0
  0
CLASS
  1
ACDBPLACEHOLDER
  2
AcDbPlaceHolder
  3
AutoCAD 2000
 90
    32768
280
     0
281
     0
  0
CLASS
  1
LAYOUT
  2
AcDbLayout
  3
AutoCAD 2000
 90
    32768
280
     0
281
     0
  0
CLASS
  1
LONG_TRANSACTION
  2
AcDbLongTransaction
  3
AutoCAD 2000
 90
    32768
280
     0
281
     0
  0
CLASS
  1
LWPOLYLINE
  2
AcDbPolyline
  3
AutoCAD 2000
 90
    32768
280
     0
281
     1
  0
CLASS
  1
HATCH
  2
AcDbHatch
  3
AutoCAD 2000
 90
    32768
280
     0
281
     1
  0
CLASS
  1
XRECORD
  2
AcDbXrecord
  3
AutoCAD 2000
 90
    32768
280
     0
281
     0
  0
CLASS
  1
LONG_TRANSACTION
  2
AcDbLongTransaction
  3
AutoCAD 2000
 90
    32768
280
     0
281
     0
  0
CLASS
  1
LWPOLYLINE
  2
AcDbPolyline
  3
AutoCAD 2000
 90
    32768
280
     0
281
     1
  0
CLASS
  1
HATCH
  2
AcDbHatch
  3
AutoCAD 2000
 90
    32768
280
     0
281
     1
  0
CLASS
  1
XRECORD
  2
AcDbXrecord
  3
AutoCAD 2000
 90
    32768
280
     0
281
     0
  0
ENDSEC
  0
SECTION
  2
TABLES
  0
TABLE
  2
VPORT
  5
8
330
0
100
AcDbSymbolTable
 70
     2
  0
VPORT
  5
5A5
330
8
100
AcDbSymbolTableRecord
100
AcDbViewportTableRecord
  2
*ACTIVE
 70
     0
 10
0.0
 20
0.0
 11
1.0
 21
1.0
 12
401.4193993954116
 22
294.3742682268703
 13
0.0
 23
0.0
 14
5.0
 24
5.0
 15
0.0
 25
0.0
 16
0.0
 26
0.0
 36
1.0
 17
0.0
 27
0.0
 37
0.0
 40
615.5138013044477
 41
1.709909909909909
 42
50.0
 43
0.0
 44
0.0
 50
0.0
 51
0.0
 71
     0
 72
   100
 73
     1
 74
     0
 75
     0
 76
     0
 77
     0
 78
     0
  0
ENDTAB
  0
TABLE
  2
LTYPE
  5
5
330
0
100
AcDbSymbolTable
 70
     3
  0
LTYPE
  5
14
330
5
100
AcDbSymbolTableRecord
100
AcDbLinetypeTableRecord
  2
BYBLOCK
 70
     0
  3

 72
    65
 73
     0
 40
0.0
  0
LTYPE
  5
15
330
5
100
AcDbSymbolTableRecord
100
AcDbLinetypeTableRecord
  2
BYLAYER
 70
     0
  3

 72
    65
 73
     0
 40
0.0
  0
LTYPE
  5
16
330
5
100
AcDbSymbolTableRecord
100
AcDbLinetypeTableRecord
  2
CONTINUOUS
 70
     0
  3
Solid line
 72
    65
 73
     0
 40
0.0
  0
LTYPE
  5
115
330
5
100
AcDbSymbolTableRecord
100
AcDbLinetypeTableRecord
  2
PHANTOM
 70
     0
  3
______  __  __  ______  __  __  ______  __  __ 
 72
    65
 73
     6
 40
2.5
 49
1.25
 74
     0
 49
-0.25
 74
     0
 49
0.25
 74
     0
 49
-0.25
 74
     0
 49
0.25
 74
     0
 49
-0.25
 74
     0
  0
LTYPE
  5
135
330
5
100
AcDbSymbolTableRecord
100
AcDbLinetypeTableRecord
  2
CENTER
 70
     0
  3
____ _ ____ _ ____ _ ____ _ ____ _ ____ _ ____ 
 72
    65
 73
     4
 40
2.0
 49
1.25
 74
     0
 49
-0.25
 74
     0
 49
0.25
 74
     0
 49
-0.25
 74
     0
  0
ENDTAB
  0
TABLE
  2
LAYER
  5
2
330
0
100
AcDbSymbolTable
 70
     8
  0
LAYER
  5
F
330
2
100
AcDbSymbolTableRecord
100
AcDbLayerTableRecord
  2
0
 70
     0
 62
     7
  6
CONTINUOUS
  0
LAYER
  5
62
330
2
100
AcDbSymbolTableRecord
100
AcDbLayerTableRecord
  2
VIEWPORT
 70
     0
 62
     7
  6
CONTINUOUS
  0
LAYER
  5
65
330
2
100
AcDbSymbolTableRecord
100
AcDbLayerTableRecord
  2
ZUWAKU
 70
     0
 62
     7
  6
CONTINUOUS
  0
LAYER
  5
1F8
330
2
100
AcDbSymbolTableRecord
100
AcDbLayerTableRecord
  2
SEIHIN
 70
     0
 62
     3
  6
CONTINUOUS
  0
LAYER
  5
1F9
330
2
100
AcDbSymbolTableRecord
100
AcDbLayerTableRecord
  2
SUNPOU
 70
     0
 62
     4
  6
CONTINUOUS
  0
LAYER
  5
1FA
330
2
100
AcDbSymbolTableRecord
100
AcDbLayerTableRecord
  2
CENTER_L
 70
     0
 62
     1
  6
CENTER
  0
LAYER
  5
1FB
330
2
100
AcDbSymbolTableRecord
100
AcDbLayerTableRecord
  2
NOKITOI
 70
     0
 62
     8
  6
PHANTOM
  0
LAYER
  5
1FC
330
2
100
AcDbSymbolTableRecord
100
AcDbLayerTableRecord
  2
DEFPOINTS
 70
     0
 62
     7
  6
CONTINUOUS
  0
ENDTAB
  0
TABLE
  2
STYLE
  5
3
330
0
100
AcDbSymbolTable
 70
     1
  0
STYLE
  5
10
330
3
100
AcDbSymbolTableRecord
100
AcDbTextStyleTableRecord
  2
STANDARD
 70
     0
 40
0.0
 41
1.0
 50
0.0
 71
     0
 42
5.0
  3
TXT
  4
bigfont.shx
  0
ENDTAB
  0
TABLE
  2
VIEW
  5
6
330
0
100
AcDbSymbolTable
 70
     0
  0
ENDTAB
  0
TABLE
  2
UCS
  5
7
330
0
100
AcDbSymbolTable
 70
     0
  0
ENDTAB
  0
TABLE
  2
APPID
  5
9
330
0
100
AcDbSymbolTable
 70
     1
  0
APPID
  5
11
330
9
100
AcDbSymbolTableRecord
100
AcDbRegAppTableRecord
  2
ACAD
 70
     0
  0
ENDTAB
  0
TABLE
  2
DIMSTYLE
  5
A
330
0
100
AcDbSymbolTable
 70
     1
  0
DIMSTYLE
105
1D
102
{ACAD_REACTORS
330
315
330
35C
330
36A
330
38D
330
3A5
330
3A6
330
3B1
330
3B2
330
3B3
330
3BC
330
3CE
330
3D5
330
40F
102
}
330
A
100
AcDbSymbolTableRecord
100
AcDbDimStyleTableRecord
  2
STANDARD
 70
     0
  3

  4

  5

  6

  7

 40
1.0
 41
0.18
 42
0.0625
 43
0.38
 44
0.18
 45
0.0
 46
0.0
 47
0.0
 48
0.0
140
0.18
141
0.09
142
0.0
143
25.4
144
1.0
145
0.0
146
1.0
147
0.09
 71
     0
 72
     0
 73
     1
 74
     1
 75
     0
 76
     0
 77
     0
 78
     0
170
     0
171
     2
172
     0
173
     0
174
     0
175
     0
176
     0
177
     0
178
     0
270
     2
271
     4
272
     4
273
     2
274
     2
340
10
275
     0
280
     0
281
     0
282
     0
283
     1
284
     0
285
     0
286
     0
287
     3
288
     0
  0
ENDTAB
  0
TABLE
  2
BLOCK_RECORD
  5
1
330
0
100
AcDbSymbolTable
 70
    14
  0
BLOCK_RECORD
  5
1A
102
{ACAD_XDICTIONARY
360
58F
102
}
330
1
100
AcDbSymbolTableRecord
100
AcDbBlockTableRecord
  2
*MODEL_SPACE
  0
BLOCK_RECORD
  5
17
102
{ACAD_XDICTIONARY
360
58D
102
}
330
1
100
AcDbSymbolTableRecord
100
AcDbBlockTableRecord
  2
*PAPER_SPACE
  0
BLOCK_RECORD
  5
6D
330
1
100
AcDbSymbolTableRecord
100
AcDbBlockTableRecord
  2
_OPEN
  0
BLOCK_RECORD
  5
429
330
1
100
AcDbSymbolTableRecord
100
AcDbBlockTableRecord
  2
*D1
  0
BLOCK_RECORD
  5
435
330
1
100
AcDbSymbolTableRecord
100
AcDbBlockTableRecord
  2
*D2
  0
BLOCK_RECORD
  5
441
330
1
100
AcDbSymbolTableRecord
100
AcDbBlockTableRecord
  2
*D3
  0
BLOCK_RECORD
  5
44C
330
1
100
AcDbSymbolTableRecord
100
AcDbBlockTableRecord
  2
*D4
  0
BLOCK_RECORD
  5
458
330
1
100
AcDbSymbolTableRecord
100
AcDbBlockTableRecord
  2
*D5
  0
BLOCK_RECORD
  5
464
330
1
100
AcDbSymbolTableRecord
100
AcDbBlockTableRecord
  2
*D6
  0
BLOCK_RECORD
  5
470
330
1
100
AcDbSymbolTableRecord
100
AcDbBlockTableRecord
  2
*D7
  0
BLOCK_RECORD
  5
47E
330
1
100
AcDbSymbolTableRecord
100
AcDbBlockTableRecord
  2
*D8
  0
BLOCK_RECORD
  5
48A
330
1
100
AcDbSymbolTableRecord
100
AcDbBlockTableRecord
  2
*D9
  0
BLOCK_RECORD
  5
497
330
1
100
AcDbSymbolTableRecord
100
AcDbBlockTableRecord
  2
*D10
  0
BLOCK_RECORD
  5
4A3
330
1
100
AcDbSymbolTableRecord
100
AcDbBlockTableRecord
  2
*D11
  0
BLOCK_RECORD
  5
4B1
330
1
100
AcDbSymbolTableRecord
100
AcDbBlockTableRecord
  2
*D12
  0
BLOCK_RECORD
  5
4BD
330
1
100
AcDbSymbolTableRecord
100
AcDbBlockTableRecord
  2
*D13
  0
ENDTAB
  0
ENDSEC
  0
SECTION
  2
BLOCKS
  0
BLOCK
  5
1B
330
1A
100
AcDbEntity
  8
0
100
AcDbBlockBegin
  2
*MODEL_SPACE
 70
     0
 10
0.0
 20
0.0
 30
0.0
  3
*MODEL_SPACE
  1

  0
ENDBLK
  5
1C
330
1A
100
AcDbEntity
  8
0
100
AcDbBlockEnd
  0
BLOCK
  5
18
330
17
100
AcDbEntity
 67
     1
  8
0
100
AcDbBlockBegin
  2
*PAPER_SPACE
 70
     0
 10
0.0
 20
0.0
 30
0.0
  3
*PAPER_SPACE
  1

  0
ENDBLK
  5
19
330
17
100
AcDbEntity
 67
     1
  8
0
100
AcDbBlockEnd
  0
BLOCK
  5
6E
330
6D
100
AcDbEntity
  8
0
100
AcDbBlockBegin
  2
_OPEN
 70
     0
 10
0.0
 20
0.0
 30
0.0
  3
_OPEN
  1

  0
LINE
  5
6F
330
6D
100
AcDbEntity
  8
0
  6
BYBLOCK
 62
     0
100
AcDbLine
 10
-1.0
 20
0.1666666666666666
 30
0.0
 11
0.0
 21
0.0
 31
0.0
  0
LINE
  5
70
330
6D
100
AcDbEntity
  8
0
  6
BYBLOCK
 62
     0
100
AcDbLine
 10
0.0
 20
0.0
 30
0.0
 11
-1.0
 21
-0.1666666666666666
 31
0.0
  0
LINE
  5
71
330
6D
100
AcDbEntity
  8
0
  6
BYBLOCK
 62
     0
100
AcDbLine
 10
0.0
 20
0.0
 30
0.0
 11
-1.0
 21
0.0
 31
0.0
  0
ENDBLK
  5
72
330
6D
100
AcDbEntity
  8
0
100
AcDbBlockEnd
  0
BLOCK
  5
4C9
330
429
100
AcDbEntity
  8
0
100
AcDbBlockBegin
  2
*D1
 70
     1
 10
0.0
 20
0.0
 30
0.0
  3
*D1
  1

  0
LINE
  5
4CA
330
429
100
AcDbEntity
  8
0
  6
BYBLOCK
 62
     4
100
AcDbLine
 10
553.3342103404041
 20
182.0986144529973
 30
0.0
 11
393.8568508315177
 21
182.0986144529973
 31
0.0
  0
LINE
  5
4CB
330
429
100
AcDbEntity
  8
0
  6
BYBLOCK
 62
     4
100
AcDbLine
 10
435.0343103404042
 20
441.0985144529973
 30
0.0
 11
393.8568508315177
 21
441.0985144529973
 31
0.0
  0
LINE
  5
4CC
330
429
100
AcDbEntity
  8
0
  6
BYBLOCK
 62
     4
100
AcDbLine
 10
396.8568508315176
 20
189.0986144529973
 30
0.0
 11
396.8568508315176
 21
434.0985144529973
 31
0.0
  0
INSERT
  5
4CD
330
429
100
AcDbEntity
  8
0
  6
BYBLOCK
 62
     4
100
AcDbBlockReference
  2
_OPEN
 10
396.8568508315176
 20
182.0986144529973
 30
0.0
 41
7.0
 42
7.0
 43
7.0
 50
270.0
  0
INSERT
  5
4CE
330
429
100
AcDbEntity
  8
0
  6
BYBLOCK
 62
     4
100
AcDbBlockReference
  2
_OPEN
 10
396.8568508315176
 20
441.0985144529973
 30
0.0
 41
7.0
 42
7.0
 43
7.0
 50
90.0
  0
MTEXT
  5
4CF
330
429
100
AcDbEntity
  8
0
  6
BYBLOCK
 62
     4
100
AcDbMText
 10
391.8568508315177
 20
311.5985644529974
 30
0.0
 40
6.0
 41
0.0
 71
     5
 72
     1
  1
\A1;259
 11
0.0
 21
1.0
 31
0.0
1001
ACAD
1000
MTEXTBEGIN
1070
    73
1070
     1
1070
    44
1040
1.0
1070
    74
1070
     0
1000
MTEXTEND
1000
MTEXTBEGIN
1070
    73
1070
     1
1070
    44
1040
1.0
1070
    74
1070
     0
1000
MTEXTEND
  0
POINT
  5
4D0
330
429
100
AcDbEntity
  8
DEFPOINTS
  6
BYBLOCK
 62
     0
100
AcDbPoint
 10
559.3342103404041
 20
182.0986144529973
 30
0.0
  0
POINT
  5
4D1
330
429
100
AcDbEntity
  8
DEFPOINTS
  6
BYBLOCK
 62
     0
100
AcDbPoint
 10
441.0343103404041
 20
441.0985144529973
 30
0.0
  0
POINT
  5
4D2
330
429
100
AcDbEntity
  8
DEFPOINTS
  6
BYBLOCK
 62
     0
100
AcDbPoint
 10
396.8568508315176
 20
441.0985144529973
 30
0.0
  0
ENDBLK
  5
4D3
330
429
100
AcDbEntity
  8
0
100
AcDbBlockEnd
  0
BLOCK
  5
4D4
330
435
100
AcDbEntity
  8
0
100
AcDbBlockBegin
  2
*D2
 70
     1
 10
0.0
 20
0.0
 30
0.0
  3
*D2
  1

  0
LINE
  5
4D5
330
435
100
AcDbEntity
  8
0
  6
BYBLOCK
 62
     4
100
AcDbLine
 10
107.0353103404042
 20
427.0990144529973
 30
0.0
 11
107.0353103404042
 21
496.9175145398965
 31
0.0
  0
LINE
  5
4D6
330
435
100
AcDbEntity
  8
0
  6
BYBLOCK
 62
     4
100
AcDbLine
 10
354.0349103404039
 20
427.0986144529975
 30
0.0
 11
354.0349103404039
 21
496.9175145398965
 31
0.0
  0
LINE
  5
4D7
330
435
100
AcDbEntity
  8
0
  6
BYBLOCK
 62
     4
100
AcDbLine
 10
114.0353103404042
 20
493.9175145398965
 30
0.0
 11
347.034910340404
 21
493.9175145398965
 31
0.0
  0
INSERT
  5
4D8
330
435
100
AcDbEntity
  8
0
  6
BYBLOCK
 62
     4
100
AcDbBlockReference
  2
_OPEN
 10
107.0353103404042
 20
493.9175145398965
 30
0.0
 41
7.0
 42
7.0
 43
7.0
 50
180.0
  0
INSERT
  5
4D9
330
435
100
AcDbEntity
  8
0
  6
BYBLOCK
 62
     4
100
AcDbBlockReference
  2
_OPEN
 10
354.0349103404039
 20
493.9175145398965
 30
0.0
 41
7.0
 42
7.0
 43
7.0
  0
MTEXT
  5
4DA
330
435
100
AcDbEntity
  8
0
  6
BYBLOCK
 62
     4
100
AcDbMText
 10
230.5351103404041
 20
498.9175145398966
 30
0.0
 40
6.0
 41
0.0
 71
     5
 72
     1
  1
\A1;247
1001
ACAD
1000
MTEXTBEGIN
1070
    73
1070
     1
1070
    44
1040
1.0
1070
    74
1070
     0
1000
MTEXTEND
1000
MTEXTBEGIN
1070
    73
1070
     1
1070
    44
1040
1.0
1070
    74
1070
     0
1000
MTEXTEND
  0
POINT
  5
4DB
330
435
100
AcDbEntity
  8
DEFPOINTS
  6
BYBLOCK
 62
     0
100
AcDbPoint
 10
107.0353103404042
 20
421.0990144529973
 30
0.0
  0
POINT
  5
4DC
330
435
100
AcDbEntity
  8
DEFPOINTS
  6
BYBLOCK
 62
     0
100
AcDbPoint
 10
354.0349103404039
 20
421.0986144529975
 30
0.0
  0
POINT
  5
4DD
330
435
100
AcDbEntity
  8
DEFPOINTS
  6
BYBLOCK
 62
     0
100
AcDbPoint
 10
354.0349103404039
 20
493.9175145398965
 30
0.0
  0
ENDBLK
  5
4DE
330
435
100
AcDbEntity
  8
0
100
AcDbBlockEnd
  0
BLOCK
  5
4DF
330
441
100
AcDbEntity
  8
0
100
AcDbBlockBegin
  2
*D3
 70
     1
 10
0.0
 20
0.0
 30
0.0
  3
*D3
  1

  0
LINE
  5
5A8
330
441
100
AcDbEntity
  8
SUNPOU
  6
CONTINUOUS
 62
     4
100
AcDbLine
 10
320.9402453583385
 20
339.9542988426861
 30
0.0
 11
320.9402453583385
 21
448.089873722146
 31
0.0
  0
LINE
  5
5A9
330
441
100
AcDbEntity
  8
SUNPOU
  6
CONTINUOUS
 62
     4
100
AcDbLine
 10
275.4986549786487
 20
445.089873722146
 30
0.0
 11
313.9402453583385
 21
445.089873722146
 31
0.0
  0
INSERT
  5
5AA
330
441
100
AcDbEntity
  8
SUNPOU
  6
CONTINUOUS
 62
     4
100
AcDbBlockReference
  2
_OPEN
 10
268.4986549786487
 20
445.089873722146
 30
0.0
 41
7.0
 42
7.0
 43
7.0
 50
180.0
  0
INSERT
  5
5AB
330
441
100
AcDbEntity
  8
SUNPOU
  6
CONTINUOUS
 62
     4
100
AcDbBlockReference
  2
_OPEN
 10
320.9402453583385
 20
445.089873722146
 30
0.0
 41
7.0
 42
7.0
 43
7.0
  0
MTEXT
  5
5AC
330
441
100
AcDbEntity
  8
SUNPOU
  6
CONTINUOUS
 62
     4
100
AcDbMText
 10
294.7194501684936
 20
450.089873722146
 30
0.0
 40
6.0
 41
0.0
 71
     5
 72
     1
  1
\A1;※a 52
  0
POINT
  5
5AD
330
441
100
AcDbEntity
  8
DEFPOINTS
  6
CONTINUOUS
 62
     0
100
AcDbPoint
 10
268.4986549786487
 20
412.2875774663878
 30
0.0
  0
POINT
  5
5AE
330
441
100
AcDbEntity
  8
DEFPOINTS
  6
CONTINUOUS
 62
     0
100
AcDbPoint
 10
320.9402453583385
 20
333.9542988426861
 30
0.0
  0
POINT
  5
5AF
330
441
100
AcDbEntity
  8
DEFPOINTS
  6
CONTINUOUS
 62
     0
100
AcDbPoint
 10
320.9402453583385
 20
445.089873722146
 30
0.0
  0
ENDBLK
  5
4E8
330
441
100
AcDbEntity
  8
0
100
AcDbBlockEnd
  0
BLOCK
  5
4E9
330
44C
100
AcDbEntity
  8
0
100
AcDbBlockBegin
  2
*D4
 70
     1
 10
0.0
 20
0.0
 30
0.0
  3
*D4
  1

  0
LINE
  5
4EA
330
44C
100
AcDbEntity
  8
0
  6
BYBLOCK
 62
     4
100
AcDbLine
 10
200.5350931487507
 20
444.4320302090262
 30
0.0
 11
200.5350931487507
 21
474.234201125825
 31
0.0
  0
LINE
  5
4EB
330
44C
100
AcDbEntity
  8
0
  6
BYBLOCK
 62
     4
100
AcDbLine
 10
260.5350931486607
 20
444.4319048700667
 30
0.0
 11
260.5350931486607
 21
474.234201125825
 31
0.0
  0
LINE
  5
4EC
330
44C
100
AcDbEntity
  8
0
  6
BYBLOCK
 62
     4
100
AcDbLine
 10
207.5350931487506
 20
471.2342011258249
 30
0.0
 11
253.5350931486606
 21
471.2342011258249
 31
0.0
  0
INSERT
  5
4ED
330
44C
100
AcDbEntity
  8
0
  6
BYBLOCK
 62
     4
100
AcDbBlockReference
  2
_OPEN
 10
200.5350931487507
 20
471.2342011258249
 30
0.0
 41
7.0
 42
7.0
 43
7.0
 50
180.0
  0
INSERT
  5
4EE
330
44C
100
AcDbEntity
  8
0
  6
BYBLOCK
 62
     4
100
AcDbBlockReference
  2
_OPEN
 10
260.5350931486607
 20
471.2342011258249
 30
0.0
 41
7.0
 42
7.0
 43
7.0
  0
MTEXT
  5
4EF
330
44C
100
AcDbEntity
  8
0
  6
BYBLOCK
 62
     4
100
AcDbMText
 10
230.5350931487057
 20
476.2342011258249
 30
0.0
 40
6.0
 41
0.0
 71
     5
 72
     1
  1
\A1;60
1001
ACAD
1000
MTEXTBEGIN
1070
    73
1070
     1
1070
    44
1040
1.0
1070
    74
1070
     0
1000
MTEXTEND
1000
MTEXTBEGIN
1070
    73
1070
     1
1070
    44
1040
1.0
1070
    74
1070
     0
1000
MTEXTEND
  0
POINT
  5
4F0
330
44C
100
AcDbEntity
  8
DEFPOINTS
  6
BYBLOCK
 62
     0
100
AcDbPoint
 10
200.5350931487507
 20
438.4320302090262
 30
0.0
  0
POINT
  5
4F1
330
44C
100
AcDbEntity
  8
DEFPOINTS
  6
BYBLOCK
 62
     0
100
AcDbPoint
 10
260.5350931486607
 20
438.4319048700668
 30
0.0
  0
POINT
  5
4F2
330
44C
100
AcDbEntity
  8
DEFPOINTS
  6
BYBLOCK
 62
     0
100
AcDbPoint
 10
260.5350931486607
 20
471.2342011258249
 30
0.0
  0
ENDBLK
  5
4F3
330
44C
100
AcDbEntity
  8
0
100
AcDbBlockEnd
  0
BLOCK
  5
4F4
330
458
100
AcDbEntity
  8
0
100
AcDbBlockBegin
  2
*D5
 70
     1
 10
0.0
 20
0.0
 30
0.0
  3
*D5
  1

  0
LINE
  5
4F5
330
458
100
AcDbEntity
  8
0
  6
BYBLOCK
 62
     4
100
AcDbLine
 10
435.0343103404042
 20
441.0985144529973
 30
0.0
 11
416.1293785368181
 21
441.0985144529973
 31
0.0
  0
LINE
  5
4F6
330
458
100
AcDbEntity
  8
0
  6
BYBLOCK
 62
     4
100
AcDbLine
 10
543.7841103404042
 20
223.0985144529975
 30
0.0
 11
416.1293785368181
 21
223.0985144529975
 31
0.0
  0
LINE
  5
4F7
330
458
100
AcDbEntity
  8
0
  6
BYBLOCK
 62
     4
100
AcDbLine
 10
419.1293785368181
 20
434.0985144529973
 30
0.0
 11
419.1293785368181
 21
230.0985144529974
 31
0.0
  0
INSERT
  5
4F8
330
458
100
AcDbEntity
  8
0
  6
BYBLOCK
 62
     4
100
AcDbBlockReference
  2
_OPEN
 10
419.1293785368181
 20
441.0985144529973
 30
0.0
 41
7.0
 42
7.0
 43
7.0
 50
90.0
  0
INSERT
  5
4F9
330
458
100
AcDbEntity
  8
0
  6
BYBLOCK
 62
     4
100
AcDbBlockReference
  2
_OPEN
 10
419.1293785368181
 20
223.0985144529975
 30
0.0
 41
7.0
 42
7.0
 43
7.0
 50
270.0
  0
MTEXT
  5
4FA
330
458
100
AcDbEntity
  8
0
  6
BYBLOCK
 62
     4
100
AcDbMText
 10
414.1293785368182
 20
332.0985144529974
 30
0.0
 40
6.0
 41
0.0
 71
     5
 72
     1
  1
\A1;218
 11
0.0
 21
1.0
 31
0.0
1001
ACAD
1000
MTEXTBEGIN
1070
    73
1070
     1
1070
    44
1040
1.0
1070
    74
1070
     0
1000
MTEXTEND
1000
MTEXTBEGIN
1070
    73
1070
     1
1070
    44
1040
1.0
1070
    74
1070
     0
1000
MTEXTEND
  0
POINT
  5
4FB
330
458
100
AcDbEntity
  8
DEFPOINTS
  6
BYBLOCK
 62
     0
100
AcDbPoint
 10
441.0343103404041
 20
441.0985144529973
 30
0.0
  0
POINT
  5
4FC
330
458
100
AcDbEntity
  8
DEFPOINTS
  6
BYBLOCK
 62
     0
100
AcDbPoint
 10
549.7841103404042
 20
223.0985144529975
 30
0.0
  0
POINT
  5
4FD
330
458
100
AcDbEntity
  8
DEFPOINTS
  6
BYBLOCK
 62
     0
100
AcDbPoint
 10
419.1293785368181
 20
223.0985144529975
 30
0.0
  0
ENDBLK
  5
4FE
330
458
100
AcDbEntity
  8
0
100
AcDbBlockEnd
  0
BLOCK
  5
4FF
330
464
100
AcDbEntity
  8
0
100
AcDbBlockBegin
  2
*D6
 70
     1
 10
0.0
 20
0.0
 30
0.0
  3
*D6
  1

  0
LINE
  5
500
330
464
100
AcDbEntity
  8
0
  6
BYBLOCK
 62
     4
100
AcDbLine
 10
667.5345103404042
 20
373.0983144529973
 30
0.0
 11
697.0802946562765
 21
373.0983144529973
 31
0.0
  0
LINE
  5
501
330
464
100
AcDbEntity
  8
0
  6
BYBLOCK
 62
     4
100
AcDbLine
 10
597.5341103404043
 20
303.0984244703399
 30
0.0
 11
697.0802946562765
 21
303.0984244703399
 31
0.0
  0
LINE
  5
502
330
464
100
AcDbEntity
  8
0
  6
BYBLOCK
 62
     4
100
AcDbLine
 10
694.0802946562764
 20
366.0983144529974
 30
0.0
 11
694.0802946562764
 21
310.0984244703399
 31
0.0
  0
INSERT
  5
503
330
464
100
AcDbEntity
  8
0
  6
BYBLOCK
 62
     4
100
AcDbBlockReference
  2
_OPEN
 10
694.0802946562764
 20
373.0983144529973
 30
0.0
 41
7.0
 42
7.0
 43
7.0
 50
90.0
  0
INSERT
  5
504
330
464
100
AcDbEntity
  8
0
  6
BYBLOCK
 62
     4
100
AcDbBlockReference
  2
_OPEN
 10
694.0802946562764
 20
303.0984244703399
 30
0.0
 41
7.0
 42
7.0
 43
7.0
 50
270.0
  0
MTEXT
  5
505
330
464
100
AcDbEntity
  8
0
  6
BYBLOCK
 62
     4
100
AcDbMText
 10
689.0802946562764
 20
338.0983694616686
 30
0.0
 40
6.0
 41
0.0
 71
     5
 72
     1
  1
\A1;70
 11
0.0
 21
1.0
 31
0.0
1001
ACAD
1000
MTEXTBEGIN
1070
    73
1070
     1
1070
    44
1040
1.0
1070
    74
1070
     0
1000
MTEXTEND
1000
MTEXTBEGIN
1070
    73
1070
     1
1070
    44
1040
1.0
1070
    74
1070
     0
1000
MTEXTEND
  0
POINT
  5
506
330
464
100
AcDbEntity
  8
DEFPOINTS
  6
BYBLOCK
 62
     0
100
AcDbPoint
 10
661.5345103404043
 20
373.0983144529973
 30
0.0
  0
POINT
  5
507
330
464
100
AcDbEntity
  8
DEFPOINTS
  6
BYBLOCK
 62
     0
100
AcDbPoint
 10
591.5341103404044
 20
303.0984244703399
 30
0.0
  0
POINT
  5
508
330
464
100
AcDbEntity
  8
DEFPOINTS
  6
BYBLOCK
 62
     0
100
AcDbPoint
 10
694.0802946562764
 20
303.0984244703399
 30
0.0
  0
ENDBLK
  5
509
330
464
100
AcDbEntity
  8
0
100
AcDbBlockEnd
  0
BLOCK
  5
50A
330
470
100
AcDbEntity
  8
0
100
AcDbBlockBegin
  2
*D7
 70
     1
 10
0.0
 20
0.0
 30
0.0
  3
*D7
  1

  0
LINE
  5
50B
330
470
100
AcDbEntity
  8
0
  6
BYBLOCK
 62
     4
100
AcDbLine
 10
641.9341103404041
 20
195.0984144529974
 30
0.0
 11
676.9479152804658
 21
195.0984144529974
 31
0.0
  0
LINE
  5
50C
330
470
100
AcDbEntity
  8
0
  6
BYBLOCK
 62
     4
100
AcDbLine
 10
647.5341103404042
 20
207.0984144529974
 30
0.0
 11
676.9479152804658
 21
207.0984144529974
 31
0.0
  0
LINE
  5
50D
330
470
100
AcDbEntity
  8
0
  6
BYBLOCK
 62
     4
100
AcDbLine
 10
673.9479152804658
 20
188.0984144529974
 30
0.0
 11
673.9479152804658
 21
181.0984144529974
 31
0.0
  0
LINE
  5
50E
330
470
100
AcDbEntity
  8
0
  6
BYBLOCK
 62
     4
100
AcDbLine
 10
673.9479152804658
 20
214.0984144529974
 30
0.0
 11
673.9479152804658
 21
249.8984144529974
 31
0.0
  0
LINE
  5
50F
330
470
100
AcDbEntity
  8
0
  6
BYBLOCK
 62
     4
100
AcDbLine
 10
673.9479152804658
 20
195.0984144529974
 30
0.0
 11
673.9479152804658
 21
207.0984144529974
 31
0.0
  0
INSERT
  5
510
330
470
100
AcDbEntity
  8
0
  6
BYBLOCK
 62
     4
100
AcDbBlockReference
  2
_OPEN
 10
673.9479152804658
 20
195.0984144529974
 30
0.0
 41
7.0
 42
7.0
 43
7.0
 50
90.0
  0
INSERT
  5
511
330
470
100
AcDbEntity
  8
0
  6
BYBLOCK
 62
     4
100
AcDbBlockReference
  2
_OPEN
 10
673.9479152804658
 20
207.0984144529974
 30
0.0
 41
7.0
 42
7.0
 43
7.0
 50
270.0
  0
MTEXT
  5
512
330
470
100
AcDbEntity
  8
0
  6
BYBLOCK
 62
     4
100
AcDbMText
 10
668.9479152804658
 20
235.4984144529975
 30
0.0
 40
6.0
 41
0.0
 71
     5
 72
     1
  1
\A1;※b 12
 11
0.0
 21
1.0
 31
0.0
1001
ACAD
1000
MTEXTBEGIN
1070
    73
1070
     1
1070
    44
1040
1.0
1070
    74
1070
     0
1000
MTEXTEND
1000
MTEXTBEGIN
1070
    73
1070
     1
1070
    44
1040
1.0
1070
    74
1070
     0
1000
MTEXTEND
  0
POINT
  5
513
330
470
100
AcDbEntity
  8
DEFPOINTS
  6
BYBLOCK
 62
     0
100
AcDbPoint
 10
635.9341103404041
 20
195.0984144529974
 30
0.0
  0
POINT
  5
514
330
470
100
AcDbEntity
  8
DEFPOINTS
  6
BYBLOCK
 62
     0
100
AcDbPoint
 10
641.5341103404042
 20
207.0984144529974
 30
0.0
  0
POINT
  5
515
330
470
100
AcDbEntity
  8
DEFPOINTS
  6
BYBLOCK
 62
     0
100
AcDbPoint
 10
673.9479152804658
 20
207.0984144529974
 30
0.0
  0
ENDBLK
  5
516
330
470
100
AcDbEntity
  8
0
100
AcDbBlockEnd
  0
BLOCK
  5
517
330
47E
100
AcDbEntity
  8
0
100
AcDbBlockBegin
  2
*D8
 70
     1
 10
0.0
 20
0.0
 30
0.0
  3
*D8
  1

  0
LINE
  5
518
330
47E
100
AcDbEntity
  8
0
  6
BYBLOCK
 62
     4
100
AcDbLine
 10
641.5341103404042
 20
192.0983144529974
 30
0.0
 11
641.5341103404042
 21
119.307381078163
 31
0.0
  0
LINE
  5
519
330
47E
100
AcDbEntity
  8
0
  6
BYBLOCK
 62
     4
100
AcDbLine
 10
549.534010340404
 20
192.0986144529973
 30
0.0
 11
549.534010340404
 21
119.307381078163
 31
0.0
  0
LINE
  5
51A
330
47E
100
AcDbEntity
  8
0
  6
BYBLOCK
 62
     4
100
AcDbLine
 10
634.5341103404043
 20
122.307381078163
 30
0.0
 11
556.534010340404
 21
122.307381078163
 31
0.0
  0
INSERT
  5
51B
330
47E
100
AcDbEntity
  8
0
  6
BYBLOCK
 62
     4
100
AcDbBlockReference
  2
_OPEN
 10
641.5341103404042
 20
122.307381078163
 30
0.0
 41
7.0
 42
7.0
 43
7.0
  0
INSERT
  5
51C
330
47E
100
AcDbEntity
  8
0
  6
BYBLOCK
 62
     4
100
AcDbBlockReference
  2
_OPEN
 10
549.534010340404
 20
122.307381078163
 30
0.0
 41
7.0
 42
7.0
 43
7.0
 50
180.0
  0
MTEXT
  5
51D
330
47E
100
AcDbEntity
  8
0
  6
BYBLOCK
 62
     4
100
AcDbMText
 10
595.5340603404041
 20
127.307381078163
 30
0.0
 40
6.0
 41
0.0
 71
     5
 72
     1
  1
\A1;φ92
1001
ACAD
1000
MTEXTBEGIN
1070
    73
1070
     1
1070
    44
1040
1.0
1070
    74
1070
     0
1000
MTEXTEND
1000
MTEXTBEGIN
1070
    73
1070
     1
1070
    44
1040
1.0
1070
    74
1070
     0
1000
MTEXTEND
  0
POINT
  5
51E
330
47E
100
AcDbEntity
  8
DEFPOINTS
  6
BYBLOCK
 62
     0
100
AcDbPoint
 10
641.5341103404042
 20
198.0983144529974
 30
0.0
  0
POINT
  5
51F
330
47E
100
AcDbEntity
  8
DEFPOINTS
  6
BYBLOCK
 62
     0
100
AcDbPoint
 10
549.534010340404
 20
198.0986144529973
 30
0.0
  0
POINT
  5
520
330
47E
100
AcDbEntity
  8
DEFPOINTS
  6
BYBLOCK
 62
     0
100
AcDbPoint
 10
549.534010340404
 20
122.307381078163
 30
0.0
  0
ENDBLK
  5
521
330
47E
100
AcDbEntity
  8
0
100
AcDbBlockEnd
  0
BLOCK
  5
522
330
48A
100
AcDbEntity
  8
0
100
AcDbBlockBegin
  2
*D9
 70
     1
 10
0.0
 20
0.0
 30
0.0
  3
*D9
  1

  0
LINE
  5
523
330
48A
100
AcDbEntity
  8
0
  6
BYBLOCK
 62
     4
100
AcDbLine
 10
549.134010340404
 20
195.0986144529973
 30
0.0
 11
416.1293785368181
 21
195.0986144529973
 31
0.0
  0
LINE
  5
524
330
48A
100
AcDbEntity
  8
0
  6
BYBLOCK
 62
     4
100
AcDbLine
 10
419.1293785368181
 20
230.0985144529974
 30
0.0
 11
419.1293785368181
 21
237.0985144529975
 31
0.0
  0
LINE
  5
525
330
48A
100
AcDbEntity
  8
0
  6
BYBLOCK
 62
     4
100
AcDbLine
 10
419.1293785368181
 20
188.0986144529973
 30
0.0
 11
419.1293785368181
 21
181.0986144529973
 31
0.0
  0
LINE
  5
526
330
48A
100
AcDbEntity
  8
0
  6
BYBLOCK
 62
     4
100
AcDbLine
 10
419.1293785368181
 20
223.0985144529975
 30
0.0
 11
419.1293785368181
 21
195.0986144529973
 31
0.0
  0
INSERT
  5
527
330
48A
100
AcDbEntity
  8
0
  6
BYBLOCK
 62
     4
100
AcDbBlockReference
  2
_OPEN
 10
419.1293785368181
 20
223.0985144529975
 30
0.0
 41
7.0
 42
7.0
 43
7.0
 50
270.0
  0
INSERT
  5
528
330
48A
100
AcDbEntity
  8
0
  6
BYBLOCK
 62
     4
100
AcDbBlockReference
  2
_OPEN
 10
419.1293785368181
 20
195.0986144529973
 30
0.0
 41
7.0
 42
7.0
 43
7.0
 50
90.0
  0
MTEXT
  5
529
330
48A
100
AcDbEntity
  8
0
  6
BYBLOCK
 62
     4
100
AcDbMText
 10
414.1293785368182
 20
209.0985644529974
 30
0.0
 40
6.0
 41
0.0
 71
     5
 72
     1
  1
\A1;28
 11
0.0
 21
1.0
 31
0.0
1001
ACAD
1000
MTEXTBEGIN
1070
    73
1070
     1
1070
    44
1040
1.0
1070
    74
1070
     0
1000
MTEXTEND
1000
MTEXTBEGIN
1070
    73
1070
     1
1070
    44
1040
1.0
1070
    74
1070
     0
1000
MTEXTEND
  0
POINT
  5
52A
330
48A
100
AcDbEntity
  8
DEFPOINTS
  6
BYBLOCK
 62
     0
100
AcDbPoint
 10
549.7841103404042
 20
223.0985144529975
 30
0.0
  0
POINT
  5
52B
330
48A
100
AcDbEntity
  8
DEFPOINTS
  6
BYBLOCK
 62
     0
100
AcDbPoint
 10
555.134010340404
 20
195.0986144529973
 30
0.0
  0
POINT
  5
52C
330
48A
100
AcDbEntity
  8
DEFPOINTS
  6
BYBLOCK
 62
     0
100
AcDbPoint
 10
419.1293785368181
 20
195.0986144529973
 30
0.0
  0
ENDBLK
  5
52D
330
48A
100
AcDbEntity
  8
0
100
AcDbBlockEnd
  0
BLOCK
  5
52E
330
497
100
AcDbEntity
  8
0
100
AcDbBlockBegin
  2
*D10
 70
     1
 10
0.0
 20
0.0
 30
0.0
  3
*D10
  1

  0
LINE
  5
52F
330
497
100
AcDbEntity
  8
0
  6
BYBLOCK
 62
     4
100
AcDbLine
 10
631.7341103404041
 20
176.0985144529975
 30
0.0
 11
631.7341103404041
 21
142.9755479095052
 31
0.0
  0
LINE
  5
530
330
497
100
AcDbEntity
  8
0
  6
BYBLOCK
 62
     4
100
AcDbLine
 10
559.3342103404041
 20
176.0986144529973
 30
0.0
 11
559.3342103404041
 21
142.9755479095052
 31
0.0
  0
LINE
  5
531
330
497
100
AcDbEntity
  8
0
  6
BYBLOCK
 62
     4
100
AcDbLine
 10
624.7341103404042
 20
145.9755479095052
 30
0.0
 11
566.3342103404041
 21
145.9755479095052
 31
0.0
  0
INSERT
  5
532
330
497
100
AcDbEntity
  8
0
  6
BYBLOCK
 62
     4
100
AcDbBlockReference
  2
_OPEN
 10
631.7341103404041
 20
145.9755479095052
 30
0.0
 41
7.0
 42
7.0
 43
7.0
  0
INSERT
  5
533
330
497
100
AcDbEntity
  8
0
  6
BYBLOCK
 62
     4
100
AcDbBlockReference
  2
_OPEN
 10
559.3342103404041
 20
145.9755479095052
 30
0.0
 41
7.0
 42
7.0
 43
7.0
 50
180.0
  0
MTEXT
  5
534
330
497
100
AcDbEntity
  8
0
  6
BYBLOCK
 62
     4
100
AcDbMText
 10
595.5341603404042
 20
150.9755479095052
 30
0.0
 40
6.0
 41
0.0
 71
     5
 72
     1
  1
\A1;φ72
1001
ACAD
1000
MTEXTBEGIN
1070
    73
1070
     1
1070
    44
1040
1.0
1070
    74
1070
     0
1000
MTEXTEND
1000
MTEXTBEGIN
1070
    73
1070
     1
1070
    44
1040
1.0
1070
    74
1070
     0
1000
MTEXTEND
  0
POINT
  5
535
330
497
100
AcDbEntity
  8
DEFPOINTS
  6
BYBLOCK
 62
     0
100
AcDbPoint
 10
631.7341103404041
 20
182.0985144529975
 30
0.0
  0
POINT
  5
536
330
497
100
AcDbEntity
  8
DEFPOINTS
  6
BYBLOCK
 62
     0
100
AcDbPoint
 10
559.3342103404041
 20
182.0986144529973
 30
0.0
  0
POINT
  5
537
330
497
100
AcDbEntity
  8
DEFPOINTS
  6
BYBLOCK
 62
     0
100
AcDbPoint
 10
559.3342103404041
 20
145.9755479095052
 30
0.0
  0
ENDBLK
  5
538
330
497
100
AcDbEntity
  8
0
100
AcDbBlockEnd
  0
BLOCK
  5
539
330
4A3
100
AcDbEntity
  8
0
100
AcDbBlockBegin
  2
*D11
 70
     1
 10
0.0
 20
0.0
 30
0.0
  3
*D11
  1

  0
LINE
  5
53A
330
4A3
100
AcDbEntity
  8
0
  6
BYBLOCK
 62
     4
100
AcDbLine
 10
591.5341103404042
 20
282.9873144529973
 30
0.0
 11
591.5341103404042
 21
269.6912656001716
 31
0.0
  0
LINE
  5
53B
330
4A3
100
AcDbEntity
  8
0
  6
BYBLOCK
 62
     4
100
AcDbLine
 10
595.5341103404042
 20
264.3882144529974
 30
0.0
 11
595.5341103404042
 21
275.6912656001716
 31
0.0
  0
LINE
  5
53C
330
4A3
100
AcDbEntity
  8
0
  6
BYBLOCK
 62
     4
100
AcDbLine
 10
584.5341103404043
 20
272.6912656001716
 30
0.0
 11
577.5341103404042
 21
272.6912656001716
 31
0.0
  0
LINE
  5
53D
330
4A3
100
AcDbEntity
  8
0
  6
BYBLOCK
 62
     4
100
AcDbLine
 10
602.5341103404042
 20
272.6912656001716
 30
0.0
 11
617.5341103404043
 21
272.6912656001716
 31
0.0
  0
LINE
  5
53E
330
4A3
100
AcDbEntity
  8
0
  6
BYBLOCK
 62
     4
100
AcDbLine
 10
591.5341103404042
 20
272.6912656001716
 30
0.0
 11
595.5341103404042
 21
272.6912656001716
 31
0.0
  0
INSERT
  5
53F
330
4A3
100
AcDbEntity
  8
0
  6
BYBLOCK
 62
     4
100
AcDbBlockReference
  2
_OPEN
 10
591.5341103404042
 20
272.6912656001716
 30
0.0
 41
7.0
 42
7.0
 43
7.0
  0
INSERT
  5
540
330
4A3
100
AcDbEntity
  8
0
  6
BYBLOCK
 62
     4
100
AcDbBlockReference
  2
_OPEN
 10
595.5341103404042
 20
272.6912656001716
 30
0.0
 41
7.0
 42
7.0
 43
7.0
 50
180.0
  0
MTEXT
  5
541
330
4A3
100
AcDbEntity
  8
0
  6
BYBLOCK
 62
     4
100
AcDbMText
 10
613.5341103404043
 20
277.6912656001716
 30
0.0
 40
6.0
 41
0.0
 71
     5
 72
     1
  1
\A1;4
1001
ACAD
1000
MTEXTBEGIN
1070
    73
1070
     1
1070
    44
1040
1.0
1070
    74
1070
     0
1000
MTEXTEND
1000
MTEXTBEGIN
1070
    73
1070
     1
1070
    44
1040
1.0
1070
    74
1070
     0
1000
MTEXTEND
  0
POINT
  5
542
330
4A3
100
AcDbEntity
  8
DEFPOINTS
  6
BYBLOCK
 62
     0
100
AcDbPoint
 10
591.5341103404042
 20
288.9873144529973
 30
0.0
  0
POINT
  5
543
330
4A3
100
AcDbEntity
  8
DEFPOINTS
  6
BYBLOCK
 62
     0
100
AcDbPoint
 10
595.5341103404042
 20
258.3882144529975
 30
0.0
  0
POINT
  5
544
330
4A3
100
AcDbEntity
  8
DEFPOINTS
  6
BYBLOCK
 62
     0
100
AcDbPoint
 10
595.5341103404042
 20
272.6912656001716
 30
0.0
  0
ENDBLK
  5
545
330
4A3
100
AcDbEntity
  8
0
100
AcDbBlockEnd
  0
BLOCK
  5
546
330
4B1
100
AcDbEntity
  8
0
100
AcDbBlockBegin
  2
*D12
 70
     1
 10
0.0
 20
0.0
 30
0.0
  3
*D12
  1

  0
LINE
  5
547
330
4B1
100
AcDbEntity
  8
0
  6
BYBLOCK
 62
     4
100
AcDbLine
 10
441.0343103404041
 20
447.0985144529973
 30
0.0
 11
441.0343103404041
 21
496.9244902229116
 31
0.0
  0
LINE
  5
548
330
4B1
100
AcDbEntity
  8
0
  6
BYBLOCK
 62
     4
100
AcDbLine
 10
661.5345103404043
 20
379.0983144529973
 30
0.0
 11
661.5345103404043
 21
496.9244902229116
 31
0.0
  0
LINE
  5
549
330
4B1
100
AcDbEntity
  8
0
  6
BYBLOCK
 62
     4
100
AcDbLine
 10
448.0343103404042
 20
493.9244902229116
 30
0.0
 11
654.5345103404042
 21
493.9244902229116
 31
0.0
  0
INSERT
  5
54A
330
4B1
100
AcDbEntity
  8
0
  6
BYBLOCK
 62
     4
100
AcDbBlockReference
  2
_OPEN
 10
441.0343103404041
 20
493.9244902229116
 30
0.0
 41
7.0
 42
7.0
 43
7.0
 50
180.0
  0
INSERT
  5
54B
330
4B1
100
AcDbEntity
  8
0
  6
BYBLOCK
 62
     4
100
AcDbBlockReference
  2
_OPEN
 10
661.5345103404043
 20
493.9244902229116
 30
0.0
 41
7.0
 42
7.0
 43
7.0
  0
MTEXT
  5
54C
330
4B1
100
AcDbEntity
  8
0
  6
BYBLOCK
 62
     4
100
AcDbMText
 10
551.2844103404042
 20
498.9244902229116
 30
0.0
 40
6.0
 41
0.0
 71
     5
 72
     1
  1
\A1;221
1001
ACAD
1000
MTEXTBEGIN
1070
    73
1070
     1
1070
    44
1040
1.0
1070
    74
1070
     0
1000
MTEXTEND
1000
MTEXTBEGIN
1070
    73
1070
     1
1070
    44
1040
1.0
1070
    74
1070
     0
1000
MTEXTEND
  0
POINT
  5
54D
330
4B1
100
AcDbEntity
  8
DEFPOINTS
  6
BYBLOCK
 62
     0
100
AcDbPoint
 10
441.0343103404041
 20
441.0985144529973
 30
0.0
  0
POINT
  5
54E
330
4B1
100
AcDbEntity
  8
DEFPOINTS
  6
BYBLOCK
 62
     0
100
AcDbPoint
 10
661.5345103404043
 20
373.0983144529973
 30
0.0
  0
POINT
  5
54F
330
4B1
100
AcDbEntity
  8
DEFPOINTS
  6
BYBLOCK
 62
     0
100
AcDbPoint
 10
661.5345103404043
 20
493.9244902229116
 30
0.0
  0
ENDBLK
  5
550
330
4B1
100
AcDbEntity
  8
0
100
AcDbBlockEnd
  0
BLOCK
  5
551
330
4BD
100
AcDbEntity
  8
0
100
AcDbBlockBegin
  2
*D13
 70
     1
 10
0.0
 20
0.0
 30
0.0
  3
*D13
  1

  0
LINE
  5
552
330
4BD
100
AcDbEntity
  8
0
  6
BYBLOCK
 62
     4
100
AcDbLine
 10
661.5345103404043
 20
379.0983144529973
 30
0.0
 11
661.5345103404043
 21
474.218842064918
 31
0.0
  0
LINE
  5
553
330
4BD
100
AcDbEntity
  8
0
  6
BYBLOCK
 62
     4
100
AcDbLine
 10
591.5341103404042
 20
363.5983144529975
 30
0.0
 11
591.5341103404042
 21
474.218842064918
 31
0.0
  0
LINE
  5
554
330
4BD
100
AcDbEntity
  8
0
  6
BYBLOCK
 62
     4
100
AcDbLine
 10
654.5345103404042
 20
471.2188420649179
 30
0.0
 11
598.5341103404042
 21
471.2188420649179
 31
0.0
  0
INSERT
  5
555
330
4BD
100
AcDbEntity
  8
0
  6
BYBLOCK
 62
     4
100
AcDbBlockReference
  2
_OPEN
 10
661.5345103404043
 20
471.2188420649179
 30
0.0
 41
7.0
 42
7.0
 43
7.0
  0
INSERT
  5
556
330
4BD
100
AcDbEntity
  8
0
  6
BYBLOCK
 62
     4
100
AcDbBlockReference
  2
_OPEN
 10
591.5341103404042
 20
471.2188420649179
 30
0.0
 41
7.0
 42
7.0
 43
7.0
 50
180.0
  0
MTEXT
  5
557
330
4BD
100
AcDbEntity
  8
0
  6
BYBLOCK
 62
     4
100
AcDbMText
 10
626.5343103404043
 20
476.2188420649179
 30
0.0
 40
6.0
 41
0.0
 71
     5
 72
     1
  1
\A1;70
1001
ACAD
1000
MTEXTBEGIN
1070
    73
1070
     1
1070
    44
1040
1.0
1070
    74
1070
     0
1000
MTEXTEND
1000
MTEXTBEGIN
1070
    73
1070
     1
1070
    44
1040
1.0
1070
    74
1070
     0
1000
MTEXTEND
  0
POINT
  5
558
330
4BD
100
AcDbEntity
  8
DEFPOINTS
  6
BYBLOCK
 62
     0
100
AcDbPoint
 10
661.5345103404043
 20
373.0983144529973
 30
0.0
  0
POINT
  5
559
330
4BD
100
AcDbEntity
  8
DEFPOINTS
  6
BYBLOCK
 62
     0
100
AcDbPoint
 10
591.5341103404042
 20
357.5983144529975
 30
0.0
  0
POINT
  5
55A
330
4BD
100
AcDbEntity
  8
DEFPOINTS
  6
BYBLOCK
 62
     0
100
AcDbPoint
 10
591.5341103404042
 20
471.2188420649179
 30
0.0
  0
ENDBLK
  5
55B
330
4BD
100
AcDbEntity
  8
0
100
AcDbBlockEnd
  0
ENDSEC
  0
SECTION
  2
ENTITIES
  0
TEXT
  5
11A
330
1A
100
AcDbEntity
  8
ZUWAKU
 62
     7
 48
10.0
100
AcDbText
 10
795.5579444309237
 20
4.974918402528146
 30
0.0
 40
8.0
  1
A1
100
AcDbText
  0
LINE
  5
11B
330
1A
100
AcDbEntity
  8
ZUWAKU
 62
     7
 48
10.0
100
AcDbLine
 10
10.05047808566086
 20
25.78258628282265
 30
0.0
 11
806.0504780856609
 21
25.78258628282253
 31
0.0
  0
LINE
  5
11C
330
1A
100
AcDbEntity
  8
ZUWAKU
  6
CONTINUOUS
 62
     7
100
AcDbLine
 10
806.0504780856609
 20
563.7825862828226
 30
0.0
 11
10.05047808566086
 21
563.7825862828226
 31
0.0
  0
LINE
  5
11D
330
1A
100
AcDbEntity
  8
ZUWAKU
  6
CONTINUOUS
 62
     7
100
AcDbLine
 10
806.0504780856609
 20
13.78258628282265
 30
0.0
 11
10.05047808566086
 21
13.78258628282265
 31
0.0
  0
LINE
  5
11E
330
1A
100
AcDbEntity
  8
ZUWAKU
  6
CONTINUOUS
 62
     7
100
AcDbLine
 10
10.05047808566086
 20
563.7825862828226
 30
0.0
 11
10.05047808566086
 21
13.78258628282265
 31
0.0
  0
LINE
  5
11F
330
1A
100
AcDbEntity
  8
ZUWAKU
 62
     7
 48
10.0
100
AcDbLine
 10
44.55797523147839
 20
13.78258628282265
 30
0.0
 11
44.5579752314784
 21
25.78258628282265
 31
0.0
  0
TEXT
  5
120
330
1A
100
AcDbEntity
  8
ZUWAKU
 62
     7
100
AcDbText
 10
16.05676551180931
 20
15.52294263804401
 30
0.0
 40
8.0
  1
品 種
100
AcDbText
  0
LINE
  5
121
330
1A
100
AcDbEntity
  8
ZUWAKU
 62
     7
 48
10.0
100
AcDbLine
 10
276.1028387068254
 20
13.78258628282265
 30
0.0
 11
276.1028387068254
 21
25.78258628282261
 31
0.0
  0
LINE
  5
122
330
1A
100
AcDbEntity
  8
ZUWAKU
 62
     7
 48
10.0
100
AcDbLine
 10
209.5138526425484
 20
13.78258628282265
 30
0.0
 11
209.5138526425485
 21
25.78258628282263
 31
0.0
  0
TEXT
  5
123
330
1A
100
AcDbEntity
  8
ZUWAKU
 62
     7
100
AcDbText
 10
282.3131429914078
 20
15.64241700452384
 30
0.0
 40
8.0
  1
飾りじょうご　型　１２０－ＵＴ７５
100
AcDbText
  0
TEXT
  5
124
330
1A
100
AcDbEntity
  8
ZUWAKU
 62
     7
100
AcDbText
 10
215.4560837190756
 20
16.18358115302453
 30
0.0
 40
8.0
  1
品名・ｻ ｲ ｽﾞ
100
AcDbText
  0
TEXT
  5
125
330
1A
100
AcDbEntity
  8
ZUWAKU
 62
     7
100
AcDbText
 10
50.3519382305086
 20
16.10306189639755
 30
0.0
 40
8.0
  1
丸トップ　のきとい
100
AcDbText
  0
LINE
  5
126
330
1A
100
AcDbEntity
  8
ZUWAKU
 62
     7
 48
10.0
100
AcDbLine
 10
768.7231079932794
 20
13.78258628282237
 30
0.0
 11
768.7231079932794
 21
25.78258628282254
 31
0.0
  0
LINE
  5
127
330
1A
100
AcDbEntity
  8
ZUWAKU
 62
     7
 48
10.0
100
AcDbLine
 10
733.8119002376948
 20
13.78258628282242
 30
0.0
 11
733.8119002376946
 21
25.78258628282254
 31
0.0
  0
TEXT
  5
128
330
1A
100
AcDbEntity
  8
ZUWAKU
 62
     7
100
AcDbText
 10
739.6955629973526
 20
15.24227755810852
 30
0.0
 40
8.0
  1
尺 度
100
AcDbText
  0
TEXT
  5
129
330
1A
100
AcDbEntity
  8
ZUWAKU
 62
     7
100
AcDbText
 10
779.7374630323229
 20
15.55488920081529
 30
0.0
 40
8.0
  1
1/2
100
AcDbText
  0
TEXT
  5
12A
330
1A
100
AcDbEntity
  8
ZUWAKU
 62
     7
100
AcDbText
 10
654.2531733678779
 20
15.90287984531518
 30
0.0
 40
8.0
  1
ＧＬ２２
100
AcDbText
  0
TEXT
  5
12B
330
1A
100
AcDbEntity
  8
ZUWAKU
 62
     7
100
AcDbText
 10
620.3363288383084
 20
15.6519090944263
 30
0.0
 40
8.0
  1
品 番
100
AcDbText
  0
LINE
  5
12C
330
1A
100
AcDbEntity
  8
ZUWAKU
 62
     7
 48
10.0
100
AcDbLine
 10
614.3351028194128
 20
13.78258628282232
 30
0.0
 11
614.3351028194128
 21
25.78258628282256
 31
0.0
  0
LINE
  5
12D
330
1A
100
AcDbEntity
  8
ZUWAKU
 62
     7
 48
10.0
100
AcDbLine
 10
648.7607587371021
 20
13.78258628282232
 30
0.0
 11
648.7607587371021
 21
25.78258628282255
 31
0.0
  0
TEXT
  5
12E
330
1A
100
AcDbEntity
  8
ZUWAKU
 62
     7
 48
10.0
100
AcDbText
 10
646.2758615931216
 20
4.949376903717848
 30
0.0
 40
8.0
  1
積水化学工業株式会社  建材
100
AcDbText
  0
LINE
  5
12F
330
1A
100
AcDbEntity
  8
ZUWAKU
  6
CONTINUOUS
 62
     7
100
AcDbLine
 10
806.0504780856609
 20
563.7825862828226
 30
0.0
 11
806.0504780856609
 21
13.78258628282265
 31
0.0
  0
DIMENSION
  5
315
330
1A
100
AcDbEntity
  8
SUNPOU
  6
CONTINUOUS
100
AcDbDimension
  2
*D1
 10
404.8204126615058
 20
414.9541870493183
 30
0.0
 11
399.8204126615057
 21
285.4542370493184
 31
0.0
 12
7.963561829988066
 22
-26.14432740367897
 32
0.0
 70
    32
  3
STANDARD
100
AcDbAlignedDimension
 13
567.2977721703922
 23
155.9542870493183
 33
0.0
 14
448.9978721703923
 24
414.9541870493183
 34
0.0
 50
90.0
100
AcDbRotatedDimension
1001
ACAD
1000
DSTYLE
1002
{
1070
   140
1040
6.0
1070
    74
1070
     0
1070
   172
1070
     1
1070
    73
1070
     0
1070
   272
1070
     2
1070
    77
1070
     3
1070
   173
1070
     1
1070
   147
1040
2.0
1070
    42
1040
6.0
1070
    44
1040
3.0
1070
    43
1040
14.0
1070
   271
1070
     0
1070
   178
1070
     4
1070
   177
1070
     4
1070
   176
1070
     4
1070
   141
1040
150.0
1070
     7
1000
_OPEN
1070
     6
1000
_OPEN
1070
    41
1040
7.0
1002
}
  0
ARC
  5
316
330
1A
100
AcDbEntity
  8
SEIHIN
  6
CONTINUOUS
 62
     3
 48
16.0
100
AcDbCircle
 10
268.006719177868
 20
286.4024085785034
 30
0.0
 40
11.99995299278078
100
AcDbArc
 50
0.0003746720111312
 51
61.84730786680374
  0
ARC
  5
317
330
1A
100
AcDbEntity
  8
SEIHIN
  6
CONTINUOUS
 62
     3
 48
16.0
100
AcDbCircle
 10
268.006727109879
 20
286.402420334662
 30
0.0
 40
18.00000389366275
100
AcDbArc
 50
1.756602793212767
 51
77.18671024038478
  0
ARC
  5
318
330
1A
100
AcDbEntity
  8
SEIHIN
  6
CONTINUOUS
 62
     3
 48
16.0
100
AcDbCircle
 10
208.9903866455831
 20
286.4025112122078
 30
0.0
 40
12.00001447521518
100
AcDbArc
 50
118.1512434059783
 51
180.0001153691593
  0
ARC
  5
319
330
1A
100
AcDbEntity
  8
SEIHIN
  6
CONTINUOUS
 62
     3
 48
16.0
100
AcDbCircle
 10
208.9903663025509
 20
286.4024799238732
 30
0.0
 40
18.00005418103015
100
AcDbArc
 50
102.813413542225
 51
178.2432734241772
  0
LINE
  5
31A
330
1A
100
AcDbEntity
  8
CENTER_L
  6
CENTER
 62
     1
 48
5.0
100
AcDbLine
 10
238.4986721703922
 20
430.9505870493183
 30
0.0
 11
238.4984057399168
 21
141.7192578674489
 31
0.0
  0
LINE
  5
31B
330
1A
100
AcDbEntity
  8
SEIHIN
  6
CONTINUOUS
 62
     3
 48
16.0
100
AcDbLine
 10
277.4984721703922
 20
293.7444870493184
 30
0.0
 11
277.4983721703921
 21
213.9574870493184
 31
0.0
  0
LINE
  5
31C
330
1A
100
AcDbEntity
  8
SEIHIN
  6
CONTINUOUS
 62
     3
 48
16.0
100
AcDbLine
 10
274.4984721703922
 20
296.4947870493185
 30
0.0
 11
274.4983721703921
 21
213.5201870493184
 31
0.0
  0
LINE
  5
31D
330
1A
100
AcDbEntity
  8
SEIHIN
  6
CONTINUOUS
 62
     3
 48
16.0
100
AcDbLine
 10
271.4985721703921
 20
297.7600870493184
 30
0.0
 11
271.4983721703921
 21
213.1170870493185
 31
0.0
  0
LINE
  5
31E
330
1A
100
AcDbEntity
  8
SEIHIN
  6
CONTINUOUS
 62
     3
 48
16.0
100
AcDbLine
 10
268.4985721703922
 20
298.8346870493185
 30
0.0
 11
268.4983721703921
 21
212.7481870493184
 31
0.0
  0
LINE
  5
31F
330
1A
100
AcDbEntity
  8
SEIHIN
  6
CONTINUOUS
 62
     3
 48
16.0
100
AcDbLine
 10
265.4985721703922
 20
307.3522870493183
 30
0.0
 11
265.4983721703921
 21
212.4131870493184
 31
0.0
  0
LINE
  5
320
330
1A
100
AcDbEntity
  8
SEIHIN
  6
CONTINUOUS
 62
     3
 48
16.0
100
AcDbLine
 10
262.4985721703922
 20
311.5179870493185
 30
0.0
 11
262.4983721703921
 21
212.1120870493184
 31
0.0
  0
LINE
  5
321
330
1A
100
AcDbEntity
  8
SEIHIN
  6
CONTINUOUS
 62
     3
 48
16.0
100
AcDbLine
 10
259.4985721703922
 20
313.0585870493184
 30
0.0
 11
259.4983721703921
 21
211.8446870493184
 31
0.0
  0
LINE
  5
322
330
1A
100
AcDbEntity
  8
SEIHIN
  6
CONTINUOUS
 62
     3
 48
16.0
100
AcDbLine
 10
256.4985721703922
 20
314.1331870493185
 30
0.0
 11
256.4983721703921
 21
211.6108870493184
 31
0.0
  0
LINE
  5
323
330
1A
100
AcDbEntity
  8
SEIHIN
  6
CONTINUOUS
 62
     3
 48
16.0
100
AcDbLine
 10
253.4985721703923
 20
315.2077870493184
 30
0.0
 11
253.4983721703922
 21
211.4106870493184
 31
0.0
  0
LINE
  5
324
330
1A
100
AcDbEntity
  8
SEIHIN
  6
CONTINUOUS
 62
     3
 48
16.0
100
AcDbLine
 10
250.4985721703923
 20
316.2823870493185
 30
0.0
 11
250.4983721703922
 21
211.2438870493185
 31
0.0
  0
LINE
  5
325
330
1A
100
AcDbEntity
  8
SEIHIN
  6
CONTINUOUS
 62
     3
 48
16.0
100
AcDbLine
 10
247.4985721703923
 20
317.3569870493185
 30
0.0
 11
247.4983721703922
 21
211.1105870493184
 31
0.0
  0
LINE
  5
326
330
1A
100
AcDbEntity
  8
SEIHIN
  6
CONTINUOUS
 62
     3
 48
16.0
100
AcDbLine
 10
244.4985721703923
 20
318.7208870493185
 30
0.0
 11
244.4983721703921
 21
211.0105870493185
 31
0.0
  0
LINE
  5
327
330
1A
100
AcDbEntity
  8
SEIHIN
  6
CONTINUOUS
 62
     3
 48
16.0
100
AcDbLine
 10
320.9985721703921
 20
334.9541870493184
 30
0.0
 11
317.4985721703921
 21
274.9541870493185
 31
0.0
  0
LINE
  5
328
330
1A
100
AcDbEntity
  8
SEIHIN
  6
CONTINUOUS
 62
     3
 48
16.0
100
AcDbLine
 10
155.9986721703922
 20
334.9544870493185
 30
0.0
 11
159.4983721703922
 21
274.9544870493183
 31
0.0
  0
LINE
  5
329
330
1A
100
AcDbEntity
  8
SEIHIN
  6
CONTINUOUS
 62
     3
 48
16.0
100
AcDbLine
 10
232.4985721703923
 20
318.7208870493185
 30
0.0
 11
232.4983721703921
 21
211.0104870493184
 31
0.0
  0
LINE
  5
32A
330
1A
100
AcDbEntity
  8
SEIHIN
  6
CONTINUOUS
 62
     3
 48
16.0
100
AcDbLine
 10
235.4985721703922
 20
320.4271870493185
 30
0.0
 11
235.4983721703922
 21
210.9438870493185
 31
0.0
  0
LINE
  5
32B
330
1A
100
AcDbEntity
  8
SEIHIN
  6
CONTINUOUS
 62
     3
 48
16.0
100
AcDbLine
 10
241.4985721703923
 20
320.4271870493185
 30
0.0
 11
241.4983721703922
 21
210.9438870493185
 31
0.0
  0
LINE
  5
32C
330
1A
100
AcDbEntity
  8
SEIHIN
  6
CONTINUOUS
 62
     3
 48
16.0
100
AcDbLine
 10
229.4985721703923
 20
317.3570870493183
 30
0.0
 11
229.4983721703922
 21
211.1104870493185
 31
0.0
  0
LINE
  5
32D
330
1A
100
AcDbEntity
  8
SEIHIN
  6
CONTINUOUS
 62
     3
 48
16.0
100
AcDbLine
 10
226.4985721703923
 20
316.2824870493185
 30
0.0
 11
226.4983721703922
 21
211.2438870493185
 31
0.0
  0
LINE
  5
32E
330
1A
100
AcDbEntity
  8
SEIHIN
  6
CONTINUOUS
 62
     3
 48
16.0
100
AcDbLine
 10
223.4985721703922
 20
315.2078870493185
 30
0.0
 11
223.4983721703922
 21
211.4105870493184
 31
0.0
  0
LINE
  5
32F
330
1A
100
AcDbEntity
  8
SEIHIN
  6
CONTINUOUS
 62
     3
 48
16.0
100
AcDbLine
 10
220.4985721703922
 20
314.1332870493185
 30
0.0
 11
220.4983721703922
 21
211.6108870493184
 31
0.0
  0
LINE
  5
330
330
1A
100
AcDbEntity
  8
SEIHIN
  6
CONTINUOUS
 62
     3
 48
16.0
100
AcDbLine
 10
217.4985721703922
 20
313.0585870493184
 30
0.0
 11
217.4983721703921
 21
211.8446870493184
 31
0.0
  0
LINE
  5
331
330
1A
100
AcDbEntity
  8
SEIHIN
  6
CONTINUOUS
 62
     3
 48
16.0
100
AcDbLine
 10
214.4985721703921
 20
311.5180870493183
 30
0.0
 11
214.4983721703922
 21
212.1120870493184
 31
0.0
  0
LINE
  5
332
330
1A
100
AcDbEntity
  8
SEIHIN
  6
CONTINUOUS
 62
     3
 48
16.0
100
AcDbLine
 10
211.4985721703922
 20
307.3523870493185
 30
0.0
 11
211.4983721703921
 21
212.4131870493184
 31
0.0
  0
LINE
  5
333
330
1A
100
AcDbEntity
  8
SEIHIN
  6
CONTINUOUS
 62
     3
 48
16.0
100
AcDbLine
 10
208.4984721703922
 20
298.8347870493185
 30
0.0
 11
208.4983721703922
 21
212.7481870493184
 31
0.0
  0
LINE
  5
334
330
1A
100
AcDbEntity
  8
SEIHIN
  6
CONTINUOUS
 62
     3
 48
16.0
100
AcDbLine
 10
205.4984721703921
 20
297.7601870493185
 30
0.0
 11
205.4983721703921
 21
213.1171870493184
 31
0.0
  0
LINE
  5
335
330
1A
100
AcDbEntity
  8
SEIHIN
  6
CONTINUOUS
 62
     3
 48
16.0
100
AcDbLine
 10
202.4984721703922
 20
296.4948870493184
 30
0.0
 11
202.4983721703922
 21
213.5202870493184
 31
0.0
  0
LINE
  5
336
330
1A
100
AcDbEntity
  8
SEIHIN
  6
CONTINUOUS
 62
     3
 48
16.0
100
AcDbLine
 10
199.4984721703921
 20
293.7445870493185
 30
0.0
 11
199.4983721703922
 21
213.9575870493185
 31
0.0
  0
LINE
  5
337
330
1A
100
AcDbEntity
  8
SEIHIN
  6
CONTINUOUS
 62
     3
 48
16.0
100
AcDbLine
 10
238.4985721703923
 20
322.3926870493185
 30
0.0
 11
238.4983721703921
 21
210.9105870493184
 31
0.0
  0
ARC
  5
338
330
1A
100
AcDbEntity
  8
SEIHIN
  6
CONTINUOUS
 62
     3
 48
16.0
100
AcDbCircle
 10
275.9982109000422
 20
223.8443320884749
 30
0.0
 40
9.999961270451453
100
AcDbArc
 50
278.6145661326894
 51
359.9997419436431
  0
LINE
  5
339
330
1A
100
AcDbEntity
  8
SEIHIN
  6
CONTINUOUS
 62
     3
 48
16.0
100
AcDbLine
 10
238.4987721703922
 20
196.9541870493185
 30
0.0
 11
284.2482721703922
 21
196.9541870493185
 31
0.0
  0
LINE
  5
33A
330
1A
100
AcDbEntity
  8
SEIHIN
  6
CONTINUOUS
 62
     3
 48
16.0
100
AcDbLine
 10
284.4979721703922
 20
196.9541870493185
 30
0.0
 11
238.4983721703921
 21
196.9541870493185
 31
0.0
  0
LINE
  5
33B
330
1A
100
AcDbEntity
  8
SEIHIN
  6
CONTINUOUS
 62
     3
 48
16.0
100
AcDbLine
 10
278.8982721703921
 20
168.9540870493185
 30
0.0
 11
238.4982721703922
 21
168.9541870493185
 31
0.0
  0
LINE
  5
33C
330
1A
100
AcDbEntity
  8
SEIHIN
  6
CONTINUOUS
 62
     3
 48
16.0
100
AcDbLine
 10
284.4982721703922
 20
171.9540870493185
 30
0.0
 11
238.4982721703922
 21
171.9541870493185
 31
0.0
  0
ARC
  5
33D
330
1A
100
AcDbEntity
  8
SEIHIN
  6
CONTINUOUS
 62
     3
 48
16.0
100
AcDbCircle
 10
182.6355930932435
 20
197.6905594877777
 30
0.0
 40
10.00003856695211
100
AcDbArc
 50
5.355922151603285
 51
69.05101731417333
  0
LINE
  5
33E
330
1A
100
AcDbEntity
  8
SEIHIN
  6
CONTINUOUS
 62
     3
 48
16.0
100
AcDbLine
 10
238.4979721703922
 20
196.9541870493185
 30
0.0
 11
192.7484721703922
 21
196.9542870493184
 31
0.0
  0
LINE
  5
33F
330
1A
100
AcDbEntity
  8
SEIHIN
  6
CONTINUOUS
 62
     3
 48
16.0
100
AcDbLine
 10
192.4986721703922
 20
196.9542870493184
 30
0.0
 11
238.4983721703921
 21
196.9541870493185
 31
0.0
  0
LINE
  5
340
330
1A
100
AcDbEntity
  8
SEIHIN
  6
CONTINUOUS
 62
     3
 48
16.0
100
AcDbLine
 10
202.2983721703921
 20
155.9542870493183
 30
0.0
 11
238.4978721703922
 21
155.9541870493185
 31
0.0
  0
LINE
  5
341
330
1A
100
AcDbEntity
  8
SEIHIN
  6
CONTINUOUS
 62
     3
 48
16.0
100
AcDbLine
 10
238.4982721703922
 20
155.9541870493185
 30
0.0
 11
202.2982721703922
 21
155.9543870493184
 31
0.0
  0
LINE
  5
342
330
1A
100
AcDbEntity
  8
SEIHIN
  6
CONTINUOUS
 62
     3
 48
16.0
100
AcDbLine
 10
198.0983721703922
 20
168.9541870493185
 30
0.0
 11
238.4983721703921
 21
168.9541870493185
 31
0.0
  0
LINE
  5
343
330
1A
100
AcDbEntity
  8
SEIHIN
  6
CONTINUOUS
 62
     3
 48
16.0
100
AcDbLine
 10
192.4983721703922
 20
171.9542870493183
 30
0.0
 11
238.4983721703921
 21
171.9541870493185
 31
0.0
  0
LINE
  5
344
330
1A
100
AcDbEntity
  8
SEIHIN
  6
CONTINUOUS
 62
     3
 48
16.0
100
AcDbLine
 10
192.4983721703922
 20
196.9542870493184
 30
0.0
 11
192.4983721703922
 21
171.9542870493183
 31
0.0
  0
LINE
  5
345
330
1A
100
AcDbEntity
  8
SEIHIN
  6
CONTINUOUS
 62
     3
 48
16.0
100
AcDbLine
 10
192.4983721703922
 20
171.9542870493183
 30
0.0
 11
198.0983721703922
 21
168.9541870493185
 31
0.0
  0
LINE
  5
346
330
1A
100
AcDbEntity
  8
SEIHIN
  6
CONTINUOUS
 62
     3
 48
16.0
100
AcDbLine
 10
202.2981721703921
 20
155.9542870493183
 30
0.0
 11
202.2982721703922
 21
168.9544870493184
 31
0.0
  0
LINE
  5
347
330
1A
100
AcDbEntity
  8
SEIHIN
  6
CONTINUOUS
 62
     3
 48
16.0
100
AcDbLine
 10
192.5919721703922
 20
198.6239870493184
 30
0.0
 11
192.7484721703922
 21
196.9542870493184
 31
0.0
  0
LINE
  5
348
330
1A
100
AcDbEntity
  8
SEIHIN
  6
CONTINUOUS
 62
     3
 48
16.0
100
AcDbLine
 10
274.6982721703921
 20
155.9541870493185
 30
0.0
 11
238.4987721703922
 21
155.9541870493185
 31
0.0
  0
LINE
  5
349
330
1A
100
AcDbEntity
  8
SEIHIN
  6
CONTINUOUS
 62
     3
 48
16.0
100
AcDbLine
 10
238.4982721703922
 20
155.9541870493185
 30
0.0
 11
274.6982721703921
 21
155.9542870493183
 31
0.0
  0
LINE
  5
34A
330
1A
100
AcDbEntity
  8
SEIHIN
  6
CONTINUOUS
 62
     3
 48
16.0
100
AcDbLine
 10
274.6983721703923
 20
155.9541870493185
 30
0.0
 11
274.6983721703923
 21
168.9542870493184
 31
0.0
  0
ARC
  5
34B
330
1A
100
AcDbEntity
  8
SEIHIN
  6
CONTINUOUS
 62
     3
 48
16.0
100
AcDbCircle
 10
240.0059923059994
 20
481.3124011013665
 30
0.0
 40
270.4061151989769
100
AcDbArc
 50
261.3850527147044
 51
269.6806154722398
  0
ARC
  5
34C
330
1A
100
AcDbEntity
  8
SEIHIN
  6
CONTINUOUS
 62
     3
 48
16.0
100
AcDbCircle
 10
459.0345973691873
 20
291.6293231941117
 30
0.0
 40
299.9999452332313
100
AcDbArc
 50
183.1864548143153
 51
194.2991812497272
  0
LINE
  5
34D
330
1A
100
AcDbEntity
  8
SEIHIN
  6
CONTINUOUS
 62
     3
 48
16.0
100
AcDbLine
 10
196.9985721703922
 20
214.6792870493185
 30
0.0
 11
196.9987721703922
 21
286.9542870493185
 31
0.0
  0
LINE
  5
34E
330
1A
100
AcDbEntity
  8
SEIHIN
  6
CONTINUOUS
 62
     3
 48
16.0
100
AcDbLine
 10
190.9986721703922
 20
223.8444870493184
 30
0.0
 11
190.9987721703921
 21
286.9542870493185
 31
0.0
  0
ARC
  5
34F
330
1A
100
AcDbEntity
  8
SEIHIN
  6
CONTINUOUS
 62
     3
 48
16.0
100
AcDbCircle
 10
237.6969705263388
 20
341.5107674338297
 30
0.0
 40
143.9999361525114
100
AcDbArc
 50
242.5783251977941
 51
249.0508634948819
  0
ARC
  5
350
330
1A
100
AcDbEntity
  8
SEIHIN
  6
CONTINUOUS
 62
     3
 48
16.0
100
AcDbCircle
 10
174.142816420733
 20
219.0164312970722
 30
0.0
 40
6.000011311520426
100
AcDbArc
 50
194.2984959686291
 51
242.5780521119985
  0
ARC
  5
351
330
1A
100
AcDbEntity
  8
SEIHIN
  6
CONTINUOUS
 62
     3
 48
16.0
100
AcDbCircle
 10
200.998640930658
 20
223.8444233790962
 30
0.0
 40
9.999968760468425
100
AcDbArc
 50
179.9996351953585
 51
261.384817467078
  0
ARC
  5
352
330
1A
100
AcDbEntity
  8
SEIHIN
  6
CONTINUOUS
 62
     3
 48
16.0
100
AcDbCircle
 10
236.992124148826
 20
481.3125379833207
 30
0.0
 40
270.4061438783865
100
AcDbArc
 50
270.3190725659484
 51
278.6146523127572
  0
ARC
  5
353
330
1A
100
AcDbEntity
  8
SEIHIN
  6
CONTINUOUS
 62
     3
 48
16.0
100
AcDbCircle
 10
294.3611082923042
 20
197.6904346324407
 30
0.0
 40
9.999988785322729
100
AcDbArc
 50
110.9494418605522
 51
174.6444835433171
  0
LINE
  5
354
330
1A
100
AcDbEntity
  8
SEIHIN
  6
CONTINUOUS
 62
     3
 48
16.0
100
AcDbLine
 10
284.4983721703921
 20
196.9541870493185
 30
0.0
 11
284.4982721703922
 21
171.9540870493185
 31
0.0
  0
LINE
  5
355
330
1A
100
AcDbEntity
  8
SEIHIN
  6
CONTINUOUS
 62
     3
 48
16.0
100
AcDbLine
 10
284.4982721703922
 20
171.9540870493185
 30
0.0
 11
278.8982721703921
 21
168.9540870493185
 31
0.0
  0
LINE
  5
356
330
1A
100
AcDbEntity
  8
SEIHIN
  6
CONTINUOUS
 62
     3
 48
16.0
100
AcDbLine
 10
284.4047721703922
 20
198.6237870493184
 30
0.0
 11
284.2482721703922
 21
196.9541870493185
 31
0.0
  0
ARC
  5
357
330
1A
100
AcDbEntity
  8
SEIHIN
  6
CONTINUOUS
 62
     3
 48
16.0
100
AcDbCircle
 10
17.96237260866456
 20
291.6302898991214
 30
0.0
 40
299.9999900488582
100
AcDbArc
 50
345.7006106927303
 51
356.8133033647049
  0
LINE
  5
358
330
1A
100
AcDbEntity
  8
SEIHIN
  6
CONTINUOUS
 62
     3
 48
16.0
100
AcDbLine
 10
285.9981721703923
 20
223.8442870493185
 30
0.0
 11
285.9981721703923
 21
286.9541870493184
 31
0.0
  0
LINE
  5
359
330
1A
100
AcDbEntity
  8
SEIHIN
  6
CONTINUOUS
 62
     3
 48
16.0
100
AcDbLine
 10
279.9982721703922
 20
214.6791870493184
 30
0.0
 11
279.9982721703922
 21
286.9541870493184
 31
0.0
  0
ARC
  5
35A
330
1A
100
AcDbEntity
  8
SEIHIN
  6
CONTINUOUS
 62
     3
 48
16.0
100
AcDbCircle
 10
239.2997662076023
 20
341.51058437136
 30
0.0
 40
143.9999546901838
100
AcDbArc
 50
290.9491369221793
 51
297.4216743851449
  0
ARC
  5
35B
330
1A
100
AcDbEntity
  8
SEIHIN
  6
CONTINUOUS
 62
     3
 48
16.0
100
AcDbCircle
 10
302.8539279200514
 20
219.0162312970722
 30
0.0
 40
6.000011311520384
100
AcDbArc
 50
297.4219478880005
 51
345.7015040313699
  0
DIMENSION
  5
35C
330
1A
100
AcDbEntity
  8
SUNPOU
  6
CONTINUOUS
100
AcDbDimension
  2
*D2
 10
361.998472170392
 20
467.7731871362175
 30
0.0
 11
238.4986721703922
 21
472.7731871362175
 31
0.0
 12
7.963561829988066
 22
-26.14432740367897
 32
0.0
 70
    32
  3
STANDARD
100
AcDbAlignedDimension
 13
114.9988721703922
 23
394.9546870493183
 33
0.0
 14
361.998472170392
 24
394.9542870493185
 34
0.0
100
AcDbRotatedDimension
1001
ACAD
1000
DSTYLE
1002
{
1070
   140
1040
6.0
1070
    74
1070
     0
1070
   172
1070
     1
1070
    73
1070
     0
1070
   272
1070
     2
1070
    77
1070
     3
1070
   173
1070
     1
1070
   147
1040
2.0
1070
    42
1040
6.0
1070
    44
1040
3.0
1070
    43
1040
14.0
1070
   271
1070
     0
1070
   178
1070
     4
1070
   177
1070
     4
1070
   176
1070
     4
1070
   141
1040
150.0
1070
     7
1000
_OPEN
1070
     6
1000
_OPEN
1070
    41
1040
7.0
1002
}
  0
ARC
  5
35D
330
1A
100
AcDbEntity
  8
SEIHIN
  6
CONTINUOUS
 62
     3
 48
16.0
100
AcDbCircle
 10
152.6657202217677
 20
342.954531786485
 30
0.0
 40
6.000044737391363
100
AcDbArc
 50
188.5316866368296
 51
270.0004960691241
  0
LINE
  5
35E
330
1A
100
AcDbEntity
  8
SEIHIN
  6
CONTINUOUS
 62
     3
 48
16.0
100
AcDbLine
 10
134.0918721703922
 20
362.9544870493185
 30
0.0
 11
238.4984721703922
 21
362.9541870493183
 31
0.0
  0
LINE
  5
35F
330
1A
100
AcDbEntity
  8
SEIHIN
  6
CONTINUOUS
 62
     3
 48
16.0
100
AcDbLine
 10
144.8264721703922
 20
346.9544870493185
 30
0.0
 11
238.4984721703922
 21
346.9541870493183
 31
0.0
  0
ARC
  5
360
330
1A
100
AcDbEntity
  8
SEIHIN
  6
CONTINUOUS
 62
     3
 48
16.0
100
AcDbCircle
 10
117.2547804281729
 20
504.931489123825
 30
0.0
 40
120.0000020746873
100
AcDbArc
 50
269.999900564236
 51
298.2039544489297
  0
ARC
  5
361
330
1A
100
AcDbEntity
  8
SEIHIN
  6
CONTINUOUS
 62
     3
 48
16.0
100
AcDbCircle
 10
117.254671429524
 20
504.9314611709801
 30
0.0
 40
113.9999741216616
100
AcDbArc
 50
270.0000003723563
 51
298.8134184049253
  0
ARC
  5
362
330
1A
100
AcDbEntity
  8
SEIHIN
  6
CONTINUOUS
 62
     3
 48
16.0
100
AcDbCircle
 10
117.2549103384457
 20
504.9315215910835
 30
0.0
 40
109.9999720183714
100
AcDbArc
 50
268.824813071994
 51
299.2473368290124
  0
LINE
  5
363
330
1A
100
AcDbEntity
  8
SEIHIN
  6
CONTINUOUS
 62
     3
 48
16.0
100
AcDbLine
 10
116.4986721703921
 20
390.9544870493185
 30
0.0
 11
116.4986721703921
 21
384.9544870493185
 31
0.0
  0
LINE
  5
364
330
1A
100
AcDbEntity
  8
SEIHIN
  6
CONTINUOUS
 62
     3
 48
16.0
100
AcDbLine
 10
133.9986721703922
 20
362.9544870493185
 30
0.0
 11
134.9036721703921
 21
355.7140870493185
 31
0.0
  0
ARC
  5
365
330
1A
100
AcDbEntity
  8
SEIHIN
  6
CONTINUOUS
 62
     3
 48
16.0
100
AcDbCircle
 10
134.0919450738965
 20
377.9545107016145
 30
0.0
 40
15.0000236523205
100
AcDbArc
 50
187.7652523161586
 51
270.0001035008265
  0
ARC
  5
366
330
1A
100
AcDbEntity
  8
SEIHIN
  6
CONTINUOUS
 62
     3
 48
16.0
100
AcDbCircle
 10
144.8264635632792
 20
356.9544946475627
 30
0.0
 40
10.00000759824793
100
AcDbArc
 50
187.1247813977494
 51
270.0000493150876
  0
LINE
  5
367
330
1A
100
AcDbEntity
  8
SEIHIN
  6
CONTINUOUS
 62
     3
 48
16.0
100
AcDbLine
 10
145.9986721703923
 20
346.9544870493185
 30
0.0
 11
146.7320721703921
 21
342.0644870493184
 31
0.0
  0
LINE
  5
368
330
1A
100
AcDbEntity
  8
SEIHIN
  6
CONTINUOUS
 62
     3
 48
16.0
100
AcDbLine
 10
117.9986721703923
 20
384.9545870493185
 30
0.0
 11
119.2294721703922
 21
375.9278870493183
 31
0.0
  0
LINE
  5
369
330
1A
100
AcDbEntity
  8
SEIHIN
  6
CONTINUOUS
 62
     3
 48
16.0
100
AcDbLine
 10
114.9986721703923
 20
394.9545870493185
 30
0.0
 11
114.9986721703923
 21
390.9544870493185
 31
0.0
  0
DIMENSION
  5
36A
330
1A
100
AcDbEntity
  8
SUNPOU
  6
CONTINUOUS
100
AcDbDimension
  2
*D3
 10
320.9402453583385
 20
445.089873722146
 30
0.0
 11
294.7194501684936
 21
450.089873722146
 31
0.0
 70
    32
  1
※a <>
  3
STANDARD
100
AcDbAlignedDimension
 13
268.4986549786487
 23
412.2875774663878
 33
0.0
 14
320.9402453583385
 24
333.9542988426861
 34
0.0
100
AcDbRotatedDimension
1001
ACAD
1000
DSTYLE
1002
{
1070
   287
1070
     4
1070
   287
1070
     4
1070
    41
1040
7.0
1070
    42
1040
6.0
1070
    43
1040
14.0
1070
    44
1040
3.0
1070
    73
1070
     0
1070
    74
1070
     0
1070
    75
1070
     1
1070
    77
1070
     3
1070
   140
1040
6.0
1070
   141
1040
150.0
1070
   147
1040
2.0
1070
   172
1070
     1
1070
   173
1070
     1
1070
   176
1070
     4
1070
   177
1070
     4
1070
   178
1070
     4
1070
   271
1070
     0
1070
   272
1070
     2
1070
   279
1070
     1
1070
     6
1000
OPEN
1070
     7
1000
OPEN
1002
}
  0
LINE
  5
36B
330
1A
100
AcDbEntity
  8
SEIHIN
  6
CONTINUOUS
 62
     3
 48
16.0
100
AcDbLine
 10
303.0292721703922
 20
399.1787870493185
 30
0.0
 11
268.6844721703922
 21
402.2402870493185
 31
0.0
  0
LINE
  5
36C
330
1A
100
AcDbEntity
  8
SEIHIN
  6
CONTINUOUS
 62
     3
 48
16.0
100
AcDbLine
 10
238.4986721703922
 20
336.9541870493184
 30
0.0
 11
322.6241721703922
 21
336.9541870493184
 31
0.0
  0
LINE
  5
36D
330
1A
100
AcDbEntity
  8
SEIHIN
  6
CONTINUOUS
 62
     3
 48
16.0
100
AcDbLine
 10
342.9052721703921
 20
362.9541870493183
 30
0.0
 11
238.4986721703922
 21
362.9541870493183
 31
0.0
  0
LINE
  5
36E
330
1A
100
AcDbEntity
  8
SEIHIN
  6
CONTINUOUS
 62
     3
 48
16.0
100
AcDbLine
 10
332.1707721703923
 20
346.9541870493183
 30
0.0
 11
238.4986721703922
 21
346.9541870493183
 31
0.0
  0
LINE
  5
36F
330
1A
100
AcDbEntity
  8
SEIHIN
  6
CONTINUOUS
 62
     3
 48
16.0
100
AcDbLine
 10
322.9985721703921
 20
334.9541870493184
 30
0.0
 11
238.4986721703922
 21
334.9541870493184
 31
0.0
  0
LINE
  5
370
330
1A
100
AcDbEntity
  8
SEIHIN
  6
CONTINUOUS
 62
     3
 48
16.0
100
AcDbLine
 10
238.4986721703922
 20
414.9542870493185
 30
0.0
 11
305.9986721703923
 21
408.9541870493183
 31
0.0
  0
LINE
  5
371
330
1A
100
AcDbEntity
  8
SEIHIN
  6
CONTINUOUS
 62
     3
 48
16.0
100
AcDbLine
 10
238.1445721703922
 20
410.9699870493185
 30
0.0
 11
304.7995721703922
 21
405.0450870493184
 31
0.0
  0
LINE
  5
372
330
1A
100
AcDbEntity
  8
SEIHIN
  6
CONTINUOUS
 62
     3
 48
16.0
100
AcDbLine
 10
227.0321721703921
 20
385.8683870493184
 30
0.0
 11
238.4986721703922
 21
380.9541870493184
 31
0.0
  0
LINE
  5
373
330
1A
100
AcDbEntity
  8
SEIHIN
  6
CONTINUOUS
 62
     3
 48
16.0
100
AcDbLine
 10
249.9650721703923
 20
385.8683870493184
 30
0.0
 11
238.4986721703922
 21
380.9541870493184
 31
0.0
  0
ARC
  5
374
330
1A
100
AcDbEntity
  8
SEIHIN
  6
CONTINUOUS
 62
     3
 48
16.0
100
AcDbCircle
 10
246.6623390217993
 20
390.8775541405332
 30
0.0
 40
6.000006551744034
100
AcDbArc
 50
282.9982883408724
 51
346.5864709462712
  0
ARC
  5
375
330
1A
100
AcDbEntity
  8
SEIHIN
  6
CONTINUOUS
 62
     3
 48
16.0
100
AcDbCircle
 10
230.335005318985
 20
390.8775541405331
 30
0.0
 40
6.000006551743903
100
AcDbArc
 50
193.4135290537275
 51
257.0017116591263
  0
ARC
  5
376
330
1A
100
AcDbEntity
  8
SEIHIN
  6
CONTINUOUS
 62
     3
 48
16.0
100
AcDbCircle
 10
219.9984600825982
 20
304.3940698795153
 30
0.0
 40
8.999987912222366
100
AcDbArc
 50
109.7076727413856
 51
179.999890693491
  0
ARC
  5
377
330
1A
100
AcDbEntity
  8
SEIHIN
  6
CONTINUOUS
 62
     3
 48
16.0
100
AcDbCircle
 10
219.9984946456918
 20
304.394118973884
 30
0.0
 40
15.00002247533354
100
AcDbArc
 50
109.7080578487887
 51
180.0001219426752
  0
LINE
  5
378
330
1A
100
AcDbEntity
  8
SEIHIN
  6
CONTINUOUS
 62
     3
 48
16.0
100
AcDbLine
 10
153.9986721703922
 20
334.9544870493185
 30
0.0
 11
238.4984721703922
 21
334.9541870493184
 31
0.0
  0
LINE
  5
379
330
1A
100
AcDbEntity
  8
SEIHIN
  6
CONTINUOUS
 62
     3
 48
16.0
100
AcDbLine
 10
238.4984721703922
 20
336.9541870493184
 30
0.0
 11
154.3729721703921
 21
336.9544870493185
 31
0.0
  0
LINE
  5
37A
330
1A
100
AcDbEntity
  8
SEIHIN
  6
CONTINUOUS
 62
     3
 48
16.0
100
AcDbLine
 10
153.9986721703922
 20
334.9544870493185
 30
0.0
 11
153.9986721703922
 21
335.9544870493185
 31
0.0
  0
LINE
  5
37B
330
1A
100
AcDbEntity
  8
SEIHIN
  6
CONTINUOUS
 62
     3
 48
16.0
100
AcDbLine
 10
152.6657721703922
 20
336.9544870493185
 30
0.0
 11
152.9986721703922
 21
336.9544870493185
 31
0.0
  0
ARC
  5
37C
330
1A
100
AcDbEntity
  8
SEIHIN
  6
CONTINUOUS
 62
     3
 48
16.0
100
AcDbCircle
 10
152.9986721703922
 20
335.9544870493185
 30
0.0
 40
1.0
100
AcDbArc
 50
0.0
 51
90.0
  0
LINE
  5
37D
330
1A
100
AcDbEntity
  8
SEIHIN
  6
CONTINUOUS
 62
     3
 48
16.0
100
AcDbLine
 10
204.9984721703922
 20
304.3940870493185
 30
0.0
 11
204.9984721703922
 21
303.9542870493185
 31
0.0
  0
LINE
  5
37E
330
1A
100
AcDbEntity
  8
SEIHIN
  6
CONTINUOUS
 62
     3
 48
16.0
100
AcDbLine
 10
210.9984721703922
 20
304.3940870493185
 30
0.0
 11
210.9983721703922
 21
299.7302870493185
 31
0.0
  0
LINE
  5
37F
330
1A
100
AcDbEntity
  8
SEIHIN
  6
CONTINUOUS
 62
     3
 48
16.0
100
AcDbLine
 10
210.9983721703922
 20
299.7302870493185
 30
0.0
 11
203.3283721703921
 21
296.9828870493184
 31
0.0
  0
ARC
  5
380
330
1A
100
AcDbEntity
  8
SEIHIN
  6
CONTINUOUS
 62
     3
 48
16.0
100
AcDbCircle
 10
270.671672759232
 20
368.2281217558673
 30
0.0
 40
50.00001259273782
100
AcDbArc
 50
229.949402328024
 51
244.0741304781074
  0
ARC
  5
381
330
1A
100
AcDbEntity
  8
SEIHIN
  6
CONTINUOUS
 62
     3
 48
16.0
100
AcDbCircle
 10
270.6714553531845
 20
368.2282553790869
 30
0.0
 40
56.00000152672413
100
AcDbArc
 50
234.9341476925502
 51
244.4169250365781
  0
LINE
  5
382
330
1A
100
AcDbEntity
  8
SEIHIN
  6
CONTINUOUS
 62
     3
 48
16.0
100
AcDbLine
 10
230.5073721703921
 20
317.7184870493184
 30
0.0
 11
216.9633721703921
 21
312.8668870493185
 31
0.0
  0
ARC
  5
383
330
1A
100
AcDbEntity
  8
SEIHIN
  6
CONTINUOUS
 62
     3
 48
16.0
100
AcDbCircle
 10
206.3258658028237
 20
368.2285127373273
 30
0.0
 40
50.00005821578306
100
AcDbArc
 50
295.925214399885
 51
310.0499635808323
  0
LINE
  5
384
330
1A
100
AcDbEntity
  8
SEIHIN
  6
CONTINUOUS
 62
     3
 48
16.0
100
AcDbLine
 10
228.1857721703921
 20
323.2601870493185
 30
0.0
 11
214.9400721703922
 21
318.5153870493185
 31
0.0
  0
ARC
  5
385
330
1A
100
AcDbEntity
  8
SEIHIN
  6
CONTINUOUS
 62
     3
 48
16.0
100
AcDbCircle
 10
206.3258527834478
 20
368.2284926941226
 30
0.0
 40
56.00010166431133
100
AcDbArc
 50
295.5827266767659
 51
305.0655756437334
  0
ARC
  5
386
330
1A
100
AcDbEntity
  8
SEIHIN
  6
CONTINUOUS
 62
     3
 48
16.0
100
AcDbCircle
 10
256.9986496950924
 20
304.3940189738841
 30
0.0
 40
15.00002247533373
100
AcDbArc
 50
359.9998780573241
 51
70.29194215121075
  0
LINE
  5
387
330
1A
100
AcDbEntity
  8
SEIHIN
  6
CONTINUOUS
 62
     3
 48
16.0
100
AcDbLine
 10
246.4896721703921
 20
317.7183870493184
 30
0.0
 11
260.0336721703921
 21
312.8668870493185
 31
0.0
  0
ARC
  5
388
330
1A
100
AcDbEntity
  8
SEIHIN
  6
CONTINUOUS
 62
     3
 48
16.0
100
AcDbCircle
 10
256.9986842581862
 20
304.3939698795151
 30
0.0
 40
8.999987912222387
100
AcDbArc
 50
0.0001093065092213
 51
70.2923272586148
  0
LINE
  5
389
330
1A
100
AcDbEntity
  8
SEIHIN
  6
CONTINUOUS
 62
     3
 48
16.0
100
AcDbLine
 10
271.9986721703922
 20
304.3939870493183
 30
0.0
 11
271.9986721703922
 21
303.9541870493183
 31
0.0
  0
LINE
  5
38A
330
1A
100
AcDbEntity
  8
SEIHIN
  6
CONTINUOUS
 62
     3
 48
16.0
100
AcDbLine
 10
265.9986721703922
 20
304.3939870493183
 30
0.0
 11
265.9986721703922
 21
299.7301870493184
 31
0.0
  0
LINE
  5
38B
330
1A
100
AcDbEntity
  8
SEIHIN
  6
CONTINUOUS
 62
     3
 48
16.0
100
AcDbLine
 10
265.9986721703922
 20
299.7301870493184
 30
0.0
 11
273.6685721703921
 21
296.9826870493184
 31
0.0
  0
LINE
  5
38C
330
1A
100
AcDbEntity
  8
SEIHIN
  6
CONTINUOUS
 62
     3
 48
16.0
100
AcDbLine
 10
248.8113721703922
 20
323.2600870493184
 30
0.0
 11
262.0570721703923
 21
318.5153870493185
 31
0.0
  0
DIMENSION
  5
38D
330
1A
100
AcDbEntity
  8
SUNPOU
  6
CONTINUOUS
100
AcDbDimension
  2
*D4
 10
268.4986549786487
 20
445.089873722146
 30
0.0
 11
238.4986549786937
 21
450.089873722146
 31
0.0
 12
7.963561829988066
 22
-26.14432740367897
 32
0.0
 70
    32
  3
STANDARD
100
AcDbAlignedDimension
 13
208.4986549787387
 23
412.2877028053473
 33
0.0
 14
268.4986549786487
 24
412.2875774663878
 34
0.0
100
AcDbRotatedDimension
1001
ACAD
1000
DSTYLE
1002
{
1070
   140
1040
6.0
1070
    74
1070
     0
1070
   172
1070
     1
1070
    73
1070
     0
1070
   272
1070
     2
1070
    77
1070
     3
1070
   173
1070
     1
1070
   147
1040
2.0
1070
    42
1040
6.0
1070
    44
1040
3.0
1070
    43
1040
14.0
1070
   271
1070
     0
1070
   178
1070
     4
1070
   177
1070
     4
1070
   176
1070
     4
1070
   141
1040
150.0
1070
     7
1000
_OPEN
1070
     6
1000
_OPEN
1070
    41
1040
7.0
1002
}
  0
ARC
  5
38E
330
1A
100
AcDbEntity
  8
SEIHIN
  6
CONTINUOUS
 62
     3
 48
16.0
100
AcDbCircle
 10
209.1982166248558
 20
392.2797197487359
 30
0.0
 40
10.00004590994512
100
AcDbArc
 50
21.55874856776385
 51
97.47039257178348
  0
LINE
  5
38F
330
1A
100
AcDbEntity
  8
SEIHIN
  6
CONTINUOUS
 62
     3
 48
16.0
100
AcDbLine
 10
238.8528721703922
 20
410.9699870493185
 30
0.0
 11
172.1978721703922
 21
405.0451870493184
 31
0.0
  0
LINE
  5
390
330
1A
100
AcDbEntity
  8
SEIHIN
  6
CONTINUOUS
 62
     3
 48
16.0
100
AcDbLine
 10
238.4987721703922
 20
414.9542870493185
 30
0.0
 11
170.9986721703923
 21
408.9544870493185
 31
0.0
  0
LINE
  5
391
330
1A
100
AcDbEntity
  8
SEIHIN
  6
CONTINUOUS
 62
     3
 48
16.0
100
AcDbLine
 10
173.9680721703921
 20
399.1788870493185
 30
0.0
 11
208.3129721703921
 21
402.2403870493183
 31
0.0
  0
ARC
  5
392
330
1A
100
AcDbEntity
  8
SEIHIN
  6
CONTINUOUS
 62
     3
 48
16.0
100
AcDbCircle
 10
224.4148524983142
 20
396.9537034428249
 30
0.0
 40
6.000001900008025
100
AcDbArc
 50
189.5884131234255
 51
270.8004446920441
  0
LINE
  5
393
330
1A
100
AcDbEntity
  8
SEIHIN
  6
CONTINUOUS
 62
     3
 48
16.0
100
AcDbLine
 10
224.4986721703922
 20
390.9541870493185
 30
0.0
 11
224.4986721703922
 21
389.4856870493185
 31
0.0
  0
ARC
  5
394
330
1A
100
AcDbEntity
  8
SEIHIN
  6
CONTINUOUS
 62
     3
 48
16.0
100
AcDbCircle
 10
267.7991277159288
 20
392.2796197487361
 30
0.0
 40
10.0000459099452
100
AcDbArc
 50
82.52960742821876
 51
158.4412514322384
  0
ARC
  5
395
330
1A
100
AcDbEntity
  8
SEIHIN
  6
CONTINUOUS
 62
     3
 48
16.0
100
AcDbCircle
 10
252.5824426620761
 20
396.9536624592979
 30
0.0
 40
6.000060223883151
100
AcDbArc
 50
269.2000327684857
 51
350.4111094160434
  0
LINE
  5
396
330
1A
100
AcDbEntity
  8
SEIHIN
  6
CONTINUOUS
 62
     3
 48
16.0
100
AcDbLine
 10
252.4986721703923
 20
390.9541870493185
 30
0.0
 11
252.4986721703923
 21
389.4856870493185
 31
0.0
  0
LINE
  5
397
330
1A
100
AcDbEntity
  8
SEIHIN
  6
CONTINUOUS
 62
     3
 48
16.0
100
AcDbLine
 10
360.4986721703923
 20
390.9541870493185
 30
0.0
 11
360.4986721703923
 21
384.9541870493185
 31
0.0
  0
ARC
  5
398
330
1A
100
AcDbEntity
  8
SEIHIN
  6
CONTINUOUS
 62
     3
 48
16.0
100
AcDbCircle
 10
359.742838454255
 20
504.9311955195617
 30
0.0
 40
120.0000084703582
100
AcDbArc
 50
241.795844265164
 51
269.9999206053093
  0
ARC
  5
399
330
1A
100
AcDbEntity
  8
SEIHIN
  6
CONTINUOUS
 62
     3
 48
16.0
100
AcDbCircle
 10
332.1707807775052
 20
356.9541946475625
 30
0.0
 40
10.00000759824792
100
AcDbArc
 50
269.9999506849132
 51
352.8752186022515
  0
ARC
  5
39A
330
1A
100
AcDbEntity
  8
SEIHIN
  6
CONTINUOUS
 62
     3
 48
16.0
100
AcDbCircle
 10
342.9052992668878
 20
377.9542107016144
 30
0.0
 40
15.00002365232046
100
AcDbArc
 50
269.9998964991735
 51
352.2347476838414
  0
ARC
  5
39B
330
1A
100
AcDbEntity
  8
SEIHIN
  6
CONTINUOUS
 62
     3
 48
16.0
100
AcDbCircle
 10
324.3314580891249
 20
342.9541749226273
 30
0.0
 40
5.999987873325363
100
AcDbArc
 50
270.0001344664689
 51
351.4697466039094
  0
LINE
  5
39C
330
1A
100
AcDbEntity
  8
SEIHIN
  6
CONTINUOUS
 62
     3
 48
16.0
100
AcDbLine
 10
324.331472170392
 20
336.9541870493184
 30
0.0
 11
323.998572170392
 21
336.9541870493184
 31
0.0
  0
LINE
  5
39D
330
1A
100
AcDbEntity
  8
SEIHIN
  6
CONTINUOUS
 62
     3
 48
16.0
100
AcDbLine
 10
322.9985721703921
 20
334.9541870493184
 30
0.0
 11
322.9985721703921
 21
335.9541870493183
 31
0.0
  0
ARC
  5
39E
330
1A
100
AcDbEntity
  8
SEIHIN
  6
CONTINUOUS
 62
     3
 48
16.0
100
AcDbCircle
 10
323.9985721703922
 20
335.9541870493184
 30
0.0
 40
1.000000000000056
100
AcDbArc
 50
90.00000000000325
 51
180.0000000000032
  0
LINE
  5
39F
330
1A
100
AcDbEntity
  8
SEIHIN
  6
CONTINUOUS
 62
     3
 48
16.0
100
AcDbLine
 10
342.998572170392
 20
362.9541870493183
 30
0.0
 11
342.0935721703922
 21
355.7138870493184
 31
0.0
  0
LINE
  5
3A0
330
1A
100
AcDbEntity
  8
SEIHIN
  6
CONTINUOUS
 62
     3
 48
16.0
100
AcDbLine
 10
330.9985721703922
 20
346.9541870493183
 30
0.0
 11
330.2650721703922
 21
342.0641870493184
 31
0.0
  0
LINE
  5
3A1
330
1A
100
AcDbEntity
  8
SEIHIN
  6
CONTINUOUS
 62
     3
 48
16.0
100
AcDbLine
 10
358.9986721703922
 20
384.9541870493185
 30
0.0
 11
357.767772170392
 21
375.9274870493183
 31
0.0
  0
ARC
  5
3A2
330
1A
100
AcDbEntity
  8
SEIHIN
  6
CONTINUOUS
 62
     3
 48
16.0
100
AcDbCircle
 10
359.7429590968596
 20
504.93116531758
 30
0.0
 40
110.0000049675311
100
AcDbArc
 50
240.7523593132091
 51
271.174913012065
  0
ARC
  5
3A3
330
1A
100
AcDbEntity
  8
SEIHIN
  6
CONTINUOUS
 62
     3
 48
16.0
100
AcDbCircle
 10
359.7428620267061
 20
504.9311896550595
 30
0.0
 40
114.0000026058991
100
AcDbArc
 50
241.1864809909655
 51
269.9999045792521
  0
LINE
  5
3A4
330
1A
100
AcDbEntity
  8
SEIHIN
  6
CONTINUOUS
 62
     3
 48
16.0
100
AcDbLine
 10
361.9986721703923
 20
394.9542870493185
 30
0.0
 11
361.9986721703923
 21
390.9541870493185
 31
0.0
  0
DIMENSION
  5
3A5
330
1A
100
AcDbEntity
  8
SUNPOU
  6
CONTINUOUS
100
AcDbDimension
  2
*D5
 10
427.0929403668062
 20
196.9541870493185
 30
0.0
 11
422.0929403668062
 21
305.9541870493184
 31
0.0
 12
7.963561829988066
 22
-26.14432740367897
 32
0.0
 70
    32
  3
STANDARD
100
AcDbAlignedDimension
 13
448.9978721703923
 23
414.9541870493183
 33
0.0
 14
557.7476721703923
 24
196.9541870493185
 34
0.0
 50
90.0
100
AcDbRotatedDimension
1001
ACAD
1000
DSTYLE
1002
{
1070
   140
1040
6.0
1070
    74
1070
     0
1070
   172
1070
     1
1070
    73
1070
     0
1070
   272
1070
     2
1070
    77
1070
     3
1070
   173
1070
     1
1070
   147
1040
2.0
1070
    42
1040
6.0
1070
    44
1040
3.0
1070
    43
1040
14.0
1070
   271
1070
     0
1070
   178
1070
     4
1070
   177
1070
     4
1070
   176
1070
     4
1070
   141
1040
150.0
1070
     7
1000
_OPEN
1070
     6
1000
_OPEN
1070
    41
1040
7.0
1002
}
  0
DIMENSION
  5
3A6
330
1A
100
AcDbEntity
  8
SUNPOU
  6
CONTINUOUS
100
AcDbDimension
  2
*D6
 10
702.0438564862645
 20
276.9540970666609
 30
0.0
 11
697.0438564862645
 21
311.9540420579896
 31
0.0
 12
7.963561829988066
 22
-26.14432740367897
 32
0.0
 70
    32
  3
STANDARD
100
AcDbAlignedDimension
 13
669.4980721703923
 23
346.9539870493184
 33
0.0
 14
599.4976721703924
 24
276.9540970666609
 34
0.0
 50
90.0
100
AcDbRotatedDimension
1001
ACAD
1000
DSTYLE
1002
{
1070
   140
1040
6.0
1070
    74
1070
     0
1070
   172
1070
     1
1070
    73
1070
     0
1070
   272
1070
     2
1070
    77
1070
     3
1070
   173
1070
     1
1070
   147
1040
2.0
1070
    42
1040
6.0
1070
    44
1040
3.0
1070
    43
1040
14.0
1070
   271
1070
     0
1070
   178
1070
     4
1070
   177
1070
     4
1070
   176
1070
     4
1070
   141
1040
150.0
1070
     7
1000
_OPEN
1070
     6
1000
_OPEN
1070
    41
1040
7.0
1002
}
  0
ARC
  5
3A7
330
1A
100
AcDbEntity
  8
NOKITOI
  6
CONTINUOUS
 62
     8
 48
5.0
100
AcDbCircle
 10
599.4976721703924
 20
333.9540958821069
 30
0.0
 40
56.99999881544602
100
AcDbArc
 50
183.5558249414448
 51
353.2434543568847
  0
ARC
  5
3A8
330
1A
100
AcDbEntity
  8
NOKITOI
  6
CONTINUOUS
 62
     8
 48
5.0
100
AcDbCircle
 10
599.4976225302134
 20
333.9540976948556
 30
0.0
 40
55.69997777445496
100
AcDbArc
 50
183.4893828011791
 51
356.5101019184219
  0
ARC
  5
3A9
330
1A
100
AcDbEntity
  8
SEIHIN
  6
CONTINUOUS
 62
     3
 48
16.0
100
AcDbCircle
 10
461.5095531844083
 20
277.5313410498771
 30
0.0
 40
56.78433369313363
100
AcDbArc
 50
11.26612345957048
 51
27.47595359298047
  0
LINE
  5
3AA
330
1A
100
AcDbEntity
  8
SEIHIN
  6
CONTINUOUS
 62
     3
 48
16.0
100
AcDbLine
 10
520.9978721703922
 20
334.9541870493184
 30
0.0
 11
539.4441721703924
 21
234.3369870493184
 31
0.0
  0
LINE
  5
3AB
330
1A
100
AcDbEntity
  8
SEIHIN
  6
CONTINUOUS
 62
     3
 48
16.0
100
AcDbLine
 10
511.797472170392
 20
304.2285870493183
 30
0.0
 11
528.7910721703921
 21
211.5356870493184
 31
0.0
  0
LINE
  5
3AC
330
1A
100
AcDbEntity
  8
SEIHIN
  6
CONTINUOUS
 62
     3
 48
16.0
100
AcDbLine
 10
669.4976721703923
 20
346.9540870493184
 30
0.0
 11
662.8090721703921
 21
221.4133870493184
 31
0.0
  0
LINE
  5
3AD
330
1A
100
AcDbEntity
  8
CENTER_L
  6
CENTER
 62
     1
 48
5.0
100
AcDbLine
 10
599.4976721703923
 20
331.4539870493185
 30
0.0
 11
599.4976721703923
 21
262.8429870493184
 31
0.0
  0
ARC
  5
3AE
330
1A
100
AcDbEntity
  8
SEIHIN
  6
CONTINUOUS
 62
     3
 48
16.0
100
AcDbCircle
 10
599.4977637170729
 20
333.9540870493491
 30
0.0
 40
56.99998998276167
100
AcDbArc
 50
191.7351360203795
 51
348.2644533201102
  0
TEXT
  5
3AF
330
1A
100
AcDbEntity
  8
SUNPOU
 62
     4
100
AcDbText
 10
619.2173057436031
 20
52.57926368842724
 30
0.0
 40
8.0
  1
※b　エルボの差込み寸法を示す。　
100
AcDbText
  0
TEXT
  5
3B0
330
1A
100
AcDbEntity
  8
SUNPOU
 62
     4
100
AcDbText
 10
619.2173057436031
 20
65.31362120699047
 30
0.0
 40
8.0
  1
※a　のきといの差込み寸法を示す。　
100
AcDbText
  0
DIMENSION
  5
3B1
330
1A
100
AcDbEntity
  8
SUNPOU
  6
CONTINUOUS
100
AcDbDimension
  2
*D7
 10
681.9114771104539
 20
180.9540870493185
 30
0.0
 11
676.9114771104539
 21
209.3540870493185
 31
0.0
 12
7.963561829988066
 22
-26.14432740367897
 32
0.0
 70
    32
  1
※b <>
  3
STANDARD
100
AcDbAlignedDimension
 13
643.8976721703921
 23
168.9540870493185
 33
0.0
 14
649.4976721703923
 24
180.9540870493185
 34
0.0
 50
90.0
100
AcDbRotatedDimension
1001
ACAD
1000
DSTYLE
1002
{
1070
   140
1040
6.0
1070
    74
1070
     0
1070
   172
1070
     1
1070
    73
1070
     0
1070
   272
1070
     2
1070
    77
1070
     3
1070
   173
1070
     1
1070
   147
1040
2.0
1070
    42
1040
6.0
1070
    44
1040
3.0
1070
    43
1040
14.0
1070
   271
1070
     0
1070
   178
1070
     4
1070
   177
1070
     4
1070
   176
1070
     4
1070
   141
1040
150.0
1070
     7
1000
_OPEN
1070
     6
1000
_OPEN
1070
    41
1040
7.0
1002
}
  0
DIMENSION
  5
3B2
330
1A
100
AcDbEntity
  8
SUNPOU
  6
CONTINUOUS
100
AcDbDimension
  2
*D8
 10
557.497572170392
 20
96.16305367448404
 30
0.0
 11
603.4976221703922
 21
101.163053674484
 31
0.0
 12
7.963561829988066
 22
-26.14432740367897
 32
0.0
 70
    32
  1
φ<>
  3
STANDARD
100
AcDbAlignedDimension
 13
649.4976721703923
 23
171.9539870493184
 33
0.0
 14
557.497572170392
 24
171.9542870493183
 34
0.0
100
AcDbRotatedDimension
1001
ACAD
1000
DSTYLE
1002
{
1070
   140
1040
6.0
1070
    74
1070
     0
1070
   172
1070
     1
1070
    73
1070
     0
1070
   272
1070
     2
1070
    77
1070
     3
1070
   173
1070
     1
1070
   147
1040
2.0
1070
    42
1040
6.0
1070
    44
1040
3.0
1070
    43
1040
14.0
1070
   271
1070
     0
1070
   178
1070
     4
1070
   177
1070
     4
1070
   176
1070
     4
1070
   141
1040
150.0
1070
     7
1000
_OPEN
1070
     6
1000
_OPEN
1070
    41
1040
7.0
1002
}
  0
DIMENSION
  5
3B3
330
1A
100
AcDbEntity
  8
SUNPOU
  6
CONTINUOUS
100
AcDbDimension
  2
*D9
 10
427.0929403668062
 20
168.9542870493184
 30
0.0
 11
422.0929403668062
 21
182.9542370493184
 31
0.0
 12
7.963561829988066
 22
-26.14432740367897
 32
0.0
 70
    32
  3
STANDARD
100
AcDbAlignedDimension
 13
557.7476721703923
 23
196.9541870493185
 33
0.0
 14
563.0975721703921
 24
168.9542870493184
 34
0.0
 50
90.0
100
AcDbRotatedDimension
1001
ACAD
1000
DSTYLE
1002
{
1070
   140
1040
6.0
1070
    74
1070
     0
1070
   172
1070
     1
1070
    73
1070
     0
1070
   272
1070
     2
1070
    77
1070
     3
1070
    75
1070
     1
1070
   173
1070
     1
1070
   147
1040
2.0
1070
    42
1040
6.0
1070
    44
1040
3.0
1070
    43
1040
14.0
1070
   271
1070
     0
1070
   178
1070
     4
1070
   177
1070
     4
1070
   176
1070
     4
1070
   141
1040
150.0
1070
     7
1000
_OPEN
1070
     6
1000
_OPEN
1070
    41
1040
7.0
1002
}
  0
ARC
  5
3B4
330
1A
100
AcDbEntity
  8
SEIHIN
  6
CONTINUOUS
 62
     3
 48
16.0
100
AcDbCircle
 10
601.8822982035763
 20
461.0506060797451
 30
0.0
 40
259.9999630942428
100
AcDbArc
 50
253.6728386117211
 51
258.4328035723087
  0
ARC
  5
3B5
330
1A
100
AcDbEntity
  8
SEIHIN
  6
CONTINUOUS
 62
     3
 48
16.0
100
AcDbCircle
 10
530.6837496383705
 20
239.2703042659928
 30
0.0
 40
27.79902969143513
100
AcDbArc
 50
266.0958303021199
 51
298.9636815921749
  0
ARC
  5
3B6
330
1A
100
AcDbEntity
  8
SEIHIN
  6
CONTINUOUS
 62
     3
 48
16.0
100
AcDbCircle
 10
554.1982859117337
 20
237.0418717950606
 30
0.0
 40
15.00000912600335
100
AcDbArc
 50
190.3887221585442
 51
253.6374670889822
  0
ARC
  5
3B7
330
1A
100
AcDbEntity
  8
SEIHIN
  6
CONTINUOUS
 62
     3
 48
16.0
100
AcDbCircle
 10
543.6193269781756
 20
230.4853201696597
 30
0.0
 40
15.54602121896925
100
AcDbArc
 50
194.6870710779369
 51
272.8395778807175
  0
LINE
  5
3B8
330
1A
100
AcDbEntity
  8
SEIHIN
  6
CONTINUOUS
 62
     3
 48
16.0
100
AcDbLine
 10
517.059372170392
 20
289.3906870493184
 30
0.0
 11
528.5812721703922
 21
226.5438870493185
 31
0.0
  0
LINE
  5
3B9
330
1A
100
AcDbEntity
  8
SEIHIN
  6
CONTINUOUS
 62
     3
 48
16.0
100
AcDbLine
 10
649.5910721703921
 20
200.6172870493185
 30
0.0
 11
649.2476721703923
 21
196.9541870493185
 31
0.0
  0
ARC
  5
3BA
330
1A
100
AcDbEntity
  8
SEIHIN
  6
CONTINUOUS
 62
     3
 48
16.0
100
AcDbCircle
 10
547.7432572987924
 20
196.5341036271869
 30
0.0
 40
9.999970521713809
100
AcDbArc
 50
5.355704692853276
 51
78.43309443619556
  0
LINE
  5
3BB
330
1A
100
AcDbEntity
  8
CENTER_L
  6
CENTER
 62
     1
 48
5.0
100
AcDbLine
 10
603.4976721703923
 20
141.719257867449
 30
0.0
 11
603.4976721703923
 21
232.2438870493185
 31
0.0
  0
DIMENSION
  5
3BC
330
1A
100
AcDbEntity
  8
SUNPOU
  6
CONTINUOUS
100
AcDbDimension
  2
*D10
 10
567.2977721703922
 20
119.8312205058262
 30
0.0
 11
603.4977221703923
 21
124.8312205058262
 31
0.0
 12
7.963561829988066
 22
-26.14432740367897
 32
0.0
 70
    32
  1
φ<>
  3
STANDARD
100
AcDbAlignedDimension
 13
639.6976721703922
 23
155.9541870493185
 33
0.0
 14
567.2977721703922
 24
155.9542870493183
 34
0.0
100
AcDbRotatedDimension
1001
ACAD
1000
DSTYLE
1002
{
1070
   140
1040
6.0
1070
    74
1070
     0
1070
   172
1070
     1
1070
    73
1070
     0
1070
   272
1070
     2
1070
    77
1070
     3
1070
   173
1070
     1
1070
   147
1040
2.0
1070
    42
1040
6.0
1070
    44
1040
3.0
1070
    43
1040
14.0
1070
   271
1070
     0
1070
   178
1070
     4
1070
   177
1070
     4
1070
   176
1070
     4
1070
   141
1040
150.0
1070
     7
1000
_OPEN
1070
     6
1000
_OPEN
1070
    41
1040
7.0
1002
}
  0
LINE
  5
3BD
330
1A
100
AcDbEntity
  8
SEIHIN
  6
CONTINUOUS
 62
     3
 48
16.0
100
AcDbLine
 10
603.4981721703923
 20
196.9541870493185
 30
0.0
 11
649.2476721703923
 21
196.9541870493185
 31
0.0
  0
LINE
  5
3BE
330
1A
100
AcDbEntity
  8
SEIHIN
  6
CONTINUOUS
 62
     3
 48
16.0
100
AcDbLine
 10
649.4976721703923
 20
196.9540870493185
 30
0.0
 11
557.4976721703923
 21
196.9542870493184
 31
0.0
  0
LINE
  5
3BF
330
1A
100
AcDbEntity
  8
SEIHIN
  6
CONTINUOUS
 62
     3
 48
16.0
100
AcDbLine
 10
643.8976721703921
 20
168.9540870493185
 30
0.0
 11
603.4976721703923
 21
168.9540870493185
 31
0.0
  0
LINE
  5
3C0
330
1A
100
AcDbEntity
  8
SEIHIN
  6
CONTINUOUS
 62
     3
 48
16.0
100
AcDbLine
 10
649.4976721703923
 20
171.9539870493184
 30
0.0
 11
603.4976721703923
 21
171.9540870493185
 31
0.0
  0
LINE
  5
3C1
330
1A
100
AcDbEntity
  8
SEIHIN
  6
CONTINUOUS
 62
     3
 48
16.0
100
AcDbLine
 10
603.4976721703923
 20
155.9540870493185
 30
0.0
 11
639.6976721703922
 21
155.9541870493185
 31
0.0
  0
LINE
  5
3C2
330
1A
100
AcDbEntity
  8
SEIHIN
  6
CONTINUOUS
 62
     3
 48
16.0
100
AcDbLine
 10
639.6976721703922
 20
155.9542870493183
 30
0.0
 11
567.2977721703922
 21
155.9542870493183
 31
0.0
  0
LINE
  5
3C3
330
1A
100
AcDbEntity
  8
SEIHIN
  6
CONTINUOUS
 62
     3
 48
16.0
100
AcDbLine
 10
603.4972721703923
 20
196.9541870493185
 30
0.0
 11
557.7476721703923
 21
196.9541870493185
 31
0.0
  0
LINE
  5
3C4
330
1A
100
AcDbEntity
  8
SEIHIN
  6
CONTINUOUS
 62
     3
 48
16.0
100
AcDbLine
 10
603.4977721703922
 20
155.9540870493185
 30
0.0
 11
567.2976721703921
 21
155.9541870493185
 31
0.0
  0
LINE
  5
3C5
330
1A
100
AcDbEntity
  8
SEIHIN
  6
CONTINUOUS
 62
     3
 48
16.0
100
AcDbLine
 10
563.0975721703921
 20
168.9542870493184
 30
0.0
 11
603.4976721703923
 21
168.9540870493185
 31
0.0
  0
LINE
  5
3C6
330
1A
100
AcDbEntity
  8
SEIHIN
  6
CONTINUOUS
 62
     3
 48
16.0
100
AcDbLine
 10
557.497572170392
 20
171.9542870493183
 30
0.0
 11
603.4976721703923
 21
171.9541870493185
 31
0.0
  0
LINE
  5
3C7
330
1A
100
AcDbEntity
  8
SEIHIN
  6
CONTINUOUS
 62
     3
 48
16.0
100
AcDbLine
 10
557.4976721703923
 20
196.9542870493184
 30
0.0
 11
557.497572170392
 21
171.9542870493183
 31
0.0
  0
LINE
  5
3C8
330
1A
100
AcDbEntity
  8
SEIHIN
  6
CONTINUOUS
 62
     3
 48
16.0
100
AcDbLine
 10
567.2976721703921
 20
155.9540870493185
 30
0.0
 11
567.2976721703921
 21
168.9542870493184
 31
0.0
  0
LINE
  5
3C9
330
1A
100
AcDbEntity
  8
SEIHIN
  6
CONTINUOUS
 62
     3
 48
16.0
100
AcDbLine
 10
557.497572170392
 20
171.9542870493183
 30
0.0
 11
563.0975721703921
 21
168.9542870493184
 31
0.0
  0
LINE
  5
3CA
330
1A
100
AcDbEntity
  8
SEIHIN
  6
CONTINUOUS
 62
     3
 48
16.0
100
AcDbLine
 10
557.6995721703921
 20
197.4674870493184
 30
0.0
 11
557.7476721703923
 21
196.9541870493185
 31
0.0
  0
LINE
  5
3CB
330
1A
100
AcDbEntity
  8
SEIHIN
  6
CONTINUOUS
 62
     3
 48
16.0
100
AcDbLine
 10
649.4976721703923
 20
196.9540870493185
 30
0.0
 11
649.4976721703923
 21
171.9539870493184
 31
0.0
  0
LINE
  5
3CC
330
1A
100
AcDbEntity
  8
SEIHIN
  6
CONTINUOUS
 62
     3
 48
16.0
100
AcDbLine
 10
639.6977721703921
 20
155.9540870493185
 30
0.0
 11
639.6977721703921
 21
168.9542870493184
 31
0.0
  0
LINE
  5
3CD
330
1A
100
AcDbEntity
  8
SEIHIN
  6
CONTINUOUS
 62
     3
 48
16.0
100
AcDbLine
 10
649.4976721703923
 20
171.9539870493184
 30
0.0
 11
643.8976721703921
 21
168.9540870493185
 31
0.0
  0
DIMENSION
  5
3CE
330
1A
100
AcDbEntity
  8
SUNPOU
  6
CONTINUOUS
100
AcDbDimension
  2
*D11
 10
603.4976721703923
 20
246.5469381964926
 30
0.0
 11
621.4976721703923
 21
251.5469381964927
 31
0.0
 12
7.963561829988066
 22
-26.14432740367897
 32
0.0
 70
    32
  3
STANDARD
100
AcDbAlignedDimension
 13
599.4976721703923
 23
262.8429870493184
 33
0.0
 14
603.4976721703923
 24
232.2438870493185
 34
0.0
100
AcDbRotatedDimension
1001
ACAD
1000
DSTYLE
1002
{
1070
   140
1040
6.0
1070
    74
1070
     0
1070
   172
1070
     1
1070
    73
1070
     0
1070
   272
1070
     2
1070
    77
1070
     3
1070
   173
1070
     1
1070
   147
1040
2.0
1070
    42
1040
6.0
1070
    44
1040
3.0
1070
    43
1040
14.0
1070
   271
1070
     0
1070
   178
1070
     4
1070
   177
1070
     4
1070
   176
1070
     4
1070
   141
1040
150.0
1070
     7
1000
_OPEN
1070
     6
1000
_OPEN
1070
    41
1040
7.0
1002
}
  0
LINE
  5
3CF
330
1A
100
AcDbEntity
  8
SEIHIN
  6
CONTINUOUS
 62
     3
 48
16.0
100
AcDbLine
 10
556.9976721703922
 20
204.9541870493185
 30
0.0
 11
649.9976721703923
 21
204.9541870493185
 31
0.0
  0
ARC
  5
3D0
330
1A
100
AcDbEntity
  8
SEIHIN
  6
CONTINUOUS
 62
     3
 48
16.0
100
AcDbCircle
 10
603.4977496180657
 20
404.9542873331002
 30
0.0
 40
190.0000164142768
100
AcDbArc
 50
253.6375620038175
 51
284.9205923610364
  0
ARC
  5
3D1
330
1A
100
AcDbEntity
  8
SEIHIN
  6
CONTINUOUS
 62
     3
 48
16.0
100
AcDbCircle
 10
648.5572340937072
 20
235.8547401372752
 30
0.0
 40
14.99998277002765
100
AcDbArc
 50
284.9203593958966
 51
356.9502182946283
  0
LINE
  5
3D2
330
1A
100
AcDbEntity
  8
SEIHIN
  6
CONTINUOUS
 62
     3
 48
16.0
100
AcDbLine
 10
656.9760721703922
 20
210.3221870493185
 30
0.0
 11
653.4503721703921
 21
207.6100870493184
 31
0.0
  0
ARC
  5
3D3
330
1A
100
AcDbEntity
  8
SEIHIN
  6
CONTINUOUS
 62
     3
 48
16.0
100
AcDbCircle
 10
659.5474581621212
 20
199.6837616670853
 30
0.0
 40
10.0000545826297
100
AcDbArc
 50
127.5681952069249
 51
174.6435235251238
  0
ARC
  5
3D4
330
1A
100
AcDbEntity
  8
SEIHIN
  6
CONTINUOUS
 62
     3
 48
16.0
100
AcDbCircle
 10
647.8302675682988
 20
222.2114782987184
 30
0.0
 40
15.00005123158123
100
AcDbArc
 50
307.5686496306462
 51
356.9500862550329
  0
DIMENSION
  5
3D5
330
1A
100
AcDbEntity
  8
SUNPOU
  6
CONTINUOUS
100
AcDbDimension
  2
*D12
 10
669.4980721703923
 20
467.7801628192326
 30
0.0
 11
559.2479721703923
 21
472.7801628192326
 31
0.0
 12
7.963561829988066
 22
-26.14432740367897
 32
0.0
 70
    32
  3
STANDARD
100
AcDbAlignedDimension
 13
448.9978721703923
 23
414.9541870493183
 33
0.0
 14
669.4980721703923
 24
346.9539870493184
 34
0.0
100
AcDbRotatedDimension
1001
ACAD
1000
DSTYLE
1002
{
1070
   140
1040
6.0
1070
    74
1070
     0
1070
   172
1070
     1
1070
    73
1070
     0
1070
   272
1070
     2
1070
    77
1070
     3
1070
   173
1070
     1
1070
   147
1040
2.0
1070
    42
1040
6.0
1070
    44
1040
3.0
1070
    43
1040
14.0
1070
   271
1070
     0
1070
   178
1070
     4
1070
   177
1070
     4
1070
   176
1070
     4
1070
   141
1040
150.0
1070
     7
1000
_OPEN
1070
     6
1000
_OPEN
1070
    41
1040
7.0
1002
}
  0
ARC
  5
3D6
330
1A
100
AcDbEntity
  8
NOKITOI
  6
CONTINUOUS
 62
     8
 48
5.0
100
AcDbCircle
 10
539.947607284929
 20
329.9542976949236
 30
0.0
 40
2.700000000000017
100
AcDbArc
 50
0.0
 51
180.0
  0
ARC
  5
3D7
330
1A
100
AcDbEntity
  8
NOKITOI
  6
CONTINUOUS
 62
     8
 48
5.0
100
AcDbCircle
 10
539.9476029847395
 20
329.9542835439484
 30
0.0
 40
4.000015298737716
100
AcDbArc
 50
8.764757762685649
 51
317.4297341186961
  0
ARC
  5
3D8
330
1A
100
AcDbEntity
  8
NOKITOI
  6
CONTINUOUS
 62
     8
 48
5.0
100
AcDbCircle
 10
539.947607284929
 20
329.9542976949236
 30
0.0
 40
2.700000000000017
100
AcDbArc
 50
180.0
 51
0.0
  0
LINE
  5
3D9
330
1A
100
AcDbEntity
  8
SEIHIN
  6
CONTINUOUS
 62
     3
 48
16.0
100
AcDbLine
 10
538.9976721703923
 20
334.9539870493184
 30
0.0
 11
542.4977721703921
 21
334.9539870493184
 31
0.0
  0
LINE
  5
3DA
330
1A
100
AcDbEntity
  8
SEIHIN
  6
CONTINUOUS
 62
     3
 48
16.0
100
AcDbLine
 10
541.7309721703922
 20
323.9541870493183
 30
0.0
 11
538.9976721703923
 21
323.9539870493184
 31
0.0
  0
LINE
  5
3DB
330
1A
100
AcDbEntity
  8
SEIHIN
  6
CONTINUOUS
 62
     3
 48
16.0
100
AcDbLine
 10
490.6156721703921
 20
394.9541870493185
 30
0.0
 11
541.9369721703922
 21
394.9541870493185
 31
0.0
  0
LINE
  5
3DC
330
1A
100
AcDbEntity
  8
SEIHIN
  6
CONTINUOUS
 62
     3
 48
16.0
100
AcDbLine
 10
491.4939721703922
 20
390.9486870493184
 30
0.0
 11
546.0821721703921
 21
390.9502870493183
 31
0.0
  0
LINE
  5
3DD
330
1A
100
AcDbEntity
  8
SEIHIN
  6
CONTINUOUS
 62
     3
 48
16.0
100
AcDbLine
 10
491.4939721703922
 20
384.9486870493183
 30
0.0
 11
547.7071721703922
 21
384.9502870493182
 31
0.0
  0
LINE
  5
3DE
330
1A
100
AcDbEntity
  8
SEIHIN
  6
CONTINUOUS
 62
     3
 48
16.0
100
AcDbLine
 10
471.091072170392
 20
362.9541870493183
 30
0.0
 11
553.6643721703923
 21
362.9540870493185
 31
0.0
  0
LINE
  5
3DF
330
1A
100
AcDbEntity
  8
SEIHIN
  6
CONTINUOUS
 62
     3
 48
16.0
100
AcDbLine
 10
484.825672170392
 20
346.9541870493183
 30
0.0
 11
557.9977721703922
 21
346.9540870493184
 31
0.0
  0
LINE
  5
3E0
330
1A
100
AcDbEntity
  8
SEIHIN
  6
CONTINUOUS
 62
     3
 48
16.0
100
AcDbLine
 10
552.2340721703923
 20
336.9540870493185
 30
0.0
 11
494.3722721703923
 21
336.9541870493184
 31
0.0
  0
LINE
  5
3E1
330
1A
100
AcDbEntity
  8
SEIHIN
  6
CONTINUOUS
 62
     3
 48
16.0
100
AcDbLine
 10
493.9978721703921
 20
334.9541870493184
 30
0.0
 11
549.4717721703921
 21
334.9540870493185
 31
0.0
  0
LINE
  5
3E2
330
1A
100
AcDbEntity
  8
SEIHIN
  6
CONTINUOUS
 62
     3
 48
16.0
100
AcDbLine
 10
492.1703721703923
 20
390.9541870493185
 30
0.0
 11
492.9885721703922
 21
384.9541870493185
 31
0.0
  0
ARC
  5
3E3
330
1A
100
AcDbEntity
  8
SEIHIN
  6
CONTINUOUS
 62
     3
 48
16.0
100
AcDbCircle
 10
422.1894922967865
 20
394.2151677840618
 30
0.0
 40
34.47604931059664
100
AcDbArc
 50
337.4313255140067
 51
354.5724592997478
  0
ARC
  5
3E4
330
1A
100
AcDbEntity
  8
SEIHIN
  6
CONTINUOUS
 62
     3
 48
16.0
100
AcDbCircle
 10
423.6894922967864
 20
394.2151677840612
 30
0.0
 40
34.4760493105965
100
AcDbArc
 50
337.4313255140076
 51
354.5724592997487
  0
LINE
  5
3E5
330
1A
100
AcDbEntity
  8
SEIHIN
  6
CONTINUOUS
 62
     3
 48
16.0
100
AcDbLine
 10
449.9953721703922
 20
410.5360870493185
 30
0.0
 11
454.0292721703922
 21
380.9541870493184
 31
0.0
  0
ARC
  5
3E6
330
1A
100
AcDbEntity
  8
SEIHIN
  6
CONTINUOUS
 62
     3
 48
16.0
100
AcDbCircle
 10
491.4939055141537
 20
416.9487247857323
 30
0.0
 40
32.00003773643127
100
AcDbArc
 50
210.968881060552
 51
269.9999402982949
  0
LINE
  5
3E7
330
1A
100
AcDbEntity
  8
SEIHIN
  6
CONTINUOUS
 62
     3
 48
16.0
100
AcDbLine
 10
473.9978721703923
 20
362.9541870493183
 30
0.0
 11
474.9028721703922
 21
355.7138870493184
 31
0.0
  0
ARC
  5
3E8
330
1A
100
AcDbEntity
  8
SEIHIN
  6
CONTINUOUS
 62
     3
 48
16.0
100
AcDbCircle
 10
484.8256635632792
 20
356.9541946475625
 30
0.0
 40
10.00000759824784
100
AcDbArc
 50
187.124781397748
 51
270.0000493150863
  0
ARC
  5
3E9
330
1A
100
AcDbEntity
  8
SEIHIN
  6
CONTINUOUS
 62
     3
 48
16.0
100
AcDbCircle
 10
471.0911018295652
 20
377.954161160107
 30
0.0
 40
14.99997411081793
100
AcDbArc
 50
187.7650871349475
 51
269.9998867101083
  0
LINE
  5
3EA
330
1A
100
AcDbEntity
  8
SEIHIN
  6
CONTINUOUS
 62
     3
 48
16.0
100
AcDbLine
 10
454.0292721703922
 20
380.9541870493184
 30
0.0
 11
455.5431721703922
 21
380.9541870493184
 31
0.0
  0
LINE
  5
3EB
330
1A
100
AcDbEntity
  8
SEIHIN
  6
CONTINUOUS
 62
     3
 48
16.0
100
AcDbLine
 10
455.5431721703922
 20
380.9541870493184
 30
0.0
 11
456.228672170392
 21
375.9273870493184
 31
0.0
  0
ARC
  5
3EC
330
1A
100
AcDbEntity
  8
SEIHIN
  6
CONTINUOUS
 62
     3
 48
16.0
100
AcDbCircle
 10
521.6649862516594
 20
342.9541749226272
 30
0.0
 40
5.999987873325256
100
AcDbArc
 50
188.5302533960897
 51
269.9998655335302
  0
ARC
  5
3ED
330
1A
100
AcDbEntity
  8
SEIHIN
  6
CONTINUOUS
 62
     3
 48
16.0
100
AcDbCircle
 10
492.6649862516594
 20
342.9541749226272
 30
0.0
 40
5.999987873325256
100
AcDbArc
 50
188.5302533960897
 51
269.9998655335302
  0
ARC
  5
3EE
330
1A
100
AcDbEntity
  8
SEIHIN
  6
CONTINUOUS
 62
     3
 48
16.0
100
AcDbCircle
 10
496.6891001126741
 20
304.4945359162785
 30
0.0
 40
15.02870911877981
100
AcDbArc
 50
0.6731028856500466
 51
56.6371772912085
  0
ARC
  5
3EF
330
1A
100
AcDbEntity
  8
SEIHIN
  6
CONTINUOUS
 62
     3
 48
16.0
100
AcDbCircle
 10
527.827433053515
 20
340.6471948475548
 30
0.0
 40
32.86617429335244
100
AcDbArc
 50
200.7093965786785
 51
226.1657822986851
  0
LINE
  5
3F0
330
1A
100
AcDbEntity
  8
SEIHIN
  6
CONTINUOUS
 62
     3
 48
16.0
100
AcDbLine
 10
492.664972170392
 20
336.9541870493184
 30
0.0
 11
492.9978721703921
 21
336.9541870493184
 31
0.0
  0
LINE
  5
3F1
330
1A
100
AcDbEntity
  8
SEIHIN
  6
CONTINUOUS
 62
     3
 48
16.0
100
AcDbLine
 10
493.9978721703921
 20
334.9541870493184
 30
0.0
 11
493.9978721703921
 21
335.9541870493183
 31
0.0
  0
ARC
  5
3F2
330
1A
100
AcDbEntity
  8
SEIHIN
  6
CONTINUOUS
 62
     3
 48
16.0
100
AcDbCircle
 10
492.997872170392
 20
335.9541870493184
 30
0.0
 40
1.000000000000056
100
AcDbArc
 50
359.9999999999967
 51
89.99999999999674
  0
LINE
  5
3F3
330
1A
100
AcDbEntity
  8
SEIHIN
  6
CONTINUOUS
 62
     3
 48
16.0
100
AcDbLine
 10
495.9978721703922
 20
334.9541870493184
 30
0.0
 11
497.0848721703921
 21
329.0246870493185
 31
0.0
  0
LINE
  5
3F4
330
1A
100
AcDbEntity
  8
SEIHIN
  6
CONTINUOUS
 62
     3
 48
16.0
100
AcDbLine
 10
520.9687721703923
 20
334.9454870493185
 30
0.0
 11
520.9687721703923
 21
335.9454870493185
 31
0.0
  0
LINE
  5
3F5
330
1A
100
AcDbEntity
  8
SEIHIN
  6
CONTINUOUS
 62
     3
 48
16.0
100
AcDbLine
 10
519.6358721703923
 20
336.9454870493185
 30
0.0
 11
519.9687721703923
 21
336.9454870493185
 31
0.0
  0
ARC
  5
3F6
330
1A
100
AcDbEntity
  8
SEIHIN
  6
CONTINUOUS
 62
     3
 48
16.0
100
AcDbCircle
 10
519.9687721703923
 20
335.9454870493185
 30
0.0
 40
1.0
100
AcDbArc
 50
0.0
 51
90.0
  0
ARC
  5
3F7
330
1A
100
AcDbEntity
  8
SEIHIN
  6
CONTINUOUS
 62
     3
 48
16.0
100
AcDbCircle
 10
538.9976721703923
 20
327.4539870493184
 30
0.0
 40
3.500000000000056
100
AcDbArc
 50
179.999999999999
 51
269.999999999999
  0
LINE
  5
3F8
330
1A
100
AcDbEntity
  8
SEIHIN
  6
CONTINUOUS
 62
     3
 48
16.0
100
AcDbLine
 10
535.4976721703923
 20
327.4539870493185
 30
0.0
 11
535.4976721703923
 21
331.4539870493185
 31
0.0
  0
ARC
  5
3F9
330
1A
100
AcDbEntity
  8
SEIHIN
  6
CONTINUOUS
 62
     3
 48
16.0
100
AcDbCircle
 10
538.9976721703923
 20
331.4539870493184
 30
0.0
 40
3.499999999999943
100
AcDbArc
 50
89.99999999999907
 51
179.999999999999
  0
ARC
  5
3FA
330
1A
100
AcDbEntity
  8
SEIHIN
  6
CONTINUOUS
 62
     3
 48
16.0
100
AcDbCircle
 10
516.8256635632793
 20
356.9541946475627
 30
0.0
 40
10.00000759824803
100
AcDbArc
 50
187.1247813977489
 51
270.0000493150873
  0
ARC
  5
3FB
330
1A
100
AcDbEntity
  8
SEIHIN
  6
CONTINUOUS
 62
     3
 48
16.0
100
AcDbCircle
 10
510.0912450740627
 20
377.9542107016284
 30
0.0
 40
15.00002365248722
100
AcDbArc
 50
187.7652523161257
 51
269.99972152893
  0
LINE
  5
3FC
330
1A
100
AcDbEntity
  8
SEIHIN
  6
CONTINUOUS
 62
     3
 48
16.0
100
AcDbLine
 10
505.9978721703921
 20
362.9541870493183
 30
0.0
 11
506.9028721703921
 21
355.7138870493184
 31
0.0
  0
LINE
  5
3FD
330
1A
100
AcDbEntity
  8
SEIHIN
  6
CONTINUOUS
 62
     3
 48
16.0
100
AcDbLine
 10
485.9978721703921
 20
346.9541870493183
 30
0.0
 11
486.731372170392
 21
342.0641870493184
 31
0.0
  0
LINE
  5
3FE
330
1A
100
AcDbEntity
  8
SEIHIN
  6
CONTINUOUS
 62
     3
 48
16.0
100
AcDbLine
 10
493.9978721703921
 20
384.9541870493185
 30
0.0
 11
495.228772170392
 21
375.9273870493184
 31
0.0
  0
LINE
  5
3FF
330
1A
100
AcDbEntity
  8
SEIHIN
  6
CONTINUOUS
 62
     3
 48
16.0
100
AcDbLine
 10
514.9978721703921
 20
346.9541870493183
 30
0.0
 11
515.731372170392
 21
342.0641870493184
 31
0.0
  0
ARC
  5
400
330
1A
100
AcDbEntity
  8
SEIHIN
  6
CONTINUOUS
 62
     3
 48
16.0
100
AcDbCircle
 10
493.1115076203954
 20
414.8422578551406
 30
0.0
 40
19.99998150813721
100
AcDbArc
 50
197.1214910469014
 51
263.9332584754935
  0
ARC
  5
401
330
1A
100
AcDbEntity
  8
SEIHIN
  6
CONTINUOUS
 62
     3
 48
16.0
100
AcDbCircle
 10
491.4939604124906
 20
416.9486952799003
 30
0.0
 40
22.0000044587513
100
AcDbArc
 50
201.3080493896024
 51
268.7076410375738
  0
ARC
  5
402
330
1A
100
AcDbEntity
  8
SEIHIN
  6
CONTINUOUS
 62
     3
 48
16.0
100
AcDbCircle
 10
491.4938922847362
 20
416.9487370788536
 30
0.0
 40
26.00005002954309
100
AcDbArc
 50
205.8855025630164
 51
269.9999556744305
  0
LINE
  5
403
330
1A
100
AcDbEntity
  8
SEIHIN
  6
CONTINUOUS
 62
     3
 48
16.0
100
AcDbLine
 10
468.1025721703922
 20
405.5977870493183
 30
0.0
 11
449.7217721703921
 21
410.6106870493183
 31
0.0
  0
ARC
  5
404
330
1A
100
AcDbEntity
  8
SEIHIN
  6
CONTINUOUS
 62
     3
 48
16.0
100
AcDbCircle
 10
442.9810832462261
 20
398.2523197285341
 30
0.0
 40
16.62609898251658
100
AcDbArc
 50
333.9626852283919
 51
348.5913441185633
  0
ARC
  5
405
330
1A
100
AcDbEntity
  8
SEIHIN
  6
CONTINUOUS
 62
     3
 48
16.0
100
AcDbCircle
 10
467.2260793558471
 20
393.8071002005045
 30
0.0
 40
9.532487534225419
100
AcDbArc
 50
128.7245674510007
 51
173.9735849628315
  0
ARC
  5
406
330
1A
100
AcDbEntity
  8
SEIHIN
  6
CONTINUOUS
 62
     3
 48
16.0
100
AcDbCircle
 10
441.4810832462261
 20
398.252319728535
 30
0.0
 40
16.62609898251686
100
AcDbArc
 50
333.9626852283891
 51
348.5913441185604
  0
ARC
  5
407
330
1A
100
AcDbEntity
  8
SEIHIN
  6
CONTINUOUS
 62
     3
 48
16.0
100
AcDbCircle
 10
466.0378696930072
 20
395.127382558812
 30
0.0
 40
6.766708594657682
100
AcDbArc
 50
121.3987815122499
 51
180.8306336065801
  0
LINE
  5
408
330
1A
100
AcDbEntity
  8
SEIHIN
  6
CONTINUOUS
 62
     3
 48
16.0
100
AcDbLine
 10
464.055672170392
 20
400.4822870493184
 30
0.0
 11
461.2627721703923
 21
401.2439870493186
 31
0.0
  0
LINE
  5
409
330
1A
100
AcDbEntity
  8
SEIHIN
  6
CONTINUOUS
 62
     3
 48
16.0
100
AcDbLine
 10
451.9978721703921
 20
414.9541870493183
 30
0.0
 11
473.9978721703923
 21
408.9541870493183
 31
0.0
  0
LINE
  5
40A
330
1A
100
AcDbEntity
  8
SEIHIN
  6
CONTINUOUS
 62
     3
 48
16.0
100
AcDbLine
 10
470.9978721703922
 20
408.9541870493183
 30
0.0
 11
448.9978721703923
 21
414.9541870493183
 31
0.0
  0
LINE
  5
40B
330
1A
100
AcDbEntity
  8
SEIHIN
  6
CONTINUOUS
 62
     3
 48
16.0
100
AcDbLine
 10
448.9978721703923
 20
414.9541870493183
 30
0.0
 11
451.9978721703921
 21
414.9541870493183
 31
0.0
  0
LINE
  5
40C
330
1A
100
AcDbEntity
  8
SEIHIN
  6
CONTINUOUS
 62
     3
 48
16.0
100
AcDbLine
 10
448.9978721703923
 20
414.9541870493183
 30
0.0
 11
449.7217721703921
 21
410.6106870493183
 31
0.0
  0
LINE
  5
40D
330
1A
100
AcDbEntity
  8
SEIHIN
  6
CONTINUOUS
 62
     3
 48
16.0
100
AcDbLine
 10
470.9978721703922
 20
408.9541870493183
 30
0.0
 11
473.9978721703923
 21
408.9541870493183
 31
0.0
  0
LINE
  5
40E
330
1A
100
AcDbEntity
  8
SEIHIN
  6
CONTINUOUS
 62
     3
 48
16.0
100
AcDbLine
 10
490.6156721703921
 20
394.9541870493185
 30
0.0
 11
491.1610721703921
 21
390.9541870493185
 31
0.0
  0
DIMENSION
  5
40F
330
1A
100
AcDbEntity
  8
SUNPOU
  6
CONTINUOUS
100
AcDbDimension
  2
*D13
 10
599.4976721703923
 20
445.074514661239
 30
0.0
 11
634.4978721703924
 21
450.074514661239
 31
0.0
 12
7.963561829988066
 22
-26.14432740367897
 32
0.0
 70
    32
  3
STANDARD
100
AcDbAlignedDimension
 13
669.4980721703923
 23
346.9539870493184
 33
0.0
 14
599.4976721703923
 24
331.4539870493185
 34
0.0
100
AcDbRotatedDimension
1001
ACAD
1000
DSTYLE
1002
{
1070
   140
1040
6.0
1070
    74
1070
     0
1070
   172
1070
     1
1070
    73
1070
     0
1070
   272
1070
     2
1070
    77
1070
     3
1070
   173
1070
     1
1070
   147
1040
2.0
1070
    42
1040
6.0
1070
    44
1040
3.0
1070
    43
1040
14.0
1070
   271
1070
     0
1070
   178
1070
     4
1070
   177
1070
     4
1070
   176
1070
     4
1070
   141
1040
150.0
1070
     7
1000
_OPEN
1070
     6
1000
_OPEN
1070
    41
1040
7.0
1002
}
  0
LINE
  5
410
330
1A
100
AcDbEntity
  8
SEIHIN
  6
CONTINUOUS
 62
     3
 48
16.0
100
AcDbLine
 10
545.7978721703923
 20
391.9998870493183
 30
0.0
 11
557.9976721703923
 21
346.9541870493183
 31
0.0
  0
ARC
  5
411
330
1A
100
AcDbEntity
  8
SEIHIN
  6
CONTINUOUS
 62
     3
 48
16.0
100
AcDbCircle
 10
540.3440881302969
 20
350.4682036006025
 30
0.0
 40
18.00002423637866
100
AcDbArc
 50
283.3418151627548
 51
348.7422561533604
  0
ARC
  5
412
330
1A
100
AcDbEntity
  8
SEIHIN
  6
CONTINUOUS
 62
     3
 48
16.0
100
AcDbCircle
 10
541.7309046479589
 20
321.9542419883276
 30
0.0
 40
1.999945062130601
100
AcDbArc
 50
11.73164601229823
 51
89.99806557163406
  0
ARC
  5
413
330
1A
100
AcDbEntity
  8
SEIHIN
  6
CONTINUOUS
 62
     3
 48
16.0
100
AcDbCircle
 10
542.4977721703923
 20
332.9539870493182
 30
0.0
 40
2.000000000000056
100
AcDbArc
 50
0.0000000000016284
 51
90.00000000000161
  0
ARC
  5
414
330
1A
100
AcDbEntity
  8
SEIHIN
  6
CONTINUOUS
 62
     3
 48
16.0
100
AcDbCircle
 10
658.2763857987067
 20
349.5286469889669
 30
0.0
 40
17.00000870935007
100
AcDbArc
 50
213.3252759449768
 51
257.1561461946318
  0
ARC
  5
415
330
1A
100
AcDbEntity
  8
NOKITOI
  6
CONTINUOUS
 62
     8
 48
5.0
100
AcDbCircle
 10
659.0475888805867
 20
329.9541582615597
 30
0.0
 40
3.999981474645155
100
AcDbArc
 50
222.570219189405
 51
171.2362504387284
  0
ARC
  5
416
330
1A
100
AcDbEntity
  8
SEIHIN
  6
CONTINUOUS
 62
     3
 48
16.0
100
AcDbCircle
 10
657.2644670266521
 20
321.9539828643271
 30
0.0
 40
2.000004184997826
100
AcDbArc
 50
89.99985264300546
 51
168.2640498727386
  0
ARC
  5
417
330
1A
100
AcDbEntity
  8
SEIHIN
  6
CONTINUOUS
 62
     3
 48
16.0
100
AcDbCircle
 10
656.4976721703922
 20
332.9539870493184
 30
0.0
 40
2.0
100
AcDbArc
 50
90.0
 51
180.0
  0
ARC
  5
418
330
1A
100
AcDbEntity
  8
NOKITOI
  6
CONTINUOUS
 62
     8
 48
5.0
100
AcDbCircle
 10
659.047607284929
 20
329.9540976949238
 30
0.0
 40
2.699999999999903
100
AcDbArc
 50
180.0
 51
0.0
  0
ARC
  5
419
330
1A
100
AcDbEntity
  8
SEIHIN
  6
CONTINUOUS
 62
     3
 48
16.0
100
AcDbCircle
 10
659.9976721703923
 20
327.4539870493184
 30
0.0
 40
3.500000000000056
100
AcDbArc
 50
270.0000000000009
 51
0.0000000000009305
  0
LINE
  5
41A
330
1A
100
AcDbEntity
  8
SEIHIN
  6
CONTINUOUS
 62
     3
 48
16.0
100
AcDbLine
 10
659.9976721703923
 20
323.9539870493184
 30
0.0
 11
657.2644721703923
 21
323.9539870493184
 31
0.0
  0
ARC
  5
41B
330
1A
100
AcDbEntity
  8
SEIHIN
  6
CONTINUOUS
 62
     3
 48
16.0
100
AcDbCircle
 10
659.9976721703923
 20
331.4539870493184
 30
0.0
 40
3.499999999999943
100
AcDbArc
 50
0.0000000000009305
 51
90.0000000000009
  0
ARC
  5
41C
330
1A
100
AcDbEntity
  8
NOKITOI
  6
CONTINUOUS
 62
     8
 48
5.0
100
AcDbCircle
 10
659.047607284929
 20
329.9540976949238
 30
0.0
 40
2.699999999999903
100
AcDbArc
 50
0.0
 51
180.0
  0
LINE
  5
41D
330
1A
100
AcDbEntity
  8
SEIHIN
  6
CONTINUOUS
 62
     3
 48
16.0
100
AcDbLine
 10
659.9976721703923
 20
334.9539870493184
 30
0.0
 11
656.4976721703922
 21
334.9539870493184
 31
0.0
  0
LINE
  5
41E
330
1A
100
AcDbEntity
  8
SEIHIN
  6
CONTINUOUS
 62
     3
 48
16.0
100
AcDbLine
 10
663.4976721703923
 20
327.4539870493185
 30
0.0
 11
663.4976721703923
 21
331.4539870493185
 31
0.0
  0
LINE
  5
41F
330
1A
100
AcDbEntity
  8
SEIHIN
  6
CONTINUOUS
 62
     3
 48
16.0
100
AcDbLine
 10
647.9782721703923
 20
346.9539870493184
 30
0.0
 11
669.4980721703923
 21
346.9539870493184
 31
0.0
  0
LINE
  5
420
330
1A
100
AcDbEntity
  8
SEIHIN
  6
CONTINUOUS
 62
     3
 48
16.0
100
AcDbLine
 10
644.5009721703923
 20
344.1929870493185
 30
0.0
 11
647.3126721703923
 21
346.7002870493185
 31
0.0
  0
ARC
  5
421
330
1A
100
AcDbEntity
  8
SEIHIN
  6
CONTINUOUS
 62
     3
 48
16.0
100
AcDbCircle
 10
646.4976701509672
 20
341.9539664778624
 30
0.0
 40
3.000002657504725
100
AcDbArc
 50
131.7257162712452
 51
217.0605925929067
  0
ARC
  5
422
330
1A
100
AcDbEntity
  8
SEIHIN
  6
CONTINUOUS
 62
     3
 48
16.0
100
AcDbCircle
 10
647.9782436147792
 20
345.9539733245068
 30
0.0
 40
1.000013725219272
100
AcDbArc
 50
89.99836390634435
 51
141.3394504374331
  0
ARC
  5
423
330
1A
100
AcDbEntity
  8
SEIHIN
  6
CONTINUOUS
 62
     3
 48
16.0
100
AcDbCircle
 10
541.9369752170373
 20
390.9541847180697
 30
0.0
 40
4.000002331249902
100
AcDbArc
 50
15.15465896282838
 51
90.00004363994989
  0
LINE
  5
424
330
1A
100
AcDbEntity
  8
ZUWAKU
100
AcDbLine
 10
346.6136406063167
 20
23.16453594700355
 30
0.0
 11
344.6136406063168
 21
15.36263001482306
 31
0.0
  0
LINE
  5
425
330
1A
100
AcDbEntity
  8
ZUWAKU
100
AcDbLine
 10
342.6136406063168
 20
23.16453594700355
 30
0.0
 11
344.6136406063168
 21
15.36263001482306
 31
0.0
  0
LINE
  5
426
330
1A
100
AcDbEntity
  8
ZUWAKU
100
AcDbLine
 10
340.6136406063168
 20
23.16453594700355
 30
0.0
 11
340.6136406063167
 21
15.36263001482306
 31
0.0
  0
LINE
  5
427
330
1A
100
AcDbEntity
  8
ZUWAKU
100
AcDbLine
 10
339.1136406063167
 20
15.36263001482306
 30
0.0
 11
342.1136406063167
 21
15.36263001482306
 31
0.0
  0
LINE
  5
428
330
1A
100
AcDbEntity
  8
ZUWAKU
100
AcDbLine
 10
339.1136406063167
 20
23.16453594700355
 30
0.0
 11
348.1136406063167
 21
23.16453594700355
 31
0.0
  0
VIEWPORT
  5
22
330
17
100
AcDbEntity
 67
     1
  8
0
100
AcDbViewport
 10
313.6808219178082
 20
148.5
 30
0.0
 40
627.3616438356165
 41
297.0
 68
     2
 69
     1
1001
ACAD
1000
MVIEW
1002
{
1070
    16
1010
0.0
1020
0.0
1030
0.0
1010
0.0
1020
0.0
1030
1.0
1040
0.0
1040
297.0
1040
313.6808219178082
1040
148.5
1040
50.0
1040
0.0
1040
0.0
1070
     0
1070
   100
1070
     1
1070
     0
1070
     0
1070
     0
1070
     0
1070
     0
1040
0.0
1040
0.0
1040
0.0
1040
1.0
1040
1.0
1040
10.0
1040
10.0
1070
     0
1002
{
1002
}
1002
}
  0
VIEWPORT
  5
64
330
17
100
AcDbEntity
 67
     1
  8
VIEWPORT
100
AcDbViewport
 10
210.0
 20
148.5
 30
0.0
 40
420.0
 41
297.0
 68
     1
 69
     2
1001
ACAD
1000
MVIEW
1002
{
1070
    16
1010
0.0
1020
0.0
1030
0.0
1010
0.0
1020
0.0
1030
1.0
1040
0.0
1040
605.8799999999998
1040
420.0
1040
297.0
1040
50.0
1040
0.0
1040
0.0
1070
     0
1070
   100
1070
     1
1070
     0
1070
     0
1070
     0
1070
     0
1070
     0
1040
0.0
1040
0.0
1040
0.0
1040
10.0
1040
10.0
1040
0.0
1040
0.0
1070
     0
1002
{
1002
}
1002
}
  0
ENDSEC
  0
SECTION
  2
OBJECTS
  0
DICTIONARY
  5
C
330
0
100
AcDbDictionary
  3
ACAD_GROUP
350
D
  3
ACAD_LAYOUT
350
560
  3
ACAD_MLINESTYLE
350
E
  3
ACAD_PLOTSETTINGS
350
561
1001
ACAD
1000
TREAT_AS_HARD
1070
     0
  0
DICTIONARY
  5
58F
330
1A
100
AcDbDictionary
  3
ACAD_LAYOUTSELFREF
350
5A7
1001
ACAD
1000
TREAT_AS_HARD
1070
     1
  0
DICTIONARY
  5
58D
330
17
100
AcDbDictionary
  3
ACAD_LAYOUTSELFREF
350
5A6
1001
ACAD
1000
TREAT_AS_HARD
1070
     1
  0
DICTIONARY
  5
D
102
{ACAD_REACTORS
330
C
102
}
330
C
100
AcDbDictionary
1001
ACAD
1000
TREAT_AS_HARD
1070
     0
  0
DICTIONARY
  5
560
102
{ACAD_REACTORS
330
C
102
}
330
C
100
AcDbDictionary
1001
ACAD
1000
TREAT_AS_HARD
1070
     0
  0
DICTIONARY
  5
E
102
{ACAD_REACTORS
330
C
102
}
330
C
100
AcDbDictionary
  3
STANDARD
350
13
1001
ACAD
1000
TREAT_AS_HARD
1070
     0
  0
DICTIONARY
  5
561
102
{ACAD_REACTORS
330
C
102
}
330
C
100
AcDbDictionary
1001
ACAD
1000
TREAT_AS_HARD
1070
     0
  0
XRECORD
  5
5A7
102
{ACAD_REACTORS
330
58F
102
}
330
58F
100
AcDbXrecord
340
1A
  0
XRECORD
  5
5A6
102
{ACAD_REACTORS
330
58D
102
}
330
58D
100
AcDbXrecord
340
17
  0
MLINESTYLE
  5
13
102
{ACAD_REACTORS
330
E
102
}
330
E
100
AcDbMlineStyle
  2
STANDARD
 70
     0
  3

 62
     0
 51
90.0
 52
90.0
 71
     2
 49
0.5
 62
   256
  6
BYLAYER
 49
-0.5
 62
   256
  6
BYLAYER
  0
ENDSEC
  0
EOF
