  0
SECTION
  2
HEADER
  9
$ACADVER
  1
AC1012
  9
$DWGCODEPAGE
  3
dos932
  9
$INSBASE
 10
0.0
 20
0.0
 30
0.0
  9
$EXTMIN
 10
10.05047808566086
 20
4.949376903717846
 30
0.0
  9
$EXTMAX
 10
806.2246110975902
 20
563.7825862828226
 30
0.0
  9
$LIMMIN
 10
0.0
 20
0.0
  9
$LIMMAX
 10
840.0
 20
594.0
  9
$ORTHOMODE
 70
     0
  9
$REGENMODE
 70
     1
  9
$FILLMODE
 70
     1
  9
$QTEXTMODE
 70
     0
  9
$MIRRTEXT
 70
     1
  9
$DRAGMODE
 70
     2
  9
$LTSCALE
 40
2.0
  9
$OSMODE
 70
   319
  9
$ATTMODE
 70
     1
  9
$TEXTSIZE
 40
5.0
  9
$TRACEWID
 40
1.0
  9
$TEXTSTYLE
  7
STANDARD
  9
$CLAYER
  8
CENTER_L
  9
$CELTYPE
  6
BYLAYER
  9
$CECOLOR
 62
   256
  9
$CELTSCALE
 40
1.0
  9
$DELOBJ
 70
     1
  9
$DISPSILH
 70
     0
  9
$DIMSCALE
 40
1.0
  9
$DIMASZ
 40
7.0
  9
$DIMEXO
 40
6.0
  9
$DIMDLI
 40
14.0
  9
$DIMRND
 40
0.0
  9
$DIMDLE
 40
0.0
  9
$DIMEXE
 40
3.0
  9
$DIMTP
 40
0.0
  9
$DIMTM
 40
0.0
  9
$DIMTXT
 40
6.0
  9
$DIMCEN
 40
150.0
  9
$DIMTSZ
 40
0.0
  9
$DIMTOL
 70
     0
  9
$DIMLIM
 70
     0
  9
$DIMTIH
 70
     0
  9
$DIMTOH
 70
     0
  9
$DIMSE1
 70
     0
  9
$DIMSE2
 70
     0
  9
$DIMTAD
 70
     3
  9
$DIMZIN
 70
     0
  9
$DIMBLK
  1

  9
$DIMASO
 70
     1
  9
$DIMSHO
 70
     1
  9
$DIMPOST
  1

  9
$DIMAPOST
  1

  9
$DIMALT
 70
     0
  9
$DIMALTD
 70
     2
  9
$DIMALTF
 40
25.4
  9
$DIMLFAC
 40
1.0
  9
$DIMTOFL
 70
     1
  9
$DIMTVP
 40
0.0
  9
$DIMTIX
 70
     0
  9
$DIMSOXD
 70
     0
  9
$DIMSAH
 70
     1
  9
$DIMBLK1
  1
OPEN
  9
$DIMBLK2
  1
OPEN
  9
$DIMSTYLE
  2
STANDARD
  9
$DIMCLRD
 70
   256
  9
$DIMCLRE
 70
   256
  9
$DIMCLRT
 70
   256
  9
$DIMTFAC
 40
1.0
  9
$DIMGAP
 40
2.0
  9
$DIMJUST
 70
     0
  9
$DIMSD1
 70
     0
  9
$DIMSD2
 70
     0
  9
$DIMTOLJ
 70
     1
  9
$DIMTZIN
 70
     0
  9
$DIMALTZ
 70
     0
  9
$DIMALTTZ
 70
     0
  9
$DIMFIT
 70
     3
  9
$DIMUPT
 70
     0
  9
$DIMUNIT
 70
     2
  9
$DIMDEC
 70
     0
  9
$DIMTDEC
 70
     0
  9
$DIMALTU
 70
     2
  9
$DIMALTTD
 70
     2
  9
$DIMTXSTY
  7
STANDARD
  9
$DIMAUNIT
 70
     0
  9
$LUNITS
 70
     2
  9
$LUPREC
 70
     4
  9
$SKETCHINC
 40
1.0
  9
$FILLETRAD
 40
20.0
  9
$AUNITS
 70
     0
  9
$AUPREC
 70
     0
  9
$MENU
  1
.
  9
$ELEVATION
 40
0.0
  9
$PELEVATION
 40
0.0
  9
$THICKNESS
 40
0.0
  9
$LIMCHECK
 70
     0
  9
$BLIPMODE
 70
     0
  9
$CHAMFERA
 40
20.0
  9
$CHAMFERB
 40
20.0
  9
$CHAMFERC
 40
40.0
  9
$CHAMFERD
 40
0.0
  9
$SKPOLY
 70
     0
  9
$TDCREATE
 40
2451186.655824653
  9
$TDUPDATE
 40
2452422.710206944
  9
$TDINDWG
 40
0.0099304398
  9
$TDUSRTIMER
 40
0.0099304398
  9
$USRTIMER
 70
     1
  9
$ANGBASE
 50
0.0
  9
$ANGDIR
 70
     0
  9
$PDMODE
 70
     0
  9
$PDSIZE
 40
0.0
  9
$PLINEWID
 40
0.0
  9
$COORDS
 70
     1
  9
$SPLFRAME
 70
     0
  9
$SPLINETYPE
 70
     6
  9
$SPLINESEGS
 70
     8
  9
$ATTDIA
 70
     0
  9
$ATTREQ
 70
     1
  9
$HANDLING
 70
 10241
  9
$HANDSEED
  5
3AA
  9
$SURFTAB1
 70
     6
  9
$SURFTAB2
 70
     6
  9
$SURFTYPE
 70
     6
  9
$SURFU
 70
     6
  9
$SURFV
 70
     6
  9
$UCSNAME
  2

  9
$UCSORG
 10
0.0
 20
0.0
 30
0.0
  9
$UCSXDIR
 10
1.0
 20
0.0
 30
0.0
  9
$UCSYDIR
 10
0.0
 20
1.0
 30
0.0
  9
$PUCSNAME
  2

  9
$PUCSORG
 10
0.0
 20
0.0
 30
0.0
  9
$PUCSXDIR
 10
1.0
 20
0.0
 30
0.0
  9
$PUCSYDIR
 10
0.0
 20
1.0
 30
0.0
  9
$USERI1
 70
     0
  9
$USERI2
 70
     0
  9
$USERI3
 70
     0
  9
$USERI4
 70
     0
  9
$USERI5
 70
     0
  9
$USERR1
 40
0.0
  9
$USERR2
 40
0.0
  9
$USERR3
 40
0.0
  9
$USERR4
 40
0.0
  9
$USERR5
 40
0.0
  9
$WORLDVIEW
 70
     1
  9
$SHADEDGE
 70
     3
  9
$SHADEDIF
 70
    70
  9
$TILEMODE
 70
     1
  9
$MAXACTVP
 70
    16
  9
$PINSBASE
 10
0.0
 20
0.0
 30
0.0
  9
$PLIMCHECK
 70
     0
  9
$PEXTMIN
 10
0.0
 20
0.0
 30
0.0
  9
$PEXTMAX
 10
420.0
 20
297.0
 30
0.0
  9
$PLIMMIN
 10
0.0
 20
0.0
  9
$PLIMMAX
 10
420.0
 20
297.0
  9
$UNITMODE
 70
     0
  9
$VISRETAIN
 70
     0
  9
$PLINEGEN
 70
     0
  9
$PSLTSCALE
 70
     1
  9
$TREEDEPTH
 70
  3020
  9
$PICKSTYLE
 70
     1
  9
$CMLSTYLE
  2
STANDARD
  9
$CMLJUST
 70
     0
  9
$CMLSCALE
 40
1.0
  9
$SAVEIMAGES
 70
     1
  0
ENDSEC
  0
SECTION
  2
CLASSES
  0
CLASS
  1
ACDBDICTIONARYWDFLT
  2
AcDbDictionaryWithDefault
  3
AutoCAD 2000
 90
    32768
280
     0
281
     0
  0
CLASS
  1
ACDBPLACEHOLDER
  2
AcDbPlaceHolder
  3
AutoCAD 2000
 90
    32768
280
     0
281
     0
  0
CLASS
  1
LAYOUT
  2
AcDbLayout
  3
AutoCAD 2000
 90
    32768
280
     0
281
     0
  0
CLASS
  1
LONG_TRANSACTION
  2
AcDbLongTransaction
  3
AutoCAD 2000
 90
    32768
280
     0
281
     0
  0
CLASS
  1
LWPOLYLINE
  2
AcDbPolyline
  3
AutoCAD 2000
 90
    32768
280
     0
281
     1
  0
CLASS
  1
HATCH
  2
AcDbHatch
  3
AutoCAD 2000
 90
    32768
280
     0
281
     1
  0
CLASS
  1
XRECORD
  2
AcDbXrecord
  3
AutoCAD 2000
 90
    32768
280
     0
281
     0
  0
CLASS
  1
LONG_TRANSACTION
  2
AcDbLongTransaction
  3
AutoCAD 2000
 90
    32768
280
     0
281
     0
  0
CLASS
  1
LWPOLYLINE
  2
AcDbPolyline
  3
AutoCAD 2000
 90
    32768
280
     0
281
     1
  0
CLASS
  1
HATCH
  2
AcDbHatch
  3
AutoCAD 2000
 90
    32768
280
     0
281
     1
  0
CLASS
  1
XRECORD
  2
AcDbXrecord
  3
AutoCAD 2000
 90
    32768
280
     0
281
     0
  0
ENDSEC
  0
SECTION
  2
TABLES
  0
TABLE
  2
VPORT
  5
8
330
0
100
AcDbSymbolTable
 70
     2
  0
VPORT
  5
39D
330
8
100
AcDbSymbolTableRecord
100
AcDbViewportTableRecord
  2
*ACTIVE
 70
     0
 10
0.0
 20
0.0
 11
1.0
 21
1.0
 12
428.7746088963465
 22
301.4947405670675
 13
0.0
 23
0.0
 14
5.0
 24
5.0
 15
0.0
 25
0.0
 16
0.0
 26
0.0
 36
1.0
 17
0.0
 27
0.0
 37
0.0
 40
612.3834830465076
 41
1.709909909909909
 42
50.0
 43
0.0
 44
0.0
 50
0.0
 51
0.0
 71
     0
 72
   100
 73
     1
 74
     0
 75
     0
 76
     0
 77
     0
 78
     0
  0
ENDTAB
  0
TABLE
  2
LTYPE
  5
5
330
0
100
AcDbSymbolTable
 70
     3
  0
LTYPE
  5
14
330
5
100
AcDbSymbolTableRecord
100
AcDbLinetypeTableRecord
  2
BYBLOCK
 70
     0
  3

 72
    65
 73
     0
 40
0.0
  0
LTYPE
  5
15
330
5
100
AcDbSymbolTableRecord
100
AcDbLinetypeTableRecord
  2
BYLAYER
 70
     0
  3

 72
    65
 73
     0
 40
0.0
  0
LTYPE
  5
16
330
5
100
AcDbSymbolTableRecord
100
AcDbLinetypeTableRecord
  2
CONTINUOUS
 70
     0
  3
Solid line
 72
    65
 73
     0
 40
0.0
  0
LTYPE
  5
115
330
5
100
AcDbSymbolTableRecord
100
AcDbLinetypeTableRecord
  2
PHANTOM
 70
     0
  3
______  __  __  ______  __  __  ______  __  __ 
 72
    65
 73
     6
 40
2.5
 49
1.25
 74
     0
 49
-0.25
 74
     0
 49
0.25
 74
     0
 49
-0.25
 74
     0
 49
0.25
 74
     0
 49
-0.25
 74
     0
  0
LTYPE
  5
135
330
5
100
AcDbSymbolTableRecord
100
AcDbLinetypeTableRecord
  2
CENTER
 70
     0
  3
____ _ ____ _ ____ _ ____ _ ____ _ ____ _ ____ 
 72
    65
 73
     4
 40
2.0
 49
1.25
 74
     0
 49
-0.25
 74
     0
 49
0.25
 74
     0
 49
-0.25
 74
     0
  0
ENDTAB
  0
TABLE
  2
LAYER
  5
2
330
0
100
AcDbSymbolTable
 70
     8
  0
LAYER
  5
F
330
2
100
AcDbSymbolTableRecord
100
AcDbLayerTableRecord
  2
0
 70
     0
 62
     7
  6
CONTINUOUS
  0
LAYER
  5
62
330
2
100
AcDbSymbolTableRecord
100
AcDbLayerTableRecord
  2
VIEWPORT
 70
     0
 62
     7
  6
CONTINUOUS
  0
LAYER
  5
65
330
2
100
AcDbSymbolTableRecord
100
AcDbLayerTableRecord
  2
ZUWAKU
 70
     0
 62
     7
  6
CONTINUOUS
  0
LAYER
  5
181
330
2
100
AcDbSymbolTableRecord
100
AcDbLayerTableRecord
  2
SEIHIN
 70
     0
 62
     3
  6
CONTINUOUS
  0
LAYER
  5
182
330
2
100
AcDbSymbolTableRecord
100
AcDbLayerTableRecord
  2
SUNPOU
 70
     0
 62
     4
  6
CONTINUOUS
  0
LAYER
  5
183
330
2
100
AcDbSymbolTableRecord
100
AcDbLayerTableRecord
  2
CENTER_L
 70
     0
 62
     1
  6
CENTER
  0
LAYER
  5
184
330
2
100
AcDbSymbolTableRecord
100
AcDbLayerTableRecord
  2
NOKITOI
 70
     0
 62
     8
  6
PHANTOM
  0
LAYER
  5
185
330
2
100
AcDbSymbolTableRecord
100
AcDbLayerTableRecord
  2
DEFPOINTS
 70
     0
 62
     7
  6
CONTINUOUS
  0
ENDTAB
  0
TABLE
  2
STYLE
  5
3
330
0
100
AcDbSymbolTable
 70
     1
  0
STYLE
  5
10
330
3
100
AcDbSymbolTableRecord
100
AcDbTextStyleTableRecord
  2
STANDARD
 70
     0
 40
0.0
 41
1.0
 50
0.0
 71
     0
 42
5.0
  3
TXT
  4
bigfont.shx
  0
ENDTAB
  0
TABLE
  2
VIEW
  5
6
330
0
100
AcDbSymbolTable
 70
     0
  0
ENDTAB
  0
TABLE
  2
UCS
  5
7
330
0
100
AcDbSymbolTable
 70
     0
  0
ENDTAB
  0
TABLE
  2
APPID
  5
9
330
0
100
AcDbSymbolTable
 70
     1
  0
APPID
  5
11
330
9
100
AcDbSymbolTableRecord
100
AcDbRegAppTableRecord
  2
ACAD
 70
     0
  0
ENDTAB
  0
TABLE
  2
DIMSTYLE
  5
A
330
0
100
AcDbSymbolTable
 70
     1
  0
DIMSTYLE
105
1D
102
{ACAD_REACTORS
330
220
330
221
330
222
330
231
330
267
102
}
330
A
100
AcDbSymbolTableRecord
100
AcDbDimStyleTableRecord
  2
STANDARD
 70
     0
  3

  4

  5

  6

  7

 40
1.0
 41
0.18
 42
0.0625
 43
0.38
 44
0.18
 45
0.0
 46
0.0
 47
0.0
 48
0.0
140
0.18
141
0.09
142
0.0
143
25.4
144
1.0
145
0.0
146
1.0
147
0.09
 71
     0
 72
     0
 73
     1
 74
     1
 75
     0
 76
     0
 77
     0
 78
     0
170
     0
171
     2
172
     0
173
     0
174
     0
175
     0
176
     0
177
     0
178
     0
270
     2
271
     4
272
     4
273
     2
274
     2
340
10
275
     0
280
     0
281
     0
282
     0
283
     1
284
     0
285
     0
286
     0
287
     3
288
     0
  0
ENDTAB
  0
TABLE
  2
BLOCK_RECORD
  5
1
330
0
100
AcDbSymbolTable
 70
     6
  0
BLOCK_RECORD
  5
1A
102
{ACAD_XDICTIONARY
360
385
102
}
330
1
100
AcDbSymbolTableRecord
100
AcDbBlockTableRecord
  2
*MODEL_SPACE
  0
BLOCK_RECORD
  5
17
102
{ACAD_XDICTIONARY
360
383
102
}
330
1
100
AcDbSymbolTableRecord
100
AcDbBlockTableRecord
  2
*PAPER_SPACE
  0
BLOCK_RECORD
  5
6D
330
1
100
AcDbSymbolTableRecord
100
AcDbBlockTableRecord
  2
_OPEN
  0
BLOCK_RECORD
  5
2B6
330
1
100
AcDbSymbolTableRecord
100
AcDbBlockTableRecord
  2
*D1
  0
BLOCK_RECORD
  5
2C3
330
1
100
AcDbSymbolTableRecord
100
AcDbBlockTableRecord
  2
*D2
  0
BLOCK_RECORD
  5
2CF
330
1
100
AcDbSymbolTableRecord
100
AcDbBlockTableRecord
  2
*D3
  0
BLOCK_RECORD
  5
2DB
330
1
100
AcDbSymbolTableRecord
100
AcDbBlockTableRecord
  2
*D4
  0
BLOCK_RECORD
  5
2E7
330
1
100
AcDbSymbolTableRecord
100
AcDbBlockTableRecord
  2
*D5
  0
ENDTAB
  0
ENDSEC
  0
SECTION
  2
BLOCKS
  0
BLOCK
  5
1B
330
1A
100
AcDbEntity
  8
0
100
AcDbBlockBegin
  2
*MODEL_SPACE
 70
     0
 10
0.0
 20
0.0
 30
0.0
  3
*MODEL_SPACE
  1

  0
ENDBLK
  5
1C
330
1A
100
AcDbEntity
  8
0
100
AcDbBlockEnd
  0
BLOCK
  5
18
330
17
100
AcDbEntity
 67
     1
  8
0
100
AcDbBlockBegin
  2
*PAPER_SPACE
 70
     0
 10
0.0
 20
0.0
 30
0.0
  3
*PAPER_SPACE
  1

  0
ENDBLK
  5
19
330
17
100
AcDbEntity
 67
     1
  8
0
100
AcDbBlockEnd
  0
BLOCK
  5
6E
330
6D
100
AcDbEntity
  8
0
100
AcDbBlockBegin
  2
_OPEN
 70
     0
 10
0.0
 20
0.0
 30
0.0
  3
_OPEN
  1

  0
LINE
  5
6F
330
6D
100
AcDbEntity
  8
0
  6
BYBLOCK
 62
     0
100
AcDbLine
 10
-1.0
 20
0.1666666666666666
 30
0.0
 11
0.0
 21
0.0
 31
0.0
  0
LINE
  5
70
330
6D
100
AcDbEntity
  8
0
  6
BYBLOCK
 62
     0
100
AcDbLine
 10
0.0
 20
0.0
 30
0.0
 11
-1.0
 21
-0.1666666666666666
 31
0.0
  0
LINE
  5
71
330
6D
100
AcDbEntity
  8
0
  6
BYBLOCK
 62
     0
100
AcDbLine
 10
0.0
 20
0.0
 30
0.0
 11
-1.0
 21
0.0
 31
0.0
  0
ENDBLK
  5
72
330
6D
100
AcDbEntity
  8
0
100
AcDbBlockEnd
  0
BLOCK
  5
2F4
330
2B6
100
AcDbEntity
  8
0
100
AcDbBlockBegin
  2
*D1
 70
     1
 10
0.0
 20
0.0
 30
0.0
  3
*D1
  1

  0
LINE
  5
3A0
330
2B6
100
AcDbEntity
  8
SUNPOU
 62
     4
100
AcDbLine
 10
471.0353573476714
 20
317.6238078809424
 30
0.0
 11
471.0353573476714
 21
365.8679212057468
 31
0.0
  0
ARC
  5
3A1
330
2B6
100
AcDbEntity
  8
SUNPOU
 62
     4
100
AcDbCircle
 10
471.0353573476714
 20
311.6238078809424
 30
0.0
 40
51.24411332480434
100
AcDbArc
 50
97.83276198424983
 51
127.1671332164299
  0
INSERT
  5
3A2
330
2B6
100
AcDbEntity
  8
SUNPOU
 62
     4
100
AcDbBlockReference
  2
_OPEN
 10
471.0353573476714
 20
362.8679212057468
 30
0.0
 41
7.0
 42
7.0
 43
7.0
 50
3.916380992124908
  0
INSERT
  5
3A3
330
2B6
100
AcDbEntity
  8
SUNPOU
 62
     4
100
AcDbBlockReference
  2
_OPEN
 10
434.8003635971726
 20
347.8589341860445
 30
0.0
 41
7.0
 42
7.0
 43
7.0
 50
221.0835142085548
  0
MTEXT
  5
3A4
330
2B6
100
AcDbEntity
  8
SUNPOU
 62
     4
100
AcDbMText
 10
449.5117145326014
 20
363.5866126903704
 30
0.0
 40
6.0
 41
0.0
 71
     5
 72
     1
  1
\A1;45°
 11
0.9238798824927306
 21
0.3826825874340493
 31
0.0
  0
POINT
  5
3A5
330
2B6
100
AcDbEntity
  8
DEFPOINTS
 62
     0
100
AcDbPoint
 10
457.7724350486485
 20
361.1218284730375
 30
0.0
  0
POINT
  5
3A6
330
2B6
100
AcDbEntity
  8
DEFPOINTS
 62
     0
100
AcDbPoint
 10
468.7648573476713
 20
313.8943161868699
 30
0.0
  0
POINT
  5
3A7
330
2B6
100
AcDbEntity
  8
DEFPOINTS
 62
     0
100
AcDbPoint
 10
471.0353573476715
 20
287.89421618687
 30
0.0
  0
POINT
  5
3A8
330
2B6
100
AcDbEntity
  8
DEFPOINTS
 62
     0
100
AcDbPoint
 10
471.0353573476715
 20
307.89421618687
 30
0.0
  0
POINT
  5
3A9
330
2B6
100
AcDbEntity
  8
DEFPOINTS
 62
     0
100
AcDbPoint
 10
359.4212573476715
 20
423.2383161868699
 30
0.0
  0
ENDBLK
  5
2FF
330
2B6
100
AcDbEntity
  8
0
100
AcDbBlockEnd
  0
BLOCK
  5
300
330
2C3
100
AcDbEntity
  8
0
100
AcDbBlockBegin
  2
*D2
 70
     1
 10
0.0
 20
0.0
 30
0.0
  3
*D2
  1

  0
LINE
  5
301
330
2C3
100
AcDbEntity
  8
0
  6
BYBLOCK
 62
     4
100
AcDbLine
 10
353.7359573476714
 20
214.56291618687
 30
0.0
 11
353.7359573476714
 21
244.7982816678726
 31
0.0
  0
LINE
  5
302
330
2C3
100
AcDbEntity
  8
0
  6
BYBLOCK
 62
     4
100
AcDbLine
 10
471.0352573476714
 20
215.8626161868701
 30
0.0
 11
471.0352573476714
 21
244.7982816678726
 31
0.0
  0
LINE
  5
303
330
2C3
100
AcDbEntity
  8
0
  6
BYBLOCK
 62
     4
100
AcDbLine
 10
360.7359573476715
 20
241.7982816678726
 30
0.0
 11
464.0352573476715
 21
241.7982816678726
 31
0.0
  0
INSERT
  5
304
330
2C3
100
AcDbEntity
  8
0
  6
BYBLOCK
 62
     4
100
AcDbBlockReference
  2
_OPEN
 10
353.7359573476714
 20
241.7982816678726
 30
0.0
 41
7.0
 42
7.0
 43
7.0
 50
180.0
  0
INSERT
  5
305
330
2C3
100
AcDbEntity
  8
0
  6
BYBLOCK
 62
     4
100
AcDbBlockReference
  2
_OPEN
 10
471.0352573476714
 20
241.7982816678726
 30
0.0
 41
7.0
 42
7.0
 43
7.0
  0
MTEXT
  5
306
330
2C3
100
AcDbEntity
  8
0
  6
BYBLOCK
 62
     4
100
AcDbMText
 10
412.3856073476714
 20
246.7982816678726
 30
0.0
 40
6.0
 41
0.0
 71
     5
 72
     1
  1
\A1;117
1001
ACAD
1000
MTEXTBEGIN
1070
    73
1070
     1
1070
    44
1040
1.0
1070
    74
1070
     0
1000
MTEXTEND
1000
MTEXTBEGIN
1070
    73
1070
     1
1070
    44
1040
1.0
1070
    74
1070
     0
1000
MTEXTEND
  0
POINT
  5
307
330
2C3
100
AcDbEntity
  8
DEFPOINTS
  6
BYBLOCK
 62
     0
100
AcDbPoint
 10
353.7359573476714
 20
208.56291618687
 30
0.0
  0
POINT
  5
308
330
2C3
100
AcDbEntity
  8
DEFPOINTS
  6
BYBLOCK
 62
     0
100
AcDbPoint
 10
471.0352573476714
 20
209.86261618687
 30
0.0
  0
POINT
  5
309
330
2C3
100
AcDbEntity
  8
DEFPOINTS
  6
BYBLOCK
 62
     0
100
AcDbPoint
 10
471.0352573476714
 20
241.7982816678726
 30
0.0
  0
ENDBLK
  5
30A
330
2C3
100
AcDbEntity
  8
0
100
AcDbBlockEnd
  0
BLOCK
  5
30B
330
2CF
100
AcDbEntity
  8
0
100
AcDbBlockBegin
  2
*D3
 70
     1
 10
0.0
 20
0.0
 30
0.0
  3
*D3
  1

  0
LINE
  5
30C
330
2CF
100
AcDbEntity
  8
0
  6
BYBLOCK
 62
     4
100
AcDbLine
 10
471.0352573476714
 20
209.86261618687
 30
0.0
 11
507.0533404723432
 21
209.86261618687
 31
0.0
  0
LINE
  5
30D
330
2CF
100
AcDbEntity
  8
0
  6
BYBLOCK
 62
     4
100
AcDbLine
 10
418.3854717907545
 20
156.7627161870689
 30
0.0
 11
507.0533404723432
 21
156.7627161870689
 31
0.0
  0
LINE
  5
30E
330
2CF
100
AcDbEntity
  8
0
  6
BYBLOCK
 62
     4
100
AcDbLine
 10
504.0533404723432
 20
202.8626161868701
 30
0.0
 11
504.0533404723432
 21
163.7627161870689
 31
0.0
  0
INSERT
  5
30F
330
2CF
100
AcDbEntity
  8
0
  6
BYBLOCK
 62
     4
100
AcDbBlockReference
  2
_OPEN
 10
504.0533404723432
 20
209.86261618687
 30
0.0
 41
7.0
 42
7.0
 43
7.0
 50
90.0
  0
INSERT
  5
310
330
2CF
100
AcDbEntity
  8
0
  6
BYBLOCK
 62
     4
100
AcDbBlockReference
  2
_OPEN
 10
504.0533404723432
 20
156.7627161870689
 30
0.0
 41
7.0
 42
7.0
 43
7.0
 50
270.0
  0
MTEXT
  5
311
330
2CF
100
AcDbEntity
  8
0
  6
BYBLOCK
 62
     4
100
AcDbMText
 10
499.0533404723432
 20
183.3126661869695
 30
0.0
 40
6.0
 41
0.0
 71
     5
 72
     1
  1
\A1;53
 11
0.0
 21
1.0
 31
0.0
1001
ACAD
1000
MTEXTBEGIN
1070
    73
1070
     1
1070
    44
1040
1.0
1070
    74
1070
     0
1000
MTEXTEND
1000
MTEXTBEGIN
1070
    73
1070
     1
1070
    44
1040
1.0
1070
    74
1070
     0
1000
MTEXTEND
  0
POINT
  5
312
330
2CF
100
AcDbEntity
  8
DEFPOINTS
  6
BYBLOCK
 62
     0
100
AcDbPoint
 10
465.0352573476714
 20
209.86261618687
 30
0.0
  0
POINT
  5
313
330
2CF
100
AcDbEntity
  8
DEFPOINTS
  6
BYBLOCK
 62
     0
100
AcDbPoint
 10
412.3854717907545
 20
156.7627161870689
 30
0.0
  0
POINT
  5
314
330
2CF
100
AcDbEntity
  8
DEFPOINTS
  6
BYBLOCK
 62
     0
100
AcDbPoint
 10
504.0533404723432
 20
156.7627161870689
 30
0.0
  0
ENDBLK
  5
315
330
2CF
100
AcDbEntity
  8
0
100
AcDbBlockEnd
  0
BLOCK
  5
316
330
2DB
100
AcDbEntity
  8
0
100
AcDbBlockBegin
  2
*D4
 70
     1
 10
0.0
 20
0.0
 30
0.0
  3
*D4
  1

  0
LINE
  5
317
330
2DB
100
AcDbEntity
  8
0
  6
BYBLOCK
 62
     4
100
AcDbLine
 10
352.0069477576255
 20
423.8241026245009
 30
0.0
 11
315.4652289425056
 21
423.8241026245009
 31
0.0
  0
LINE
  5
318
330
2DB
100
AcDbEntity
  8
0
  6
BYBLOCK
 62
     4
100
AcDbLine
 10
347.7361573476716
 20
287.8945161868699
 30
0.0
 11
315.4652289425056
 21
287.8945161868699
 31
0.0
  0
LINE
  5
319
330
2DB
100
AcDbEntity
  8
0
  6
BYBLOCK
 62
     4
100
AcDbLine
 10
318.4652289425057
 20
416.8241026245008
 30
0.0
 11
318.4652289425057
 21
294.8945161868699
 31
0.0
  0
INSERT
  5
31A
330
2DB
100
AcDbEntity
  8
0
  6
BYBLOCK
 62
     4
100
AcDbBlockReference
  2
_OPEN
 10
318.4652289425057
 20
423.8241026245009
 30
0.0
 41
7.0
 42
7.0
 43
7.0
 50
90.0
  0
INSERT
  5
31B
330
2DB
100
AcDbEntity
  8
0
  6
BYBLOCK
 62
     4
100
AcDbBlockReference
  2
_OPEN
 10
318.4652289425057
 20
287.8945161868699
 30
0.0
 41
7.0
 42
7.0
 43
7.0
 50
270.0
  0
MTEXT
  5
31C
330
2DB
100
AcDbEntity
  8
0
  6
BYBLOCK
 62
     4
100
AcDbMText
 10
313.4652289425056
 20
355.8593094056853
 30
0.0
 40
6.0
 41
0.0
 71
     5
 72
     1
  1
\A1;136
 11
0.0
 21
1.0
 31
0.0
1001
ACAD
1000
MTEXTBEGIN
1070
    73
1070
     1
1070
    44
1040
1.0
1070
    74
1070
     0
1000
MTEXTEND
1000
MTEXTBEGIN
1070
    73
1070
     1
1070
    44
1040
1.0
1070
    74
1070
     0
1000
MTEXTEND
  0
POINT
  5
31D
330
2DB
100
AcDbEntity
  8
DEFPOINTS
  6
BYBLOCK
 62
     0
100
AcDbPoint
 10
358.0069477576255
 20
423.8241026245009
 30
0.0
  0
POINT
  5
31E
330
2DB
100
AcDbEntity
  8
DEFPOINTS
  6
BYBLOCK
 62
     0
100
AcDbPoint
 10
353.7361573476716
 20
287.8945161868699
 30
0.0
  0
POINT
  5
31F
330
2DB
100
AcDbEntity
  8
DEFPOINTS
  6
BYBLOCK
 62
     0
100
AcDbPoint
 10
318.4652289425057
 20
287.8945161868699
 30
0.0
  0
ENDBLK
  5
320
330
2DB
100
AcDbEntity
  8
0
100
AcDbBlockEnd
  0
BLOCK
  5
338
330
2E7
100
AcDbEntity
  8
0
100
AcDbBlockBegin
  2
*D5
 70
     1
 10
0.0
 20
0.0
 30
0.0
  3
*D5
  1

  0
LINE
  5
339
330
2E7
100
AcDbEntity
  8
0
  6
BYBLOCK
 62
     4
100
AcDbLine
 10
357.5683573476716
 20
296.9806919922485
 30
0.0
 11
331.5361129039128
 21
296.9806919922485
 31
0.0
  0
LINE
  5
33A
330
2E7
100
AcDbEntity
  8
0
  6
BYBLOCK
 62
     4
100
AcDbLine
 10
347.7361573476716
 20
287.8945161868699
 30
0.0
 11
331.5361129039128
 21
287.8945161868699
 31
0.0
  0
LINE
  5
33B
330
2E7
100
AcDbEntity
  8
0
  6
BYBLOCK
 62
     4
100
AcDbLine
 10
334.5361129039128
 20
303.9806919922485
 30
0.0
 11
334.5361129039128
 21
310.9806919922485
 31
0.0
  0
LINE
  5
33C
330
2E7
100
AcDbEntity
  8
0
  6
BYBLOCK
 62
     4
100
AcDbLine
 10
334.5361129039128
 20
280.8945161868699
 30
0.0
 11
334.5361129039128
 21
258.6945161868699
 31
0.0
  0
LINE
  5
33D
330
2E7
100
AcDbEntity
  8
0
  6
BYBLOCK
 62
     4
100
AcDbLine
 10
334.5361129039128
 20
296.9806919922485
 30
0.0
 11
334.5361129039128
 21
287.8945161868699
 31
0.0
  0
INSERT
  5
33E
330
2E7
100
AcDbEntity
  8
0
  6
BYBLOCK
 62
     4
100
AcDbBlockReference
  2
_OPEN
 10
334.5361129039128
 20
296.9806919922485
 30
0.0
 41
7.0
 42
7.0
 43
7.0
 50
270.0
  0
INSERT
  5
33F
330
2E7
100
AcDbEntity
  8
0
  6
BYBLOCK
 62
     4
100
AcDbBlockReference
  2
_OPEN
 10
334.5361129039128
 20
287.8945161868699
 30
0.0
 41
7.0
 42
7.0
 43
7.0
 50
90.0
  0
MTEXT
  5
340
330
2E7
100
AcDbEntity
  8
0
  6
BYBLOCK
 62
     4
100
AcDbMText
 10
329.5361129039128
 20
266.2945161868699
 30
0.0
 40
6.0
 41
0.0
 71
     5
 72
     1
  1
\A1;※9
 11
0.0
 21
1.0
 31
0.0
1001
ACAD
1000
MTEXTBEGIN
1070
    73
1070
     1
1070
    44
1040
1.0
1070
    74
1070
     0
1000
MTEXTEND
1000
MTEXTBEGIN
1070
    73
1070
     1
1070
    44
1040
1.0
1070
    74
1070
     0
1000
MTEXTEND
  0
POINT
  5
341
330
2E7
100
AcDbEntity
  8
DEFPOINTS
  6
BYBLOCK
 62
     0
100
AcDbPoint
 10
363.5683573476716
 20
296.9806919922485
 30
0.0
  0
POINT
  5
342
330
2E7
100
AcDbEntity
  8
DEFPOINTS
  6
BYBLOCK
 62
     0
100
AcDbPoint
 10
353.7361573476716
 20
287.8945161868699
 30
0.0
  0
POINT
  5
343
330
2E7
100
AcDbEntity
  8
DEFPOINTS
  6
BYBLOCK
 62
     0
100
AcDbPoint
 10
334.5361129039128
 20
287.8945161868699
 30
0.0
  0
ENDBLK
  5
344
330
2E7
100
AcDbEntity
  8
0
100
AcDbBlockEnd
  0
ENDSEC
  0
SECTION
  2
ENTITIES
  0
TEXT
  5
11A
330
1A
100
AcDbEntity
  8
ZUWAKU
 62
     7
 48
10.0
100
AcDbText
 10
795.5579444309237
 20
4.974918402528146
 30
0.0
 40
8.0
  1
A1
100
AcDbText
  0
LINE
  5
11B
330
1A
100
AcDbEntity
  8
ZUWAKU
 62
     7
 48
10.0
100
AcDbLine
 10
10.05047808566086
 20
25.78258628282265
 30
0.0
 11
806.0504780856609
 21
25.78258628282253
 31
0.0
  0
LINE
  5
11C
330
1A
100
AcDbEntity
  8
ZUWAKU
  6
CONTINUOUS
 62
     7
100
AcDbLine
 10
806.0504780856609
 20
563.7825862828226
 30
0.0
 11
10.05047808566086
 21
563.7825862828226
 31
0.0
  0
LINE
  5
11D
330
1A
100
AcDbEntity
  8
ZUWAKU
  6
CONTINUOUS
 62
     7
100
AcDbLine
 10
806.0504780856609
 20
13.78258628282265
 30
0.0
 11
10.05047808566086
 21
13.78258628282265
 31
0.0
  0
LINE
  5
11E
330
1A
100
AcDbEntity
  8
ZUWAKU
  6
CONTINUOUS
 62
     7
100
AcDbLine
 10
10.05047808566086
 20
563.7825862828226
 30
0.0
 11
10.05047808566086
 21
13.78258628282265
 31
0.0
  0
LINE
  5
11F
330
1A
100
AcDbEntity
  8
ZUWAKU
 62
     7
 48
10.0
100
AcDbLine
 10
44.55797523147839
 20
13.78258628282265
 30
0.0
 11
44.5579752314784
 21
25.78258628282265
 31
0.0
  0
TEXT
  5
120
330
1A
100
AcDbEntity
  8
ZUWAKU
 62
     7
100
AcDbText
 10
16.05676551180931
 20
15.52294263804401
 30
0.0
 40
8.0
  1
品 種
100
AcDbText
  0
LINE
  5
121
330
1A
100
AcDbEntity
  8
ZUWAKU
 62
     7
 48
10.0
100
AcDbLine
 10
276.1028387068254
 20
13.78258628282265
 30
0.0
 11
276.1028387068254
 21
25.78258628282261
 31
0.0
  0
LINE
  5
122
330
1A
100
AcDbEntity
  8
ZUWAKU
 62
     7
 48
10.0
100
AcDbLine
 10
209.5138526425484
 20
13.78258628282265
 30
0.0
 11
209.5138526425485
 21
25.78258628282263
 31
0.0
  0
TEXT
  5
124
330
1A
100
AcDbEntity
  8
ZUWAKU
 62
     7
100
AcDbText
 10
215.4560837190756
 20
16.18358115302453
 30
0.0
 40
8.0
  1
品名・ｻ ｲ ｽﾞ
100
AcDbText
  0
LINE
  5
126
330
1A
100
AcDbEntity
  8
ZUWAKU
 62
     7
 48
10.0
100
AcDbLine
 10
768.7231079932794
 20
13.78258628282237
 30
0.0
 11
768.7231079932794
 21
25.78258628282254
 31
0.0
  0
LINE
  5
127
330
1A
100
AcDbEntity
  8
ZUWAKU
 62
     7
 48
10.0
100
AcDbLine
 10
733.8119002376948
 20
13.78258628282242
 30
0.0
 11
733.8119002376946
 21
25.78258628282254
 31
0.0
  0
TEXT
  5
128
330
1A
100
AcDbEntity
  8
ZUWAKU
 62
     7
100
AcDbText
 10
739.6955629973526
 20
15.24227755810852
 30
0.0
 40
8.0
  1
尺 度
100
AcDbText
  0
TEXT
  5
129
330
1A
100
AcDbEntity
  8
ZUWAKU
 62
     7
100
AcDbText
 10
779.7374630323229
 20
15.55488920081529
 30
0.0
 40
8.0
  1
1/2
100
AcDbText
  0
TEXT
  5
12B
330
1A
100
AcDbEntity
  8
ZUWAKU
 62
     7
100
AcDbText
 10
620.3363288383084
 20
15.6519090944263
 30
0.0
 40
8.0
  1
品 番
100
AcDbText
  0
LINE
  5
12C
330
1A
100
AcDbEntity
  8
ZUWAKU
 62
     7
 48
10.0
100
AcDbLine
 10
614.3351028194128
 20
13.78258628282232
 30
0.0
 11
614.3351028194128
 21
25.78258628282256
 31
0.0
  0
LINE
  5
12D
330
1A
100
AcDbEntity
  8
ZUWAKU
 62
     7
 48
10.0
100
AcDbLine
 10
648.7607587371021
 20
13.78258628282232
 30
0.0
 11
648.7607587371021
 21
25.78258628282255
 31
0.0
  0
TEXT
  5
12E
330
1A
100
AcDbEntity
  8
ZUWAKU
 62
     7
 48
10.0
100
AcDbText
 10
646.2758615931216
 20
4.949376903717848
 30
0.0
 40
8.0
  1
積水化学工業株式会社  建材
100
AcDbText
  0
LINE
  5
12F
330
1A
100
AcDbEntity
  8
ZUWAKU
  6
CONTINUOUS
 62
     7
100
AcDbLine
 10
806.0504780856609
 20
563.7825862828226
 30
0.0
 11
806.0504780856609
 21
13.78258628282265
 31
0.0
  0
DIMENSION
  5
220
330
1A
100
AcDbEntity
  8
SUNPOU
100
AcDbDimension
  2
*D1
 10
359.4212573476716
 20
423.2383161868699
 30
0.0
 11
449.5117145326013
 21
363.5866126903704
 31
0.0
 70
    34
  3
STANDARD
100
AcDb2LineAngularDimension
 13
471.0353573476715
 23
287.89421618687
 33
0.0
 14
471.0353573476715
 24
307.89421618687
 34
0.0
 15
468.7648573476714
 25
313.89431618687
 35
0.0
 16
457.7724350486485
 26
361.1218284730375
 36
0.0
1001
ACAD
1000
DSTYLE
1002
{
1070
   271
1070
     0
1070
   271
1070
     0
1070
   140
1040
6.0
1070
    74
1070
     0
1070
   172
1070
     1
1070
    73
1070
     0
1070
   272
1070
     2
1070
    77
1070
     3
1070
   173
1070
     1
1070
   147
1040
2.0
1070
    42
1040
6.0
1070
    44
1040
3.0
1070
    43
1040
14.0
1070
   271
1070
     0
1070
   178
1070
     4
1070
   177
1070
     4
1070
   176
1070
     4
1070
   141
1040
150.0
1070
     7
1000
_OPEN
1070
     6
1000
_OPEN
1070
    41
1040
7.0
1002
}
  0
DIMENSION
  5
221
330
1A
100
AcDbEntity
  8
SUNPOU
100
AcDbDimension
  2
*D2
 10
471.0352573476714
 20
241.7982816678726
 30
0.0
 11
412.3856073476714
 21
246.7982816678726
 31
0.0
 70
    32
  3
STANDARD
100
AcDbAlignedDimension
 13
353.7359573476714
 23
208.56291618687
 33
0.0
 14
471.0352573476714
 24
209.86261618687
 34
0.0
100
AcDbRotatedDimension
1001
ACAD
1000
DSTYLE
1002
{
1070
   140
1040
6.0
1070
    74
1070
     0
1070
   172
1070
     1
1070
    73
1070
     0
1070
   272
1070
     2
1070
    77
1070
     3
1070
   173
1070
     1
1070
   147
1040
2.0
1070
    42
1040
6.0
1070
    44
1040
3.0
1070
    43
1040
14.0
1070
   271
1070
     0
1070
   178
1070
     4
1070
   177
1070
     4
1070
   176
1070
     4
1070
   141
1040
150.0
1070
     7
1000
_OPEN
1070
     6
1000
_OPEN
1070
    41
1040
7.0
1002
}
  0
DIMENSION
  5
222
330
1A
100
AcDbEntity
  8
SUNPOU
100
AcDbDimension
  2
*D3
 10
504.0533404723432
 20
156.7627161870689
 30
0.0
 11
499.0533404723432
 21
183.3126661869695
 31
0.0
 70
    32
  3
STANDARD
100
AcDbAlignedDimension
 13
465.0352573476714
 23
209.86261618687
 33
0.0
 14
412.3854717907545
 24
156.7627161870689
 34
0.0
 50
90.0
100
AcDbRotatedDimension
1001
ACAD
1000
DSTYLE
1002
{
1070
   140
1040
6.0
1070
    74
1070
     0
1070
   172
1070
     1
1070
    73
1070
     0
1070
   272
1070
     2
1070
    77
1070
     3
1070
   173
1070
     1
1070
   147
1040
2.0
1070
    42
1040
6.0
1070
    44
1040
3.0
1070
    43
1040
14.0
1070
   271
1070
     0
1070
   178
1070
     4
1070
   177
1070
     4
1070
   176
1070
     4
1070
   141
1040
150.0
1070
     7
1000
_OPEN
1070
     6
1000
_OPEN
1070
    41
1040
7.0
1002
}
  0
ARC
  5
223
330
1A
100
AcDbEntity
  8
SEIHIN
  6
CONTINUOUS
 62
     3
 48
16.0
100
AcDbCircle
 10
412.3856349111965
 20
208.5626983837701
 30
0.0
 40
51.09998219695807
100
AcDbArc
 50
269.9999142072556
 51
346.6836195874055
  0
ARC
  5
224
330
1A
100
AcDbEntity
  8
NOKITOI
  6
CONTINUOUS
 62
     8
 48
5.0
100
AcDbCircle
 10
412.3854738676407
 20
208.5627281871087
 30
0.0
 40
50.300012
100
AcDbArc
 50
188.6764639999999
 51
351.2914929999999
  0
ARC
  5
225
330
1A
100
AcDbEntity
  8
NOKITOI
  6
CONTINUOUS
 62
     8
 48
5.0
100
AcDbCircle
 10
412.3854738676407
 20
208.5627281871087
 30
0.0
 40
49.00000099999999
100
AcDbArc
 50
185.413376
 51
354.5863799999999
  0
LINE
  5
226
330
1A
100
AcDbEntity
  8
SEIHIN
  6
CONTINUOUS
 62
     3
 48
16.0
100
AcDbLine
 10
443.2657573476716
 20
310.8943161868701
 30
0.0
 11
415.3856573476715
 21
310.8943161868701
 31
0.0
  0
LINE
  5
227
330
1A
100
AcDbEntity
  8
SEIHIN
  6
CONTINUOUS
 62
     3
 48
16.0
100
AcDbLine
 10
442.3223573476716
 20
309.3943161868701
 30
0.0
 11
415.3856573476715
 21
309.3943161868701
 31
0.0
  0
LINE
  5
228
330
1A
100
AcDbEntity
  8
SEIHIN
  6
CONTINUOUS
 62
     3
 48
16.0
100
AcDbLine
 10
442.3223573476716
 20
297.8943161868701
 30
0.0
 11
415.3856573476715
 21
297.8943161868701
 31
0.0
  0
ARC
  5
229
330
1A
100
AcDbEntity
  8
SEIHIN
  6
CONTINUOUS
 62
     3
 48
16.0
100
AcDbCircle
 10
412.3857244145089
 20
208.5627423240932
 30
0.0
 40
47.59994127175198
100
AcDbArc
 50
273.613155821706
 51
308.9702978803964
  0
ARC
  5
22A
330
1A
100
AcDbEntity
  8
SEIHIN
  6
CONTINUOUS
 62
     3
 48
16.0
100
AcDbCircle
 10
412.3856039100855
 20
208.5626899725631
 30
0.0
 40
49.09997920511167
100
AcDbArc
 50
272.4231952493942
 51
319.8383142088792
  0
LINE
  5
22B
330
1A
100
AcDbEntity
  8
SEIHIN
  6
CONTINUOUS
 62
     3
 48
16.0
100
AcDbLine
 10
412.3856573476715
 20
208.56271618687
 30
0.0
 11
461.3056573476714
 21
208.5626161868701
 31
0.0
  0
LINE
  5
22C
330
1A
100
AcDbEntity
  8
SEIHIN
  6
CONTINUOUS
 62
     3
 48
16.0
100
AcDbLine
 10
471.0353573476715
 20
287.89421618687
 30
0.0
 11
412.3857573476716
 21
287.8943161868701
 31
0.0
  0
LINE
  5
22D
330
1A
100
AcDbEntity
  8
SEIHIN
  6
CONTINUOUS
 62
     3
 48
16.0
100
AcDbLine
 10
468.7648573476714
 20
313.8943161868701
 30
0.0
 11
359.4212573476716
 21
423.2383161868699
 31
0.0
  0
LINE
  5
22E
330
1A
100
AcDbEntity
  8
SEIHIN
  6
CONTINUOUS
 62
     3
 48
16.0
100
AcDbLine
 10
467.4761573476714
 20
313.0617161868701
 30
0.0
 11
358.3604573476716
 21
422.1779161868701
 31
0.0
  0
ARC
  5
22F
330
1A
100
AcDbEntity
  8
SEIHIN
  6
CONTINUOUS
 62
     3
 48
16.0
100
AcDbCircle
 10
412.3856593856029
 20
208.5627178427308
 30
0.0
 40
50.30000165596425
100
AcDbArc
 50
269.9998837705245
 51
348.1892359232528
  0
ARC
  5
230
330
1A
100
AcDbEntity
  8
SEIHIN
  6
CONTINUOUS
 62
     3
 48
16.0
100
AcDbCircle
 10
412.3856349111965
 20
208.5626983837701
 30
0.0
 40
51.79998219695807
100
AcDbArc
 50
269.9999142072556
 51
346.863374233402
  0
DIMENSION
  5
231
330
1A
100
AcDbEntity
  8
SUNPOU
100
AcDbDimension
  2
*D4
 10
318.4652289425057
 20
287.8945161868699
 30
0.0
 11
313.4652289425056
 21
355.8593094056853
 31
0.0
 70
    32
  3
STANDARD
100
AcDbAlignedDimension
 13
358.0069477576255
 23
423.8241026245009
 33
0.0
 14
353.7361573476716
 24
287.8945161868699
 34
0.0
 50
90.0
100
AcDbRotatedDimension
1001
ACAD
1000
DSTYLE
1002
{
1070
   140
1040
6.0
1070
    74
1070
     0
1070
   172
1070
     1
1070
    73
1070
     0
1070
   272
1070
     2
1070
    77
1070
     3
1070
   173
1070
     1
1070
   147
1040
2.0
1070
    42
1040
6.0
1070
    44
1040
3.0
1070
    43
1040
14.0
1070
   271
1070
     0
1070
   178
1070
     4
1070
   177
1070
     4
1070
   176
1070
     4
1070
   141
1040
150.0
1070
     7
1000
_OPEN
1070
     6
1000
_OPEN
1070
    41
1040
7.0
1002
}
  0
LINE
  5
232
330
1A
100
AcDbEntity
  8
CENTER_L
  6
CENTER
 62
     1
 48
5.0
100
AcDbLine
 10
412.3857630502421
 20
280.8943161868502
 30
0.0
 11
412.3858573543672
 21
330.8943161868701
 31
0.0
  0
LINE
  5
233
330
1A
100
AcDbEntity
  8
SEIHIN
  6
CONTINUOUS
 62
     3
 48
16.0
100
AcDbLine
 10
364.2362573476716
 20
310.8944161868701
 30
0.0
 11
364.2364573476715
 21
415.0947161868701
 31
0.0
  0
LINE
  5
234
330
1A
100
AcDbEntity
  8
SEIHIN
  6
CONTINUOUS
 62
     3
 48
16.0
100
AcDbLine
 10
356.0067573476716
 20
313.89451618687
 30
0.0
 11
356.0069573476715
 21
421.82421618687
 31
0.0
  0
LINE
  5
235
330
1A
100
AcDbEntity
  8
SEIHIN
  6
CONTINUOUS
 62
     3
 48
16.0
100
AcDbLine
 10
357.5066573476716
 20
313.6201161868701
 30
0.0
 11
357.5068573476716
 21
421.8243161868699
 31
0.0
  0
TEXT
  5
236
330
1A
100
AcDbEntity
  8
ZUWAKU
 62
     7
100
AcDbText
 10
50.3519382305086
 20
16.10306189639755
 30
0.0
 40
8.0
  1
丸トップ　のきとい
100
AcDbText
  0
TEXT
  5
238
330
1A
100
AcDbEntity
  8
ZUWAKU
 62
     7
100
AcDbText
 10
282.3131429914078
 20
15.64241700452384
 30
0.0
 40
8.0
  1
４５°止り　１０５
100
AcDbText
  0
ARC
  5
23C
330
1A
100
AcDbEntity
  8
SEIHIN
  6
CONTINUOUS
 62
     3
 48
16.0
100
AcDbCircle
 10
359.7359573476714
 20
203.56281618687
 30
0.0
 40
6.0
100
AcDbArc
 50
180.0
 51
270.0
  0
ARC
  5
23D
330
1A
100
AcDbEntity
  8
SEIHIN
  6
CONTINUOUS
 62
     3
 48
16.0
100
AcDbCircle
 10
412.3855941051353
 20
208.5626870201066
 30
0.0
 40
51.09997083324961
100
AcDbArc
 50
193.3161445058321
 51
269.9999593426887
  0
LINE
  5
23E
330
1A
100
AcDbEntity
  8
CENTER_L
  6
CENTER
 62
     1
 48
5.0
100
AcDbLine
 10
412.3854620986182
 20
149.7627161870052
 30
0.0
 11
412.3855532046987
 21
215.5627161870975
 31
0.0
  0
ARC
  5
23F
330
1A
100
AcDbEntity
  8
SEIHIN
  6
CONTINUOUS
 62
     3
 48
16.0
100
AcDbCircle
 10
412.3855836221726
 20
208.562672403314
 30
0.0
 40
49.09993875863861
100
AcDbArc
 50
192.0976102927858
 51
229.8381942308392
  0
ARC
  5
240
330
1A
100
AcDbEntity
  8
SEIHIN
  6
CONTINUOUS
 62
     3
 48
16.0
100
AcDbCircle
 10
412.3854842641415
 20
208.5628712758048
 30
0.0
 40
47.59994095653992
100
AcDbArc
 50
191.492940962167
 51
218.9704873110297
  0
ARC
  5
241
330
1A
100
AcDbEntity
  8
SEIHIN
  6
CONTINUOUS
 62
     3
 48
16.0
100
AcDbCircle
 10
412.3855941051353
 20
208.5626870201066
 30
0.0
 40
51.79997083324961
100
AcDbArc
 50
193.1365022109878
 51
269.9999593426887
  0
ARC
  5
242
330
1A
100
AcDbEntity
  8
SEIHIN
  6
CONTINUOUS
 62
     3
 48
16.0
100
AcDbCircle
 10
412.3855805000419
 20
208.5626973749842
 30
0.0
 40
50.29998118811953
100
AcDbArc
 50
191.8105123896629
 51
269.9999736275625
  0
ARC
  5
243
330
1A
100
AcDbEntity
  8
SEIHIN
  6
CONTINUOUS
 62
     3
 48
16.0
100
AcDbCircle
 10
412.3855806857593
 20
208.5627047380706
 30
0.0
 40
49.0999012305572
100
AcDbArc
 50
220.161632432461
 51
267.5766024619049
  0
ARC
  5
244
330
1A
100
AcDbEntity
  8
SEIHIN
  6
CONTINUOUS
 62
     3
 48
16.0
100
AcDbCircle
 10
412.3855130702595
 20
208.5627334426956
 30
0.0
 40
47.59993384419604
100
AcDbArc
 50
231.0295047826004
 51
266.3868161276023
  0
ARC
  5
245
330
1A
100
AcDbEntity
  8
SEIHIN
  6
CONTINUOUS
 62
     3
 48
16.0
100
AcDbCircle
 10
382.9184454657326
 20
170.5457185194765
 30
0.0
 40
1.000000024889597
100
AcDbArc
 50
141.0311599729834
 51
232.2231241681735
  0
LINE
  5
246
330
1A
100
AcDbEntity
  8
SEIHIN
  6
CONTINUOUS
 62
     3
 48
16.0
100
AcDbLine
 10
374.9972573476716
 20
178.3184161868701
 30
0.0
 11
375.3779573476715
 21
178.62631618687
 31
0.0
  0
ARC
  5
247
330
1A
100
AcDbEntity
  8
SEIHIN
  6
CONTINUOUS
 62
     3
 48
16.0
100
AcDbCircle
 10
374.3683069632779
 20
179.0958220389946
 30
0.0
 40
0.9999692219995266
100
AcDbArc
 50
217.7795293298538
 51
308.9741528668923
  0
ARC
  5
248
330
1A
100
AcDbEntity
  8
SEIHIN
  6
CONTINUOUS
 62
     3
 48
16.0
100
AcDbCircle
 10
375.6261571760484
 20
177.5409143824557
 30
0.0
 40
1.000012024927654
100
AcDbArc
 50
128.9684431337984
 51
220.164958668893
  0
LINE
  5
249
330
1A
100
AcDbEntity
  8
SEIHIN
  6
CONTINUOUS
 62
     3
 48
16.0
100
AcDbLine
 10
382.4489573476716
 20
171.5552161868701
 30
0.0
 11
382.1409573476716
 21
171.1746161868701
 31
0.0
  0
ARC
  5
24A
330
1A
100
AcDbEntity
  8
SEIHIN
  6
CONTINUOUS
 62
     3
 48
16.0
100
AcDbCircle
 10
381.3635013754096
 20
171.8035108649588
 30
0.0
 40
0.9999731521066946
100
AcDbArc
 50
229.8372227933009
 51
321.0301347939835
  0
ARC
  5
24B
330
1A
100
AcDbEntity
  8
SEIHIN
  6
CONTINUOUS
 62
     3
 48
16.0
100
AcDbCircle
 10
412.3863829519161
 20
208.5626987337578
 30
0.0
 40
49.09998255382896
100
AcDbArc
 50
267.5769542208274
 51
269.9990365854262
  0
LINE
  5
24C
330
1A
100
AcDbEntity
  8
SEIHIN
  6
CONTINUOUS
 62
     3
 48
16.0
100
AcDbLine
 10
409.3856573476714
 20
161.0574161868701
 30
0.0
 11
409.3547573476716
 21
160.5687161868701
 31
0.0
  0
ARC
  5
24D
330
1A
100
AcDbEntity
  8
SEIHIN
  6
CONTINUOUS
 62
     3
 48
16.0
100
AcDbCircle
 10
410.3528146278595
 20
160.505763662064
 30
0.0
 40
1.000040676630474
100
AcDbArc
 50
176.390846384004
 51
267.5782136110044
  0
ARC
  5
24E
330
1A
100
AcDbEntity
  8
SEIHIN
  6
CONTINUOUS
 62
     3
 48
16.0
100
AcDbCircle
 10
408.3567487817036
 20
160.6318087954061
 30
0.0
 40
1.000000887498288
100
AcDbArc
 50
265.1992228399124
 51
356.3826604023775
  0
LINE
  5
24F
330
1A
100
AcDbEntity
  8
SEIHIN
  6
CONTINUOUS
 62
     3
 48
16.0
100
AcDbLine
 10
415.3854573476714
 20
161.0573161868701
 30
0.0
 11
415.4162573476715
 21
160.5687161868701
 31
0.0
  0
ARC
  5
250
330
1A
100
AcDbEntity
  8
SEIHIN
  6
CONTINUOUS
 62
     3
 48
16.0
100
AcDbCircle
 10
414.4182533449295
 20
160.5057117385323
 30
0.0
 40
0.9999907749571361
100
AcDbArc
 50
272.4245867392405
 51
3.612314903372921
  0
ARC
  5
251
330
1A
100
AcDbEntity
  8
SEIHIN
  6
CONTINUOUS
 62
     3
 48
16.0
100
AcDbCircle
 10
416.4142208917816
 20
160.6317476439285
 30
0.0
 40
0.99995209882864
100
AcDbArc
 50
183.6140054480438
 51
274.8093507916722
  0
ARC
  5
252
330
1A
100
AcDbEntity
  8
SEIHIN
  6
CONTINUOUS
 62
     3
 48
16.0
100
AcDbCircle
 10
412.3847317880918
 20
208.5626966226029
 30
0.0
 40
49.09998044267329
100
AcDbArc
 50
270.0009633624949
 51
272.4230458312516
  0
LINE
  5
253
330
1A
100
AcDbEntity
  8
SEIHIN
  6
CONTINUOUS
 62
     3
 48
16.0
100
AcDbLine
 10
412.3856573476715
 20
208.56271618687
 30
0.0
 11
363.4655573476714
 21
208.56291618687
 31
0.0
  0
ARC
  5
254
330
1A
100
AcDbEntity
  8
NOKITOI
  6
CONTINUOUS
 62
     8
 48
5.0
100
AcDbCircle
 10
359.6238738676407
 20
203.5628281871088
 30
0.0
 40
3.999994
100
AcDbArc
 50
5.413986
 51
185.413851
  0
CIRCLE
  5
255
330
1A
100
AcDbEntity
  8
NOKITOI
  6
CONTINUOUS
 62
     8
 48
5.0
100
AcDbCircle
 10
359.6238738676407
 20
203.5628281871088
 30
0.0
 40
2.7
  0
LINE
  5
256
330
1A
100
AcDbEntity
  8
SEIHIN
  6
CONTINUOUS
 62
     3
 48
16.0
100
AcDbLine
 10
353.7359573476714
 20
203.56291618687
 30
0.0
 11
353.7359573476714
 21
208.56291618687
 31
0.0
  0
ARC
  5
257
330
1A
100
AcDbEntity
  8
SEIHIN
  6
CONTINUOUS
 62
     3
 48
16.0
100
AcDbCircle
 10
359.735957348227
 20
203.8628161868701
 30
0.0
 40
4.500000000555495
100
AcDbArc
 50
0.0012732395446346
 51
180.0000000000001
  0
ARC
  5
258
330
1A
100
AcDbEntity
  8
SEIHIN
  6
CONTINUOUS
 62
     3
 48
16.0
100
AcDbCircle
 10
359.7359573480882
 20
203.8628161868701
 30
0.0
 40
6.000000000416727
100
AcDbArc
 50
0.000954929658561
 51
180.0
  0
ARC
  5
259
330
1A
100
AcDbEntity
  8
SEIHIN
  6
CONTINUOUS
 62
     3
 48
16.0
100
AcDbCircle
 10
361.6863824661847
 20
196.56281618687
 30
0.0
 40
1.0
100
AcDbArc
 50
13.31614450583133
 51
90.0
  0
ARC
  5
25A
330
1A
100
AcDbEntity
  8
NOKITOI
  6
CONTINUOUS
 62
     8
 48
5.0
100
AcDbCircle
 10
359.6238738676407
 20
203.5628281871088
 30
0.0
 40
4.000029
100
AcDbArc
 50
185.413851
 51
319.252818
  0
LINE
  5
25B
330
1A
100
AcDbEntity
  8
SEIHIN
  6
CONTINUOUS
 62
     3
 48
16.0
100
AcDbLine
 10
359.7359573476714
 20
199.06281618687
 30
0.0
 11
363.3982573476716
 21
199.06281618687
 31
0.0
  0
ARC
  5
25C
330
1A
100
AcDbEntity
  8
SEIHIN
  6
CONTINUOUS
 62
     3
 48
16.0
100
AcDbCircle
 10
360.9673035032305
 20
196.5627795632114
 30
0.0
 40
1.000036624723716
100
AcDbArc
 50
13.13982832620319
 51
90.00264442187932
  0
LINE
  5
25D
330
1A
100
AcDbEntity
  8
SEIHIN
  6
CONTINUOUS
 62
     3
 48
16.0
100
AcDbLine
 10
359.7359573476714
 20
197.56281618687
 30
0.0
 11
361.6863824661847
 21
197.56281618687
 31
0.0
  0
LINE
  5
25E
330
1A
100
AcDbEntity
  8
SEIHIN
  6
CONTINUOUS
 62
     3
 48
16.0
100
AcDbLine
 10
355.2359573476716
 20
203.8628161868701
 30
0.0
 11
355.2359573476716
 21
203.56291618687
 31
0.0
  0
ARC
  5
25F
330
1A
100
AcDbEntity
  8
SEIHIN
  6
CONTINUOUS
 62
     3
 48
16.0
100
AcDbCircle
 10
359.7359573476715
 20
203.5628161868699
 30
0.0
 40
4.499999999999943
100
AcDbArc
 50
179.9999999999992
 51
269.9999999999992
  0
LINE
  5
260
330
1A
100
AcDbEntity
  8
SEIHIN
  6
CONTINUOUS
 62
     3
 48
16.0
100
AcDbLine
 10
364.2359573476714
 20
203.8628161868701
 30
0.0
 11
364.2359573476714
 21
198.60891618687
 31
0.0
  0
LINE
  5
261
330
1A
100
AcDbEntity
  8
SEIHIN
  6
CONTINUOUS
 62
     3
 48
16.0
100
AcDbLine
 10
365.7359573476716
 20
203.8628161868701
 30
0.0
 11
365.7359573476716
 21
199.1185161868701
 31
0.0
  0
ARC
  5
262
330
1A
100
AcDbEntity
  8
SEIHIN
  6
CONTINUOUS
 62
     3
 48
16.0
100
AcDbCircle
 10
362.171642433659
 20
198.0628283045167
 30
0.0
 40
0.9999878824644756
100
AcDbArc
 50
11.81137378047014
 51
89.99914547967527
  0
ARC
  5
263
330
1A
100
AcDbEntity
  8
SEIHIN
  6
CONTINUOUS
 62
     3
 48
16.0
100
AcDbCircle
 10
363.3982650793457
 20
198.0628099369091
 30
0.0
 40
1.000006249990805
100
AcDbArc
 50
12.09920172734376
 51
90.00044298952436
  0
ARC
  5
264
330
1A
100
AcDbEntity
  8
SEIHIN
  6
CONTINUOUS
 62
     3
 48
16.0
100
AcDbCircle
 10
365.9359573976715
 20
199.1185156893827
 30
0.0
 40
0.2000000500005902
100
AcDbArc
 50
179.9998574804123
 51
191.4783395158234
  0
LINE
  5
265
330
1A
100
AcDbEntity
  8
SEIHIN
  6
CONTINUOUS
 62
     3
 48
16.0
100
AcDbLine
 10
356.0064573476716
 20
208.56291618687
 30
0.0
 11
353.7359573476714
 21
208.56291618687
 31
0.0
  0
ARC
  5
266
330
1A
100
AcDbEntity
  8
SEIHIN
  6
CONTINUOUS
 62
     3
 48
16.0
100
AcDbCircle
 10
362.8182836118428
 20
208.1128525422873
 30
0.0
 40
0.7500011819913955
100
AcDbArc
 50
234.0484618502575
 51
54.26074940619596
  0
DIMENSION
  5
267
330
1A
100
AcDbEntity
  8
SUNPOU
100
AcDbDimension
  2
*D5
 10
334.5361129039128
 20
287.8945161868699
 30
0.0
 11
329.5361129039128
 21
266.2945161868699
 31
0.0
 70
    32
  1
※<>
  3
STANDARD
100
AcDbAlignedDimension
 13
363.5683573476716
 23
296.9806919922485
 33
0.0
 14
353.7361573476716
 24
287.8945161868699
 34
0.0
 50
90.0
100
AcDbRotatedDimension
1001
ACAD
1000
DSTYLE
1002
{
1070
   140
1040
6.0
1070
    74
1070
     0
1070
   172
1070
     1
1070
    73
1070
     0
1070
   272
1070
     2
1070
    77
1070
     3
1070
   173
1070
     1
1070
   147
1040
2.0
1070
    42
1040
6.0
1070
    44
1040
3.0
1070
    43
1040
14.0
1070
   271
1070
     0
1070
   178
1070
     4
1070
   177
1070
     4
1070
   176
1070
     4
1070
   141
1040
150.0
1070
     7
1000
_OPEN
1070
     6
1000
_OPEN
1070
    41
1040
7.0
1002
}
  0
LINE
  5
268
330
1A
100
AcDbEntity
  8
SEIHIN
  6
CONTINUOUS
 62
     3
 48
16.0
100
AcDbLine
 10
381.5057573476716
 20
310.8944161868701
 30
0.0
 11
409.3858573476715
 21
310.8943161868701
 31
0.0
  0
LINE
  5
269
330
1A
100
AcDbEntity
  8
SEIHIN
  6
CONTINUOUS
 62
     3
 48
16.0
100
AcDbLine
 10
382.4491573476716
 20
309.3944161868699
 30
0.0
 11
409.3858573476715
 21
309.3943161868701
 31
0.0
  0
LINE
  5
26A
330
1A
100
AcDbEntity
  8
SEIHIN
  6
CONTINUOUS
 62
     3
 48
16.0
100
AcDbLine
 10
382.4491573476716
 20
297.89441618687
 30
0.0
 11
409.3858573476715
 21
297.8943161868701
 31
0.0
  0
LINE
  5
26B
330
1A
100
AcDbEntity
  8
SEIHIN
  6
CONTINUOUS
 62
     3
 48
16.0
100
AcDbLine
 10
353.7361573476716
 20
287.8945161868699
 30
0.0
 11
412.3857573476716
 21
287.8943161868701
 31
0.0
  0
LINE
  5
26C
330
1A
100
AcDbEntity
  8
SEIHIN
  6
CONTINUOUS
 62
     3
 48
16.0
100
AcDbLine
 10
381.8058573476715
 20
298.9173675279067
 30
0.0
 11
382.4491573476716
 21
297.89441618687
 31
0.0
  0
LINE
  5
26D
330
1A
100
AcDbEntity
  8
SEIHIN
  6
CONTINUOUS
 62
     3
 48
16.0
100
AcDbLine
 10
375.3781573476716
 20
297.89441618687
 30
0.0
 11
375.3781573476716
 21
310.8944161868701
 31
0.0
  0
LINE
  5
26E
330
1A
100
AcDbEntity
  8
SEIHIN
  6
CONTINUOUS
 62
     3
 48
16.0
100
AcDbLine
 10
382.4492573476714
 20
297.89441618687
 30
0.0
 11
382.4492573476714
 21
309.3944161868699
 31
0.0
  0
LINE
  5
26F
330
1A
100
AcDbEntity
  8
SEIHIN
  6
CONTINUOUS
 62
     3
 48
16.0
100
AcDbLine
 10
353.7361573476716
 20
287.8945161868699
 30
0.0
 11
353.7361573476716
 21
307.8944161868701
 31
0.0
  0
LINE
  5
270
330
1A
100
AcDbEntity
  8
SEIHIN
  6
CONTINUOUS
 62
     3
 48
16.0
100
AcDbLine
 10
364.5683573476716
 20
297.89441618687
 30
0.0
 11
375.3781573476716
 21
297.89441618687
 31
0.0
  0
LINE
  5
271
330
1A
100
AcDbEntity
  8
SEIHIN
  6
CONTINUOUS
 62
     3
 48
16.0
100
AcDbLine
 10
363.5683573476716
 20
287.8944161868701
 30
0.0
 11
363.5683573476716
 21
297.89441618687
 31
0.0
  0
LINE
  5
272
330
1A
100
AcDbEntity
  8
SEIHIN
  6
CONTINUOUS
 62
     3
 48
16.0
100
AcDbLine
 10
363.5683573476716
 20
309.3944161868699
 30
0.0
 11
375.3781573476716
 21
309.3944161868699
 31
0.0
  0
LINE
  5
273
330
1A
100
AcDbEntity
  8
SEIHIN
  6
CONTINUOUS
 62
     3
 48
16.0
100
AcDbLine
 10
364.2362573476716
 20
310.8944161868701
 30
0.0
 11
375.3781573476716
 21
310.8944161868701
 31
0.0
  0
LINE
  5
274
330
1A
100
AcDbEntity
  8
SEIHIN
  6
CONTINUOUS
 62
     3
 48
16.0
100
AcDbLine
 10
365.7362573476716
 20
309.3944161868699
 30
0.0
 11
364.2362573476716
 21
310.8944161868701
 31
0.0
  0
LINE
  5
275
330
1A
100
AcDbEntity
  8
SEIHIN
  6
CONTINUOUS
 62
     3
 48
16.0
100
AcDbLine
 10
356.0067573476716
 20
313.89451618687
 30
0.0
 11
353.7361573476716
 21
307.8945161868699
 31
0.0
  0
LINE
  5
276
330
1A
100
AcDbEntity
  8
SEIHIN
  6
CONTINUOUS
 62
     3
 48
16.0
100
AcDbLine
 10
357.5066573476716
 20
313.6201161868701
 30
0.0
 11
355.3399573476714
 21
307.8945161868699
 31
0.0
  0
LINE
  5
277
330
1A
100
AcDbEntity
  8
SEIHIN
  6
CONTINUOUS
 62
     3
 48
16.0
100
AcDbLine
 10
364.5683573476716
 20
307.894425919289
 30
0.0
 11
353.7361573476716
 21
307.8945161868699
 31
0.0
  0
LINE
  5
278
330
1A
100
AcDbEntity
  8
SEIHIN
  6
CONTINUOUS
 62
     3
 48
16.0
100
AcDbLine
 10
365.7362573476716
 20
297.89441618687
 30
0.0
 11
365.7362573476716
 21
309.3944161868699
 31
0.0
  0
LINE
  5
279
330
1A
100
AcDbEntity
  8
SEIHIN
  6
CONTINUOUS
 62
     3
 48
16.0
100
AcDbLine
 10
381.5058573476716
 20
310.8944161868701
 30
0.0
 11
382.4492573476714
 21
309.3944161868699
 31
0.0
  0
LINE
  5
27A
330
1A
100
AcDbEntity
  8
SEIHIN
  6
CONTINUOUS
 62
     3
 48
16.0
100
AcDbLine
 10
381.5058573476716
 20
307.8944161868701
 30
0.0
 11
381.5058573476716
 21
310.8944161868701
 31
0.0
  0
LINE
  5
27B
330
1A
100
AcDbEntity
  8
SEIHIN
  6
CONTINUOUS
 62
     3
 48
16.0
100
AcDbLine
 10
375.3781573476716
 20
307.8944161868701
 30
0.0
 11
381.8058573476716
 21
307.8944161868701
 31
0.0
  0
LINE
  5
27C
330
1A
100
AcDbEntity
  8
SEIHIN
  6
CONTINUOUS
 62
     3
 48
16.0
100
AcDbLine
 10
415.3855573476716
 20
297.8943161868701
 30
0.0
 11
415.3855573476716
 21
310.8943161868701
 31
0.0
  0
LINE
  5
27D
330
1A
100
AcDbEntity
  8
SEIHIN
  6
CONTINUOUS
 62
     3
 48
16.0
100
AcDbLine
 10
409.3859573476716
 20
297.8943161868701
 30
0.0
 11
409.3859573476716
 21
310.8943161868701
 31
0.0
  0
LINE
  5
27E
330
1A
100
AcDbEntity
  8
SEIHIN
  6
CONTINUOUS
 62
     3
 48
16.0
100
AcDbLine
 10
409.3859573476716
 20
307.8943161868701
 30
0.0
 11
412.3857573476716
 21
307.8943161868701
 31
0.0
  0
LINE
  5
27F
330
1A
100
AcDbEntity
  8
SEIHIN
  6
CONTINUOUS
 62
     3
 48
16.0
100
AcDbLine
 10
415.3855573476716
 20
307.8943161868701
 30
0.0
 11
412.3857573476716
 21
307.8943161868701
 31
0.0
  0
ARC
  5
280
330
1A
100
AcDbEntity
  8
SEIHIN
  6
CONTINUOUS
 62
     3
 48
16.0
100
AcDbCircle
 10
358.0068903054992
 20
421.8243298384492
 30
0.0
 40
0.5000329580139388
100
AcDbArc
 50
45.00156425264104
 51
180.0015642526372
  0
ARC
  5
281
330
1A
100
AcDbEntity
  8
SEIHIN
  6
CONTINUOUS
 62
     3
 48
16.0
100
AcDbCircle
 10
358.0069477576255
 20
421.8241122145428
 30
0.0
 40
1.999990409957984
100
AcDbArc
 50
44.99988620066181
 51
179.999886200662
  0
ARC
  5
282
330
1A
100
AcDbEntity
  8
SEIHIN
  6
CONTINUOUS
 62
     3
 48
16.0
100
AcDbCircle
 10
364.7364903054991
 20
415.0947298384493
 30
0.0
 40
0.5000329580139589
100
AcDbArc
 50
45.00156425262031
 51
180.0015642526242
  0
TEXT
  5
283
330
1A
100
AcDbEntity
  8
SUNPOU
 62
     4
100
AcDbText
 10
606.411571318531
 20
80.33466645775774
 30
0.0
 40
8.0
  1
※　のきといの差込み寸法を示す。
100
AcDbText
  0
TEXT
  5
284
330
1A
100
AcDbEntity
  8
ZUWAKU
 62
     7
100
AcDbText
 10
654.2531733678779
 20
15.90287984531518
 30
0.0
 40
8.0
  1
ＧＭ０５
100
AcDbText
  0
ARC
  5
288
330
1A
100
AcDbEntity
  8
SEIHIN
  6
CONTINUOUS
 62
     3
 48
16.0
100
AcDbCircle
 10
412.3857097523644
 20
208.5628273928745
 30
0.0
 40
47.59999232687332
100
AcDbArc
 50
321.0294758270688
 51
348.5068798481346
  0
ARC
  5
289
330
1A
100
AcDbEntity
  8
SEIHIN
  6
CONTINUOUS
 62
     3
 48
16.0
100
AcDbCircle
 10
412.3856549280018
 20
208.5627121547888
 30
0.0
 40
49.09996568074176
100
AcDbArc
 50
310.161590138985
 51
347.9021103153973
  0
ARC
  5
28A
330
1A
100
AcDbEntity
  8
SEIHIN
  6
CONTINUOUS
 62
     3
 48
16.0
100
AcDbCircle
 10
441.8526514955471
 20
170.5454658024763
 30
0.0
 40
0.9999692219994479
100
AcDbArc
 50
307.7795293298573
 51
38.97415286689941
  0
ARC
  5
28B
330
1A
100
AcDbEntity
  8
SEIHIN
  6
CONTINUOUS
 62
     3
 48
16.0
100
AcDbCircle
 10
443.4075685782418
 20
171.8034151187723
 30
0.0
 40
1.000081681662733
100
AcDbArc
 50
218.9725179178344
 51
310.160883884857
  0
LINE
  5
28C
330
1A
100
AcDbEntity
  8
SEIHIN
  6
CONTINUOUS
 62
     3
 48
16.0
100
AcDbLine
 10
442.3221573476716
 20
171.55511618687
 30
0.0
 11
442.6300573476715
 21
171.17441618687
 31
0.0
  0
LINE
  5
28D
330
1A
100
AcDbEntity
  8
SEIHIN
  6
CONTINUOUS
 62
     3
 48
16.0
100
AcDbLine
 10
449.7738573476716
 20
178.31821618687
 30
0.0
 11
449.3932573476716
 21
178.6261161868701
 31
0.0
  0
ARC
  5
28E
330
1A
100
AcDbEntity
  8
SEIHIN
  6
CONTINUOUS
 62
     3
 48
16.0
100
AcDbCircle
 10
450.402753684027
 20
179.0957157612226
 30
0.0
 40
1.000008094967093
100
AcDbArc
 50
231.0316320692658
 51
322.2226520718929
  0
ARC
  5
28F
330
1A
100
AcDbEntity
  8
SEIHIN
  6
CONTINUOUS
 62
     3
 48
16.0
100
AcDbCircle
 10
449.1449532436786
 20
177.5407593180073
 30
0.0
 40
0.9999797772760061
100
AcDbArc
 50
319.8376103807159
 51
51.02974720656454
  0
ARC
  5
290
330
1A
100
AcDbEntity
  8
NOKITOI
  6
CONTINUOUS
 62
     8
 48
5.0
100
AcDbCircle
 10
465.1470738676406
 20
203.5626281871087
 30
0.0
 40
3.999958
100
AcDbArc
 50
121.784767
 51
174.584588
  0
CIRCLE
  5
291
330
1A
100
AcDbEntity
  8
NOKITOI
  6
CONTINUOUS
 62
     8
 48
5.0
100
AcDbCircle
 10
465.1470738676406
 20
203.5626281871087
 30
0.0
 40
2.7
  0
ARC
  5
292
330
1A
100
AcDbEntity
  8
NOKITOI
  6
CONTINUOUS
 62
     8
 48
5.0
100
AcDbCircle
 10
465.1470738676406
 20
203.5626281871087
 30
0.0
 40
3.999994
100
AcDbArc
 50
220.269583
 51
121.7840119999999
  0
LINE
  5
293
330
1A
100
AcDbEntity
  8
SEIHIN
  6
CONTINUOUS
 62
     3
 48
16.0
100
AcDbLine
 10
471.0352573476714
 20
203.5626161868701
 30
0.0
 11
471.0352573476714
 21
208.5626161868701
 31
0.0
  0
ARC
  5
294
330
1A
100
AcDbEntity
  8
SEIHIN
  6
CONTINUOUS
 62
     3
 48
16.0
100
AcDbCircle
 10
465.0352573476716
 20
203.86261618687
 30
0.0
 40
4.5
100
AcDbArc
 50
0.0
 51
180.0
  0
ARC
  5
295
330
1A
100
AcDbEntity
  8
SEIHIN
  6
CONTINUOUS
 62
     3
 48
16.0
100
AcDbCircle
 10
465.0352573476714
 20
203.86261618687
 30
0.0
 40
6.0
100
AcDbArc
 50
0.0
 51
180.0
  0
ARC
  5
296
330
1A
100
AcDbEntity
  8
SEIHIN
  6
CONTINUOUS
 62
     3
 48
16.0
100
AcDbCircle
 10
465.0352573476716
 20
203.5626161868701
 30
0.0
 40
4.5
100
AcDbArc
 50
270.0
 51
0.0
  0
ARC
  5
297
330
1A
100
AcDbEntity
  8
SEIHIN
  6
CONTINUOUS
 62
     3
 48
16.0
100
AcDbCircle
 10
465.0352573476715
 20
203.56261618687
 30
0.0
 40
5.999999999999914
100
AcDbArc
 50
270.0000000000008
 51
0.0000000000008142
  0
ARC
  5
298
330
1A
100
AcDbEntity
  8
SEIHIN
  6
CONTINUOUS
 62
     3
 48
16.0
100
AcDbCircle
 10
461.3730100968615
 20
198.0626588261883
 30
0.0
 40
0.9999573620731025
100
AcDbArc
 50
90.00302243483094
 51
167.9030626900643
  0
LINE
  5
299
330
1A
100
AcDbEntity
  8
SEIHIN
  6
CONTINUOUS
 62
     3
 48
16.0
100
AcDbLine
 10
459.0352573476714
 20
203.86261618687
 30
0.0
 11
459.0352573476714
 21
199.1183161868701
 31
0.0
  0
ARC
  5
29A
330
1A
100
AcDbEntity
  8
SEIHIN
  6
CONTINUOUS
 62
     3
 48
16.0
100
AcDbCircle
 10
458.8352572976715
 20
199.1183156893824
 30
0.0
 40
0.2000000500005608
100
AcDbArc
 50
348.5216604842579
 51
0.0001425196771842
  0
ARC
  5
29B
330
1A
100
AcDbEntity
  8
SEIHIN
  6
CONTINUOUS
 62
     3
 48
16.0
100
AcDbCircle
 10
463.0848082002255
 20
196.5626161868701
 30
0.0
 40
1.0
100
AcDbArc
 50
89.99999999999674
 51
166.6836195874051
  0
LINE
  5
29C
330
1A
100
AcDbEntity
  8
SEIHIN
  6
CONTINUOUS
 62
     3
 48
16.0
100
AcDbLine
 10
465.0352573476716
 20
197.5626161868701
 30
0.0
 11
463.0848082002255
 21
197.5626161868701
 31
0.0
  0
LINE
  5
29D
330
1A
100
AcDbEntity
  8
SEIHIN
  6
CONTINUOUS
 62
     3
 48
16.0
100
AcDbLine
 10
465.0352573476716
 20
199.0626161868701
 30
0.0
 11
461.3729573476715
 21
199.0626161868701
 31
0.0
  0
ARC
  5
29E
330
1A
100
AcDbEntity
  8
SEIHIN
  6
CONTINUOUS
 62
     3
 48
16.0
100
AcDbCircle
 10
463.8039725564724
 20
196.5626282545155
 30
0.0
 40
0.9999879324701696
100
AcDbArc
 50
90.00087141061248
 51
166.8623852371764
  0
ARC
  5
29F
330
1A
100
AcDbEntity
  8
SEIHIN
  6
CONTINUOUS
 62
     3
 48
16.0
100
AcDbCircle
 10
462.5995722616841
 20
198.0626283045169
 30
0.0
 40
0.9999878824643541
100
AcDbArc
 50
90.00085452032797
 51
168.1886262195348
  0
LINE
  5
2A0
330
1A
100
AcDbEntity
  8
SEIHIN
  6
CONTINUOUS
 62
     3
 48
16.0
100
AcDbLine
 10
460.5352573476716
 20
203.86261618687
 30
0.0
 11
460.5352573476716
 21
198.6087161868701
 31
0.0
  0
LINE
  5
2A1
330
1A
100
AcDbEntity
  8
SEIHIN
  6
CONTINUOUS
 62
     3
 48
16.0
100
AcDbLine
 10
469.5352573476716
 20
203.86261618687
 30
0.0
 11
469.5352573476716
 21
203.5626161868701
 31
0.0
  0
ARC
  5
2A2
330
1A
100
AcDbEntity
  8
SEIHIN
  6
CONTINUOUS
 62
     3
 48
16.0
100
AcDbCircle
 10
461.9530310835002
 20
208.1126525422873
 30
0.0
 40
0.7500011819913651
100
AcDbArc
 50
125.7392505938059
 51
305.9515381497347
  0
LINE
  5
2A3
330
1A
100
AcDbEntity
  8
SEIHIN
  6
CONTINUOUS
 62
     3
 48
16.0
100
AcDbLine
 10
468.7648573476714
 20
208.5626161868701
 30
0.0
 11
471.0352573476714
 21
208.5626161868701
 31
0.0
  0
LINE
  5
2A4
330
1A
100
AcDbEntity
  8
SEIHIN
  6
CONTINUOUS
 62
     3
 48
16.0
100
AcDbLine
 10
461.2031573476714
 20
309.3943161868701
 30
0.0
 11
449.3934573476714
 21
309.3943161868701
 31
0.0
  0
LINE
  5
2A5
330
1A
100
AcDbEntity
  8
SEIHIN
  6
CONTINUOUS
 62
     3
 48
16.0
100
AcDbLine
 10
460.5353573476715
 20
310.89421618687
 30
0.0
 11
449.3934573476714
 21
310.8943161868701
 31
0.0
  0
LINE
  5
2A6
330
1A
100
AcDbEntity
  8
SEIHIN
  6
CONTINUOUS
 62
     3
 48
16.0
100
AcDbLine
 10
460.2031573476715
 20
297.8943161868701
 30
0.0
 11
449.3933573476715
 21
297.8943161868701
 31
0.0
  0
LINE
  5
2A7
330
1A
100
AcDbEntity
  8
SEIHIN
  6
CONTINUOUS
 62
     3
 48
16.0
100
AcDbLine
 10
449.3933573476715
 20
297.8943161868701
 30
0.0
 11
449.3934573476714
 21
310.8943161868701
 31
0.0
  0
LINE
  5
2A8
330
1A
100
AcDbEntity
  8
SEIHIN
  6
CONTINUOUS
 62
     3
 48
16.0
100
AcDbLine
 10
442.9656531984108
 20
298.9171524982002
 30
0.0
 11
442.3223573476716
 21
297.8943161868701
 31
0.0
  0
LINE
  5
2A9
330
1A
100
AcDbEntity
  8
SEIHIN
  6
CONTINUOUS
 62
     3
 48
16.0
100
AcDbLine
 10
442.3223573476716
 20
297.8943161868701
 30
0.0
 11
442.3223573476716
 21
309.3943161868701
 31
0.0
  0
LINE
  5
2AA
330
1A
100
AcDbEntity
  8
SEIHIN
  6
CONTINUOUS
 62
     3
 48
16.0
100
AcDbLine
 10
443.2657573476716
 20
310.8943161868701
 30
0.0
 11
442.3223573476716
 21
309.3943161868701
 31
0.0
  0
LINE
  5
2AB
330
1A
100
AcDbEntity
  8
SEIHIN
  6
CONTINUOUS
 62
     3
 48
16.0
100
AcDbLine
 10
443.2657312607151
 20
307.8943161868701
 30
0.0
 11
443.2657573476716
 21
310.8943161868701
 31
0.0
  0
LINE
  5
2AC
330
1A
100
AcDbEntity
  8
SEIHIN
  6
CONTINUOUS
 62
     3
 48
16.0
100
AcDbLine
 10
449.3934573476714
 20
307.8943161868701
 30
0.0
 11
442.9657312607038
 21
307.8943161868701
 31
0.0
  0
LINE
  5
2AD
330
1A
100
AcDbEntity
  8
SEIHIN
  6
CONTINUOUS
 62
     3
 48
16.0
100
AcDbLine
 10
471.0353573476715
 20
287.89421618687
 30
0.0
 11
471.0353573476715
 21
307.89421618687
 31
0.0
  0
LINE
  5
2AE
330
1A
100
AcDbEntity
  8
SEIHIN
  6
CONTINUOUS
 62
     3
 48
16.0
100
AcDbLine
 10
461.2031573476714
 20
287.89421618687
 30
0.0
 11
461.2031573476714
 21
309.3943161868701
 31
0.0
  0
LINE
  5
2AF
330
1A
100
AcDbEntity
  8
SEIHIN
  6
CONTINUOUS
 62
     3
 48
16.0
100
AcDbLine
 10
467.4761573476714
 20
313.0617161868701
 30
0.0
 11
469.4315573476716
 21
307.8943161868701
 31
0.0
  0
LINE
  5
2B0
330
1A
100
AcDbEntity
  8
SEIHIN
  6
CONTINUOUS
 62
     3
 48
16.0
100
AcDbLine
 10
460.2031573476715
 20
307.8943064552034
 30
0.0
 11
471.0353573476715
 21
307.89421618687
 31
0.0
  0
LINE
  5
2B1
330
1A
100
AcDbEntity
  8
SEIHIN
  6
CONTINUOUS
 62
     3
 48
16.0
100
AcDbLine
 10
459.0353573476715
 20
309.3943161868701
 30
0.0
 11
460.5353573476715
 21
310.89421618687
 31
0.0
  0
LINE
  5
2B2
330
1A
100
AcDbEntity
  8
SEIHIN
  6
CONTINUOUS
 62
     3
 48
16.0
100
AcDbLine
 10
459.0353573476715
 20
297.8943161868701
 30
0.0
 11
459.0353573476715
 21
309.3943161868701
 31
0.0
  0
LINE
  5
2B3
330
1A
100
AcDbEntity
  8
SEIHIN
  6
CONTINUOUS
 62
     3
 48
16.0
100
AcDbLine
 10
460.5353573476715
 20
310.89421618687
 30
0.0
 11
460.5353573476715
 21
320.0025161868701
 31
0.0
  0
LINE
  5
2B4
330
1A
100
AcDbEntity
  8
SEIHIN
  6
CONTINUOUS
 62
     3
 48
16.0
100
AcDbLine
 10
468.7648573476714
 20
313.8943161868701
 30
0.0
 11
471.0353573476715
 21
307.89421618687
 31
0.0
  0
LINE
  5
330
330
1A
100
AcDbEntity
  8
ZUWAKU
100
AcDbLine
 10
363.5682847938343
 20
287.8944826585
 30
0.0
 11
363.5682847938343
 21
297.89441618687
 31
0.0
  0
LINE
  5
331
330
1A
100
AcDbEntity
  8
SEIHIN
  6
CONTINUOUS
 62
     3
100
AcDbLine
 10
460.5353573476715
 20
310.89421618687
 30
0.0
 11
461.2031573476714
 21
309.3943161868701
 31
0.0
  0
LINE
  5
333
330
1A
100
AcDbEntity
  8
SEIHIN
  6
CONTINUOUS
 62
     3
 48
16.0
100
AcDbLine
 10
442.2656573477094
 20
299.3943248825223
 30
0.0
 11
442.2657573477094
 21
310.8943248825223
 31
0.0
  0
LINE
  5
334
330
1A
100
AcDbEntity
  8
SEIHIN
  6
CONTINUOUS
 62
     3
 48
16.0
100
AcDbLine
 10
442.9656531984108
 20
298.9171524982001
 30
0.0
 11
442.9657312607038
 21
307.8943161868701
 31
0.0
  0
LINE
  5
335
330
1A
100
AcDbEntity
  8
SEIHIN
  6
CONTINUOUS
 62
     3
 48
16.0
100
AcDbLine
 10
381.8058573476716
 20
298.9173675279069
 30
0.0
 11
381.8058573476716
 21
307.8944161868701
 31
0.0
  0
LINE
  5
336
330
1A
100
AcDbEntity
  8
SEIHIN
100
AcDbLine
 10
363.5683573476716
 20
287.8944826582525
 30
0.0
 11
363.5683573476716
 21
309.3944161868699
 31
0.0
  0
LINE
  5
337
330
1A
100
AcDbEntity
  8
SEIHIN
100
AcDbLine
 10
364.2362573476716
 20
310.8944161868701
 30
0.0
 11
363.5683573476716
 21
309.3944161868699
 31
0.0
  0
LINE
  5
346
330
1A
100
AcDbEntity
  8
SEIHIN
100
AcDbLine
 10
364.5683573476716
 20
297.89441618687
 30
0.0
 11
364.5683573476716
 21
307.894425919289
 31
0.0
  0
LINE
  5
347
330
1A
100
AcDbEntity
  8
SEIHIN
  6
CONTINUOUS
 62
     3
 48
16.0
100
AcDbLine
 10
460.2031573476715
 20
297.8943161868701
 30
0.0
 11
460.2031573476715
 21
307.8943064552034
 31
0.0
  0
VIEWPORT
  5
22
330
17
100
AcDbEntity
 67
     1
  8
0
100
AcDbViewport
 10
313.6808219178082
 20
148.5
 30
0.0
 40
627.3616438356165
 41
297.0
 68
     2
 69
     1
1001
ACAD
1000
MVIEW
1002
{
1070
    16
1010
0.0
1020
0.0
1030
0.0
1010
0.0
1020
0.0
1030
1.0
1040
0.0
1040
297.0
1040
313.6808219178082
1040
148.5
1040
50.0
1040
0.0
1040
0.0
1070
     0
1070
   100
1070
     1
1070
     0
1070
     0
1070
     0
1070
     0
1070
     0
1040
0.0
1040
0.0
1040
0.0
1040
1.0
1040
1.0
1040
10.0
1040
10.0
1070
     0
1002
{
1002
}
1002
}
  0
VIEWPORT
  5
64
330
17
100
AcDbEntity
 67
     1
  8
VIEWPORT
100
AcDbViewport
 10
210.0
 20
148.5
 30
0.0
 40
420.0
 41
297.0
 68
     1
 69
     2
1001
ACAD
1000
MVIEW
1002
{
1070
    16
1010
0.0
1020
0.0
1030
0.0
1010
0.0
1020
0.0
1030
1.0
1040
0.0
1040
605.8799999999998
1040
420.0
1040
297.0
1040
50.0
1040
0.0
1040
0.0
1070
     0
1070
   100
1070
     1
1070
     0
1070
     0
1070
     0
1070
     0
1070
     0
1040
0.0
1040
0.0
1040
0.0
1040
10.0
1040
10.0
1040
0.0
1040
0.0
1070
     0
1002
{
1002
}
1002
}
  0
ENDSEC
  0
SECTION
  2
OBJECTS
  0
DICTIONARY
  5
C
330
0
100
AcDbDictionary
  3
ACAD_GROUP
350
D
  3
ACAD_LAYOUT
350
356
  3
ACAD_MLINESTYLE
350
E
  3
ACAD_PLOTSETTINGS
350
357
1001
ACAD
1000
TREAT_AS_HARD
1070
     0
  0
DICTIONARY
  5
385
330
1A
100
AcDbDictionary
  3
ACAD_LAYOUTSELFREF
350
39F
1001
ACAD
1000
TREAT_AS_HARD
1070
     1
  0
DICTIONARY
  5
383
330
17
100
AcDbDictionary
  3
ACAD_LAYOUTSELFREF
350
39E
1001
ACAD
1000
TREAT_AS_HARD
1070
     1
  0
DICTIONARY
  5
D
102
{ACAD_REACTORS
330
C
102
}
330
C
100
AcDbDictionary
1001
ACAD
1000
TREAT_AS_HARD
1070
     0
  0
DICTIONARY
  5
356
102
{ACAD_REACTORS
330
C
102
}
330
C
100
AcDbDictionary
1001
ACAD
1000
TREAT_AS_HARD
1070
     0
  0
DICTIONARY
  5
E
102
{ACAD_REACTORS
330
C
102
}
330
C
100
AcDbDictionary
  3
STANDARD
350
13
1001
ACAD
1000
TREAT_AS_HARD
1070
     0
  0
DICTIONARY
  5
357
102
{ACAD_REACTORS
330
C
102
}
330
C
100
AcDbDictionary
1001
ACAD
1000
TREAT_AS_HARD
1070
     0
  0
XRECORD
  5
39F
102
{ACAD_REACTORS
330
385
102
}
330
385
100
AcDbXrecord
340
1A
  0
XRECORD
  5
39E
102
{ACAD_REACTORS
330
383
102
}
330
383
100
AcDbXrecord
340
17
  0
MLINESTYLE
  5
13
102
{ACAD_REACTORS
330
E
102
}
330
E
100
AcDbMlineStyle
  2
STANDARD
 70
     0
  3

 62
     0
 51
90.0
 52
90.0
 71
     2
 49
0.5
 62
   256
  6
BYLAYER
 49
-0.5
 62
   256
  6
BYLAYER
  0
ENDSEC
  0
EOF
