  0
SECTION
  2
HEADER
  9
$ACADVER
  1
AC1012
  9
$DWGCODEPAGE
  3
dos932
  9
$INSBASE
 10
0.0
 20
0.0
 30
0.0
  9
$EXTMIN
 10
-0.0308963288027826
 20
-0.0120761935355631
 30
-0.00000000000001
  9
$EXTMAX
 10
398.8311820420585
 20
275.8224023989271
 30
0.0000000000000053
  9
$LIMMIN
 10
0.0
 20
0.0
  9
$LIMMAX
 10
420.0
 20
297.0
  9
$ORTHOMODE
 70
     1
  9
$REGENMODE
 70
     1
  9
$FILLMODE
 70
     1
  9
$QTEXTMODE
 70
     0
  9
$MIRRTEXT
 70
     1
  9
$DRAGMODE
 70
     2
  9
$LTSCALE
 40
1.0
  9
$OSMODE
 70
    63
  9
$ATTMODE
 70
     1
  9
$TEXTSIZE
 40
2.5
  9
$TRACEWID
 40
1.0
  9
$TEXTSTYLE
  7
STANDARD
  9
$CLAYER
  8
0
  9
$CELTYPE
  6
BYLAYER
  9
$CECOLOR
 62
   256
  9
$CELTSCALE
 40
1.0
  9
$DELOBJ
 70
     1
  9
$DISPSILH
 70
     0
  9
$DIMSCALE
 40
1.0
  9
$DIMASZ
 40
3.0
  9
$DIMEXO
 40
3.0
  9
$DIMDLI
 40
7.0
  9
$DIMRND
 40
0.0
  9
$DIMDLE
 40
0.0
  9
$DIMEXE
 40
1.5
  9
$DIMTP
 40
0.0
  9
$DIMTM
 40
0.0
  9
$DIMTXT
 40
3.0
  9
$DIMCEN
 40
150.0
  9
$DIMTSZ
 40
0.0
  9
$DIMTOL
 70
     0
  9
$DIMLIM
 70
     0
  9
$DIMTIH
 70
     0
  9
$DIMTOH
 70
     0
  9
$DIMSE1
 70
     0
  9
$DIMSE2
 70
     0
  9
$DIMTAD
 70
     3
  9
$DIMZIN
 70
     0
  9
$DIMBLK
  1

  9
$DIMASO
 70
     1
  9
$DIMSHO
 70
     1
  9
$DIMPOST
  1

  9
$DIMAPOST
  1

  9
$DIMALT
 70
     0
  9
$DIMALTD
 70
     2
  9
$DIMALTF
 40
25.4
  9
$DIMLFAC
 40
1.0
  9
$DIMTOFL
 70
     1
  9
$DIMTVP
 40
0.0
  9
$DIMTIX
 70
     0
  9
$DIMSOXD
 70
     0
  9
$DIMSAH
 70
     1
  9
$DIMBLK1
  1
OPEN
  9
$DIMBLK2
  1
OPEN
  9
$DIMSTYLE
  2
STANDARD
  9
$DIMCLRD
 70
   256
  9
$DIMCLRE
 70
   256
  9
$DIMCLRT
 70
   256
  9
$DIMTFAC
 40
1.0
  9
$DIMGAP
 40
1.0
  9
$DIMJUST
 70
     0
  9
$DIMSD1
 70
     0
  9
$DIMSD2
 70
     0
  9
$DIMTOLJ
 70
     1
  9
$DIMTZIN
 70
     0
  9
$DIMALTZ
 70
     0
  9
$DIMALTTZ
 70
     0
  9
$DIMFIT
 70
     3
  9
$DIMUPT
 70
     0
  9
$DIMUNIT
 70
     2
  9
$DIMDEC
 70
     0
  9
$DIMTDEC
 70
     0
  9
$DIMALTU
 70
     2
  9
$DIMALTTD
 70
     2
  9
$DIMTXSTY
  7
STANDARD
  9
$DIMAUNIT
 70
     0
  9
$LUNITS
 70
     2
  9
$LUPREC
 70
     4
  9
$SKETCHINC
 40
1.0
  9
$FILLETRAD
 40
10.0
  9
$AUNITS
 70
     0
  9
$AUPREC
 70
     0
  9
$MENU
  1
.
  9
$ELEVATION
 40
0.0
  9
$PELEVATION
 40
0.0
  9
$THICKNESS
 40
0.0
  9
$LIMCHECK
 70
     0
  9
$BLIPMODE
 70
     0
  9
$CHAMFERA
 40
10.0
  9
$CHAMFERB
 40
10.0
  9
$CHAMFERC
 40
20.0
  9
$CHAMFERD
 40
0.0
  9
$SKPOLY
 70
     0
  9
$TDCREATE
 40
2451070.734084838
  9
$TDUPDATE
 40
2455415.615898727
  9
$TDINDWG
 40
0.2350518287
  9
$TDUSRTIMER
 40
0.2350518287
  9
$USRTIMER
 70
     1
  9
$ANGBASE
 50
0.0
  9
$ANGDIR
 70
     0
  9
$PDMODE
 70
     0
  9
$PDSIZE
 40
0.0
  9
$PLINEWID
 40
0.0
  9
$COORDS
 70
     0
  9
$SPLFRAME
 70
     0
  9
$SPLINETYPE
 70
     6
  9
$SPLINESEGS
 70
     8
  9
$ATTDIA
 70
     0
  9
$ATTREQ
 70
     1
  9
$HANDLING
 70
 10241
  9
$HANDSEED
  5
6422
  9
$SURFTAB1
 70
     6
  9
$SURFTAB2
 70
     6
  9
$SURFTYPE
 70
     6
  9
$SURFU
 70
     6
  9
$SURFV
 70
     6
  9
$UCSNAME
  2

  9
$UCSORG
 10
0.0
 20
0.0
 30
0.0
  9
$UCSXDIR
 10
1.0
 20
0.0
 30
0.0
  9
$UCSYDIR
 10
0.0
 20
1.0
 30
0.0
  9
$PUCSNAME
  2

  9
$PUCSORG
 10
0.0
 20
0.0
 30
0.0
  9
$PUCSXDIR
 10
1.0
 20
0.0
 30
0.0
  9
$PUCSYDIR
 10
0.0
 20
1.0
 30
0.0
  9
$USERI1
 70
     0
  9
$USERI2
 70
     0
  9
$USERI3
 70
     0
  9
$USERI4
 70
     0
  9
$USERI5
 70
     0
  9
$USERR1
 40
0.0
  9
$USERR2
 40
0.0
  9
$USERR3
 40
0.0
  9
$USERR4
 40
0.0
  9
$USERR5
 40
0.0
  9
$WORLDVIEW
 70
     1
  9
$SHADEDGE
 70
     3
  9
$SHADEDIF
 70
    70
  9
$TILEMODE
 70
     1
  9
$MAXACTVP
 70
    16
  9
$PINSBASE
 10
0.0
 20
0.0
 30
0.0
  9
$PLIMCHECK
 70
     0
  9
$PEXTMIN
 10
0.0
 20
0.0
 30
0.0
  9
$PEXTMAX
 10
420.0
 20
297.0
 30
0.0
  9
$PLIMMIN
 10
0.0
 20
0.0
  9
$PLIMMAX
 10
420.0
 20
297.0
  9
$UNITMODE
 70
     0
  9
$VISRETAIN
 70
     0
  9
$PLINEGEN
 70
     0
  9
$PSLTSCALE
 70
     1
  9
$TREEDEPTH
 70
  3020
  9
$PICKSTYLE
 70
     1
  9
$CMLSTYLE
  2
STANDARD
  9
$CMLJUST
 70
     0
  9
$CMLSCALE
 40
1.0
  9
$SAVEIMAGES
 70
     1
  0
ENDSEC
  0
SECTION
  2
CLASSES
  0
CLASS
  1
ACDBDICTIONARYWDFLT
  2
AcDbDictionaryWithDefault
  3
AutoCAD 2000
 90
    32768
280
     0
281
     0
  0
CLASS
  1
ACDBPLACEHOLDER
  2
AcDbPlaceHolder
  3
AutoCAD 2000
 90
    32768
280
     0
281
     0
  0
CLASS
  1
LAYOUT
  2
AcDbLayout
  3
AutoCAD 2000
 90
    32768
280
     0
281
     0
  0
CLASS
  1
LONG_TRANSACTION
  2
AcDbLongTransaction
  3
AutoCAD 2000
 90
    32768
280
     0
281
     0
  0
CLASS
  1
LWPOLYLINE
  2
AcDbPolyline
  3
AutoCAD 2000
 90
    32768
280
     0
281
     1
  0
CLASS
  1
HATCH
  2
AcDbHatch
  3
AutoCAD 2000
 90
    32768
280
     0
281
     1
  0
CLASS
  1
XRECORD
  2
AcDbXrecord
  3
AutoCAD 2000
 90
    32768
280
     0
281
     0
  0
CLASS
  1
LONG_TRANSACTION
  2
AcDbLongTransaction
  3
AutoCAD 2000
 90
    32768
280
     0
281
     0
  0
CLASS
  1
LWPOLYLINE
  2
AcDbPolyline
  3
AutoCAD 2000
 90
    32768
280
     0
281
     1
  0
CLASS
  1
HATCH
  2
AcDbHatch
  3
AutoCAD 2000
 90
    32768
280
     0
281
     1
  0
CLASS
  1
XRECORD
  2
AcDbXrecord
  3
AutoCAD 2000
 90
    32768
280
     0
281
     0
  0
CLASS
  1
LONG_TRANSACTION
  2
AcDbLongTransaction
  3
AutoCAD 2000
 90
    32768
280
     0
281
     0
  0
CLASS
  1
LWPOLYLINE
  2
AcDbPolyline
  3
AutoCAD 2000
 90
    32768
280
     0
281
     1
  0
CLASS
  1
HATCH
  2
AcDbHatch
  3
AutoCAD 2000
 90
    32768
280
     0
281
     1
  0
CLASS
  1
XRECORD
  2
AcDbXrecord
  3
AutoCAD 2000
 90
    32768
280
     0
281
     0
  0
CLASS
  1
LONG_TRANSACTION
  2
AcDbLongTransaction
  3
AutoCAD 2000
 90
    32768
280
     0
281
     0
  0
CLASS
  1
LWPOLYLINE
  2
AcDbPolyline
  3
AutoCAD 2000
 90
    32768
280
     0
281
     1
  0
CLASS
  1
HATCH
  2
AcDbHatch
  3
AutoCAD 2000
 90
    32768
280
     0
281
     1
  0
CLASS
  1
XRECORD
  2
AcDbXrecord
  3
AutoCAD 2000
 90
    32768
280
     0
281
     0
  0
CLASS
  1
LONG_TRANSACTION
  2
AcDbLongTransaction
  3
AutoCAD 2000
 90
    32768
280
     0
281
     0
  0
CLASS
  1
LWPOLYLINE
  2
AcDbPolyline
  3
AutoCAD 2000
 90
    32768
280
     0
281
     1
  0
CLASS
  1
HATCH
  2
AcDbHatch
  3
AutoCAD 2000
 90
    32768
280
     0
281
     1
  0
CLASS
  1
XRECORD
  2
AcDbXrecord
  3
AutoCAD 2000
 90
    32768
280
     0
281
     0
  0
CLASS
  1
LONG_TRANSACTION
  2
AcDbLongTransaction
  3
AutoCAD 2000
 90
    32768
280
     0
281
     0
  0
CLASS
  1
LWPOLYLINE
  2
AcDbPolyline
  3
AutoCAD 2000
 90
    32768
280
     0
281
     1
  0
CLASS
  1
HATCH
  2
AcDbHatch
  3
AutoCAD 2000
 90
    32768
280
     0
281
     1
  0
CLASS
  1
XRECORD
  2
AcDbXrecord
  3
AutoCAD 2000
 90
    32768
280
     0
281
     0
  0
CLASS
  1
LONG_TRANSACTION
  2
AcDbLongTransaction
  3
AutoCAD 2000
 90
    32768
280
     0
281
     0
  0
CLASS
  1
LWPOLYLINE
  2
AcDbPolyline
  3
AutoCAD 2000
 90
    32768
280
     0
281
     1
  0
CLASS
  1
HATCH
  2
AcDbHatch
  3
AutoCAD 2000
 90
    32768
280
     0
281
     1
  0
CLASS
  1
XRECORD
  2
AcDbXrecord
  3
AutoCAD 2000
 90
    32768
280
     0
281
     0
  0
CLASS
  1
LONG_TRANSACTION
  2
AcDbLongTransaction
  3
AutoCAD 2000
 90
    32768
280
     0
281
     0
  0
CLASS
  1
LWPOLYLINE
  2
AcDbPolyline
  3
AutoCAD 2000
 90
    32768
280
     0
281
     1
  0
CLASS
  1
HATCH
  2
AcDbHatch
  3
AutoCAD 2000
 90
    32768
280
     0
281
     1
  0
CLASS
  1
XRECORD
  2
AcDbXrecord
  3
AutoCAD 2000
 90
    32768
280
     0
281
     0
  0
CLASS
  1
LONG_TRANSACTION
  2
AcDbLongTransaction
  3
AutoCAD 2000
 90
    32768
280
     0
281
     0
  0
CLASS
  1
LWPOLYLINE
  2
AcDbPolyline
  3
AutoCAD 2000
 90
    32768
280
     0
281
     1
  0
CLASS
  1
HATCH
  2
AcDbHatch
  3
AutoCAD 2000
 90
    32768
280
     0
281
     1
  0
CLASS
  1
XRECORD
  2
AcDbXrecord
  3
AutoCAD 2000
 90
    32768
280
     0
281
     0
  0
CLASS
  1
LONG_TRANSACTION
  2
AcDbLongTransaction
  3
AutoCAD 2000
 90
    32768
280
     0
281
     0
  0
CLASS
  1
LWPOLYLINE
  2
AcDbPolyline
  3
AutoCAD 2000
 90
    32768
280
     0
281
     1
  0
CLASS
  1
HATCH
  2
AcDbHatch
  3
AutoCAD 2000
 90
    32768
280
     0
281
     1
  0
CLASS
  1
XRECORD
  2
AcDbXrecord
  3
AutoCAD 2000
 90
    32768
280
     0
281
     0
  0
CLASS
  1
LONG_TRANSACTION
  2
AcDbLongTransaction
  3
AutoCAD 2000
 90
    32768
280
     0
281
     0
  0
CLASS
  1
LWPOLYLINE
  2
AcDbPolyline
  3
AutoCAD 2000
 90
    32768
280
     0
281
     1
  0
CLASS
  1
HATCH
  2
AcDbHatch
  3
AutoCAD 2000
 90
    32768
280
     0
281
     1
  0
CLASS
  1
XRECORD
  2
AcDbXrecord
  3
AutoCAD 2000
 90
    32768
280
     0
281
     0
  0
CLASS
  1
LONG_TRANSACTION
  2
AcDbLongTransaction
  3
AutoCAD 2000
 90
    32768
280
     0
281
     0
  0
CLASS
  1
LWPOLYLINE
  2
AcDbPolyline
  3
AutoCAD 2000
 90
    32768
280
     0
281
     1
  0
CLASS
  1
HATCH
  2
AcDbHatch
  3
AutoCAD 2000
 90
    32768
280
     0
281
     1
  0
CLASS
  1
XRECORD
  2
AcDbXrecord
  3
AutoCAD 2000
 90
    32768
280
     0
281
     0
  0
CLASS
  1
LONG_TRANSACTION
  2
AcDbLongTransaction
  3
AutoCAD 2000
 90
    32768
280
     0
281
     0
  0
CLASS
  1
LWPOLYLINE
  2
AcDbPolyline
  3
AutoCAD 2000
 90
    32768
280
     0
281
     1
  0
CLASS
  1
HATCH
  2
AcDbHatch
  3
AutoCAD 2000
 90
    32768
280
     0
281
     1
  0
CLASS
  1
XRECORD
  2
AcDbXrecord
  3
AutoCAD 2000
 90
    32768
280
     0
281
     0
  0
CLASS
  1
LONG_TRANSACTION
  2
AcDbLongTransaction
  3
AutoCAD 2000
 90
    32768
280
     0
281
     0
  0
CLASS
  1
LWPOLYLINE
  2
AcDbPolyline
  3
AutoCAD 2000
 90
    32768
280
     0
281
     1
  0
CLASS
  1
HATCH
  2
AcDbHatch
  3
AutoCAD 2000
 90
    32768
280
     0
281
     1
  0
CLASS
  1
XRECORD
  2
AcDbXrecord
  3
AutoCAD 2000
 90
    32768
280
     0
281
     0
  0
CLASS
  1
LONG_TRANSACTION
  2
AcDbLongTransaction
  3
AutoCAD 2000
 90
    32768
280
     0
281
     0
  0
CLASS
  1
LWPOLYLINE
  2
AcDbPolyline
  3
AutoCAD 2000
 90
    32768
280
     0
281
     1
  0
CLASS
  1
HATCH
  2
AcDbHatch
  3
AutoCAD 2000
 90
    32768
280
     0
281
     1
  0
CLASS
  1
XRECORD
  2
AcDbXrecord
  3
AutoCAD 2000
 90
    32768
280
     0
281
     0
  0
CLASS
  1
LONG_TRANSACTION
  2
AcDbLongTransaction
  3
AutoCAD 2000
 90
    32768
280
     0
281
     0
  0
CLASS
  1
LWPOLYLINE
  2
AcDbPolyline
  3
AutoCAD 2000
 90
    32768
280
     0
281
     1
  0
CLASS
  1
HATCH
  2
AcDbHatch
  3
AutoCAD 2000
 90
    32768
280
     0
281
     1
  0
CLASS
  1
XRECORD
  2
AcDbXrecord
  3
AutoCAD 2000
 90
    32768
280
     0
281
     0
  0
ENDSEC
  0
SECTION
  2
TABLES
  0
TABLE
  2
VPORT
  5
8
330
0
100
AcDbSymbolTable
 70
     5
  0
VPORT
  5
6406
330
8
100
AcDbSymbolTableRecord
100
AcDbViewportTableRecord
  2
*ACTIVE
 70
     0
 10
0.0
 20
0.0
 11
1.0
 21
1.0
 12
213.8649120663886
 22
146.3138901311583
 13
0.0
 23
0.0
 14
5.0
 24
5.0
 15
0.0
 25
0.0
 16
0.0
 26
0.0
 36
1.0
 17
0.0
 27
0.0
 37
0.0
 40
310.9291225767107
 41
1.65406976744186
 42
50.0
 43
0.0
 44
0.0
 50
0.0
 51
0.0
 71
     0
 72
   100
 73
     1
 74
     0
 75
     0
 76
     0
 77
     0
 78
     0
  0
ENDTAB
  0
TABLE
  2
LTYPE
  5
5
330
0
100
AcDbSymbolTable
 70
     2
  0
LTYPE
  5
14
330
5
100
AcDbSymbolTableRecord
100
AcDbLinetypeTableRecord
  2
BYBLOCK
 70
     0
  3

 72
    65
 73
     0
 40
0.0
  0
LTYPE
  5
15
330
5
100
AcDbSymbolTableRecord
100
AcDbLinetypeTableRecord
  2
BYLAYER
 70
     0
  3

 72
    65
 73
     0
 40
0.0
  0
LTYPE
  5
16
330
5
100
AcDbSymbolTableRecord
100
AcDbLinetypeTableRecord
  2
CONTINUOUS
 70
     0
  3
Solid line
 72
    65
 73
     0
 40
0.0
  0
LTYPE
  5
120
330
5
100
AcDbSymbolTableRecord
100
AcDbLinetypeTableRecord
  2
CENTER
 70
     0
  3
____ _ ____ _ ____ _ ____ _ ____ _ ____ _ ____ 
 72
    65
 73
     4
 40
2.0
 49
1.25
 74
     0
 49
-0.25
 74
     0
 49
0.25
 74
     0
 49
-0.25
 74
     0
  0
ENDTAB
  0
TABLE
  2
LAYER
  5
2
330
0
100
AcDbSymbolTable
 70
     8
  0
LAYER
  5
F
330
2
100
AcDbSymbolTableRecord
100
AcDbLayerTableRecord
  2
0
 70
     0
 62
     7
  6
CONTINUOUS
  0
LAYER
  5
62
330
2
100
AcDbSymbolTableRecord
100
AcDbLayerTableRecord
  2
VIEWPORT
 70
     0
 62
     7
  6
CONTINUOUS
  0
LAYER
  5
6B
330
2
100
AcDbSymbolTableRecord
100
AcDbLayerTableRecord
  2
ZUWAKU
 70
     0
 62
     7
  6
CONTINUOUS
  0
LAYER
  5
134
330
2
100
AcDbSymbolTableRecord
100
AcDbLayerTableRecord
  2
SUNPOU
 70
     0
 62
     4
  6
CONTINUOUS
  0
LAYER
  5
135
330
2
100
AcDbSymbolTableRecord
100
AcDbLayerTableRecord
  2
CENTER_L
 70
     0
 62
     1
  6
CENTER
  0
LAYER
  5
136
330
2
100
AcDbSymbolTableRecord
100
AcDbLayerTableRecord
  2
SEIHIN
 70
     0
 62
     3
  6
CONTINUOUS
  0
LAYER
  5
2FF
330
2
100
AcDbSymbolTableRecord
100
AcDbLayerTableRecord
  2
DEFPOINTS
 70
     0
 62
     7
  6
CONTINUOUS
  0
LAYER
  5
42D
330
2
100
AcDbSymbolTableRecord
100
AcDbLayerTableRecord
  2
MOJI
 70
     0
 62
     2
  6
CONTINUOUS
  0
ENDTAB
  0
TABLE
  2
STYLE
  5
3
330
0
100
AcDbSymbolTable
 70
     2
  0
STYLE
  5
10
330
3
100
AcDbSymbolTableRecord
100
AcDbTextStyleTableRecord
  2
STANDARD
 70
     0
 40
0.0
 41
1.0
 50
0.0
 71
     0
 42
2.5
  3
TXT
  4
bigfont.shx
  0
STYLE
  5
42E
330
3
100
AcDbSymbolTableRecord
100
AcDbTextStyleTableRecord
  2
ｽﾀｲﾙ1
 70
     0
 40
0.0
 41
1.0
 50
0.0
 71
     0
 42
2.5
  3
MS PGothic.ttf
  4

1001
ACAD
1000
MS PGothic
1071
    32818
  0
ENDTAB
  0
TABLE
  2
VIEW
  5
6
330
0
100
AcDbSymbolTable
 70
     0
  0
ENDTAB
  0
TABLE
  2
UCS
  5
7
330
0
100
AcDbSymbolTable
 70
     0
  0
ENDTAB
  0
TABLE
  2
APPID
  5
9
330
0
100
AcDbSymbolTable
 70
     1
  0
APPID
  5
11
330
9
100
AcDbSymbolTableRecord
100
AcDbRegAppTableRecord
  2
ACAD
 70
     0
  0
ENDTAB
  0
TABLE
  2
DIMSTYLE
  5
A
330
0
100
AcDbSymbolTable
 70
     1
  0
DIMSTYLE
105
1D
102
{ACAD_REACTORS
330
5DDA
330
5DDB
330
5DBB
330
5DBC
330
5DC1
330
5DEA
330
6278
330
627D
330
6285
330
6286
330
628F
330
6297
330
62B3
330
6048
330
6042
330
6043
330
6052
330
6064
330
6059
330
607E
102
}
330
A
100
AcDbSymbolTableRecord
100
AcDbDimStyleTableRecord
  2
STANDARD
 70
     0
  3

  4

  5

  6

  7

 40
1.0
 41
0.18
 42
0.0625
 43
0.38
 44
0.18
 45
0.0
 46
0.0
 47
0.0
 48
0.0
140
0.18
141
0.09
142
0.0
143
25.4
144
1.0
145
0.0
146
1.0
147
0.09
 71
     0
 72
     0
 73
     1
 74
     1
 75
     0
 76
     0
 77
     0
 78
     0
170
     0
171
     2
172
     0
173
     0
174
     0
175
     0
176
     0
177
     0
178
     0
270
     2
271
     4
272
     4
273
     2
274
     2
340
10
275
     0
280
     0
281
     0
282
     0
283
     1
284
     0
285
     0
286
     0
287
     3
288
     0
  0
ENDTAB
  0
TABLE
  2
BLOCK_RECORD
  5
1
330
0
100
AcDbSymbolTable
 70
    38
  0
BLOCK_RECORD
  5
1A
102
{ACAD_XDICTIONARY
360
3EB
102
}
330
1
100
AcDbSymbolTableRecord
100
AcDbBlockTableRecord
  2
*MODEL_SPACE
  0
BLOCK_RECORD
  5
17
102
{ACAD_XDICTIONARY
360
3E9
102
}
330
1
100
AcDbSymbolTableRecord
100
AcDbBlockTableRecord
  2
*PAPER_SPACE
  0
BLOCK_RECORD
  5
B2
330
1
100
AcDbSymbolTableRecord
100
AcDbBlockTableRecord
  2
_OPEN
  0
BLOCK_RECORD
  5
37B6
330
1
100
AcDbSymbolTableRecord
100
AcDbBlockTableRecord
  2
*X1
  0
BLOCK_RECORD
  5
6081
330
1
100
AcDbSymbolTableRecord
100
AcDbBlockTableRecord
  2
*D16
  0
BLOCK_RECORD
  5
608D
330
1
100
AcDbSymbolTableRecord
100
AcDbBlockTableRecord
  2
*D17
  0
BLOCK_RECORD
  5
6099
330
1
100
AcDbSymbolTableRecord
100
AcDbBlockTableRecord
  2
*D18
  0
BLOCK_RECORD
  5
60A5
330
1
100
AcDbSymbolTableRecord
100
AcDbBlockTableRecord
  2
*D19
  0
BLOCK_RECORD
  5
60B1
330
1
100
AcDbSymbolTableRecord
100
AcDbBlockTableRecord
  2
*D20
  0
BLOCK_RECORD
  5
60BD
330
1
100
AcDbSymbolTableRecord
100
AcDbBlockTableRecord
  2
*D21
  0
BLOCK_RECORD
  5
60C6
330
1
100
AcDbSymbolTableRecord
100
AcDbBlockTableRecord
  2
*D22
  0
BLOCK_RECORD
  5
61E5
330
1
100
AcDbSymbolTableRecord
100
AcDbBlockTableRecord
  2
*D23
  0
BLOCK_RECORD
  5
61F1
330
1
100
AcDbSymbolTableRecord
100
AcDbBlockTableRecord
  2
*D24
  0
BLOCK_RECORD
  5
61FD
330
1
100
AcDbSymbolTableRecord
100
AcDbBlockTableRecord
  2
*D25
  0
BLOCK_RECORD
  5
6206
330
1
100
AcDbSymbolTableRecord
100
AcDbBlockTableRecord
  2
*D26
  0
BLOCK_RECORD
  5
6212
330
1
100
AcDbSymbolTableRecord
100
AcDbBlockTableRecord
  2
*D27
  0
BLOCK_RECORD
  5
621E
330
1
100
AcDbSymbolTableRecord
100
AcDbBlockTableRecord
  2
*D28
  0
BLOCK_RECORD
  5
622A
330
1
100
AcDbSymbolTableRecord
100
AcDbBlockTableRecord
  2
*D29
  0
BLOCK_RECORD
  5
62B6
330
1
100
AcDbSymbolTableRecord
100
AcDbBlockTableRecord
  2
*D31
  0
BLOCK_RECORD
  5
62C2
330
1
100
AcDbSymbolTableRecord
100
AcDbBlockTableRecord
  2
*D32
  0
BLOCK_RECORD
  5
62CE
330
1
100
AcDbSymbolTableRecord
100
AcDbBlockTableRecord
  2
*D33
  0
BLOCK_RECORD
  5
62DA
330
1
100
AcDbSymbolTableRecord
100
AcDbBlockTableRecord
  2
*D34
  0
BLOCK_RECORD
  5
62E6
330
1
100
AcDbSymbolTableRecord
100
AcDbBlockTableRecord
  2
*D35
  0
BLOCK_RECORD
  5
62F2
330
1
100
AcDbSymbolTableRecord
100
AcDbBlockTableRecord
  2
*D36
  0
BLOCK_RECORD
  5
62FB
330
1
100
AcDbSymbolTableRecord
100
AcDbBlockTableRecord
  2
*D37
  0
ENDTAB
  0
ENDSEC
  0
SECTION
  2
BLOCKS
  0
BLOCK
  5
1B
330
1A
100
AcDbEntity
  8
0
100
AcDbBlockBegin
  2
*MODEL_SPACE
 70
     0
 10
0.0
 20
0.0
 30
0.0
  3
*MODEL_SPACE
  1

  0
ENDBLK
  5
1C
330
1A
100
AcDbEntity
  8
0
100
AcDbBlockEnd
  0
BLOCK
  5
18
330
17
100
AcDbEntity
 67
     1
  8
0
100
AcDbBlockBegin
  2
*PAPER_SPACE
 70
     0
 10
0.0
 20
0.0
 30
0.0
  3
*PAPER_SPACE
  1

  0
ENDBLK
  5
19
330
17
100
AcDbEntity
 67
     1
  8
0
100
AcDbBlockEnd
  0
BLOCK
  5
B3
330
B2
100
AcDbEntity
  8
0
100
AcDbBlockBegin
  2
_OPEN
 70
     0
 10
0.0
 20
0.0
 30
0.0
  3
_OPEN
  1

  0
LINE
  5
B4
330
B2
100
AcDbEntity
  8
0
  6
BYBLOCK
 62
     0
100
AcDbLine
 10
-1.0
 20
0.1666666666666666
 30
0.0
 11
0.0
 21
0.0
 31
0.0
  0
LINE
  5
B5
330
B2
100
AcDbEntity
  8
0
  6
BYBLOCK
 62
     0
100
AcDbLine
 10
0.0
 20
0.0
 30
0.0
 11
-1.0
 21
-0.1666666666666666
 31
0.0
  0
LINE
  5
B6
330
B2
100
AcDbEntity
  8
0
  6
BYBLOCK
 62
     0
100
AcDbLine
 10
0.0
 20
0.0
 30
0.0
 11
-1.0
 21
0.0
 31
0.0
  0
ENDBLK
  5
B7
330
B2
100
AcDbEntity
  8
0
100
AcDbBlockEnd
  0
BLOCK
  5
394A
330
37B6
100
AcDbEntity
  8
0
100
AcDbBlockBegin
  2
*X1
 70
     1
 10
0.0
 20
0.0
 30
0.0
  3
*X1
  1

  0
LINE
  5
37B7
330
37B6
100
AcDbEntity
  8
0
 62
     0
100
AcDbLine
 10
34.5211058208776
 20
11.30208487459222
 30
0.0
 11
34.19819035602015
 21
11.62500033944971
 31
0.0
  0
LINE
  5
37B8
330
37B6
100
AcDbEntity
  8
0
 62
     0
100
AcDbLine
 10
34.5211058208776
 20
10.85307206853878
 30
0.0
 11
33.74917754996667
 21
11.62500033944971
 31
0.0
  0
LINE
  5
37B9
330
37B6
100
AcDbEntity
  8
0
 62
     0
100
AcDbLine
 10
34.52110582087758
 20
10.4040592624853
 30
0.0
 11
33.3105388478701
 21
11.61462623549277
 31
0.0
  0
LINE
  5
37BA
330
37B6
100
AcDbEntity
  8
0
 62
     0
100
AcDbLine
 10
34.5211058208776
 20
9.955046456431887
 30
0.0
 11
33.12110582087757
 21
11.35504645643189
 31
0.0
  0
LINE
  5
37BB
330
37B6
100
AcDbEntity
  8
0
 62
     0
100
AcDbLine
 10
34.5211058208776
 20
9.506033650378412
 30
0.0
 11
33.12110582087757
 21
10.90603365037844
 31
0.0
  0
LINE
  5
37BC
330
37B6
100
AcDbEntity
  8
0
 62
     0
100
AcDbLine
 10
34.52110582087758
 20
9.057020844324938
 30
0.0
 11
33.12110582087754
 21
10.45702084432497
 31
0.0
  0
LINE
  5
37BD
330
37B6
100
AcDbEntity
  8
0
 62
     0
100
AcDbLine
 10
32.07110582087756
 20
11.05800803827153
 30
0.0
 11
31.50411351969941
 21
11.62500033944971
 31
0.0
  0
LINE
  5
37BE
330
37B6
100
AcDbEntity
  8
0
 62
     0
100
AcDbLine
 10
34.5211058208776
 20
8.60800803827152
 30
0.0
 11
33.12110582087757
 21
10.00800803827155
 31
0.0
  0
LINE
  5
37BF
330
37B6
100
AcDbEntity
  8
0
 62
     0
100
AcDbLine
 10
32.07110582087756
 20
10.60899523221809
 30
0.0
 11
31.05510071364594
 21
11.62500033944968
 31
0.0
  0
LINE
  5
37C0
330
37B6
100
AcDbEntity
  8
0
 62
     0
100
AcDbLine
 10
34.52110582087758
 20
8.158995232218046
 30
0.0
 11
33.12110582087757
 21
9.55899523221808
 31
0.0
  0
LINE
  5
37C1
330
37B6
100
AcDbEntity
  8
0
 62
     0
100
AcDbLine
 10
32.07110582087756
 20
10.15998242616461
 30
0.0
 11
30.71835033830902
 21
11.51273790873315
 31
0.0
  0
LINE
  5
37C2
330
37B6
100
AcDbEntity
  8
0
 62
     0
100
AcDbLine
 10
34.52110582087758
 20
7.7099824261646
 30
0.0
 11
33.12110582087754
 21
9.109982426164606
 31
0.0
  0
LINE
  5
37C3
330
37B6
100
AcDbEntity
  8
0
 62
     0
100
AcDbLine
 10
32.07110582087762
 20
9.710969620111114
 30
0.0
 11
30.67110582087753
 21
11.11096962011117
 31
0.0
  0
LINE
  5
37C4
330
37B6
100
AcDbEntity
  8
0
 62
     0
100
AcDbLine
 10
34.5211058208776
 20
7.260969620111126
 30
0.0
 11
33.12110582087757
 21
8.66096962011116
 31
0.0
  0
LINE
  5
37C5
330
37B6
100
AcDbEntity
  8
0
 62
     0
100
AcDbLine
 10
32.07110582087759
 20
9.261956814057668
 30
0.0
 11
30.67110582087753
 21
10.66195681405776
 31
0.0
  0
LINE
  5
37C6
330
37B6
100
AcDbEntity
  8
0
 62
     0
100
AcDbLine
 10
34.52110582087758
 20
6.81195681405768
 30
0.0
 11
33.12110582087754
 21
8.211956814057714
 31
0.0
  0
LINE
  5
37C7
330
37B6
100
AcDbEntity
  8
0
 62
     0
100
AcDbLine
 10
32.07110582087759
 20
8.812944008004222
 30
0.0
 11
30.67110582087753
 21
10.21294400800428
 31
0.0
  0
LINE
  5
37C8
330
37B6
100
AcDbEntity
  8
0
 62
     0
100
AcDbLine
 10
34.52110582087758
 20
6.362944008004234
 30
0.0
 11
33.12110582087754
 21
7.762944008004268
 31
0.0
  0
LINE
  5
37C9
330
37B6
100
AcDbEntity
  8
0
 62
     0
100
AcDbLine
 10
32.07110582087756
 20
8.363931201950748
 30
0.0
 11
30.6711058208775
 21
9.763931201950811
 31
0.0
  0
LINE
  5
37CA
330
37B6
100
AcDbEntity
  8
0
 62
     0
100
AcDbLine
 10
34.52110582087755
 20
5.913931201950759
 30
0.0
 11
33.12110582087754
 21
7.313931201950794
 31
0.0
  0
LINE
  5
37CB
330
37B6
100
AcDbEntity
  8
0
 62
     0
100
AcDbLine
 10
32.07110582087759
 20
7.914918395897331
 30
0.0
 11
30.67110582087753
 21
9.314918395897393
 31
0.0
  0
LINE
  5
37CC
330
37B6
100
AcDbEntity
  8
0
 62
     0
100
AcDbLine
 10
28.92110582087756
 20
11.06491839589736
 30
0.0
 11
28.36102387732523
 21
11.62500033944968
 31
0.0
  0
LINE
  5
37CD
330
37B6
100
AcDbEntity
  8
0
 62
     0
100
AcDbLine
 10
34.52110582087758
 20
5.464918395897342
 30
0.0
 11
33.12110582087754
 21
6.864918395897348
 31
0.0
  0
LINE
  5
37CE
330
37B6
100
AcDbEntity
  8
0
 62
     0
100
AcDbLine
 10
32.07110582087759
 20
7.465905589843856
 30
0.0
 11
30.6711058208775
 21
8.865905589843919
 31
0.0
  0
LINE
  5
37CF
330
37B6
100
AcDbEntity
  8
0
 62
     0
100
AcDbLine
 10
28.92110582087752
 20
10.61590558984389
 30
0.0
 11
27.91201107127176
 21
11.62500033944968
 31
0.0
  0
LINE
  5
37D0
330
37B6
100
AcDbEntity
  8
0
 62
     0
100
AcDbLine
 10
34.52110582087758
 20
5.015905589843868
 30
0.0
 11
33.12110582087754
 21
6.415905589843902
 31
0.0
  0
LINE
  5
37D1
330
37B6
100
AcDbEntity
  8
0
 62
     0
100
AcDbLine
 10
32.07110582087756
 20
7.01689278379041
 30
0.0
 11
30.67110582087753
 21
8.416892783790416
 31
0.0
  0
LINE
  5
37D2
330
37B6
100
AcDbEntity
  8
0
 62
     0
100
AcDbLine
 10
28.92110582087752
 20
10.16689278379044
 30
0.0
 11
27.57122445921552
 21
11.51677414545244
 31
0.0
  0
LINE
  5
37D3
330
37B6
100
AcDbEntity
  8
0
 62
     0
100
AcDbLine
 10
34.52110582087755
 20
4.566892783790422
 30
0.0
 11
33.12110582087751
 21
5.966892783790427
 31
0.0
  0
LINE
  5
37D4
330
37B6
100
AcDbEntity
  8
0
 62
     0
100
AcDbLine
 10
32.07110582087759
 20
6.567879977736936
 30
0.0
 11
30.67110582087755
 21
7.96787997773697
 31
0.0
  0
LINE
  5
37D5
330
37B6
100
AcDbEntity
  8
0
 62
     0
100
AcDbLine
 10
28.92110582087756
 20
9.71787997773697
 30
0.0
 11
27.52110582087755
 21
11.11787997773697
 31
0.0
  0
LINE
  5
37D6
330
37B6
100
AcDbEntity
  8
0
 62
     0
100
AcDbLine
 10
34.52110582087758
 20
4.117879977736947
 30
0.0
 11
33.12110582087754
 21
5.517879977736981
 31
0.0
  0
LINE
  5
37D7
330
37B6
100
AcDbEntity
  8
0
 62
     0
100
AcDbLine
 10
32.07110582087756
 20
6.11886717168349
 30
0.0
 11
30.67110582087755
 21
7.518867171683524
 31
0.0
  0
LINE
  5
37D8
330
37B6
100
AcDbEntity
  8
0
 62
     0
100
AcDbLine
 10
28.92110582087758
 20
9.268867171683496
 30
0.0
 11
27.52110582087755
 21
10.66886717168353
 31
0.0
  0
LINE
  5
37D9
330
37B6
100
AcDbEntity
  8
0
 62
     0
100
AcDbLine
 10
34.48512314343267
 20
3.704849849128407
 30
0.0
 11
33.12110582087754
 21
5.068867171683535
 31
0.0
  0
LINE
  5
37DA
330
37B6
100
AcDbEntity
  8
0
 62
     0
100
AcDbLine
 10
32.07110582087759
 20
5.669854365629987
 30
0.0
 11
30.67110582087753
 21
7.06985436563005
 31
0.0
  0
LINE
  5
37DB
330
37B6
100
AcDbEntity
  8
0
 62
     0
100
AcDbLine
 10
28.92110582087756
 20
8.81985436563005
 30
0.0
 11
27.52110582087752
 21
10.21985436563005
 31
0.0
  0
LINE
  5
37DC
330
37B6
100
AcDbEntity
  8
0
 62
     0
100
AcDbLine
 10
34.16595984705793
 20
3.575000339449672
 30
0.0
 11
33.12110582087751
 21
4.619854365630089
 31
0.0
  0
LINE
  5
37DD
330
37B6
100
AcDbEntity
  8
0
 62
     0
100
AcDbLine
 10
28.92110582087756
 20
8.370841559576575
 30
0.0
 11
27.52110582087752
 21
9.770841559576609
 31
0.0
  0
LINE
  5
37DE
330
37B6
100
AcDbEntity
  8
0
 62
     0
100
AcDbLine
 10
32.07110582087759
 20
5.220841559576541
 30
0.0
 11
30.67110582087753
 21
6.620841559576604
 31
0.0
  0
LINE
  5
37DF
330
37B6
100
AcDbEntity
  8
0
 62
     0
100
AcDbLine
 10
26.20860582087755
 20
11.08334155957658
 30
0.0
 11
25.66694704100447
 21
11.62500033944962
 31
0.0
  0
LINE
  5
37E0
330
37B6
100
AcDbEntity
  8
0
 62
     0
100
AcDbLine
 10
33.71694704100448
 20
3.575000339449616
 30
0.0
 11
33.12110582087751
 21
4.170841559576615
 31
0.0
  0
LINE
  5
37E1
330
37B6
100
AcDbEntity
  8
0
 62
     0
100
AcDbLine
 10
28.92110582087756
 20
7.921828753523129
 30
0.0
 11
27.52110582087758
 21
9.321828753523135
 31
0.0
  0
LINE
  5
37E2
330
37B6
100
AcDbEntity
  8
0
 62
     0
100
AcDbLine
 10
26.20860582087755
 20
10.63432875352313
 30
0.0
 11
25.21793423495106
 21
11.62500033944965
 31
0.0
  0
LINE
  5
37E3
330
37B6
100
AcDbEntity
  8
0
 62
     0
100
AcDbLine
 10
32.0581266705548
 20
4.784807903845916
 30
0.0
 11
30.67110582087753
 21
6.171828753523158
 31
0.0
  0
LINE
  5
37E4
330
37B6
100
AcDbEntity
  8
0
 62
     0
100
AcDbLine
 10
28.92110582087756
 20
7.472815947469683
 30
0.0
 11
27.52110582087758
 21
8.872815947469661
 31
0.0
  0
LINE
  5
37E5
330
37B6
100
AcDbEntity
  8
0
 62
     0
100
AcDbLine
 10
26.11081554782063
 20
10.2831062205266
 30
0.0
 11
24.76892142889755
 21
11.62500033944968
 31
0.0
  0
LINE
  5
37E6
330
37B6
100
AcDbEntity
  8
0
 62
     0
100
AcDbLine
 10
31.96163402292617
 20
4.432287745421035
 30
0.0
 11
30.67110582087753
 21
5.722815947469712
 31
0.0
  0
LINE
  5
37E7
330
37B6
100
AcDbEntity
  8
0
 62
     0
100
AcDbLine
 10
28.92110582087756
 20
7.023803141416209
 30
0.0
 11
27.52110582087755
 21
8.423803141416215
 31
0.0
  0
LINE
  5
37E8
330
37B6
100
AcDbEntity
  8
0
 62
     0
100
AcDbLine
 10
25.71990862284406
 20
10.22500033944967
 30
0.0
 11
24.31990862284411
 21
11.62500033944962
 31
0.0
  0
LINE
  5
37E9
330
37B6
100
AcDbEntity
  8
0
 62
     0
100
AcDbLine
 10
31.79911808496439
 20
4.145790877329346
 30
0.0
 11
30.63534795129777
 21
5.309561010995992
 31
0.0
  0
LINE
  5
37EA
330
37B6
100
AcDbEntity
  8
0
 62
     0
100
AcDbLine
 10
28.92110582087756
 20
6.574790335362791
 30
0.0
 11
27.52110582087758
 21
7.974790335362769
 31
0.0
  0
LINE
  5
37EB
330
37B6
100
AcDbEntity
  8
0
 62
     0
100
AcDbLine
 10
25.27089581679064
 20
10.2250003394497
 30
0.0
 11
23.90211245220194
 21
11.5937837040384
 31
0.0
  0
LINE
  5
37EC
330
37B6
100
AcDbEntity
  8
0
 62
     0
100
AcDbLine
 10
31.58309718630187
 20
3.912798969938449
 30
0.0
 11
30.43455513206402
 21
5.0613410241763
 31
0.0
  0
LINE
  5
37ED
330
37B6
100
AcDbEntity
  8
0
 62
     0
100
AcDbLine
 10
28.92110582087756
 20
6.125777529309317
 30
0.0
 11
27.52110582087755
 21
7.525777529309294
 31
0.0
  0
LINE
  5
37EE
330
37B6
100
AcDbEntity
  8
0
 62
     0
100
AcDbLine
 10
24.82188301073716
 20
10.2250003394497
 30
0.0
 11
23.56979223993525
 21
11.47709111025159
 31
0.0
  0
LINE
  5
37EF
330
37B6
100
AcDbEntity
  8
0
 62
     0
100
AcDbLine
 10
31.31501601383885
 20
3.731867336348017
 30
0.0
 11
30.07188301073716
 21
4.975000339449678
 31
0.0
  0
LINE
  5
37F0
330
37B6
100
AcDbEntity
  8
0
 62
     0
100
AcDbLine
 10
28.92110582087752
 20
5.676764723255843
 30
0.0
 11
27.52110582087755
 21
7.076764723255848
 31
0.0
  0
LINE
  5
37F1
330
37B6
100
AcDbEntity
  8
0
 62
     0
100
AcDbLine
 10
24.38376511869276
 20
10.2141054254406
 30
0.0
 11
23.29849177133016
 21
11.29937877280321
 31
0.0
  0
LINE
  5
37F2
330
37B6
100
AcDbEntity
  8
0
 62
     0
100
AcDbLine
 10
30.9868097338832
 20
3.611060810250194
 30
0.0
 11
29.62287020468372
 21
4.975000339449678
 31
0.0
  0
LINE
  5
37F3
330
37B6
100
AcDbEntity
  8
0
 62
     0
100
AcDbLine
 10
24.19610582087759
 20
9.952751917202306
 30
0.0
 11
23.07943574180788
 21
11.06942199627201
 31
0.0
  0
LINE
  5
37F4
330
37B6
100
AcDbEntity
  8
0
 62
     0
100
AcDbLine
 10
30.57385739863028
 20
3.575000339449644
 30
0.0
 11
27.52110582087755
 21
6.627751917202374
 31
0.0
  0
LINE
  5
37F5
330
37B6
100
AcDbEntity
  8
0
 62
     0
100
AcDbLine
 10
24.19610582087762
 20
9.503739111148888
 30
0.0
 11
22.91355028563137
 21
10.78629464639513
 31
0.0
  0
LINE
  5
37F6
330
37B6
100
AcDbEntity
  8
0
 62
     0
100
AcDbLine
 10
30.12484459257683
 20
3.575000339449644
 30
0.0
 11
27.52110582087755
 21
6.178739111148956
 31
0.0
  0
LINE
  5
37F7
330
37B6
100
AcDbEntity
  8
0
 62
     0
100
AcDbLine
 10
24.29937796142948
 20
8.951454164543548
 30
0.0
 11
22.81246102594931
 21
10.43837110002368
 31
0.0
  0
LINE
  5
37F8
330
37B6
100
AcDbEntity
  8
0
 62
     0
100
AcDbLine
 10
29.67583178652338
 20
3.575000339449644
 30
0.0
 11
27.52110582087755
 21
5.729726305095482
 31
0.0
  0
LINE
  5
37F9
330
37B6
100
AcDbEntity
  8
0
 62
     0
100
AcDbLine
 10
26.40790767222324
 20
6.393911647696313
 30
0.0
 11
22.79610582087755
 21
10.00571349904197
 31
0.0
  0
LINE
  5
37FA
330
37B6
100
AcDbEntity
  8
0
 62
     0
100
AcDbLine
 10
21.74610582087751
 20
11.05571349904201
 30
0.0
 11
21.17681898046987
 21
11.62500033944968
 31
0.0
  0
LINE
  5
37FB
330
37B6
100
AcDbEntity
  8
0
 62
     0
100
AcDbLine
 10
29.22681898046991
 20
3.575000339449644
 30
0.0
 11
27.52110582087752
 21
5.280713499042008
 31
0.0
  0
LINE
  5
37FC
330
37B6
100
AcDbEntity
  8
0
 62
     0
100
AcDbLine
 10
26.47110582087759
 20
5.881700692988545
 30
0.0
 11
22.79610582087758
 21
9.556700692988556
 31
0.0
  0
LINE
  5
37FD
330
37B6
100
AcDbEntity
  8
0
 62
     0
100
AcDbLine
 10
21.74610582087757
 20
10.60670069298853
 30
0.0
 11
20.7278061744164
 21
11.62500033944974
 31
0.0
  0
LINE
  5
37FE
330
37B6
100
AcDbEntity
  8
0
 62
     0
100
AcDbLine
 10
28.76958223504402
 20
3.583224278822115
 30
0.0
 11
27.52932976025002
 21
4.82347675361612
 31
0.0
  0
LINE
  5
37FF
330
37B6
100
AcDbEntity
  8
0
 62
     0
100
AcDbLine
 10
21.74610582087757
 20
10.15768788693509
 30
0.0
 11
20.39241087698991
 21
11.51138283082272
 31
0.0
  0
LINE
  5
3800
330
37B6
100
AcDbEntity
  8
0
 62
     0
100
AcDbLine
 10
26.47110582087757
 20
5.43268788693507
 30
0.0
 11
22.80781115481875
 21
9.095982552993916
 31
0.0
  0
LINE
  5
3801
330
37B6
100
AcDbEntity
  8
0
 62
     0
100
AcDbLine
 10
21.74610582087757
 20
9.708675080881619
 30
0.0
 11
20.34610582087756
 21
11.10867508088159
 31
0.0
  0
LINE
  5
3802
330
37B6
100
AcDbEntity
  8
0
 62
     0
100
AcDbLine
 10
26.47110582087751
 20
4.983675080881653
 30
0.0
 11
22.96687086373876
 21
8.48791003802043
 31
0.0
  0
LINE
  5
3803
330
37B6
100
AcDbEntity
  8
0
 62
     0
100
AcDbLine
 10
21.74610582087757
 20
9.259662274828173
 30
0.0
 11
20.34610582087759
 21
10.65966227482814
 31
0.0
  0
LINE
  5
3804
330
37B6
100
AcDbEntity
  8
0
 62
     0
100
AcDbLine
 10
26.41682491208303
 20
4.588943183622717
 30
0.0
 11
25.06900751756387
 21
5.936760578141871
 31
0.0
  0
LINE
  5
3805
330
37B6
100
AcDbEntity
  8
0
 62
     0
100
AcDbLine
 10
21.74610582087757
 20
8.810649468774727
 30
0.0
 11
20.34610582087756
 21
10.2106494687747
 31
0.0
  0
LINE
  5
3806
330
37B6
100
AcDbEntity
  8
0
 62
     0
100
AcDbLine
 10
19.20036237058906
 20
11.35639291906321
 30
0.0
 11
18.93175495020261
 21
11.62500033944968
 31
0.0
  0
LINE
  5
3807
330
37B6
100
AcDbEntity
  8
0
 62
     0
100
AcDbLine
 10
26.28288705820224
 20
4.273868231450052
 30
0.0
 11
25.07110582087759
 21
5.48564946877471
 31
0.0
  0
LINE
  5
3808
330
37B6
100
AcDbEntity
  8
0
 62
     0
100
AcDbLine
 10
21.74610582087754
 20
8.361636662721252
 30
0.0
 11
20.34610582087756
 21
9.761636662721258
 31
0.0
  0
LINE
  5
3809
330
37B6
100
AcDbEntity
  8
0
 62
     0
100
AcDbLine
 10
19.10089853846275
 20
11.00684394513604
 30
0.0
 11
18.48274214414914
 21
11.62500033944968
 31
0.0
  0
LINE
  5
380A
330
37B6
100
AcDbEntity
  8
0
 62
     0
100
AcDbLine
 10
26.0913936591146
 20
4.016348824484225
 30
0.0
 11
25.02246322943435
 21
5.085279254164476
 31
0.0
  0
LINE
  5
380B
330
37B6
100
AcDbEntity
  8
0
 62
     0
100
AcDbLine
 10
21.74610582087754
 20
7.912623856667806
 30
0.0
 11
20.34610582087756
 21
9.312623856667784
 31
0.0
  0
LINE
  5
380C
330
37B6
100
AcDbEntity
  8
0
 62
     0
100
AcDbLine
 10
18.99313546500991
 20
10.6655942125354
 30
0.0
 11
18.03852768327462
 21
11.62020199427072
 31
0.0
  0
LINE
  5
380D
330
37B6
100
AcDbEntity
  8
0
 62
     0
100
AcDbLine
 10
25.84823417655679
 20
3.810495500988537
 30
0.0
 11
24.68372933809567
 21
4.975000339449678
 31
0.0
  0
LINE
  5
380E
330
37B6
100
AcDbEntity
  8
0
 62
     0
100
AcDbLine
 10
21.74610582087757
 20
7.46361105061436
 30
0.0
 11
20.34610582087756
 21
8.863611050614338
 31
0.0
  0
LINE
  5
380F
330
37B6
100
AcDbEntity
  8
0
 62
     0
100
AcDbLine
 10
18.88537239155715
 20
10.32434447993477
 30
0.0
 11
17.82137239155713
 21
11.3883444799348
 31
0.0
  0
LINE
  5
3810
330
37B6
100
AcDbEntity
  8
0
 62
     0
100
AcDbLine
 10
25.5501922023266
 20
3.659524669165307
 30
0.0
 11
24.23471653204222
 21
4.975000339449707
 31
0.0
  0
LINE
  5
3811
330
37B6
100
AcDbEntity
  8
0
 62
     0
100
AcDbLine
 10
21.74610582087754
 20
7.014598244560914
 30
0.0
 11
20.34610582087756
 21
8.414598244560892
 31
0.0
  0
LINE
  5
3812
330
37B6
100
AcDbEntity
  8
0
 62
     0
100
AcDbLine
 10
18.77760931810422
 20
9.983094747334234
 30
0.0
 11
17.71360931810423
 21
11.04709474733422
 31
0.0
  0
LINE
  5
3813
330
37B6
100
AcDbEntity
  8
0
 62
     0
100
AcDbLine
 10
25.18135587650286
 20
3.579348188935597
 30
0.0
 11
23.78570372598878
 21
4.975000339449678
 31
0.0
  0
LINE
  5
3814
330
37B6
100
AcDbEntity
  8
0
 62
     0
100
AcDbLine
 10
21.74610582087754
 20
6.56558543850744
 30
0.0
 11
20.34610582087754
 21
7.965585438507417
 31
0.0
  0
LINE
  5
3815
330
37B6
100
AcDbEntity
  8
0
 62
     0
100
AcDbLine
 10
18.66984624465144
 20
9.641845014733547
 30
0.0
 11
17.60584624465138
 21
10.70584501473357
 31
0.0
  0
LINE
  5
3816
330
37B6
100
AcDbEntity
  8
0
 62
     0
100
AcDbLine
 10
24.73669091993534
 20
3.575000339449644
 30
0.0
 11
23.33669091993531
 21
4.975000339449678
 31
0.0
  0
LINE
  5
3817
330
37B6
100
AcDbEntity
  8
0
 62
     0
100
AcDbLine
 10
21.74610582087754
 20
6.116572632453994
 30
0.0
 11
20.34610582087756
 21
7.516572632454
 31
0.0
  0
LINE
  5
3818
330
37B6
100
AcDbEntity
  8
0
 62
     0
100
AcDbLine
 10
18.56208317119862
 20
9.300595282132945
 30
0.0
 11
17.49808317119857
 21
10.36459528213296
 31
0.0
  0
LINE
  5
3819
330
37B6
100
AcDbEntity
  8
0
 62
     0
100
AcDbLine
 10
24.28767811388189
 20
3.575000339449672
 30
0.0
 11
23.0708722652337
 21
4.791806188097865
 31
0.0
  0
LINE
  5
381A
330
37B6
100
AcDbEntity
  8
0
 62
     0
100
AcDbLine
 10
18.4543200977458
 20
8.959345549532258
 30
0.0
 11
17.39032009774575
 21
10.02334554953233
 31
0.0
  0
LINE
  5
381B
330
37B6
100
AcDbEntity
  8
0
 62
     0
100
AcDbLine
 10
21.74610582087754
 20
5.667559826400548
 30
0.0
 11
20.34610582087756
 21
7.067559826400525
 31
0.0
  0
LINE
  5
381C
330
37B6
100
AcDbEntity
  8
0
 62
     0
100
AcDbLine
 10
16.32110582087756
 20
11.09255982640053
 30
0.0
 11
15.78866530782841
 21
11.62500033944965
 31
0.0
  0
LINE
  5
381D
330
37B6
100
AcDbEntity
  8
0
 62
     0
100
AcDbLine
 10
23.83866530782845
 20
3.575000339449644
 30
0.0
 11
23.05860582087757
 21
4.35505982640052
 31
0.0
  0
LINE
  5
381E
330
37B6
100
AcDbEntity
  8
0
 62
     0
100
AcDbLine
 10
18.3465570242929
 20
8.618095816931713
 30
0.0
 11
17.28255702429294
 21
9.682095816931678
 31
0.0
  0
LINE
  5
381F
330
37B6
100
AcDbEntity
  8
0
 62
     0
100
AcDbLine
 10
21.74610582087754
 20
5.218547020347074
 30
0.0
 11
20.34610582087754
 21
6.618547020347079
 31
0.0
  0
LINE
  5
3820
330
37B6
100
AcDbEntity
  8
0
 62
     0
100
AcDbLine
 10
16.32110582087756
 20
10.64354702034705
 30
0.0
 11
15.33965250177496
 21
11.62500033944965
 31
0.0
  0
LINE
  5
3821
330
37B6
100
AcDbEntity
  8
0
 62
     0
100
AcDbLine
 10
23.38965250177494
 20
3.575000339449672
 30
0.0
 11
23.05860582087754
 21
3.906047020347045
 31
0.0
  0
LINE
  5
3822
330
37B6
100
AcDbEntity
  8
0
 62
     0
100
AcDbLine
 10
18.23879395084009
 20
8.276846084331054
 30
0.0
 11
17.17479395084007
 21
9.340846084331076
 31
0.0
  0
LINE
  5
3823
330
37B6
100
AcDbEntity
  8
0
 62
     0
100
AcDbLine
 10
16.32110582087753
 20
10.19453421429358
 30
0.0
 11
14.98338335642873
 21
11.53225667874241
 31
0.0
  0
LINE
  5
3824
330
37B6
100
AcDbEntity
  8
0
 62
     0
100
AcDbLine
 10
21.74610582087751
 20
4.769534214293628
 30
0.0
 11
20.34610582087754
 21
6.169534214293605
 31
0.0
  0
LINE
  5
3825
330
37B6
100
AcDbEntity
  8
0
 62
     0
100
AcDbLine
 10
18.13103087738727
 20
7.935596351730453
 30
0.0
 11
17.06703087738728
 21
8.999596351730446
 31
0.0
  0
LINE
  5
3826
330
37B6
100
AcDbEntity
  8
0
 62
     0
100
AcDbLine
 10
16.32110582087756
 20
9.745521408240165
 30
0.0
 11
14.92110582087752
 21
11.14552140824017
 31
0.0
  0
LINE
  5
3827
330
37B6
100
AcDbEntity
  8
0
 62
     0
100
AcDbLine
 10
21.74610582087754
 20
4.320521408240182
 30
0.0
 11
20.34610582087754
 21
5.720521408240159
 31
0.0
  0
LINE
  5
3828
330
37B6
100
AcDbEntity
  8
0
 62
     0
100
AcDbLine
 10
18.02848662269124
 20
7.589127800373006
 30
0.0
 11
16.95926780393441
 21
8.658346619129844
 31
0.0
  0
LINE
  5
3829
330
37B6
100
AcDbEntity
  8
0
 62
     0
100
AcDbLine
 10
16.32110582087756
 20
9.29650860218669
 30
0.0
 11
14.92110582087752
 21
10.69650860218672
 31
0.0
  0
LINE
  5
382A
330
37B6
100
AcDbEntity
  8
0
 62
     0
100
AcDbLine
 10
21.74610582087751
 20
3.871508602186708
 30
0.0
 11
20.34610582087754
 21
5.271508602186713
 31
0.0
  0
LINE
  5
382B
330
37B6
100
AcDbEntity
  8
0
 62
     0
100
AcDbLine
 10
18.23572330240824
 20
6.932878314602533
 30
0.0
 11
16.8139940560921
 21
8.35460756091868
 31
0.0
  0
LINE
  5
382C
330
37B6
100
AcDbEntity
  8
0
 62
     0
100
AcDbLine
 10
16.32110582087759
 20
8.847495796133188
 30
0.0
 11
14.9211058208775
 21
10.24749579613325
 31
0.0
  0
LINE
  5
382D
330
37B6
100
AcDbEntity
  8
0
 62
     0
100
AcDbLine
 10
21.57658332221135
 20
3.592018294799402
 30
0.0
 11
20.34610582087756
 21
4.82249579613321
 31
0.0
  0
LINE
  5
382E
330
37B6
100
AcDbEntity
  8
0
 62
     0
100
AcDbLine
 10
18.44295998212524
 20
6.276628828832116
 30
0.0
 11
14.92110582087752
 21
9.798482990079833
 31
0.0
  0
LINE
  5
382F
330
37B6
100
AcDbEntity
  8
0
 62
     0
100
AcDbLine
 10
13.69610582087759
 20
11.02348299007977
 30
0.0
 11
13.0945884715077
 21
11.62500033944965
 31
0.0
  0
LINE
  5
3830
330
37B6
100
AcDbEntity
  8
0
 62
     0
100
AcDbLine
 10
21.14458847150771
 20
3.575000339449644
 30
0.0
 11
20.34610582087759
 21
4.373482990079764
 31
0.0
  0
LINE
  5
3831
330
37B6
100
AcDbEntity
  8
0
 62
     0
100
AcDbLine
 10
18.65019666184227
 20
5.620379343061614
 30
0.0
 11
14.92110582087752
 21
9.349470184026358
 31
0.0
  0
LINE
  5
3832
330
37B6
100
AcDbEntity
  8
0
 62
     0
100
AcDbLine
 10
13.69610582087759
 20
10.57447018402629
 30
0.0
 11
12.6455756654542
 21
11.62500033944968
 31
0.0
  0
LINE
  5
3833
330
37B6
100
AcDbEntity
  8
0
 62
     0
100
AcDbLine
 10
20.69557566545424
 20
3.575000339449616
 30
0.0
 11
20.34610582087756
 21
3.924470184026318
 31
0.0
  0
LINE
  5
3834
330
37B6
100
AcDbEntity
  8
0
 62
     0
100
AcDbLine
 10
13.56265247318253
 20
10.25891072566787
 30
0.0
 11
12.21254161407682
 21
11.60902158477355
 31
0.0
  0
LINE
  5
3835
330
37B6
100
AcDbEntity
  8
0
 62
     0
100
AcDbLine
 10
18.85743334155924
 20
4.964129857291169
 30
0.0
 11
14.92110582087755
 21
8.900457377972855
 31
0.0
  0
LINE
  5
3836
330
37B6
100
AcDbEntity
  8
0
 62
     0
100
AcDbLine
 10
16.48986028204836
 20
6.882690110748598
 30
0.0
 11
14.92110582087755
 21
8.45144457191941
 31
0.0
  0
LINE
  5
3837
330
37B6
100
AcDbEntity
  8
0
 62
     0
100
AcDbLine
 10
13.14755005334731
 20
10.22500033944962
 30
0.0
 11
11.84352007928319
 21
11.52903031351377
 31
0.0
  0
LINE
  5
3838
330
37B6
100
AcDbEntity
  8
0
 62
     0
100
AcDbLine
 10
19.06467002127627
 20
4.307880371520695
 30
0.0
 11
17.01851617512221
 21
6.354034217674751
 31
0.0
  0
LINE
  5
3839
330
37B6
100
AcDbEntity
  8
0
 62
     0
100
AcDbLine
 10
16.32110582087759
 20
6.602431765865929
 30
0.0
 11
14.92110582087755
 21
8.002431765865964
 31
0.0
  0
LINE
  5
383A
330
37B6
100
AcDbEntity
  8
0
 62
     0
100
AcDbLine
 10
12.69853724729381
 20
10.22500033944967
 30
0.0
 11
11.52415937136783
 21
11.39937821537566
 31
0.0
  0
LINE
  5
383B
330
37B6
100
AcDbEntity
  8
0
 62
     0
100
AcDbLine
 10
19.18218945013157
 20
3.741348136611918
 30
0.0
 11
17.22575285483927
 21
5.697784731904249
 31
0.0
  0
LINE
  5
383C
330
37B6
100
AcDbEntity
  8
0
 62
     0
100
AcDbLine
 10
16.32110582087756
 20
6.153418959812483
 30
0.0
 11
14.92110582087752
 21
7.553418959812489
 31
0.0
  0
LINE
  5
383D
330
37B6
100
AcDbEntity
  8
0
 62
     0
100
AcDbLine
 10
12.27698049602204
 20
10.19754428466799
 30
0.0
 11
11.24478488370056
 21
11.22973989698948
 31
0.0
  0
LINE
  5
383E
330
37B6
100
AcDbEntity
  8
0
 62
     0
100
AcDbLine
 10
18.8995244412404
 20
3.575000339449644
 30
0.0
 11
17.43298953455627
 21
5.041535246133776
 31
0.0
  0
LINE
  5
383F
330
37B6
100
AcDbEntity
  8
0
 62
     0
100
AcDbLine
 10
16.32110582087756
 20
5.704406153759009
 30
0.0
 11
14.92110582087752
 21
7.104406153759043
 31
0.0
  0
LINE
  5
3840
330
37B6
100
AcDbEntity
  8
0
 62
     0
100
AcDbLine
 10
11.99105239960255
 20
10.03445957503402
 30
0.0
 11
11.00095727939466
 21
11.0245546952419
 31
0.0
  0
LINE
  5
3841
330
37B6
100
AcDbEntity
  8
0
 62
     0
100
AcDbLine
 10
18.45051163518692
 20
3.575000339449644
 30
0.0
 11
17.64022621427327
 21
4.385285760363302
 31
0.0
  0
LINE
  5
3842
330
37B6
100
AcDbEntity
  8
0
 62
     0
100
AcDbLine
 10
13.86382038727643
 20
7.712678781306721
 30
0.0
 11
13.10878426273456
 21
8.467714905848595
 31
0.0
  0
LINE
  5
3843
330
37B6
100
AcDbEntity
  8
0
 62
     0
100
AcDbLine
 10
16.32110582087761
 20
5.255393347705535
 30
0.0
 11
14.92110582087755
 21
6.655393347705597
 31
0.0
  0
LINE
  5
3844
330
37B6
100
AcDbEntity
  8
0
 62
     0
100
AcDbLine
 10
11.81299161453807
 20
9.763507554045077
 30
0.0
 11
10.79127426638905
 21
10.7852249021941
 31
0.0
  0
LINE
  5
3845
330
37B6
100
AcDbEntity
  8
0
 62
     0
100
AcDbLine
 10
17.97633232703117
 20
3.600166841551981
 30
0.0
 11
17.85115524123551
 21
3.725343927347637
 31
0.0
  0
LINE
  5
3846
330
37B6
100
AcDbEntity
  8
0
 62
     0
100
AcDbLine
 10
13.82056355720547
 20
7.306922805324205
 30
0.0
 11
12.70302828675204
 21
8.424458075777636
 31
0.0
  0
LINE
  5
3847
330
37B6
100
AcDbEntity
  8
0
 62
     0
100
AcDbLine
 10
11.7711058208776
 20
9.356380541652072
 30
0.0
 11
10.61680475590822
 21
10.51068160662146
 31
0.0
  0
LINE
  5
3848
330
37B6
100
AcDbEntity
  8
0
 62
     0
100
AcDbLine
 10
16.32110582087759
 20
4.80638054165206
 30
0.0
 11
14.92110582087752
 21
6.206380541652151
 31
0.0
  0
LINE
  5
3849
330
37B6
100
AcDbEntity
  8
0
 62
     0
100
AcDbLine
 10
13.65463577755645
 20
7.023837778919727
 30
0.0
 11
12.41994326034756
 21
8.258530296128611
 31
0.0
  0
LINE
  5
384A
330
37B6
100
AcDbEntity
  8
0
 62
     0
100
AcDbLine
 10
11.7711058208776
 20
8.907367735598597
 30
0.0
 11
10.48151490230313
 21
10.19695865417307
 31
0.0
  0
LINE
  5
384B
330
37B6
100
AcDbEntity
  8
0
 62
     0
100
AcDbLine
 10
16.32110582087759
 20
4.357367735598614
 30
0.0
 11
14.92110582087755
 21
5.757367735598649
 31
0.0
  0
LINE
  5
384C
330
37B6
100
AcDbEntity
  8
0
 62
     0
100
AcDbLine
 10
11.7711058208776
 20
8.458354929545151
 30
0.0
 11
10.3941579658402
 21
9.83530278458258
 31
0.0
  0
LINE
  5
384D
330
37B6
100
AcDbEntity
  8
0
 62
     0
100
AcDbLine
 10
13.40371905648822
 20
6.82574169393456
 30
0.0
 11
12.22184717536239
 21
8.007613575060389
 31
0.0
  0
LINE
  5
384E
330
37B6
100
AcDbEntity
  8
0
 62
     0
100
AcDbLine
 10
9.058605820877573
 20
11.17085492954521
 30
0.0
 11
8.604460410973075
 21
11.62500033944971
 31
0.0
  0
LINE
  5
384F
330
37B6
100
AcDbEntity
  8
0
 62
     0
100
AcDbLine
 10
16.32110582087761
 20
3.908354929545168
 30
0.0
 11
14.92110582087758
 21
5.308354929545203
 31
0.0
  0
LINE
  5
3850
330
37B6
100
AcDbEntity
  8
0
 62
     0
100
AcDbLine
 10
11.7711058208776
 20
8.009342123491705
 30
0.0
 11
10.37110582087757
 21
9.40934212349174
 31
0.0
  0
LINE
  5
3851
330
37B6
100
AcDbEntity
  8
0
 62
     0
100
AcDbLine
 10
13.05355933527451
 20
6.7268886090948
 30
0.0
 11
12.12299409052263
 21
7.657453853846675
 31
0.0
  0
LINE
  5
3852
330
37B6
100
AcDbEntity
  8
0
 62
     0
100
AcDbLine
 10
9.058605820877545
 20
10.72184212349174
 30
0.0
 11
8.155447604919601
 21
11.62500033944968
 31
0.0
  0
LINE
  5
3853
330
37B6
100
AcDbEntity
  8
0
 62
     0
100
AcDbLine
 10
16.17715392024226
 20
3.603294024127052
 30
0.0
 11
14.92110582087755
 21
4.859342123491728
 31
0.0
  0
LINE
  5
3854
330
37B6
100
AcDbEntity
  8
0
 62
     0
100
AcDbLine
 10
11.7711058208776
 20
7.560329317438231
 30
0.0
 11
10.37110582087757
 21
8.960329317438265
 31
0.0
  0
LINE
  5
3855
330
37B6
100
AcDbEntity
  8
0
 62
     0
100
AcDbLine
 10
9.004088835742379
 20
10.32734630257346
 30
0.0
 11
7.706434798866098
 21
11.62500033944971
 31
0.0
  0
LINE
  5
3856
330
37B6
100
AcDbEntity
  8
0
 62
     0
100
AcDbLine
 10
15.75643479886616
 20
3.575000339449672
 30
0.0
 11
14.92110582087755
 21
4.410329317438282
 31
0.0
  0
LINE
  5
3857
330
37B6
100
AcDbEntity
  8
0
 62
     0
100
AcDbLine
 10
11.77110582087758
 20
7.111316511384785
 30
0.0
 11
10.37110582087754
 21
8.511316511384791
 31
0.0
  0
LINE
  5
3858
330
37B6
100
AcDbEntity
  8
0
 62
     0
100
AcDbLine
 10
8.657421992812714
 20
10.22500033944965
 30
0.0
 11
7.257421992812652
 21
11.62500033944971
 31
0.0
  0
LINE
  5
3859
330
37B6
100
AcDbEntity
  8
0
 62
     0
100
AcDbLine
 10
15.30742199281269
 20
3.575000339449644
 30
0.0
 11
14.92110582087755
 21
3.961316511384808
 31
0.0
  0
LINE
  5
385A
330
37B6
100
AcDbEntity
  8
0
 62
     0
100
AcDbLine
 10
11.7711058208776
 20
6.662303705331339
 30
0.0
 11
10.37110582087757
 21
8.062303705331373
 31
0.0
  0
LINE
  5
385B
330
37B6
100
AcDbEntity
  8
0
 62
     0
100
AcDbLine
 10
8.208409186759269
 20
10.22500033944965
 30
0.0
 11
6.825844550706818
 21
11.60756497550212
 31
0.0
  0
LINE
  5
385C
330
37B6
100
AcDbEntity
  8
0
 62
     0
100
AcDbLine
 10
13.6948045964591
 20
4.738604929749811
 30
0.0
 11
13.45971041117775
 21
4.973699115031195
 31
0.0
  0
LINE
  5
385D
330
37B6
100
AcDbEntity
  8
0
 62
     0
100
AcDbLine
 10
11.77110582087758
 20
6.213290899277865
 30
0.0
 11
10.37110582087757
 21
7.613290899277899
 31
0.0
  0
LINE
  5
385E
330
37B6
100
AcDbEntity
  8
0
 62
     0
100
AcDbLine
 10
7.759396380705823
 20
10.22500033944965
 30
0.0
 11
6.47927714646758
 21
11.50511957368789
 31
0.0
  0
LINE
  5
385F
330
37B6
100
AcDbEntity
  8
0
 62
     0
100
AcDbLine
 10
13.69610582087761
 20
4.288290899277853
 30
0.0
 11
13.00939638070579
 21
4.975000339449678
 31
0.0
  0
LINE
  5
3860
330
37B6
100
AcDbEntity
  8
0
 62
     0
100
AcDbLine
 10
11.77110582087758
 20
5.764278093224419
 30
0.0
 11
10.3711058208776
 21
7.164278093224396
 31
0.0
  0
LINE
  5
3861
330
37B6
100
AcDbEntity
  8
0
 62
     0
100
AcDbLine
 10
7.310383574652348
 20
10.22500033944962
 30
0.0
 11
6.197153816543959
 21
11.33823009755801
 31
0.0
  0
LINE
  5
3862
330
37B6
100
AcDbEntity
  8
0
 62
     0
100
AcDbLine
 10
13.69610582087759
 20
3.839278093224379
 30
0.0
 11
12.56038357465234
 21
4.975000339449621
 31
0.0
  0
LINE
  5
3863
330
37B6
100
AcDbEntity
  8
0
 62
     0
100
AcDbLine
 10
7.055237160845052
 20
10.03113394720352
 30
0.0
 11
5.968107410423584
 21
11.11826369762499
 31
0.0
  0
LINE
  5
3864
330
37B6
100
AcDbEntity
  8
0
 62
     0
100
AcDbLine
 10
13.50223942863141
 20
3.584131679417168
 30
0.0
 11
10.3711058208776
 21
6.715265287170979
 31
0.0
  0
LINE
  5
3865
330
37B6
100
AcDbEntity
  8
0
 62
     0
100
AcDbLine
 10
7.046105820877585
 20
9.591252481117521
 30
0.0
 11
5.791366809189042
 21
10.84599149280606
 31
0.0
  0
LINE
  5
3866
330
37B6
100
AcDbEntity
  8
0
 62
     0
100
AcDbLine
 10
13.06235796254546
 20
3.575000339449644
 30
0.0
 11
10.3711058208776
 21
6.266252481117504
 31
0.0
  0
LINE
  5
3867
330
37B6
100
AcDbEntity
  8
0
 62
     0
100
AcDbLine
 10
7.077173674945299
 20
9.111171820996304
 30
0.0
 11
5.67592675804218
 21
10.51241873789945
 31
0.0
  0
LINE
  5
3868
330
37B6
100
AcDbEntity
  8
0
 62
     0
100
AcDbLine
 10
12.61334515649195
 20
3.575000339449672
 30
0.0
 11
10.37110582087757
 21
5.81723967506403
 31
0.0
  0
LINE
  5
3869
330
37B6
100
AcDbEntity
  8
0
 62
     0
100
AcDbLine
 10
9.223293866488916
 20
6.51603882339927
 30
0.0
 11
5.646105820877608
 21
10.09322686901057
 31
0.0
  0
LINE
  5
386A
330
37B6
100
AcDbEntity
  8
0
 62
     0
100
AcDbLine
 10
12.13769630691018
 20
3.601636382978
 30
0.0
 11
10.3977418644059
 21
5.341590825482285
 31
0.0
  0
LINE
  5
386B
330
37B6
100
AcDbEntity
  8
0
 62
     0
100
AcDbLine
 10
9.319241123531526
 20
5.971078760303214
 30
0.0
 11
5.646105820877551
 21
9.644214062957189
 31
0.0
  0
LINE
  5
386C
330
37B6
100
AcDbEntity
  8
0
 62
     0
100
AcDbLine
 10
11.45079235060939
 20
3.839527533225322
 30
0.0
 11
10.63563301465319
 21
4.654686869181546
 31
0.0
  0
LINE
  5
386D
330
37B6
100
AcDbEntity
  8
0
 62
     0
100
AcDbLine
 10
9.321105820877619
 20
5.520201256903646
 30
0.0
 11
5.649888044588749
 21
9.191419033192488
 31
0.0
  0
LINE
  5
386E
330
37B6
100
AcDbEntity
  8
0
 62
     0
100
AcDbLine
 10
9.321105820877562
 20
5.071188450850229
 30
0.0
 11
5.761533423750677
 21
8.630760847977086
 31
0.0
  0
LINE
  5
386F
330
37B6
100
AcDbEntity
  8
0
 62
     0
100
AcDbLine
 10
9.284845822811604
 20
4.65843564286277
 30
0.0
 11
7.903150001002074
 21
6.040131464672299
 31
0.0
  0
LINE
  5
3870
330
37B6
100
AcDbEntity
  8
0
 62
     0
100
AcDbLine
 10
9.163876853297182
 20
4.330391806323717
 30
0.0
 11
7.921105820877556
 21
5.573162838743343
 31
0.0
  0
LINE
  5
3871
330
37B6
100
AcDbEntity
  8
0
 62
     0
100
AcDbLine
 10
8.982817229606297
 20
4.062438623961128
 30
0.0
 11
7.903156304727218
 21
5.142099548840207
 31
0.0
  0
LINE
  5
3872
330
37B6
100
AcDbEntity
  8
0
 62
     0
100
AcDbLine
 10
8.74970404347286
 20
3.846539004041119
 30
0.0
 11
7.621242708064301
 21
4.975000339449707
 31
0.0
  0
LINE
  5
3873
330
37B6
100
AcDbEntity
  8
0
 62
     0
100
AcDbLine
 10
8.463071819606454
 20
3.684158421854078
 30
0.0
 11
7.172229902010826
 21
4.975000339449678
 31
0.0
  0
LINE
  5
3874
330
37B6
100
AcDbEntity
  8
0
 62
     0
100
AcDbLine
 10
8.110365525063485
 20
3.587851910343573
 30
0.0
 11
6.72321709595738
 21
4.975000339449678
 31
0.0
  0
LINE
  5
3875
330
37B6
100
AcDbEntity
  8
0
 62
     0
100
AcDbLine
 10
7.674204289903912
 20
3.575000339449672
 30
0.0
 11
6.274204289903906
 21
4.975000339449678
 31
0.0
  0
LINE
  5
3876
330
37B6
100
AcDbEntity
  8
0
 62
     0
100
AcDbLine
 10
7.225191483850494
 20
3.575000339449644
 30
0.0
 11
5.948529536441554
 21
4.851662286858612
 31
0.0
  0
LINE
  5
3877
330
37B6
100
AcDbEntity
  8
0
 62
     0
100
AcDbLine
 10
6.776178677796991
 20
3.575000339449672
 30
0.0
 11
5.908605820877596
 21
4.442573196369068
 31
0.0
  0
LINE
  5
3878
330
37B6
100
AcDbEntity
  8
0
 62
     0
100
AcDbLine
 10
6.327165871743574
 20
3.575000339449644
 30
0.0
 11
5.908605820877596
 21
3.993560390315622
 31
0.0
  0
LINE
  5
3879
330
37B6
100
AcDbEntity
  8
0
 62
     0
100
AcDbLine
 10
34.31694946321104
 20
3.581566228008426
 30
0.0
 11
34.51453993231893
 21
3.77915669711632
 31
0.0
  0
LINE
  5
387A
330
37B6
100
AcDbEntity
  8
0
 62
     0
100
AcDbLine
 10
33.86137076859887
 20
3.575000339449644
 30
0.0
 11
34.52110582087766
 21
4.234735391728463
 31
0.0
  0
LINE
  5
387B
330
37B6
100
AcDbEntity
  8
0
 62
     0
100
AcDbLine
 10
33.4123579625454
 20
3.575000339449672
 30
0.0
 11
34.52110582087766
 21
4.683748197781909
 31
0.0
  0
LINE
  5
387C
330
37B6
100
AcDbEntity
  8
0
 62
     0
100
AcDbLine
 10
33.13670460250349
 20
3.748359785461218
 30
0.0
 11
34.52110582087764
 21
5.132761003835383
 31
0.0
  0
LINE
  5
387D
330
37B6
100
AcDbEntity
  8
0
 62
     0
100
AcDbLine
 10
33.1211058208776
 20
4.181773809888795
 30
0.0
 11
34.52110582087764
 21
5.581773809888801
 31
0.0
  0
LINE
  5
387E
330
37B6
100
AcDbEntity
  8
0
 62
     0
100
AcDbLine
 10
33.12110582087763
 20
4.630786615942241
 30
0.0
 11
34.52110582087764
 21
6.030786615942275
 31
0.0
  0
LINE
  5
387F
330
37B6
100
AcDbEntity
  8
0
 62
     0
100
AcDbLine
 10
33.1211058208776
 20
5.079799421995716
 30
0.0
 11
34.52110582087764
 21
6.47979942199575
 31
0.0
  0
LINE
  5
3880
330
37B6
100
AcDbEntity
  8
0
 62
     0
100
AcDbLine
 10
33.1211058208776
 20
5.528812228049162
 30
0.0
 11
34.52110582087764
 21
6.928812228049196
 31
0.0
  0
LINE
  5
3881
330
37B6
100
AcDbEntity
  8
0
 62
     0
100
AcDbLine
 10
31.33438825191024
 20
3.7420946590818
 30
0.0
 11
31.90401150124552
 21
4.311717908417108
 31
0.0
  0
LINE
  5
3882
330
37B6
100
AcDbEntity
  8
0
 62
     0
100
AcDbLine
 10
33.1211058208776
 20
5.977825034102608
 30
0.0
 11
34.52110582087764
 21
7.377825034102642
 31
0.0
  0
LINE
  5
3883
330
37B6
100
AcDbEntity
  8
0
 62
     0
100
AcDbLine
 10
30.71910416864884
 20
3.575823381873846
 30
0.0
 11
32.0702827784535
 21
4.92700199167848
 31
0.0
  0
LINE
  5
3884
330
37B6
100
AcDbEntity
  8
0
 62
     0
100
AcDbLine
 10
33.1211058208776
 20
6.426837840156082
 30
0.0
 11
34.52110582087764
 21
7.826837840156088
 31
0.0
  0
LINE
  5
3885
330
37B6
100
AcDbEntity
  8
0
 62
     0
100
AcDbLine
 10
30.26926832017122
 20
3.575000339449701
 30
0.0
 11
32.07110582087764
 21
5.376837840156099
 31
0.0
  0
LINE
  5
3886
330
37B6
100
AcDbEntity
  8
0
 62
     0
100
AcDbLine
 10
33.1211058208776
 20
6.875850646209528
 30
0.0
 11
34.5211058208776
 21
8.275850646209562
 31
0.0
  0
LINE
  5
3887
330
37B6
100
AcDbEntity
  8
0
 62
     0
100
AcDbLine
 10
29.82025551411775
 20
3.575000339449701
 30
0.0
 11
32.07110582087762
 21
5.825850646209573
 31
0.0
  0
LINE
  5
3888
330
37B6
100
AcDbEntity
  8
0
 62
     0
100
AcDbLine
 10
33.1211058208776
 20
7.324863452262974
 30
0.0
 11
34.52110582087764
 21
8.724863452263008
 31
0.0
  0
LINE
  5
3889
330
37B6
100
AcDbEntity
  8
0
 62
     0
100
AcDbLine
 10
29.37124270806427
 20
3.575000339449644
 30
0.0
 11
32.07110582087764
 21
6.274863452263019
 31
0.0
  0
LINE
  5
388A
330
37B6
100
AcDbEntity
  8
0
 62
     0
100
AcDbLine
 10
30.61881021983708
 20
5.271580657275933
 30
0.0
 11
32.07110582087764
 21
6.723876258316465
 31
0.0
  0
LINE
  5
388B
330
37B6
100
AcDbEntity
  8
0
 62
     0
100
AcDbLine
 10
33.1211058208776
 20
7.77387625831642
 30
0.0
 11
34.52110582087764
 21
9.173876258316454
 31
0.0
  0
LINE
  5
388C
330
37B6
100
AcDbEntity
  8
0
 62
     0
100
AcDbLine
 10
28.92222990201085
 20
3.575000339449701
 30
0.0
 11
30.37452550305133
 21
5.027295940490148
 31
0.0
  0
LINE
  5
388D
330
37B6
100
AcDbEntity
  8
0
 62
     0
100
AcDbLine
 10
30.67110582087755
 20
5.772889064369877
 30
0.0
 11
32.07110582087762
 21
7.17288906436994
 31
0.0
  0
LINE
  5
388E
330
37B6
100
AcDbEntity
  8
0
 62
     0
100
AcDbLine
 10
33.12110582087757
 20
8.222889064369894
 30
0.0
 11
34.5211058208776
 21
9.622889064369928
 31
0.0
  0
LINE
  5
388F
330
37B6
100
AcDbEntity
  8
0
 62
     0
100
AcDbLine
 10
28.52919197164593
 20
3.630975215138221
 30
0.0
 11
29.87321709595738
 21
4.975000339449707
 31
0.0
  0
LINE
  5
3890
330
37B6
100
AcDbEntity
  8
0
 62
     0
100
AcDbLine
 10
30.67110582087755
 20
6.221901870423323
 30
0.0
 11
32.07110582087762
 21
7.621901870423386
 31
0.0
  0
LINE
  5
3891
330
37B6
100
AcDbEntity
  8
0
 62
     0
100
AcDbLine
 10
33.12110582087757
 20
8.671901870423369
 30
0.0
 11
34.5211058208776
 21
10.07190187042337
 31
0.0
  0
LINE
  5
3892
330
37B6
100
AcDbEntity
  8
0
 62
     0
100
AcDbLine
 10
28.21519853804085
 20
3.765994587586646
 30
0.0
 11
29.42464318272607
 21
4.975439232271867
 31
0.0
  0
LINE
  5
3893
330
37B6
100
AcDbEntity
  8
0
 62
     0
100
AcDbLine
 10
30.67110582087755
 20
6.670914676476769
 30
0.0
 11
32.07110582087762
 21
8.070914676476832
 31
0.0
  0
LINE
  5
3894
330
37B6
100
AcDbEntity
  8
0
 62
     0
100
AcDbLine
 10
33.1211058208776
 20
9.120914676476786
 30
0.0
 11
34.5211058208776
 21
10.52091467647682
 31
0.0
  0
LINE
  5
3895
330
37B6
100
AcDbEntity
  8
0
 62
     0
100
AcDbLine
 10
27.95856859735832
 20
3.958377452957506
 30
0.0
 11
29.10290388836972
 21
5.102712743968936
 31
0.0
  0
LINE
  5
3896
330
37B6
100
AcDbEntity
  8
0
 62
     0
100
AcDbLine
 10
30.67110582087755
 20
7.119927482530215
 30
0.0
 11
32.07110582087762
 21
8.519927482530306
 31
0.0
  0
LINE
  5
3897
330
37B6
100
AcDbEntity
  8
0
 62
     0
100
AcDbLine
 10
33.12110582087757
 20
9.56992748253026
 30
0.0
 11
34.5211058208776
 21
10.96992748253029
 31
0.0
  0
LINE
  5
3898
330
37B6
100
AcDbEntity
  8
0
 62
     0
100
AcDbLine
 10
27.75358650974576
 20
4.202408171398417
 30
0.0
 11
28.93428474916501
 21
5.383106410817703
 31
0.0
  0
LINE
  5
3899
330
37B6
100
AcDbEntity
  8
0
 62
     0
100
AcDbLine
 10
30.67110582087753
 20
7.568940288583689
 30
0.0
 11
32.07110582087762
 21
8.968940288583752
 31
0.0
  0
LINE
  5
389A
330
37B6
100
AcDbEntity
  8
0
 62
     0
100
AcDbLine
 10
33.12110582087757
 20
10.0189402885837
 30
0.0
 11
34.51603124410238
 21
11.41386571180854
 31
0.0
  0
LINE
  5
389B
330
37B6
100
AcDbEntity
  8
0
 62
     0
100
AcDbLine
 10
27.60362407052875
 20
4.501458538234913
 30
0.0
 11
28.92110582087756
 21
5.818940288583718
 31
0.0
  0
LINE
  5
389C
330
37B6
100
AcDbEntity
  8
0
 62
     0
100
AcDbLine
 10
30.67110582087758
 20
8.017953094637164
 30
0.0
 11
32.07110582087762
 21
9.417953094637198
 31
0.0
  0
LINE
  5
389D
330
37B6
100
AcDbEntity
  8
0
 62
     0
100
AcDbLine
 10
33.12110582087757
 20
10.46795309463715
 30
0.0
 11
34.27747407156263
 21
11.62432134532221
 31
0.0
  0
LINE
  5
389E
330
37B6
100
AcDbEntity
  8
0
 62
     0
100
AcDbLine
 10
27.52491730305052
 20
4.871764576810107
 30
0.0
 11
28.92110582087758
 21
6.267953094637164
 31
0.0
  0
LINE
  5
389F
330
37B6
100
AcDbEntity
  8
0
 62
     0
100
AcDbLine
 10
30.67110582087758
 20
8.466965900690638
 30
0.0
 11
32.07110582087762
 21
9.866965900690644
 31
0.0
  0
LINE
  5
38A0
330
37B6
100
AcDbEntity
  8
0
 62
     0
100
AcDbLine
 10
33.1211058208776
 20
10.91696590069065
 30
0.0
 11
33.8291402596366
 21
11.62500033944965
 31
0.0
  0
LINE
  5
38A1
330
37B6
100
AcDbEntity
  8
0
 62
     0
100
AcDbLine
 10
27.52110582087758
 20
5.316965900690632
 30
0.0
 11
28.92110582087761
 21
6.716965900690667
 31
0.0
  0
LINE
  5
38A2
330
37B6
100
AcDbEntity
  8
0
 62
     0
100
AcDbLine
 10
30.67110582087758
 20
8.915978706744084
 30
0.0
 11
32.07110582087759
 21
10.31597870674411
 31
0.0
  0
LINE
  5
38A3
330
37B6
100
AcDbEntity
  8
0
 62
     0
100
AcDbLine
 10
27.52110582087758
 20
5.765978706744078
 30
0.0
 11
28.92110582087758
 21
7.165978706744112
 31
0.0
  0
LINE
  5
38A4
330
37B6
100
AcDbEntity
  8
0
 62
     0
100
AcDbLine
 10
33.12112917825132
 20
11.36600206411785
 30
0.0
 11
33.38010409620946
 21
11.62497698207596
 31
0.0
  0
LINE
  5
38A5
330
37B6
100
AcDbEntity
  8
0
 62
     0
100
AcDbLine
 10
25.36032800552161
 20
3.605200891388108
 30
0.0
 11
26.44090526893918
 21
4.685778154805717
 31
0.0
  0
LINE
  5
38A6
330
37B6
100
AcDbEntity
  8
0
 62
     0
100
AcDbLine
 10
27.52110582087755
 20
6.214991512797553
 30
0.0
 11
28.92110582087758
 21
7.614991512797587
 31
0.0
  0
LINE
  5
38A7
330
37B6
100
AcDbEntity
  8
0
 62
     0
100
AcDbLine
 10
30.67110582087755
 20
9.364991512797558
 30
0.0
 11
32.07110582087759
 21
10.76499151279759
 31
0.0
  0
LINE
  5
38A8
330
37B6
100
AcDbEntity
  8
0
 62
     0
100
AcDbLine
 10
24.8811146475297
 20
3.575000339449701
 30
0.0
 11
26.47110582087757
 21
5.164991512797541
 31
0.0
  0
LINE
  5
38A9
330
37B6
100
AcDbEntity
  8
0
 62
     0
100
AcDbLine
 10
27.52110582087758
 20
6.664004318850999
 30
0.0
 11
28.92110582087761
 21
8.064004318851004
 31
0.0
  0
LINE
  5
38AA
330
37B6
100
AcDbEntity
  8
0
 62
     0
100
AcDbLine
 10
30.67110582087758
 20
9.814004318850976
 30
0.0
 11
32.07110582087762
 21
11.21400431885101
 31
0.0
  0
LINE
  5
38AB
330
37B6
100
AcDbEntity
  8
0
 62
     0
100
AcDbLine
 10
24.43210184147622
 20
3.575000339449644
 30
0.0
 11
26.47110582087762
 21
5.614004318851016
 31
0.0
  0
LINE
  5
38AC
330
37B6
100
AcDbEntity
  8
0
 62
     0
100
AcDbLine
 10
27.52110582087758
 20
7.113017124904445
 30
0.0
 11
28.92110582087758
 21
8.513017124904479
 31
0.0
  0
LINE
  5
38AD
330
37B6
100
AcDbEntity
  8
0
 62
     0
100
AcDbLine
 10
30.67110582087755
 20
10.26301712490445
 30
0.0
 11
31.97423709346057
 21
11.56614839748746
 31
0.0
  0
LINE
  5
38AE
330
37B6
100
AcDbEntity
  8
0
 62
     0
100
AcDbLine
 10
23.98308903542277
 20
3.575000339449672
 30
0.0
 11
26.46394652067113
 21
6.055857824698023
 31
0.0
  0
LINE
  5
38AF
330
37B6
100
AcDbEntity
  8
0
 62
     0
100
AcDbLine
 10
27.52110582087755
 20
7.562029930957919
 30
0.0
 11
28.92110582087758
 21
8.962029930957953
 31
0.0
  0
LINE
  5
38B0
330
37B6
100
AcDbEntity
  8
0
 62
     0
100
AcDbLine
 10
30.67110582087755
 20
10.71202993095792
 30
0.0
 11
31.58407622936931
 21
11.62500033944968
 31
0.0
  0
LINE
  5
38B1
330
37B6
100
AcDbEntity
  8
0
 62
     0
100
AcDbLine
 10
23.5340762293693
 20
3.575000339449672
 30
0.0
 11
26.39649033535675
 21
6.437414445437099
 31
0.0
  0
LINE
  5
38B2
330
37B6
100
AcDbEntity
  8
0
 62
     0
100
AcDbLine
 10
27.52110582087758
 20
8.011042737011337
 30
0.0
 11
28.92110582087758
 21
9.411042737011371
 31
0.0
  0
LINE
  5
38B3
330
37B6
100
AcDbEntity
  8
0
 62
     0
100
AcDbLine
 10
25.07110582087761
 20
5.561042737011405
 30
0.0
 11
26.27619660689748
 21
6.766133523031243
 31
0.0
  0
LINE
  5
38B4
330
37B6
100
AcDbEntity
  8
0
 62
     0
100
AcDbLine
 10
30.67110582087758
 20
11.16104273701134
 30
0.0
 11
31.13506342331592
 21
11.62500033944971
 31
0.0
  0
LINE
  5
38B5
330
37B6
100
AcDbEntity
  8
0
 62
     0
100
AcDbLine
 10
23.14919109988142
 20
3.639128016015206
 30
0.0
 11
24.48506342331586
 21
4.97500033944965
 31
0.0
  0
LINE
  5
38B6
330
37B6
100
AcDbEntity
  8
0
 62
     0
100
AcDbLine
 10
25.06117053331397
 20
6.000120255501201
 30
0.0
 11
26.11444695446721
 21
7.053396676654443
 31
0.0
  0
LINE
  5
38B7
330
37B6
100
AcDbEntity
  8
0
 62
     0
100
AcDbLine
 10
27.52110582087761
 20
8.460055543064839
 30
0.0
 11
28.92110582087761
 21
9.860055543064873
 31
0.0
  0
LINE
  5
38B8
330
37B6
100
AcDbEntity
  8
0
 62
     0
100
AcDbLine
 10
23.05860582087757
 20
3.997555543064834
 30
0.0
 11
24.03605061726239
 21
4.97500033944965
 31
0.0
  0
LINE
  5
38B9
330
37B6
100
AcDbEntity
  8
0
 62
     0
100
AcDbLine
 10
24.92397811474452
 20
6.311940642985263
 30
0.0
 11
25.9165113955033
 21
7.304473923744041
 31
0.0
  0
LINE
  5
38BA
330
37B6
100
AcDbEntity
  8
0
 62
     0
100
AcDbLine
 10
27.52110582087758
 20
8.909068349118314
 30
0.0
 11
28.92110582087761
 21
10.30906834911834
 31
0.0
  0
LINE
  5
38BB
330
37B6
100
AcDbEntity
  8
0
 62
     0
100
AcDbLine
 10
23.05860582087757
 20
4.44656834911828
 30
0.0
 11
23.58703781120894
 21
4.975000339449678
 31
0.0
  0
LINE
  5
38BC
330
37B6
100
AcDbEntity
  8
0
 62
     0
100
AcDbLine
 10
27.52110582087761
 20
9.35808115517176
 30
0.0
 11
28.92110582087764
 21
10.75808115517176
 31
0.0
  0
LINE
  5
38BD
330
37B6
100
AcDbEntity
  8
0
 62
     0
100
AcDbLine
 10
24.70334066618599
 20
6.540316000480117
 30
0.0
 11
25.69329015984718
 21
7.530265494141332
 31
0.0
  0
LINE
  5
38BE
330
37B6
100
AcDbEntity
  8
0
 62
     0
100
AcDbLine
 10
24.47883426315925
 20
6.764822403506855
 30
0.0
 11
25.46878375682041
 21
7.754771897168012
 31
0.0
  0
LINE
  5
38BF
330
37B6
100
AcDbEntity
  8
0
 62
     0
100
AcDbLine
 10
27.52110582087758
 20
9.807093961225206
 30
0.0
 11
28.92110582087761
 21
11.20709396122524
 31
0.0
  0
LINE
  5
38C0
330
37B6
100
AcDbEntity
  8
0
 62
     0
100
AcDbLine
 10
21.28901219910204
 20
3.575000339449672
 30
0.0
 11
21.7461058208776
 21
4.0320939612252
 31
0.0
  0
LINE
  5
38C1
330
37B6
100
AcDbEntity
  8
0
 62
     0
100
AcDbLine
 10
24.25432786013255
 20
6.989328806533649
 30
0.0
 11
25.24427735379367
 21
7.979278300194749
 31
0.0
  0
LINE
  5
38C2
330
37B6
100
AcDbEntity
  8
0
 62
     0
100
AcDbLine
 10
27.52110582087758
 20
10.25610676727868
 30
0.0
 11
28.82801536682828
 21
11.56301631322935
 31
0.0
  0
LINE
  5
38C3
330
37B6
100
AcDbEntity
  8
0
 62
     0
100
AcDbLine
 10
20.8399993930486
 20
3.575000339449672
 30
0.0
 11
21.74610582087757
 21
4.481106767278674
 31
0.0
  0
LINE
  5
38C4
330
37B6
100
AcDbEntity
  8
0
 62
     0
100
AcDbLine
 10
24.02982145710578
 20
7.213835209560329
 30
0.0
 11
25.01977095076694
 21
8.203784703221487
 31
0.0
  0
LINE
  5
38C5
330
37B6
100
AcDbEntity
  8
0
 62
     0
100
AcDbLine
 10
27.52110582087758
 20
10.70511957333212
 30
0.0
 11
28.44098658699513
 21
11.62500033944971
 31
0.0
  0
LINE
  5
38C6
330
37B6
100
AcDbEntity
  8
0
 62
     0
100
AcDbLine
 10
20.44679215592609
 20
3.630805908380636
 30
0.0
 11
21.7461058208776
 21
4.930119573332177
 31
0.0
  0
LINE
  5
38C7
330
37B6
100
AcDbEntity
  8
0
 62
     0
100
AcDbLine
 10
23.80531505407907
 20
7.438341612587038
 30
0.0
 11
24.79526454774023
 21
8.428291106248195
 31
0.0
  0
LINE
  5
38C8
330
37B6
100
AcDbEntity
  8
0
 62
     0
100
AcDbLine
 10
27.52110582087758
 20
11.15413237938557
 30
0.0
 11
27.99197378094172
 21
11.62500033944968
 31
0.0
  0
LINE
  5
38C9
330
37B6
100
AcDbEntity
  8
0
 62
     0
100
AcDbLine
 10
20.34610582087756
 20
3.979132379385532
 30
0.0
 11
21.74610582087763
 21
5.379132379385595
 31
0.0
  0
LINE
  5
38CA
330
37B6
100
AcDbEntity
  8
0
 62
     0
100
AcDbLine
 10
23.58080865105233
 20
7.662848015613775
 30
0.0
 11
24.57075814471349
 21
8.652797509274932
 31
0.0
  0
LINE
  5
38CB
330
37B6
100
AcDbEntity
  8
0
 62
     0
100
AcDbLine
 10
20.34610582087759
 20
4.428145185439035
 30
0.0
 11
21.7461058208776
 21
5.828145185439069
 31
0.0
  0
LINE
  5
38CC
330
37B6
100
AcDbEntity
  8
0
 62
     0
100
AcDbLine
 10
23.35731670053167
 20
7.88836887114661
 30
0.0
 11
24.34930346722268
 21
8.880355637837595
 31
0.0
  0
LINE
  5
38CD
330
37B6
100
AcDbEntity
  8
0
 62
     0
100
AcDbLine
 10
20.34610582087756
 20
4.877157991492509
 30
0.0
 11
21.7461058208776
 21
6.277157991492543
 31
0.0
  0
LINE
  5
38CE
330
37B6
100
AcDbEntity
  8
0
 62
     0
100
AcDbLine
 10
25.69394816883476
 20
10.22500033944967
 30
0.0
 11
26.20860582087757
 21
10.73965799149252
 31
0.0
  0
LINE
  5
38CF
330
37B6
100
AcDbEntity
  8
0
 62
     0
100
AcDbLine
 10
19.0997777085225
 20
3.630829879137422
 30
0.0
 11
19.14460388925002
 21
3.675656059864962
 31
0.0
  0
LINE
  5
38D0
330
37B6
100
AcDbEntity
  8
0
 62
     0
100
AcDbLine
 10
23.15831561112068
 20
8.138380587789043
 30
0.0
 11
24.20813274982998
 21
9.188197726498344
 31
0.0
  0
LINE
  5
38D1
330
37B6
100
AcDbEntity
  8
0
 62
     0
100
AcDbLine
 10
20.34610582087759
 20
5.326170797545927
 30
0.0
 11
21.74610582087763
 21
6.726170797545961
 31
0.0
  0
LINE
  5
38D2
330
37B6
100
AcDbEntity
  8
0
 62
     0
100
AcDbLine
 10
25.24493536278132
 20
10.22500033944967
 30
0.0
 11
26.20860582087761
 21
11.18867079754593
 31
0.0
  0
LINE
  5
38D3
330
37B6
100
AcDbEntity
  8
0
 62
     0
100
AcDbLine
 10
18.59493536278128
 20
3.575000339449644
 30
0.0
 11
19.12782491093452
 21
4.107889887602851
 31
0.0
  0
LINE
  5
38D4
330
37B6
100
AcDbEntity
  8
0
 62
     0
100
AcDbLine
 10
22.99539847892233
 20
8.424476261644173
 30
0.0
 11
24.19610582087765
 21
9.625183603599452
 31
0.0
  0
LINE
  5
38D5
330
37B6
100
AcDbEntity
  8
0
 62
     0
100
AcDbLine
 10
20.34610582087756
 20
5.775183603599401
 30
0.0
 11
21.7461058208776
 21
7.175183603599435
 31
0.0
  0
LINE
  5
38D6
330
37B6
100
AcDbEntity
  8
0
 62
     0
100
AcDbLine
 10
24.79592255672787
 20
10.22500033944967
 30
0.0
 11
26.12527135497868
 21
11.55434913770051
 31
0.0
  0
LINE
  5
38D7
330
37B6
100
AcDbEntity
  8
0
 62
     0
100
AcDbLine
 10
18.14592255672783
 20
3.575000339449644
 30
0.0
 11
19.0200618374817
 21
4.449139620203538
 31
0.0
  0
LINE
  5
38D8
330
37B6
100
AcDbEntity
  8
0
 62
     0
100
AcDbLine
 10
20.34610582087756
 20
6.224196409652876
 30
0.0
 11
21.7461058208776
 21
7.624196409652881
 31
0.0
  0
LINE
  5
38D9
330
37B6
100
AcDbEntity
  8
0
 62
     0
100
AcDbLine
 10
22.87370744758729
 20
8.7517980363626
 30
0.0
 11
25.74690975067443
 21
11.62500033944971
 31
0.0
  0
LINE
  5
38DA
330
37B6
100
AcDbEntity
  8
0
 62
     0
100
AcDbLine
 10
17.84991540140029
 20
3.728005990175603
 30
0.0
 11
18.91229876402886
 21
4.790389352804169
 31
0.0
  0
LINE
  5
38DB
330
37B6
100
AcDbEntity
  8
0
 62
     0
100
AcDbLine
 10
20.34610582087756
 20
6.673209215706322
 30
0.0
 11
21.74610582087757
 21
8.073209215706356
 31
0.0
  0
LINE
  5
38DC
330
37B6
100
AcDbEntity
  8
0
 62
     0
100
AcDbLine
 10
22.80435401804445
 20
9.131457412873231
 30
0.0
 11
25.29789694462095
 21
11.62500033944974
 31
0.0
  0
LINE
  5
38DD
330
37B6
100
AcDbEntity
  8
0
 62
     0
100
AcDbLine
 10
17.74053569057599
 20
4.067639085404778
 30
0.0
 11
18.80453569057598
 21
5.131639085404771
 31
0.0
  0
LINE
  5
38DE
330
37B6
100
AcDbEntity
  8
0
 62
     0
100
AcDbLine
 10
20.34610582087756
 20
7.122222021759768
 30
0.0
 11
21.7461058208776
 21
8.522222021759802
 31
0.0
  0
LINE
  5
38DF
330
37B6
100
AcDbEntity
  8
0
 62
     0
100
AcDbLine
 10
22.79610582087761
 20
9.572222021759785
 30
0.0
 11
24.84888413856748
 21
11.62500033944968
 31
0.0
  0
LINE
  5
38E0
330
37B6
100
AcDbEntity
  8
0
 62
     0
100
AcDbLine
 10
17.63277261712318
 20
4.40888881800538
 30
0.0
 11
18.69677261712323
 21
5.472888818005401
 31
0.0
  0
LINE
  5
38E1
330
37B6
100
AcDbEntity
  8
0
 62
     0
100
AcDbLine
 10
20.34610582087759
 20
7.57123482781327
 30
0.0
 11
21.7461058208776
 21
8.971234827813248
 31
0.0
  0
LINE
  5
38E2
330
37B6
100
AcDbEntity
  8
0
 62
     0
100
AcDbLine
 10
22.79610582087758
 20
10.02123482781325
 30
0.0
 11
24.39987133251404
 21
11.62500033944968
 31
0.0
  0
LINE
  5
38E3
330
37B6
100
AcDbEntity
  8
0
 62
     0
100
AcDbLine
 10
17.5250095436703
 20
4.750138550605981
 30
0.0
 11
18.58900954367038
 21
5.814138550606031
 31
0.0
  0
LINE
  5
38E4
330
37B6
100
AcDbEntity
  8
0
 62
     0
100
AcDbLine
 10
20.34610582087759
 20
8.020247633866716
 30
0.0
 11
21.74610582087757
 21
9.420247633866722
 31
0.0
  0
LINE
  5
38E5
330
37B6
100
AcDbEntity
  8
0
 62
     0
100
AcDbLine
 10
17.41724647021749
 20
5.09138828320664
 30
0.0
 11
18.48124647021754
 21
6.155388283206661
 31
0.0
  0
LINE
  5
38E6
330
37B6
100
AcDbEntity
  8
0
 62
     0
100
AcDbLine
 10
22.82276415593821
 20
10.49690596892736
 30
0.0
 11
23.92420019139987
 21
11.59834200438902
 31
0.0
  0
LINE
  5
38E7
330
37B6
100
AcDbEntity
  8
0
 62
     0
100
AcDbLine
 10
15.90085852646055
 20
3.575000339449672
 30
0.0
 11
16.32110582087759
 21
3.995247633866739
 31
0.0
  0
LINE
  5
38E8
330
37B6
100
AcDbEntity
  8
0
 62
     0
100
AcDbLine
 10
17.3094833967647
 20
5.432638015807242
 30
0.0
 11
18.37348339676466
 21
6.496638015807235
 31
0.0
  0
LINE
  5
38E9
330
37B6
100
AcDbEntity
  8
0
 62
     0
100
AcDbLine
 10
20.34610582087759
 20
8.469260439920162
 30
0.0
 11
21.7461058208776
 21
9.86926043992014
 31
0.0
  0
LINE
  5
38EA
330
37B6
100
AcDbEntity
  8
0
 62
     0
100
AcDbLine
 10
15.4518457204071
 20
3.575000339449672
 30
0.0
 11
16.32110582087761
 21
4.444260439920185
 31
0.0
  0
LINE
  5
38EB
330
37B6
100
AcDbEntity
  8
0
 62
     0
100
AcDbLine
 10
17.20172032331186
 20
5.773887748407872
 30
0.0
 11
18.26572032331188
 21
6.837887748407922
 31
0.0
  0
LINE
  5
38EC
330
37B6
100
AcDbEntity
  8
0
 62
     0
100
AcDbLine
 10
20.34610582087759
 20
8.918273245973637
 30
0.0
 11
21.74610582087757
 21
10.31827324597361
 31
0.0
  0
LINE
  5
38ED
330
37B6
100
AcDbEntity
  8
0
 62
     0
100
AcDbLine
 10
15.04340778817925
 20
3.615575213275292
 30
0.0
 11
16.32110582087761
 21
4.893273245973631
 31
0.0
  0
LINE
  5
38EE
330
37B6
100
AcDbEntity
  8
0
 62
     0
100
AcDbLine
 10
17.09395724985895
 20
6.115137481008474
 30
0.0
 11
18.15795724985903
 21
7.179137481008552
 31
0.0
  0
LINE
  5
38EF
330
37B6
100
AcDbEntity
  8
0
 62
     0
100
AcDbLine
 10
20.34610582087759
 20
9.367286052027083
 30
0.0
 11
21.74610582087757
 21
10.76728605202708
 31
0.0
  0
LINE
  5
38F0
330
37B6
100
AcDbEntity
  8
0
 62
     0
100
AcDbLine
 10
14.92110582087755
 20
3.942286052027071
 30
0.0
 11
16.32110582087759
 21
5.342286052027105
 31
0.0
  0
LINE
  5
38F1
330
37B6
100
AcDbEntity
  8
0
 62
     0
100
AcDbLine
 10
16.9861941764062
 20
6.456387213609104
 30
0.0
 11
18.05019417640622
 21
7.520387213609154
 31
0.0
  0
LINE
  5
38F2
330
37B6
100
AcDbEntity
  8
0
 62
     0
100
AcDbLine
 10
20.34610582087759
 20
9.816298858080529
 30
0.0
 11
21.74610582087757
 21
11.2162988580805
 31
0.0
  0
LINE
  5
38F3
330
37B6
100
AcDbEntity
  8
0
 62
     0
100
AcDbLine
 10
14.92110582087758
 20
4.391298858080517
 30
0.0
 11
16.32110582087761
 21
5.791298858080523
 31
0.0
  0
LINE
  5
38F4
330
37B6
100
AcDbEntity
  8
0
 62
     0
100
AcDbLine
 10
16.86879478292033
 20
6.788000626176739
 30
0.0
 11
18.18394181688577
 21
8.103147660142184
 31
0.0
  0
LINE
  5
38F5
330
37B6
100
AcDbEntity
  8
0
 62
     0
100
AcDbLine
 10
20.34610582087759
 20
10.26531166413397
 30
0.0
 11
21.6479681096284
 21
11.56717395288478
 31
0.0
  0
LINE
  5
38F6
330
37B6
100
AcDbEntity
  8
0
 62
     0
100
AcDbLine
 10
14.92110582087758
 20
4.840311664133963
 30
0.0
 11
16.32110582087759
 21
6.240311664133997
 31
0.0
  0
LINE
  5
38F7
330
37B6
100
AcDbEntity
  8
0
 62
     0
100
AcDbLine
 10
16.52520209798663
 20
6.893420747296516
 30
0.0
 11
18.39117849660274
 21
8.759397145912629
 31
0.0
  0
LINE
  5
38F8
330
37B6
100
AcDbEntity
  8
0
 62
     0
100
AcDbLine
 10
14.92110582087755
 20
5.289324470187438
 30
0.0
 11
16.32768541303076
 21
6.695904062340616
 31
0.0
  0
LINE
  5
38F9
330
37B6
100
AcDbEntity
  8
0
 62
     0
100
AcDbLine
 10
20.34610582087756
 20
10.71432447018745
 30
0.0
 11
21.2567816901398
 21
11.62500033944968
 31
0.0
  0
LINE
  5
38FA
330
37B6
100
AcDbEntity
  8
0
 62
     0
100
AcDbLine
 10
13.20678169013979
 20
3.575000339449644
 30
0.0
 11
13.69610582087761
 21
4.0643244701875
 31
0.0
  0
LINE
  5
38FB
330
37B6
100
AcDbEntity
  8
0
 62
     0
100
AcDbLine
 10
14.92110582087755
 20
5.738337276240883
 30
0.0
 11
18.59841517631972
 21
9.415646631683046
 31
0.0
  0
LINE
  5
38FC
330
37B6
100
AcDbEntity
  8
0
 62
     0
100
AcDbLine
 10
20.34610582087759
 20
11.16333727624095
 30
0.0
 11
20.80776888408633
 21
11.62500033944968
 31
0.0
  0
LINE
  5
38FD
330
37B6
100
AcDbEntity
  8
0
 62
     0
100
AcDbLine
 10
12.75776888408631
 20
3.575000339449672
 30
0.0
 11
13.69610582087761
 21
4.513337276240974
 31
0.0
  0
LINE
  5
38FE
330
37B6
100
AcDbEntity
  8
0
 62
     0
100
AcDbLine
 10
14.92110582087755
 20
6.187350082294329
 30
0.0
 11
18.80565185603674
 21
10.07189611745349
 31
0.0
  0
LINE
  5
38FF
330
37B6
100
AcDbEntity
  8
0
 62
     0
100
AcDbLine
 10
12.31459639020792
 20
3.580840651624697
 30
0.0
 11
13.62543867907453
 21
4.891682940491278
 31
0.0
  0
LINE
  5
3900
330
37B6
100
AcDbEntity
  8
0
 62
     0
100
AcDbLine
 10
14.92110582087755
 20
6.636362888347804
 30
0.0
 11
16.58474327197942
 21
8.300000339449667
 31
0.0
  0
LINE
  5
3901
330
37B6
100
AcDbEntity
  8
0
 62
     0
100
AcDbLine
 10
16.96673468959977
 20
8.681991757070022
 30
0.0
 11
19.01288853575374
 21
10.72814560322396
 31
0.0
  0
LINE
  5
3902
330
37B6
100
AcDbEntity
  8
0
 62
     0
100
AcDbLine
 10
11.93051613148443
 20
3.645773198954657
 30
0.0
 11
13.25974327197946
 21
4.975000339449678
 31
0.0
  0
LINE
  5
3903
330
37B6
100
AcDbEntity
  8
0
 62
     0
100
AcDbLine
 10
14.92110582087758
 20
7.085375694401307
 30
0.0
 11
16.33010110623175
 21
8.494370979755444
 31
0.0
  0
LINE
  5
3904
330
37B6
100
AcDbEntity
  8
0
 62
     0
100
AcDbLine
 10
17.17397136931674
 20
9.338241242840439
 30
0.0
 11
19.20042426165443
 21
11.36469413517815
 31
0.0
  0
LINE
  5
3905
330
37B6
100
AcDbEntity
  8
0
 62
     0
100
AcDbLine
 10
11.59994900307123
 20
3.764218876594952
 30
0.0
 11
12.81073046592598
 21
4.975000339449707
 31
0.0
  0
LINE
  5
3906
330
37B6
100
AcDbEntity
  8
0
 62
     0
100
AcDbLine
 10
14.92110582087761
 20
7.534388500454724
 30
0.0
 11
16.32110582087761
 21
8.934388500454758
 31
0.0
  0
LINE
  5
3907
330
37B6
100
AcDbEntity
  8
0
 62
     0
100
AcDbLine
 10
17.38120804903371
 20
9.994490728610855
 30
0.0
 11
19.00341832536983
 21
11.61670100494697
 31
0.0
  0
LINE
  5
3908
330
37B6
100
AcDbEntity
  8
0
 62
     0
100
AcDbLine
 10
11.31114736098908
 20
3.924430040566193
 30
0.0
 11
12.36917829023551
 21
4.982460969812649
 31
0.0
  0
LINE
  5
3909
330
37B6
100
AcDbEntity
  8
0
 62
     0
100
AcDbLine
 10
14.92110582087758
 20
7.983401306508199
 30
0.0
 11
16.32110582087761
 21
9.383401306508233
 31
0.0
  0
LINE
  5
390A
330
37B6
100
AcDbEntity
  8
0
 62
     0
100
AcDbLine
 10
17.58844472875071
 20
10.65074021438132
 30
0.0
 11
18.56270485381907
 21
11.62500033944968
 31
0.0
  0
LINE
  5
390B
330
37B6
100
AcDbEntity
  8
0
 62
     0
100
AcDbLine
 10
11.05866987779805
 20
4.120965363428638
 30
0.0
 11
12.05202021972636
 21
5.114315705356943
 31
0.0
  0
LINE
  5
390C
330
37B6
100
AcDbEntity
  8
0
 62
     0
100
AcDbLine
 10
14.92110582087758
 20
8.432414112561644
 30
0.0
 11
16.32110582087761
 21
9.832414112561679
 31
0.0
  0
LINE
  5
390D
330
37B6
100
AcDbEntity
  8
0
 62
     0
100
AcDbLine
 10
13.25192288676584
 20
6.763231178449927
 30
0.0
 11
13.83287498187738
 21
7.344183273561469
 31
0.0
  0
LINE
  5
390E
330
37B6
100
AcDbEntity
  8
0
 62
     0
100
AcDbLine
 10
17.79568140846768
 20
11.30698970015177
 30
0.0
 11
18.11369204776562
 21
11.62500033944971
 31
0.0
  0
LINE
  5
390F
330
37B6
100
AcDbEntity
  8
0
 62
     0
100
AcDbLine
 10
10.84045134113313
 20
4.35175963281722
 30
0.0
 11
11.84689474409026
 21
5.358203035774351
 31
0.0
  0
LINE
  5
3910
330
37B6
100
AcDbEntity
  8
0
 62
     0
100
AcDbLine
 10
12.78943646595092
 20
6.74975756368849
 30
0.0
 11
13.84634859663882
 21
7.806669694376353
 31
0.0
  0
LINE
  5
3911
330
37B6
100
AcDbEntity
  8
0
 62
     0
100
AcDbLine
 10
14.92110582087755
 20
8.881426918615119
 30
0.0
 11
16.32110582087759
 21
10.28142691861515
 31
0.0
  0
LINE
  5
3912
330
37B6
100
AcDbEntity
  8
0
 62
     0
100
AcDbLine
 10
10.65694172866165
 20
4.617262826399183
 30
0.0
 11
11.7711058208776
 21
5.73142691861517
 31
0.0
  0
LINE
  5
3913
330
37B6
100
AcDbEntity
  8
0
 62
     0
100
AcDbLine
 10
12.48236318124082
 20
6.891697085031779
 30
0.0
 11
13.7044090752955
 21
8.113742979086481
 31
0.0
  0
LINE
  5
3914
330
37B6
100
AcDbEntity
  8
0
 62
     0
100
AcDbLine
 10
14.92110582087758
 20
9.330439724668565
 30
0.0
 11
16.32110582087761
 21
10.73043972466857
 31
0.0
  0
LINE
  5
3915
330
37B6
100
AcDbEntity
  8
0
 62
     0
100
AcDbLine
 10
10.51128297369928
 20
4.92061687749026
 30
0.0
 11
11.7711058208776
 21
6.180439724668588
 31
0.0
  0
LINE
  5
3916
330
37B6
100
AcDbEntity
  8
0
 62
     0
100
AcDbLine
 10
12.26338321774596
 20
7.121729927590422
 30
0.0
 11
13.47437623273688
 21
8.332722942581312
 31
0.0
  0
LINE
  5
3917
330
37B6
100
AcDbEntity
  8
0
 62
     0
100
AcDbLine
 10
14.92110582087758
 20
9.779452530722011
 30
0.0
 11
16.32110582087759
 21
11.17945253072204
 31
0.0
  0
LINE
  5
3918
330
37B6
100
AcDbEntity
  8
0
 62
     0
100
AcDbLine
 10
10.41071429161195
 20
5.269061001456407
 30
0.0
 11
11.7711058208776
 21
6.629452530722062
 31
0.0
  0
LINE
  5
3919
330
37B6
100
AcDbEntity
  8
0
 62
     0
100
AcDbLine
 10
12.13535785154178
 20
7.442717367439684
 30
0.0
 11
13.15338879288759
 21
8.460748308785525
 31
0.0
  0
LINE
  5
391A
330
37B6
100
AcDbEntity
  8
0
 62
     0
100
AcDbLine
 10
10.37110582087751
 20
5.678465336775445
 30
0.0
 11
11.7711058208776
 21
7.078465336775508
 31
0.0
  0
LINE
  5
391B
330
37B6
100
AcDbEntity
  8
0
 62
     0
100
AcDbLine
 10
14.92110582087755
 20
10.22846533677548
 30
0.0
 11
16.24248076670005
 21
11.54984028259798
 31
0.0
  0
LINE
  5
391C
330
37B6
100
AcDbEntity
  8
0
 62
     0
100
AcDbLine
 10
8.328107441939778
 20
3.635466957837707
 30
0.0
 11
9.260639202489642
 21
4.56799871838757
 31
0.0
  0
LINE
  5
391D
330
37B6
100
AcDbEntity
  8
0
 62
     0
100
AcDbLine
 10
12.19456439328217
 20
7.950936715233524
 30
0.0
 11
12.64516944509378
 21
8.401541767045131
 31
0.0
  0
LINE
  5
391E
330
37B6
100
AcDbEntity
  8
0
 62
     0
100
AcDbLine
 10
10.37110582087754
 20
6.127478142828891
 30
0.0
 11
11.7711058208776
 21
7.527478142828954
 31
0.0
  0
LINE
  5
391F
330
37B6
100
AcDbEntity
  8
0
 62
     0
100
AcDbLine
 10
14.92110582087758
 20
10.6774781428289
 30
0.0
 11
15.86862801749836
 21
11.62500033944971
 31
0.0
  0
LINE
  5
3920
330
37B6
100
AcDbEntity
  8
0
 62
     0
100
AcDbLine
 10
7.818628017498298
 20
3.575000339449644
 30
0.0
 11
9.321105820877619
 21
5.077478142828965
 31
0.0
  0
LINE
  5
3921
330
37B6
100
AcDbEntity
  8
0
 62
     0
100
AcDbLine
 10
10.37110582087754
 20
6.576490948882337
 30
0.0
 11
11.7711058208776
 21
7.976490948882428
 31
0.0
  0
LINE
  5
3922
330
37B6
100
AcDbEntity
  8
0
 62
     0
100
AcDbLine
 10
14.92110582087755
 20
11.12649094888237
 30
0.0
 11
15.41961521144486
 21
11.62500033944968
 31
0.0
  0
LINE
  5
3923
330
37B6
100
AcDbEntity
  8
0
 62
     0
100
AcDbLine
 10
7.369615211444852
 20
3.575000339449644
 30
0.0
 11
9.321105820877619
 21
5.52649094888244
 31
0.0
  0
LINE
  5
3924
330
37B6
100
AcDbEntity
  8
0
 62
     0
100
AcDbLine
 10
10.37110582087751
 20
7.025503754935812
 30
0.0
 11
11.77110582087758
 21
8.425503754935874
 31
0.0
  0
LINE
  5
3925
330
37B6
100
AcDbEntity
  8
0
 62
     0
100
AcDbLine
 10
6.920602405391377
 20
3.575000339449672
 30
0.0
 11
9.319136144597024
 21
5.973534078655319
 31
0.0
  0
LINE
  5
3926
330
37B6
100
AcDbEntity
  8
0
 62
     0
100
AcDbLine
 10
10.37110582087757
 20
7.474516560989314
 30
0.0
 11
11.7711058208776
 21
8.874516560989349
 31
0.0
  0
LINE
  5
3927
330
37B6
100
AcDbEntity
  8
0
 62
     0
100
AcDbLine
 10
13.12158959933796
 20
10.2250003394497
 30
0.0
 11
13.69610582087764
 21
10.79951656098936
 31
0.0
  0
LINE
  5
3928
330
37B6
100
AcDbEntity
  8
0
 62
     0
100
AcDbLine
 10
6.471589599337931
 20
3.575000339449672
 30
0.0
 11
9.264305226436363
 21
6.367715966548104
 31
0.0
  0
LINE
  5
3929
330
37B6
100
AcDbEntity
  8
0
 62
     0
100
AcDbLine
 10
10.37110582087757
 20
7.92352936704276
 30
0.0
 11
11.7711058208776
 21
9.323529367042766
 31
0.0
  0
LINE
  5
392A
330
37B6
100
AcDbEntity
  8
0
 62
     0
100
AcDbLine
 10
7.921105820877585
 20
5.473529367042772
 30
0.0
 11
9.153135854414301
 21
6.705559400579488
 31
0.0
  0
LINE
  5
392B
330
37B6
100
AcDbEntity
  8
0
 62
     0
100
AcDbLine
 10
12.67257679328452
 20
10.22500033944967
 30
0.0
 11
13.69610582087761
 21
11.2485293670428
 31
0.0
  0
LINE
  5
392C
330
37B6
100
AcDbEntity
  8
0
 62
     0
100
AcDbLine
 10
6.051439730914438
 20
3.603863277079625
 30
0.0
 11
7.42257679328452
 21
4.975000339449678
 31
0.0
  0
LINE
  5
392D
330
37B6
100
AcDbEntity
  8
0
 62
     0
100
AcDbLine
 10
10.37110582087754
 20
8.372542173096206
 30
0.0
 11
11.85401317376744
 21
9.855449525986102
 31
0.0
  0
LINE
  5
392E
330
37B6
100
AcDbEntity
  8
0
 62
     0
100
AcDbLine
 10
7.920026275072984
 20
5.921462627291617
 30
0.0
 11
8.998920087078289
 21
7.00035643929695
 31
0.0
  0
LINE
  5
392F
330
37B6
100
AcDbEntity
  8
0
 62
     0
100
AcDbLine
 10
12.14065663434121
 20
10.14209298655987
 30
0.0
 11
13.57937211341772
 21
11.58080846563635
 31
0.0
  0
LINE
  5
3930
330
37B6
100
AcDbEntity
  8
0
 62
     0
100
AcDbLine
 10
5.908605820877568
 20
3.910042173096229
 30
0.0
 11
6.973563987231045
 21
4.975000339449707
 31
0.0
  0
LINE
  5
3931
330
37B6
100
AcDbEntity
  8
0
 62
     0
100
AcDbLine
 10
7.810224765322629
 20
6.260673923594765
 30
0.0
 11
8.80779910465884
 21
7.258248262930976
 31
0.0
  0
LINE
  5
3932
330
37B6
100
AcDbEntity
  8
0
 62
     0
100
AcDbLine
 10
10.37110582087754
 20
8.821554979149681
 30
0.0
 11
13.17455118117757
 21
11.62500033944971
 31
0.0
  0
LINE
  5
3933
330
37B6
100
AcDbEntity
  8
0
 62
     0
100
AcDbLine
 10
5.908605820877568
 20
4.359054979149703
 30
0.0
 11
6.524551181177542
 21
4.975000339449678
 31
0.0
  0
LINE
  5
3934
330
37B6
100
AcDbEntity
  8
0
 62
     0
100
AcDbLine
 10
7.597097351170219
 20
6.496559315495773
 30
0.0
 11
8.587046844831462
 21
7.486508809157015
 31
0.0
  0
LINE
  5
3935
330
37B6
100
AcDbEntity
  8
0
 62
     0
100
AcDbLine
 10
10.37110582087757
 20
9.270567785203098
 30
0.0
 11
12.72553837512413
 21
11.62500033944968
 31
0.0
  0
LINE
  5
3936
330
37B6
100
AcDbEntity
  8
0
 62
     0
100
AcDbLine
 10
5.943081781887485
 20
4.842543746213038
 30
0.0
 11
6.041062414114293
 21
4.940524378439846
 31
0.0
  0
LINE
  5
3937
330
37B6
100
AcDbEntity
  8
0
 62
     0
100
AcDbLine
 10
10.38109337795586
 20
9.729568148334863
 30
0.0
 11
12.26653801199236
 21
11.61501278237139
 31
0.0
  0
LINE
  5
3938
330
37B6
100
AcDbEntity
  8
0
 62
     0
100
AcDbLine
 10
7.372590948143539
 20
6.721065718522567
 30
0.0
 11
8.362540441804725
 21
7.711015212183752
 31
0.0
  0
LINE
  5
3939
330
37B6
100
AcDbEntity
  8
0
 62
     0
100
AcDbLine
 10
10.53082509408875
 20
10.32831267052125
 30
0.0
 11
11.667793489806
 21
11.4652810662385
 31
0.0
  0
LINE
  5
393A
330
37B6
100
AcDbEntity
  8
0
 62
     0
100
AcDbLine
 10
7.148084545116802
 20
6.945572121549304
 30
0.0
 11
8.138034038777988
 21
7.93552161521049
 31
0.0
  0
LINE
  5
393B
330
37B6
100
AcDbEntity
  8
0
 62
     0
100
AcDbLine
 10
6.923578142090093
 20
7.170078524576013
 30
0.0
 11
7.913527635751279
 21
8.160028018237198
 31
0.0
  0
LINE
  5
393C
330
37B6
100
AcDbEntity
  8
0
 62
     0
100
AcDbLine
 10
6.699071739063356
 20
7.39458492760275
 30
0.0
 11
7.689021232724542
 21
8.384534421263936
 31
0.0
  0
LINE
  5
393D
330
37B6
100
AcDbEntity
  8
0
 62
     0
100
AcDbLine
 10
6.474565336036562
 20
7.61909133062943
 30
0.0
 11
7.464514829697804
 21
8.609040824290673
 31
0.0
  0
LINE
  5
393E
330
37B6
100
AcDbEntity
  8
0
 62
     0
100
AcDbLine
 10
8.631461538803364
 20
10.2250003394497
 30
0.0
 11
9.058605820877545
 21
10.65214462152388
 31
0.0
  0
LINE
  5
393F
330
37B6
100
AcDbEntity
  8
0
 62
     0
100
AcDbLine
 10
6.250100590023947
 20
7.84363939067029
 30
0.0
 11
7.240133411740174
 21
8.833672212386517
 31
0.0
  0
LINE
  5
3940
330
37B6
100
AcDbEntity
  8
0
 62
     0
100
AcDbLine
 10
8.18244873274989
 20
10.22500033944965
 30
0.0
 11
9.058605820877602
 21
11.10115742757736
 31
0.0
  0
LINE
  5
3941
330
37B6
100
AcDbEntity
  8
0
 62
     0
100
AcDbLine
 10
6.044366627748161
 20
8.086918234447892
 30
0.0
 11
7.075184971096206
 21
9.117736577795966
 31
0.0
  0
LINE
  5
3942
330
37B6
100
AcDbEntity
  8
0
 62
     0
100
AcDbLine
 10
7.733435926696472
 20
10.22500033944967
 30
0.0
 11
9.01532637099703
 21
11.50689078375026
 31
0.0
  0
LINE
  5
3943
330
37B6
100
AcDbEntity
  8
0
 62
     0
100
AcDbLine
 10
5.874136324616927
 20
8.365700737370133
 30
0.0
 11
7.046105820877585
 21
9.537670233630819
 31
0.0
  0
LINE
  5
3944
330
37B6
100
AcDbEntity
  8
0
 62
     0
100
AcDbLine
 10
7.283189796057911
 20
10.22376701486459
 30
0.0
 11
8.684423120643003
 21
11.62500033944968
 31
0.0
  0
LINE
  5
3945
330
37B6
100
AcDbEntity
  8
0
 62
     0
100
AcDbLine
 10
5.743789676750878
 20
8.684366895557559
 30
0.0
 11
7.047339145462672
 21
9.987916364269381
 31
0.0
  0
LINE
  5
3946
330
37B6
100
AcDbEntity
  8
0
 62
     0
100
AcDbLine
 10
5.662883695626845
 20
9.052473720486972
 30
0.0
 11
8.235410314589557
 21
11.62500033944968
 31
0.0
  0
LINE
  5
3947
330
37B6
100
AcDbEntity
  8
0
 62
     0
100
AcDbLine
 10
5.646105820877608
 20
9.48470865179118
 30
0.0
 11
7.786397508536083
 21
11.62500033944968
 31
0.0
  0
LINE
  5
3948
330
37B6
100
AcDbEntity
  8
0
 62
     0
100
AcDbLine
 10
5.646105820877579
 20
9.933721457844654
 30
0.0
 11
7.337384702482637
 21
11.62500033944968
 31
0.0
  0
LINE
  5
3949
330
37B6
100
AcDbEntity
  8
0
 62
     0
100
AcDbLine
 10
5.656201826096747
 20
10.39283026911727
 30
0.0
 11
6.878275891210051
 21
11.61490433423057
 31
0.0
  0
ENDBLK
  5
394B
330
37B6
100
AcDbEntity
  8
0
100
AcDbBlockEnd
  0
BLOCK
  5
608B
330
6081
100
AcDbEntity
  8
0
100
AcDbBlockBegin
  2
*D16
 70
     1
 10
0.0
 20
0.0
 30
0.0
  3
*D16
  1

  0
LINE
  5
634C
330
6081
100
AcDbEntity
  8
SUNPOU
100
AcDbLine
 10
-267.3797668912498
 20
226.0345574670874
 30
0.0
 11
-227.8735477540223
 21
226.0345574670874
 31
0.0
  0
LINE
  5
634D
330
6081
100
AcDbEntity
  8
SUNPOU
100
AcDbLine
 10
-262.3798668912499
 20
126.0345574670876
 30
0.0
 11
-227.8735477540223
 21
126.0345574670876
 31
0.0
  0
LINE
  5
634E
330
6081
100
AcDbEntity
  8
SUNPOU
100
AcDbLine
 10
-229.3735477540223
 20
223.0345574670874
 30
0.0
 11
-229.3735477540224
 21
129.0345574670876
 31
0.0
  0
INSERT
  5
634F
330
6081
100
AcDbEntity
  8
SUNPOU
100
AcDbBlockReference
  2
_OPEN
 10
-229.3735477540223
 20
226.0345574670874
 30
0.0
 41
3.0
 42
3.0
 43
3.0
 50
90.0
  0
INSERT
  5
6350
330
6081
100
AcDbEntity
  8
SUNPOU
100
AcDbBlockReference
  2
_OPEN
 10
-229.3735477540224
 20
126.0345574670876
 30
0.0
 41
3.0
 42
3.0
 43
3.0
 50
270.0
  0
MTEXT
  5
6351
330
6081
100
AcDbEntity
  8
SUNPOU
100
AcDbMText
 10
-231.8735477540224
 20
176.0345574670874
 30
0.0
 40
3.0
 41
0.0
 71
     5
 72
     1
  1
\A1;100
 11
0.0000000000000001
 21
1.0
 31
0.0
1001
ACAD
1000
MTEXTBEGIN
1070
    73
1070
     1
1070
    44
1040
1.0
1070
    74
1070
     0
1000
MTEXTEND
  0
POINT
  5
6352
330
6081
100
AcDbEntity
  8
DEFPOINTS
 62
     0
100
AcDbPoint
 10
-270.3797668912498
 20
226.0345574670874
 30
0.0
  0
POINT
  5
6353
330
6081
100
AcDbEntity
  8
DEFPOINTS
 62
     0
100
AcDbPoint
 10
-265.37986689125
 20
126.0345574670876
 30
0.0
  0
POINT
  5
6354
330
6081
100
AcDbEntity
  8
DEFPOINTS
 62
     0
100
AcDbPoint
 10
-229.3735477540224
 20
126.0345574670876
 30
0.0
  0
ENDBLK
  5
608C
330
6081
100
AcDbEntity
  8
0
100
AcDbBlockEnd
  0
BLOCK
  5
6097
330
608D
100
AcDbEntity
  8
0
100
AcDbBlockBegin
  2
*D17
 70
     1
 10
0.0
 20
0.0
 30
0.0
  3
*D17
  1

  0
LINE
  5
6343
330
608D
100
AcDbEntity
  8
SUNPOU
100
AcDbLine
 10
-262.3798668912499
 20
173.0345574670874
 30
0.0
 11
-239.058201181105
 21
173.0345574670874
 31
0.0
  0
LINE
  5
6344
330
608D
100
AcDbEntity
  8
SUNPOU
100
AcDbLine
 10
-262.3798668912499
 20
126.0345574670876
 30
0.0
 11
-239.058201181105
 21
126.0345574670876
 31
0.0
  0
LINE
  5
6345
330
608D
100
AcDbEntity
  8
SUNPOU
100
AcDbLine
 10
-240.558201181105
 20
170.0345574670874
 30
0.0
 11
-240.558201181105
 21
129.0345574670876
 31
0.0
  0
INSERT
  5
6346
330
608D
100
AcDbEntity
  8
SUNPOU
100
AcDbBlockReference
  2
_OPEN
 10
-240.558201181105
 20
173.0345574670874
 30
0.0
 41
3.0
 42
3.0
 43
3.0
 50
90.0
  0
INSERT
  5
6347
330
608D
100
AcDbEntity
  8
SUNPOU
100
AcDbBlockReference
  2
_OPEN
 10
-240.558201181105
 20
126.0345574670876
 30
0.0
 41
3.0
 42
3.0
 43
3.0
 50
270.0
  0
MTEXT
  5
6348
330
608D
100
AcDbEntity
  8
SUNPOU
100
AcDbMText
 10
-243.058201181105
 20
149.5345574670874
 30
0.0
 40
3.0
 41
0.0
 71
     5
 72
     1
  1
\A1;47
 11
0.0000000000000001
 21
1.0
 31
0.0
1001
ACAD
1000
MTEXTBEGIN
1070
    73
1070
     1
1070
    44
1040
1.0
1070
    74
1070
     0
1000
MTEXTEND
  0
POINT
  5
6349
330
608D
100
AcDbEntity
  8
DEFPOINTS
 62
     0
100
AcDbPoint
 10
-265.37986689125
 20
173.0345574670874
 30
0.0
  0
POINT
  5
634A
330
608D
100
AcDbEntity
  8
DEFPOINTS
 62
     0
100
AcDbPoint
 10
-265.37986689125
 20
126.0345574670876
 30
0.0
  0
POINT
  5
634B
330
608D
100
AcDbEntity
  8
DEFPOINTS
 62
     0
100
AcDbPoint
 10
-240.558201181105
 20
126.0345574670876
 30
0.0
  0
ENDBLK
  5
6098
330
608D
100
AcDbEntity
  8
0
100
AcDbBlockEnd
  0
BLOCK
  5
60A3
330
6099
100
AcDbEntity
  8
0
100
AcDbBlockBegin
  2
*D18
 70
     1
 10
0.0
 20
0.0
 30
0.0
  3
*D18
  1

  0
LINE
  5
6355
330
6099
100
AcDbEntity
  8
SUNPOU
100
AcDbLine
 10
-338.3797668912498
 20
226.0345574670874
 30
0.0
 11
-358.9683487474049
 21
226.0345574670874
 31
0.0
  0
LINE
  5
6356
330
6099
100
AcDbEntity
  8
SUNPOU
100
AcDbLine
 10
-338.3798723685369
 20
145.0345407556369
 30
0.0
 11
-358.9683487474049
 21
145.0345407556369
 31
0.0
  0
LINE
  5
6357
330
6099
100
AcDbEntity
  8
SUNPOU
100
AcDbLine
 10
-357.4683487474048
 20
223.0345574670874
 30
0.0
 11
-357.4683487474048
 21
148.0345407556369
 31
0.0
  0
INSERT
  5
6358
330
6099
100
AcDbEntity
  8
SUNPOU
100
AcDbBlockReference
  2
_OPEN
 10
-357.4683487474048
 20
226.0345574670874
 30
0.0
 41
3.0
 42
3.0
 43
3.0
 50
90.0
  0
INSERT
  5
6359
330
6099
100
AcDbEntity
  8
SUNPOU
100
AcDbBlockReference
  2
_OPEN
 10
-357.4683487474048
 20
145.0345407556369
 30
0.0
 41
3.0
 42
3.0
 43
3.0
 50
270.0
  0
MTEXT
  5
635A
330
6099
100
AcDbEntity
  8
SUNPOU
100
AcDbMText
 10
-359.9683487474049
 20
185.5345491113621
 30
0.0
 40
3.0
 41
0.0
 71
     5
 72
     1
  1
\A1;81
 11
0.0000000000000001
 21
1.0
 31
0.0
1001
ACAD
1000
MTEXTBEGIN
1070
    73
1070
     1
1070
    44
1040
1.0
1070
    74
1070
     0
1000
MTEXTEND
  0
POINT
  5
635B
330
6099
100
AcDbEntity
  8
DEFPOINTS
 62
     0
100
AcDbPoint
 10
-335.3797668912497
 20
226.0345574670874
 30
0.0
  0
POINT
  5
635C
330
6099
100
AcDbEntity
  8
DEFPOINTS
 62
     0
100
AcDbPoint
 10
-335.3798723685368
 20
145.0345407556369
 30
0.0
  0
POINT
  5
635D
330
6099
100
AcDbEntity
  8
DEFPOINTS
 62
     0
100
AcDbPoint
 10
-357.4683487474048
 20
145.0345407556369
 30
0.0
  0
ENDBLK
  5
60A4
330
6099
100
AcDbEntity
  8
0
100
AcDbBlockEnd
  0
BLOCK
  5
60AF
330
60A5
100
AcDbEntity
  8
0
100
AcDbBlockBegin
  2
*D19
 70
     1
 10
0.0
 20
0.0
 30
0.0
  3
*D19
  1

  0
LINE
  5
635E
330
60A5
100
AcDbEntity
  8
SUNPOU
100
AcDbLine
 10
-265.37986689125
 20
123.0345574670876
 30
0.0
 11
-265.37986689125
 21
107.1543589893756
 31
0.0
  0
LINE
  5
635F
330
60A5
100
AcDbEntity
  8
SUNPOU
100
AcDbLine
 10
-335.3798723685368
 20
142.0345407556369
 30
0.0
 11
-335.3798723685368
 21
107.1543589893756
 31
0.0
  0
LINE
  5
6360
330
60A5
100
AcDbEntity
  8
SUNPOU
100
AcDbLine
 10
-268.3798668912499
 20
108.6543589893756
 30
0.0
 11
-332.3798723685368
 21
108.6543589893756
 31
0.0
  0
INSERT
  5
6361
330
60A5
100
AcDbEntity
  8
SUNPOU
100
AcDbBlockReference
  2
_OPEN
 10
-265.37986689125
 20
108.6543589893756
 30
0.0
 41
3.0
 42
3.0
 43
3.0
  0
INSERT
  5
6362
330
60A5
100
AcDbEntity
  8
SUNPOU
100
AcDbBlockReference
  2
_OPEN
 10
-335.3798723685368
 20
108.6543589893756
 30
0.0
 41
3.0
 42
3.0
 43
3.0
 50
180.0
  0
MTEXT
  5
6363
330
60A5
100
AcDbEntity
  8
SUNPOU
100
AcDbMText
 10
-300.3798696298934
 20
111.1543589893756
 30
0.0
 40
3.0
 41
0.0
 71
     5
 72
     1
  1
\A1;70
1001
ACAD
1000
MTEXTBEGIN
1070
    73
1070
     1
1070
    44
1040
1.0
1070
    74
1070
     0
1000
MTEXTEND
  0
POINT
  5
6364
330
60A5
100
AcDbEntity
  8
DEFPOINTS
 62
     0
100
AcDbPoint
 10
-265.37986689125
 20
126.0345574670876
 30
0.0
  0
POINT
  5
6365
330
60A5
100
AcDbEntity
  8
DEFPOINTS
 62
     0
100
AcDbPoint
 10
-335.3798723685368
 20
145.0345407556369
 30
0.0
  0
POINT
  5
6366
330
60A5
100
AcDbEntity
  8
DEFPOINTS
 62
     0
100
AcDbPoint
 10
-335.3798723685368
 20
108.6543589893756
 30
0.0
  0
ENDBLK
  5
60B0
330
60A5
100
AcDbEntity
  8
0
100
AcDbBlockEnd
  0
BLOCK
  5
60BB
330
60B1
100
AcDbEntity
  8
0
100
AcDbBlockBegin
  2
*D20
 70
     1
 10
0.0
 20
0.0
 30
0.0
  3
*D20
  1

  0
LINE
  5
6367
330
60B1
100
AcDbEntity
  8
SUNPOU
100
AcDbLine
 10
-270.3797668912498
 20
229.0345574670874
 30
0.0
 11
-270.3797668912498
 21
254.8618608362131
 31
0.0
  0
LINE
  5
6368
330
60B1
100
AcDbEntity
  8
SUNPOU
100
AcDbLine
 10
-335.3797668912497
 20
229.0345574670874
 30
0.0
 11
-335.3797668912497
 21
254.8618608362131
 31
0.0
  0
LINE
  5
6369
330
60B1
100
AcDbEntity
  8
SUNPOU
100
AcDbLine
 10
-273.3797668912497
 20
253.3618608362131
 30
0.0
 11
-332.3797668912498
 21
253.3618608362131
 31
0.0
  0
INSERT
  5
636A
330
60B1
100
AcDbEntity
  8
SUNPOU
100
AcDbBlockReference
  2
_OPEN
 10
-270.3797668912498
 20
253.3618608362131
 30
0.0
 41
3.0
 42
3.0
 43
3.0
  0
INSERT
  5
636B
330
60B1
100
AcDbEntity
  8
SUNPOU
100
AcDbBlockReference
  2
_OPEN
 10
-335.3797668912497
 20
253.3618608362131
 30
0.0
 41
3.0
 42
3.0
 43
3.0
 50
180.0
  0
MTEXT
  5
636C
330
60B1
100
AcDbEntity
  8
SUNPOU
100
AcDbMText
 10
-302.8797668912498
 20
255.8618608362131
 30
0.0
 40
3.0
 41
0.0
 71
     5
 72
     1
  1
\A1;65
1001
ACAD
1000
MTEXTBEGIN
1070
    73
1070
     1
1070
    44
1040
1.0
1070
    74
1070
     0
1000
MTEXTEND
  0
POINT
  5
636D
330
60B1
100
AcDbEntity
  8
DEFPOINTS
 62
     0
100
AcDbPoint
 10
-270.3797668912498
 20
226.0345574670874
 30
0.0
  0
POINT
  5
636E
330
60B1
100
AcDbEntity
  8
DEFPOINTS
 62
     0
100
AcDbPoint
 10
-335.3797668912497
 20
226.0345574670874
 30
0.0
  0
POINT
  5
636F
330
60B1
100
AcDbEntity
  8
DEFPOINTS
 62
     0
100
AcDbPoint
 10
-335.3797668912497
 20
253.3618608362131
 30
0.0
  0
ENDBLK
  5
60BC
330
60B1
100
AcDbEntity
  8
0
100
AcDbBlockEnd
  0
BLOCK
  5
60C4
330
60BD
100
AcDbEntity
  8
0
100
AcDbBlockBegin
  2
*D21
 70
     1
 10
0.0
 20
0.0
 30
0.0
  3
*D21
  1

  0
LINE
  5
6370
330
60BD
100
AcDbEntity
  8
SUNPOU
100
AcDbLine
 10
-185.4821576233724
 20
120.9322667349651
 30
0.0
 11
-176.6433228585406
 21
129.7711014997969
 31
0.0
  0
MTEXT
  5
6371
330
60BD
100
AcDbEntity
  8
SUNPOU
100
AcDbMText
 10
-183.8911673657026
 20
126.0587908985676
 30
0.0
 40
3.0
 41
0.0
 71
     5
 72
     1
  1
\A1;R20
 11
0.7071067811865476
 21
0.7071067811865475
 31
0.0
1001
ACAD
1000
MTEXTBEGIN
1070
    73
1070
     1
1070
    44
1040
1.0
1070
    74
1070
     0
1000
MTEXTEND
  0
LINE
  5
6372
330
60BD
100
AcDbEntity
  8
SUNPOU
100
AcDbLine
 10
-160.37986689125
 20
146.0345574670875
 30
0.0
 11
-174.5220025149809
 21
131.8924218433566
 31
0.0
  0
INSERT
  5
6373
330
60BD
100
AcDbEntity
  8
SUNPOU
100
AcDbBlockReference
  2
_OPEN
 10
-174.5220025149809
 20
131.8924218433566
 30
0.0
 41
3.0
 42
3.0
 43
3.0
 50
45.0
  0
POINT
  5
6374
330
60BD
100
AcDbEntity
  8
DEFPOINTS
 62
     0
100
AcDbPoint
 10
-174.5220025149809
 20
131.8924218433566
 30
0.0
  0
POINT
  5
6375
330
60BD
100
AcDbEntity
  8
DEFPOINTS
 62
     0
100
AcDbPoint
 10
-160.37986689125
 20
146.0345574670875
 30
0.0
  0
ENDBLK
  5
60C5
330
60BD
100
AcDbEntity
  8
0
100
AcDbBlockEnd
  0
BLOCK
  5
60D0
330
60C6
100
AcDbEntity
  8
0
100
AcDbBlockBegin
  2
*D22
 70
     1
 10
0.0
 20
0.0
 30
0.0
  3
*D22
  1

  0
LINE
  5
6376
330
60C6
100
AcDbEntity
  8
SUNPOU
100
AcDbLine
 10
-140.3797668912497
 20
229.0345574670874
 30
0.0
 11
-140.3797668912497
 21
254.8618608362131
 31
0.0
  0
LINE
  5
6377
330
60C6
100
AcDbEntity
  8
SUNPOU
100
AcDbLine
 10
-180.3797668912498
 20
229.0346574670875
 30
0.0
 11
-180.3797668912498
 21
254.8618608362131
 31
0.0
  0
LINE
  5
6378
330
60C6
100
AcDbEntity
  8
SUNPOU
100
AcDbLine
 10
-143.3797668912498
 20
253.3618608362131
 30
0.0
 11
-177.3797668912498
 21
253.3618608362131
 31
0.0
  0
INSERT
  5
6379
330
60C6
100
AcDbEntity
  8
SUNPOU
100
AcDbBlockReference
  2
_OPEN
 10
-140.3797668912497
 20
253.3618608362131
 30
0.0
 41
3.0
 42
3.0
 43
3.0
  0
INSERT
  5
637A
330
60C6
100
AcDbEntity
  8
SUNPOU
100
AcDbBlockReference
  2
_OPEN
 10
-180.3797668912498
 20
253.3618608362131
 30
0.0
 41
3.0
 42
3.0
 43
3.0
 50
180.0
  0
MTEXT
  5
637B
330
60C6
100
AcDbEntity
  8
SUNPOU
100
AcDbMText
 10
-160.3797668912497
 20
255.8618608362131
 30
0.0
 40
3.0
 41
0.0
 71
     5
 72
     1
  1
\A1;40
1001
ACAD
1000
MTEXTBEGIN
1070
    73
1070
     1
1070
    44
1040
1.0
1070
    74
1070
     0
1000
MTEXTEND
  0
POINT
  5
637C
330
60C6
100
AcDbEntity
  8
DEFPOINTS
 62
     0
100
AcDbPoint
 10
-140.3797668912497
 20
226.0345574670874
 30
0.0
  0
POINT
  5
637D
330
60C6
100
AcDbEntity
  8
DEFPOINTS
 62
     0
100
AcDbPoint
 10
-180.3797668912498
 20
226.0346574670875
 30
0.0
  0
POINT
  5
637E
330
60C6
100
AcDbEntity
  8
DEFPOINTS
 62
     0
100
AcDbPoint
 10
-180.3797668912498
 20
253.3618608362131
 30
0.0
  0
ENDBLK
  5
60D1
330
60C6
100
AcDbEntity
  8
0
100
AcDbBlockEnd
  0
BLOCK
  5
61EF
330
61E5
100
AcDbEntity
  8
0
100
AcDbBlockBegin
  2
*D23
 70
     1
 10
0.0
 20
0.0
 30
0.0
  3
*D23
  1

  0
LINE
  5
61E6
330
61E5
100
AcDbEntity
  8
SUNPOU
100
AcDbLine
 10
315.9952643518837
 20
235.3902803565253
 30
0.0
 11
315.9952643518837
 21
249.290941029825
 31
0.0
  0
LINE
  5
61E7
330
61E5
100
AcDbEntity
  8
SUNPOU
100
AcDbLine
 10
275.9951643518836
 20
235.3903803565253
 30
0.0
 11
275.9951643518836
 21
249.290941029825
 31
0.0
  0
LINE
  5
61E8
330
61E5
100
AcDbEntity
  8
SUNPOU
100
AcDbLine
 10
312.9952643518837
 20
247.790941029825
 30
0.0
 11
278.9951643518836
 21
247.790941029825
 31
0.0
  0
INSERT
  5
61E9
330
61E5
100
AcDbEntity
  8
SUNPOU
100
AcDbBlockReference
  2
_OPEN
 10
315.9952643518837
 20
247.790941029825
 30
0.0
 41
3.0
 42
3.0
 43
3.0
  0
INSERT
  5
61EA
330
61E5
100
AcDbEntity
  8
SUNPOU
100
AcDbBlockReference
  2
_OPEN
 10
275.9951643518836
 20
247.790941029825
 30
0.0
 41
3.0
 42
3.0
 43
3.0
 50
180.0
  0
MTEXT
  5
61EB
330
61E5
100
AcDbEntity
  8
SUNPOU
100
AcDbMText
 10
295.9952143518836
 20
250.290941029825
 30
0.0
 40
3.0
 41
0.0
 71
     5
 72
     1
  1
\A1;40
1001
ACAD
1000
MTEXTBEGIN
1070
    73
1070
     1
1070
    44
1040
1.0
1070
    74
1070
     0
1000
MTEXTEND
1000
MTEXTBEGIN
1070
    73
1070
     1
1070
    44
1040
1.0
1070
    74
1070
     0
1000
MTEXTEND
  0
POINT
  5
61EC
330
61E5
100
AcDbEntity
  8
DEFPOINTS
 62
     0
100
AcDbPoint
 10
315.9952643518837
 20
232.3902803565253
 30
0.0
  0
POINT
  5
61ED
330
61E5
100
AcDbEntity
  8
DEFPOINTS
 62
     0
100
AcDbPoint
 10
275.9951643518836
 20
232.3903803565253
 30
0.0
  0
POINT
  5
61EE
330
61E5
100
AcDbEntity
  8
DEFPOINTS
 62
     0
100
AcDbPoint
 10
275.9951643518836
 20
247.790941029825
 30
0.0
  0
ENDBLK
  5
61F0
330
61E5
100
AcDbEntity
  8
0
100
AcDbBlockEnd
  0
BLOCK
  5
61FB
330
61F1
100
AcDbEntity
  8
0
100
AcDbBlockBegin
  2
*D24
 70
     1
 10
0.0
 20
0.0
 30
0.0
  3
*D24
  1

  0
LINE
  5
61F2
330
61F1
100
AcDbEntity
  8
SUNPOU
100
AcDbLine
 10
175.9946643518836
 20
235.3905803565251
 30
0.0
 11
175.9946643518836
 21
249.290941029825
 31
0.0
  0
LINE
  5
61F3
330
61F1
100
AcDbEntity
  8
SUNPOU
100
AcDbLine
 10
110.9948643518837
 20
235.3908803565252
 30
0.0
 11
110.9948643518837
 21
249.290941029825
 31
0.0
  0
LINE
  5
61F4
330
61F1
100
AcDbEntity
  8
SUNPOU
100
AcDbLine
 10
172.9946643518836
 20
247.790941029825
 30
0.0
 11
113.9948643518837
 21
247.790941029825
 31
0.0
  0
INSERT
  5
61F5
330
61F1
100
AcDbEntity
  8
SUNPOU
100
AcDbBlockReference
  2
_OPEN
 10
175.9946643518836
 20
247.790941029825
 30
0.0
 41
3.0
 42
3.0
 43
3.0
  0
INSERT
  5
61F6
330
61F1
100
AcDbEntity
  8
SUNPOU
100
AcDbBlockReference
  2
_OPEN
 10
110.9948643518837
 20
247.790941029825
 30
0.0
 41
3.0
 42
3.0
 43
3.0
 50
180.0
  0
MTEXT
  5
61F7
330
61F1
100
AcDbEntity
  8
SUNPOU
100
AcDbMText
 10
143.4947643518836
 20
250.290941029825
 30
0.0
 40
3.0
 41
0.0
 71
     5
 72
     1
  1
\A1;65
1001
ACAD
1000
MTEXTBEGIN
1070
    73
1070
     1
1070
    44
1040
1.0
1070
    74
1070
     0
1000
MTEXTEND
1000
MTEXTBEGIN
1070
    73
1070
     1
1070
    44
1040
1.0
1070
    74
1070
     0
1000
MTEXTEND
  0
POINT
  5
61F8
330
61F1
100
AcDbEntity
  8
DEFPOINTS
 62
     0
100
AcDbPoint
 10
175.9946643518836
 20
232.3905803565251
 30
0.0
  0
POINT
  5
61F9
330
61F1
100
AcDbEntity
  8
DEFPOINTS
 62
     0
100
AcDbPoint
 10
110.9948643518837
 20
232.3908803565251
 30
0.0
  0
POINT
  5
61FA
330
61F1
100
AcDbEntity
  8
DEFPOINTS
 62
     0
100
AcDbPoint
 10
110.9948643518837
 20
247.790941029825
 30
0.0
  0
ENDBLK
  5
61FC
330
61F1
100
AcDbEntity
  8
0
100
AcDbBlockEnd
  0
BLOCK
  5
6204
330
61FD
100
AcDbEntity
  8
0
100
AcDbBlockBegin
  2
*D25
 70
     1
 10
0.0
 20
0.0
 30
0.0
  3
*D25
  1

  0
LINE
  5
61FE
330
61FD
100
AcDbEntity
  8
SUNPOU
100
AcDbLine
 10
269.4514900867103
 20
48.88666780852727
 30
0.0
 11
278.7976429969056
 21
57.18723560713292
 31
0.0
  0
MTEXT
  5
61FF
330
61FD
100
AcDbEntity
  8
SUNPOU
100
AcDbMText
 10
271.3429146328635
 20
53.91011415403649
 30
0.0
 40
3.0
 41
0.0
 71
     5
 72
     1
  1
\A1;R20
 11
0.7476922328156214
 21
0.6640454238884497
 31
0.0
1001
ACAD
1000
MTEXTBEGIN
1070
    73
1070
     1
1070
    44
1040
1.0
1070
    74
1070
     0
1000
MTEXTEND
1000
MTEXTBEGIN
1070
    73
1070
     1
1070
    44
1040
1.0
1070
    74
1070
     0
1000
MTEXTEND
1000
MTEXTBEGIN
1070
    73
1070
     1
1070
    44
1040
1.0
1070
    74
1070
     0
1000
MTEXTEND
  0
LINE
  5
6200
330
61FD
100
AcDbEntity
  8
SUNPOU
100
AcDbLine
 10
295.9945643517584
 20
72.46028035665026
 30
0.0
 11
281.0407196953525
 21
59.17937187879826
 31
0.0
  0
INSERT
  5
6201
330
61FD
100
AcDbEntity
  8
SUNPOU
100
AcDbBlockReference
  2
_OPEN
 10
281.0407196953525
 20
59.17937187879826
 30
0.0
 41
3.0
 42
3.0
 43
3.0
 50
41.60913453010603
  0
POINT
  5
6202
330
61FD
100
AcDbEntity
  8
DEFPOINTS
 62
     0
100
AcDbPoint
 10
281.0407196953525
 20
59.17937187879826
 30
0.0
  0
POINT
  5
6203
330
61FD
100
AcDbEntity
  8
DEFPOINTS
 62
     0
100
AcDbPoint
 10
295.9945643517584
 20
72.46028035665026
 30
0.0
  0
ENDBLK
  5
6205
330
61FD
100
AcDbEntity
  8
0
100
AcDbBlockEnd
  0
BLOCK
  5
6210
330
6206
100
AcDbEntity
  8
0
100
AcDbBlockBegin
  2
*D26
 70
     1
 10
0.0
 20
0.0
 30
0.0
  3
*D26
  1

  0
LINE
  5
6207
330
6206
100
AcDbEntity
  8
SUNPOU
100
AcDbLine
 10
183.9943643518837
 20
99.46058035652528
 30
0.0
 11
203.6485821300375
 21
99.46058035652528
 31
0.0
  0
LINE
  5
6208
330
6206
100
AcDbEntity
  8
SUNPOU
100
AcDbLine
 10
183.9942643518837
 20
52.46048035652536
 30
0.0
 11
203.6485821300375
 21
52.46048035652536
 31
0.0
  0
LINE
  5
6209
330
6206
100
AcDbEntity
  8
SUNPOU
100
AcDbLine
 10
202.1485821300375
 20
96.46058035652529
 30
0.0
 11
202.1485821300375
 21
55.46048035652536
 31
0.0
  0
INSERT
  5
620A
330
6206
100
AcDbEntity
  8
SUNPOU
100
AcDbBlockReference
  2
_OPEN
 10
202.1485821300375
 20
99.46058035652528
 30
0.0
 41
3.0
 42
3.0
 43
3.0
 50
90.0
  0
INSERT
  5
620B
330
6206
100
AcDbEntity
  8
SUNPOU
100
AcDbBlockReference
  2
_OPEN
 10
202.1485821300375
 20
52.46048035652536
 30
0.0
 41
3.0
 42
3.0
 43
3.0
 50
270.0
  0
MTEXT
  5
620C
330
6206
100
AcDbEntity
  8
SUNPOU
100
AcDbMText
 10
199.6485821300375
 20
75.96053035652535
 30
0.0
 40
3.0
 41
0.0
 71
     5
 72
     1
  1
\A1;47
 11
0.0000000000000001
 21
1.0
 31
0.0
1001
ACAD
1000
MTEXTBEGIN
1070
    73
1070
     1
1070
    44
1040
1.0
1070
    74
1070
     0
1000
MTEXTEND
1000
MTEXTBEGIN
1070
    73
1070
     1
1070
    44
1040
1.0
1070
    74
1070
     0
1000
MTEXTEND
  0
POINT
  5
620D
330
6206
100
AcDbEntity
  8
DEFPOINTS
 62
     0
100
AcDbPoint
 10
180.9943643518837
 20
99.46058035652528
 30
0.0
  0
POINT
  5
620E
330
6206
100
AcDbEntity
  8
DEFPOINTS
 62
     0
100
AcDbPoint
 10
180.9942643518837
 20
52.46048035652536
 30
0.0
  0
POINT
  5
620F
330
6206
100
AcDbEntity
  8
DEFPOINTS
 62
     0
100
AcDbPoint
 10
202.1485821300375
 20
52.46048035652536
 30
0.0
  0
ENDBLK
  5
6211
330
6206
100
AcDbEntity
  8
0
100
AcDbBlockEnd
  0
BLOCK
  5
621C
330
6212
100
AcDbEntity
  8
0
100
AcDbBlockBegin
  2
*D27
 70
     1
 10
0.0
 20
0.0
 30
0.0
  3
*D27
  1

  0
LINE
  5
6213
330
6212
100
AcDbEntity
  8
SUNPOU
100
AcDbLine
 10
178.9944643518836
 20
232.3905803565251
 30
0.0
 11
215.3904339144656
 21
232.3905803565251
 31
0.0
  0
LINE
  5
6214
330
6212
100
AcDbEntity
  8
SUNPOU
100
AcDbLine
 10
183.9942643518837
 20
52.46048035652536
 30
0.0
 11
215.3904339144655
 21
52.46048035652536
 31
0.0
  0
LINE
  5
6215
330
6212
100
AcDbEntity
  8
SUNPOU
100
AcDbLine
 10
213.8904339144656
 20
229.3905803565251
 30
0.0
 11
213.8904339144655
 21
55.46048035652535
 31
0.0
  0
INSERT
  5
6216
330
6212
100
AcDbEntity
  8
SUNPOU
100
AcDbBlockReference
  2
_OPEN
 10
213.8904339144656
 20
232.3905803565251
 30
0.0
 41
3.0
 42
3.0
 43
3.0
 50
90.0
  0
INSERT
  5
6217
330
6212
100
AcDbEntity
  8
SUNPOU
100
AcDbBlockReference
  2
_OPEN
 10
213.8904339144655
 20
52.46048035652536
 30
0.0
 41
3.0
 42
3.0
 43
3.0
 50
270.0
  0
MTEXT
  5
6218
330
6212
100
AcDbEntity
  8
SUNPOU
100
AcDbMText
 10
211.3904339144655
 20
142.4255303565253
 30
0.0
 40
3.0
 41
0.0
 71
     5
 72
     1
  1
\A1;180
 11
0.0000000000000001
 21
1.0
 31
0.0
1001
ACAD
1000
MTEXTBEGIN
1070
    73
1070
     1
1070
    44
1040
1.0
1070
    74
1070
     0
1000
MTEXTEND
1000
MTEXTBEGIN
1070
    73
1070
     1
1070
    44
1040
1.0
1070
    74
1070
     0
1000
MTEXTEND
  0
POINT
  5
6219
330
6212
100
AcDbEntity
  8
DEFPOINTS
 62
     0
100
AcDbPoint
 10
175.9944643518836
 20
232.3905803565251
 30
0.0
  0
POINT
  5
621A
330
6212
100
AcDbEntity
  8
DEFPOINTS
 62
     0
100
AcDbPoint
 10
180.9942643518837
 20
52.46048035652536
 30
0.0
  0
POINT
  5
621B
330
6212
100
AcDbEntity
  8
DEFPOINTS
 62
     0
100
AcDbPoint
 10
213.8904339144655
 20
52.46048035652536
 30
0.0
  0
ENDBLK
  5
621D
330
6212
100
AcDbEntity
  8
0
100
AcDbBlockEnd
  0
BLOCK
  5
6228
330
621E
100
AcDbEntity
  8
0
100
AcDbBlockBegin
  2
*D28
 70
     1
 10
0.0
 20
0.0
 30
0.0
  3
*D28
  1

  0
LINE
  5
621F
330
621E
100
AcDbEntity
  8
SUNPOU
100
AcDbLine
 10
180.9942643518837
 20
49.46048035652537
 30
0.0
 11
180.9942643518837
 21
33.71168282380267
 31
0.0
  0
LINE
  5
6220
330
621E
100
AcDbEntity
  8
SUNPOU
100
AcDbLine
 10
110.9942482494297
 20
68.46070932575156
 30
0.0
 11
110.9942482494297
 21
33.71168282380267
 31
0.0
  0
LINE
  5
6221
330
621E
100
AcDbEntity
  8
SUNPOU
100
AcDbLine
 10
177.9942643518837
 20
35.21168282380267
 30
0.0
 11
113.9942482494297
 21
35.21168282380267
 31
0.0
  0
INSERT
  5
6222
330
621E
100
AcDbEntity
  8
SUNPOU
100
AcDbBlockReference
  2
_OPEN
 10
180.9942643518837
 20
35.21168282380267
 30
0.0
 41
3.0
 42
3.0
 43
3.0
  0
INSERT
  5
6223
330
621E
100
AcDbEntity
  8
SUNPOU
100
AcDbBlockReference
  2
_OPEN
 10
110.9942482494297
 20
35.21168282380267
 30
0.0
 41
3.0
 42
3.0
 43
3.0
 50
180.0
  0
MTEXT
  5
6224
330
621E
100
AcDbEntity
  8
SUNPOU
100
AcDbMText
 10
145.9942563006567
 20
37.71168282380267
 30
0.0
 40
3.0
 41
0.0
 71
     5
 72
     1
  1
\A1;70
1001
ACAD
1000
MTEXTBEGIN
1070
    73
1070
     1
1070
    44
1040
1.0
1070
    74
1070
     0
1000
MTEXTEND
1000
MTEXTBEGIN
1070
    73
1070
     1
1070
    44
1040
1.0
1070
    74
1070
     0
1000
MTEXTEND
  0
POINT
  5
6225
330
621E
100
AcDbEntity
  8
DEFPOINTS
 62
     0
100
AcDbPoint
 10
180.9942643518837
 20
52.46048035652536
 30
0.0
  0
POINT
  5
6226
330
621E
100
AcDbEntity
  8
DEFPOINTS
 62
     0
100
AcDbPoint
 10
110.9942482494297
 20
71.46070932575156
 30
0.0
  0
POINT
  5
6227
330
621E
100
AcDbEntity
  8
DEFPOINTS
 62
     0
100
AcDbPoint
 10
110.9942482494297
 20
35.21168282380267
 30
0.0
  0
ENDBLK
  5
6229
330
621E
100
AcDbEntity
  8
0
100
AcDbBlockEnd
  0
BLOCK
  5
6234
330
622A
100
AcDbEntity
  8
0
100
AcDbBlockBegin
  2
*D29
 70
     1
 10
0.0
 20
0.0
 30
0.0
  3
*D29
  1

  0
LINE
  5
622B
330
622A
100
AcDbEntity
  8
SUNPOU
100
AcDbLine
 10
107.9946643518836
 20
232.3905803565251
 30
0.0
 11
89.3358178710128
 21
232.3905803565251
 31
0.0
  0
LINE
  5
622C
330
622A
100
AcDbEntity
  8
SUNPOU
100
AcDbLine
 10
107.9942482494297
 20
71.46070932575156
 30
0.0
 11
89.33581787101275
 21
71.46070932575158
 31
0.0
  0
LINE
  5
622D
330
622A
100
AcDbEntity
  8
SUNPOU
100
AcDbLine
 10
90.83581787101278
 20
229.3905803565251
 30
0.0
 11
90.83581787101275
 21
74.46070932575158
 31
0.0
  0
INSERT
  5
622E
330
622A
100
AcDbEntity
  8
SUNPOU
100
AcDbBlockReference
  2
_OPEN
 10
90.83581787101278
 20
232.3905803565251
 30
0.0
 41
3.0
 42
3.0
 43
3.0
 50
90.0
  0
INSERT
  5
622F
330
622A
100
AcDbEntity
  8
SUNPOU
100
AcDbBlockReference
  2
_OPEN
 10
90.83581787101275
 20
71.46070932575158
 30
0.0
 41
3.0
 42
3.0
 43
3.0
 50
270.0
  0
MTEXT
  5
6230
330
622A
100
AcDbEntity
  8
SUNPOU
100
AcDbMText
 10
88.33581787101275
 20
151.9256448411383
 30
0.0
 40
3.0
 41
0.0
 71
     5
 72
     1
  1
\A1;161
 11
0.0000000000000001
 21
1.0
 31
0.0
1001
ACAD
1000
MTEXTBEGIN
1070
    73
1070
     1
1070
    44
1040
1.0
1070
    74
1070
     0
1000
MTEXTEND
1000
MTEXTBEGIN
1070
    73
1070
     1
1070
    44
1040
1.0
1070
    74
1070
     0
1000
MTEXTEND
  0
POINT
  5
6231
330
622A
100
AcDbEntity
  8
DEFPOINTS
 62
     0
100
AcDbPoint
 10
110.9946643518836
 20
232.3905803565251
 30
0.0
  0
POINT
  5
6232
330
622A
100
AcDbEntity
  8
DEFPOINTS
 62
     0
100
AcDbPoint
 10
110.9942482494297
 20
71.46070932575156
 30
0.0
  0
POINT
  5
6233
330
622A
100
AcDbEntity
  8
DEFPOINTS
 62
     0
100
AcDbPoint
 10
90.83581787101275
 20
71.46070932575158
 30
0.0
  0
ENDBLK
  5
6235
330
622A
100
AcDbEntity
  8
0
100
AcDbBlockEnd
  0
BLOCK
  5
62C0
330
62B6
100
AcDbEntity
  8
0
100
AcDbBlockBegin
  2
*D31
 70
     1
 10
0.0
 20
0.0
 30
0.0
  3
*D31
  1

  0
LINE
  5
6388
330
62B6
100
AcDbEntity
  8
SUNPOU
100
AcDbLine
 10
174.6944645631743
 20
234.7905806898419
 30
0.0
 11
211.0904341257564
 21
234.7905806898419
 31
0.0
  0
LINE
  5
6389
330
62B6
100
AcDbEntity
  8
SUNPOU
100
AcDbLine
 10
179.6942645631745
 20
54.86048068984214
 30
0.0
 11
211.0904341257563
 21
54.86048068984213
 31
0.0
  0
LINE
  5
638A
330
62B6
100
AcDbEntity
  8
SUNPOU
100
AcDbLine
 10
209.5904341257564
 20
231.7905806898419
 30
0.0
 11
209.5904341257563
 21
57.86048068984213
 31
0.0
  0
INSERT
  5
638B
330
62B6
100
AcDbEntity
  8
SUNPOU
100
AcDbBlockReference
  2
_OPEN
 10
209.5904341257564
 20
234.7905806898419
 30
0.0
 41
3.0
 42
3.0
 43
3.0
 50
90.0
  0
INSERT
  5
638C
330
62B6
100
AcDbEntity
  8
SUNPOU
100
AcDbBlockReference
  2
_OPEN
 10
209.5904341257563
 20
54.86048068984213
 30
0.0
 41
3.0
 42
3.0
 43
3.0
 50
270.0
  0
MTEXT
  5
638D
330
62B6
100
AcDbEntity
  8
SUNPOU
100
AcDbMText
 10
207.0904341257563
 20
144.825530689842
 30
0.0
 40
3.0
 41
0.0
 71
     5
 72
     1
  1
\A1;180
 11
0.0000000000000001
 21
1.0
 31
0.0
1001
ACAD
1000
MTEXTBEGIN
1070
    73
1070
     1
1070
    44
1040
1.0
1070
    74
1070
     0
1000
MTEXTEND
  0
POINT
  5
638E
330
62B6
100
AcDbEntity
  8
DEFPOINTS
 62
     0
100
AcDbPoint
 10
171.6944645631743
 20
234.7905806898419
 30
0.0
  0
POINT
  5
638F
330
62B6
100
AcDbEntity
  8
DEFPOINTS
 62
     0
100
AcDbPoint
 10
176.6942645631745
 20
54.86048068984214
 30
0.0
  0
POINT
  5
6390
330
62B6
100
AcDbEntity
  8
DEFPOINTS
 62
     0
100
AcDbPoint
 10
209.5904341257563
 20
54.86048068984213
 30
0.0
  0
ENDBLK
  5
62C1
330
62B6
100
AcDbEntity
  8
0
100
AcDbBlockEnd
  0
BLOCK
  5
62CC
330
62C2
100
AcDbEntity
  8
0
100
AcDbBlockBegin
  2
*D32
 70
     1
 10
0.0
 20
0.0
 30
0.0
  3
*D32
  1

  0
LINE
  5
637F
330
62C2
100
AcDbEntity
  8
SUNPOU
100
AcDbLine
 10
103.6946645631743
 20
234.7905806898419
 30
0.0
 11
85.03581808230357
 21
234.7905806898419
 31
0.0
  0
LINE
  5
6380
330
62C2
100
AcDbEntity
  8
SUNPOU
100
AcDbLine
 10
103.6942484607205
 20
73.86070965906833
 30
0.0
 11
85.03581808230354
 21
73.86070965906835
 31
0.0
  0
LINE
  5
6381
330
62C2
100
AcDbEntity
  8
SUNPOU
100
AcDbLine
 10
86.53581808230358
 20
231.7905806898419
 30
0.0
 11
86.53581808230354
 21
76.86070965906835
 31
0.0
  0
INSERT
  5
6382
330
62C2
100
AcDbEntity
  8
SUNPOU
100
AcDbBlockReference
  2
_OPEN
 10
86.53581808230358
 20
234.7905806898419
 30
0.0
 41
3.0
 42
3.0
 43
3.0
 50
90.0
  0
INSERT
  5
6383
330
62C2
100
AcDbEntity
  8
SUNPOU
100
AcDbBlockReference
  2
_OPEN
 10
86.53581808230354
 20
73.86070965906835
 30
0.0
 41
3.0
 42
3.0
 43
3.0
 50
270.0
  0
MTEXT
  5
6384
330
62C2
100
AcDbEntity
  8
SUNPOU
100
AcDbMText
 10
84.03581808230354
 20
154.3256451744551
 30
0.0
 40
3.0
 41
0.0
 71
     5
 72
     1
  1
\A1;161
 11
0.0000000000000001
 21
1.0
 31
0.0
1001
ACAD
1000
MTEXTBEGIN
1070
    73
1070
     1
1070
    44
1040
1.0
1070
    74
1070
     0
1000
MTEXTEND
  0
POINT
  5
6385
330
62C2
100
AcDbEntity
  8
DEFPOINTS
 62
     0
100
AcDbPoint
 10
106.6946645631743
 20
234.7905806898419
 30
0.0
  0
POINT
  5
6386
330
62C2
100
AcDbEntity
  8
DEFPOINTS
 62
     0
100
AcDbPoint
 10
106.6942484607205
 20
73.86070965906833
 30
0.0
  0
POINT
  5
6387
330
62C2
100
AcDbEntity
  8
DEFPOINTS
 62
     0
100
AcDbPoint
 10
86.53581808230354
 20
73.86070965906835
 30
0.0
  0
ENDBLK
  5
62CD
330
62C2
100
AcDbEntity
  8
0
100
AcDbBlockEnd
  0
BLOCK
  5
62D8
330
62CE
100
AcDbEntity
  8
0
100
AcDbBlockBegin
  2
*D33
 70
     1
 10
0.0
 20
0.0
 30
0.0
  3
*D33
  1

  0
LINE
  5
6397
330
62CE
100
AcDbEntity
  8
SUNPOU
100
AcDbLine
 10
176.6942645631745
 20
51.86048068984213
 30
0.0
 11
176.6942645631745
 21
36.11168315711944
 31
0.0
  0
LINE
  5
6398
330
62CE
100
AcDbEntity
  8
SUNPOU
100
AcDbLine
 10
106.6942484607205
 20
70.86070965906833
 30
0.0
 11
106.6942484607205
 21
36.11168315711944
 31
0.0
  0
LINE
  5
6399
330
62CE
100
AcDbEntity
  8
SUNPOU
100
AcDbLine
 10
173.6942645631745
 20
37.61168315711944
 30
0.0
 11
109.6942484607206
 21
37.61168315711944
 31
0.0
  0
INSERT
  5
639A
330
62CE
100
AcDbEntity
  8
SUNPOU
100
AcDbBlockReference
  2
_OPEN
 10
176.6942645631745
 20
37.61168315711944
 30
0.0
 41
3.0
 42
3.0
 43
3.0
  0
INSERT
  5
639B
330
62CE
100
AcDbEntity
  8
SUNPOU
100
AcDbBlockReference
  2
_OPEN
 10
106.6942484607205
 20
37.61168315711944
 30
0.0
 41
3.0
 42
3.0
 43
3.0
 50
180.0
  0
MTEXT
  5
639C
330
62CE
100
AcDbEntity
  8
SUNPOU
100
AcDbMText
 10
141.6942565119475
 20
40.11168315711944
 30
0.0
 40
3.0
 41
0.0
 71
     5
 72
     1
  1
\A1;70
1001
ACAD
1000
MTEXTBEGIN
1070
    73
1070
     1
1070
    44
1040
1.0
1070
    74
1070
     0
1000
MTEXTEND
  0
POINT
  5
639D
330
62CE
100
AcDbEntity
  8
DEFPOINTS
 62
     0
100
AcDbPoint
 10
176.6942645631745
 20
54.86048068984214
 30
0.0
  0
POINT
  5
639E
330
62CE
100
AcDbEntity
  8
DEFPOINTS
 62
     0
100
AcDbPoint
 10
106.6942484607205
 20
73.86070965906833
 30
0.0
  0
POINT
  5
639F
330
62CE
100
AcDbEntity
  8
DEFPOINTS
 62
     0
100
AcDbPoint
 10
106.6942484607205
 20
37.61168315711944
 30
0.0
  0
ENDBLK
  5
62D9
330
62CE
100
AcDbEntity
  8
0
100
AcDbBlockEnd
  0
BLOCK
  5
62E4
330
62DA
100
AcDbEntity
  8
0
100
AcDbBlockBegin
  2
*D34
 70
     1
 10
0.0
 20
0.0
 30
0.0
  3
*D34
  1

  0
LINE
  5
63A0
330
62DA
100
AcDbEntity
  8
SUNPOU
100
AcDbLine
 10
179.6943645631745
 20
101.860580689842
 30
0.0
 11
199.3485823413283
 21
101.860580689842
 31
0.0
  0
LINE
  5
63A1
330
62DA
100
AcDbEntity
  8
SUNPOU
100
AcDbLine
 10
179.6942645631745
 20
54.86048068984214
 30
0.0
 11
199.3485823413283
 21
54.86048068984214
 31
0.0
  0
LINE
  5
63A2
330
62DA
100
AcDbEntity
  8
SUNPOU
100
AcDbLine
 10
197.8485823413283
 20
98.86058068984205
 30
0.0
 11
197.8485823413283
 21
57.86048068984213
 31
0.0
  0
INSERT
  5
63A3
330
62DA
100
AcDbEntity
  8
SUNPOU
100
AcDbBlockReference
  2
_OPEN
 10
197.8485823413283
 20
101.860580689842
 30
0.0
 41
3.0
 42
3.0
 43
3.0
 50
90.0
  0
INSERT
  5
63A4
330
62DA
100
AcDbEntity
  8
SUNPOU
100
AcDbBlockReference
  2
_OPEN
 10
197.8485823413283
 20
54.86048068984214
 30
0.0
 41
3.0
 42
3.0
 43
3.0
 50
270.0
  0
MTEXT
  5
63A5
330
62DA
100
AcDbEntity
  8
SUNPOU
100
AcDbMText
 10
195.3485823413283
 20
78.36053068984212
 30
0.0
 40
3.0
 41
0.0
 71
     5
 72
     1
  1
\A1;47
 11
0.0000000000000001
 21
1.0
 31
0.0
1001
ACAD
1000
MTEXTBEGIN
1070
    73
1070
     1
1070
    44
1040
1.0
1070
    74
1070
     0
1000
MTEXTEND
  0
POINT
  5
63A6
330
62DA
100
AcDbEntity
  8
DEFPOINTS
 62
     0
100
AcDbPoint
 10
176.6943645631745
 20
101.860580689842
 30
0.0
  0
POINT
  5
63A7
330
62DA
100
AcDbEntity
  8
DEFPOINTS
 62
     0
100
AcDbPoint
 10
176.6942645631745
 20
54.86048068984214
 30
0.0
  0
POINT
  5
63A8
330
62DA
100
AcDbEntity
  8
DEFPOINTS
 62
     0
100
AcDbPoint
 10
197.8485823413283
 20
54.86048068984214
 30
0.0
  0
ENDBLK
  5
62E5
330
62DA
100
AcDbEntity
  8
0
100
AcDbBlockEnd
  0
BLOCK
  5
62F0
330
62E6
100
AcDbEntity
  8
0
100
AcDbBlockBegin
  2
*D35
 70
     1
 10
0.0
 20
0.0
 30
0.0
  3
*D35
  1

  0
LINE
  5
63B2
330
62E6
100
AcDbEntity
  8
SUNPOU
100
AcDbLine
 10
171.6946645631743
 20
237.7905806898419
 30
0.0
 11
171.6946645631743
 21
251.6909413631418
 31
0.0
  0
LINE
  5
63B3
330
62E6
100
AcDbEntity
  8
SUNPOU
100
AcDbLine
 10
106.6948645631745
 20
237.7908806898419
 30
0.0
 11
106.6948645631745
 21
251.6909413631418
 31
0.0
  0
LINE
  5
63B4
330
62E6
100
AcDbEntity
  8
SUNPOU
100
AcDbLine
 10
168.6946645631743
 20
250.1909413631417
 30
0.0
 11
109.6948645631745
 21
250.1909413631417
 31
0.0
  0
INSERT
  5
63B5
330
62E6
100
AcDbEntity
  8
SUNPOU
100
AcDbBlockReference
  2
_OPEN
 10
171.6946645631743
 20
250.1909413631417
 30
0.0
 41
3.0
 42
3.0
 43
3.0
  0
INSERT
  5
63B6
330
62E6
100
AcDbEntity
  8
SUNPOU
100
AcDbBlockReference
  2
_OPEN
 10
106.6948645631745
 20
250.1909413631417
 30
0.0
 41
3.0
 42
3.0
 43
3.0
 50
180.0
  0
MTEXT
  5
63B7
330
62E6
100
AcDbEntity
  8
SUNPOU
100
AcDbMText
 10
139.1947645631744
 20
252.6909413631418
 30
0.0
 40
3.0
 41
0.0
 71
     5
 72
     1
  1
\A1;65
1001
ACAD
1000
MTEXTBEGIN
1070
    73
1070
     1
1070
    44
1040
1.0
1070
    74
1070
     0
1000
MTEXTEND
  0
POINT
  5
63B8
330
62E6
100
AcDbEntity
  8
DEFPOINTS
 62
     0
100
AcDbPoint
 10
171.6946645631743
 20
234.7905806898419
 30
0.0
  0
POINT
  5
63B9
330
62E6
100
AcDbEntity
  8
DEFPOINTS
 62
     0
100
AcDbPoint
 10
106.6948645631745
 20
234.7908806898419
 30
0.0
  0
POINT
  5
63BA
330
62E6
100
AcDbEntity
  8
DEFPOINTS
 62
     0
100
AcDbPoint
 10
106.6948645631745
 20
250.1909413631417
 30
0.0
  0
ENDBLK
  5
62F1
330
62E6
100
AcDbEntity
  8
0
100
AcDbBlockEnd
  0
BLOCK
  5
62F9
330
62F2
100
AcDbEntity
  8
0
100
AcDbBlockBegin
  2
*D36
 70
     1
 10
0.0
 20
0.0
 30
0.0
  3
*D36
  1

  0
LINE
  5
6391
330
62F2
100
AcDbEntity
  8
SUNPOU
100
AcDbLine
 10
265.1514902980011
 20
51.28666814184405
 30
0.0
 11
274.4976432081964
 21
59.58723594044966
 31
0.0
  0
MTEXT
  5
6392
330
62F2
100
AcDbEntity
  8
SUNPOU
100
AcDbMText
 10
267.0429148441543
 20
56.31011448735325
 30
0.0
 40
3.0
 41
0.0
 71
     5
 72
     1
  1
\A1;R20
 11
0.7476922328156223
 21
0.6640454238884486
 31
0.0
1001
ACAD
1000
MTEXTBEGIN
1070
    73
1070
     1
1070
    44
1040
1.0
1070
    74
1070
     0
1000
MTEXTEND
  0
LINE
  5
6393
330
62F2
100
AcDbEntity
  8
SUNPOU
100
AcDbLine
 10
291.6945645630493
 20
74.86028068996707
 30
0.0
 11
276.7407199066433
 21
61.57937221211501
 31
0.0
  0
INSERT
  5
6394
330
62F2
100
AcDbEntity
  8
SUNPOU
100
AcDbBlockReference
  2
_OPEN
 10
276.7407199066433
 20
61.57937221211501
 30
0.0
 41
3.0
 42
3.0
 43
3.0
 50
41.60913453010594
  0
POINT
  5
6395
330
62F2
100
AcDbEntity
  8
DEFPOINTS
 62
     0
100
AcDbPoint
 10
276.7407199066433
 20
61.57937221211501
 30
0.0
  0
POINT
  5
6396
330
62F2
100
AcDbEntity
  8
DEFPOINTS
 62
     0
100
AcDbPoint
 10
291.6945645630493
 20
74.86028068996707
 30
0.0
  0
ENDBLK
  5
62FA
330
62F2
100
AcDbEntity
  8
0
100
AcDbBlockEnd
  0
BLOCK
  5
6305
330
62FB
100
AcDbEntity
  8
0
100
AcDbBlockBegin
  2
*D37
 70
     1
 10
0.0
 20
0.0
 30
0.0
  3
*D37
  1

  0
LINE
  5
63A9
330
62FB
100
AcDbEntity
  8
SUNPOU
100
AcDbLine
 10
311.6952645631745
 20
237.7902806898421
 30
0.0
 11
311.6952645631745
 21
251.6909413631418
 31
0.0
  0
LINE
  5
63AA
330
62FB
100
AcDbEntity
  8
SUNPOU
100
AcDbLine
 10
271.6951645631744
 20
237.790380689842
 30
0.0
 11
271.6951645631744
 21
251.6909413631418
 31
0.0
  0
LINE
  5
63AB
330
62FB
100
AcDbEntity
  8
SUNPOU
100
AcDbLine
 10
308.6952645631745
 20
250.1909413631417
 30
0.0
 11
274.6951645631744
 21
250.1909413631417
 31
0.0
  0
INSERT
  5
63AC
330
62FB
100
AcDbEntity
  8
SUNPOU
100
AcDbBlockReference
  2
_OPEN
 10
311.6952645631745
 20
250.1909413631417
 30
0.0
 41
3.0
 42
3.0
 43
3.0
  0
INSERT
  5
63AD
330
62FB
100
AcDbEntity
  8
SUNPOU
100
AcDbBlockReference
  2
_OPEN
 10
271.6951645631744
 20
250.1909413631417
 30
0.0
 41
3.0
 42
3.0
 43
3.0
 50
180.0
  0
MTEXT
  5
63AE
330
62FB
100
AcDbEntity
  8
SUNPOU
100
AcDbMText
 10
291.6952145631745
 20
252.6909413631418
 30
0.0
 40
3.0
 41
0.0
 71
     5
 72
     1
  1
\A1;40
1001
ACAD
1000
MTEXTBEGIN
1070
    73
1070
     1
1070
    44
1040
1.0
1070
    74
1070
     0
1000
MTEXTEND
  0
POINT
  5
63AF
330
62FB
100
AcDbEntity
  8
DEFPOINTS
 62
     0
100
AcDbPoint
 10
311.6952645631745
 20
234.7902806898421
 30
0.0
  0
POINT
  5
63B0
330
62FB
100
AcDbEntity
  8
DEFPOINTS
 62
     0
100
AcDbPoint
 10
271.6951645631744
 20
234.7903806898421
 30
0.0
  0
POINT
  5
63B1
330
62FB
100
AcDbEntity
  8
DEFPOINTS
 62
     0
100
AcDbPoint
 10
271.6951645631744
 20
250.1909413631417
 30
0.0
  0
ENDBLK
  5
6306
330
62FB
100
AcDbEntity
  8
0
100
AcDbBlockEnd
  0
ENDSEC
  0
SECTION
  2
ENTITIES
  0
POLYLINE
  5
3B1A
330
1A
100
AcDbEntity
  8
ZUWAKU
100
AcDb2dPolyline
 66
     1
 10
0.0
 20
0.0
 30
0.0
 70
     1
  0
VERTEX
  5
6409
330
3B1A
100
AcDbEntity
  8
ZUWAKU
100
AcDbVertex
100
AcDb2dVertex
 10
0.4000002112909442
 20
275.4000003333167
 30
0.0
  0
VERTEX
  5
640A
330
3B1A
100
AcDbEntity
  8
ZUWAKU
100
AcDbVertex
100
AcDb2dVertex
 10
0.4000002112909442
 20
0.4000003333167684
 30
0.0
  0
VERTEX
  5
640B
330
3B1A
100
AcDbEntity
  8
ZUWAKU
100
AcDbVertex
100
AcDb2dVertex
 10
398.400000211291
 20
0.4000003333167684
 30
0.0
  0
VERTEX
  5
640C
330
3B1A
100
AcDbEntity
  8
ZUWAKU
100
AcDbVertex
100
AcDb2dVertex
 10
398.400000211291
 20
275.4000003333167
 30
0.0
  0
SEQEND
  5
640D
330
3B1A
100
AcDbEntity
  8
ZUWAKU
  0
POLYLINE
  5
3B1B
330
1A
100
AcDbEntity
  8
ZUWAKU
100
AcDb2dPolyline
 66
     1
 10
0.0
 20
0.0
 30
0.0
 70
     1
  0
VERTEX
  5
640E
330
3B1B
100
AcDbEntity
  8
ZUWAKU
100
AcDbVertex
100
AcDb2dVertex
 10
0.2000002112910124
 20
275.6000003333167
 30
0.0
  0
VERTEX
  5
640F
330
3B1B
100
AcDbEntity
  8
ZUWAKU
100
AcDbVertex
100
AcDb2dVertex
 10
0.2000002112910124
 20
0.2000003333167797
 30
0.0
  0
VERTEX
  5
6410
330
3B1B
100
AcDbEntity
  8
ZUWAKU
100
AcDbVertex
100
AcDb2dVertex
 10
398.6000002112908
 20
0.2000003333167655
 30
0.0
  0
VERTEX
  5
6411
330
3B1B
100
AcDbEntity
  8
ZUWAKU
100
AcDbVertex
100
AcDb2dVertex
 10
398.6000002112908
 20
275.6000003333167
 30
0.0
  0
SEQEND
  5
6412
330
3B1B
100
AcDbEntity
  8
ZUWAKU
  0
POLYLINE
  5
3B1C
330
1A
100
AcDbEntity
  8
ZUWAKU
100
AcDb2dPolyline
 66
     1
 10
0.0
 20
0.0
 30
0.0
 70
     1
  0
VERTEX
  5
6413
330
3B1C
100
AcDbEntity
  8
ZUWAKU
100
AcDbVertex
100
AcDb2dVertex
 10
0.0000002112909669
 20
275.8000003333167
 30
0.0
  0
VERTEX
  5
6414
330
3B1C
100
AcDbEntity
  8
ZUWAKU
100
AcDbVertex
100
AcDb2dVertex
 10
0.0000002112909669
 20
0.0000003333167342
 30
0.0
  0
VERTEX
  5
6415
330
3B1C
100
AcDbEntity
  8
ZUWAKU
100
AcDbVertex
100
AcDb2dVertex
 10
398.8000002112911
 20
0.0000003333167697
 30
0.0
  0
VERTEX
  5
6416
330
3B1C
100
AcDbEntity
  8
ZUWAKU
100
AcDbVertex
100
AcDb2dVertex
 10
398.8000002112911
 20
275.8000003333167
 30
0.0
  0
SEQEND
  5
6417
330
3B1C
100
AcDbEntity
  8
ZUWAKU
  0
POLYLINE
  5
3B1D
330
1A
100
AcDbEntity
  8
ZUWAKU
100
AcDb2dPolyline
 66
     1
 10
0.0
 20
0.0
 30
0.0
 70
     1
  0
VERTEX
  5
6418
330
3B1D
100
AcDbEntity
  8
ZUWAKU
100
AcDbVertex
100
AcDb2dVertex
 10
0.3000002112909215
 20
275.5000003333167
 30
0.0
  0
VERTEX
  5
6419
330
3B1D
100
AcDbEntity
  8
ZUWAKU
100
AcDbVertex
100
AcDb2dVertex
 10
0.3000002112909215
 20
0.3000003333167456
 30
0.0
  0
VERTEX
  5
641A
330
3B1D
100
AcDbEntity
  8
ZUWAKU
100
AcDbVertex
100
AcDb2dVertex
 10
398.5000002112909
 20
0.3000003333167669
 30
0.0
  0
VERTEX
  5
641B
330
3B1D
100
AcDbEntity
  8
ZUWAKU
100
AcDbVertex
100
AcDb2dVertex
 10
398.5000002112909
 20
275.5000003333167
 30
0.0
  0
SEQEND
  5
641C
330
3B1D
100
AcDbEntity
  8
ZUWAKU
  0
POLYLINE
  5
3B1E
330
1A
100
AcDbEntity
  8
ZUWAKU
100
AcDb2dPolyline
 66
     1
 10
0.0
 20
0.0
 30
0.0
 70
     1
  0
VERTEX
  5
641D
330
3B1E
100
AcDbEntity
  8
ZUWAKU
100
AcDbVertex
100
AcDb2dVertex
 10
0.100000211290876
 20
275.7000003333167
 30
0.0
  0
VERTEX
  5
641E
330
3B1E
100
AcDbEntity
  8
ZUWAKU
100
AcDbVertex
100
AcDb2dVertex
 10
0.100000211290876
 20
0.1000003333167569
 30
0.0
  0
VERTEX
  5
641F
330
3B1E
100
AcDbEntity
  8
ZUWAKU
100
AcDbVertex
100
AcDb2dVertex
 10
398.7000002112907
 20
0.1000003333167712
 30
0.0
  0
VERTEX
  5
6420
330
3B1E
100
AcDbEntity
  8
ZUWAKU
100
AcDbVertex
100
AcDb2dVertex
 10
398.700000211291
 20
275.7000003333167
 30
0.0
  0
SEQEND
  5
6421
330
3B1E
100
AcDbEntity
  8
ZUWAKU
  0
LINE
  5
3B1F
330
1A
100
AcDbEntity
  8
ZUWAKU
100
AcDbLine
 10
0.0000002112909669
 20
15.00000033331673
 30
0.0
 11
398.7000002112907
 21
15.00000033331673
 31
0.0
  0
LINE
  5
3B20
330
1A
100
AcDbEntity
  8
ZUWAKU
100
AcDbLine
 10
0.0000002112909669
 20
15.10000033331675
 30
0.0
 11
398.7000002112907
 21
15.10000033331675
 31
0.0
  0
LINE
  5
3B21
330
1A
100
AcDbEntity
  8
ZUWAKU
100
AcDbLine
 10
0.0000002112909669
 20
15.20000033331672
 30
0.0
 11
398.7000002112907
 21
15.20000033331672
 31
0.0
  0
LINE
  5
3B22
330
1A
100
AcDbEntity
  8
ZUWAKU
100
AcDbLine
 10
0.0000002112909669
 20
15.30000033331674
 30
0.0
 11
398.7000002112907
 21
15.30000033331674
 31
0.0
  0
LINE
  5
3B23
330
1A
100
AcDbEntity
  8
ZUWAKU
100
AcDbLine
 10
0.0000002112909669
 20
15.40000033331671
 30
0.0
 11
398.7000002112907
 21
15.40000033331671
 31
0.0
  0
LINE
  5
3B24
330
1A
100
AcDbEntity
  8
ZUWAKU
100
AcDbLine
 10
104.3233008563249
 20
7.700000333316779
 30
0.0
 11
223.7121821967865
 21
7.700000333316779
 31
0.0
  0
LINE
  5
3B25
330
1A
100
AcDbEntity
  8
ZUWAKU
100
AcDbLine
 10
104.3233008563249
 20
7.800000333316745
 30
0.0
 11
223.7121821967865
 21
7.800000333316745
 31
0.0
  0
LINE
  5
3B26
330
1A
100
AcDbEntity
  8
ZUWAKU
100
AcDbLine
 10
104.3233008563249
 20
7.600000333316756
 30
0.0
 11
223.7121821967865
 21
7.600000333316756
 31
0.0
  0
ARC
  5
3B30
330
1A
100
AcDbEntity
  8
ZUWAKU
100
AcDbCircle
 10
7.046106288681471
 20
10.22500033331675
 30
0.0
 40
1.399999999999999
100
AcDbArc
 50
90.0
 51
180.0
  0
ARC
  5
3B31
330
1A
100
AcDbEntity
  8
ZUWAKU
100
AcDbCircle
 10
6.171106288681471
 20
4.712500333316711
 30
0.0
 40
0.2625
100
AcDbArc
 50
90.0
 51
180.0
  0
ARC
  5
3B32
330
1A
100
AcDbEntity
  8
ZUWAKU
100
AcDbCircle
 10
6.171106288681471
 20
3.837500333316711
 30
0.0
 40
0.2625
100
AcDbArc
 50
180.0
 51
270.0
  0
ARC
  5
3B33
330
1A
100
AcDbEntity
  8
ZUWAKU
100
AcDbCircle
 10
7.746106288681517
 20
9.317399320639083
 30
0.0
 40
2.099999999999999
100
AcDbArc
 50
180.0
 51
224.9999999999997
  0
INSERT
  5
3B34
330
1A
100
AcDbEntity
  8
ZUWAKU
  6
CONTINUOUS
100
AcDbBlockReference
  2
*X1
 10
0.0000004678039431
 20
-0.0000000061329501
 30
0.0
1001
ACAD
1000
HATCH
1002
{
1070
    19
1000
ANSI37
1040
0.1
1040
0.0
1000
R14_HATCH_DATA
1000
585
1011
1.000000467803943
1021
-0.0000000061329501
1031
0.0
1011
0.0000004678039431
1021
0.9999999938670498
1031
0.0
1011
0.0000004678039431
1021
-0.0000000061329501
1031
1.0
1040
0.0
1010
0.0
1020
0.0
1030
1.0
1000
ANSI37
1070
     0
1070
     0
1071
        8
1071
        7
1070
     1
1070
     1
1071
       24
1040
7.251131074046952
1040
8.822424579941475
1040
-0.1989123673796348
1040
7.046105820877585
1040
9.317399326772001
1040
0.0
1040
7.046105820877585
1040
9.96250033944969
1040
-0.4142135623730912
1040
7.308605820877573
1040
10.22500033944968
1040
0.0
1040
8.796105820877528
1040
10.22500033944968
1040
0.4142135623731546
1040
9.058605820877573
1040
10.48750033944968
1040
0.0
1040
9.058605820877573
1040
11.36250033944968
1040
0.4142135623731586
1040
8.796105820877528
1040
11.62500033944968
1040
0.0
1040
7.046105820877585
1040
11.62500033944968
1040
0.4142135623730928
1040
5.646105820877608
1040
10.2250003394497
1040
0.0
1040
5.646105820877608
1040
9.317399326772065
1040
0.1989123673796619
1040
6.261181580385823
1040
7.832475086280261
1040
0.0
1040
7.716080567708161
1040
6.377576098957932
1040
-0.1989123673796613
1040
7.921105820877585
1040
5.882601352127339
1040
0.0
1040
7.921105820877585
1040
5.237500339449681
1040
-0.4142135623730911
1040
7.658605820877596
1040
4.975000339449685
1040
0.0
1040
6.171105820877642
1040
4.975000339449685
1040
0.4142135623731526
1040
5.908605820877596
1040
4.712500339449691
1040
0.0
1040
5.908605820877596
1040
3.837500339449681
1040
0.4142135623731526
1040
6.171105820877642
1040
3.575000339449687
1040
0.0
1040
7.921105820877585
1040
3.575000339449687
1040
0.4142135623731044
1040
9.321105820877619
1040
4.975000339449675
1040
0.0
1040
9.321105820877619
1040
5.882601352127311
1040
0.1989123673796604
1040
8.706030061369347
1040
7.367525592619081
1040
0.0
1071
        0
1071
        7
1070
     1
1070
     1
1071
       16
1040
11.7711058208776
1040
9.52500033944969
1040
-0.4142135623730935
1040
12.47110582087759
1040
10.22500033944968
1040
0.0
1040
13.43360582087757
1040
10.22500033944968
1040
0.4142135623731546
1040
13.69610582087761
1040
10.48750033944968
1040
0.0
1040
13.69610582087761
1040
11.36250033944968
1040
0.4142135623730951
1040
13.43360582087763
1040
11.62500033944968
1040
0.0
1040
12.47110582087754
1040
11.62500033944966
1040
0.4142135623730892
1040
10.37110582087757
1040
9.525000339449654
1040
0.0
1040
10.37110582087757
1040
5.675000339449699
1040
0.4142135623730969
1040
12.47110582087759
1040
3.575000339449687
1040
0.0
1040
13.43360582087757
1040
3.575000339449687
1040
0.4142135623731526
1040
13.69610582087761
1040
3.837500339449681
1040
0.0
1040
13.69610582087761
1040
4.712500339449691
1040
0.4142135623730891
1040
13.43360582087763
1040
4.975000339449685
1040
0.0
1040
12.47110582087759
1040
4.975000339449685
1040
-0.4142135623730928
1040
11.7711058208776
1040
5.675000339449679
1040
0.0
1071
        0
1071
        7
1070
     1
1070
     1
1071
        2
1040
12.12110582087757
1040
7.600000339449685
1040
1.0
1040
13.87110582087757
1040
7.600000339449685
1040
1.0
1071
        0
1071
        7
1070
     1
1070
     1
1071
       26
1040
18.65742906196658
1040
9.602523936231399
1040
0.0
1040
19.18824887853548
1040
11.28345335536619
1040
0.5069206636600134
1040
18.93793342893781
1040
11.62500033944968
1040
0.0
1040
18.08848873913319
1040
11.62500033944968
1040
0.3272098845218764
1040
17.83817328953551
1040
11.44154732353317
1040
0.0
1040
16.90403835221963
1040
8.483453355366226
1040
-0.3272098845219541
1040
16.65372290262189
1040
8.300000339449685
1040
0.0
1040
16.58360582087766
1040
8.300000339449685
1040
-0.4142135623731526
1040
16.32110582087761
1040
8.562500339449679
1040
0.0
1040
16.32110582087761
1040
11.36250033944968
1040
0.4142135623730951
1040
16.05860582087763
1040
11.62500033944968
1040
0.0
1040
15.18360582087757
1040
11.62500033944968
1040
0.4142135623730871
1040
14.92110582087758
1040
11.36250033944969
1040
0.0
1040
14.92110582087758
1040
3.837500339449681
1040
0.4142135623730891
1040
15.18360582087757
1040
3.575000339449687
1040
0.0
1040
16.05860582087757
1040
3.575000339449687
1040
0.4142135623731526
1040
16.32110582087761
1040
3.837500339449681
1040
0.0
1040
16.32110582087761
1040
6.637500339449692
1040
-0.4142135623731526
1040
16.58360582087766
1040
6.900000339449686
1040
0.0
1040
16.65372290262195
1040
6.900000339449686
1040
-0.3272098845218915
1040
16.90403835221963
1040
6.716547323533148
1040
0.0
1040
17.83817328953551
1040
3.758453355366222
1040
0.3272098845218902
1040
18.08848873913319
1040
3.575000339449687
1040
0.0
1040
18.93793342893781
1040
3.575000339449687
1040
0.5069206636600335
1040
19.18824887853548
1040
3.91654732353319
1040
0.0
1040
18.02505318929866
1040
7.600000339449755
1040
0.0
1071
        0
1071
        7
1070
     1
1070
     1
1071
        8
1040
21.74610582087757
1040
11.36250033944969
1040
0.4142135623731546
1040
21.48360582087752
1040
11.62500033944968
1040
0.0
1040
20.60860582087764
1040
11.62500033944968
1040
0.4142135623731507
1040
20.34610582087759
1040
11.36250033944969
1040
0.0
1040
20.34610582087759
1040
3.837500339449681
1040
0.4142135623731526
1040
20.60860582087764
1040
3.575000339449687
1040
0.0
1040
21.48360582087752
1040
3.575000339449687
1040
0.4142135623731526
1040
21.74610582087757
1040
3.837500339449681
1040
0.0
1071
        0
1071
        7
1070
     1
1070
     1
1071
       24
1040
24.19610582087762
1040
9.96250033944969
1040
-0.4142135623731546
1040
24.45860582087766
1040
10.22500033944968
1040
0.0
1040
25.94610582087762
1040
10.22500033944968
1040
0.4142135623730911
1040
26.20860582087761
1040
10.48750033944968
1040
0.0
1040
26.20860582087761
1040
11.36250033944968
1040
0.4142135623730952
1040
25.94610582087762
1040
11.62500033944968
1040
0.0
1040
24.19610582087762
1040
11.62500033944968
1040
0.4142135623731048
1040
22.79610582087758
1040
10.2250003394497
1040
0.0
1040
22.79610582087758
1040
9.317399326772065
1040
0.1989123673796613
1040
23.41118158038586
1040
7.83247508628029
1040
0.0
1040
24.86608056770819
1040
6.377576098957955
1040
-0.1989123673796402
1040
25.07110582087761
1040
5.882601352127419
1040
0.0
1040
25.07110582087761
1040
5.237500339449681
1040
-0.4142135623730911
1040
24.80860582087763
1040
4.975000339449685
1040
0.0
1040
23.32110582087762
1040
4.975000339449685
1040
0.4142135623731526
1040
23.05860582087757
1040
4.712500339449691
1040
0.0
1040
23.05860582087757
1040
3.837500339449681
1040
0.4142135623730891
1040
23.32110582087756
1040
3.575000339449687
1040
0.0
1040
25.07110582087761
1040
3.575000339449687
1040
0.4142135623730925
1040
26.47110582087759
1040
4.975000339449675
1040
0.0
1040
26.47110582087759
1040
5.882601352127311
1040
0.1989123673796675
1040
25.85603006136932
1040
7.367525592619138
1040
0.0
1040
24.40113107404704
1040
8.822424579941396
1040
-0.1989123673796652
1040
24.19610582087762
1040
9.31739932677198
1040
0.0
1071
        0
1071
        7
1070
     1
1070
     1
1071
       16
1040
28.92110582087758
1040
11.36250033944968
1040
0.414213562373103
1040
28.65860582087759
1040
11.62500033944968
1040
0.0
1040
27.78360582087759
1040
11.62500033944968
1040
0.4142135623730871
1040
27.52110582087761
1040
11.36250033944969
1040
0.0
1040
27.52110582087761
1040
4.975000339449675
1040
0.4142135623730926
1040
28.92110582087758
1040
3.575000339449687
1040
0.0
1040
30.67110582087758
1040
3.575000339449687
1040
0.4142135623731044
1040
32.07110582087762
1040
4.975000339449675
1040
0.0
1040
32.07110582087762
1040
11.36250033944968
1040
0.4142135623730951
1040
31.80860582087763
1040
11.62500033944968
1040
0.0
1040
30.93360582087757
1040
11.62500033944968
1040
0.4142135623730871
1040
30.67110582087758
1040
11.36250033944969
1040
0.0
1040
30.67110582087758
1040
5.500000339449673
1040
-0.414213562373088
1040
30.1461058208776
1040
4.975000339449685
1040
0.0
1040
29.44610582087761
1040
4.975000339449685
1040
-0.4142135623731197
1040
28.92110582087758
1040
5.500000339449673
1040
0.0
1071
        0
1071
        7
1070
     1
1070
     1
1071
        8
1040
34.5211058208776
1040
11.36250033944969
1040
0.4142135623730871
1040
34.25860582087762
1040
11.62500033944968
1040
0.0
1040
33.38360582087762
1040
11.62500033944968
1040
0.4142135623731507
1040
33.12110582087757
1040
11.36250033944969
1040
0.0
1040
33.12110582087757
1040
3.837500339449681
1040
0.4142135623730891
1040
33.38360582087756
1040
3.575000339449687
1040
0.0
1040
34.25860582087762
1040
3.575000339449687
1040
0.4142135623730891
1040
34.5211058208776
1040
3.837500339449681
1040
0.0
1071
        0
1070
     0
1070
     1
1040
0.0
1040
0.1
1070
     0
1070
     2
1040
0.7853981633974483
1040
-450.4711524238524
1040
-6.599999660550281
1040
-0.2245064030267288
1040
0.2245064030267288
1070
     0
1040
2.356194490192344
1040
-450.4711524238524
1040
-6.599999660550281
1040
-0.2245064030267288
1040
-0.2245064030267288
1070
     0
1040
0.057451373970553
1071
        8
1040
8.039927224998677
1040
7.583587162392461
1040
0.0
1040
11.2022572467066
1040
9.42203143067519
1040
0.0
1040
12.58218368631685
1040
7.755941162485044
1040
0.0
1040
15.45702973430559
1040
8.100649162670435
1040
0.0
1040
20.91923575296539
1040
8.330455296441243
1040
0.0
1040
23.44910019105179
1040
9.70928849765329
1040
0.0
1040
28.2788427296872
1040
9.364579296997192
1040
0.0
1040
33.91353955329839
1040
9.594385430767999
1040
0.0
1002
}
  0
LINE
  5
3B35
330
1A
100
AcDbEntity
  8
ZUWAKU
100
AcDbLine
 10
5.908606288681539
 20
3.837500333316711
 30
0.0
 11
5.908606288681539
 21
4.712500333316711
 31
0.0
  0
LINE
  5
3B36
330
1A
100
AcDbEntity
  8
ZUWAKU
100
AcDbLine
 10
5.646106288681608
 20
10.22500033331675
 30
0.0
 11
5.646106288681608
 21
9.317399320639083
 31
0.0
  0
LINE
  5
3B37
330
1A
100
AcDbEntity
  8
ZUWAKU
100
AcDbLine
 10
39.56331498528516
 20
15.00000033331673
 30
0.0
 11
39.56331498528516
 21
0.4000003333167684
 31
0.0
  0
LINE
  5
3B38
330
1A
100
AcDbEntity
  8
ZUWAKU
100
AcDbLine
 10
39.76331498528509
 20
15.00000033331673
 30
0.0
 11
39.7633149852852
 21
0.4000003333167684
 31
0.0
  0
LINE
  5
3B39
330
1A
100
AcDbEntity
  8
ZUWAKU
100
AcDbLine
 10
39.66331498528507
 20
15.00000033331673
 30
0.0
 11
39.66331498528518
 21
0.4000003333167684
 31
0.0
  0
ARC
  5
3B3A
330
1A
100
AcDbEntity
  8
ZUWAKU
100
AcDbCircle
 10
24.19610628868156
 20
10.22500033331675
 30
0.0
 40
1.399999999999999
100
AcDbArc
 50
90.0
 51
180.0
  0
LINE
  5
3B3B
330
1A
100
AcDbEntity
  8
ZUWAKU
100
AcDbLine
 10
8.70603052917329
 20
7.367525586486124
 30
0.0
 11
7.251131541850895
 21
8.822424573808461
 31
0.0
  0
LINE
  5
3B3C
330
1A
100
AcDbEntity
  8
ZUWAKU
100
AcDbLine
 10
10.37110628868151
 20
5.675000333316745
 30
0.0
 11
10.37110628868151
 21
9.525000333316711
 31
0.0
  0
LINE
  5
3B3D
330
1A
100
AcDbEntity
  8
ZUWAKU
100
AcDbLine
 10
11.7711062886816
 20
9.525000333316711
 30
0.0
 11
11.7711062886816
 21
5.675000333316745
 31
0.0
  0
CIRCLE
  5
3B3E
330
1A
100
AcDbEntity
  8
ZUWAKU
100
AcDbCircle
 10
12.99610628868151
 20
7.600000333316756
 30
0.0
 40
0.875
  0
ARC
  5
3B3F
330
1A
100
AcDbEntity
  8
ZUWAKU
100
AcDbCircle
 10
12.47110628868154
 20
5.675000333316745
 30
0.0
 40
2.099999999999999
100
AcDbArc
 50
180.0
 51
270.0
  0
LINE
  5
3B40
330
1A
100
AcDbEntity
  8
ZUWAKU
100
AcDbLine
 10
9.321106288681562
 20
4.975000333316756
 30
0.0
 11
9.321106288681562
 21
5.88260134599443
 31
0.0
  0
LINE
  5
3B41
330
1A
100
AcDbEntity
  8
ZUWAKU
100
AcDbLine
 10
6.261182048189766
 20
7.832475080147332
 30
0.0
 11
7.716081035512047
 21
6.377576092824995
 31
0.0
  0
LINE
  5
3B42
330
1A
100
AcDbEntity
  8
ZUWAKU
100
AcDbLine
 10
6.171106288681471
 20
4.975000333316756
 30
0.0
 11
7.658606288681539
 21
4.975000333316756
 31
0.0
  0
LINE
  5
3B43
330
1A
100
AcDbEntity
  8
ZUWAKU
100
AcDbLine
 10
6.171106288681471
 20
3.575000333316722
 30
0.0
 11
7.921106288681471
 21
3.575000333316722
 31
0.0
  0
ARC
  5
3B44
330
1A
100
AcDbEntity
  8
ZUWAKU
100
AcDbCircle
 10
7.221106288681539
 20
5.88260134599443
 30
0.0
 40
0.7
100
AcDbArc
 50
0.0
 51
44.99999999999971
  0
ARC
  5
3B45
330
1A
100
AcDbEntity
  8
ZUWAKU
100
AcDbCircle
 10
7.658606288681539
 20
5.237500333316745
 30
0.0
 40
0.2625
100
AcDbArc
 50
270.0
 51
0.0
  0
LINE
  5
3B46
330
1A
100
AcDbEntity
  8
ZUWAKU
100
AcDbLine
 10
7.921106288681471
 20
5.237500333316745
 30
0.0
 11
7.921106288681471
 21
5.88260134599443
 31
0.0
  0
ARC
  5
3B47
330
1A
100
AcDbEntity
  8
ZUWAKU
100
AcDbCircle
 10
7.221106288681539
 20
5.882601345994373
 30
0.0
 40
2.099999999999999
100
AcDbArc
 50
0.0
 51
44.99999999999971
  0
ARC
  5
3B48
330
1A
100
AcDbEntity
  8
ZUWAKU
100
AcDbCircle
 10
7.921106288681471
 20
4.975000333316756
 30
0.0
 40
1.399999999999999
100
AcDbArc
 50
270.0
 51
0.0
  0
ARC
  5
3B49
330
1A
100
AcDbEntity
  8
ZUWAKU
100
AcDbCircle
 10
13.43360628868151
 20
4.712500333316711
 30
0.0
 40
0.2625
100
AcDbArc
 50
0.0
 51
90.0
  0
ARC
  5
3B4A
330
1A
100
AcDbEntity
  8
ZUWAKU
100
AcDbCircle
 10
13.43360628868151
 20
3.837500333316711
 30
0.0
 40
0.2625
100
AcDbArc
 50
270.0
 51
0.0
  0
LINE
  5
3B4B
330
1A
100
AcDbEntity
  8
ZUWAKU
100
AcDbLine
 10
13.69610628868156
 20
4.712500333316711
 30
0.0
 11
13.69610628868156
 21
3.837500333316711
 31
0.0
  0
ARC
  5
3B4C
330
1A
100
AcDbEntity
  8
ZUWAKU
100
AcDbCircle
 10
12.47110628868154
 20
5.675000333316745
 30
0.0
 40
0.7
100
AcDbArc
 50
180.0
 51
270.0
  0
LINE
  5
3B4D
330
1A
100
AcDbEntity
  8
ZUWAKU
100
AcDbLine
 10
13.43360628868151
 20
3.575000333316722
 30
0.0
 11
12.47110628868154
 21
3.575000333316722
 31
0.0
  0
LINE
  5
3B4E
330
1A
100
AcDbEntity
  8
ZUWAKU
100
AcDbLine
 10
12.47110628868154
 20
4.975000333316756
 30
0.0
 11
13.43360628868151
 21
4.975000333316756
 31
0.0
  0
ARC
  5
3B4F
330
1A
100
AcDbEntity
  8
ZUWAKU
100
AcDbCircle
 10
12.47110628868154
 20
9.525000333316711
 30
0.0
 40
2.099999999999999
100
AcDbArc
 50
90.0
 51
180.0
  0
LINE
  5
3B50
330
1A
100
AcDbEntity
  8
ZUWAKU
100
AcDbLine
 10
9.058606288681517
 20
11.36250033331674
 30
0.0
 11
9.058606288681517
 21
10.48750033331674
 31
0.0
  0
LINE
  5
3B51
330
1A
100
AcDbEntity
  8
ZUWAKU
100
AcDbLine
 10
8.796106288681471
 20
10.22500033331675
 30
0.0
 11
7.308606288681517
 21
10.22500033331675
 31
0.0
  0
LINE
  5
3B52
330
1A
100
AcDbEntity
  8
ZUWAKU
100
AcDbLine
 10
7.046106288681471
 20
9.962500333316711
 30
0.0
 11
7.046106288681471
 21
9.317399320639083
 31
0.0
  0
ARC
  5
3B53
330
1A
100
AcDbEntity
  8
ZUWAKU
100
AcDbCircle
 10
7.308606288681517
 20
9.962500333316711
 30
0.0
 40
0.2625
100
AcDbArc
 50
90.0
 51
180.0
  0
LINE
  5
3B54
330
1A
100
AcDbEntity
  8
ZUWAKU
100
AcDbLine
 10
7.046106288681471
 20
11.62500033331673
 30
0.0
 11
8.796106288681471
 21
11.62500033331673
 31
0.0
  0
ARC
  5
3B55
330
1A
100
AcDbEntity
  8
ZUWAKU
100
AcDbCircle
 10
8.796106288681471
 20
10.48750033331674
 30
0.0
 40
0.2625
100
AcDbArc
 50
270.0
 51
0.0
  0
ARC
  5
3B56
330
1A
100
AcDbEntity
  8
ZUWAKU
100
AcDbCircle
 10
8.796106288681471
 20
11.36250033331674
 30
0.0
 40
0.2625
100
AcDbArc
 50
0.0
 51
90.0
  0
ARC
  5
3B57
330
1A
100
AcDbEntity
  8
ZUWAKU
100
AcDbCircle
 10
7.746106288681517
 20
9.317399320639083
 30
0.0
 40
0.7
100
AcDbArc
 50
180.0000000000016
 51
224.9999999999991
  0
LINE
  5
3B58
330
1A
100
AcDbEntity
  8
ZUWAKU
100
AcDbLine
 10
13.69610628868156
 20
11.36250033331674
 30
0.0
 11
13.69610628868156
 21
10.48750033331674
 31
0.0
  0
ARC
  5
3B59
330
1A
100
AcDbEntity
  8
ZUWAKU
100
AcDbCircle
 10
13.43360628868151
 20
10.48750033331674
 30
0.0
 40
0.2625
100
AcDbArc
 50
270.0
 51
0.0
  0
ARC
  5
3B5A
330
1A
100
AcDbEntity
  8
ZUWAKU
100
AcDbCircle
 10
13.43360628868151
 20
11.36250033331674
 30
0.0
 40
0.2625
100
AcDbArc
 50
0.0
 51
90.0
  0
ARC
  5
3B5B
330
1A
100
AcDbEntity
  8
ZUWAKU
100
AcDbCircle
 10
12.47110628868154
 20
9.525000333316711
 30
0.0
 40
0.7
100
AcDbArc
 50
90.0
 51
180.0
  0
LINE
  5
3B5C
330
1A
100
AcDbEntity
  8
ZUWAKU
100
AcDbLine
 10
13.43360628868151
 20
10.22500033331675
 30
0.0
 11
12.47110628868154
 21
10.22500033331675
 31
0.0
  0
LINE
  5
3B5D
330
1A
100
AcDbEntity
  8
ZUWAKU
100
AcDbLine
 10
12.47110628868154
 20
11.62500033331673
 30
0.0
 11
13.43360628868151
 21
11.62500033331673
 31
0.0
  0
LINE
  5
3B5E
330
1A
100
AcDbEntity
  8
ZUWAKU
100
AcDbLine
 10
14.92110628868147
 20
11.36250033331674
 30
0.0
 11
14.92110628868147
 21
3.837500333316711
 31
0.0
  0
LINE
  5
3B5F
330
1A
100
AcDbEntity
  8
ZUWAKU
100
AcDbLine
 10
21.74610628868151
 20
3.837500333316711
 30
0.0
 11
21.74610628868151
 21
11.36250033331674
 31
0.0
  0
LINE
  5
3B60
330
1A
100
AcDbEntity
  8
ZUWAKU
100
AcDbLine
 10
20.34610628868154
 20
11.36250033331674
 30
0.0
 11
20.34610628868154
 21
3.837500333316711
 31
0.0
  0
LINE
  5
3B61
330
1A
100
AcDbEntity
  8
ZUWAKU
100
AcDbLine
 10
18.65742952977052
 20
9.60252393009847
 30
0.0
 11
18.0250536571026
 21
7.600000333316756
 31
0.0
  0
LINE
  5
3B62
330
1A
100
AcDbEntity
  8
ZUWAKU
100
AcDbLine
 10
19.18824934633937
 20
3.916547317400215
 30
0.0
 11
18.0250536571026
 21
7.600000333316756
 31
0.0
  0
LINE
  5
3B63
330
1A
100
AcDbEntity
  8
ZUWAKU
100
AcDbLine
 10
18.08848920693719
 20
3.575000333316722
 30
0.0
 11
18.93793389674169
 21
3.575000333316722
 31
0.0
  0
ARC
  5
3B64
330
1A
100
AcDbEntity
  8
ZUWAKU
100
AcDbCircle
 10
18.08848920693719
 20
3.837500333316711
 30
0.0
 40
0.2625
100
AcDbArc
 50
197.525568373723
 51
270.0
  0
ARC
  5
3B65
330
1A
100
AcDbEntity
  8
ZUWAKU
100
AcDbCircle
 10
16.5836062886816
 20
6.637500333316722
 30
0.0
 40
0.2625
100
AcDbArc
 50
90.0
 51
180.0
  0
ARC
  5
3B66
330
1A
100
AcDbEntity
  8
ZUWAKU
100
AcDbCircle
 10
16.65372337042583
 20
6.637500333316722
 30
0.0
 40
0.2625
100
AcDbArc
 50
17.52556837372303
 51
90.0
  0
ARC
  5
3B67
330
1A
100
AcDbEntity
  8
ZUWAKU
100
AcDbCircle
 10
15.18360628868151
 20
3.837500333316711
 30
0.0
 40
0.2625
100
AcDbArc
 50
180.0
 51
270.0
  0
LINE
  5
3B68
330
1A
100
AcDbEntity
  8
ZUWAKU
100
AcDbLine
 10
16.32110628868156
 20
3.837500333316711
 30
0.0
 11
16.32110628868156
 21
6.637500333316722
 31
0.0
  0
ARC
  5
3B69
330
1A
100
AcDbEntity
  8
ZUWAKU
100
AcDbCircle
 10
16.05860628868151
 20
3.837500333316711
 30
0.0
 40
0.2625
100
AcDbArc
 50
270.0
 51
0.0
  0
LINE
  5
3B6A
330
1A
100
AcDbEntity
  8
ZUWAKU
100
AcDbLine
 10
15.18360628868151
 20
3.575000333316722
 30
0.0
 11
16.05860628868151
 21
3.575000333316722
 31
0.0
  0
LINE
  5
3B6B
330
1A
100
AcDbEntity
  8
ZUWAKU
100
AcDbLine
 10
16.5836062886816
 20
6.900000333316711
 30
0.0
 11
16.65372337042583
 21
6.900000333316711
 31
0.0
  0
LINE
  5
3B6C
330
1A
100
AcDbEntity
  8
ZUWAKU
100
AcDbLine
 10
17.8381737573394
 20
3.758453349233263
 30
0.0
 11
16.90403882002363
 21
6.716547317400227
 31
0.0
  0
ARC
  5
3B6D
330
1A
100
AcDbEntity
  8
ZUWAKU
100
AcDbCircle
 10
21.48360628868147
 20
3.837500333316711
 30
0.0
 40
0.2625
100
AcDbArc
 50
270.0
 51
0.0
  0
ARC
  5
3B6E
330
1A
100
AcDbEntity
  8
ZUWAKU
100
AcDbCircle
 10
18.93793389674169
 20
3.837500333316711
 30
0.0
 40
0.2625
100
AcDbArc
 50
270.0
 51
17.52556837372303
  0
ARC
  5
3B6F
330
1A
100
AcDbEntity
  8
ZUWAKU
100
AcDbCircle
 10
20.60860628868147
 20
3.837500333316711
 30
0.0
 40
0.2625
100
AcDbArc
 50
180.0
 51
270.0
  0
LINE
  5
3B70
330
1A
100
AcDbEntity
  8
ZUWAKU
100
AcDbLine
 10
20.60860628868147
 20
3.575000333316722
 30
0.0
 11
21.48360628868147
 21
3.575000333316722
 31
0.0
  0
LINE
  5
3B71
330
1A
100
AcDbEntity
  8
ZUWAKU
100
AcDbLine
 10
18.08848920693719
 20
11.62500033331673
 30
0.0
 11
18.93793389674169
 21
11.62500033331673
 31
0.0
  0
ARC
  5
3B72
330
1A
100
AcDbEntity
  8
ZUWAKU
100
AcDbCircle
 10
18.08848920693719
 20
11.36250033331674
 30
0.0
 40
0.2625
100
AcDbArc
 50
90.0
 51
162.4744316262769
  0
ARC
  5
3B73
330
1A
100
AcDbEntity
  8
ZUWAKU
100
AcDbCircle
 10
15.18360628868151
 20
11.36250033331674
 30
0.0
 40
0.2625
100
AcDbArc
 50
90.0
 51
180.0
  0
LINE
  5
3B74
330
1A
100
AcDbEntity
  8
ZUWAKU
100
AcDbLine
 10
16.05860628868151
 20
11.62500033331673
 30
0.0
 11
15.18360628868151
 21
11.62500033331673
 31
0.0
  0
ARC
  5
3B75
330
1A
100
AcDbEntity
  8
ZUWAKU
100
AcDbCircle
 10
16.05860628868151
 20
11.36250033331674
 30
0.0
 40
0.2625
100
AcDbArc
 50
0.0
 51
90.0
  0
ARC
  5
3B76
330
1A
100
AcDbEntity
  8
ZUWAKU
100
AcDbCircle
 10
16.5836062886816
 20
8.562500333316734
 30
0.0
 40
0.2625
100
AcDbArc
 50
180.0
 51
270.0
  0
LINE
  5
3B77
330
1A
100
AcDbEntity
  8
ZUWAKU
100
AcDbLine
 10
16.65372337042583
 20
8.300000333316745
 30
0.0
 11
16.5836062886816
 21
8.300000333316745
 31
0.0
  0
ARC
  5
3B78
330
1A
100
AcDbEntity
  8
ZUWAKU
100
AcDbCircle
 10
16.65372337042583
 20
8.562500333316734
 30
0.0
 40
0.2625
100
AcDbArc
 50
270.0
 51
342.4744316262769
  0
LINE
  5
3B79
330
1A
100
AcDbEntity
  8
ZUWAKU
100
AcDbLine
 10
17.8381737573394
 20
11.44154731740025
 30
0.0
 11
16.90403882002363
 21
8.483453349233229
 31
0.0
  0
LINE
  5
3B7A
330
1A
100
AcDbEntity
  8
ZUWAKU
100
AcDbLine
 10
16.32110628868156
 20
8.562500333316734
 30
0.0
 11
16.32110628868156
 21
11.36250033331674
 31
0.0
  0
ARC
  5
3B7B
330
1A
100
AcDbEntity
  8
ZUWAKU
100
AcDbCircle
 10
21.48360628868147
 20
11.36250033331674
 30
0.0
 40
0.2625
100
AcDbArc
 50
0.0
 51
90.0
  0
LINE
  5
3B7C
330
1A
100
AcDbEntity
  8
ZUWAKU
100
AcDbLine
 10
19.18824934633937
 20
11.28345334923324
 30
0.0
 11
18.65742952977052
 21
9.60252393009847
 31
0.0
  0
ARC
  5
3B7D
330
1A
100
AcDbEntity
  8
ZUWAKU
100
AcDbCircle
 10
18.93793389674169
 20
11.36250033331674
 30
0.0
 40
0.2625
100
AcDbArc
 50
342.4744316262769
 51
90.0
  0
ARC
  5
3B7E
330
1A
100
AcDbEntity
  8
ZUWAKU
100
AcDbCircle
 10
20.60860628868147
 20
11.36250033331674
 30
0.0
 40
0.2625
100
AcDbArc
 50
90.0
 51
180.0
  0
LINE
  5
3B7F
330
1A
100
AcDbEntity
  8
ZUWAKU
100
AcDbLine
 10
21.48360628868147
 20
11.62500033331673
 30
0.0
 11
20.60860628868147
 21
11.62500033331673
 31
0.0
  0
ARC
  5
3B80
330
1A
100
AcDbEntity
  8
ZUWAKU
100
AcDbCircle
 10
30.93360628868151
 20
11.36250033331674
 30
0.0
 40
0.2625
100
AcDbArc
 50
90.0
 51
180.0
  0
ARC
  5
3B81
330
1A
100
AcDbEntity
  8
ZUWAKU
100
AcDbCircle
 10
30.1461062886816
 20
5.500000333316734
 30
0.0
 40
0.525
100
AcDbArc
 50
270.0
 51
0.0
  0
ARC
  5
3B82
330
1A
100
AcDbEntity
  8
ZUWAKU
100
AcDbCircle
 10
30.67110628868147
 20
4.975000333316756
 30
0.0
 40
1.399999999999999
100
AcDbArc
 50
270.0
 51
0.0
  0
LINE
  5
3B83
330
1A
100
AcDbEntity
  8
ZUWAKU
100
AcDbLine
 10
25.85603052917338
 20
7.367525586486124
 30
0.0
 11
24.40113154185098
 21
8.822424573808461
 31
0.0
  0
LINE
  5
3B84
330
1A
100
AcDbEntity
  8
ZUWAKU
100
AcDbLine
 10
28.92110628868147
 20
5.500000333316734
 30
0.0
 11
28.92110628868147
 21
11.36250033331674
 31
0.0
  0
LINE
  5
3B85
330
1A
100
AcDbEntity
  8
ZUWAKU
100
AcDbLine
 10
27.52110628868161
 20
11.36250033331674
 30
0.0
 11
27.52110628868161
 21
4.975000333316756
 31
0.0
  0
ARC
  5
3B86
330
1A
100
AcDbEntity
  8
ZUWAKU
100
AcDbCircle
 10
24.8961062886816
 20
9.317399320639083
 30
0.0
 40
2.099999999999999
100
AcDbArc
 50
180.0
 51
224.9999999999997
  0
LINE
  5
3B87
330
1A
100
AcDbEntity
  8
ZUWAKU
100
AcDbLine
 10
30.67110628868147
 20
11.36250033331674
 30
0.0
 11
30.67110628868147
 21
5.500000333316734
 31
0.0
  0
ARC
  5
3B88
330
1A
100
AcDbEntity
  8
ZUWAKU
100
AcDbCircle
 10
25.07110628868156
 20
4.975000333316756
 30
0.0
 40
1.399999999999999
100
AcDbArc
 50
270.0
 51
0.0
  0
ARC
  5
3B89
330
1A
100
AcDbEntity
  8
ZUWAKU
100
AcDbCircle
 10
24.37110628868151
 20
5.882601345994373
 30
0.0
 40
2.099999999999999
100
AcDbArc
 50
0.0
 51
44.99999999999971
  0
LINE
  5
3B8A
330
1A
100
AcDbEntity
  8
ZUWAKU
100
AcDbLine
 10
26.47110628868154
 20
4.975000333316756
 30
0.0
 11
26.47110628868154
 21
5.88260134599443
 31
0.0
  0
LINE
  5
3B8B
330
1A
100
AcDbEntity
  8
ZUWAKU
100
AcDbLine
 10
23.41118204818974
 20
7.832475080147332
 30
0.0
 11
24.86608103551214
 21
6.377576092824995
 31
0.0
  0
LINE
  5
3B8C
330
1A
100
AcDbEntity
  8
ZUWAKU
100
AcDbLine
 10
23.32110628868156
 20
3.575000333316722
 30
0.0
 11
25.07110628868156
 21
3.575000333316722
 31
0.0
  0
LINE
  5
3B8D
330
1A
100
AcDbEntity
  8
ZUWAKU
100
AcDbLine
 10
23.32110628868156
 20
4.975000333316756
 30
0.0
 11
24.80860628868152
 21
4.975000333316756
 31
0.0
  0
ARC
  5
3B8E
330
1A
100
AcDbEntity
  8
ZUWAKU
100
AcDbCircle
 10
23.32110628868156
 20
4.712500333316711
 30
0.0
 40
0.2625
100
AcDbArc
 50
90.0
 51
180.0
  0
ARC
  5
3B8F
330
1A
100
AcDbEntity
  8
ZUWAKU
100
AcDbCircle
 10
23.32110628868156
 20
3.837500333316711
 30
0.0
 40
0.2625
100
AcDbArc
 50
180.0
 51
270.0
  0
LINE
  5
3B90
330
1A
100
AcDbEntity
  8
ZUWAKU
100
AcDbLine
 10
23.05860628868151
 20
3.837500333316711
 30
0.0
 11
23.05860628868151
 21
4.712500333316711
 31
0.0
  0
ARC
  5
3B91
330
1A
100
AcDbEntity
  8
ZUWAKU
100
AcDbCircle
 10
24.80860628868152
 20
5.237500333316745
 30
0.0
 40
0.2625
100
AcDbArc
 50
270.0
 51
0.0
  0
ARC
  5
3B92
330
1A
100
AcDbEntity
  8
ZUWAKU
100
AcDbCircle
 10
24.37110628868151
 20
5.88260134599443
 30
0.0
 40
0.7
100
AcDbArc
 50
0.0
 51
44.99999999999971
  0
LINE
  5
3B93
330
1A
100
AcDbEntity
  8
ZUWAKU
100
AcDbLine
 10
25.07110628868156
 20
5.237500333316745
 30
0.0
 11
25.07110628868156
 21
5.88260134599443
 31
0.0
  0
ARC
  5
3B94
330
1A
100
AcDbEntity
  8
ZUWAKU
100
AcDbCircle
 10
29.44610628868156
 20
5.500000333316734
 30
0.0
 40
0.525
100
AcDbArc
 50
180.0
 51
270.0
  0
ARC
  5
3B95
330
1A
100
AcDbEntity
  8
ZUWAKU
100
AcDbCircle
 10
28.92110628868147
 20
4.975000333316756
 30
0.0
 40
1.399999999999999
100
AcDbArc
 50
180.0
 51
270.0
  0
LINE
  5
3B96
330
1A
100
AcDbEntity
  8
ZUWAKU
100
AcDbLine
 10
28.92110628868147
 20
3.575000333316722
 30
0.0
 11
30.67110628868147
 21
3.575000333316722
 31
0.0
  0
LINE
  5
3B97
330
1A
100
AcDbEntity
  8
ZUWAKU
100
AcDbLine
 10
30.1461062886816
 20
4.975000333316756
 30
0.0
 11
29.44610628868156
 21
4.975000333316756
 31
0.0
  0
LINE
  5
3B98
330
1A
100
AcDbEntity
  8
ZUWAKU
100
AcDbLine
 10
26.20860628868161
 20
11.36250033331674
 30
0.0
 11
26.20860628868161
 21
10.48750033331674
 31
0.0
  0
ARC
  5
3B99
330
1A
100
AcDbEntity
  8
ZUWAKU
100
AcDbCircle
 10
25.94610628868156
 20
10.48750033331674
 30
0.0
 40
0.2625
100
AcDbArc
 50
270.0
 51
0.0
  0
ARC
  5
3B9A
330
1A
100
AcDbEntity
  8
ZUWAKU
100
AcDbCircle
 10
25.94610628868156
 20
11.36250033331674
 30
0.0
 40
0.2625
100
AcDbArc
 50
0.0
 51
90.0
  0
LINE
  5
3B9B
330
1A
100
AcDbEntity
  8
ZUWAKU
100
AcDbLine
 10
22.79610628868147
 20
10.22500033331675
 30
0.0
 11
22.79610628868147
 21
9.317399320639083
 31
0.0
  0
LINE
  5
3B9C
330
1A
100
AcDbEntity
  8
ZUWAKU
100
AcDbLine
 10
24.19610628868156
 20
9.962500333316711
 30
0.0
 11
24.19610628868156
 21
9.317399320639083
 31
0.0
  0
ARC
  5
3B9D
330
1A
100
AcDbEntity
  8
ZUWAKU
100
AcDbCircle
 10
24.4586062886816
 20
9.962500333316711
 30
0.0
 40
0.2625
100
AcDbArc
 50
90.0
 51
180.0
  0
LINE
  5
3B9E
330
1A
100
AcDbEntity
  8
ZUWAKU
100
AcDbLine
 10
25.94610628868156
 20
10.22500033331675
 30
0.0
 11
24.4586062886816
 21
10.22500033331675
 31
0.0
  0
LINE
  5
3B9F
330
1A
100
AcDbEntity
  8
ZUWAKU
100
AcDbLine
 10
24.19610628868156
 20
11.62500033331673
 30
0.0
 11
25.94610628868156
 21
11.62500033331673
 31
0.0
  0
ARC
  5
3BA0
330
1A
100
AcDbEntity
  8
ZUWAKU
100
AcDbCircle
 10
24.8961062886816
 20
9.317399320639083
 30
0.0
 40
0.7
100
AcDbArc
 50
180.0000000000016
 51
224.9999999999991
  0
LINE
  5
3BA1
330
1A
100
AcDbEntity
  8
ZUWAKU
100
AcDbLine
 10
28.65860628868153
 20
11.62500033331673
 30
0.0
 11
27.78360628868154
 21
11.62500033331673
 31
0.0
  0
ARC
  5
3BA2
330
1A
100
AcDbEntity
  8
ZUWAKU
100
AcDbCircle
 10
27.78360628868154
 20
11.36250033331674
 30
0.0
 40
0.2625
100
AcDbArc
 50
90.0
 51
180.0
  0
ARC
  5
3BA3
330
1A
100
AcDbEntity
  8
ZUWAKU
100
AcDbCircle
 10
28.65860628868153
 20
11.36250033331674
 30
0.0
 40
0.2625
100
AcDbArc
 50
0.0
 51
90.0
  0
LINE
  5
3BA4
330
1A
100
AcDbEntity
  8
ZUWAKU
100
AcDbLine
 10
33.12110628868151
 20
11.36250033331674
 30
0.0
 11
33.12110628868151
 21
3.837500333316711
 31
0.0
  0
LINE
  5
3BA5
330
1A
100
AcDbEntity
  8
ZUWAKU
100
AcDbLine
 10
34.5211062886816
 20
3.837500333316711
 30
0.0
 11
34.5211062886816
 21
11.36250033331674
 31
0.0
  0
LINE
  5
3BA6
330
1A
100
AcDbEntity
  8
ZUWAKU
100
AcDbLine
 10
32.07110628868156
 20
4.975000333316756
 30
0.0
 11
32.07110628868156
 21
11.36250033331674
 31
0.0
  0
ARC
  5
3BA7
330
1A
100
AcDbEntity
  8
ZUWAKU
100
AcDbCircle
 10
34.25860628868156
 20
3.837500333316711
 30
0.0
 40
0.2625
100
AcDbArc
 50
270.0
 51
0.0
  0
ARC
  5
3BA8
330
1A
100
AcDbEntity
  8
ZUWAKU
100
AcDbCircle
 10
33.38360628868156
 20
3.837500333316711
 30
0.0
 40
0.2625
100
AcDbArc
 50
180.0
 51
270.0
  0
LINE
  5
3BA9
330
1A
100
AcDbEntity
  8
ZUWAKU
100
AcDbLine
 10
33.38360628868156
 20
3.575000333316722
 30
0.0
 11
34.25860628868156
 21
3.575000333316722
 31
0.0
  0
ARC
  5
3BAA
330
1A
100
AcDbEntity
  8
ZUWAKU
100
AcDbCircle
 10
34.25860628868156
 20
11.36250033331674
 30
0.0
 40
0.2625
100
AcDbArc
 50
0.0
 51
90.0
  0
LINE
  5
3BAB
330
1A
100
AcDbEntity
  8
ZUWAKU
100
AcDbLine
 10
31.80860628868151
 20
11.62500033331673
 30
0.0
 11
30.93360628868151
 21
11.62500033331673
 31
0.0
  0
ARC
  5
3BAC
330
1A
100
AcDbEntity
  8
ZUWAKU
100
AcDbCircle
 10
31.80860628868151
 20
11.36250033331674
 30
0.0
 40
0.2625
100
AcDbArc
 50
0.0
 51
90.0
  0
ARC
  5
3BAD
330
1A
100
AcDbEntity
  8
ZUWAKU
100
AcDbCircle
 10
33.38360628868156
 20
11.36250033331674
 30
0.0
 40
0.2625
100
AcDbArc
 50
90.0
 51
180.0
  0
LINE
  5
3BAE
330
1A
100
AcDbEntity
  8
ZUWAKU
100
AcDbLine
 10
34.25860628868156
 20
11.62500033331673
 30
0.0
 11
33.38360628868156
 21
11.62500033331673
 31
0.0
  0
LINE
  5
3BB4
330
1A
100
AcDbEntity
  8
ZUWAKU
100
AcDbLine
 10
104.2233008563248
 20
15.00000033331673
 30
0.0
 11
104.2233008563249
 21
0.4000003333167684
 31
0.0
  0
LINE
  5
3BB5
330
1A
100
AcDbEntity
  8
ZUWAKU
100
AcDbLine
 10
104.3233008563248
 20
15.00000033331673
 30
0.0
 11
104.3233008563249
 21
0.4000003333167684
 31
0.0
  0
LINE
  5
3BB6
330
1A
100
AcDbEntity
  8
ZUWAKU
100
AcDbLine
 10
104.1233008563249
 20
15.00000033331673
 30
0.0
 11
104.1233008563249
 21
0.4000003333167684
 31
0.0
  0
TEXT
  5
3BB7
330
1A
100
AcDbEntity
  8
ZUWAKU
100
AcDbText
 10
104.8620233674296
 20
12.02767860250952
 30
0.0
 40
2.0
  1
品名
 41
0.9
  7
ｽﾀｲﾙ1
100
AcDbText
  0
TEXT
  5
3BB8
330
1A
100
AcDbEntity
  8
ZUWAKU
100
AcDbText
 10
104.8620233674297
 20
4.827678602509536
 30
0.0
 40
2.0
  1
サイズ
 41
0.9
  7
ｽﾀｲﾙ1
100
AcDbText
  0
LINE
  5
3C17
330
1A
100
AcDbEntity
  8
ZUWAKU
100
AcDbLine
 10
324.4086014663929
 20
7.800000333316745
 30
0.0
 11
348.6245054855615
 21
7.800000333316745
 31
0.0
  0
LINE
  5
3C18
330
1A
100
AcDbEntity
  8
ZUWAKU
100
AcDbLine
 10
324.4086014663931
 20
7.700000333316779
 30
0.0
 11
348.6245054855615
 21
7.700000333316779
 31
0.0
  0
LINE
  5
3C19
330
1A
100
AcDbEntity
  8
ZUWAKU
100
AcDbLine
 10
324.4086014663929
 20
7.600000333316756
 30
0.0
 11
348.6245054855615
 21
7.600000333316756
 31
0.0
  0
TEXT
  5
3C1B
330
1A
100
AcDbEntity
  8
MOJI
100
AcDbText
 10
264.0204541974475
 20
1.60246086202045
 30
0.0
 40
2.799999999999999
  1
１/１
 41
0.9
  7
ｽﾀｲﾙ1
100
AcDbText
  0
TEXT
  5
3C1C
330
1A
100
AcDbEntity
  8
MOJI
100
AcDbText
 10
264.0204541974475
 20
9.002460862020427
 30
0.0
 40
2.799999999999999
  1
Ａ３
 41
0.9
  7
ｽﾀｲﾙ1
100
AcDbText
  0
LINE
  5
3C1D
330
1A
100
AcDbEntity
  8
ZUWAKU
100
AcDbLine
 10
252.5995899603614
 20
7.800000333316745
 30
0.0
 11
276.2634780943471
 21
7.800000333316745
 31
0.0
  0
LINE
  5
3C1E
330
1A
100
AcDbEntity
  8
ZUWAKU
100
AcDbLine
 10
252.5995899603614
 20
7.700000333316779
 30
0.0
 11
276.2634780943471
 21
7.700000333316779
 31
0.0
  0
LINE
  5
3C1F
330
1A
100
AcDbEntity
  8
ZUWAKU
100
AcDbLine
 10
252.5995899603614
 20
7.600000333316756
 30
0.0
 11
276.2634780943471
 21
7.600000333316756
 31
0.0
  0
TEXT
  5
3C20
330
1A
100
AcDbEntity
  8
ZUWAKU
100
AcDbText
 10
231.3468810390444
 20
1.30703578888648
 30
0.0
 40
1.5
  1
□には色品番が入ります
 41
0.9
  7
ｽﾀｲﾙ1
100
AcDbText
  0
LINE
  5
3C21
330
1A
100
AcDbEntity
  8
ZUWAKU
100
AcDbLine
 10
252.3995899603613
 20
15.00000033331673
 30
0.0
 11
252.3995899603613
 21
0.4000003333167684
 31
0.0
  0
LINE
  5
3C22
330
1A
100
AcDbEntity
  8
ZUWAKU
100
AcDbLine
 10
252.5995899603614
 20
15.00000033331673
 30
0.0
 11
252.5995899603616
 21
0.4000003333167684
 31
0.0
  0
LINE
  5
3C23
330
1A
100
AcDbEntity
  8
ZUWAKU
100
AcDbLine
 10
252.4995899603613
 20
15.00000033331673
 30
0.0
 11
252.4995899603615
 21
0.4000003333167684
 31
0.0
  0
LINE
  5
3C24
330
1A
100
AcDbEntity
  8
ZUWAKU
100
AcDbLine
 10
223.7121821967865
 20
15.00000033331673
 30
0.0
 11
223.7121821967865
 21
0.4000003333167684
 31
0.0
  0
LINE
  5
3C25
330
1A
100
AcDbEntity
  8
ZUWAKU
100
AcDbLine
 10
223.9121821967866
 20
15.00000033331673
 30
0.0
 11
223.9121821967868
 21
0.4000003333167684
 31
0.0
  0
LINE
  5
3C26
330
1A
100
AcDbEntity
  8
ZUWAKU
100
AcDbLine
 10
223.8121821967864
 20
15.00000033331673
 30
0.0
 11
223.8121821967867
 21
0.4000003333167684
 31
0.0
  0
TEXT
  5
3C27
330
1A
100
AcDbEntity
  8
MOJI
100
AcDbText
 10
231.7841528925713
 20
5.971309194146726
 30
0.0
 40
2.799999999999999
  1
ＧＭ４５□
 41
0.9
  7
ｽﾀｲﾙ1
100
AcDbText
  0
TEXT
  5
3C28
330
1A
100
AcDbEntity
  8
ZUWAKU
100
AcDbText
 10
224.6509047078915
 20
12.02767860250952
 30
0.0
 40
2.0
  1
品番
 41
0.9
  7
ｽﾀｲﾙ1
100
AcDbText
  0
TEXT
  5
3C29
330
1A
100
AcDbEntity
  8
ZUWAKU
100
AcDbText
 10
253.3383124714663
 20
12.02767860250952
 30
0.0
 40
2.0
  1
用紙
 41
0.9
  7
ｽﾀｲﾙ1
100
AcDbText
  0
TEXT
  5
3C2A
330
1A
100
AcDbEntity
  8
ZUWAKU
100
AcDbText
 10
253.3383124714663
 20
4.827678602509536
 30
0.0
 40
2.0
  1
縮尺
 41
0.9
  7
ｽﾀｲﾙ1
100
AcDbText
  0
LINE
  5
3C2B
330
1A
100
AcDbEntity
  8
ZUWAKU
100
AcDbLine
 10
276.2634780943471
 20
15.00000033331673
 30
0.0
 11
276.2634780943471
 21
0.4000003333167684
 31
0.0
  0
LINE
  5
3C2C
330
1A
100
AcDbEntity
  8
ZUWAKU
100
AcDbLine
 10
276.4634780943471
 20
15.00000033331673
 30
0.0
 11
276.4634780943473
 21
0.4000003333167684
 31
0.0
  0
LINE
  5
3C2D
330
1A
100
AcDbEntity
  8
ZUWAKU
100
AcDbLine
 10
276.363478094347
 20
15.00000033331673
 30
0.0
 11
276.3634780943472
 21
0.4000003333167684
 31
0.0
  0
LINE
  5
3C2E
330
1A
100
AcDbEntity
  8
ZUWAKU
100
AcDbLine
 10
324.2086014663931
 20
15.00000033331673
 30
0.0
 11
324.2086014663931
 21
0.4000003333167684
 31
0.0
  0
LINE
  5
3C2F
330
1A
100
AcDbEntity
  8
ZUWAKU
100
AcDbLine
 10
324.4086014663931
 20
15.00000033331673
 30
0.0
 11
324.4086014663934
 21
0.4000003333167684
 31
0.0
  0
LINE
  5
3C30
330
1A
100
AcDbEntity
  8
ZUWAKU
100
AcDbLine
 10
324.308601466393
 20
15.00000033331673
 30
0.0
 11
324.3086014663932
 21
0.4000003333167684
 31
0.0
  0
TEXT
  5
3C31
330
1A
100
AcDbEntity
  8
ZUWAKU
100
AcDbText
 10
325.1473239774981
 20
12.02767860250952
 30
0.0
 40
2.0
  1
DATE
 41
0.9
  7
ｽﾀｲﾙ1
100
AcDbText
  0
LINE
  5
3C51
330
1A
100
AcDbEntity
  8
ZUWAKU
100
AcDbLine
 10
348.9245054855615
 20
15.00000033331673
 30
0.0
 11
348.9245054855617
 21
0.4000003333167684
 31
0.0
  0
LINE
  5
3C52
330
1A
100
AcDbEntity
  8
ZUWAKU
100
AcDbLine
 10
348.8245054855614
 20
15.00000033331673
 30
0.0
 11
348.8245054855616
 21
0.4000003333167684
 31
0.0
  0
LINE
  5
3C53
330
1A
100
AcDbEntity
  8
ZUWAKU
100
AcDbLine
 10
348.7245054855615
 20
15.00000033331673
 30
0.0
 11
348.7245054855615
 21
0.4000003333167684
 31
0.0
  0
LINE
  5
3C54
330
1A
100
AcDbEntity
  8
ZUWAKU
100
AcDbLine
 10
348.6245054855615
 20
15.00000033331673
 30
0.0
 11
348.6245054855615
 21
0.4000003333167684
 31
0.0
  0
TEXT
  5
3C55
330
1A
100
AcDbEntity
  8
ZUWAKU
100
AcDbText
 10
354.2640423074129
 20
3.324420490243767
 30
0.0
 40
3.0
  1
建材事業部
 41
0.9
  7
ｽﾀｲﾙ1
100
AcDbText
  0
TEXT
  5
3C56
330
1A
100
AcDbEntity
  8
ZUWAKU
100
AcDbText
 10
354.2640423074129
 20
8.776920001160135
 30
0.0
 40
3.0
  1
積水化学工業株式会社
 41
0.9
  7
ｽﾀｲﾙ1
100
AcDbText
  0
TEXT
  5
3DF5
330
1A
100
AcDbEntity
  8
MOJI
100
AcDbText
 10
46.67889500537569
 20
6.370589398454114
 30
0.0
 40
3.0
  1
たてとい　ライナートップ
 41
0.9
  7
ｽﾀｲﾙ1
100
AcDbText
  0
TEXT
  5
4084
330
1A
100
AcDbEntity
  8
MOJI
100
AcDbText
 10
119.448847116623
 20
9.765924585317975
 30
0.0
 40
2.799999999999999
  1
はいとい用落し口
 41
0.9
  7
ｽﾀｲﾙ1
100
AcDbText
  0
TEXT
  5
478D
330
1A
100
AcDbEntity
  8
MOJI
100
AcDbText
 10
118.7344009387943
 20
1.841380236387806
 30
0.0
 40
2.799999999999999
  1
Ｓ－Ｒ６０－Ｌ１８０
 41
0.9
  7
ｽﾀｲﾙ1
100
AcDbText
  0
DIMENSION
  5
6278
330
1A
100
AcDbEntity
  8
SUNPOU
100
AcDbDimension
  2
*D31
 10
209.5904341257563
 20
54.86048068984213
 30
0.0
 11
207.0904341257563
 21
144.825530689842
 31
0.0
 70
    32
  3
STANDARD
100
AcDbAlignedDimension
 13
171.6944645631743
 23
234.7905806898419
 33
0.0
 14
176.6942645631745
 24
54.86048068984214
 34
0.0
 50
90.0
100
AcDbRotatedDimension
1001
ACAD
1000
DSTYLE
1002
{
1070
   372
1070
    -1
1070
   371
1070
    -1
1070
    41
1040
3.0
1070
    42
1040
3.0
1070
    43
1040
7.0
1070
    44
1040
1.5
1070
    73
1070
     0
1070
    74
1070
     0
1070
    77
1070
     3
1070
   140
1040
3.0
1070
   141
1040
150.0
1070
   147
1040
1.0
1070
   172
1070
     1
1070
   173
1070
     1
1070
   176
1070
   256
1070
   177
1070
   256
1070
   178
1070
   256
1070
   271
1070
     0
1070
   272
1070
     2
1070
     6
1000
OPEN
1070
     7
1000
OPEN
1002
}
  0
DIMENSION
  5
627D
330
1A
100
AcDbEntity
  8
SUNPOU
100
AcDbDimension
  2
*D32
 10
86.53581808230354
 20
73.86070965906835
 30
0.0
 11
84.03581808230354
 21
154.3256451744551
 31
0.0
 70
    32
  3
STANDARD
100
AcDbAlignedDimension
 13
106.6946645631743
 23
234.7905806898419
 33
0.0
 14
106.6942484607205
 24
73.86070965906833
 34
0.0
 50
90.0
100
AcDbRotatedDimension
1001
ACAD
1000
DSTYLE
1002
{
1070
   372
1070
    -1
1070
   371
1070
    -1
1070
    41
1040
3.0
1070
    42
1040
3.0
1070
    43
1040
7.0
1070
    44
1040
1.5
1070
    73
1070
     0
1070
    74
1070
     0
1070
    77
1070
     3
1070
   140
1040
3.0
1070
   141
1040
150.0
1070
   147
1040
1.0
1070
   172
1070
     1
1070
   173
1070
     1
1070
   176
1070
   256
1070
   177
1070
   256
1070
   178
1070
   256
1070
   271
1070
     0
1070
   272
1070
     2
1070
     6
1000
OPEN
1070
     7
1000
OPEN
1002
}
  0
LINE
  5
627E
330
1A
100
AcDbEntity
  8
SEIHIN
 48
5.0
100
AcDbLine
 10
171.6946645631743
 20
234.7905806898419
 30
0.0
 11
171.6942645631745
 21
103.8605806898421
 31
0.0
  0
LINE
  5
627F
330
1A
100
AcDbEntity
  8
SEIHIN
 48
5.0
100
AcDbLine
 10
106.6948645631745
 20
234.7908806898419
 30
0.0
 11
106.6942645631745
 21
78.06678068968915
 31
0.0
  0
LINE
  5
6280
330
1A
100
AcDbEntity
  8
CENTER_L
 48
5.0
100
AcDbLine
 10
139.1948576200831
 20
241.7905806898418
 30
0.0
 11
139.1942743385792
 21
57.78587546672632
 31
0.0
  0
DIMENSION
  5
6285
330
1A
100
AcDbEntity
  8
SUNPOU
100
AcDbDimension
  2
*D33
 10
106.6942484607205
 20
37.61168315711944
 30
0.0
 11
141.6942565119475
 21
40.11168315711944
 31
0.0
 70
    32
  3
STANDARD
100
AcDbAlignedDimension
 13
176.6942645631745
 23
54.86048068984214
 33
0.0
 14
106.6942484607205
 24
73.86070965906833
 34
0.0
100
AcDbRotatedDimension
1001
ACAD
1000
DSTYLE
1002
{
1070
   372
1070
    -1
1070
   371
1070
    -1
1070
    41
1040
3.0
1070
    42
1040
3.0
1070
    43
1040
7.0
1070
    44
1040
1.5
1070
    73
1070
     0
1070
    74
1070
     0
1070
    77
1070
     3
1070
   140
1040
3.0
1070
   141
1040
150.0
1070
   147
1040
1.0
1070
   172
1070
     1
1070
   173
1070
     1
1070
   176
1070
   256
1070
   177
1070
   256
1070
   178
1070
   256
1070
   271
1070
     0
1070
   272
1070
     2
1070
     6
1000
OPEN
1070
     7
1000
OPEN
1002
}
  0
DIMENSION
  5
6286
330
1A
100
AcDbEntity
  8
SUNPOU
100
AcDbDimension
  2
*D34
 10
197.8485823413283
 20
54.86048068984214
 30
0.0
 11
195.3485823413283
 21
78.36053068984212
 31
0.0
 70
    32
  3
STANDARD
100
AcDbAlignedDimension
 13
176.6943645631745
 23
101.860580689842
 33
0.0
 14
176.6942645631745
 24
54.86048068984214
 34
0.0
 50
90.0
100
AcDbRotatedDimension
1001
ACAD
1000
DSTYLE
1002
{
1070
   372
1070
    -1
1070
   371
1070
    -1
1070
    41
1040
3.0
1070
    42
1040
3.0
1070
    43
1040
7.0
1070
    44
1040
1.5
1070
    73
1070
     0
1070
    74
1070
     0
1070
    77
1070
     3
1070
   140
1040
3.0
1070
   141
1040
150.0
1070
   147
1040
1.0
1070
   172
1070
     1
1070
   173
1070
     1
1070
   176
1070
   256
1070
   177
1070
   256
1070
   178
1070
   256
1070
   271
1070
     0
1070
   272
1070
     2
1070
     6
1000
OPEN
1070
     7
1000
OPEN
1002
}
  0
LINE
  5
6287
330
1A
100
AcDbEntity
  8
SEIHIN
 48
5.0
100
AcDbLine
 10
176.6942645631745
 20
54.86048068984214
 30
0.0
 11
176.6943645631745
 21
101.860580689842
 31
0.0
  0
LINE
  5
6288
330
1A
100
AcDbEntity
  8
SEIHIN
 48
5.0
100
AcDbLine
 10
110.7534330685165
 20
72.7589163817221
 30
0.0
 11
176.6941645631744
 21
54.86048068984214
 31
0.0
  0
ARC
  5
628C
330
1A
100
AcDbEntity
  8
SEIHIN
 48
5.0
100
AcDbCircle
 10
112.1942381494113
 20
78.06681522866357
 30
0.0
 40
5.499973586345211
100
AcDbArc
 50
180.0003598069457
 51
254.8146805322154
  0
LINE
  5
628D
330
1A
100
AcDbEntity
  8
SEIHIN
 48
5.0
100
AcDbLine
 10
176.6943645631745
 20
101.860580689842
 30
0.0
 11
171.6943645631745
 21
103.8605806898421
 31
0.0
  0
LINE
  5
628E
330
1A
100
AcDbEntity
  8
SEIHIN
 48
5.0
100
AcDbLine
 10
171.6943645631745
 20
103.8605806898421
 30
0.0
 11
166.9514645631744
 21
100.9497806898421
 31
0.0
  0
DIMENSION
  5
628F
330
1A
100
AcDbEntity
  8
SUNPOU
100
AcDbDimension
  2
*D35
 10
106.6948645631745
 20
250.1909413631417
 30
0.0
 11
139.1947645631744
 21
252.6909413631418
 31
0.0
 70
    32
  3
STANDARD
100
AcDbAlignedDimension
 13
171.6946645631743
 23
234.7905806898419
 33
0.0
 14
106.6948645631745
 24
234.7908806898419
 34
0.0
100
AcDbRotatedDimension
1001
ACAD
1000
DSTYLE
1002
{
1070
   372
1070
    -1
1070
   371
1070
    -1
1070
    41
1040
3.0
1070
    42
1040
3.0
1070
    43
1040
7.0
1070
    44
1040
1.5
1070
    73
1070
     0
1070
    74
1070
     0
1070
    77
1070
     3
1070
   140
1040
3.0
1070
   141
1040
150.0
1070
   147
1040
1.0
1070
   172
1070
     1
1070
   173
1070
     1
1070
   176
1070
   256
1070
   177
1070
   256
1070
   178
1070
   256
1070
   271
1070
     0
1070
   272
1070
     2
1070
     6
1000
OPEN
1070
     7
1000
OPEN
1002
}
  0
LINE
  5
6290
330
1A
100
AcDbEntity
  8
SEIHIN
 48
5.0
100
AcDbLine
 10
171.6944645631743
 20
234.7905806898419
 30
0.0
 11
106.6946645631743
 21
234.7905806898419
 31
0.0
  0
LINE
  5
6291
330
1A
100
AcDbEntity
  8
SEIHIN
 48
5.0
100
AcDbLine
 10
311.6952645631745
 20
234.7902806898421
 30
0.0
 11
311.6945645631743
 21
74.86028068984213
 31
0.0
  0
LINE
  5
6292
330
1A
100
AcDbEntity
  8
SEIHIN
 48
5.0
100
AcDbLine
 10
271.6951645631744
 20
234.7903806898421
 30
0.0
 11
271.6945645631745
 21
74.86048068984214
 31
0.0
  0
LINE
  5
6293
330
1A
100
AcDbEntity
  8
CENTER_L
 48
5.0
100
AcDbLine
 10
291.6949558510578
 20
241.790380689842
 30
0.0
 11
291.6941844412955
 21
47.86028069251791
 31
0.0
  0
DIMENSION
  5
6297
330
1A
100
AcDbEntity
  8
SUNPOU
100
AcDbDimension
  2
*D36
 10
291.6945645630493
 20
74.86028068996707
 30
0.0
 11
267.0429148441543
 21
56.31011448735325
 31
0.0
 70
    36
  3
STANDARD
100
AcDbRadialDimension
 15
276.7407199066433
 25
61.57937221211501
 35
0.0
 40
0.0
1001
ACAD
1000
DSTYLE
1002
{
1070
   140
1040
3.0
1070
    74
1070
     0
1070
   172
1070
     1
1070
    73
1070
     0
1070
   272
1070
     2
1070
    77
1070
     3
1070
   173
1070
     1
1070
   147
1040
1.0
1070
    42
1040
3.0
1070
    44
1040
1.5
1070
    43
1040
7.0
1070
   271
1070
     0
1070
   178
1070
   256
1070
   177
1070
     4
1070
   176
1070
   256
1070
   141
1040
150.0
1070
     7
1000
_OPEN
1070
     6
1000
_OPEN
1070
    41
1040
3.0
1002
}
  0
ARC
  5
6298
330
1A
100
AcDbEntity
  8
SEIHIN
 48
5.0
100
AcDbCircle
 10
291.6945645633132
 20
74.86038068998105
 30
0.0
 40
18.00000000013901
100
AcDbArc
 50
269.999999999557
 51
359.9996816896716
  0
ARC
  5
6299
330
1A
100
AcDbEntity
  8
SEIHIN
 48
5.0
100
AcDbCircle
 10
291.6945645632992
 20
74.86038068996707
 30
0.0
 40
20.00000000012502
100
AcDbArc
 50
269.9999999996417
 51
359.9997135207444
  0
ARC
  5
629A
330
1A
100
AcDbEntity
  8
SEIHIN
 48
5.0
100
AcDbCircle
 10
291.6945645630356
 20
74.86028068998088
 30
0.0
 40
18.00000000013884
100
AcDbArc
 50
179.9996816905554
 51
270.0000000004429
  0
ARC
  5
629B
330
1A
100
AcDbEntity
  8
SEIHIN
 48
5.0
100
AcDbCircle
 10
291.6945645630494
 20
74.86028068996704
 30
0.0
 40
20.00000000012491
100
AcDbArc
 50
179.9997135214602
 51
270.0000000003583
  0
ARC
  5
629F
330
1A
100
AcDbEntity
  8
SEIHIN
 48
5.0
100
AcDbCircle
 10
277.1946645631743
 20
98.36038068984203
 30
0.0
 40
5.500000000000014
100
AcDbArc
 50
90.0
 51
179.9999999999989
  0
ARC
  5
62A0
330
1A
100
AcDbEntity
  8
SEIHIN
 48
5.0
100
AcDbCircle
 10
277.1946645631744
 20
96.36038068984207
 30
0.0
 40
5.500000000000056
100
AcDbArc
 50
90.0
 51
179.9999999999993
  0
ARC
  5
62A1
330
1A
100
AcDbEntity
  8
SEIHIN
 48
5.0
100
AcDbCircle
 10
306.1947645627197
 20
98.36028069029657
 30
0.0
 40
5.500000000454672
100
AcDbArc
 50
359.9999999952651
 51
89.998958253819
  0
LINE
  5
62A2
330
1A
100
AcDbEntity
  8
SEIHIN
 48
5.0
100
AcDbLine
 10
291.6947645631745
 20
99.86028068984213
 30
0.0
 11
305.6947645631745
 21
99.86028068984213
 31
0.0
  0
LINE
  5
62A3
330
1A
100
AcDbEntity
  8
SEIHIN
 48
5.0
100
AcDbLine
 10
291.6947645631745
 20
101.8602806898421
 30
0.0
 11
306.1947645631745
 21
101.8602806898421
 31
0.0
  0
LINE
  5
62A4
330
1A
100
AcDbEntity
  8
SEIHIN
 48
5.0
100
AcDbLine
 10
291.6947645631745
 20
103.8602806898421
 30
0.0
 11
306.1947645631745
 21
103.8602806898421
 31
0.0
  0
ARC
  5
62A5
330
1A
100
AcDbEntity
  8
SEIHIN
 48
5.0
100
AcDbCircle
 10
291.6948645631742
 20
93.86028068984204
 30
0.0
 40
18.0
100
AcDbArc
 50
180.0
 51
0.0
  0
LINE
  5
62A6
330
1A
100
AcDbEntity
  8
SEIHIN
 48
5.0
100
AcDbLine
 10
273.6945645631745
 20
74.86038068984213
 30
0.0
 11
273.6946645631745
 21
96.36038068984213
 31
0.0
  0
LINE
  5
62A7
330
1A
100
AcDbEntity
  8
SEIHIN
 48
5.0
100
AcDbLine
 10
291.6945645631743
 20
99.86028068984213
 30
0.0
 11
277.6946645631745
 21
99.86038068984214
 31
0.0
  0
LINE
  5
62A8
330
1A
100
AcDbEntity
  8
SEIHIN
 48
5.0
100
AcDbLine
 10
291.6945645631743
 20
103.8602806898421
 30
0.0
 11
277.1946645631745
 21
103.860380689842
 31
0.0
  0
LINE
  5
62A9
330
1A
100
AcDbEntity
  8
SEIHIN
 48
5.0
100
AcDbLine
 10
291.6945645631743
 20
101.8602806898421
 30
0.0
 11
277.1946645631745
 21
101.8603806898421
 31
0.0
  0
ARC
  5
62AA
330
1A
100
AcDbEntity
  8
SEIHIN
 48
5.0
100
AcDbCircle
 10
277.6945645631745
 20
95.86038068984214
 30
0.0
 40
4.0
100
AcDbArc
 50
90.0
 51
180.0
  0
LINE
  5
62AB
330
1A
100
AcDbEntity
  8
SEIHIN
 48
5.0
100
AcDbLine
 10
309.6946645631743
 20
74.86028068984213
 30
0.0
 11
309.6947645631745
 21
96.36028068984204
 31
0.0
  0
ARC
  5
62AC
330
1A
100
AcDbEntity
  8
SEIHIN
 48
5.0
100
AcDbCircle
 10
306.1947645627197
 20
96.36028069029656
 30
0.0
 40
5.500000000454672
100
AcDbArc
 50
359.9999999952651
 51
89.998958253819
  0
ARC
  5
62AD
330
1A
100
AcDbEntity
  8
SEIHIN
 48
5.0
100
AcDbCircle
 10
305.6947645631745
 20
95.86028068984209
 30
0.0
 40
4.000000000000042
100
AcDbArc
 50
359.9999999999993
 51
90.0
  0
DIMENSION
  5
62B3
330
1A
100
AcDbEntity
  8
SUNPOU
100
AcDbDimension
  2
*D37
 10
271.6951645631744
 20
250.1909413631417
 30
0.0
 11
291.6952145631745
 21
252.6909413631418
 31
0.0
 70
    32
  3
STANDARD
100
AcDbAlignedDimension
 13
311.6952645631745
 23
234.7902806898421
 33
0.0
 14
271.6951645631744
 24
234.7903806898421
 34
0.0
100
AcDbRotatedDimension
1001
ACAD
1000
DSTYLE
1002
{
1070
   372
1070
    -1
1070
   371
1070
    -1
1070
    41
1040
3.0
1070
    42
1040
3.0
1070
    43
1040
7.0
1070
    44
1040
1.5
1070
    73
1070
     0
1070
    74
1070
     0
1070
    77
1070
     3
1070
   140
1040
3.0
1070
   141
1040
150.0
1070
   147
1040
1.0
1070
   172
1070
     1
1070
   173
1070
     1
1070
   176
1070
   256
1070
   177
1070
   256
1070
   178
1070
   256
1070
   271
1070
     0
1070
   272
1070
     2
1070
     6
1000
OPEN
1070
     7
1000
OPEN
1002
}
  0
LINE
  5
62B4
330
1A
100
AcDbEntity
  8
SEIHIN
 48
5.0
100
AcDbLine
 10
291.6947645631745
 20
234.7902806898421
 30
0.0
 11
311.6949645631744
 21
234.7902806898421
 31
0.0
  0
LINE
  5
62B5
330
1A
100
AcDbEntity
  8
SEIHIN
 48
5.0
100
AcDbLine
 10
291.6949645631745
 20
234.7903806898421
 30
0.0
 11
271.6947645631743
 21
234.7903806898421
 31
0.0
  0
VIEWPORT
  5
22
330
17
100
AcDbEntity
 67
     1
  8
0
100
AcDbViewport
 10
313.6808219178082
 20
148.5
 30
0.0
 40
627.3616438356165
 41
297.0
 68
     2
 69
     1
1001
ACAD
1000
MVIEW
1002
{
1070
    16
1010
0.0
1020
0.0
1030
0.0
1010
0.0
1020
0.0
1030
1.0
1040
0.0
1040
297.0
1040
313.6808219178082
1040
148.5
1040
50.0
1040
0.0
1040
0.0
1070
     0
1070
   100
1070
     1
1070
     0
1070
     0
1070
     0
1070
     0
1070
     0
1040
0.0
1040
0.0
1040
0.0
1040
1.0
1040
1.0
1040
10.0
1040
10.0
1070
     0
1002
{
1002
}
1002
}
  0
VIEWPORT
  5
64
330
17
100
AcDbEntity
 67
     1
  8
VIEWPORT
100
AcDbViewport
 10
210.0
 20
148.5
 30
0.0
 40
420.0
 41
297.0
 68
     1
 69
     2
1001
ACAD
1000
MVIEW
1002
{
1070
    16
1010
0.0
1020
0.0
1030
0.0
1010
0.0
1020
0.0
1030
1.0
1040
0.0
1040
302.9399999999998
1040
210.0
1040
148.5
1040
50.0
1040
0.0
1040
0.0
1070
     0
1070
   100
1070
     1
1070
     0
1070
     0
1070
     0
1070
     0
1070
     0
1040
0.0
1040
0.0
1040
0.0
1040
5.0
1040
5.0
1040
0.0
1040
0.0
1070
     0
1002
{
1002
}
1002
}
  0
ENDSEC
  0
SECTION
  2
OBJECTS
  0
DICTIONARY
  5
C
330
0
100
AcDbDictionary
  3
ACAD_GROUP
350
D
  3
ACAD_LAYOUT
350
3BC
  3
ACAD_MLINESTYLE
350
E
  3
ACAD_PLOTSETTINGS
350
3BD
1001
ACAD
1000
TREAT_AS_HARD
1070
     0
  0
DICTIONARY
  5
3EB
330
1A
100
AcDbDictionary
  3
ACAD_LAYOUTSELFREF
350
6408
1001
ACAD
1000
TREAT_AS_HARD
1070
     1
  0
DICTIONARY
  5
3E9
330
17
100
AcDbDictionary
  3
ACAD_LAYOUTSELFREF
350
6407
1001
ACAD
1000
TREAT_AS_HARD
1070
     1
  0
DICTIONARY
  5
D
102
{ACAD_REACTORS
330
C
102
}
330
C
100
AcDbDictionary
1001
ACAD
1000
TREAT_AS_HARD
1070
     0
  0
DICTIONARY
  5
3BC
102
{ACAD_REACTORS
330
C
102
}
330
C
100
AcDbDictionary
1001
ACAD
1000
TREAT_AS_HARD
1070
     0
  0
DICTIONARY
  5
E
102
{ACAD_REACTORS
330
C
102
}
330
C
100
AcDbDictionary
  3
STANDARD
350
13
1001
ACAD
1000
TREAT_AS_HARD
1070
     0
  0
DICTIONARY
  5
3BD
102
{ACAD_REACTORS
330
C
102
}
330
C
100
AcDbDictionary
1001
ACAD
1000
TREAT_AS_HARD
1070
     0
  0
XRECORD
  5
6408
102
{ACAD_REACTORS
330
3EB
102
}
330
3EB
100
AcDbXrecord
340
1A
  0
XRECORD
  5
6407
102
{ACAD_REACTORS
330
3E9
102
}
330
3E9
100
AcDbXrecord
340
17
  0
MLINESTYLE
  5
13
102
{ACAD_REACTORS
330
E
102
}
330
E
100
AcDbMlineStyle
  2
STANDARD
 70
     0
  3

 62
     0
 51
90.0
 52
90.0
 71
     2
 49
0.5
 62
   256
  6
BYLAYER
 49
-0.5
 62
   256
  6
BYLAYER
  0
ENDSEC
  0
EOF
