  0
SECTION
  2
HEADER
  9
$ACADVER
  1
AC1015
  9
$ACADMAINTVER
 70
     6
  9
$DWGCODEPAGE
  3
ANSI_932
  9
$INSBASE
 10
0.0
 20
0.0
 30
0.0
  9
$EXTMIN
 10
0.0000000135560185
 20
-0.0000001317113174
 30
0.0
  9
$EXTMAX
 10
797.6000000135562
 20
551.5999998682888
 30
0.0
  9
$LIMMIN
 10
0.0
 20
0.0
  9
$LIMMAX
 10
840.0
 20
594.0
  9
$ORTHOMODE
 70
     0
  9
$REGENMODE
 70
     1
  9
$FILLMODE
 70
     1
  9
$QTEXTMODE
 70
     0
  9
$MIRRTEXT
 70
     1
  9
$LTSCALE
 40
2.0
  9
$ATTMODE
 70
     1
  9
$TEXTSIZE
 40
5.0
  9
$TRACEWID
 40
1.0
  9
$TEXTSTYLE
  7
STANDARD
  9
$CLAYER
  8
ZUWAKU
  9
$CELTYPE
  6
BYLAYER
  9
$CECOLOR
 62
   256
  9
$CELTSCALE
 40
1.0
  9
$DISPSILH
 70
     0
  9
$DIMSCALE
 40
1.0
  9
$DIMASZ
 40
7.0
  9
$DIMEXO
 40
6.0
  9
$DIMDLI
 40
14.0
  9
$DIMRND
 40
0.0
  9
$DIMDLE
 40
0.0
  9
$DIMEXE
 40
3.0
  9
$DIMTP
 40
0.0
  9
$DIMTM
 40
0.0
  9
$DIMTXT
 40
6.0
  9
$DIMCEN
 40
150.0
  9
$DIMTSZ
 40
0.0
  9
$DIMTOL
 70
     0
  9
$DIMLIM
 70
     0
  9
$DIMTIH
 70
     0
  9
$DIMTOH
 70
     0
  9
$DIMSE1
 70
     0
  9
$DIMSE2
 70
     0
  9
$DIMTAD
 70
     3
  9
$DIMZIN
 70
     0
  9
$DIMBLK
  1

  9
$DIMASO
 70
     1
  9
$DIMSHO
 70
     1
  9
$DIMPOST
  1

  9
$DIMAPOST
  1

  9
$DIMALT
 70
     0
  9
$DIMALTD
 70
     2
  9
$DIMALTF
 40
25.4
  9
$DIMLFAC
 40
1.0
  9
$DIMTOFL
 70
     1
  9
$DIMTVP
 40
0.0
  9
$DIMTIX
 70
     0
  9
$DIMSOXD
 70
     0
  9
$DIMSAH
 70
     1
  9
$DIMBLK1
  1
OPEN
  9
$DIMBLK2
  1
OPEN
  9
$DIMSTYLE
  2
STANDARD
  9
$DIMCLRD
 70
   256
  9
$DIMCLRE
 70
   256
  9
$DIMCLRT
 70
   256
  9
$DIMTFAC
 40
1.0
  9
$DIMGAP
 40
2.0
  9
$DIMJUST
 70
     0
  9
$DIMSD1
 70
     0
  9
$DIMSD2
 70
     0
  9
$DIMTOLJ
 70
     1
  9
$DIMTZIN
 70
     0
  9
$DIMALTZ
 70
     0
  9
$DIMALTTZ
 70
     0
  9
$DIMUPT
 70
     0
  9
$DIMDEC
 70
     0
  9
$DIMTDEC
 70
     0
  9
$DIMALTU
 70
     2
  9
$DIMALTTD
 70
     2
  9
$DIMTXSTY
  7
STANDARD
  9
$DIMAUNIT
 70
     0
  9
$DIMADEC
 70
     0
  9
$DIMALTRND
 40
0.0
  9
$DIMAZIN
 70
     0
  9
$DIMDSEP
 70
    46
  9
$DIMATFIT
 70
     3
  9
$DIMFRAC
 70
     0
  9
$DIMLDRBLK
  1
OPEN
  9
$DIMLUNIT
 70
     2
  9
$DIMLWD
 70
    -1
  9
$DIMLWE
 70
    -1
  9
$DIMTMOVE
 70
     0
  9
$LUNITS
 70
     2
  9
$LUPREC
 70
     4
  9
$SKETCHINC
 40
1.0
  9
$FILLETRAD
 40
2.0
  9
$AUNITS
 70
     0
  9
$AUPREC
 70
     0
  9
$MENU
  1
.
  9
$ELEVATION
 40
0.0
  9
$PELEVATION
 40
0.0
  9
$THICKNESS
 40
0.0
  9
$LIMCHECK
 70
     0
  9
$CHAMFERA
 40
20.0
  9
$CHAMFERB
 40
20.0
  9
$CHAMFERC
 40
40.0
  9
$CHAMFERD
 40
0.0
  9
$SKPOLY
 70
     0
  9
$TDCREATE
 40
2451212.496837384
  9
$TDUCREATE
 40
2451212.121837384
  9
$TDUPDATE
 40
2455609.397434213
  9
$TDUUPDATE
 40
2455609.022434213
  9
$TDINDWG
 40
0.1045715046
  9
$TDUSRTIMER
 40
0.1045715046
  9
$USRTIMER
 70
     1
  9
$ANGBASE
 50
0.0
  9
$ANGDIR
 70
     0
  9
$PDMODE
 70
     0
  9
$PDSIZE
 40
0.0
  9
$PLINEWID
 40
0.0
  9
$SPLFRAME
 70
     0
  9
$SPLINETYPE
 70
     6
  9
$SPLINESEGS
 70
     8
  9
$HANDSEED
  5
1A42
  9
$SURFTAB1
 70
     6
  9
$SURFTAB2
 70
     6
  9
$SURFTYPE
 70
     6
  9
$SURFU
 70
     6
  9
$SURFV
 70
     6
  9
$UCSBASE
  2

  9
$UCSNAME
  2

  9
$UCSORG
 10
0.0
 20
0.0
 30
0.0
  9
$UCSXDIR
 10
1.0
 20
0.0
 30
0.0
  9
$UCSYDIR
 10
0.0
 20
1.0
 30
0.0
  9
$UCSORTHOREF
  2

  9
$UCSORTHOVIEW
 70
     0
  9
$UCSORGTOP
 10
0.0
 20
0.0
 30
0.0
  9
$UCSORGBOTTOM
 10
0.0
 20
0.0
 30
0.0
  9
$UCSORGLEFT
 10
0.0
 20
0.0
 30
0.0
  9
$UCSORGRIGHT
 10
0.0
 20
0.0
 30
0.0
  9
$UCSORGFRONT
 10
0.0
 20
0.0
 30
0.0
  9
$UCSORGBACK
 10
0.0
 20
0.0
 30
0.0
  9
$PUCSBASE
  2

  9
$PUCSNAME
  2

  9
$PUCSORG
 10
0.0
 20
0.0
 30
0.0
  9
$PUCSXDIR
 10
1.0
 20
0.0
 30
0.0
  9
$PUCSYDIR
 10
0.0
 20
1.0
 30
0.0
  9
$PUCSORTHOREF
  2

  9
$PUCSORTHOVIEW
 70
     0
  9
$PUCSORGTOP
 10
0.0
 20
0.0
 30
0.0
  9
$PUCSORGBOTTOM
 10
0.0
 20
0.0
 30
0.0
  9
$PUCSORGLEFT
 10
0.0
 20
0.0
 30
0.0
  9
$PUCSORGRIGHT
 10
0.0
 20
0.0
 30
0.0
  9
$PUCSORGFRONT
 10
0.0
 20
0.0
 30
0.0
  9
$PUCSORGBACK
 10
0.0
 20
0.0
 30
0.0
  9
$USERI1
 70
     0
  9
$USERI2
 70
     0
  9
$USERI3
 70
     0
  9
$USERI4
 70
     0
  9
$USERI5
 70
     0
  9
$USERR1
 40
0.0
  9
$USERR2
 40
0.0
  9
$USERR3
 40
0.0
  9
$USERR4
 40
0.0
  9
$USERR5
 40
0.0
  9
$WORLDVIEW
 70
     1
  9
$SHADEDGE
 70
     3
  9
$SHADEDIF
 70
    70
  9
$TILEMODE
 70
     1
  9
$MAXACTVP
 70
    16
  9
$PINSBASE
 10
0.0
 20
0.0
 30
0.0
  9
$PLIMCHECK
 70
     0
  9
$PEXTMIN
 10
0.0
 20
0.0
 30
0.0
  9
$PEXTMAX
 10
420.0
 20
297.0
 30
0.0
  9
$PLIMMIN
 10
0.0
 20
0.0
  9
$PLIMMAX
 10
420.0
 20
297.0
  9
$UNITMODE
 70
     0
  9
$VISRETAIN
 70
     0
  9
$PLINEGEN
 70
     0
  9
$PSLTSCALE
 70
     1
  9
$TREEDEPTH
 70
  3020
  9
$CMLSTYLE
  2
STANDARD
  9
$CMLJUST
 70
     0
  9
$CMLSCALE
 40
1.0
  9
$PROXYGRAPHICS
 70
     1
  9
$MEASUREMENT
 70
     1
  9
$CELWEIGHT
370
    -1
  9
$ENDCAPS
280
     0
  9
$JOINSTYLE
280
     0
  9
$LWDISPLAY
290
     0
  9
$INSUNITS
 70
     0
  9
$HYPERLINKBASE
  1

  9
$STYLESHEET
  1
systemprinter.ctb
  9
$XEDIT
290
     1
  9
$CEPSNTYPE
380
     0
  9
$PSTYLEMODE
290
     1
  9
$FINGERPRINTGUID
  2
{6B84EFAC-A936-11D5-932D-0050DA99388B}
  9
$VERSIONGUID
  2
{43A71DF8-2392-40F3-BA7F-659BBC8BA4AB}
  9
$EXTNAMES
290
     1
  9
$PSVPSCALE
 40
0.0
  9
$OLESTARTUP
290
     0
  0
ENDSEC
  0
SECTION
  2
CLASSES
  0
CLASS
  1
ACDBDICTIONARYWDFLT
  2
AcDbDictionaryWithDefault
  3
ObjectDBX Classes
 90
        0
280
     0
281
     0
  0
CLASS
  1
ACDBPLACEHOLDER
  2
AcDbPlaceHolder
  3
ObjectDBX Classes
 90
        0
280
     0
281
     0
  0
CLASS
  1
LAYOUT
  2
AcDbLayout
  3
ObjectDBX Classes
 90
        0
280
     0
281
     0
  0
CLASS
  1
DUMMY
  2
AcDbLongTransaction
  3
DUMMY
 90
        0
280
     0
281
     0
  0
CLASS
  1
LWPOLYLINE
  2
AcDbPolyline
  3
AutoCAD 2000
 90
        0
280
     0
281
     1
  0
CLASS
  1
HATCH
  2
AcDbHatch
  3
AutoCAD 2000
 90
        0
280
     0
281
     1
  0
CLASS
  1
XRECORD
  2
AcDbXrecord
  3
AutoCAD 2000
 90
        0
280
     0
281
     0
  0
CLASS
  1
DUMMY
  2
AcDbLongTransaction
  3
DUMMY
 90
        0
280
     0
281
     0
  0
CLASS
  1
LWPOLYLINE
  2
AcDbPolyline
  3
AutoCAD 2000
 90
        0
280
     0
281
     1
  0
CLASS
  1
HATCH
  2
AcDbHatch
  3
AutoCAD 2000
 90
        0
280
     0
281
     1
  0
CLASS
  1
XRECORD
  2
AcDbXrecord
  3
AutoCAD 2000
 90
        0
280
     0
281
     0
  0
CLASS
  1
DUMMY
  2
AcDbLongTransaction
  3
DUMMY
 90
        0
280
     0
281
     0
  0
CLASS
  1
LWPOLYLINE
  2
AcDbPolyline
  3
AutoCAD 2000
 90
        0
280
     0
281
     1
  0
CLASS
  1
HATCH
  2
AcDbHatch
  3
AutoCAD 2000
 90
        0
280
     0
281
     1
  0
CLASS
  1
XRECORD
  2
AcDbXrecord
  3
AutoCAD 2000
 90
        0
280
     0
281
     0
  0
CLASS
  1
DUMMY
  2
AcDbLongTransaction
  3
DUMMY
 90
        0
280
     0
281
     0
  0
CLASS
  1
LWPOLYLINE
  2
AcDbPolyline
  3
AutoCAD 2000
 90
        0
280
     0
281
     1
  0
CLASS
  1
HATCH
  2
AcDbHatch
  3
AutoCAD 2000
 90
        0
280
     0
281
     1
  0
CLASS
  1
XRECORD
  2
AcDbXrecord
  3
AutoCAD 2000
 90
        0
280
     0
281
     0
  0
ENDSEC
  0
SECTION
  2
TABLES
  0
TABLE
  2
VPORT
  5
8
330
0
100
AcDbSymbolTable
 70
     2
  0
VPORT
  5
1A41
330
8
100
AcDbSymbolTableRecord
100
AcDbViewportTableRecord
  2
*Active
 70
     0
 10
0.0
 20
0.0
 11
1.0
 21
1.0
 12
416.6437991857214
 22
300.8759545265202
 13
0.0
 23
0.0
 14
5.0
 24
5.0
 15
0.0
 25
0.0
 16
0.0
 26
0.0
 36
1.0
 17
0.0
 27
0.0
 37
0.0
 40
637.347781985682
 41
1.651537335285505
 42
50.0
 43
0.0
 44
0.0
 50
0.0
 51
0.0
 71
     0
 72
   100
 73
     1
 74
     0
 75
     0
 76
     0
 77
     0
 78
     0
281
     0
 65
     1
110
0.0
120
0.0
130
0.0
111
1.0
121
0.0
131
0.0
112
0.0
122
1.0
132
0.0
 79
     0
146
0.0
  0
ENDTAB
  0
TABLE
  2
LTYPE
  5
5
330
0
100
AcDbSymbolTable
 70
     3
  0
LTYPE
  5
14
330
5
100
AcDbSymbolTableRecord
100
AcDbLinetypeTableRecord
  2
BYBLOCK
 70
     0
  3

 72
    65
 73
     0
 40
0.0
  0
LTYPE
  5
15
330
5
100
AcDbSymbolTableRecord
100
AcDbLinetypeTableRecord
  2
BYLAYER
 70
     0
  3

 72
    65
 73
     0
 40
0.0
  0
LTYPE
  5
16
330
5
100
AcDbSymbolTableRecord
100
AcDbLinetypeTableRecord
  2
CONTINUOUS
 70
     0
  3
Solid line
 72
    65
 73
     0
 40
0.0
  0
LTYPE
  5
135
330
5
100
AcDbSymbolTableRecord
100
AcDbLinetypeTableRecord
  2
CENTER
 70
     0
  3
____ _ ____ _ ____ _ ____ _ ____ _ ____ _ ____ 
 72
    65
 73
     4
 40
2.0
 49
1.25
 74
     0
 49
-0.25
 74
     0
 49
0.25
 74
     0
 49
-0.25
 74
     0
  0
LTYPE
  5
94A
330
5
100
AcDbSymbolTableRecord
100
AcDbLinetypeTableRecord
  2
PHANTOM
 70
     0
  3
______  __  __  ______  __  __  ______  __  __ 
 72
    65
 73
     6
 40
2.5
 49
1.25
 74
     0
 49
-0.25
 74
     0
 49
0.25
 74
     0
 49
-0.25
 74
     0
 49
0.25
 74
     0
 49
-0.25
 74
     0
  0
ENDTAB
  0
TABLE
  2
LAYER
  5
2
330
0
100
AcDbSymbolTable
 70
     9
  0
LAYER
  5
F
330
2
100
AcDbSymbolTableRecord
100
AcDbLayerTableRecord
  2
0
 70
     0
 62
     7
  6
CONTINUOUS
370
    -3
390
4BB
  0
LAYER
  5
62
330
2
100
AcDbSymbolTableRecord
100
AcDbLayerTableRecord
  2
VIEWPORT
 70
     0
 62
     7
  6
CONTINUOUS
370
    -3
390
4BB
  0
LAYER
  5
65
330
2
100
AcDbSymbolTableRecord
100
AcDbLayerTableRecord
  2
ZUWAKU
 70
     0
 62
     7
  6
CONTINUOUS
370
    -3
390
4BB
  0
LAYER
  5
28E
330
2
100
AcDbSymbolTableRecord
100
AcDbLayerTableRecord
  2
SEIHIN
 70
     0
 62
     3
  6
CONTINUOUS
370
    -3
390
4BB
  0
LAYER
  5
28F
330
2
100
AcDbSymbolTableRecord
100
AcDbLayerTableRecord
  2
SUNPOU
 70
     0
 62
     4
  6
CONTINUOUS
370
    -3
390
4BB
  0
LAYER
  5
290
330
2
100
AcDbSymbolTableRecord
100
AcDbLayerTableRecord
  2
CENTER L
 70
     0
 62
     1
  6
CENTER
370
    -3
390
4BB
  0
LAYER
  5
3EF
330
2
100
AcDbSymbolTableRecord
100
AcDbLayerTableRecord
  2
DEFPOINTS
 70
     0
 62
     7
  6
CONTINUOUS
290
     0
370
    -3
390
4BB
  0
LAYER
  5
702
330
2
100
AcDbSymbolTableRecord
100
AcDbLayerTableRecord
  2
moji
 70
     0
 62
     2
  6
CONTINUOUS
370
    -3
390
4BB
  0
LAYER
  5
94B
330
2
100
AcDbSymbolTableRecord
100
AcDbLayerTableRecord
  2
NOKITOI
 70
     0
 62
     9
  6
PHANTOM
370
    -3
390
4BB
  0
ENDTAB
  0
TABLE
  2
STYLE
  5
3
330
0
100
AcDbSymbolTable
 70
     2
  0
STYLE
  5
10
330
3
100
AcDbSymbolTableRecord
100
AcDbTextStyleTableRecord
  2
STANDARD
 70
     0
 40
0.0
 41
1.0
 50
0.0
 71
     0
 42
5.0
  3
TXT
  4
bigfont.shx
  0
STYLE
  5
703
330
3
100
AcDbSymbolTableRecord
100
AcDbTextStyleTableRecord
  2
ｽﾀｲﾙ1
 70
     0
 40
0.0
 41
1.0
 50
0.0
 71
     0
 42
2.5
  3
MS PGothic.ttf
  4

1001
ACAD
1000
MS PGothic
1071
    32818
  0
ENDTAB
  0
TABLE
  2
VIEW
  5
6
330
0
100
AcDbSymbolTable
 70
     0
  0
ENDTAB
  0
TABLE
  2
UCS
  5
7
330
0
100
AcDbSymbolTable
 70
     0
  0
ENDTAB
  0
TABLE
  2
APPID
  5
9
330
0
100
AcDbSymbolTable
 70
     1
  0
APPID
  5
11
330
9
100
AcDbSymbolTableRecord
100
AcDbRegAppTableRecord
  2
ACAD
 70
     0
  0
ENDTAB
  0
TABLE
  2
DIMSTYLE
  5
A
330
0
100
AcDbSymbolTable
 70
     1
100
AcDbDimStyleTable
  0
DIMSTYLE
105
1D
102
{ACAD_REACTORS
330
17D6
330
17DC
330
17E5
330
182D
330
1853
330
1854
330
1869
330
1874
330
1877
330
187E
330
18A9
330
18F9
330
18FA
330
1901
102
}
330
A
100
AcDbSymbolTableRecord
100
AcDbDimStyleTableRecord
  2
STANDARD
 70
     0
340
10
  0
ENDTAB
  0
TABLE
  2
BLOCK_RECORD
  5
1
330
0
100
AcDbSymbolTable
 70
    15
  0
BLOCK_RECORD
  5
1A
330
1
100
AcDbSymbolTableRecord
100
AcDbBlockTableRecord
  2
*MODEL_SPACE
340
4BE
  0
BLOCK_RECORD
  5
17
330
1
100
AcDbSymbolTableRecord
100
AcDbBlockTableRecord
  2
*PAPER_SPACE
340
4BF
  0
BLOCK_RECORD
  5
6D
330
1
100
AcDbSymbolTableRecord
100
AcDbBlockTableRecord
  2
_OPEN
340
0
102
{BLKREFS
331
19C0
331
19C1
331
19C9
331
19CA
331
19D2
331
19D3
331
19DB
331
19DC
331
19E2
331
19E3
331
19ED
331
19EE
331
19F6
331
19F7
331
19FF
331
1A00
331
1A08
331
1A09
331
1A11
331
1A12
331
1A1A
331
1A1B
331
1A21
331
1A22
331
1A2C
331
1A2D
331
1A35
331
1A36
102
}
  0
BLOCK_RECORD
  5
1915
330
1
100
AcDbSymbolTableRecord
100
AcDbBlockTableRecord
  2
*D1
340
0
  0
BLOCK_RECORD
  5
1921
330
1
100
AcDbSymbolTableRecord
100
AcDbBlockTableRecord
  2
*D2
340
0
  0
BLOCK_RECORD
  5
192D
330
1
100
AcDbSymbolTableRecord
100
AcDbBlockTableRecord
  2
*D3
340
0
  0
BLOCK_RECORD
  5
1939
330
1
100
AcDbSymbolTableRecord
100
AcDbBlockTableRecord
  2
*D4
340
0
  0
BLOCK_RECORD
  5
1945
330
1
100
AcDbSymbolTableRecord
100
AcDbBlockTableRecord
  2
*D5
340
0
  0
BLOCK_RECORD
  5
1951
330
1
100
AcDbSymbolTableRecord
100
AcDbBlockTableRecord
  2
*D6
340
0
  0
BLOCK_RECORD
  5
195D
330
1
100
AcDbSymbolTableRecord
100
AcDbBlockTableRecord
  2
*D7
340
0
  0
BLOCK_RECORD
  5
1969
330
1
100
AcDbSymbolTableRecord
100
AcDbBlockTableRecord
  2
*D8
340
0
  0
BLOCK_RECORD
  5
1975
330
1
100
AcDbSymbolTableRecord
100
AcDbBlockTableRecord
  2
*D9
340
0
  0
BLOCK_RECORD
  5
1981
330
1
100
AcDbSymbolTableRecord
100
AcDbBlockTableRecord
  2
*D10
340
0
  0
BLOCK_RECORD
  5
198D
330
1
100
AcDbSymbolTableRecord
100
AcDbBlockTableRecord
  2
*D11
340
0
  0
BLOCK_RECORD
  5
1999
330
1
100
AcDbSymbolTableRecord
100
AcDbBlockTableRecord
  2
*D12
340
0
  0
BLOCK_RECORD
  5
19A5
330
1
100
AcDbSymbolTableRecord
100
AcDbBlockTableRecord
  2
*D13
340
0
  0
BLOCK_RECORD
  5
19B1
330
1
100
AcDbSymbolTableRecord
100
AcDbBlockTableRecord
  2
*D14
340
0
  0
ENDTAB
  0
ENDSEC
  0
SECTION
  2
BLOCKS
  0
BLOCK
  5
1B
330
1A
100
AcDbEntity
  8
0
100
AcDbBlockBegin
  2
*MODEL_SPACE
 70
     0
 71
     0
 10
0.0
 20
0.0
 30
0.0
  3
*MODEL_SPACE
  1

  0
ENDBLK
  5
1C
330
1A
100
AcDbEntity
  8
0
100
AcDbBlockEnd
  0
BLOCK
  5
18
330
17
100
AcDbEntity
 67
     1
  8
0
100
AcDbBlockBegin
  2
*PAPER_SPACE
 70
     0
 71
     0
 10
0.0
 20
0.0
 30
0.0
  3
*PAPER_SPACE
  1

  0
ENDBLK
  5
19
330
17
100
AcDbEntity
 67
     1
  8
0
100
AcDbBlockEnd
  0
BLOCK
  5
6E
330
6D
100
AcDbEntity
  8
0
100
AcDbBlockBegin
  2
_OPEN
 70
     0
 71
     0
 10
0.0
 20
0.0
 30
0.0
  3
_OPEN
  1

  0
LINE
  5
6F
330
6D
100
AcDbEntity
  8
0
  6
ByBlock
 62
     0
100
AcDbLine
 10
-1.0
 20
0.1666666666666667
 30
0.0
 11
0.0
 21
0.0
 31
0.0
  0
LINE
  5
70
330
6D
100
AcDbEntity
  8
0
  6
ByBlock
 62
     0
100
AcDbLine
 10
0.0
 20
0.0
 30
0.0
 11
-1.0
 21
-0.1666666666666667
 31
0.0
  0
LINE
  5
71
330
6D
100
AcDbEntity
  8
0
  6
ByBlock
 62
     0
100
AcDbLine
 10
0.0
 20
0.0
 30
0.0
 11
-1.0
 21
0.0
 31
0.0
  0
ENDBLK
  5
72
330
6D
100
AcDbEntity
  8
0
100
AcDbBlockEnd
  0
BLOCK
  5
191F
330
1915
100
AcDbEntity
  8
0
100
AcDbBlockBegin
  2
*D1
 70
     1
 71
     0
 10
0.0
 20
0.0
 30
0.0
  3
*D1
  1

  0
LINE
  5
19BD
330
1915
100
AcDbEntity
  8
SUNPOU
 62
     4
370
    -2
100
AcDbLine
 10
243.1252188168407
 20
156.2395295930739
 30
0.0
 11
243.1252188168407
 21
125.2320701327833
 31
0.0
  0
LINE
  5
19BE
330
1915
100
AcDbEntity
  8
SUNPOU
 62
     4
370
    -2
100
AcDbLine
 10
336.2709222953311
 20
156.2395295930739
 30
0.0
 11
336.2709222953311
 21
125.2320701327833
 31
0.0
  0
LINE
  5
19BF
330
1915
100
AcDbEntity
  8
SUNPOU
 62
     4
370
    -2
100
AcDbLine
 10
250.1252188168407
 20
128.2320701327833
 30
0.0
 11
329.2709222953311
 21
128.2320701327833
 31
0.0
  0
INSERT
  5
19C0
330
1915
100
AcDbEntity
  8
SUNPOU
 62
     4
370
    -2
100
AcDbBlockReference
  2
_OPEN
 10
243.1252188168407
 20
128.2320701327833
 30
0.0
 41
7.0
 42
7.0
 43
7.0
 50
180.0
  0
INSERT
  5
19C1
330
1915
100
AcDbEntity
  8
SUNPOU
 62
     4
370
    -2
100
AcDbBlockReference
  2
_OPEN
 10
336.2709222953311
 20
128.2320701327833
 30
0.0
 41
7.0
 42
7.0
 43
7.0
  0
MTEXT
  5
19C2
330
1915
100
AcDbEntity
  8
SUNPOU
 62
     4
100
AcDbMText
 10
289.6980705560858
 20
133.2320701327833
 30
0.0
 40
6.0
 41
0.0
 71
     5
 72
     1
  1
\A1;93
 73
     1
 44
1.0
  0
POINT
  5
19C3
330
1915
100
AcDbEntity
  8
DEFPOINTS
 62
     0
100
AcDbPoint
 10
243.1252188168407
 20
162.2395295930739
 30
0.0
  0
POINT
  5
19C4
330
1915
100
AcDbEntity
  8
DEFPOINTS
 62
     0
100
AcDbPoint
 10
336.2709222953311
 20
162.2395295930739
 30
0.0
  0
POINT
  5
19C5
330
1915
100
AcDbEntity
  8
DEFPOINTS
 62
     0
100
AcDbPoint
 10
336.2709222953311
 20
128.2320701327833
 30
0.0
  0
ENDBLK
  5
1920
330
1915
100
AcDbEntity
  8
0
100
AcDbBlockEnd
  0
BLOCK
  5
192B
330
1921
100
AcDbEntity
  8
0
100
AcDbBlockBegin
  2
*D2
 70
     1
 71
     0
 10
0.0
 20
0.0
 30
0.0
  3
*D2
  1

  0
LINE
  5
19C6
330
1921
100
AcDbEntity
  8
SUNPOU
 62
     4
370
    -2
100
AcDbLine
 10
209.8925449157239
 20
248.1394969250963
 30
0.0
 11
209.8925449157239
 21
280.0042909913987
 31
0.0
  0
LINE
  5
19C7
330
1921
100
AcDbEntity
  8
SUNPOU
 62
     4
370
    -2
100
AcDbLine
 10
345.2416064226698
 20
248.1394969250963
 30
0.0
 11
345.2416064226698
 21
280.0042909913987
 31
0.0
  0
LINE
  5
19C8
330
1921
100
AcDbEntity
  8
SUNPOU
 62
     4
370
    -2
100
AcDbLine
 10
216.8925449157239
 20
277.0042909913987
 30
0.0
 11
338.2416064226698
 21
277.0042909913987
 31
0.0
  0
INSERT
  5
19C9
330
1921
100
AcDbEntity
  8
SUNPOU
 62
     4
370
    -2
100
AcDbBlockReference
  2
_OPEN
 10
209.8925449157239
 20
277.0042909913987
 30
0.0
 41
7.0
 42
7.0
 43
7.0
 50
180.0
  0
INSERT
  5
19CA
330
1921
100
AcDbEntity
  8
SUNPOU
 62
     4
370
    -2
100
AcDbBlockReference
  2
_OPEN
 10
345.2416064226698
 20
277.0042909913987
 30
0.0
 41
7.0
 42
7.0
 43
7.0
  0
MTEXT
  5
19CB
330
1921
100
AcDbEntity
  8
SUNPOU
 62
     4
100
AcDbMText
 10
277.5670756691968
 20
282.0042909913987
 30
0.0
 40
6.0
 41
0.0
 71
     5
 72
     1
  1
\A1;135
 73
     1
 44
1.0
  0
POINT
  5
19CC
330
1921
100
AcDbEntity
  8
DEFPOINTS
 62
     0
100
AcDbPoint
 10
209.8925449157239
 20
242.1394969250963
 30
0.0
  0
POINT
  5
19CD
330
1921
100
AcDbEntity
  8
DEFPOINTS
 62
     0
100
AcDbPoint
 10
345.2416064226698
 20
242.1394969250963
 30
0.0
  0
POINT
  5
19CE
330
1921
100
AcDbEntity
  8
DEFPOINTS
 62
     0
100
AcDbPoint
 10
345.2416064226698
 20
277.0042909913987
 30
0.0
  0
ENDBLK
  5
192C
330
1921
100
AcDbEntity
  8
0
100
AcDbBlockEnd
  0
BLOCK
  5
1937
330
192D
100
AcDbEntity
  8
0
100
AcDbBlockBegin
  2
*D3
 70
     1
 71
     0
 10
0.0
 20
0.0
 30
0.0
  3
*D3
  1

  0
LINE
  5
19CF
330
192D
100
AcDbEntity
  8
SUNPOU
 62
     4
370
    -2
100
AcDbLine
 10
206.8926064226699
 20
245.1395295930739
 30
0.0
 11
180.4045980618771
 21
245.139529593074
 31
0.0
  0
LINE
  5
19D0
330
192D
100
AcDbEntity
  8
SUNPOU
 62
     4
370
    -2
100
AcDbLine
 10
238.8598064226698
 20
162.2395295930739
 30
0.0
 11
180.4045980618771
 21
162.2395295930739
 31
0.0
  0
LINE
  5
19D1
330
192D
100
AcDbEntity
  8
SUNPOU
 62
     4
370
    -2
100
AcDbLine
 10
183.4045980618771
 20
238.139529593074
 30
0.0
 11
183.4045980618771
 21
169.2395295930739
 31
0.0
  0
INSERT
  5
19D2
330
192D
100
AcDbEntity
  8
SUNPOU
 62
     4
370
    -2
100
AcDbBlockReference
  2
_OPEN
 10
183.4045980618771
 20
245.139529593074
 30
0.0
 41
7.0
 42
7.0
 43
7.0
 50
90.0
  0
INSERT
  5
19D3
330
192D
100
AcDbEntity
  8
SUNPOU
 62
     4
370
    -2
100
AcDbBlockReference
  2
_OPEN
 10
183.4045980618771
 20
162.2395295930739
 30
0.0
 41
7.0
 42
7.0
 43
7.0
 50
270.0
  0
MTEXT
  5
19D4
330
192D
100
AcDbEntity
  8
SUNPOU
 62
     4
100
AcDbMText
 10
178.4045980618771
 20
203.689529593074
 30
0.0
 40
6.0
 41
0.0
 71
     5
 72
     1
  1
\A1;83
 11
6.123031769111886E-17
 21
1.0
 31
0.0
 73
     1
 44
1.0
  0
POINT
  5
19D5
330
192D
100
AcDbEntity
  8
DEFPOINTS
 62
     0
100
AcDbPoint
 10
212.8926064226699
 20
245.1395295930739
 30
0.0
  0
POINT
  5
19D6
330
192D
100
AcDbEntity
  8
DEFPOINTS
 62
     0
100
AcDbPoint
 10
244.8598064226698
 20
162.2395295930739
 30
0.0
  0
POINT
  5
19D7
330
192D
100
AcDbEntity
  8
DEFPOINTS
 62
     0
100
AcDbPoint
 10
183.4045980618771
 20
162.2395295930739
 30
0.0
  0
ENDBLK
  5
1938
330
192D
100
AcDbEntity
  8
0
100
AcDbBlockEnd
  0
BLOCK
  5
1943
330
1939
100
AcDbEntity
  8
0
100
AcDbBlockBegin
  2
*D4
 70
     1
 71
     0
 10
0.0
 20
0.0
 30
0.0
  3
*D4
  1

  0
LINE
  5
19D8
330
1939
100
AcDbEntity
  8
SUNPOU
 62
     4
370
    -2
100
AcDbLine
 10
348.2416064226699
 20
225.7395295930738
 30
0.0
 11
376.8025947219844
 21
225.7395295930738
 31
0.0
  0
LINE
  5
19D9
330
1939
100
AcDbEntity
  8
SUNPOU
 62
     4
370
    -2
100
AcDbLine
 10
340.3598064226698
 20
162.2395295930739
 30
0.0
 11
376.8025947219844
 21
162.2395295930739
 31
0.0
  0
LINE
  5
19DA
330
1939
100
AcDbEntity
  8
SUNPOU
 62
     4
370
    -2
100
AcDbLine
 10
373.8025947219844
 20
218.7395295930738
 30
0.0
 11
373.8025947219844
 21
169.2395295930739
 31
0.0
  0
INSERT
  5
19DB
330
1939
100
AcDbEntity
  8
SUNPOU
 62
     4
370
    -2
100
AcDbBlockReference
  2
_OPEN
 10
373.8025947219844
 20
225.7395295930738
 30
0.0
 41
7.0
 42
7.0
 43
7.0
 50
90.0
  0
INSERT
  5
19DC
330
1939
100
AcDbEntity
  8
SUNPOU
 62
     4
370
    -2
100
AcDbBlockReference
  2
_OPEN
 10
373.8025947219844
 20
162.2395295930739
 30
0.0
 41
7.0
 42
7.0
 43
7.0
 50
270.0
  0
MTEXT
  5
19DD
330
1939
100
AcDbEntity
  8
SUNPOU
 62
     4
100
AcDbMText
 10
368.8025947219844
 20
193.9895295930739
 30
0.0
 40
6.0
 41
0.0
 71
     5
 72
     1
  1
\A1;64
 11
6.123031769111886E-17
 21
1.0
 31
0.0
 73
     1
 44
1.0
  0
POINT
  5
19DE
330
1939
100
AcDbEntity
  8
DEFPOINTS
 62
     0
100
AcDbPoint
 10
342.2416064226699
 20
225.7395295930738
 30
0.0
  0
POINT
  5
19DF
330
1939
100
AcDbEntity
  8
DEFPOINTS
 62
     0
100
AcDbPoint
 10
334.3598064226698
 20
162.2395295930739
 30
0.0
  0
POINT
  5
19E0
330
1939
100
AcDbEntity
  8
DEFPOINTS
 62
     0
100
AcDbPoint
 10
373.8025947219844
 20
162.2395295930739
 30
0.0
  0
ENDBLK
  5
1944
330
1939
100
AcDbEntity
  8
0
100
AcDbBlockEnd
  0
BLOCK
  5
194F
330
1945
100
AcDbEntity
  8
0
100
AcDbBlockBegin
  2
*D5
 70
     1
 71
     0
 10
0.0
 20
0.0
 30
0.0
  3
*D5
  1

  0
ARC
  5
19E1
330
1945
100
AcDbEntity
  8
SUNPOU
 62
     4
370
    -2
100
AcDbCircle
 10
210.0158064226699
 20
486.9656374960345
 30
0.0
 40
68.2452505872139
100
AcDbArc
 50
275.879478476123
 51
309.1204773157737
  0
INSERT
  5
19E2
330
1945
100
AcDbEntity
  8
SUNPOU
 62
     4
370
    -2
100
AcDbBlockReference
  2
_OPEN
 10
210.0158064226698
 20
418.7203869088206
 30
0.0
 41
7.0
 42
7.0
 43
7.0
 50
182.9397392380616
  0
INSERT
  5
19E3
330
1945
100
AcDbEntity
  8
SUNPOU
 62
     4
370
    -2
100
AcDbBlockReference
  2
_OPEN
 10
258.2724486629077
 20
438.7089207883128
 30
0.0
 41
7.0
 42
7.0
 43
7.0
 50
42.06021655383519
  0
MTEXT
  5
19E4
330
1945
100
AcDbEntity
  8
SUNPOU
 62
     4
100
AcDbMText
 10
234.2186934561696
 20
428.5346356127608
 30
0.0
 40
6.0
 41
0.0
 71
     5
 72
     1
  1
\A1;45°
 11
0.9238796801460774
 21
0.3826830759429817
 31
0.0
 73
     1
 44
1.0
  0
POINT
  5
19E5
330
1945
100
AcDbEntity
  8
DEFPOINTS
 62
     0
100
AcDbPoint
 10
227.6789600583551
 20
421.0457828894457
 30
0.0
  0
POINT
  5
19E6
330
1945
100
AcDbEntity
  8
DEFPOINTS
 62
     0
100
AcDbPoint
 10
344.74170642267
 20
352.2395295930737
 30
0.0
  0
POINT
  5
19E7
330
1945
100
AcDbEntity
  8
DEFPOINTS
 62
     0
100
AcDbPoint
 10
210.0158064226698
 20
332.2395295930739
 30
0.0
  0
POINT
  5
19E8
330
1945
100
AcDbEntity
  8
DEFPOINTS
 62
     0
100
AcDbPoint
 10
210.0158064226698
 20
479.7230295930738
 30
0.0
  0
POINT
  5
19E9
330
1945
100
AcDbEntity
  8
DEFPOINTS
 62
     0
100
AcDbPoint
 10
215.13710642267
 20
481.844329593074
 30
0.0
  0
ENDBLK
  5
1950
330
1945
100
AcDbEntity
  8
0
100
AcDbBlockEnd
  0
BLOCK
  5
195B
330
1951
100
AcDbEntity
  8
0
100
AcDbBlockBegin
  2
*D6
 70
     1
 71
     0
 10
0.0
 20
0.0
 30
0.0
  3
*D6
  1

  0
LINE
  5
19EA
330
1951
100
AcDbEntity
  8
SUNPOU
 62
     4
370
    -2
100
AcDbLine
 10
207.0157920376009
 20
482.7230092495202
 30
0.0
 11
180.4045980618771
 21
482.7230092495202
 31
0.0
  0
LINE
  5
19EB
330
1951
100
AcDbEntity
  8
SUNPOU
 62
     4
370
    -2
100
AcDbLine
 10
205.0158064226698
 20
327.2395295930738
 30
0.0
 11
180.4045980618771
 21
327.2395295930738
 31
0.0
  0
LINE
  5
19EC
330
1951
100
AcDbEntity
  8
SUNPOU
 62
     4
370
    -2
100
AcDbLine
 10
183.4045980618771
 20
475.7230092495202
 30
0.0
 11
183.4045980618771
 21
334.2395295930738
 31
0.0
  0
INSERT
  5
19ED
330
1951
100
AcDbEntity
  8
SUNPOU
 62
     4
370
    -2
100
AcDbBlockReference
  2
_OPEN
 10
183.4045980618771
 20
482.7230092495202
 30
0.0
 41
7.0
 42
7.0
 43
7.0
 50
90.0
  0
INSERT
  5
19EE
330
1951
100
AcDbEntity
  8
SUNPOU
 62
     4
370
    -2
100
AcDbBlockReference
  2
_OPEN
 10
183.4045980618771
 20
327.2395295930738
 30
0.0
 41
7.0
 42
7.0
 43
7.0
 50
270.0
  0
MTEXT
  5
19EF
330
1951
100
AcDbEntity
  8
SUNPOU
 62
     4
100
AcDbMText
 10
178.404598061877
 20
404.981269421297
 30
0.0
 40
6.0
 41
0.0
 71
     5
 72
     1
  1
\A1;155
 11
6.123031769111886E-17
 21
1.0
 31
0.0
 73
     1
 44
1.0
  0
POINT
  5
19F0
330
1951
100
AcDbEntity
  8
DEFPOINTS
 62
     0
100
AcDbPoint
 10
213.0157920376009
 20
482.7230092495202
 30
0.0
  0
POINT
  5
19F1
330
1951
100
AcDbEntity
  8
DEFPOINTS
 62
     0
100
AcDbPoint
 10
211.0158064226698
 20
327.2395295930738
 30
0.0
  0
POINT
  5
19F2
330
1951
100
AcDbEntity
  8
DEFPOINTS
 62
     0
100
AcDbPoint
 10
183.4045980618771
 20
327.2395295930738
 30
0.0
  0
ENDBLK
  5
195C
330
1951
100
AcDbEntity
  8
0
100
AcDbBlockEnd
  0
BLOCK
  5
1967
330
195D
100
AcDbEntity
  8
0
100
AcDbBlockBegin
  2
*D7
 70
     1
 71
     0
 10
0.0
 20
0.0
 30
0.0
  3
*D7
  1

  0
LINE
  5
19F3
330
195D
100
AcDbEntity
  8
SUNPOU
 62
     4
370
    -2
100
AcDbLine
 10
345.4925564226699
 20
352.2395295930738
 30
0.0
 11
376.8025947219844
 21
352.2395295930738
 31
0.0
  0
LINE
  5
19F4
330
195D
100
AcDbEntity
  8
SUNPOU
 62
     4
370
    -2
100
AcDbLine
 10
350.7416064226698
 20
327.2395295930738
 30
0.0
 11
376.8025947219844
 21
327.2395295930738
 31
0.0
  0
LINE
  5
19F5
330
195D
100
AcDbEntity
  8
SUNPOU
 62
     4
370
    -2
100
AcDbLine
 10
373.8025947219844
 20
345.2395295930738
 30
0.0
 11
373.8025947219844
 21
334.2395295930738
 31
0.0
  0
INSERT
  5
19F6
330
195D
100
AcDbEntity
  8
SUNPOU
 62
     4
370
    -2
100
AcDbBlockReference
  2
_OPEN
 10
373.8025947219844
 20
352.2395295930738
 30
0.0
 41
7.0
 42
7.0
 43
7.0
 50
90.0
  0
INSERT
  5
19F7
330
195D
100
AcDbEntity
  8
SUNPOU
 62
     4
370
    -2
100
AcDbBlockReference
  2
_OPEN
 10
373.8025947219844
 20
327.2395295930738
 30
0.0
 41
7.0
 42
7.0
 43
7.0
 50
270.0
  0
MTEXT
  5
19F8
330
195D
100
AcDbEntity
  8
SUNPOU
 62
     4
100
AcDbMText
 10
368.8025947219844
 20
339.7395295930738
 30
0.0
 40
6.0
 41
0.0
 71
     5
 72
     1
  1
\A1;※ 25
 11
6.123031769111886E-17
 21
1.0
 31
0.0
 73
     1
 44
1.0
  0
POINT
  5
19F9
330
195D
100
AcDbEntity
  8
DEFPOINTS
 62
     0
100
AcDbPoint
 10
339.4925564226699
 20
352.2395295930738
 30
0.0
  0
POINT
  5
19FA
330
195D
100
AcDbEntity
  8
DEFPOINTS
 62
     0
100
AcDbPoint
 10
344.7416064226698
 20
327.2395295930738
 30
0.0
  0
POINT
  5
19FB
330
195D
100
AcDbEntity
  8
DEFPOINTS
 62
     0
100
AcDbPoint
 10
373.8025947219844
 20
327.2395295930738
 30
0.0
  0
ENDBLK
  5
1968
330
195D
100
AcDbEntity
  8
0
100
AcDbBlockEnd
  0
BLOCK
  5
1973
330
1969
100
AcDbEntity
  8
0
100
AcDbBlockBegin
  2
*D8
 70
     1
 71
     0
 10
0.0
 20
0.0
 30
0.0
  3
*D8
  1

  0
LINE
  5
19FC
330
1969
100
AcDbEntity
  8
SUNPOU
 62
     4
370
    -2
100
AcDbLine
 10
459.2280380891573
 20
156.2395295930739
 30
0.0
 11
459.2280380891573
 21
125.2320701327833
 31
0.0
  0
LINE
  5
19FD
330
1969
100
AcDbEntity
  8
SUNPOU
 62
     4
370
    -2
100
AcDbLine
 10
552.3737415676477
 20
156.2395295930739
 30
0.0
 11
552.3737415676477
 21
125.2320701327833
 31
0.0
  0
LINE
  5
19FE
330
1969
100
AcDbEntity
  8
SUNPOU
 62
     4
370
    -2
100
AcDbLine
 10
466.2280380891573
 20
128.2320701327833
 30
0.0
 11
545.3737415676477
 21
128.2320701327833
 31
0.0
  0
INSERT
  5
19FF
330
1969
100
AcDbEntity
  8
SUNPOU
 62
     4
370
    -2
100
AcDbBlockReference
  2
_OPEN
 10
459.2280380891573
 20
128.2320701327833
 30
0.0
 41
7.0
 42
7.0
 43
7.0
 50
180.0
  0
INSERT
  5
1A00
330
1969
100
AcDbEntity
  8
SUNPOU
 62
     4
370
    -2
100
AcDbBlockReference
  2
_OPEN
 10
552.3737415676477
 20
128.2320701327833
 30
0.0
 41
7.0
 42
7.0
 43
7.0
  0
MTEXT
  5
1A01
330
1969
100
AcDbEntity
  8
SUNPOU
 62
     4
100
AcDbMText
 10
505.8008898284025
 20
133.2320701327833
 30
0.0
 40
6.0
 41
0.0
 71
     5
 72
     1
  1
\A1;93
 73
     1
 44
1.0
  0
POINT
  5
1A02
330
1969
100
AcDbEntity
  8
DEFPOINTS
 62
     0
100
AcDbPoint
 10
459.2280380891573
 20
162.2395295930739
 30
0.0
  0
POINT
  5
1A03
330
1969
100
AcDbEntity
  8
DEFPOINTS
 62
     0
100
AcDbPoint
 10
552.3737415676477
 20
162.2395295930739
 30
0.0
  0
POINT
  5
1A04
330
1969
100
AcDbEntity
  8
DEFPOINTS
 62
     0
100
AcDbPoint
 10
552.3737415676477
 20
128.2320701327833
 30
0.0
  0
ENDBLK
  5
1974
330
1969
100
AcDbEntity
  8
0
100
AcDbBlockEnd
  0
BLOCK
  5
197F
330
1975
100
AcDbEntity
  8
0
100
AcDbBlockBegin
  2
*D9
 70
     1
 71
     0
 10
0.0
 20
0.0
 30
0.0
  3
*D9
  1

  0
LINE
  5
1A05
330
1975
100
AcDbEntity
  8
SUNPOU
 62
     4
370
    -2
100
AcDbLine
 10
585.6064154687645
 20
248.1394969250963
 30
0.0
 11
585.6064154687645
 21
280.0042909913987
 31
0.0
  0
LINE
  5
1A06
330
1975
100
AcDbEntity
  8
SUNPOU
 62
     4
370
    -2
100
AcDbLine
 10
450.2573539618186
 20
248.1394969250963
 30
0.0
 11
450.2573539618186
 21
280.0042909913987
 31
0.0
  0
LINE
  5
1A07
330
1975
100
AcDbEntity
  8
SUNPOU
 62
     4
370
    -2
100
AcDbLine
 10
578.6064154687645
 20
277.0042909913987
 30
0.0
 11
457.2573539618186
 21
277.0042909913987
 31
0.0
  0
INSERT
  5
1A08
330
1975
100
AcDbEntity
  8
SUNPOU
 62
     4
370
    -2
100
AcDbBlockReference
  2
_OPEN
 10
585.6064154687645
 20
277.0042909913987
 30
0.0
 41
7.0
 42
7.0
 43
7.0
  0
INSERT
  5
1A09
330
1975
100
AcDbEntity
  8
SUNPOU
 62
     4
370
    -2
100
AcDbBlockReference
  2
_OPEN
 10
450.2573539618186
 20
277.0042909913987
 30
0.0
 41
7.0
 42
7.0
 43
7.0
 50
180.0
  0
MTEXT
  5
1A0A
330
1975
100
AcDbEntity
  8
SUNPOU
 62
     4
100
AcDbMText
 10
517.9318847152915
 20
282.0042909913987
 30
0.0
 40
6.0
 41
0.0
 71
     5
 72
     1
  1
\A1;135
 73
     1
 44
1.0
  0
POINT
  5
1A0B
330
1975
100
AcDbEntity
  8
DEFPOINTS
 62
     0
100
AcDbPoint
 10
585.6064154687645
 20
242.1394969250963
 30
0.0
  0
POINT
  5
1A0C
330
1975
100
AcDbEntity
  8
DEFPOINTS
 62
     0
100
AcDbPoint
 10
450.2573539618186
 20
242.1394969250963
 30
0.0
  0
POINT
  5
1A0D
330
1975
100
AcDbEntity
  8
DEFPOINTS
 62
     0
100
AcDbPoint
 10
450.2573539618186
 20
277.0042909913987
 30
0.0
  0
ENDBLK
  5
1980
330
1975
100
AcDbEntity
  8
0
100
AcDbBlockEnd
  0
BLOCK
  5
198B
330
1981
100
AcDbEntity
  8
0
100
AcDbBlockBegin
  2
*D10
 70
     1
 71
     0
 10
0.0
 20
0.0
 30
0.0
  3
*D10
  1

  0
LINE
  5
1A0E
330
1981
100
AcDbEntity
  8
SUNPOU
 62
     4
370
    -2
100
AcDbLine
 10
447.2573539618185
 20
225.7395295930739
 30
0.0
 11
418.6963656625039
 21
225.7395295930739
 31
0.0
  0
LINE
  5
1A0F
330
1981
100
AcDbEntity
  8
SUNPOU
 62
     4
370
    -2
100
AcDbLine
 10
455.1391539618185
 20
162.2395295930739
 30
0.0
 11
418.6963656625039
 21
162.2395295930739
 31
0.0
  0
LINE
  5
1A10
330
1981
100
AcDbEntity
  8
SUNPOU
 62
     4
370
    -2
100
AcDbLine
 10
421.6963656625039
 20
218.7395295930739
 30
0.0
 11
421.6963656625039
 21
169.2395295930739
 31
0.0
  0
INSERT
  5
1A11
330
1981
100
AcDbEntity
  8
SUNPOU
 62
     4
370
    -2
100
AcDbBlockReference
  2
_OPEN
 10
421.6963656625039
 20
225.7395295930739
 30
0.0
 41
7.0
 42
7.0
 43
7.0
 50
90.0
  0
INSERT
  5
1A12
330
1981
100
AcDbEntity
  8
SUNPOU
 62
     4
370
    -2
100
AcDbBlockReference
  2
_OPEN
 10
421.6963656625039
 20
162.2395295930739
 30
0.0
 41
7.0
 42
7.0
 43
7.0
 50
270.0
  0
MTEXT
  5
1A13
330
1981
100
AcDbEntity
  8
SUNPOU
 62
     4
100
AcDbMText
 10
416.6963656625039
 20
193.989529593074
 30
0.0
 40
6.0
 41
0.0
 71
     5
 72
     1
  1
\A1;64
 11
6.123031769111886E-17
 21
1.0
 31
0.0
 73
     1
 44
1.0
  0
POINT
  5
1A14
330
1981
100
AcDbEntity
  8
DEFPOINTS
 62
     0
100
AcDbPoint
 10
453.2573539618185
 20
225.7395295930738
 30
0.0
  0
POINT
  5
1A15
330
1981
100
AcDbEntity
  8
DEFPOINTS
 62
     0
100
AcDbPoint
 10
461.1391539618185
 20
162.2395295930739
 30
0.0
  0
POINT
  5
1A16
330
1981
100
AcDbEntity
  8
DEFPOINTS
 62
     0
100
AcDbPoint
 10
421.6963656625039
 20
162.2395295930739
 30
0.0
  0
ENDBLK
  5
198C
330
1981
100
AcDbEntity
  8
0
100
AcDbBlockEnd
  0
BLOCK
  5
1997
330
198D
100
AcDbEntity
  8
0
100
AcDbBlockBegin
  2
*D11
 70
     1
 71
     0
 10
0.0
 20
0.0
 30
0.0
  3
*D11
  1

  0
LINE
  5
1A17
330
198D
100
AcDbEntity
  8
SUNPOU
 62
     4
370
    -2
100
AcDbLine
 10
588.6063539618184
 20
245.1395295930739
 30
0.0
 11
615.0943623226112
 21
245.1395295930739
 31
0.0
  0
LINE
  5
1A18
330
198D
100
AcDbEntity
  8
SUNPOU
 62
     4
370
    -2
100
AcDbLine
 10
556.6391539618186
 20
162.2395295930739
 30
0.0
 11
615.0943623226112
 21
162.2395295930739
 31
0.0
  0
LINE
  5
1A19
330
198D
100
AcDbEntity
  8
SUNPOU
 62
     4
370
    -2
100
AcDbLine
 10
612.0943623226112
 20
238.1395295930739
 30
0.0
 11
612.0943623226112
 21
169.2395295930739
 31
0.0
  0
INSERT
  5
1A1A
330
198D
100
AcDbEntity
  8
SUNPOU
 62
     4
370
    -2
100
AcDbBlockReference
  2
_OPEN
 10
612.0943623226112
 20
245.1395295930739
 30
0.0
 41
7.0
 42
7.0
 43
7.0
 50
90.0
  0
INSERT
  5
1A1B
330
198D
100
AcDbEntity
  8
SUNPOU
 62
     4
370
    -2
100
AcDbBlockReference
  2
_OPEN
 10
612.0943623226112
 20
162.2395295930739
 30
0.0
 41
7.0
 42
7.0
 43
7.0
 50
270.0
  0
MTEXT
  5
1A1C
330
198D
100
AcDbEntity
  8
SUNPOU
 62
     4
100
AcDbMText
 10
607.0943623226112
 20
203.689529593074
 30
0.0
 40
6.0
 41
0.0
 71
     5
 72
     1
  1
\A1;83
 11
6.123031769111886E-17
 21
1.0
 31
0.0
 73
     1
 44
1.0
  0
POINT
  5
1A1D
330
198D
100
AcDbEntity
  8
DEFPOINTS
 62
     0
100
AcDbPoint
 10
582.6063539618184
 20
245.1395295930739
 30
0.0
  0
POINT
  5
1A1E
330
198D
100
AcDbEntity
  8
DEFPOINTS
 62
     0
100
AcDbPoint
 10
550.6391539618186
 20
162.2395295930739
 30
0.0
  0
POINT
  5
1A1F
330
198D
100
AcDbEntity
  8
DEFPOINTS
 62
     0
100
AcDbPoint
 10
612.0943623226112
 20
162.2395295930739
 30
0.0
  0
ENDBLK
  5
1998
330
198D
100
AcDbEntity
  8
0
100
AcDbBlockEnd
  0
BLOCK
  5
19A3
330
1999
100
AcDbEntity
  8
0
100
AcDbBlockBegin
  2
*D12
 70
     1
 71
     0
 10
0.0
 20
0.0
 30
0.0
  3
*D12
  1

  0
ARC
  5
1A20
330
1999
100
AcDbEntity
  8
SUNPOU
 62
     4
370
    -2
100
AcDbCircle
 10
585.4831539618186
 20
486.9656374960344
 30
0.0
 40
68.2452505872138
100
AcDbArc
 50
230.8795226842263
 51
264.1205215238769
  0
INSERT
  5
1A21
330
1999
100
AcDbEntity
  8
SUNPOU
 62
     4
370
    -2
100
AcDbBlockReference
  2
_OPEN
 10
537.2265117215808
 20
438.7089207883126
 30
0.0
 41
7.0
 42
7.0
 43
7.0
 50
137.9397834461647
  0
INSERT
  5
1A22
330
1999
100
AcDbEntity
  8
SUNPOU
 62
     4
370
    -2
100
AcDbBlockReference
  2
_OPEN
 10
585.4831539618185
 20
418.7203869088205
 30
0.0
 41
7.0
 42
7.0
 43
7.0
 50
357.0602607619384
  0
MTEXT
  5
1A23
330
1999
100
AcDbEntity
  8
SUNPOU
 62
     4
100
AcDbMText
 10
561.280266928319
 20
428.5346356127607
 30
0.0
 40
6.0
 41
0.0
 71
     5
 72
     1
  1
\A1;45°
 11
0.9238796801460774
 21
-0.3826830759429817
 31
0.0
 73
     1
 44
1.0
  0
POINT
  5
1A24
330
1999
100
AcDbEntity
  8
DEFPOINTS
 62
     0
100
AcDbPoint
 10
551.3605590694392
 20
427.863499247726
 30
0.0
  0
POINT
  5
1A25
330
1999
100
AcDbEntity
  8
DEFPOINTS
 62
     0
100
AcDbPoint
 10
450.7572539618184
 20
352.2395295930737
 30
0.0
  0
POINT
  5
1A26
330
1999
100
AcDbEntity
  8
DEFPOINTS
 62
     0
100
AcDbPoint
 10
585.4831539618185
 20
332.2395295930738
 30
0.0
  0
POINT
  5
1A27
330
1999
100
AcDbEntity
  8
DEFPOINTS
 62
     0
100
AcDbPoint
 10
585.4831539618186
 20
479.7230295930738
 30
0.0
  0
POINT
  5
1A28
330
1999
100
AcDbEntity
  8
DEFPOINTS
 62
     0
100
AcDbPoint
 10
580.3618539618185
 20
481.844329593074
 30
0.0
  0
ENDBLK
  5
19A4
330
1999
100
AcDbEntity
  8
0
100
AcDbBlockEnd
  0
BLOCK
  5
19AF
330
19A5
100
AcDbEntity
  8
0
100
AcDbBlockBegin
  2
*D13
 70
     1
 71
     0
 10
0.0
 20
0.0
 30
0.0
  3
*D13
  1

  0
LINE
  5
1A29
330
19A5
100
AcDbEntity
  8
SUNPOU
 62
     4
370
    -2
100
AcDbLine
 10
588.4831683468874
 20
482.7230092495202
 30
0.0
 11
615.0943623226112
 21
482.7230092495202
 31
0.0
  0
LINE
  5
1A2A
330
19A5
100
AcDbEntity
  8
SUNPOU
 62
     4
370
    -2
100
AcDbLine
 10
590.4831539618185
 20
327.2395295930738
 30
0.0
 11
615.0943623226112
 21
327.2395295930738
 31
0.0
  0
LINE
  5
1A2B
330
19A5
100
AcDbEntity
  8
SUNPOU
 62
     4
370
    -2
100
AcDbLine
 10
612.0943623226112
 20
475.7230092495202
 30
0.0
 11
612.0943623226112
 21
334.2395295930738
 31
0.0
  0
INSERT
  5
1A2C
330
19A5
100
AcDbEntity
  8
SUNPOU
 62
     4
370
    -2
100
AcDbBlockReference
  2
_OPEN
 10
612.0943623226112
 20
482.7230092495202
 30
0.0
 41
7.0
 42
7.0
 43
7.0
 50
90.0
  0
INSERT
  5
1A2D
330
19A5
100
AcDbEntity
  8
SUNPOU
 62
     4
370
    -2
100
AcDbBlockReference
  2
_OPEN
 10
612.0943623226112
 20
327.2395295930738
 30
0.0
 41
7.0
 42
7.0
 43
7.0
 50
270.0
  0
MTEXT
  5
1A2E
330
19A5
100
AcDbEntity
  8
SUNPOU
 62
     4
100
AcDbMText
 10
607.0943623226111
 20
404.981269421297
 30
0.0
 40
6.0
 41
0.0
 71
     5
 72
     1
  1
\A1;155
 11
6.123031769111886E-17
 21
1.0
 31
0.0
 73
     1
 44
1.0
  0
POINT
  5
1A2F
330
19A5
100
AcDbEntity
  8
DEFPOINTS
 62
     0
100
AcDbPoint
 10
582.4831683468874
 20
482.7230092495202
 30
0.0
  0
POINT
  5
1A30
330
19A5
100
AcDbEntity
  8
DEFPOINTS
 62
     0
100
AcDbPoint
 10
584.4831539618185
 20
327.2395295930738
 30
0.0
  0
POINT
  5
1A31
330
19A5
100
AcDbEntity
  8
DEFPOINTS
 62
     0
100
AcDbPoint
 10
612.0943623226112
 20
327.2395295930738
 30
0.0
  0
ENDBLK
  5
19B0
330
19A5
100
AcDbEntity
  8
0
100
AcDbBlockEnd
  0
BLOCK
  5
19BB
330
19B1
100
AcDbEntity
  8
0
100
AcDbBlockBegin
  2
*D14
 70
     1
 71
     0
 10
0.0
 20
0.0
 30
0.0
  3
*D14
  1

  0
LINE
  5
1A32
330
19B1
100
AcDbEntity
  8
SUNPOU
 62
     4
370
    -2
100
AcDbLine
 10
450.0064039618185
 20
352.2395295930738
 30
0.0
 11
418.6963656625039
 21
352.2395295930738
 31
0.0
  0
LINE
  5
1A33
330
19B1
100
AcDbEntity
  8
SUNPOU
 62
     4
370
    -2
100
AcDbLine
 10
444.7573539618186
 20
327.2395295930738
 30
0.0
 11
418.6963656625039
 21
327.2395295930738
 31
0.0
  0
LINE
  5
1A34
330
19B1
100
AcDbEntity
  8
SUNPOU
 62
     4
370
    -2
100
AcDbLine
 10
421.6963656625039
 20
345.2395295930738
 30
0.0
 11
421.6963656625039
 21
334.2395295930738
 31
0.0
  0
INSERT
  5
1A35
330
19B1
100
AcDbEntity
  8
SUNPOU
 62
     4
370
    -2
100
AcDbBlockReference
  2
_OPEN
 10
421.6963656625039
 20
352.2395295930738
 30
0.0
 41
7.0
 42
7.0
 43
7.0
 50
90.0
  0
INSERT
  5
1A36
330
19B1
100
AcDbEntity
  8
SUNPOU
 62
     4
370
    -2
100
AcDbBlockReference
  2
_OPEN
 10
421.6963656625039
 20
327.2395295930738
 30
0.0
 41
7.0
 42
7.0
 43
7.0
 50
270.0
  0
MTEXT
  5
1A37
330
19B1
100
AcDbEntity
  8
SUNPOU
 62
     4
100
AcDbMText
 10
416.6963656625039
 20
339.7395295930739
 30
0.0
 40
6.0
 41
0.0
 71
     5
 72
     1
  1
\A1;※ 25
 11
6.123031769111886E-17
 21
1.0
 31
0.0
 73
     1
 44
1.0
  0
POINT
  5
1A38
330
19B1
100
AcDbEntity
  8
DEFPOINTS
 62
     0
100
AcDbPoint
 10
456.0064039618185
 20
352.2395295930738
 30
0.0
  0
POINT
  5
1A39
330
19B1
100
AcDbEntity
  8
DEFPOINTS
 62
     0
100
AcDbPoint
 10
450.7573539618186
 20
327.2395295930738
 30
0.0
  0
POINT
  5
1A3A
330
19B1
100
AcDbEntity
  8
DEFPOINTS
 62
     0
100
AcDbPoint
 10
421.6963656625039
 20
327.2395295930738
 30
0.0
  0
ENDBLK
  5
19BC
330
19B1
100
AcDbEntity
  8
0
100
AcDbBlockEnd
  0
ENDSEC
  0
SECTION
  2
ENTITIES
  0
TEXT
  5
46F
330
1A
100
AcDbEntity
  8
SUNPOU
 62
     4
100
AcDbText
 10
684.9983445684752
 20
37.16107601380135
 30
0.0
 40
6.0
  1
※　のきといの差込み寸法を示す
100
AcDbText
  0
LINE
  5
7BE
330
1A
100
AcDbEntity
  8
ZUWAKU
100
AcDbLine
 10
208.646601303624
 20
15.19999986828872
 30
0.0
 11
447.4243639845474
 21
15.19999986828871
 31
0.0
  0
LINE
  5
7BF
330
1A
100
AcDbEntity
  8
ZUWAKU
100
AcDbLine
 10
208.646601303624
 20
15.59999986828872
 30
0.0
 11
447.4243639845474
 21
15.59999986828872
 31
0.0
  0
LINE
  5
7C0
330
1A
100
AcDbEntity
  8
ZUWAKU
100
AcDbLine
 10
208.646601303624
 20
15.39999986828872
 30
0.0
 11
447.4243639845474
 21
15.39999986828872
 31
0.0
  0
LINE
  5
7C1
330
1A
100
AcDbEntity
  8
ZUWAKU
100
AcDbLine
 10
0.0000000135560185
 20
30.79999986828869
 30
0.0
 11
797.4000000135559
 21
30.79999986828869
 31
0.0
  0
LINE
  5
7C2
330
1A
100
AcDbEntity
  8
ZUWAKU
100
AcDbLine
 10
0.0000000135560185
 20
30.59999986828869
 30
0.0
 11
797.4000000135559
 21
30.59999986828869
 31
0.0
  0
LINE
  5
7C3
330
1A
100
AcDbEntity
  8
ZUWAKU
100
AcDbLine
 10
0.0000000135560185
 20
30.39999986828869
 30
0.0
 11
797.4000000135559
 21
30.39999986828869
 31
0.0
  0
LINE
  5
7C4
330
1A
100
AcDbEntity
  8
ZUWAKU
100
AcDbLine
 10
0.0000000135560185
 20
30.19999986828869
 30
0.0
 11
797.4000000135559
 21
30.19999986828869
 31
0.0
  0
LINE
  5
7C5
330
1A
100
AcDbEntity
  8
ZUWAKU
100
AcDbLine
 10
0.0000000135560185
 20
29.99999986828868
 30
0.0
 11
797.4000000135559
 21
29.99999986828868
 31
0.0
  0
LWPOLYLINE
  5
7C6
330
1A
100
AcDbEntity
  8
ZUWAKU
100
AcDbPolyline
 90
        4
 70
     1
 43
0.0
 10
0.2000000135559503
 20
551.3999998682888
 10
0.2000000135559503
 20
0.1999998682887281
 10
797.4000000135559
 20
0.1999998682887512
 10
797.4000000135561
 20
551.3999998682888
  0
LWPOLYLINE
  5
7C7
330
1A
100
AcDbEntity
  8
ZUWAKU
100
AcDbPolyline
 90
        4
 70
     1
 43
0.0
 10
0.6000000135559276
 20
550.9999998682888
 10
0.6000000135559276
 20
0.5999998682887053
 10
797.0000000135563
 20
0.5999998682887515
 10
797.000000013556
 20
550.9999998682888
  0
LWPOLYLINE
  5
7C8
330
1A
100
AcDbEntity
  8
ZUWAKU
100
AcDbPolyline
 90
        4
 70
     1
 43
0.0
 10
0.0000000135560185
 20
551.5999998682887
 10
0.0000000135560185
 20
-0.0000001317113174
 10
797.6000000135562
 20
-0.0000001317112499
 10
797.6000000135562
 20
551.5999998682888
  0
LWPOLYLINE
  5
7C9
330
1A
100
AcDbEntity
  8
ZUWAKU
100
AcDbPolyline
 90
        4
 70
     1
 43
0.0
 10
0.4000000135559958
 20
551.1999998682887
 10
0.4000000135559958
 20
0.3999998682887735
 10
797.2000000135561
 20
0.3999998682887505
 10
797.2000000135561
 20
551.1999998682887
  0
LWPOLYLINE
  5
7CA
330
1A
100
AcDbEntity
  8
ZUWAKU
100
AcDbPolyline
 90
        4
 70
     1
 43
0.0
 10
0.8000000135559731
 20
550.7999998682888
 10
0.8000000135559731
 20
0.7999998682887508
 10
796.800000013556
 20
0.7999998682887508
 10
796.800000013556
 20
550.7999998682888
  0
TEXT
  5
7CB
330
1A
100
AcDbEntity
  8
moji
100
AcDbText
 10
92.95778960172515
 20
12.74117799856344
 30
0.0
 40
6.0
  1
アーバントップΣ９０
 41
0.9
  7
ｽﾀｲﾙ1
100
AcDbText
  0
HATCH
  5
7CC
330
1A
100
AcDbEntity
  8
ZUWAKU
100
AcDbHatch
 10
0.0
 20
0.0
 30
0.0
210
0.0
220
0.0
230
1.0
  2
ANSI37
 70
     0
 71
     0
 91
        8
 92
        7
 72
     1
 73
     1
 93
       24
 10
14.50226267467588
 20
17.64484834927227
 42
-0.1989123673796348
 10
14.09221216833714
 20
18.63479784293332
 42
0.0
 10
14.09221216833714
 20
19.92499986828869
 42
-0.4142135623730912
 10
14.61721216833712
 20
20.44999986828869
 42
0.0
 10
17.59221216833703
 20
20.44999986828869
 42
0.4142135623731546
 10
18.11721216833712
 20
20.97499986828868
 42
0.0
 10
18.11721216833712
 20
22.72499986828869
 42
0.4142135623731586
 10
17.59221216833703
 20
23.24999986828869
 42
0.0
 10
14.09221216833714
 20
23.24999986828869
 42
0.4142135623730928
 10
11.29221216833719
 20
20.44999986828871
 42
0.0
 10
11.29221216833719
 20
18.63479784293345
 42
0.1989123673796619
 10
12.52236368735362
 20
15.66494936194984
 42
0.0
 10
15.43216166199829
 20
12.75515138730518
 42
-0.1989123673796613
 10
15.84221216833714
 20
11.76520189364399
 42
0.0
 10
15.84221216833714
 20
10.47499986828868
 42
-0.4142135623730911
 10
15.31721216833716
 20
9.949999868288685
 42
0.0
 10
12.34221216833726
 20
9.949999868288685
 42
0.4142135623731526
 10
11.81721216833716
 20
9.424999868288698
 42
0.0
 10
11.81721216833716
 20
7.674999868288676
 42
0.4142135623731526
 10
12.34221216833726
 20
7.149999868288688
 42
0.0
 10
15.84221216833714
 20
7.149999868288688
 42
0.4142135623731044
 10
18.64221216833721
 20
9.949999868288664
 42
0.0
 10
18.64221216833721
 20
11.76520189364394
 42
0.1989123673796604
 10
17.41206064932067
 20
14.73505037462748
 42
0.0
 97
        0
 92
        7
 72
     1
 73
     1
 93
       16
 10
23.54221216833719
 20
19.04999986828869
 42
-0.4142135623730935
 10
24.94221216833716
 20
20.44999986828869
 42
0.0
 10
26.86721216833712
 20
20.44999986828869
 42
0.4142135623731546
 10
27.39221216833721
 20
20.97499986828868
 42
0.0
 10
27.39221216833721
 20
22.72499986828869
 42
0.4142135623730952
 10
26.86721216833723
 20
23.24999986828869
 42
0.0
 10
24.94221216833705
 20
23.24999986828865
 42
0.4142135623730892
 10
20.74221216833712
 20
19.04999986828862
 42
0.0
 10
20.74221216833712
 20
11.34999986828871
 42
0.4142135623730969
 10
24.94221216833716
 20
7.149999868288688
 42
0.0
 10
26.86721216833712
 20
7.149999868288688
 42
0.4142135623731526
 10
27.39221216833721
 20
7.674999868288676
 42
0.0
 10
27.39221216833721
 20
9.424999868288698
 42
0.414213562373089
 10
26.86721216833723
 20
9.949999868288685
 42
0.0
 10
24.94221216833716
 20
9.949999868288685
 42
-0.4142135623730928
 10
23.54221216833719
 20
11.34999986828867
 42
0.0
 97
        0
 92
        7
 72
     1
 73
     1
 93
        2
 10
24.24221216833712
 20
15.19999986828869
 42
1.0
 10
27.74221216833712
 20
15.19999986828869
 42
1.0
 97
        0
 92
        7
 72
     1
 73
     1
 93
       26
 10
37.31485865051513
 20
19.20504706185211
 42
0.0
 10
38.37649828365295
 20
22.5669059001217
 42
0.5069206636600134
 10
37.87586738445759
 20
23.24999986828869
 42
0.0
 10
36.17697800484837
 20
23.24999986828869
 42
0.3272098845218764
 10
35.67634710565301
 20
22.88309383645566
 42
0.0
 10
33.80807723102123
 20
16.96690590012177
 42
-0.3272098845219541
 10
33.30744633182576
 20
16.59999986828868
 42
0.0
 10
33.1672121683373
 20
16.59999986828868
 42
-0.4142135623731526
 10
32.64221216833721
 20
17.12499986828867
 42
0.0
 10
32.64221216833721
 20
22.72499986828869
 42
0.4142135623730952
 10
32.11721216833723
 20
23.24999986828869
 42
0.0
 10
30.36721216833712
 20
23.24999986828869
 42
0.4142135623730872
 10
29.84221216833714
 20
22.72499986828871
 42
0.0
 10
29.84221216833714
 20
7.674999868288676
 42
0.414213562373089
 10
30.36721216833712
 20
7.149999868288688
 42
0.0
 10
32.11721216833712
 20
7.149999868288688
 42
0.4142135623731526
 10
32.64221216833721
 20
7.674999868288676
 42
0.0
 10
32.64221216833721
 20
13.2749998682887
 42
-0.4142135623731526
 10
33.1672121683373
 20
13.79999986828869
 42
0.0
 10
33.30744633182587
 20
13.79999986828869
 42
-0.3272098845218915
 10
33.80807723102123
 20
13.43309383645561
 42
0.0
 10
35.67634710565301
 20
7.51690590012176
 42
0.3272098845218902
 10
36.17697800484837
 20
7.149999868288688
 42
0.0
 10
37.87586738445759
 20
7.149999868288688
 42
0.5069206636600334
 10
38.37649828365295
 20
7.833093836455696
 42
0.0
 10
36.05010690517929
 20
15.19999986828882
 42
0.0
 97
        0
 92
        7
 72
     1
 73
     1
 93
        8
 10
43.49221216833712
 20
22.7249998682887
 42
0.4142135623731546
 10
42.96721216833703
 20
23.24999986828869
 42
0.0
 10
41.21721216833726
 20
23.24999986828869
 42
0.4142135623731506
 10
40.69221216833716
 20
22.72499986828871
 42
0.0
 10
40.69221216833716
 20
7.674999868288676
 42
0.4142135623731526
 10
41.21721216833726
 20
7.149999868288688
 42
0.0
 10
42.96721216833703
 20
7.149999868288688
 42
0.4142135623731526
 10
43.49221216833712
 20
7.674999868288676
 42
0.0
 97
        0
 92
        7
 72
     1
 73
     1
 93
       24
 10
48.39221216833721
 20
19.92499986828869
 42
-0.4142135623731547
 10
48.9172121683373
 20
20.44999986828869
 42
0.0
 10
51.89221216833721
 20
20.44999986828869
 42
0.4142135623730911
 10
52.41721216833719
 20
20.97499986828868
 42
0.0
 10
52.41721216833719
 20
22.72499986828869
 42
0.4142135623730952
 10
51.89221216833721
 20
23.24999986828869
 42
0.0
 10
48.39221216833721
 20
23.24999986828869
 42
0.4142135623731048
 10
45.59221216833714
 20
20.44999986828871
 42
0.0
 10
45.59221216833714
 20
18.63479784293345
 42
0.1989123673796613
 10
46.82236368735369
 20
15.66494936194989
 42
0.0
 10
49.73216166199836
 20
12.75515138730523
 42
-0.1989123673796402
 10
50.14221216833721
 20
11.76520189364415
 42
0.0
 10
50.14221216833721
 20
10.47499986828868
 42
-0.4142135623730911
 10
49.61721216833723
 20
9.949999868288685
 42
0.0
 10
46.64221216833721
 20
9.949999868288685
 42
0.4142135623731526
 10
46.11721216833712
 20
9.424999868288698
 42
0.0
 10
46.11721216833712
 20
7.674999868288676
 42
0.414213562373089
 10
46.6422121683371
 20
7.149999868288688
 42
0.0
 10
50.14221216833721
 20
7.149999868288688
 42
0.4142135623730925
 10
52.94221216833716
 20
9.949999868288664
 42
0.0
 10
52.94221216833716
 20
11.76520189364394
 42
0.1989123673796675
 10
51.71206064932062
 20
14.73505037462759
 42
0.0
 10
48.80226267467606
 20
17.64484834927211
 42
-0.1989123673796653
 10
48.39221216833721
 20
18.63479784293327
 42
0.0
 97
        0
 92
        7
 72
     1
 73
     1
 93
       16
 10
57.84221216833714
 20
22.72499986828868
 42
0.414213562373103
 10
57.31721216833716
 20
23.24999986828869
 42
0.0
 10
55.56721216833716
 20
23.24999986828869
 42
0.4142135623730872
 10
55.04221216833719
 20
22.72499986828871
 42
0.0
 10
55.04221216833719
 20
9.949999868288664
 42
0.4142135623730925
 10
57.84221216833714
 20
7.149999868288688
 42
0.0
 10
61.34221216833714
 20
7.149999868288688
 42
0.4142135623731044
 10
64.14221216833721
 20
9.949999868288664
 42
0.0
 10
64.14221216833721
 20
22.72499986828869
 42
0.4142135623730952
 10
63.61721216833723
 20
23.24999986828869
 42
0.0
 10
61.86721216833712
 20
23.24999986828869
 42
0.4142135623730872
 10
61.34221216833714
 20
22.72499986828871
 42
0.0
 10
61.34221216833714
 20
10.99999986828866
 42
-0.414213562373088
 10
60.29221216833719
 20
9.949999868288685
 42
0.0
 10
58.89221216833721
 20
9.949999868288685
 42
-0.4142135623731197
 10
57.84221216833714
 20
10.99999986828866
 42
0.0
 97
        0
 92
        7
 72
     1
 73
     1
 93
        8
 10
69.04221216833719
 20
22.72499986828871
 42
0.4142135623730872
 10
68.51721216833721
 20
23.24999986828869
 42
0.0
 10
66.76721216833721
 20
23.24999986828869
 42
0.4142135623731506
 10
66.24221216833712
 20
22.72499986828871
 42
0.0
 10
66.24221216833712
 20
7.674999868288676
 42
0.414213562373089
 10
66.7672121683371
 20
7.149999868288688
 42
0.0
 10
68.51721216833721
 20
7.149999868288688
 42
0.414213562373089
 10
69.04221216833719
 20
7.674999868288676
 42
0.0
 97
        0
 75
     0
 76
     1
 52
0.0
 41
0.2
 77
     0
 78
     2
 53
45.0
 43
-900.942304321123
 44
-13.20000013171125
 45
-0.4490128060534576
 46
0.4490128060534577
 79
     0
 53
135.0
 43
-900.942304321123
 44
-13.20000013171125
 45
-0.4490128060534577
 46
-0.4490128060534576
 79
     0
 47
0.057451373970553
 98
        8
 10
16.07985497657933
 20
15.16717351417424
 10
22.40451501999519
 20
18.84406205073969
 10
25.16436789921568
 20
15.5118815143594
 10
30.91405999519316
 20
16.20129751473019
 10
41.83847203251276
 20
16.6609097822718
 10
46.89820090868557
 20
19.41857618469589
 10
56.55768598595637
 20
18.7291577833837
 10
67.82707963317876
 20
19.18877005092531
  0
LINE
  5
7CD
330
1A
100
AcDbEntity
  8
ZUWAKU
100
AcDbLine
 10
24.94221216833716
 20
23.24999986828865
 30
0.0
 11
26.86721216833712
 21
23.24999986828869
 31
0.0
  0
LINE
  5
7CE
330
1A
100
AcDbEntity
  8
ZUWAKU
100
AcDbLine
 10
26.86721216833712
 20
20.44999986828869
 30
0.0
 11
24.94221216833716
 21
20.44999986828869
 31
0.0
  0
LINE
  5
7CF
330
1A
100
AcDbEntity
  8
ZUWAKU
100
AcDbLine
 10
24.94221216833716
 20
9.949999868288685
 30
0.0
 11
26.86721216833712
 21
9.949999868288685
 31
0.0
  0
LINE
  5
7D0
330
1A
100
AcDbEntity
  8
ZUWAKU
100
AcDbLine
 10
26.86721216833712
 20
7.149999868288688
 30
0.0
 11
24.94221216833716
 21
7.149999868288688
 31
0.0
  0
CIRCLE
  5
7D1
330
1A
100
AcDbEntity
  8
ZUWAKU
100
AcDbCircle
 10
25.99221216833712
 20
15.19999986828869
 30
0.0
 40
1.75
  0
ARC
  5
7D2
330
1A
100
AcDbEntity
  8
ZUWAKU
100
AcDbCircle
 10
15.49221216833712
 20
18.63479784293339
 30
0.0
 40
1.4
100
AcDbArc
 50
180.0000000000016
 51
224.9999999999988
  0
LINE
  5
7D3
330
1A
100
AcDbEntity
  8
ZUWAKU
100
AcDbLine
 10
23.54221216833719
 20
19.04999986828869
 30
0.0
 11
23.54221216833719
 21
11.34999986828869
 31
0.0
  0
LINE
  5
7D4
330
1A
100
AcDbEntity
  8
ZUWAKU
100
AcDbLine
 10
20.74221216833712
 20
11.34999986828869
 30
0.0
 11
20.74221216833712
 21
19.04999986828864
 31
0.0
  0
ARC
  5
7D5
330
1A
100
AcDbEntity
  8
ZUWAKU
100
AcDbCircle
 10
15.49221216833712
 20
18.63479784293339
 30
0.0
 40
4.199999999999999
100
AcDbArc
 50
180.0
 51
225.0
  0
ARC
  5
7D6
330
1A
100
AcDbEntity
  8
ZUWAKU
100
AcDbCircle
 10
15.84221216833714
 20
9.949999868288685
 30
0.0
 40
2.8
100
AcDbArc
 50
270.0
 51
0.0
  0
ARC
  5
7D7
330
1A
100
AcDbEntity
  8
ZUWAKU
100
AcDbCircle
 10
24.94221216833716
 20
11.34999986828869
 30
0.0
 40
4.199999999999999
100
AcDbArc
 50
180.0
 51
270.0
  0
ARC
  5
7D8
330
1A
100
AcDbEntity
  8
ZUWAKU
100
AcDbCircle
 10
14.44221216833716
 20
11.76520189364399
 30
0.0
 40
4.199999999999999
100
AcDbArc
 50
0.0
 51
45.0
  0
LINE
  5
7D9
330
1A
100
AcDbEntity
  8
ZUWAKU
100
AcDbLine
 10
17.41206064932067
 20
14.73505037462751
 30
0.0
 11
14.50226267467599
 21
17.64484834927219
 31
0.0
  0
LINE
  5
7DA
330
1A
100
AcDbEntity
  8
ZUWAKU
100
AcDbLine
 10
15.84221216833714
 20
10.47499986828869
 30
0.0
 11
15.84221216833714
 21
11.76520189364403
 31
0.0
  0
ARC
  5
7DB
330
1A
100
AcDbEntity
  8
ZUWAKU
100
AcDbCircle
 10
15.31721216833716
 20
10.47499986828869
 30
0.0
 40
0.5249999999999999
100
AcDbArc
 50
270.0
 51
0.0
  0
ARC
  5
7DC
330
1A
100
AcDbEntity
  8
ZUWAKU
100
AcDbCircle
 10
14.44221216833716
 20
11.76520189364403
 30
0.0
 40
1.4
100
AcDbArc
 50
0.0
 51
45.0
  0
LINE
  5
7DD
330
1A
100
AcDbEntity
  8
ZUWAKU
100
AcDbLine
 10
11.81721216833716
 20
7.674999868288687
 30
0.0
 11
11.81721216833716
 21
9.424999868288687
 31
0.0
  0
ARC
  5
7DE
330
1A
100
AcDbEntity
  8
ZUWAKU
100
AcDbCircle
 10
12.34221216833714
 20
7.674999868288687
 30
0.0
 40
0.5249999999999999
100
AcDbArc
 50
180.0
 51
270.0
  0
ARC
  5
7DF
330
1A
100
AcDbEntity
  8
ZUWAKU
100
AcDbCircle
 10
12.34221216833714
 20
9.424999868288687
 30
0.0
 40
0.5249999999999999
100
AcDbArc
 50
90.0
 51
180.0
  0
LINE
  5
7E0
330
1A
100
AcDbEntity
  8
ZUWAKU
100
AcDbLine
 10
12.34221216833714
 20
7.149999868288688
 30
0.0
 11
15.84221216833714
 21
7.149999868288688
 31
0.0
  0
LINE
  5
7E1
330
1A
100
AcDbEntity
  8
ZUWAKU
100
AcDbLine
 10
12.34221216833714
 20
9.949999868288685
 30
0.0
 11
15.31721216833716
 21
9.949999868288685
 31
0.0
  0
LINE
  5
7E2
330
1A
100
AcDbEntity
  8
ZUWAKU
100
AcDbLine
 10
12.52236368735362
 20
15.66494936194987
 30
0.0
 11
15.43216166199829
 21
12.7551513873052
 31
0.0
  0
LINE
  5
7E3
330
1A
100
AcDbEntity
  8
ZUWAKU
100
AcDbLine
 10
18.64221216833721
 20
9.949999868288685
 30
0.0
 11
18.64221216833721
 21
11.76520189364403
 31
0.0
  0
ARC
  5
7E4
330
1A
100
AcDbEntity
  8
ZUWAKU
100
AcDbCircle
 10
24.94221216833716
 20
11.34999986828869
 30
0.0
 40
1.4
100
AcDbArc
 50
180.0
 51
270.0
  0
ARC
  5
7E5
330
1A
100
AcDbEntity
  8
ZUWAKU
100
AcDbCircle
 10
17.59221216833714
 20
22.72499986828868
 30
0.0
 40
0.5249999999999999
100
AcDbArc
 50
0.0
 51
90.0
  0
ARC
  5
7E6
330
1A
100
AcDbEntity
  8
ZUWAKU
100
AcDbCircle
 10
17.59221216833714
 20
20.97499986828868
 30
0.0
 40
0.5249999999999999
100
AcDbArc
 50
270.0
 51
0.0
  0
LINE
  5
7E7
330
1A
100
AcDbEntity
  8
ZUWAKU
100
AcDbLine
 10
14.09221216833714
 20
23.24999986828869
 30
0.0
 11
17.59221216833714
 21
23.24999986828869
 31
0.0
  0
ARC
  5
7E8
330
1A
100
AcDbEntity
  8
ZUWAKU
100
AcDbCircle
 10
14.61721216833712
 20
19.92499986828869
 30
0.0
 40
0.5249999999999999
100
AcDbArc
 50
90.0
 51
180.0
  0
LINE
  5
7E9
330
1A
100
AcDbEntity
  8
ZUWAKU
100
AcDbLine
 10
14.09221216833714
 20
19.92499986828869
 30
0.0
 11
14.09221216833714
 21
18.63479784293335
 31
0.0
  0
LINE
  5
7EA
330
1A
100
AcDbEntity
  8
ZUWAKU
100
AcDbLine
 10
17.59221216833714
 20
20.44999986828869
 30
0.0
 11
14.61721216833712
 21
20.44999986828869
 31
0.0
  0
LINE
  5
7EB
330
1A
100
AcDbEntity
  8
ZUWAKU
100
AcDbLine
 10
11.29221216833719
 20
20.44999986828869
 30
0.0
 11
11.29221216833719
 21
18.63479784293335
 31
0.0
  0
ARC
  5
7EC
330
1A
100
AcDbEntity
  8
ZUWAKU
100
AcDbCircle
 10
14.09221216833714
 20
20.44999986828869
 30
0.0
 40
2.8
100
AcDbArc
 50
90.0
 51
180.0
  0
LINE
  5
7ED
330
1A
100
AcDbEntity
  8
ZUWAKU
100
AcDbLine
 10
18.11721216833712
 20
22.72499986828868
 30
0.0
 11
18.11721216833712
 21
20.97499986828868
 31
0.0
  0
ARC
  5
7EE
330
1A
100
AcDbEntity
  8
ZUWAKU
100
AcDbCircle
 10
24.94221216833716
 20
19.04999986828869
 30
0.0
 40
1.4
100
AcDbArc
 50
90.0
 51
180.0
  0
ARC
  5
7EF
330
1A
100
AcDbEntity
  8
ZUWAKU
100
AcDbCircle
 10
24.94221216833716
 20
19.04999986828864
 30
0.0
 40
4.199999999999999
100
AcDbArc
 50
90.0
 51
180.0
  0
LINE
  5
7F0
330
1A
100
AcDbEntity
  8
ZUWAKU
100
AcDbLine
 10
79.32662956154422
 20
29.99999986828868
 30
0.0
 11
79.32662956154445
 21
0.7999998682887508
 31
0.0
  0
LINE
  5
7F1
330
1A
100
AcDbEntity
  8
ZUWAKU
100
AcDbLine
 10
79.52662956154427
 20
29.99999986828868
 30
0.0
 11
79.5266295615445
 21
0.7999998682887508
 31
0.0
  0
LINE
  5
7F2
330
1A
100
AcDbEntity
  8
ZUWAKU
100
AcDbLine
 10
79.12662956154441
 20
29.99999986828868
 30
0.0
 11
79.12662956154441
 21
0.7999998682887508
 31
0.0
  0
LINE
  5
7F3
330
1A
100
AcDbEntity
  8
ZUWAKU
100
AcDbLine
 10
64.14221216833721
 20
9.949999868288685
 30
0.0
 11
64.14221216833721
 21
22.72499986828868
 31
0.0
  0
LINE
  5
7F4
330
1A
100
AcDbEntity
  8
ZUWAKU
100
AcDbLine
 10
61.34221216833714
 20
22.72499986828868
 30
0.0
 11
61.34221216833714
 21
10.99999986828868
 31
0.0
  0
LINE
  5
7F5
330
1A
100
AcDbEntity
  8
ZUWAKU
100
AcDbLine
 10
69.04221216833719
 20
7.674999868288687
 30
0.0
 11
69.04221216833719
 21
22.72499986828868
 31
0.0
  0
LINE
  5
7F6
330
1A
100
AcDbEntity
  8
ZUWAKU
100
AcDbLine
 10
66.24221216833712
 20
22.72499986828868
 30
0.0
 11
66.24221216833712
 21
7.674999868288687
 31
0.0
  0
ARC
  5
7F7
330
1A
100
AcDbEntity
  8
ZUWAKU
100
AcDbCircle
 10
49.79221216833719
 20
18.63479784293339
 30
0.0
 40
1.4
100
AcDbArc
 50
180.0000000000016
 51
224.9999999999988
  0
ARC
  5
7F8
330
1A
100
AcDbEntity
  8
ZUWAKU
100
AcDbCircle
 10
49.79221216833719
 20
18.63479784293339
 30
0.0
 40
4.199999999999999
100
AcDbArc
 50
180.0
 51
225.0
  0
LINE
  5
7F9
330
1A
100
AcDbEntity
  8
ZUWAKU
100
AcDbLine
 10
37.31485865051513
 20
19.20504706185211
 30
0.0
 11
36.05010690517929
 21
15.19999986828871
 31
0.0
  0
LINE
  5
7FA
330
1A
100
AcDbEntity
  8
ZUWAKU
100
AcDbLine
 10
40.69221216833716
 20
22.72499986828868
 30
0.0
 11
40.69221216833716
 21
7.674999868288687
 31
0.0
  0
LINE
  5
7FB
330
1A
100
AcDbEntity
  8
ZUWAKU
100
AcDbLine
 10
43.49221216833712
 20
7.674999868288687
 30
0.0
 11
43.49221216833712
 21
22.72499986828868
 31
0.0
  0
LINE
  5
7FC
330
1A
100
AcDbEntity
  8
ZUWAKU
100
AcDbLine
 10
55.04221216833719
 20
22.72499986828868
 30
0.0
 11
55.04221216833719
 21
9.949999868288685
 31
0.0
  0
LINE
  5
7FD
330
1A
100
AcDbEntity
  8
ZUWAKU
100
AcDbLine
 10
57.84221216833714
 20
10.99999986828868
 30
0.0
 11
57.84221216833714
 21
22.72499986828868
 31
0.0
  0
LINE
  5
7FE
330
1A
100
AcDbEntity
  8
ZUWAKU
100
AcDbLine
 10
32.64221216833721
 20
17.12499986828869
 30
0.0
 11
32.64221216833721
 21
22.72499986828868
 31
0.0
  0
LINE
  5
7FF
330
1A
100
AcDbEntity
  8
ZUWAKU
100
AcDbLine
 10
29.84221216833714
 20
22.72499986828868
 30
0.0
 11
29.84221216833714
 21
7.674999868288687
 31
0.0
  0
LINE
  5
800
330
1A
100
AcDbEntity
  8
ZUWAKU
100
AcDbLine
 10
35.67634710565301
 20
22.88309383645566
 30
0.0
 11
33.80807723102123
 21
16.96690590012172
 31
0.0
  0
LINE
  5
801
330
1A
100
AcDbEntity
  8
ZUWAKU
100
AcDbLine
 10
60.29221216833719
 20
9.949999868288685
 30
0.0
 11
58.89221216833721
 21
9.949999868288685
 31
0.0
  0
LINE
  5
802
330
1A
100
AcDbEntity
  8
ZUWAKU
100
AcDbLine
 10
57.84221216833714
 20
7.149999868288688
 30
0.0
 11
61.34221216833714
 21
7.149999868288688
 31
0.0
  0
LINE
  5
803
330
1A
100
AcDbEntity
  8
ZUWAKU
100
AcDbLine
 10
41.21721216833714
 20
7.149999868288688
 30
0.0
 11
42.96721216833714
 21
7.149999868288688
 31
0.0
  0
LINE
  5
804
330
1A
100
AcDbEntity
  8
ZUWAKU
100
AcDbLine
 10
35.67634710565301
 20
7.516905900121714
 30
0.0
 11
33.80807723102123
 21
13.43309383645565
 31
0.0
  0
ARC
  5
805
330
1A
100
AcDbEntity
  8
ZUWAKU
100
AcDbCircle
 10
33.30744633182587
 20
17.12499986828869
 30
0.0
 40
0.5249999999999999
100
AcDbArc
 50
270.0
 51
342.474431626277
  0
LINE
  5
806
330
1A
100
AcDbEntity
  8
ZUWAKU
100
AcDbLine
 10
33.30744633182587
 20
16.59999986828868
 30
0.0
 11
33.16721216833719
 21
16.59999986828868
 31
0.0
  0
LINE
  5
807
330
1A
100
AcDbEntity
  8
ZUWAKU
100
AcDbLine
 10
33.16721216833719
 20
13.79999986828869
 30
0.0
 11
33.30744633182587
 21
13.79999986828869
 31
0.0
  0
ARC
  5
808
330
1A
100
AcDbEntity
  8
ZUWAKU
100
AcDbCircle
 10
33.16721216833719
 20
17.12499986828869
 30
0.0
 40
0.5249999999999999
100
AcDbArc
 50
180.0
 51
270.0
  0
LINE
  5
809
330
1A
100
AcDbEntity
  8
ZUWAKU
100
AcDbLine
 10
30.36721216833712
 20
7.149999868288688
 30
0.0
 11
32.11721216833712
 21
7.149999868288688
 31
0.0
  0
ARC
  5
80A
330
1A
100
AcDbEntity
  8
ZUWAKU
100
AcDbCircle
 10
32.11721216833712
 20
7.674999868288687
 30
0.0
 40
0.5249999999999999
100
AcDbArc
 50
270.0
 51
0.0
  0
LINE
  5
80B
330
1A
100
AcDbEntity
  8
ZUWAKU
100
AcDbLine
 10
32.64221216833721
 20
7.674999868288687
 30
0.0
 11
32.64221216833721
 21
13.27499986828869
 31
0.0
  0
LINE
  5
80C
330
1A
100
AcDbEntity
  8
ZUWAKU
100
AcDbLine
 10
27.39221216833721
 20
9.424999868288687
 30
0.0
 11
27.39221216833721
 21
7.674999868288687
 31
0.0
  0
ARC
  5
80D
330
1A
100
AcDbEntity
  8
ZUWAKU
100
AcDbCircle
 10
26.86721216833712
 20
7.674999868288687
 30
0.0
 40
0.5249999999999999
100
AcDbArc
 50
270.0
 51
0.0
  0
ARC
  5
80E
330
1A
100
AcDbEntity
  8
ZUWAKU
100
AcDbCircle
 10
26.86721216833712
 20
9.424999868288687
 30
0.0
 40
0.5249999999999999
100
AcDbArc
 50
0.0
 51
90.0
  0
ARC
  5
80F
330
1A
100
AcDbEntity
  8
ZUWAKU
100
AcDbCircle
 10
30.36721216833712
 20
7.674999868288687
 30
0.0
 40
0.5249999999999999
100
AcDbArc
 50
180.0
 51
270.0
  0
ARC
  5
810
330
1A
100
AcDbEntity
  8
ZUWAKU
100
AcDbCircle
 10
33.30744633182587
 20
13.27499986828869
 30
0.0
 40
0.5249999999999999
100
AcDbArc
 50
17.52556837372303
 51
90.0
  0
ARC
  5
811
330
1A
100
AcDbEntity
  8
ZUWAKU
100
AcDbCircle
 10
33.16721216833719
 20
13.27499986828869
 30
0.0
 40
0.5249999999999999
100
AcDbArc
 50
90.0
 51
180.0
  0
ARC
  5
812
330
1A
100
AcDbEntity
  8
ZUWAKU
100
AcDbCircle
 10
41.21721216833714
 20
7.674999868288687
 30
0.0
 40
0.5249999999999999
100
AcDbArc
 50
180.0
 51
270.0
  0
LINE
  5
813
330
1A
100
AcDbEntity
  8
ZUWAKU
100
AcDbLine
 10
36.17697800484848
 20
7.149999868288688
 30
0.0
 11
37.87586738445748
 21
7.149999868288688
 31
0.0
  0
ARC
  5
814
330
1A
100
AcDbEntity
  8
ZUWAKU
100
AcDbCircle
 10
37.87586738445748
 20
7.674999868288687
 30
0.0
 40
0.5249999999999999
100
AcDbArc
 50
270.0
 51
17.52556837372303
  0
LINE
  5
815
330
1A
100
AcDbEntity
  8
ZUWAKU
100
AcDbLine
 10
38.37649828365295
 20
7.83309383645566
 30
0.0
 11
36.05010690517929
 21
15.19999986828871
 31
0.0
  0
ARC
  5
816
330
1A
100
AcDbEntity
  8
ZUWAKU
100
AcDbCircle
 10
36.17697800484848
 20
7.674999868288687
 30
0.0
 40
0.5249999999999999
100
AcDbArc
 50
197.525568373723
 51
270.0
  0
ARC
  5
817
330
1A
100
AcDbEntity
  8
ZUWAKU
100
AcDbCircle
 10
57.84221216833714
 20
9.949999868288685
 30
0.0
 40
2.8
100
AcDbArc
 50
180.0
 51
270.0
  0
ARC
  5
818
330
1A
100
AcDbEntity
  8
ZUWAKU
100
AcDbCircle
 10
50.14221216833721
 20
9.949999868288685
 30
0.0
 40
2.8
100
AcDbArc
 50
270.0
 51
0.0
  0
LINE
  5
819
330
1A
100
AcDbEntity
  8
ZUWAKU
100
AcDbLine
 10
51.71206064932073
 20
14.73505037462751
 30
0.0
 11
48.80226267467594
 21
17.64484834927219
 31
0.0
  0
LINE
  5
81A
330
1A
100
AcDbEntity
  8
ZUWAKU
100
AcDbLine
 10
50.14221216833721
 20
10.47499986828869
 30
0.0
 11
50.14221216833721
 21
11.76520189364403
 31
0.0
  0
ARC
  5
81B
330
1A
100
AcDbEntity
  8
ZUWAKU
100
AcDbCircle
 10
48.74221216833712
 20
11.76520189364403
 30
0.0
 40
1.4
100
AcDbArc
 50
0.0
 51
45.0
  0
ARC
  5
81C
330
1A
100
AcDbEntity
  8
ZUWAKU
100
AcDbCircle
 10
49.61721216833712
 20
10.47499986828869
 30
0.0
 40
0.5249999999999999
100
AcDbArc
 50
270.0
 51
0.0
  0
LINE
  5
81D
330
1A
100
AcDbEntity
  8
ZUWAKU
100
AcDbLine
 10
46.11721216833712
 20
7.674999868288687
 30
0.0
 11
46.11721216833712
 21
9.424999868288687
 31
0.0
  0
ARC
  5
81E
330
1A
100
AcDbEntity
  8
ZUWAKU
100
AcDbCircle
 10
46.64221216833721
 20
7.674999868288687
 30
0.0
 40
0.5249999999999999
100
AcDbArc
 50
180.0
 51
270.0
  0
ARC
  5
81F
330
1A
100
AcDbEntity
  8
ZUWAKU
100
AcDbCircle
 10
42.96721216833714
 20
7.674999868288687
 30
0.0
 40
0.5249999999999999
100
AcDbArc
 50
270.0
 51
0.0
  0
ARC
  5
820
330
1A
100
AcDbEntity
  8
ZUWAKU
100
AcDbCircle
 10
46.64221216833721
 20
9.424999868288687
 30
0.0
 40
0.5249999999999999
100
AcDbArc
 50
90.0
 51
180.0
  0
LINE
  5
821
330
1A
100
AcDbEntity
  8
ZUWAKU
100
AcDbLine
 10
46.64221216833721
 20
9.949999868288685
 30
0.0
 11
49.61721216833712
 21
9.949999868288685
 31
0.0
  0
LINE
  5
822
330
1A
100
AcDbEntity
  8
ZUWAKU
100
AcDbLine
 10
46.64221216833721
 20
7.149999868288688
 30
0.0
 11
50.14221216833721
 21
7.149999868288688
 31
0.0
  0
LINE
  5
823
330
1A
100
AcDbEntity
  8
ZUWAKU
100
AcDbLine
 10
46.82236368735369
 20
15.66494936194987
 30
0.0
 11
49.73216166199836
 21
12.7551513873052
 31
0.0
  0
LINE
  5
824
330
1A
100
AcDbEntity
  8
ZUWAKU
100
AcDbLine
 10
52.94221216833716
 20
9.949999868288685
 30
0.0
 11
52.94221216833716
 21
11.76520189364403
 31
0.0
  0
ARC
  5
825
330
1A
100
AcDbEntity
  8
ZUWAKU
100
AcDbCircle
 10
48.74221216833712
 20
11.76520189364399
 30
0.0
 40
4.199999999999999
100
AcDbArc
 50
0.0
 51
45.0
  0
ARC
  5
826
330
1A
100
AcDbEntity
  8
ZUWAKU
100
AcDbCircle
 10
58.89221216833721
 20
10.99999986828868
 30
0.0
 40
1.05
100
AcDbArc
 50
180.0
 51
270.0
  0
ARC
  5
827
330
1A
100
AcDbEntity
  8
ZUWAKU
100
AcDbCircle
 10
61.34221216833714
 20
9.949999868288685
 30
0.0
 40
2.8
100
AcDbArc
 50
270.0
 51
0.0
  0
LINE
  5
828
330
1A
100
AcDbEntity
  8
ZUWAKU
100
AcDbLine
 10
66.76721216833721
 20
7.149999868288688
 30
0.0
 11
68.51721216833721
 21
7.149999868288688
 31
0.0
  0
ARC
  5
829
330
1A
100
AcDbEntity
  8
ZUWAKU
100
AcDbCircle
 10
66.76721216833721
 20
7.674999868288687
 30
0.0
 40
0.5249999999999999
100
AcDbArc
 50
180.0
 51
270.0
  0
ARC
  5
82A
330
1A
100
AcDbEntity
  8
ZUWAKU
100
AcDbCircle
 10
60.29221216833719
 20
10.99999986828868
 30
0.0
 40
1.05
100
AcDbArc
 50
270.0
 51
0.0
  0
ARC
  5
82B
330
1A
100
AcDbEntity
  8
ZUWAKU
100
AcDbCircle
 10
68.51721216833721
 20
7.674999868288687
 30
0.0
 40
0.5249999999999999
100
AcDbArc
 50
270.0
 51
0.0
  0
LINE
  5
82C
330
1A
100
AcDbEntity
  8
ZUWAKU
100
AcDbLine
 10
42.96721216833714
 20
23.24999986828869
 30
0.0
 11
41.21721216833714
 21
23.24999986828869
 31
0.0
  0
ARC
  5
82D
330
1A
100
AcDbEntity
  8
ZUWAKU
100
AcDbCircle
 10
32.11721216833712
 20
22.72499986828868
 30
0.0
 40
0.5249999999999999
100
AcDbArc
 50
0.0
 51
90.0
  0
LINE
  5
82E
330
1A
100
AcDbEntity
  8
ZUWAKU
100
AcDbLine
 10
32.11721216833712
 20
23.24999986828869
 30
0.0
 11
30.36721216833712
 21
23.24999986828869
 31
0.0
  0
ARC
  5
82F
330
1A
100
AcDbEntity
  8
ZUWAKU
100
AcDbCircle
 10
26.86721216833712
 20
22.72499986828868
 30
0.0
 40
0.5249999999999999
100
AcDbArc
 50
0.0
 51
90.0
  0
ARC
  5
830
330
1A
100
AcDbEntity
  8
ZUWAKU
100
AcDbCircle
 10
30.36721216833712
 20
22.72499986828868
 30
0.0
 40
0.5249999999999999
100
AcDbArc
 50
90.0
 51
180.0
  0
ARC
  5
831
330
1A
100
AcDbEntity
  8
ZUWAKU
100
AcDbCircle
 10
26.86721216833712
 20
20.97499986828868
 30
0.0
 40
0.5249999999999999
100
AcDbArc
 50
270.0
 51
0.0
  0
LINE
  5
832
330
1A
100
AcDbEntity
  8
ZUWAKU
100
AcDbLine
 10
27.39221216833721
 20
22.72499986828868
 30
0.0
 11
27.39221216833721
 21
20.97499986828868
 31
0.0
  0
ARC
  5
833
330
1A
100
AcDbEntity
  8
ZUWAKU
100
AcDbCircle
 10
41.21721216833714
 20
22.72499986828868
 30
0.0
 40
0.5249999999999999
100
AcDbArc
 50
90.0
 51
180.0
  0
LINE
  5
834
330
1A
100
AcDbEntity
  8
ZUWAKU
100
AcDbLine
 10
36.17697800484848
 20
23.24999986828869
 30
0.0
 11
37.87586738445748
 21
23.24999986828869
 31
0.0
  0
ARC
  5
835
330
1A
100
AcDbEntity
  8
ZUWAKU
100
AcDbCircle
 10
37.87586738445748
 20
22.72499986828868
 30
0.0
 40
0.5249999999999999
100
AcDbArc
 50
342.474431626277
 51
90.0
  0
LINE
  5
836
330
1A
100
AcDbEntity
  8
ZUWAKU
100
AcDbLine
 10
38.37649828365295
 20
22.56690590012172
 30
0.0
 11
37.31485865051513
 21
19.20504706185211
 31
0.0
  0
ARC
  5
837
330
1A
100
AcDbEntity
  8
ZUWAKU
100
AcDbCircle
 10
36.17697800484848
 20
22.72499986828868
 30
0.0
 40
0.5249999999999999
100
AcDbArc
 50
90.0
 51
162.474431626277
  0
LINE
  5
838
330
1A
100
AcDbEntity
  8
ZUWAKU
100
AcDbLine
 10
48.39221216833721
 20
23.24999986828869
 30
0.0
 11
51.89221216833721
 21
23.24999986828869
 31
0.0
  0
LINE
  5
839
330
1A
100
AcDbEntity
  8
ZUWAKU
100
AcDbLine
 10
51.89221216833721
 20
20.44999986828869
 30
0.0
 11
48.91721216833719
 21
20.44999986828869
 31
0.0
  0
ARC
  5
83A
330
1A
100
AcDbEntity
  8
ZUWAKU
100
AcDbCircle
 10
48.91721216833719
 20
19.92499986828869
 30
0.0
 40
0.5249999999999999
100
AcDbArc
 50
90.0
 51
180.0
  0
LINE
  5
83B
330
1A
100
AcDbEntity
  8
ZUWAKU
100
AcDbLine
 10
48.39221216833721
 20
19.92499986828869
 30
0.0
 11
48.39221216833721
 21
18.63479784293335
 31
0.0
  0
ARC
  5
83C
330
1A
100
AcDbEntity
  8
ZUWAKU
100
AcDbCircle
 10
42.96721216833714
 20
22.72499986828868
 30
0.0
 40
0.5249999999999999
100
AcDbArc
 50
0.0
 51
90.0
  0
LINE
  5
83D
330
1A
100
AcDbEntity
  8
ZUWAKU
100
AcDbLine
 10
45.59221216833714
 20
20.44999986828869
 30
0.0
 11
45.59221216833714
 21
18.63479784293335
 31
0.0
  0
ARC
  5
83E
330
1A
100
AcDbEntity
  8
ZUWAKU
100
AcDbCircle
 10
48.39221216833721
 20
20.44999986828869
 30
0.0
 40
2.8
100
AcDbArc
 50
90.0
 51
180.0
  0
ARC
  5
83F
330
1A
100
AcDbEntity
  8
ZUWAKU
100
AcDbCircle
 10
57.31721216833716
 20
22.72499986828868
 30
0.0
 40
0.5249999999999999
100
AcDbArc
 50
0.0
 51
90.0
  0
ARC
  5
840
330
1A
100
AcDbEntity
  8
ZUWAKU
100
AcDbCircle
 10
55.56721216833716
 20
22.72499986828868
 30
0.0
 40
0.5249999999999999
100
AcDbArc
 50
90.0
 51
180.0
  0
LINE
  5
841
330
1A
100
AcDbEntity
  8
ZUWAKU
100
AcDbLine
 10
57.31721216833716
 20
23.24999986828869
 30
0.0
 11
55.56721216833716
 21
23.24999986828869
 31
0.0
  0
ARC
  5
842
330
1A
100
AcDbEntity
  8
ZUWAKU
100
AcDbCircle
 10
51.89221216833721
 20
22.72499986828868
 30
0.0
 40
0.5249999999999999
100
AcDbArc
 50
0.0
 51
90.0
  0
ARC
  5
843
330
1A
100
AcDbEntity
  8
ZUWAKU
100
AcDbCircle
 10
51.89221216833721
 20
20.97499986828868
 30
0.0
 40
0.5249999999999999
100
AcDbArc
 50
270.0
 51
0.0
  0
LINE
  5
844
330
1A
100
AcDbEntity
  8
ZUWAKU
100
AcDbLine
 10
52.41721216833719
 20
22.72499986828868
 30
0.0
 11
52.41721216833719
 21
20.97499986828868
 31
0.0
  0
LINE
  5
845
330
1A
100
AcDbEntity
  8
ZUWAKU
100
AcDbLine
 10
68.51721216833721
 20
23.24999986828869
 30
0.0
 11
66.76721216833721
 21
23.24999986828869
 31
0.0
  0
ARC
  5
846
330
1A
100
AcDbEntity
  8
ZUWAKU
100
AcDbCircle
 10
66.76721216833721
 20
22.72499986828868
 30
0.0
 40
0.5249999999999999
100
AcDbArc
 50
90.0
 51
180.0
  0
ARC
  5
847
330
1A
100
AcDbEntity
  8
ZUWAKU
100
AcDbCircle
 10
63.61721216833712
 20
22.72499986828868
 30
0.0
 40
0.5249999999999999
100
AcDbArc
 50
0.0
 51
90.0
  0
LINE
  5
848
330
1A
100
AcDbEntity
  8
ZUWAKU
100
AcDbLine
 10
63.61721216833712
 20
23.24999986828869
 30
0.0
 11
61.86721216833712
 21
23.24999986828869
 31
0.0
  0
ARC
  5
849
330
1A
100
AcDbEntity
  8
ZUWAKU
100
AcDbCircle
 10
61.86721216833712
 20
22.72499986828868
 30
0.0
 40
0.5249999999999999
100
AcDbArc
 50
90.0
 51
180.0
  0
ARC
  5
84A
330
1A
100
AcDbEntity
  8
ZUWAKU
100
AcDbCircle
 10
68.51721216833721
 20
22.72499986828868
 30
0.0
 40
0.5249999999999999
100
AcDbArc
 50
0.0
 51
90.0
  0
TEXT
  5
84B
330
1A
100
AcDbEntity
  8
moji
100
AcDbText
 10
239.8272026944071
 20
18.00492092569607
 30
0.0
 40
5.6
  1
４５°止り（右・左）
 41
0.9
  7
ｽﾀｲﾙ1
100
AcDbText
  0
TEXT
  5
84C
330
1A
100
AcDbEntity
  8
moji
100
AcDbText
 10
239.8272026944071
 20
3.204920925696104
 30
0.0
 40
5.6
  1
Σ９０
 41
0.9
  7
ｽﾀｲﾙ1
100
AcDbText
  0
LINE
  5
84D
330
1A
100
AcDbEntity
  8
ZUWAKU
100
AcDbLine
 10
208.246601303624
 20
29.99999986828868
 30
0.0
 11
208.246601303624
 21
0.7999998682887508
 31
0.0
  0
LINE
  5
84E
330
1A
100
AcDbEntity
  8
ZUWAKU
100
AcDbLine
 10
208.6466013036238
 20
29.99999986828868
 30
0.0
 11
208.646601303624
 21
0.7999998682887508
 31
0.0
  0
LINE
  5
84F
330
1A
100
AcDbEntity
  8
ZUWAKU
100
AcDbLine
 10
208.4466013036238
 20
29.99999986828868
 30
0.0
 11
208.446601303624
 21
0.7999998682887508
 31
0.0
  0
TEXT
  5
850
330
1A
100
AcDbEntity
  8
ZUWAKU
100
AcDbText
 10
209.7240463258336
 20
9.655356406674301
 30
0.0
 40
4.0
  1
サイズ
 41
0.9
  7
ｽﾀｲﾙ1
100
AcDbText
  0
TEXT
  5
851
330
1A
100
AcDbEntity
  8
ZUWAKU
100
AcDbText
 10
209.7240463258333
 20
24.05535640667426
 30
0.0
 40
4.0
  1
品名
 41
0.9
  7
ｽﾀｲﾙ1
100
AcDbText
  0
LINE
  5
852
330
1A
100
AcDbEntity
  8
ZUWAKU
100
AcDbLine
 10
648.8172025237602
 20
15.19999986828871
 30
0.0
 11
697.2490105620973
 21
15.19999986828872
 31
0.0
  0
LINE
  5
853
330
1A
100
AcDbEntity
  8
ZUWAKU
100
AcDbLine
 10
648.8172025237604
 20
15.39999986828872
 30
0.0
 11
697.2490105620973
 21
15.39999986828872
 31
0.0
  0
LINE
  5
854
330
1A
100
AcDbEntity
  8
ZUWAKU
100
AcDbLine
 10
648.8172025237602
 20
15.59999986828872
 30
0.0
 11
697.2490105620973
 21
15.59999986828872
 31
0.0
  0
TEXT
  5
855
330
1A
100
AcDbEntity
  8
ZUWAKU
100
AcDbText
 10
658.2039377008584
 20
18.00492092569607
 30
0.0
 40
5.6
  1
　　．　　．　　
 41
0.9
  7
ｽﾀｲﾙ1
100
AcDbText
  0
LINE
  5
856
330
1A
100
AcDbEntity
  8
ZUWAKU
100
AcDbLine
 10
505.1991795116969
 20
15.19999986828872
 30
0.0
 11
552.5269557796685
 21
15.19999986828872
 31
0.0
  0
LINE
  5
857
330
1A
100
AcDbEntity
  8
ZUWAKU
100
AcDbLine
 10
505.1991795116969
 20
15.39999986828872
 30
0.0
 11
552.5269557796685
 21
15.39999986828872
 31
0.0
  0
LINE
  5
858
330
1A
100
AcDbEntity
  8
ZUWAKU
100
AcDbLine
 10
505.1991795116969
 20
15.59999986828872
 30
0.0
 11
552.5269557796685
 21
15.59999986828872
 31
0.0
  0
TEXT
  5
859
330
1A
100
AcDbEntity
  8
moji
100
AcDbText
 10
463.2464320045581
 20
11.94261758994867
 30
0.0
 40
5.6
  1
ＧＮ２２□
 41
0.9
  7
ｽﾀｲﾙ1
100
AcDbText
  0
LINE
  5
85A
330
1A
100
AcDbEntity
  8
ZUWAKU
100
AcDbLine
 10
447.6243639845472
 20
29.99999986828868
 30
0.0
 11
447.6243639845475
 21
0.7999998682887508
 31
0.0
  0
LINE
  5
85B
330
1A
100
AcDbEntity
  8
ZUWAKU
100
AcDbLine
 10
447.8243639845473
 20
29.99999986828868
 30
0.0
 11
447.8243639845475
 21
0.7999998682887508
 31
0.0
  0
LINE
  5
85C
330
1A
100
AcDbEntity
  8
ZUWAKU
100
AcDbLine
 10
447.4243639845474
 20
29.99999986828868
 30
0.0
 11
447.4243639845474
 21
0.7999998682887508
 31
0.0
  0
TEXT
  5
85D
330
1A
100
AcDbEntity
  8
moji
100
AcDbText
 10
528.0409079858689
 20
18.00492092569607
 30
0.0
 40
5.6
  1
Ａ３
 41
0.9
  7
ｽﾀｲﾙ1
100
AcDbText
  0
LINE
  5
85E
330
1A
100
AcDbEntity
  8
ZUWAKU
100
AcDbLine
 10
504.9991795116969
 20
29.99999986828868
 30
0.0
 11
504.9991795116971
 21
0.7999998682887508
 31
0.0
  0
LINE
  5
85F
330
1A
100
AcDbEntity
  8
ZUWAKU
100
AcDbLine
 10
505.1991795116969
 20
29.99999986828868
 30
0.0
 11
505.1991795116971
 21
0.7999998682887508
 31
0.0
  0
LINE
  5
860
330
1A
100
AcDbEntity
  8
ZUWAKU
100
AcDbLine
 10
504.7991795116971
 20
29.99999986828868
 30
0.0
 11
504.7991795116971
 21
0.7999998682887508
 31
0.0
  0
TEXT
  5
861
330
1A
100
AcDbEntity
  8
ZUWAKU
100
AcDbText
 10
462.1716760137122
 20
2.614070779428175
 30
0.0
 40
3.0
  1
□には色品番が入ります
 41
0.9
  7
ｽﾀｲﾙ1
100
AcDbText
  0
TEXT
  5
862
330
1A
100
AcDbEntity
  8
ZUWAKU
100
AcDbText
 10
506.6766245339068
 20
9.655356406674301
 30
0.0
 40
4.0
  1
縮尺
 41
0.9
  7
ｽﾀｲﾙ1
100
AcDbText
  0
TEXT
  5
863
330
1A
100
AcDbEntity
  8
moji
100
AcDbText
 10
528.0409079858689
 20
3.204920925696104
 30
0.0
 40
5.6
  1
１/２
 41
0.9
  7
ｽﾀｲﾙ1
100
AcDbText
  0
TEXT
  5
864
330
1A
100
AcDbEntity
  8
ZUWAKU
100
AcDbText
 10
449.3018090067569
 20
24.05535640667426
 30
0.0
 40
4.0
  1
品番
 41
0.9
  7
ｽﾀｲﾙ1
100
AcDbText
  0
TEXT
  5
865
330
1A
100
AcDbEntity
  8
ZUWAKU
100
AcDbText
 10
506.6766245339065
 20
24.05535640667426
 30
0.0
 40
4.0
  1
用紙
 41
0.9
  7
ｽﾀｲﾙ1
100
AcDbText
  0
LINE
  5
866
330
1A
100
AcDbEntity
  8
ZUWAKU
100
AcDbLine
 10
648.6172025237604
 20
29.99999986828868
 30
0.0
 11
648.6172025237606
 21
0.7999998682887508
 31
0.0
  0
LINE
  5
867
330
1A
100
AcDbEntity
  8
ZUWAKU
100
AcDbLine
 10
648.8172025237604
 20
29.99999986828868
 30
0.0
 11
648.8172025237607
 21
0.7999998682887508
 31
0.0
  0
LINE
  5
868
330
1A
100
AcDbEntity
  8
ZUWAKU
100
AcDbLine
 10
648.4172025237606
 20
29.99999986828868
 30
0.0
 11
648.4172025237606
 21
0.7999998682887508
 31
0.0
  0
LINE
  5
869
330
1A
100
AcDbEntity
  8
ZUWAKU
100
AcDbLine
 10
552.7269557796683
 20
29.99999986828868
 30
0.0
 11
552.7269557796685
 21
0.7999998682887508
 31
0.0
  0
LINE
  5
86A
330
1A
100
AcDbEntity
  8
ZUWAKU
100
AcDbLine
 10
552.9269557796683
 20
29.99999986828868
 30
0.0
 11
552.9269557796686
 21
0.7999998682887508
 31
0.0
  0
LINE
  5
86B
330
1A
100
AcDbEntity
  8
ZUWAKU
100
AcDbLine
 10
552.5269557796685
 20
29.99999986828868
 30
0.0
 11
552.5269557796685
 21
0.7999998682887508
 31
0.0
  0
TEXT
  5
86C
330
1A
100
AcDbEntity
  8
ZUWAKU
100
AcDbText
 10
650.2946475459701
 20
24.05535640667426
 30
0.0
 40
4.0
  1
DATE
 41
0.9
  7
ｽﾀｲﾙ1
100
AcDbText
  0
LINE
  5
86D
330
1A
100
AcDbEntity
  8
ZUWAKU
100
AcDbLine
 10
697.2490105620973
 20
29.99999986828868
 30
0.0
 11
697.2490105620973
 21
0.7999998682887508
 31
0.0
  0
LINE
  5
86E
330
1A
100
AcDbEntity
  8
ZUWAKU
100
AcDbLine
 10
697.4490105620973
 20
29.99999986828868
 30
0.0
 11
697.4490105620973
 21
0.7999998682887508
 31
0.0
  0
LINE
  5
86F
330
1A
100
AcDbEntity
  8
ZUWAKU
100
AcDbLine
 10
697.6490105620972
 20
29.99999986828868
 30
0.0
 11
697.6490105620974
 21
0.7999998682887508
 31
0.0
  0
LINE
  5
870
330
1A
100
AcDbEntity
  8
ZUWAKU
100
AcDbLine
 10
697.8490105620972
 20
29.99999986828868
 30
0.0
 11
697.8490105620974
 21
0.7999998682887508
 31
0.0
  0
TEXT
  5
871
330
1A
100
AcDbEntity
  8
ZUWAKU
100
AcDbText
 10
708.5280842057998
 20
17.55383920397549
 30
0.0
 40
6.0
  1
積水化学工業株式会社
 41
0.9
  7
ｽﾀｲﾙ1
100
AcDbText
  0
TEXT
  5
872
330
1A
100
AcDbEntity
  8
ZUWAKU
100
AcDbText
 10
708.5280842057998
 20
6.648840182142749
 30
0.0
 40
6.0
  1
建材事業部
 41
0.9
  7
ｽﾀｲﾙ1
100
AcDbText
  0
LINE
  5
17C9
330
1A
100
AcDbEntity
  8
SEIHIN
  6
Continuous
 62
     3
 48
5.0
100
AcDbLine
 10
161.3749399114738
 20
176.9257295930738
 30
0.0
 11
42.92193991147383
 21
176.9256295930738
 31
0.0
  0
LINE
  5
17CA
330
1A
100
AcDbEntity
  8
SEIHIN
  6
Continuous
 62
     3
 48
5.0
100
AcDbLine
 10
161.3747399114736
 20
225.2396295930739
 30
0.0
 11
14.62643991147388
 21
225.2393295930738
 31
0.0
  0
LINE
  5
17CB
330
1A
100
AcDbEntity
  8
SEIHIN
  6
Continuous
 62
     3
 48
5.0
100
AcDbLine
 10
14.77303991147369
 20
245.2395295930739
 30
0.0
 11
166.3747399114736
 21
245.2396295930739
 31
0.0
  0
LINE
  5
17CC
330
1A
100
AcDbEntity
  8
SEIHIN
  6
Continuous
 62
     3
 48
5.0
100
AcDbLine
 10
161.3749399114738
 20
162.2396295930738
 30
0.0
 11
45.96403991147395
 21
162.2393295930738
 31
0.0
  0
LINE
  5
17CD
330
1A
100
AcDbEntity
  8
SEIHIN
  6
Continuous
 62
     3
 48
5.0
100
AcDbLine
 10
21.17503991147373
 20
225.2395295930739
 30
0.0
 11
13.87473991147363
 21
225.2395295930739
 31
0.0
  0
LINE
  5
17CE
330
1A
100
AcDbEntity
  8
SEIHIN
  6
Continuous
 62
     3
 48
5.0
100
AcDbLine
 10
11.79623991147378
 20
241.8674295930738
 30
0.0
 11
13.87473991147363
 21
225.2395295930739
 31
0.0
  0
ARC
  5
17CF
330
1A
100
AcDbEntity
  8
SEIHIN
  6
Continuous
 62
     3
 48
5.0
100
AcDbCircle
 10
14.77305487103854
 20
242.239546539003
 30
0.0
 40
2.999983054108227
100
AcDbArc
 50
90.0002857082581
 51
187.1253020571602
  0
LINE
  5
17D0
330
1A
100
AcDbEntity
  8
SEIHIN
  6
Continuous
 62
     3
 48
5.0
100
AcDbLine
 10
29.09703991147376
 20
218.3540295930738
 30
0.0
 11
32.88043991147379
 21
191.4601295930739
 31
0.0
  0
ARC
  5
17D1
330
1A
100
AcDbEntity
  8
SEIHIN
  6
Continuous
 62
     3
 48
5.0
100
AcDbCircle
 10
52.19076756980428
 20
194.1742897831742
 30
0.0
 40
19.50007706231925
100
AcDbArc
 50
188.0079341164671
 51
241.5718750608278
  0
LINE
  5
17D2
330
1A
100
AcDbEntity
  8
SEIHIN
  6
Continuous
 62
     3
 48
5.0
100
AcDbLine
 10
44.76043991147367
 20
164.0566295930738
 30
0.0
 11
42.90763991147378
 21
177.0256295930739
 31
0.0
  0
ARC
  5
17D3
330
1A
100
AcDbEntity
  8
SEIHIN
  6
Continuous
 62
     3
 48
5.0
100
AcDbCircle
 10
46.74023466225913
 20
164.3395341455634
 30
0.0
 40
2.000004552496374
100
AcDbArc
 50
188.1318732947264
 51
270.0001503785791
  0
ARC
  5
17D4
330
1A
100
AcDbEntity
  8
SEIHIN
  6
Continuous
 62
     3
 48
5.0
100
AcDbCircle
 10
21.1750468955554
 20
217.239523522766
 30
0.0
 40
8.000006070310995
100
AcDbArc
 50
8.008103336226927
 51
90.00005001976233
  0
TEXT
  5
17D5
330
1A
100
AcDbEntity
  8
SUNPOU
 62
     4
 48
5.0
100
AcDbText
 10
285.3733335021389
 20
101.3435396240684
 30
0.0
 40
8.0
  1
左
100
AcDbText
  0
DIMENSION
  5
17D6
330
1A
100
AcDbEntity
  8
SUNPOU
100
AcDbDimension
  2
*D1
 10
336.2709222953311
 20
128.2320701327833
 30
0.0
 11
289.6980705560858
 21
133.2320701327833
 31
0.0
 70
    32
 71
     5
 42
93.14570347849039
  3
STANDARD
100
AcDbAlignedDimension
 13
243.1252188168407
 23
162.2395295930739
 33
0.0
 14
336.2709222953311
 24
162.2395295930739
 34
0.0
100
AcDbRotatedDimension
1001
ACAD
1000
DSTYLE
1002
{
1070
   140
1040
6.0
1070
    74
1070
     0
1070
   172
1070
     1
1070
    73
1070
     0
1070
   272
1070
     2
1070
    77
1070
     3
1070
   173
1070
     1
1070
   147
1040
2.0
1070
    42
1040
6.0
1070
    44
1040
3.0
1070
    43
1040
14.0
1070
   271
1070
     0
1070
   178
1070
     4
1070
   177
1070
     4
1070
   176
1070
     4
1070
   141
1040
150.0
1070
     7
1000
_OPEN
1070
     6
1000
_OPEN
1070
    41
1040
7.0
1002
}
  0
LINE
  5
17D7
330
1A
100
AcDbEntity
  8
NOKITOI
  6
PHANTOM
 62
     8
 48
5.0
100
AcDbLine
 10
248.5892064226697
 20
165.5395295930739
 30
0.0
 11
330.2508064226697
 21
165.5395295930739
 31
0.0
  0
LINE
  5
17D8
330
1A
100
AcDbEntity
  8
NOKITOI
  6
PHANTOM
 62
     8
 48
5.0
100
AcDbLine
 10
246.5944064226698
 20
164.2395295930739
 30
0.0
 11
332.4486064226699
 21
164.2395295930739
 31
0.0
  0
LINE
  5
17D9
330
1A
100
AcDbEntity
  8
SEIHIN
  6
Continuous
 62
     3
 48
5.0
100
AcDbLine
 10
246.5944064226698
 20
164.2395295930739
 30
0.0
 11
332.4486064226697
 21
164.2395295930739
 31
0.0
  0
LINE
  5
17DA
330
1A
100
AcDbEntity
  8
SEIHIN
  6
Continuous
 62
     3
 48
5.0
100
AcDbLine
 10
244.8598064226698
 20
162.2395295930739
 30
0.0
 11
334.3598064226698
 21
162.2395295930739
 31
0.0
  0
LINE
  5
17DB
330
1A
100
AcDbEntity
  8
SEIHIN
  6
Continuous
 62
     3
 48
5.0
100
AcDbLine
 10
333.4042064226697
 20
163.2395295930739
 30
0.0
 11
245.7271064226698
 21
163.2395295930739
 31
0.0
  0
DIMENSION
  5
17DC
330
1A
100
AcDbEntity
  8
SUNPOU
 62
     4
 48
5.0
100
AcDbDimension
  2
*D2
 10
345.2416064226698
 20
277.0042909913987
 30
0.0
 11
277.5670756691968
 21
282.0042909913987
 31
0.0
 70
    32
 71
     5
 42
135.3490615069459
  3
STANDARD
100
AcDbAlignedDimension
 13
209.8925449157239
 23
242.1394969250963
 33
0.0
 14
345.2416064226698
 24
242.1394969250963
 34
0.0
100
AcDbRotatedDimension
1001
ACAD
1000
DSTYLE
1002
{
1070
   140
1040
6.0
1070
    74
1070
     0
1070
   172
1070
     1
1070
    73
1070
     0
1070
   272
1070
     2
1070
    77
1070
     3
1070
   173
1070
     1
1070
   147
1040
2.0
1070
    42
1040
6.0
1070
    44
1040
3.0
1070
    43
1040
14.0
1070
   271
1070
     0
1070
   178
1070
     4
1070
   177
1070
     4
1070
   176
1070
     4
1070
   141
1040
150.0
1070
     7
1000
_OPEN
1070
     6
1000
_OPEN
1070
    41
1040
7.0
1002
}
  0
LINE
  5
17DD
330
1A
100
AcDbEntity
  8
SEIHIN
  6
Continuous
 62
     3
 48
5.0
100
AcDbLine
 10
212.8926064226699
 20
245.1395295930739
 30
0.0
 11
342.2416064226699
 21
245.1395295930739
 31
0.0
  0
ARC
  5
17DE
330
1A
100
AcDbEntity
  8
NOKITOI
  6
PHANTOM
 62
     8
 48
5.0
100
AcDbCircle
 10
249.3896696562265
 20
210.0498796593727
 30
0.0
 40
17.49998460705382
100
AcDbArc
 50
187.9696597232933
 51
244.614478599316
  0
LINE
  5
17DF
330
1A
100
AcDbEntity
  8
NOKITOI
  6
PHANTOM
 62
     8
 48
5.0
100
AcDbLine
 10
229.0657064226699
 20
219.626029593074
 30
0.0
 11
232.9829064226699
 21
191.646329593074
 31
0.0
  0
LINE
  5
17E0
330
1A
100
AcDbEntity
  8
SEIHIN
  6
Continuous
 62
     3
 48
5.0
100
AcDbLine
 10
161.3749399114738
 20
162.2396295930738
 30
0.0
 11
161.3749399114738
 21
244.2103295930738
 31
0.0
  0
LINE
  5
17E1
330
1A
100
AcDbEntity
  8
SEIHIN
  6
Continuous
 62
     3
 48
5.0
100
AcDbLine
 10
166.3747399114736
 20
163.2396295930738
 30
0.0
 11
166.3747399114736
 21
245.2394295930738
 31
0.0
  0
LINE
  5
17E2
330
1A
100
AcDbEntity
  8
SEIHIN
  6
Continuous
 62
     3
 48
5.0
100
AcDbLine
 10
227.2165064226698
 20
218.2540295930739
 30
0.0
 11
231.0000064226698
 21
191.3602295930739
 31
0.0
  0
LINE
  5
17E3
330
1A
100
AcDbEntity
  8
SEIHIN
  6
Continuous
 62
     3
 48
5.0
100
AcDbLine
 10
231.99020642267
 20
191.4995295930739
 30
0.0
 11
228.2067064226698
 21
218.3934295930738
 31
0.0
  0
LINE
  5
17E4
330
1A
100
AcDbEntity
  8
SEIHIN
  6
Continuous
 62
     3
 48
5.0
100
AcDbLine
 10
232.9808064226697
 20
191.6364295930738
 30
0.0
 11
229.1971064226699
 21
218.5327295930739
 31
0.0
  0
DIMENSION
  5
17E5
330
1A
100
AcDbEntity
  8
SUNPOU
 62
     4
 48
5.0
100
AcDbDimension
  2
*D3
 10
183.4045980618771
 20
162.2395295930739
 30
0.0
 11
178.4045980618771
 21
203.689529593074
 31
0.0
 70
    32
 71
     5
 42
82.90000000000001
  3
STANDARD
100
AcDbAlignedDimension
 13
212.8926064226699
 23
245.1395295930739
 33
0.0
 14
244.8598064226698
 24
162.2395295930739
 34
0.0
 50
270.0
100
AcDbRotatedDimension
1001
ACAD
1000
DSTYLE
1002
{
1070
   140
1040
6.0
1070
    74
1070
     0
1070
   172
1070
     1
1070
    73
1070
     0
1070
   272
1070
     2
1070
    77
1070
     3
1070
   173
1070
     1
1070
   147
1040
2.0
1070
    42
1040
6.0
1070
    44
1040
3.0
1070
    43
1040
14.0
1070
   271
1070
     0
1070
   178
1070
     4
1070
   177
1070
     4
1070
   176
1070
     4
1070
   141
1040
150.0
1070
     7
1000
_OPEN
1070
     6
1000
_OPEN
1070
    41
1040
7.0
1002
}
  0
LINE
  5
17E6
330
1A
100
AcDbEntity
  8
SEIHIN
  6
Continuous
 62
     3
 48
5.0
100
AcDbLine
 10
161.3749399114738
 20
176.9257295930738
 30
0.0
 11
166.3749399114738
 21
177.4258295930738
 31
0.0
  0
LINE
  5
17E7
330
1A
100
AcDbEntity
  8
SEIHIN
  6
Continuous
 62
     3
 48
5.0
100
AcDbLine
 10
161.3749399114738
 20
162.2396295930738
 30
0.0
 11
166.3749399114738
 21
163.2396295930738
 31
0.0
  0
ARC
  5
17E8
330
1A
100
AcDbEntity
  8
NOKITOI
  6
PHANTOM
 62
     8
 48
5.0
100
AcDbCircle
 10
248.5892311619838
 20
168.539508137087
 30
0.0
 40
2.99997854411512
100
AcDbArc
 50
188.1304401609561
 51
269.9995275105253
  0
ARC
  5
17E9
330
1A
100
AcDbEntity
  8
NOKITOI
  6
PHANTOM
 62
     8
 48
5.0
100
AcDbCircle
 10
250.3138616924161
 20
194.0726903099308
 30
0.0
 40
17.49996433219532
100
AcDbArc
 50
187.9693736291693
 51
244.7893872175535
  0
LINE
  5
17EA
330
1A
100
AcDbEntity
  8
NOKITOI
  6
PHANTOM
 62
     8
 48
5.0
100
AcDbLine
 10
245.6194064226698
 20
168.1152295930739
 30
0.0
 11
241.8873064226699
 21
194.239629593074
 31
0.0
  0
ARC
  5
17EB
330
1A
100
AcDbEntity
  8
SEIHIN
  6
Continuous
 62
     3
 48
5.0
100
AcDbCircle
 10
250.3102397300155
 20
194.0743844185693
 30
0.0
 40
17.50004525170499
100
AcDbArc
 50
188.0000636805371
 51
244.8026181175074
  0
ARC
  5
17EC
330
1A
100
AcDbEntity
  8
SEIHIN
  6
Continuous
 62
     3
 48
5.0
100
AcDbCircle
 10
250.3101978949303
 20
194.0744415211495
 30
0.0
 40
18.49999914824647
100
AcDbArc
 50
188.0081618679523
 51
243.1161484664535
  0
ARC
  5
17ED
330
1A
100
AcDbEntity
  8
SEIHIN
  6
Continuous
 62
     3
 48
5.0
100
AcDbCircle
 10
250.3101951203119
 20
194.0744458609081
 30
0.0
 40
19.50006022542585
100
AcDbArc
 50
188.0084041854835
 51
241.572312564913
  0
LINE
  5
17EE
330
1A
100
AcDbEntity
  8
NOKITOI
  6
PHANTOM
 62
     8
 48
5.0
100
AcDbLine
 10
242.8598064226698
 20
178.239529593074
 30
0.0
 11
244.6145064226698
 21
165.9566295930739
 31
0.0
  0
LINE
  5
17EF
330
1A
100
AcDbEntity
  8
SEIHIN
  6
Continuous
 62
     3
 48
5.0
100
AcDbLine
 10
242.8799064226699
 20
163.9567295930738
 30
0.0
 11
241.0272064226698
 21
176.9257295930738
 31
0.0
  0
LINE
  5
17F0
330
1A
100
AcDbEntity
  8
SEIHIN
  6
Continuous
 62
     3
 48
5.0
100
AcDbLine
 10
242.8598064226698
 20
178.2395295930739
 30
0.0
 11
244.6145064226698
 21
165.9567295930739
 31
0.0
  0
LINE
  5
17F1
330
1A
100
AcDbEntity
  8
SEIHIN
  6
Continuous
 62
     3
 48
5.0
100
AcDbLine
 10
243.7472064226698
 20
164.9567295930738
 30
0.0
 11
241.9447064226699
 21
177.5738295930739
 31
0.0
  0
ARC
  5
17F2
330
1A
100
AcDbEntity
  8
NOKITOI
  6
PHANTOM
 62
     8
 48
5.0
100
AcDbCircle
 10
246.5944011734551
 20
166.2395341455635
 30
0.0
 40
2.000004552496454
100
AcDbArc
 50
188.1318732947264
 51
270.0001503785779
  0
ARC
  5
17F3
330
1A
100
AcDbEntity
  8
SEIHIN
  6
Continuous
 62
     3
 48
5.0
100
AcDbCircle
 10
246.5944093267543
 20
166.2395270743207
 30
0.0
 40
1.999997481248931
100
AcDbArc
 50
188.1288037280686
 51
269.9999168040006
  0
ARC
  5
17F4
330
1A
100
AcDbEntity
  8
SEIHIN
  6
Continuous
 62
     3
 48
5.0
100
AcDbCircle
 10
244.8598093267544
 20
164.2395270743206
 30
0.0
 40
1.999997481248789
100
AcDbArc
 50
188.1288037280678
 51
269.999916803999
  0
ARC
  5
17F5
330
1A
100
AcDbEntity
  8
SEIHIN
  6
Continuous
 62
     3
 48
5.0
100
AcDbCircle
 10
245.7271093267543
 20
165.2395270743207
 30
0.0
 40
1.999997481248874
100
AcDbArc
 50
188.1288037280694
 51
269.9999168040023
  0
ARC
  5
17F6
330
1A
100
AcDbEntity
  8
NOKITOI
  6
PHANTOM
 62
     8
 48
5.0
100
AcDbCircle
 10
250.3138307728382
 20
194.0727382816565
 30
0.0
 40
16.19999005602697
100
AcDbArc
 50
187.9696639128037
 51
241.7088364731405
  0
LINE
  5
17F7
330
1A
100
AcDbEntity
  8
NOKITOI
  6
PHANTOM
 62
     8
 48
5.0
100
AcDbLine
 10
240.6969064226698
 20
193.380329593074
 30
0.0
 11
242.6358064226698
 21
179.807729593074
 31
0.0
  0
ARC
  5
17F8
330
1A
100
AcDbEntity
  8
NOKITOI
  6
PHANTOM
 62
     8
 48
5.0
100
AcDbCircle
 10
249.3896415912536
 20
210.0498923525074
 30
0.0
 40
18.7999459388005
100
AcDbArc
 50
209.402094483778
 51
242.4591529343751
  0
LINE
  5
17F9
330
1A
100
AcDbEntity
  8
NOKITOI
  6
PHANTOM
 62
     8
 48
5.0
100
AcDbLine
 10
233.0112064226698
 20
200.8203295930739
 30
0.0
 11
234.2703064226697
 21
191.8266295930739
 31
0.0
  0
ARC
  5
17FA
330
1A
100
AcDbEntity
  8
NOKITOI
  6
PHANTOM
 62
     8
 48
5.0
100
AcDbCircle
 10
216.0979853721384
 20
240.9396057471083
 30
0.0
 40
2.000023846076517
100
AcDbArc
 50
89.99939695388686
 51
187.1251239525234
  0
LINE
  5
17FB
330
1A
100
AcDbEntity
  8
NOKITOI
  6
PHANTOM
 62
     8
 48
5.0
100
AcDbLine
 10
212.7813064226699
 20
240.867529593074
 30
0.0
 11
214.3598064226698
 21
228.239629593074
 31
0.0
  0
ARC
  5
17FC
330
1A
100
AcDbEntity
  8
NOKITOI
  6
PHANTOM
 62
     8
 48
5.0
100
AcDbCircle
 10
215.7582213822346
 20
241.239646539003
 30
0.0
 40
2.999983054108306
100
AcDbArc
 50
90.00028570825587
 51
187.1253020571569
  0
ARC
  5
17FD
330
1A
100
AcDbEntity
  8
SEIHIN
  6
Continuous
 62
     3
 48
5.0
100
AcDbCircle
 10
215.1581213822346
 20
240.139546539003
 30
0.0
 40
2.999983054108252
100
AcDbArc
 50
90.00028570825749
 51
187.1253020571602
  0
ARC
  5
17FE
330
1A
100
AcDbEntity
  8
SEIHIN
  6
Continuous
 62
     3
 48
5.0
100
AcDbCircle
 10
214.642589401809
 20
228.1396446178482
 30
0.0
 40
1.000015024919181
100
AcDbArc
 50
187.1295447843793
 51
270.0009752088454
  0
LINE
  5
17FF
330
1A
100
AcDbEntity
  8
SEIHIN
  6
Continuous
 62
     3
 48
5.0
100
AcDbLine
 10
219.2945064226699
 20
225.1396295930738
 30
0.0
 11
211.9942064226699
 21
225.1396295930738
 31
0.0
  0
LINE
  5
1800
330
1A
100
AcDbEntity
  8
SEIHIN
  6
Continuous
 62
     3
 48
5.0
100
AcDbLine
 10
212.8770064226698
 20
226.1396295930738
 30
0.0
 11
219.2945064226699
 21
226.1396295930738
 31
0.0
  0
LINE
  5
1801
330
1A
100
AcDbEntity
  8
SEIHIN
  6
Continuous
 62
     3
 48
5.0
100
AcDbLine
 10
166.3747399114736
 20
245.2396295930739
 30
0.0
 11
161.3747399114736
 21
244.2103295930738
 31
0.0
  0
LINE
  5
1802
330
1A
100
AcDbEntity
  8
SEIHIN
  6
Continuous
 62
     3
 48
5.0
100
AcDbLine
 10
161.3747399114736
 20
225.2396295930739
 30
0.0
 11
166.3747399114736
 21
225.7396295930739
 31
0.0
  0
LINE
  5
1803
330
1A
100
AcDbEntity
  8
SEIHIN
  6
Continuous
 62
     3
 48
5.0
100
AcDbLine
 10
209.9157064226699
 20
241.7674295930738
 30
0.0
 11
211.9942064226699
 21
225.1396295930738
 31
0.0
  0
LINE
  5
1804
330
1A
100
AcDbEntity
  8
SEIHIN
  6
Continuous
 62
     3
 48
5.0
100
AcDbLine
 10
212.8770064226698
 20
226.1396295930738
 30
0.0
 11
210.6307064226697
 21
244.1103295930739
 31
0.0
  0
LINE
  5
1805
330
1A
100
AcDbEntity
  8
SEIHIN
  6
Continuous
 62
     3
 48
5.0
100
AcDbLine
 10
212.1813064226698
 20
239.7674295930738
 30
0.0
 11
213.6503064226698
 21
228.0155295930738
 31
0.0
  0
ARC
  5
1806
330
1A
100
AcDbEntity
  8
SEIHIN
  6
Continuous
 62
     3
 48
5.0
100
AcDbCircle
 10
212.8925775838401
 20
242.1394969250963
 30
0.0
 40
3.000032668116242
100
AcDbArc
 50
89.99944922491828
 51
187.1242286900855
  0
ARC
  5
1807
330
1A
100
AcDbEntity
  8
NOKITOI
  6
PHANTOM
 62
     8
 48
5.0
100
AcDbCircle
 10
219.1553003041908
 20
218.2904349661562
 30
0.0
 40
11.30001845330598
100
AcDbArc
 50
35.72477995922419
 51
61.69769299069353
  0
LINE
  5
1808
330
1A
100
AcDbEntity
  8
NOKITOI
  6
PHANTOM
 62
     8
 48
5.0
100
AcDbLine
 10
227.8598064226698
 20
228.239629593074
 30
0.0
 11
228.3361064226699
 21
224.8373295930738
 31
0.0
  0
ARC
  5
1809
330
1A
100
AcDbEntity
  8
NOKITOI
  6
PHANTOM
 62
     8
 48
5.0
100
AcDbCircle
 10
219.1622902262074
 20
218.2396436800938
 30
0.0
 40
9.999985912993367
100
AcDbArc
 50
7.969086351824309
 51
89.9999072009756
  0
LINE
  5
180A
330
1A
100
AcDbEntity
  8
NOKITOI
  6
PHANTOM
 62
     8
 48
5.0
100
AcDbLine
 10
228.9905064226699
 20
229.539629593074
 30
0.0
 11
232.0587064226698
 21
207.623529593074
 31
0.0
  0
ARC
  5
180B
330
1A
100
AcDbEntity
  8
SEIHIN
  6
Continuous
 62
     3
 48
5.0
100
AcDbCircle
 10
219.2945701146406
 20
217.1395742341304
 30
0.0
 40
10.00005535914638
100
AcDbArc
 50
8.008196582299236
 51
90.00036492609073
  0
ARC
  5
180C
330
1A
100
AcDbEntity
  8
SEIHIN
  6
Continuous
 62
     3
 48
5.0
100
AcDbCircle
 10
219.2945134067516
 20
217.139623522766
 30
0.0
 40
8.000006070310832
100
AcDbArc
 50
8.008103336226927
 51
90.00005001976213
  0
ARC
  5
180D
330
1A
100
AcDbEntity
  8
SEIHIN
  6
Continuous
 62
     3
 48
5.0
100
AcDbCircle
 10
219.2944847951985
 20
217.1396483908909
 30
0.0
 40
8.999981202208888
100
AcDbArc
 50
8.00788117428119
 51
89.9998623149534
  0
LINE
  5
180E
330
1A
100
AcDbEntity
  8
NOKITOI
  6
PHANTOM
 62
     8
 48
5.0
100
AcDbLine
 10
226.3598064226699
 20
239.239629593074
 30
0.0
 11
226.3598064226699
 21
234.539629593074
 31
0.0
  0
ARC
  5
180F
330
1A
100
AcDbEntity
  8
NOKITOI
  6
PHANTOM
 62
     8
 48
5.0
100
AcDbCircle
 10
225.0598064226698
 20
235.839729593074
 30
0.0
 40
1.300000000000011
100
AcDbArc
 50
90.0
 51
270.0
  0
LINE
  5
1810
330
1A
100
AcDbEntity
  8
NOKITOI
  6
PHANTOM
 62
     8
 48
5.0
100
AcDbLine
 10
219.3598064226698
 20
237.939629593074
 30
0.0
 11
219.3598064226698
 21
231.539629593074
 31
0.0
  0
LINE
  5
1811
330
1A
100
AcDbEntity
  8
NOKITOI
  6
PHANTOM
 62
     8
 48
5.0
100
AcDbLine
 10
218.0598064226698
 20
242.939629593074
 30
0.0
 11
218.0598064226698
 21
229.539629593074
 31
0.0
  0
LINE
  5
1812
330
1A
100
AcDbEntity
  8
NOKITOI
  6
PHANTOM
 62
     8
 48
5.0
100
AcDbLine
 10
214.1134064226698
 20
240.6915295930739
 30
0.0
 11
215.5074064226699
 21
229.539629593074
 31
0.0
  0
LINE
  5
1813
330
1A
100
AcDbEntity
  8
NOKITOI
  6
PHANTOM
 62
     8
 48
5.0
100
AcDbLine
 10
228.9905064226699
 20
229.539629593074
 30
0.0
 11
221.3598064226698
 21
229.539629593074
 31
0.0
  0
ARC
  5
1814
330
1A
100
AcDbEntity
  8
NOKITOI
  6
PHANTOM
 62
     8
 48
5.0
100
AcDbCircle
 10
221.3598064226698
 20
231.539629593074
 30
0.0
 40
2.0
100
AcDbArc
 50
180.0
 51
270.0
  0
LINE
  5
1815
330
1A
100
AcDbEntity
  8
NOKITOI
  6
PHANTOM
 62
     8
 48
5.0
100
AcDbLine
 10
218.0598064226698
 20
229.539629593074
 30
0.0
 11
215.5074064226699
 21
229.539629593074
 31
0.0
  0
LINE
  5
1816
330
1A
100
AcDbEntity
  8
NOKITOI
  6
PHANTOM
 62
     8
 48
5.0
100
AcDbLine
 10
214.3598064226698
 20
228.239629593074
 30
0.0
 11
219.1623064226698
 21
228.239629593074
 31
0.0
  0
LINE
  5
1817
330
1A
100
AcDbEntity
  8
SEIHIN
  6
Continuous
 62
     3
 48
5.0
100
AcDbLine
 10
214.6426064226699
 20
227.1396295930739
 30
0.0
 11
219.2945064226699
 21
227.1396295930739
 31
0.0
  0
LINE
  5
1818
330
1A
100
AcDbEntity
  8
NOKITOI
  6
PHANTOM
 62
     8
 48
5.0
100
AcDbLine
 10
225.0598064226698
 20
234.539629593074
 30
0.0
 11
226.3598064226699
 21
234.539629593074
 31
0.0
  0
LINE
  5
1819
330
1A
100
AcDbEntity
  8
NOKITOI
  6
PHANTOM
 62
     8
 48
5.0
100
AcDbLine
 10
224.4244064226699
 20
228.239629593074
 30
0.0
 11
227.8598064226698
 21
228.239629593074
 31
0.0
  0
LINE
  5
181A
330
1A
100
AcDbEntity
  8
NOKITOI
  6
PHANTOM
 62
     8
 48
5.0
100
AcDbLine
 10
224.3598064226699
 20
241.239629593074
 30
0.0
 11
219.8598064226698
 21
241.239629593074
 31
0.0
  0
LINE
  5
181B
330
1A
100
AcDbEntity
  8
NOKITOI
  6
PHANTOM
 62
     8
 48
5.0
100
AcDbLine
 10
223.0598064226698
 20
239.939629593074
 30
0.0
 11
221.3598064226698
 21
239.939629593074
 31
0.0
  0
ARC
  5
181C
330
1A
100
AcDbEntity
  8
NOKITOI
  6
PHANTOM
 62
     8
 48
5.0
100
AcDbCircle
 10
219.8598064226698
 20
241.739629593074
 30
0.0
 40
0.5
100
AcDbArc
 50
180.0
 51
270.0
  0
LINE
  5
181D
330
1A
100
AcDbEntity
  8
NOKITOI
  6
PHANTOM
 62
     8
 48
5.0
100
AcDbLine
 10
219.3598064226698
 20
244.239629593074
 30
0.0
 11
219.3598064226698
 21
241.739629593074
 31
0.0
  0
LINE
  5
181E
330
1A
100
AcDbEntity
  8
NOKITOI
  6
PHANTOM
 62
     8
 48
5.0
100
AcDbLine
 10
216.0980064226699
 20
242.939629593074
 30
0.0
 11
218.0598064226698
 21
242.939629593074
 31
0.0
  0
LINE
  5
181F
330
1A
100
AcDbEntity
  8
NOKITOI
  6
PHANTOM
 62
     8
 48
5.0
100
AcDbLine
 10
215.7582064226699
 20
244.239629593074
 30
0.0
 11
219.3598064226698
 21
244.239629593074
 31
0.0
  0
ARC
  5
1820
330
1A
100
AcDbEntity
  8
NOKITOI
  6
PHANTOM
 62
     8
 48
5.0
100
AcDbCircle
 10
221.3598064226698
 20
237.939629593074
 30
0.0
 40
2.0
100
AcDbArc
 50
90.0
 51
180.0
  0
ARC
  5
1821
330
1A
100
AcDbEntity
  8
SEIHIN
  6
Continuous
 62
     3
 48
5.0
100
AcDbCircle
 10
219.6598064226699
 20
243.639529593074
 30
0.0
 40
1.499999999999915
100
AcDbArc
 50
359.9999999999968
 51
89.99999999999675
  0
LINE
  5
1822
330
1A
100
AcDbEntity
  8
SEIHIN
  6
Continuous
 62
     3
 48
5.0
100
AcDbLine
 10
219.6598064226699
 20
242.1395295930738
 30
0.0
 11
219.6598064226699
 21
243.1395295930739
 31
0.0
  0
ARC
  5
1823
330
1A
100
AcDbEntity
  8
SEIHIN
  6
Continuous
 62
     3
 48
5.0
100
AcDbCircle
 10
219.6598064226698
 20
243.6395295930738
 30
0.0
 40
1.499999999999943
100
AcDbArc
 50
270.0000000000043
 51
0.0000000000048853
  0
LINE
  5
1824
330
1A
100
AcDbEntity
  8
SEIHIN
  6
Continuous
 62
     3
 48
5.0
100
AcDbLine
 10
215.1581064226698
 20
243.1395295930739
 30
0.0
 11
219.6598064226699
 21
243.1395295930739
 31
0.0
  0
LINE
  5
1825
330
1A
100
AcDbEntity
  8
NOKITOI
  6
PHANTOM
 62
     8
 48
5.0
100
AcDbLine
 10
225.0598064226698
 20
237.139729593074
 30
0.0
 11
225.0598064226698
 21
237.939629593074
 31
0.0
  0
ARC
  5
1826
330
1A
100
AcDbEntity
  8
NOKITOI
  6
PHANTOM
 62
     8
 48
5.0
100
AcDbCircle
 10
224.3598064226699
 20
239.239629593074
 30
0.0
 40
2.0
100
AcDbArc
 50
0.0
 51
90.0
  0
ARC
  5
1827
330
1A
100
AcDbEntity
  8
NOKITOI
  6
PHANTOM
 62
     8
 48
5.0
100
AcDbCircle
 10
223.0598064226698
 20
237.939629593074
 30
0.0
 40
2.0
100
AcDbArc
 50
0.0
 51
90.0
  0
LINE
  5
1828
330
1A
100
AcDbEntity
  8
NOKITOI
  6
PHANTOM
 62
     8
 48
5.0
100
AcDbLine
 10
336.3598064226698
 20
208.2396295930739
 30
0.0
 11
334.4466064226699
 21
166.148729593074
 31
0.0
  0
LINE
  5
1829
330
1A
100
AcDbEntity
  8
NOKITOI
  6
PHANTOM
 62
     8
 48
5.0
100
AcDbLine
 10
335.7641064226699
 20
223.762329593074
 30
0.0
 11
333.2477064226697
 21
168.4033295930739
 31
0.0
  0
LINE
  5
182A
330
1A
100
AcDbEntity
  8
SEIHIN
  6
Continuous
 62
     3
 48
5.0
100
AcDbLine
 10
336.17650642267
 20
204.2077295930739
 30
0.0
 11
334.4466064226698
 21
166.1487295930739
 31
0.0
  0
LINE
  5
182B
330
1A
100
AcDbEntity
  8
SEIHIN
  6
Continuous
 62
     3
 48
5.0
100
AcDbLine
 10
338.0660064226699
 20
201.7303295930739
 30
0.0
 11
336.3577064226699
 21
164.1487295930739
 31
0.0
  0
LINE
  5
182C
330
1A
100
AcDbEntity
  8
SEIHIN
  6
Continuous
 62
     3
 48
5.0
100
AcDbLine
 10
337.0650064226697
 20
201.7303295930739
 30
0.0
 11
335.4022064226698
 21
165.1487295930739
 31
0.0
  0
DIMENSION
  5
182D
330
1A
100
AcDbEntity
  8
SUNPOU
 62
     4
 48
5.0
100
AcDbDimension
  2
*D4
 10
373.8025947219844
 20
162.2395295930739
 30
0.0
 11
368.8025947219844
 21
193.9895295930739
 31
0.0
 70
    32
 71
     5
 42
63.49999999999992
  3
STANDARD
100
AcDbAlignedDimension
 13
342.2416064226699
 23
225.7395295930738
 33
0.0
 14
334.3598064226698
 24
162.2395295930739
 34
0.0
 50
270.0
100
AcDbRotatedDimension
1001
ACAD
1000
DSTYLE
1002
{
1070
   140
1040
6.0
1070
    74
1070
     0
1070
   172
1070
     1
1070
    73
1070
     0
1070
   272
1070
     2
1070
    77
1070
     3
1070
   173
1070
     1
1070
   147
1040
2.0
1070
    42
1040
6.0
1070
    44
1040
3.0
1070
    43
1040
14.0
1070
   271
1070
     0
1070
   178
1070
     4
1070
   177
1070
     4
1070
   176
1070
     4
1070
   141
1040
150.0
1070
     7
1000
_OPEN
1070
     6
1000
_OPEN
1070
    41
1040
7.0
1002
}
  0
LINE
  5
182E
330
1A
100
AcDbEntity
  8
CENTER L
  6
CENTER
 62
     1
 48
5.0
100
AcDbLine
 10
289.6098064226698
 20
154.1632295930739
 30
0.0
 11
289.6098064226698
 21
179.1250295930739
 31
0.0
  0
ARC
  5
182F
330
1A
100
AcDbEntity
  8
NOKITOI
  6
PHANTOM
 62
     8
 48
5.0
100
AcDbCircle
 10
330.2508029387624
 20
168.5395262639036
 30
0.0
 40
2.999996670831683
100
AcDbArc
 50
270.0000665378024
 51
357.3979379474862
  0
ARC
  5
1830
330
1A
100
AcDbEntity
  8
NOKITOI
  6
PHANTOM
 62
     8
 48
5.0
100
AcDbCircle
 10
332.4486389466869
 20
166.239560672591
 30
0.0
 40
2.000031079781521
100
AcDbArc
 50
269.9990682700251
 51
357.3970263848195
  0
ARC
  5
1831
330
1A
100
AcDbEntity
  8
SEIHIN
  6
Continuous
 62
     3
 48
5.0
100
AcDbCircle
 10
334.3597866767153
 20
164.239510724146
 30
0.0
 40
1.999981131169528
100
AcDbArc
 50
270.0005656852646
 51
357.3983937402277
  0
ARC
  5
1832
330
1A
100
AcDbEntity
  8
SEIHIN
  6
Continuous
 62
     3
 48
5.0
100
AcDbCircle
 10
333.4042389466869
 20
165.239560672591
 30
0.0
 40
2.000031079781471
100
AcDbArc
 50
269.9990682700238
 51
357.3970263848187
  0
ARC
  5
1833
330
1A
100
AcDbEntity
  8
SEIHIN
  6
Continuous
 62
     3
 48
5.0
100
AcDbCircle
 10
332.4485866767152
 20
166.2395107241459
 30
0.0
 40
1.999981131169469
100
AcDbArc
 50
270.0005656852662
 51
357.3983937402294
  0
ARC
  5
1834
330
1A
100
AcDbEntity
  8
SEIHIN
  6
Continuous
 62
     3
 48
5.0
100
AcDbCircle
 10
342.2416064226698
 20
242.139529593074
 30
0.0
 40
2.999999999999986
100
AcDbArc
 50
359.9999999999984
 51
89.99999999999817
  0
ARC
  5
1835
330
1A
100
AcDbEntity
  8
SEIHIN
  6
Continuous
 62
     3
 48
5.0
100
AcDbCircle
 10
341.8416064226699
 20
206.6395295930739
 30
0.0
 40
3.0
100
AcDbArc
 50
270.0
 51
0.0
  0
LINE
  5
1836
330
1A
100
AcDbEntity
  8
SEIHIN
  6
Continuous
 62
     3
 48
5.0
100
AcDbLine
 10
344.8416064226699
 20
206.6395295930739
 30
0.0
 11
345.2416064226698
 21
222.7395295930738
 31
0.0
  0
ARC
  5
1837
330
1A
100
AcDbEntity
  8
SEIHIN
  6
Continuous
 62
     3
 48
5.0
100
AcDbCircle
 10
342.2416064226699
 20
222.7395295930739
 30
0.0
 40
2.999999999999943
100
AcDbArc
 50
359.9999999999992
 51
89.99999999999898
  0
ARC
  5
1838
330
1A
100
AcDbEntity
  8
SEIHIN
  6
Continuous
 62
     3
 48
5.0
100
AcDbCircle
 10
335.2416065093837
 20
224.2395520194052
 30
0.0
 40
1.500022426331372
100
AcDbArc
 50
89.55691815880356
 51
269.9999966878231
  0
LINE
  5
1839
330
1A
100
AcDbEntity
  8
NOKITOI
  6
PHANTOM
 62
     8
 48
5.0
100
AcDbLine
 10
341.0598064226699
 20
209.539629593074
 30
0.0
 11
341.0598064226699
 21
221.522229593074
 31
0.0
  0
LINE
  5
183A
330
1A
100
AcDbEntity
  8
NOKITOI
  6
PHANTOM
 62
     8
 48
5.0
100
AcDbLine
 10
337.0280064226698
 20
222.9396295930739
 30
0.0
 11
336.4189064226697
 21
209.539629593074
 31
0.0
  0
LINE
  5
183B
330
1A
100
AcDbEntity
  8
NOKITOI
  6
PHANTOM
 62
     8
 48
5.0
100
AcDbLine
 10
342.3598064226699
 20
222.239629593074
 30
0.0
 11
342.3598064226699
 21
207.622729593074
 31
0.0
  0
LINE
  5
183C
330
1A
100
AcDbEntity
  8
SEIHIN
  6
Continuous
 62
     3
 48
5.0
100
AcDbLine
 10
342.8416064226699
 20
206.6395295930739
 30
0.0
 11
342.7416064226698
 21
221.7395295930738
 31
0.0
  0
LINE
  5
183D
330
1A
100
AcDbEntity
  8
NOKITOI
  6
PHANTOM
 62
     8
 48
5.0
100
AcDbLine
 10
336.3598064226698
 20
208.2396295930739
 30
0.0
 11
339.8598064226698
 21
208.2396295930739
 31
0.0
  0
LINE
  5
183E
330
1A
100
AcDbEntity
  8
NOKITOI
  6
PHANTOM
 62
     8
 48
5.0
100
AcDbLine
 10
336.4189064226697
 20
209.539629593074
 30
0.0
 11
341.0598064226699
 21
209.539629593074
 31
0.0
  0
ARC
  5
183F
330
1A
100
AcDbEntity
  8
SEIHIN
  6
Continuous
 62
     3
 48
5.0
100
AcDbCircle
 10
337.6749796507016
 20
204.1395040118436
 30
0.0
 40
1.500025581469238
100
AcDbArc
 50
89.99897740358496
 51
177.3931198681996
  0
ARC
  5
1840
330
1A
100
AcDbEntity
  8
SEIHIN
  6
Continuous
 62
     3
 48
5.0
100
AcDbCircle
 10
339.0629237926332
 20
201.6395461907116
 30
0.0
 40
1.999983402437752
100
AcDbArc
 50
90.00049761692289
 51
177.3954637894384
  0
ARC
  5
1841
330
1A
100
AcDbEntity
  8
NOKITOI
  6
PHANTOM
 62
     8
 48
5.0
100
AcDbCircle
 10
341.8597957828963
 20
207.6227235679727
 30
0.0
 40
0.500010639809949
100
AcDbArc
 50
239.0447944605786
 51
0.0006904110642984
  0
LINE
  5
1842
330
1A
100
AcDbEntity
  8
NOKITOI
  6
PHANTOM
 62
     8
 48
5.0
100
AcDbLine
 10
339.8598064226698
 20
208.2396295930739
 30
0.0
 11
341.6026064226699
 21
207.1939295930739
 31
0.0
  0
ARC
  5
1843
330
1A
100
AcDbEntity
  8
SEIHIN
  6
Continuous
 62
     3
 48
5.0
100
AcDbCircle
 10
340.0639237926332
 20
201.6395461907117
 30
0.0
 40
1.999983402437618
100
AcDbArc
 50
90.00049761692736
 51
177.3954637894425
  0
ARC
  5
1844
330
1A
100
AcDbEntity
  8
SEIHIN
  6
Continuous
 62
     3
 48
5.0
100
AcDbCircle
 10
341.8416064226699
 20
206.6395295930739
 30
0.0
 40
1.0
100
AcDbArc
 50
270.0
 51
0.0
  0
LINE
  5
1845
330
1A
100
AcDbEntity
  8
SEIHIN
  6
Continuous
 62
     3
 48
5.0
100
AcDbLine
 10
337.6750064226698
 20
205.6395295930739
 30
0.0
 11
341.8416064226699
 21
205.6395295930739
 31
0.0
  0
LINE
  5
1846
330
1A
100
AcDbEntity
  8
SEIHIN
  6
Continuous
 62
     3
 48
5.0
100
AcDbLine
 10
339.0629064226699
 20
203.6395295930739
 30
0.0
 11
341.8416064226699
 21
203.6395295930739
 31
0.0
  0
LINE
  5
1847
330
1A
100
AcDbEntity
  8
NOKITOI
  6
PHANTOM
 62
     8
 48
5.0
100
AcDbLine
 10
336.2635064226698
 20
224.239629593074
 30
0.0
 11
339.1858064226699
 21
224.239629593074
 31
0.0
  0
LINE
  5
1848
330
1A
100
AcDbEntity
  8
SEIHIN
  6
Continuous
 62
     3
 48
5.0
100
AcDbLine
 10
335.2416064226698
 20
223.7395295930739
 30
0.0
 11
340.7416064226698
 21
223.7395295930739
 31
0.0
  0
ARC
  5
1849
330
1A
100
AcDbEntity
  8
NOKITOI
  6
PHANTOM
 62
     8
 48
5.0
100
AcDbCircle
 10
336.2634982916655
 20
223.7396218231947
 30
0.0
 40
0.5000077699453767
100
AcDbArc
 50
89.99906827002293
 51
177.3970263848195
  0
LINE
  5
184A
330
1A
100
AcDbEntity
  8
SEIHIN
  6
Continuous
 62
     3
 48
5.0
100
AcDbLine
 10
335.2416064226698
 20
222.7395295930738
 30
0.0
 11
335.2416064226698
 21
223.7395295930739
 31
0.0
  0
LINE
  5
184B
330
1A
100
AcDbEntity
  8
NOKITOI
  6
PHANTOM
 62
     8
 48
5.0
100
AcDbLine
 10
338.8103064226699
 20
222.9396295930739
 30
0.0
 11
337.0280064226698
 21
222.9396295930739
 31
0.0
  0
LINE
  5
184C
330
1A
100
AcDbEntity
  8
NOKITOI
  6
PHANTOM
 62
     8
 48
5.0
100
AcDbLine
 10
339.1858064226699
 20
224.239629593074
 30
0.0
 11
342.3598064226699
 21
222.239629593074
 31
0.0
  0
LINE
  5
184D
330
1A
100
AcDbEntity
  8
NOKITOI
  6
PHANTOM
 62
     8
 48
5.0
100
AcDbLine
 10
341.0598064226699
 20
221.522229593074
 30
0.0
 11
338.8103064226699
 21
222.9396295930739
 31
0.0
  0
ARC
  5
184E
330
1A
100
AcDbEntity
  8
SEIHIN
  6
Continuous
 62
     3
 48
5.0
100
AcDbCircle
 10
340.7416064226698
 20
221.7395295930739
 30
0.0
 40
2.000000000000043
100
AcDbArc
 50
359.9999999999984
 51
89.99999999999878
  0
LINE
  5
184F
330
1A
100
AcDbEntity
  8
SEIHIN
  6
Continuous
 62
     3
 48
5.0
100
AcDbLine
 10
341.9131064226698
 20
242.1395295930738
 30
0.0
 11
341.9131064226698
 21
225.7395295930738
 31
0.0
  0
LINE
  5
1850
330
1A
100
AcDbEntity
  8
SEIHIN
  6
Continuous
 62
     3
 48
5.0
100
AcDbLine
 10
335.2416064226698
 20
225.7395295930738
 30
0.0
 11
342.2416064226699
 21
225.7395295930738
 31
0.0
  0
ARC
  5
1851
330
1A
100
AcDbEntity
  8
SEIHIN
  6
Continuous
 62
     3
 48
5.0
100
AcDbCircle
 10
338.9131064226697
 20
242.1395295930739
 30
0.0
 40
3.000000000000043
100
AcDbArc
 50
359.9999999999992
 51
89.99999999999919
  0
LINE
  5
1852
330
1A
100
AcDbEntity
  8
SEIHIN
  6
Continuous
 62
     3
 48
5.0
100
AcDbLine
 10
345.2416064226698
 20
222.7395295930738
 30
0.0
 11
345.2416064226698
 21
242.1395295930738
 31
0.0
  0
DIMENSION
  5
1853
330
1A
100
AcDbEntity
  8
SUNPOU
 62
     4
 48
5.0
100
AcDbDimension
  2
*D5
 10
215.1371064226701
 20
481.844329593074
 30
0.0
 11
234.2186934561696
 21
428.5346356127608
 31
0.0
 70
    34
 71
     5
 42
0.7853973918204904
  3
STANDARD
100
AcDb2LineAngularDimension
 13
210.0158064226698
 23
332.2395295930739
 33
0.0
 14
210.0158064226698
 24
479.7230295930737
 34
0.0
 15
344.74170642267
 25
352.2395295930737
 35
0.0
 16
227.6789600583551
 26
421.0457828894457
 36
0.0
1001
ACAD
1000
DSTYLE
1002
{
1070
   271
1070
     0
1070
   271
1070
     0
1070
   271
1070
     0
1070
   140
1040
6.0
1070
    74
1070
     0
1070
   172
1070
     1
1070
    73
1070
     0
1070
   272
1070
     2
1070
    77
1070
     3
1070
   173
1070
     1
1070
   147
1040
2.0
1070
    42
1040
6.0
1070
    44
1040
3.0
1070
    43
1040
14.0
1070
   271
1070
     0
1070
   178
1070
     4
1070
   177
1070
     4
1070
   176
1070
     4
1070
   141
1040
150.0
1070
     7
1000
_OPEN
1070
     6
1000
_OPEN
1070
    41
1040
7.0
1002
}
  0
DIMENSION
  5
1854
330
1A
100
AcDbEntity
  8
SUNPOU
 62
     4
 48
5.0
100
AcDbDimension
  2
*D6
 10
183.4045980618771
 20
327.2395295930738
 30
0.0
 11
178.404598061877
 21
404.981269421297
 31
0.0
 70
    32
 71
     5
 42
155.4834796564464
  3
STANDARD
100
AcDbAlignedDimension
 13
213.0157920376009
 23
482.7230092495202
 33
0.0
 14
211.0158064226698
 24
327.2395295930738
 34
0.0
 50
270.0
100
AcDbRotatedDimension
1001
ACAD
1000
DSTYLE
1002
{
1070
   140
1040
6.0
1070
    74
1070
     0
1070
   172
1070
     1
1070
    73
1070
     0
1070
   272
1070
     2
1070
    77
1070
     3
1070
   173
1070
     1
1070
   147
1040
2.0
1070
    42
1040
6.0
1070
    44
1040
3.0
1070
    43
1040
14.0
1070
   271
1070
     0
1070
   178
1070
     4
1070
   177
1070
     4
1070
   176
1070
     4
1070
   141
1040
150.0
1070
     7
1000
_OPEN
1070
     6
1000
_OPEN
1070
    41
1040
7.0
1002
}
  0
ARC
  5
1855
330
1A
100
AcDbEntity
  8
SEIHIN
  6
Continuous
 62
     3
 48
5.0
100
AcDbCircle
 10
213.0157920376009
 20
479.7230236345831
 30
0.0
 40
2.999985614937037
100
AcDbArc
 50
44.9998862006663
 51
179.9998862006663
  0
ARC
  5
1856
330
1A
100
AcDbEntity
  8
SEIHIN
  6
Continuous
 62
     3
 48
5.0
100
AcDbCircle
 10
213.2783016276469
 20
479.4605276069102
 30
0.0
 40
0.9999952049790408
100
AcDbArc
 50
44.99988620066392
 51
179.9998862006646
  0
LINE
  5
1857
330
1A
100
AcDbEntity
  8
SEIHIN
  6
Continuous
 62
     3
 48
5.0
100
AcDbLine
 10
344.74170642267
 20
352.2395295930738
 30
0.0
 11
215.1371064226699
 21
481.8443295930739
 31
0.0
  0
LINE
  5
1858
330
1A
100
AcDbEntity
  8
SEIHIN
  6
Continuous
 62
     3
 48
5.0
100
AcDbLine
 10
341.9132064226699
 20
352.2395295930738
 30
0.0
 11
213.9854064226699
 21
480.1676295930737
 31
0.0
  0
LINE
  5
1859
330
1A
100
AcDbEntity
  8
SUNPOU
  6
PHANTOM
 62
     4
 48
5.0
100
AcDbLine
 10
220.8591064226698
 20
352.2395295930738
 30
0.0
 11
334.2434064226697
 21
352.2395295930738
 31
0.0
  0
LINE
  5
185A
330
1A
100
AcDbEntity
  8
SEIHIN
  6
Continuous
 62
     3
 48
5.0
100
AcDbLine
 10
211.0158064226698
 20
327.2395295930738
 30
0.0
 11
344.7416064226698
 21
327.2395295930738
 31
0.0
  0
LINE
  5
185B
330
1A
100
AcDbEntity
  8
SEIHIN
  6
Continuous
 62
     3
 48
5.0
100
AcDbLine
 10
229.1969064226699
 20
327.2395295930738
 30
0.0
 11
229.1969064226699
 21
464.9561295930739
 31
0.0
  0
LINE
  5
185C
330
1A
100
AcDbEntity
  8
SEIHIN
  6
Continuous
 62
     3
 48
5.0
100
AcDbLine
 10
213.8598064226698
 20
477.8790295930737
 30
0.0
 11
213.8598064226698
 21
352.2395295930738
 31
0.0
  0
LINE
  5
185D
330
1A
100
AcDbEntity
  8
SEIHIN
  6
Continuous
 62
     3
 48
5.0
100
AcDbLine
 10
212.2783064226697
 20
479.4605295930737
 30
0.0
 11
212.2783064226697
 21
354.2395295930738
 31
0.0
  0
LINE
  5
185E
330
1A
100
AcDbEntity
  8
SEIHIN
  6
Continuous
 62
     3
 48
5.0
100
AcDbLine
 10
210.0158064226698
 20
332.2395295930739
 30
0.0
 11
210.0158064226698
 21
479.7230295930737
 31
0.0
  0
LINE
  5
185F
330
1A
100
AcDbEntity
  8
SEIHIN
  6
Continuous
 62
     3
 48
5.0
100
AcDbLine
 10
244.8598064226698
 20
446.8789295930739
 30
0.0
 11
244.85990642267
 21
327.2395295930738
 31
0.0
  0
LINE
  5
1860
330
1A
100
AcDbEntity
  8
SEIHIN
  6
Continuous
 62
     3
 48
5.0
100
AcDbLine
 10
242.8598064226698
 20
448.8788295930739
 30
0.0
 11
242.8598064226698
 21
327.2395295930738
 31
0.0
  0
ARC
  5
1861
330
1A
100
AcDbEntity
  8
SEIHIN
  6
Continuous
 62
     3
 48
5.0
100
AcDbCircle
 10
214.2783064226699
 20
354.2395295930739
 30
0.0
 40
2.000000000000085
100
AcDbArc
 50
180.0000000000024
 51
270.0000000000024
  0
LINE
  5
1862
330
1A
100
AcDbEntity
  8
SEIHIN
  6
Continuous
 62
     3
 48
5.0
100
AcDbLine
 10
211.0158064226698
 20
327.2395295930738
 30
0.0
 11
210.0158064226698
 21
332.2395295930739
 31
0.0
  0
LINE
  5
1863
330
1A
100
AcDbEntity
  8
SEIHIN
  6
Continuous
 62
     3
 48
5.0
100
AcDbLine
 10
220.8591064226698
 20
352.2395295930738
 30
0.0
 11
220.8591064226698
 21
327.2395295930738
 31
0.0
  0
LINE
  5
1864
330
1A
100
AcDbEntity
  8
SEIHIN
  6
Continuous
 62
     3
 48
5.0
100
AcDbLine
 10
220.8591064226698
 20
352.2395295930738
 30
0.0
 11
214.27830642267
 21
352.2395295930738
 31
0.0
  0
ARC
  5
1865
330
1A
100
AcDbEntity
  8
SEIHIN
  6
Continuous
 62
     3
 48
5.0
100
AcDbCircle
 10
214.8597662735579
 20
477.8790129644303
 30
0.0
 40
0.9999598510263651
100
AcDbArc
 50
44.99499546188216
 51
179.9990472106566
  0
LINE
  5
1866
330
1A
100
AcDbEntity
  8
SUNPOU
  6
Continuous
 62
     4
 48
5.0
100
AcDbLine
 10
217.9655064226698
 20
479.0159295930739
 30
0.0
 11
253.0294064226698
 21
443.9520295930738
 31
0.0
  0
ARC
  5
1867
330
1A
100
AcDbEntity
  8
SUNPOU
  6
Continuous
 62
     3
 48
5.0
100
AcDbCircle
 10
245.8598016276468
 20
446.8789276069102
 30
0.0
 40
0.9999952049790124
100
AcDbArc
 50
44.99988620065932
 51
179.9998862006597
  0
ARC
  5
1868
330
1A
100
AcDbEntity
  8
SUNPOU
  6
Continuous
 62
     3
 48
5.0
100
AcDbCircle
 10
243.8598016276468
 20
448.8788276069103
 30
0.0
 40
0.9999952049790124
100
AcDbArc
 50
44.99988620066738
 51
179.9998862006646
  0
DIMENSION
  5
1869
330
1A
100
AcDbEntity
  8
SUNPOU
 62
     4
 48
5.0
100
AcDbDimension
  2
*D7
 10
373.8025947219844
 20
327.2395295930738
 30
0.0
 11
368.8025947219844
 21
339.7395295930738
 31
0.0
 70
    32
  1
※ <>
 71
     5
 42
25.0
  3
STANDARD
100
AcDbAlignedDimension
 13
339.4925564226699
 23
352.2395295930738
 33
0.0
 14
344.7416064226698
 24
327.2395295930738
 34
0.0
 50
270.0
100
AcDbRotatedDimension
1001
ACAD
1000
DSTYLE
1002
{
1070
   140
1040
6.0
1070
    74
1070
     0
1070
   172
1070
     1
1070
    73
1070
     0
1070
   272
1070
     2
1070
    77
1070
     3
1070
   173
1070
     1
1070
   147
1040
2.0
1070
    42
1040
6.0
1070
    44
1040
3.0
1070
    43
1040
14.0
1070
   271
1070
     0
1070
   178
1070
     4
1070
   177
1070
     4
1070
   176
1070
     4
1070
   141
1040
150.0
1070
     7
1000
_OPEN
1070
     6
1000
_OPEN
1070
    41
1040
7.0
1002
}
  0
LINE
  5
186A
330
1A
100
AcDbEntity
  8
SEIHIN
  6
Continuous
 62
     3
 48
5.0
100
AcDbLine
 10
344.74170642267
 20
352.2395295930738
 30
0.0
 11
344.74170642267
 21
327.2395295930738
 31
0.0
  0
LINE
  5
186B
330
1A
100
AcDbEntity
  8
SEIHIN
  6
Continuous
 62
     3
 48
5.0
100
AcDbLine
 10
334.2434064226698
 20
352.2395295930738
 30
0.0
 11
334.2434064226698
 21
327.2395295930738
 31
0.0
  0
LINE
  5
186C
330
1A
100
AcDbEntity
  8
SEIHIN
  6
Continuous
 62
     3
 48
5.0
100
AcDbLine
 10
334.35990642267
 20
359.7929295930739
 30
0.0
 11
334.35990642267
 21
352.2395295930738
 31
0.0
  0
LINE
  5
186D
330
1A
100
AcDbEntity
  8
SEIHIN
  6
Continuous
 62
     3
 48
5.0
100
AcDbLine
 10
336.24170642267
 20
357.9111295930739
 30
0.0
 11
336.24170642267
 21
352.2395295930738
 31
0.0
  0
LINE
  5
186E
330
1A
100
AcDbEntity
  8
SEIHIN
  6
Continuous
 62
     3
 48
5.0
100
AcDbLine
 10
344.74170642267
 20
352.2395295930738
 30
0.0
 11
334.2434064226698
 21
352.2395295930738
 31
0.0
  0
LINE
  5
186F
330
1A
100
AcDbEntity
  8
SEIHIN
  6
Continuous
 62
     3
 48
5.0
100
AcDbLine
 10
634.1240204730145
 20
176.9257295930738
 30
0.0
 11
752.5770204730145
 21
176.9256295930738
 31
0.0
  0
LINE
  5
1870
330
1A
100
AcDbEntity
  8
SEIHIN
  6
Continuous
 62
     3
 48
5.0
100
AcDbLine
 10
634.1242204730147
 20
225.2396295930739
 30
0.0
 11
780.8725204730145
 21
225.2393295930738
 31
0.0
  0
LINE
  5
1871
330
1A
100
AcDbEntity
  8
SEIHIN
  6
Continuous
 62
     3
 48
5.0
100
AcDbLine
 10
780.7259204730146
 20
245.2395295930739
 30
0.0
 11
629.1242204730147
 21
245.2396295930739
 31
0.0
  0
LINE
  5
1872
330
1A
100
AcDbEntity
  8
SEIHIN
  6
Continuous
 62
     3
 48
5.0
100
AcDbLine
 10
634.1240204730145
 20
162.2396295930738
 30
0.0
 11
749.5349204730144
 21
162.2393295930738
 31
0.0
  0
TEXT
  5
1873
330
1A
100
AcDbEntity
  8
SUNPOU
 62
     4
 48
5.0
100
AcDbText
 10
501.3340229345326
 20
101.3435396240684
 30
0.0
 40
8.0
  1
右
100
AcDbText
  0
DIMENSION
  5
1874
330
1A
100
AcDbEntity
  8
SUNPOU
100
AcDbDimension
  2
*D8
 10
552.3737415676477
 20
128.2320701327833
 30
0.0
 11
505.8008898284025
 21
133.2320701327833
 31
0.0
 70
    32
 71
     5
 42
93.14570347849042
  3
STANDARD
100
AcDbAlignedDimension
 13
459.2280380891573
 23
162.2395295930739
 33
0.0
 14
552.3737415676477
 24
162.2395295930739
 34
0.0
100
AcDbRotatedDimension
1001
ACAD
1000
DSTYLE
1002
{
1070
   140
1040
6.0
1070
    74
1070
     0
1070
   172
1070
     1
1070
    73
1070
     0
1070
   272
1070
     2
1070
    77
1070
     3
1070
   173
1070
     1
1070
   147
1040
2.0
1070
    42
1040
6.0
1070
    44
1040
3.0
1070
    43
1040
14.0
1070
   271
1070
     0
1070
   178
1070
     4
1070
   177
1070
     4
1070
   176
1070
     4
1070
   141
1040
150.0
1070
     7
1000
_OPEN
1070
     6
1000
_OPEN
1070
    41
1040
7.0
1002
}
  0
LINE
  5
1875
330
1A
100
AcDbEntity
  8
NOKITOI
  6
PHANTOM
 62
     8
 48
5.0
100
AcDbLine
 10
548.9045539618185
 20
164.2395295930739
 30
0.0
 11
463.0503539618185
 21
164.2395295930739
 31
0.0
  0
LINE
  5
1876
330
1A
100
AcDbEntity
  8
NOKITOI
  6
PHANTOM
 62
     8
 48
5.0
100
AcDbLine
 10
546.9097539618185
 20
165.5395295930739
 30
0.0
 11
465.2481539618186
 21
165.5395295930739
 31
0.0
  0
DIMENSION
  5
1877
330
1A
100
AcDbEntity
  8
SUNPOU
 62
     4
 48
5.0
100
AcDbDimension
  2
*D9
 10
450.2573539618186
 20
277.0042909913987
 30
0.0
 11
517.9318847152915
 21
282.0042909913987
 31
0.0
 70
    32
 71
     5
 42
135.3490615069459
  3
STANDARD
100
AcDbAlignedDimension
 13
585.6064154687645
 23
242.1394969250963
 33
0.0
 14
450.2573539618186
 24
242.1394969250963
 34
0.0
100
AcDbRotatedDimension
1001
ACAD
1000
DSTYLE
1002
{
1070
   140
1040
6.0
1070
    74
1070
     0
1070
   172
1070
     1
1070
    73
1070
     0
1070
   272
1070
     2
1070
    77
1070
     3
1070
   173
1070
     1
1070
   147
1040
2.0
1070
    42
1040
6.0
1070
    44
1040
3.0
1070
    43
1040
14.0
1070
   271
1070
     0
1070
   178
1070
     4
1070
   177
1070
     4
1070
   176
1070
     4
1070
   141
1040
150.0
1070
     7
1000
_OPEN
1070
     6
1000
_OPEN
1070
    41
1040
7.0
1002
}
  0
LINE
  5
1878
330
1A
100
AcDbEntity
  8
SEIHIN
  6
Continuous
 62
     3
 48
5.0
100
AcDbLine
 10
462.0947539618186
 20
163.2395295930739
 30
0.0
 11
549.7718539618186
 21
163.2395295930739
 31
0.0
  0
LINE
  5
1879
330
1A
100
AcDbEntity
  8
SEIHIN
  6
Continuous
 62
     3
 48
5.0
100
AcDbLine
 10
550.6391539618186
 20
162.2395295930739
 30
0.0
 11
461.1391539618186
 21
162.2395295930739
 31
0.0
  0
LINE
  5
187A
330
1A
100
AcDbEntity
  8
SEIHIN
  6
Continuous
 62
     3
 48
5.0
100
AcDbLine
 10
548.9045539618186
 20
164.2395295930739
 30
0.0
 11
463.0503539618186
 21
164.2395295930739
 31
0.0
  0
LINE
  5
187B
330
1A
100
AcDbEntity
  8
SEIHIN
  6
Continuous
 62
     3
 48
5.0
100
AcDbLine
 10
582.6063539618184
 20
245.1395295930739
 30
0.0
 11
453.2573539618185
 21
245.1395295930739
 31
0.0
  0
LINE
  5
187C
330
1A
100
AcDbEntity
  8
NOKITOI
  6
PHANTOM
 62
     8
 48
5.0
100
AcDbLine
 10
459.7348539618185
 20
223.762329593074
 30
0.0
 11
462.2512539618185
 21
168.4033295930739
 31
0.0
  0
LINE
  5
187D
330
1A
100
AcDbEntity
  8
NOKITOI
  6
PHANTOM
 62
     8
 48
5.0
100
AcDbLine
 10
459.1391539618187
 20
208.2396295930739
 30
0.0
 11
461.0523539618184
 21
166.148729593074
 31
0.0
  0
DIMENSION
  5
187E
330
1A
100
AcDbEntity
  8
SUNPOU
 62
     4
 48
5.0
100
AcDbDimension
  2
*D10
 10
421.6963656625039
 20
162.2395295930739
 30
0.0
 11
416.6963656625039
 21
193.989529593074
 31
0.0
 70
    32
 71
     5
 42
63.49999999999992
  3
STANDARD
100
AcDbAlignedDimension
 13
453.2573539618185
 23
225.7395295930738
 33
0.0
 14
461.1391539618185
 24
162.2395295930739
 34
0.0
 50
90.0
100
AcDbRotatedDimension
1001
ACAD
1000
DSTYLE
1002
{
1070
   140
1040
6.0
1070
    74
1070
     0
1070
   172
1070
     1
1070
    73
1070
     0
1070
   272
1070
     2
1070
    77
1070
     3
1070
   173
1070
     1
1070
   147
1040
2.0
1070
    42
1040
6.0
1070
    44
1040
3.0
1070
    43
1040
14.0
1070
   271
1070
     0
1070
   178
1070
     4
1070
   177
1070
     4
1070
   176
1070
     4
1070
   141
1040
150.0
1070
     7
1000
_OPEN
1070
     6
1000
_OPEN
1070
    41
1040
7.0
1002
}
  0
LINE
  5
187F
330
1A
100
AcDbEntity
  8
SEIHIN
  6
Continuous
 62
     3
 48
5.0
100
AcDbLine
 10
458.4339539618186
 20
201.7303295930739
 30
0.0
 11
460.0967539618185
 21
165.1487295930739
 31
0.0
  0
LINE
  5
1880
330
1A
100
AcDbEntity
  8
SEIHIN
  6
Continuous
 62
     3
 48
5.0
100
AcDbLine
 10
457.4329539618184
 20
201.7303295930739
 30
0.0
 11
459.1412539618184
 21
164.1487295930739
 31
0.0
  0
LINE
  5
1881
330
1A
100
AcDbEntity
  8
SEIHIN
  6
Continuous
 62
     3
 48
5.0
100
AcDbLine
 10
459.3224539618184
 20
204.2077295930739
 30
0.0
 11
461.0523539618185
 21
166.1487295930739
 31
0.0
  0
ARC
  5
1882
330
1A
100
AcDbEntity
  8
SEIHIN
  6
Continuous
 62
     3
 48
5.0
100
AcDbCircle
 10
462.0947214378015
 20
165.239560672591
 30
0.0
 40
2.000031079781471
100
AcDbArc
 50
182.6029736151813
 51
270.0009317299761
  0
ARC
  5
1883
330
1A
100
AcDbEntity
  8
SEIHIN
  6
Continuous
 62
     3
 48
5.0
100
AcDbCircle
 10
461.139173707773
 20
164.239510724146
 30
0.0
 40
1.999981131169528
100
AcDbArc
 50
182.6016062597723
 51
269.9994343147352
  0
ARC
  5
1884
330
1A
100
AcDbEntity
  8
NOKITOI
  6
PHANTOM
 62
     8
 48
5.0
100
AcDbCircle
 10
465.2481574457258
 20
168.5395262639036
 30
0.0
 40
2.999996670831683
100
AcDbArc
 50
182.6020620525138
 51
269.9999334621974
  0
ARC
  5
1885
330
1A
100
AcDbEntity
  8
NOKITOI
  6
PHANTOM
 62
     8
 48
5.0
100
AcDbCircle
 10
463.0503214378016
 20
166.239560672591
 30
0.0
 40
2.000031079781521
100
AcDbArc
 50
182.6029736151805
 51
270.0009317299746
  0
ARC
  5
1886
330
1A
100
AcDbEntity
  8
SEIHIN
  6
Continuous
 62
     3
 48
5.0
100
AcDbCircle
 10
463.0503737077731
 20
166.2395107241459
 30
0.0
 40
1.999981131169469
100
AcDbArc
 50
182.6016062597707
 51
269.9994343147336
  0
LINE
  5
1887
330
1A
100
AcDbEntity
  8
CENTER L
  6
CENTER
 62
     1
 48
5.0
100
AcDbLine
 10
505.8891539618186
 20
154.1632295930739
 30
0.0
 11
505.8891539618186
 21
179.1250295930739
 31
0.0
  0
ARC
  5
1888
330
1A
100
AcDbEntity
  8
SEIHIN
  6
Continuous
 62
     3
 48
5.0
100
AcDbCircle
 10
460.2573538751046
 20
224.2395520194052
 30
0.0
 40
1.500022426331372
100
AcDbArc
 50
270.0000033121767
 51
90.44308184119645
  0
ARC
  5
1889
330
1A
100
AcDbEntity
  8
SEIHIN
  6
Continuous
 62
     3
 48
5.0
100
AcDbCircle
 10
453.2573539618185
 20
222.7395295930739
 30
0.0
 40
2.999999999999943
100
AcDbArc
 50
90.00000000000102
 51
180.0000000000008
  0
LINE
  5
188A
330
1A
100
AcDbEntity
  8
SEIHIN
  6
Continuous
 62
     3
 48
5.0
100
AcDbLine
 10
450.2573539618186
 20
222.7395295930738
 30
0.0
 11
450.2573539618186
 21
242.1395295930738
 31
0.0
  0
LINE
  5
188B
330
1A
100
AcDbEntity
  8
SEIHIN
  6
Continuous
 62
     3
 48
5.0
100
AcDbLine
 10
460.2573539618186
 20
223.7395295930739
 30
0.0
 11
454.7573539618186
 21
223.7395295930739
 31
0.0
  0
LINE
  5
188C
330
1A
100
AcDbEntity
  8
NOKITOI
  6
PHANTOM
 62
     8
 48
5.0
100
AcDbLine
 10
453.1391539618185
 20
222.239629593074
 30
0.0
 11
453.1391539618185
 21
207.622729593074
 31
0.0
  0
LINE
  5
188D
330
1A
100
AcDbEntity
  8
NOKITOI
  6
PHANTOM
 62
     8
 48
5.0
100
AcDbLine
 10
458.4709539618186
 20
222.9396295930739
 30
0.0
 11
459.0800539618188
 21
209.539629593074
 31
0.0
  0
LINE
  5
188E
330
1A
100
AcDbEntity
  8
NOKITOI
  6
PHANTOM
 62
     8
 48
5.0
100
AcDbLine
 10
454.4391539618184
 20
209.539629593074
 30
0.0
 11
454.4391539618184
 21
221.522229593074
 31
0.0
  0
LINE
  5
188F
330
1A
100
AcDbEntity
  8
SEIHIN
  6
Continuous
 62
     3
 48
5.0
100
AcDbLine
 10
450.6573539618184
 20
206.6395295930739
 30
0.0
 11
450.2573539618186
 21
222.7395295930738
 31
0.0
  0
LINE
  5
1890
330
1A
100
AcDbEntity
  8
SEIHIN
  6
Continuous
 62
     3
 48
5.0
100
AcDbLine
 10
452.6573539618184
 20
206.6395295930739
 30
0.0
 11
452.7573539618186
 21
221.7395295930738
 31
0.0
  0
ARC
  5
1891
330
1A
100
AcDbEntity
  8
SEIHIN
  6
Continuous
 62
     3
 48
5.0
100
AcDbCircle
 10
453.6573539618184
 20
206.6395295930739
 30
0.0
 40
3.0
100
AcDbArc
 50
180.0
 51
270.0
  0
LINE
  5
1892
330
1A
100
AcDbEntity
  8
NOKITOI
  6
PHANTOM
 62
     8
 48
5.0
100
AcDbLine
 10
459.0800539618188
 20
209.539629593074
 30
0.0
 11
454.4391539618184
 21
209.539629593074
 31
0.0
  0
LINE
  5
1893
330
1A
100
AcDbEntity
  8
NOKITOI
  6
PHANTOM
 62
     8
 48
5.0
100
AcDbLine
 10
455.6391539618187
 20
208.2396295930739
 30
0.0
 11
453.8963539618185
 21
207.1939295930739
 31
0.0
  0
LINE
  5
1894
330
1A
100
AcDbEntity
  8
NOKITOI
  6
PHANTOM
 62
     8
 48
5.0
100
AcDbLine
 10
459.1391539618187
 20
208.2396295930739
 30
0.0
 11
455.6391539618187
 21
208.2396295930739
 31
0.0
  0
ARC
  5
1895
330
1A
100
AcDbEntity
  8
NOKITOI
  6
PHANTOM
 62
     8
 48
5.0
100
AcDbCircle
 10
453.639164601592
 20
207.6227235679727
 30
0.0
 40
0.500010639809949
100
AcDbArc
 50
179.9993095889357
 51
300.9552055394213
  0
ARC
  5
1896
330
1A
100
AcDbEntity
  8
SEIHIN
  6
Continuous
 62
     3
 48
5.0
100
AcDbCircle
 10
455.4350365918551
 20
201.6395461907117
 30
0.0
 40
1.999983402437618
100
AcDbArc
 50
2.604536210557554
 51
89.99950238307264
  0
ARC
  5
1897
330
1A
100
AcDbEntity
  8
SEIHIN
  6
Continuous
 62
     3
 48
5.0
100
AcDbCircle
 10
457.8239807337867
 20
204.1395040118436
 30
0.0
 40
1.500025581469238
100
AcDbArc
 50
2.606880131800363
 51
90.00102259641504
  0
ARC
  5
1898
330
1A
100
AcDbEntity
  8
SEIHIN
  6
Continuous
 62
     3
 48
5.0
100
AcDbCircle
 10
456.4360365918551
 20
201.6395461907116
 30
0.0
 40
1.999983402437752
100
AcDbArc
 50
2.604536210561625
 51
89.99950238307712
  0
ARC
  5
1899
330
1A
100
AcDbEntity
  8
SEIHIN
  6
Continuous
 62
     3
 48
5.0
100
AcDbCircle
 10
453.6573539618184
 20
206.6395295930739
 30
0.0
 40
1.0
100
AcDbArc
 50
180.0
 51
270.0
  0
LINE
  5
189A
330
1A
100
AcDbEntity
  8
SEIHIN
  6
Continuous
 62
     3
 48
5.0
100
AcDbLine
 10
456.4360539618184
 20
203.6395295930739
 30
0.0
 11
453.6573539618184
 21
203.6395295930739
 31
0.0
  0
LINE
  5
189B
330
1A
100
AcDbEntity
  8
SEIHIN
  6
Continuous
 62
     3
 48
5.0
100
AcDbLine
 10
457.8239539618186
 20
205.6395295930739
 30
0.0
 11
453.6573539618184
 21
205.6395295930739
 31
0.0
  0
LINE
  5
189C
330
1A
100
AcDbEntity
  8
NOKITOI
  6
PHANTOM
 62
     8
 48
5.0
100
AcDbLine
 10
459.2354539618184
 20
224.239629593074
 30
0.0
 11
456.3131539618184
 21
224.239629593074
 31
0.0
  0
LINE
  5
189D
330
1A
100
AcDbEntity
  8
NOKITOI
  6
PHANTOM
 62
     8
 48
5.0
100
AcDbLine
 10
454.4391539618184
 20
221.522229593074
 30
0.0
 11
456.6886539618183
 21
222.9396295930739
 31
0.0
  0
LINE
  5
189E
330
1A
100
AcDbEntity
  8
NOKITOI
  6
PHANTOM
 62
     8
 48
5.0
100
AcDbLine
 10
456.6886539618183
 20
222.9396295930739
 30
0.0
 11
458.4709539618186
 21
222.9396295930739
 31
0.0
  0
ARC
  5
189F
330
1A
100
AcDbEntity
  8
NOKITOI
  6
PHANTOM
 62
     8
 48
5.0
100
AcDbCircle
 10
459.2354620928229
 20
223.7396218231947
 30
0.0
 40
0.5000077699453767
100
AcDbArc
 50
2.602973615180467
 51
90.00093172997707
  0
LINE
  5
18A0
330
1A
100
AcDbEntity
  8
NOKITOI
  6
PHANTOM
 62
     8
 48
5.0
100
AcDbLine
 10
456.3131539618184
 20
224.239629593074
 30
0.0
 11
453.1391539618185
 21
222.239629593074
 31
0.0
  0
ARC
  5
18A1
330
1A
100
AcDbEntity
  8
SEIHIN
  6
Continuous
 62
     3
 48
5.0
100
AcDbCircle
 10
454.7573539618186
 20
221.7395295930739
 30
0.0
 40
2.000000000000043
100
AcDbArc
 50
90.00000000000122
 51
180.0000000000016
  0
LINE
  5
18A2
330
1A
100
AcDbEntity
  8
SEIHIN
  6
Continuous
 62
     3
 48
5.0
100
AcDbLine
 10
460.2573539618186
 20
222.7395295930738
 30
0.0
 11
460.2573539618186
 21
223.7395295930739
 31
0.0
  0
LINE
  5
18A3
330
1A
100
AcDbEntity
  8
SEIHIN
  6
Continuous
 62
     3
 48
5.0
100
AcDbLine
 10
460.2573539618186
 20
225.7395295930738
 30
0.0
 11
453.2573539618185
 21
225.7395295930738
 31
0.0
  0
LINE
  5
18A4
330
1A
100
AcDbEntity
  8
SEIHIN
  6
Continuous
 62
     3
 48
5.0
100
AcDbLine
 10
453.5858539618185
 20
242.1395295930738
 30
0.0
 11
453.5858539618185
 21
225.7395295930738
 31
0.0
  0
ARC
  5
18A5
330
1A
100
AcDbEntity
  8
SEIHIN
  6
Continuous
 62
     3
 48
5.0
100
AcDbCircle
 10
453.2573539618186
 20
242.139529593074
 30
0.0
 40
2.999999999999986
100
AcDbArc
 50
90.00000000000185
 51
180.0000000000016
  0
ARC
  5
18A6
330
1A
100
AcDbEntity
  8
SEIHIN
  6
Continuous
 62
     3
 48
5.0
100
AcDbCircle
 10
456.5858539618187
 20
242.1395295930739
 30
0.0
 40
3.000000000000043
100
AcDbArc
 50
90.00000000000081
 51
180.0000000000008
  0
LINE
  5
18A7
330
1A
100
AcDbEntity
  8
NOKITOI
  6
PHANTOM
 62
     8
 48
5.0
100
AcDbLine
 10
566.4332539618183
 20
219.626029593074
 30
0.0
 11
562.5160539618184
 21
191.646329593074
 31
0.0
  0
ARC
  5
18A8
330
1A
100
AcDbEntity
  8
NOKITOI
  6
PHANTOM
 62
     8
 48
5.0
100
AcDbCircle
 10
546.1092907282618
 20
210.0498796593727
 30
0.0
 40
17.49998460705382
100
AcDbArc
 50
295.3855214006839
 51
352.0303402767059
  0
DIMENSION
  5
18A9
330
1A
100
AcDbEntity
  8
SUNPOU
 62
     4
 48
5.0
100
AcDbDimension
  2
*D11
 10
612.0943623226112
 20
162.2395295930739
 30
0.0
 11
607.0943623226112
 21
203.689529593074
 31
0.0
 70
    32
 71
     5
 42
82.90000000000003
  3
STANDARD
100
AcDbAlignedDimension
 13
582.6063539618184
 23
245.1395295930739
 33
0.0
 14
550.6391539618186
 24
162.2395295930739
 34
0.0
 50
90.0
100
AcDbRotatedDimension
1001
ACAD
1000
DSTYLE
1002
{
1070
   140
1040
6.0
1070
    74
1070
     0
1070
   172
1070
     1
1070
    73
1070
     0
1070
   272
1070
     2
1070
    77
1070
     3
1070
   173
1070
     1
1070
   147
1040
2.0
1070
    42
1040
6.0
1070
    44
1040
3.0
1070
    43
1040
14.0
1070
   271
1070
     0
1070
   178
1070
     4
1070
   177
1070
     4
1070
   176
1070
     4
1070
   141
1040
150.0
1070
     7
1000
_OPEN
1070
     6
1000
_OPEN
1070
    41
1040
7.0
1002
}
  0
LINE
  5
18AA
330
1A
100
AcDbEntity
  8
SEIHIN
  6
Continuous
 62
     3
 48
5.0
100
AcDbLine
 10
634.1240204730145
 20
162.2396295930738
 30
0.0
 11
634.1240204730145
 21
244.2103295930738
 31
0.0
  0
LINE
  5
18AB
330
1A
100
AcDbEntity
  8
SEIHIN
  6
Continuous
 62
     3
 48
5.0
100
AcDbLine
 10
629.1242204730147
 20
163.2396295930738
 30
0.0
 11
629.1242204730147
 21
245.2394295930738
 31
0.0
  0
LINE
  5
18AC
330
1A
100
AcDbEntity
  8
SEIHIN
  6
Continuous
 62
     3
 48
5.0
100
AcDbLine
 10
562.5181539618186
 20
191.6364295930738
 30
0.0
 11
566.3018539618184
 21
218.5327295930739
 31
0.0
  0
LINE
  5
18AD
330
1A
100
AcDbEntity
  8
SEIHIN
  6
Continuous
 62
     3
 48
5.0
100
AcDbLine
 10
563.5087539618183
 20
191.4995295930739
 30
0.0
 11
567.2922539618186
 21
218.3934295930738
 31
0.0
  0
LINE
  5
18AE
330
1A
100
AcDbEntity
  8
SEIHIN
  6
Continuous
 62
     3
 48
5.0
100
AcDbLine
 10
568.2824539618185
 20
218.2540295930739
 30
0.0
 11
564.4989539618185
 21
191.3602295930739
 31
0.0
  0
ARC
  5
18AF
330
1A
100
AcDbEntity
  8
NOKITOI
  6
PHANTOM
 62
     8
 48
5.0
100
AcDbCircle
 10
545.1850986920722
 20
194.0726903099308
 30
0.0
 40
17.49996433219532
100
AcDbArc
 50
295.2106127824465
 51
352.0306263708307
  0
LINE
  5
18B0
330
1A
100
AcDbEntity
  8
NOKITOI
  6
PHANTOM
 62
     8
 48
5.0
100
AcDbLine
 10
549.8795539618184
 20
168.1152295930739
 30
0.0
 11
553.6116539618186
 21
194.239629593074
 31
0.0
  0
ARC
  5
18B1
330
1A
100
AcDbEntity
  8
SEIHIN
  6
Continuous
 62
     3
 48
5.0
100
AcDbCircle
 10
545.188762489558
 20
194.0744415211495
 30
0.0
 40
18.49999914824647
100
AcDbArc
 50
296.8838515335465
 51
351.9918381320478
  0
ARC
  5
18B2
330
1A
100
AcDbEntity
  8
SEIHIN
  6
Continuous
 62
     3
 48
5.0
100
AcDbCircle
 10
545.1887652641765
 20
194.0744458609081
 30
0.0
 40
19.50006022542585
100
AcDbArc
 50
298.427687435087
 51
351.9915958145165
  0
ARC
  5
18B3
330
1A
100
AcDbEntity
  8
SEIHIN
  6
Continuous
 62
     3
 48
5.0
100
AcDbCircle
 10
545.1887206544728
 20
194.0743844185693
 30
0.0
 40
17.50004525170499
100
AcDbArc
 50
295.1973818824927
 51
351.9999363194629
  0
ARC
  5
18B4
330
1A
100
AcDbEntity
  8
NOKITOI
  6
PHANTOM
 62
     8
 48
5.0
100
AcDbCircle
 10
546.9097292225044
 20
168.539508137087
 30
0.0
 40
2.99997854411512
100
AcDbArc
 50
270.0004724894745
 51
351.8695598390439
  0
LINE
  5
18B5
330
1A
100
AcDbEntity
  8
NOKITOI
  6
PHANTOM
 62
     8
 48
5.0
100
AcDbLine
 10
552.6391539618187
 20
178.239529593074
 30
0.0
 11
550.8844539618185
 21
165.9566295930739
 31
0.0
  0
LINE
  5
18B6
330
1A
100
AcDbEntity
  8
SEIHIN
  6
Continuous
 62
     3
 48
5.0
100
AcDbLine
 10
551.7517539618185
 20
164.9567295930738
 30
0.0
 11
553.5542539618184
 21
177.5738295930739
 31
0.0
  0
LINE
  5
18B7
330
1A
100
AcDbEntity
  8
SEIHIN
  6
Continuous
 62
     3
 48
5.0
100
AcDbLine
 10
552.6391539618186
 20
178.2395295930739
 30
0.0
 11
550.8844539618185
 21
165.9567295930739
 31
0.0
  0
LINE
  5
18B8
330
1A
100
AcDbEntity
  8
SEIHIN
  6
Continuous
 62
     3
 48
5.0
100
AcDbLine
 10
552.6190539618184
 20
163.9567295930738
 30
0.0
 11
554.4717539618185
 21
176.9257295930738
 31
0.0
  0
ARC
  5
18B9
330
1A
100
AcDbEntity
  8
NOKITOI
  6
PHANTOM
 62
     8
 48
5.0
100
AcDbCircle
 10
548.9045592110331
 20
166.2395341455635
 30
0.0
 40
2.000004552496454
100
AcDbArc
 50
269.999849621422
 51
351.8681267052735
  0
ARC
  5
18BA
330
1A
100
AcDbEntity
  8
SEIHIN
  6
Continuous
 62
     3
 48
5.0
100
AcDbCircle
 10
548.904551057734
 20
166.2395270743207
 30
0.0
 40
1.999997481248931
100
AcDbArc
 50
270.0000831959994
 51
351.8711962719314
  0
ARC
  5
18BB
330
1A
100
AcDbEntity
  8
SEIHIN
  6
Continuous
 62
     3
 48
5.0
100
AcDbCircle
 10
549.771851057734
 20
165.2395270743207
 30
0.0
 40
1.999997481248874
100
AcDbArc
 50
270.0000831959977
 51
351.8711962719306
  0
ARC
  5
18BC
330
1A
100
AcDbEntity
  8
SEIHIN
  6
Continuous
 62
     3
 48
5.0
100
AcDbCircle
 10
550.6391510577339
 20
164.2395270743206
 30
0.0
 40
1.999997481248789
100
AcDbArc
 50
270.000083196001
 51
351.8711962719322
  0
ARC
  5
18BD
330
1A
100
AcDbEntity
  8
NOKITOI
  6
PHANTOM
 62
     8
 48
5.0
100
AcDbCircle
 10
545.1851296116502
 20
194.0727382816565
 30
0.0
 40
16.19999005602697
100
AcDbArc
 50
298.2911635268596
 51
352.0303360871963
  0
ARC
  5
18BE
330
1A
100
AcDbEntity
  8
NOKITOI
  6
PHANTOM
 62
     8
 48
5.0
100
AcDbCircle
 10
546.1093187932347
 20
210.0498923525074
 30
0.0
 40
18.7999459388005
100
AcDbArc
 50
297.5408470656248
 51
330.5979055162219
  0
LINE
  5
18BF
330
1A
100
AcDbEntity
  8
NOKITOI
  6
PHANTOM
 62
     8
 48
5.0
100
AcDbLine
 10
554.8020539618185
 20
193.380329593074
 30
0.0
 11
552.8631539618184
 21
179.807729593074
 31
0.0
  0
LINE
  5
18C0
330
1A
100
AcDbEntity
  8
NOKITOI
  6
PHANTOM
 62
     8
 48
5.0
100
AcDbLine
 10
562.4877539618185
 20
200.8203295930739
 30
0.0
 11
561.2286539618187
 21
191.8266295930739
 31
0.0
  0
LINE
  5
18C1
330
1A
100
AcDbEntity
  8
SEIHIN
  6
Continuous
 62
     3
 48
5.0
100
AcDbLine
 10
634.1240204730145
 20
162.2396295930738
 30
0.0
 11
629.1240204730145
 21
163.2396295930738
 31
0.0
  0
LINE
  5
18C2
330
1A
100
AcDbEntity
  8
SEIHIN
  6
Continuous
 62
     3
 48
5.0
100
AcDbLine
 10
634.1240204730145
 20
176.9257295930738
 30
0.0
 11
629.1240204730145
 21
177.4258295930738
 31
0.0
  0
ARC
  5
18C3
330
1A
100
AcDbEntity
  8
NOKITOI
  6
PHANTOM
 62
     8
 48
5.0
100
AcDbCircle
 10
574.1391539618187
 20
237.939629593074
 30
0.0
 40
2.0
100
AcDbArc
 50
0.0
 51
90.0
  0
LINE
  5
18C4
330
1A
100
AcDbEntity
  8
NOKITOI
  6
PHANTOM
 62
     8
 48
5.0
100
AcDbLine
 10
571.1391539618185
 20
241.239629593074
 30
0.0
 11
575.6391539618187
 21
241.239629593074
 31
0.0
  0
ARC
  5
18C5
330
1A
100
AcDbEntity
  8
NOKITOI
  6
PHANTOM
 62
     8
 48
5.0
100
AcDbCircle
 10
574.1391539618187
 20
231.539629593074
 30
0.0
 40
2.0
100
AcDbArc
 50
270.0
 51
0.0
  0
ARC
  5
18C6
330
1A
100
AcDbEntity
  8
NOKITOI
  6
PHANTOM
 62
     8
 48
5.0
100
AcDbCircle
 10
576.3366701582811
 20
218.2396436800938
 30
0.0
 40
9.999985912993367
100
AcDbArc
 50
90.0000927990244
 51
172.0309136481757
  0
ARC
  5
18C7
330
1A
100
AcDbEntity
  8
SEIHIN
  6
Continuous
 62
     3
 48
5.0
100
AcDbCircle
 10
575.8391539618185
 20
243.6395295930738
 30
0.0
 40
1.499999999999943
100
AcDbArc
 50
179.9999999999951
 51
269.9999999999957
  0
ARC
  5
18C8
330
1A
100
AcDbEntity
  8
SEIHIN
  6
Continuous
 62
     3
 48
5.0
100
AcDbCircle
 10
575.8391539618184
 20
243.639529593074
 30
0.0
 40
1.499999999999915
100
AcDbArc
 50
90.00000000000325
 51
180.0000000000033
  0
ARC
  5
18C9
330
1A
100
AcDbEntity
  8
SEIHIN
  6
Continuous
 62
     3
 48
5.0
100
AcDbCircle
 10
576.2044755892898
 20
217.1396483908909
 30
0.0
 40
8.999981202208888
100
AcDbArc
 50
90.0001376850466
 51
171.9921188257188
  0
ARC
  5
18CA
330
1A
100
AcDbEntity
  8
SEIHIN
  6
Continuous
 62
     3
 48
5.0
100
AcDbCircle
 10
576.2044469777368
 20
217.139623522766
 30
0.0
 40
8.000006070310832
100
AcDbArc
 50
89.99994998023767
 51
171.9918966637731
  0
ARC
  5
18CB
330
1A
100
AcDbEntity
  8
SEIHIN
  6
Continuous
 62
     3
 48
5.0
100
AcDbCircle
 10
576.2043902698478
 20
217.1395742341304
 30
0.0
 40
10.00005535914638
100
AcDbArc
 50
89.99963507390928
 51
171.9918034177008
  0
LINE
  5
18CC
330
1A
100
AcDbEntity
  8
NOKITOI
  6
PHANTOM
 62
     8
 48
5.0
100
AcDbLine
 10
567.6391539618187
 20
228.239629593074
 30
0.0
 11
567.1628539618184
 21
224.8373295930738
 31
0.0
  0
ARC
  5
18CD
330
1A
100
AcDbEntity
  8
NOKITOI
  6
PHANTOM
 62
     8
 48
5.0
100
AcDbCircle
 10
576.3436600802977
 20
218.2904349661562
 30
0.0
 40
11.30001845330598
100
AcDbArc
 50
118.3023070093057
 51
144.2752200407758
  0
LINE
  5
18CE
330
1A
100
AcDbEntity
  8
NOKITOI
  6
PHANTOM
 62
     8
 48
5.0
100
AcDbLine
 10
566.5084539618185
 20
229.539629593074
 30
0.0
 11
563.4402539618184
 21
207.623529593074
 31
0.0
  0
ARC
  5
18CF
330
1A
100
AcDbEntity
  8
NOKITOI
  6
PHANTOM
 62
     8
 48
5.0
100
AcDbCircle
 10
570.4391539618184
 20
235.839729593074
 30
0.0
 40
1.300000000000011
100
AcDbArc
 50
270.0
 51
90.0
  0
LINE
  5
18D0
330
1A
100
AcDbEntity
  8
NOKITOI
  6
PHANTOM
 62
     8
 48
5.0
100
AcDbLine
 10
569.1391539618185
 20
239.239629593074
 30
0.0
 11
569.1391539618185
 21
234.539629593074
 31
0.0
  0
LINE
  5
18D1
330
1A
100
AcDbEntity
  8
NOKITOI
  6
PHANTOM
 62
     8
 48
5.0
100
AcDbLine
 10
566.5084539618185
 20
229.539629593074
 30
0.0
 11
574.1391539618187
 21
229.539629593074
 31
0.0
  0
LINE
  5
18D2
330
1A
100
AcDbEntity
  8
NOKITOI
  6
PHANTOM
 62
     8
 48
5.0
100
AcDbLine
 10
571.0745539618185
 20
228.239629593074
 30
0.0
 11
567.6391539618187
 21
228.239629593074
 31
0.0
  0
LINE
  5
18D3
330
1A
100
AcDbEntity
  8
NOKITOI
  6
PHANTOM
 62
     8
 48
5.0
100
AcDbLine
 10
570.4391539618184
 20
234.539629593074
 30
0.0
 11
569.1391539618185
 21
234.539629593074
 31
0.0
  0
ARC
  5
18D4
330
1A
100
AcDbEntity
  8
NOKITOI
  6
PHANTOM
 62
     8
 48
5.0
100
AcDbCircle
 10
571.1391539618185
 20
239.239629593074
 30
0.0
 40
2.0
100
AcDbArc
 50
90.0
 51
180.0
  0
LINE
  5
18D5
330
1A
100
AcDbEntity
  8
NOKITOI
  6
PHANTOM
 62
     8
 48
5.0
100
AcDbLine
 10
570.4391539618184
 20
237.139729593074
 30
0.0
 11
570.4391539618184
 21
237.939629593074
 31
0.0
  0
LINE
  5
18D6
330
1A
100
AcDbEntity
  8
NOKITOI
  6
PHANTOM
 62
     8
 48
5.0
100
AcDbLine
 10
572.4391539618184
 20
239.939629593074
 30
0.0
 11
574.1391539618187
 21
239.939629593074
 31
0.0
  0
ARC
  5
18D7
330
1A
100
AcDbEntity
  8
NOKITOI
  6
PHANTOM
 62
     8
 48
5.0
100
AcDbCircle
 10
572.4391539618184
 20
237.939629593074
 30
0.0
 40
2.0
100
AcDbArc
 50
90.0
 51
180.0
  0
LINE
  5
18D8
330
1A
100
AcDbEntity
  8
NOKITOI
  6
PHANTOM
 62
     8
 48
5.0
100
AcDbLine
 10
577.4391539618184
 20
242.939629593074
 30
0.0
 11
577.4391539618184
 21
229.539629593074
 31
0.0
  0
LINE
  5
18D9
330
1A
100
AcDbEntity
  8
NOKITOI
  6
PHANTOM
 62
     8
 48
5.0
100
AcDbLine
 10
576.1391539618187
 20
237.939629593074
 30
0.0
 11
576.1391539618187
 21
231.539629593074
 31
0.0
  0
LINE
  5
18DA
330
1A
100
AcDbEntity
  8
NOKITOI
  6
PHANTOM
 62
     8
 48
5.0
100
AcDbLine
 10
582.7176539618183
 20
240.867529593074
 30
0.0
 11
581.1391539618187
 21
228.239629593074
 31
0.0
  0
LINE
  5
18DB
330
1A
100
AcDbEntity
  8
NOKITOI
  6
PHANTOM
 62
     8
 48
5.0
100
AcDbLine
 10
581.3855539618187
 20
240.6915295930739
 30
0.0
 11
579.9915539618185
 21
229.539629593074
 31
0.0
  0
LINE
  5
18DC
330
1A
100
AcDbEntity
  8
SEIHIN
  6
Continuous
 62
     3
 48
5.0
100
AcDbLine
 10
583.3176539618186
 20
239.7674295930738
 30
0.0
 11
581.8486539618185
 21
228.0155295930738
 31
0.0
  0
LINE
  5
18DD
330
1A
100
AcDbEntity
  8
SEIHIN
  6
Continuous
 62
     3
 48
5.0
100
AcDbLine
 10
582.6219539618186
 20
226.1396295930738
 30
0.0
 11
584.8682539618186
 21
244.1103295930739
 31
0.0
  0
LINE
  5
18DE
330
1A
100
AcDbEntity
  8
SEIHIN
  6
Continuous
 62
     3
 48
5.0
100
AcDbLine
 10
585.5832539618184
 20
241.7674295930738
 30
0.0
 11
583.5047539618184
 21
225.1396295930738
 31
0.0
  0
LINE
  5
18DF
330
1A
100
AcDbEntity
  8
SEIHIN
  6
Continuous
 62
     3
 48
5.0
100
AcDbLine
 10
576.2044539618184
 20
225.1396295930738
 30
0.0
 11
583.5047539618184
 21
225.1396295930738
 31
0.0
  0
LINE
  5
18E0
330
1A
100
AcDbEntity
  8
NOKITOI
  6
PHANTOM
 62
     8
 48
5.0
100
AcDbLine
 10
577.4391539618184
 20
229.539629593074
 30
0.0
 11
579.9915539618185
 21
229.539629593074
 31
0.0
  0
LINE
  5
18E1
330
1A
100
AcDbEntity
  8
NOKITOI
  6
PHANTOM
 62
     8
 48
5.0
100
AcDbLine
 10
581.1391539618187
 20
228.239629593074
 30
0.0
 11
576.3366539618185
 21
228.239629593074
 31
0.0
  0
ARC
  5
18E2
330
1A
100
AcDbEntity
  8
SEIHIN
  6
Continuous
 62
     3
 48
5.0
100
AcDbCircle
 10
580.8563709826793
 20
228.1396446178482
 30
0.0
 40
1.000015024919181
100
AcDbArc
 50
269.9990247911545
 51
352.8704552156207
  0
LINE
  5
18E3
330
1A
100
AcDbEntity
  8
SEIHIN
  6
Continuous
 62
     3
 48
5.0
100
AcDbLine
 10
580.8563539618184
 20
227.1396295930739
 30
0.0
 11
576.2044539618184
 21
227.1396295930739
 31
0.0
  0
LINE
  5
18E4
330
1A
100
AcDbEntity
  8
SEIHIN
  6
Continuous
 62
     3
 48
5.0
100
AcDbLine
 10
582.6219539618186
 20
226.1396295930738
 30
0.0
 11
576.2044539618184
 21
226.1396295930738
 31
0.0
  0
ARC
  5
18E5
330
1A
100
AcDbEntity
  8
NOKITOI
  6
PHANTOM
 62
     8
 48
5.0
100
AcDbCircle
 10
579.7407390022538
 20
241.239646539003
 30
0.0
 40
2.999983054108306
100
AcDbArc
 50
352.8746979428431
 51
89.99971429174413
  0
ARC
  5
18E6
330
1A
100
AcDbEntity
  8
SEIHIN
  6
Continuous
 62
     3
 48
5.0
100
AcDbCircle
 10
580.3408390022537
 20
240.139546539003
 30
0.0
 40
2.999983054108252
100
AcDbArc
 50
352.8746979428398
 51
89.99971429174249
  0
ARC
  5
18E7
330
1A
100
AcDbEntity
  8
SEIHIN
  6
Continuous
 62
     3
 48
5.0
100
AcDbCircle
 10
582.6063828006483
 20
242.1394969250963
 30
0.0
 40
3.000032668116242
100
AcDbArc
 50
352.8757713099145
 51
90.00055077508172
  0
LINE
  5
18E8
330
1A
100
AcDbEntity
  8
NOKITOI
  6
PHANTOM
 62
     8
 48
5.0
100
AcDbLine
 10
579.7407539618184
 20
244.239629593074
 30
0.0
 11
576.1391539618187
 21
244.239629593074
 31
0.0
  0
LINE
  5
18E9
330
1A
100
AcDbEntity
  8
NOKITOI
  6
PHANTOM
 62
     8
 48
5.0
100
AcDbLine
 10
579.4009539618185
 20
242.939629593074
 30
0.0
 11
577.4391539618184
 21
242.939629593074
 31
0.0
  0
LINE
  5
18EA
330
1A
100
AcDbEntity
  8
NOKITOI
  6
PHANTOM
 62
     8
 48
5.0
100
AcDbLine
 10
576.1391539618187
 20
244.239629593074
 30
0.0
 11
576.1391539618187
 21
241.739629593074
 31
0.0
  0
ARC
  5
18EB
330
1A
100
AcDbEntity
  8
NOKITOI
  6
PHANTOM
 62
     8
 48
5.0
100
AcDbCircle
 10
575.6391539618187
 20
241.739629593074
 30
0.0
 40
0.5
100
AcDbArc
 50
270.0
 51
0.0
  0
ARC
  5
18EC
330
1A
100
AcDbEntity
  8
NOKITOI
  6
PHANTOM
 62
     8
 48
5.0
100
AcDbCircle
 10
579.4009750123498
 20
240.9396057471083
 30
0.0
 40
2.000023846076517
100
AcDbArc
 50
352.8748760474767
 51
90.00060304611316
  0
LINE
  5
18ED
330
1A
100
AcDbEntity
  8
SEIHIN
  6
Continuous
 62
     3
 48
5.0
100
AcDbLine
 10
575.8391539618184
 20
242.1395295930738
 30
0.0
 11
575.8391539618184
 21
243.1395295930739
 31
0.0
  0
LINE
  5
18EE
330
1A
100
AcDbEntity
  8
SEIHIN
  6
Continuous
 62
     3
 48
5.0
100
AcDbLine
 10
580.3408539618185
 20
243.1395295930739
 30
0.0
 11
575.8391539618184
 21
243.1395295930739
 31
0.0
  0
LINE
  5
18EF
330
1A
100
AcDbEntity
  8
SEIHIN
  6
Continuous
 62
     3
 48
5.0
100
AcDbLine
 10
634.1242204730147
 20
225.2396295930739
 30
0.0
 11
629.1242204730147
 21
225.7396295930739
 31
0.0
  0
LINE
  5
18F0
330
1A
100
AcDbEntity
  8
SEIHIN
  6
Continuous
 62
     3
 48
5.0
100
AcDbLine
 10
629.1242204730147
 20
245.2396295930739
 30
0.0
 11
634.1242204730147
 21
244.2103295930738
 31
0.0
  0
LINE
  5
18F1
330
1A
100
AcDbEntity
  8
SEIHIN
  6
Continuous
 62
     3
 48
5.0
100
AcDbLine
 10
766.4019204730146
 20
218.3540295930738
 30
0.0
 11
762.6185204730145
 21
191.4601295930739
 31
0.0
  0
ARC
  5
18F2
330
1A
100
AcDbEntity
  8
SEIHIN
  6
Continuous
 62
     3
 48
5.0
100
AcDbCircle
 10
743.3081928146841
 20
194.1742897831742
 30
0.0
 40
19.50007706231925
100
AcDbArc
 50
298.428124939172
 51
351.9920658835329
  0
LINE
  5
18F3
330
1A
100
AcDbEntity
  8
SEIHIN
  6
Continuous
 62
     3
 48
5.0
100
AcDbLine
 10
750.7385204730147
 20
164.0566295930738
 30
0.0
 11
752.5913204730146
 21
177.0256295930739
 31
0.0
  0
ARC
  5
18F4
330
1A
100
AcDbEntity
  8
SEIHIN
  6
Continuous
 62
     3
 48
5.0
100
AcDbCircle
 10
748.7587257222292
 20
164.3395341455634
 30
0.0
 40
2.000004552496374
100
AcDbArc
 50
269.9998496214207
 51
351.8681267052735
  0
ARC
  5
18F5
330
1A
100
AcDbEntity
  8
SEIHIN
  6
Continuous
 62
     3
 48
5.0
100
AcDbCircle
 10
774.3239134889329
 20
217.239523522766
 30
0.0
 40
8.000006070310995
100
AcDbArc
 50
89.99994998023746
 51
171.9918966637731
  0
LINE
  5
18F6
330
1A
100
AcDbEntity
  8
SEIHIN
  6
Continuous
 62
     3
 48
5.0
100
AcDbLine
 10
783.7027204730146
 20
241.8674295930738
 30
0.0
 11
781.6242204730147
 21
225.2395295930739
 31
0.0
  0
LINE
  5
18F7
330
1A
100
AcDbEntity
  8
SEIHIN
  6
Continuous
 62
     3
 48
5.0
100
AcDbLine
 10
774.3239204730146
 20
225.2395295930739
 30
0.0
 11
781.6242204730147
 21
225.2395295930739
 31
0.0
  0
ARC
  5
18F8
330
1A
100
AcDbEntity
  8
SEIHIN
  6
Continuous
 62
     3
 48
5.0
100
AcDbCircle
 10
780.7259055134498
 20
242.239546539003
 30
0.0
 40
2.999983054108227
100
AcDbArc
 50
352.8746979428398
 51
89.99971429174188
  0
DIMENSION
  5
18F9
330
1A
100
AcDbEntity
  8
SUNPOU
 62
     4
 48
5.0
100
AcDbDimension
  2
*D12
 10
580.3618539618184
 20
481.844329593074
 30
0.0
 11
561.2802669283191
 21
428.5346356127608
 31
0.0
 70
    34
 71
     5
 42
0.7853973918204904
  3
STANDARD
100
AcDb2LineAngularDimension
 13
585.4831539618185
 23
332.2395295930739
 33
0.0
 14
585.4831539618185
 24
479.7230295930737
 34
0.0
 15
450.7572539618184
 25
352.2395295930738
 35
0.0
 16
551.3605590694392
 26
427.863499247726
 36
0.0
1001
ACAD
1000
DSTYLE
1002
{
1070
   271
1070
     0
1070
   271
1070
     0
1070
   271
1070
     0
1070
   140
1040
6.0
1070
    74
1070
     0
1070
   172
1070
     1
1070
    73
1070
     0
1070
   272
1070
     2
1070
    77
1070
     3
1070
   173
1070
     1
1070
   147
1040
2.0
1070
    42
1040
6.0
1070
    44
1040
3.0
1070
    43
1040
14.0
1070
   271
1070
     0
1070
   178
1070
     4
1070
   177
1070
     4
1070
   176
1070
     4
1070
   141
1040
150.0
1070
     7
1000
_OPEN
1070
     6
1000
_OPEN
1070
    41
1040
7.0
1002
}
  0
DIMENSION
  5
18FA
330
1A
100
AcDbEntity
  8
SUNPOU
 62
     4
 48
5.0
100
AcDbDimension
  2
*D13
 10
612.0943623226112
 20
327.2395295930738
 30
0.0
 11
607.0943623226111
 21
404.981269421297
 31
0.0
 70
    32
 71
     5
 42
155.4834796564464
  3
STANDARD
100
AcDbAlignedDimension
 13
582.4831683468874
 23
482.7230092495202
 33
0.0
 14
584.4831539618185
 24
327.2395295930738
 34
0.0
 50
90.0
100
AcDbRotatedDimension
1001
ACAD
1000
DSTYLE
1002
{
1070
   140
1040
6.0
1070
    74
1070
     0
1070
   172
1070
     1
1070
    73
1070
     0
1070
   272
1070
     2
1070
    77
1070
     3
1070
   173
1070
     1
1070
   147
1040
2.0
1070
    42
1040
6.0
1070
    44
1040
3.0
1070
    43
1040
14.0
1070
   271
1070
     0
1070
   178
1070
     4
1070
   177
1070
     4
1070
   176
1070
     4
1070
   141
1040
150.0
1070
     7
1000
_OPEN
1070
     6
1000
_OPEN
1070
    41
1040
7.0
1002
}
  0
ARC
  5
18FB
330
1A
100
AcDbEntity
  8
SEIHIN
  6
Continuous
 62
     3
 48
5.0
100
AcDbCircle
 10
582.2206587568414
 20
479.4605276069102
 30
0.0
 40
0.9999952049790408
100
AcDbArc
 50
0.0001137993353884
 51
135.0001137993361
  0
ARC
  5
18FC
330
1A
100
AcDbEntity
  8
SEIHIN
  6
Continuous
 62
     3
 48
5.0
100
AcDbCircle
 10
582.4831683468874
 20
479.7230236345831
 30
0.0
 40
2.999985614937037
100
AcDbArc
 50
0.00011379933376
 51
135.0001137993337
  0
LINE
  5
18FD
330
1A
100
AcDbEntity
  8
SEIHIN
  6
Continuous
 62
     3
 48
5.0
100
AcDbLine
 10
453.5857539618185
 20
352.2395295930738
 30
0.0
 11
581.5135539618184
 21
480.1676295930737
 31
0.0
  0
LINE
  5
18FE
330
1A
100
AcDbEntity
  8
SEIHIN
  6
Continuous
 62
     3
 48
5.0
100
AcDbLine
 10
450.7572539618184
 20
352.2395295930738
 30
0.0
 11
580.3618539618184
 21
481.8443295930739
 31
0.0
  0
LINE
  5
18FF
330
1A
100
AcDbEntity
  8
SUNPOU
  6
PHANTOM
 62
     4
 48
5.0
100
AcDbLine
 10
574.6398539618185
 20
352.2395295930738
 30
0.0
 11
461.2555539618186
 21
352.2395295930738
 31
0.0
  0
LINE
  5
1900
330
1A
100
AcDbEntity
  8
SEIHIN
  6
Continuous
 62
     3
 48
5.0
100
AcDbLine
 10
584.4831539618185
 20
327.2395295930738
 30
0.0
 11
450.7573539618186
 21
327.2395295930738
 31
0.0
  0
DIMENSION
  5
1901
330
1A
100
AcDbEntity
  8
SUNPOU
 62
     4
 48
5.0
100
AcDbDimension
  2
*D14
 10
421.6963656625039
 20
327.2395295930738
 30
0.0
 11
416.6963656625039
 21
339.7395295930739
 31
0.0
 70
    32
  1
※ <>
 71
     5
 42
25.0
  3
STANDARD
100
AcDbAlignedDimension
 13
456.0064039618185
 23
352.2395295930738
 33
0.0
 14
450.7573539618186
 24
327.2395295930738
 34
0.0
 50
90.0
100
AcDbRotatedDimension
1001
ACAD
1000
DSTYLE
1002
{
1070
   140
1040
6.0
1070
    74
1070
     0
1070
   172
1070
     1
1070
    73
1070
     0
1070
   272
1070
     2
1070
    77
1070
     3
1070
   173
1070
     1
1070
   147
1040
2.0
1070
    42
1040
6.0
1070
    44
1040
3.0
1070
    43
1040
14.0
1070
   271
1070
     0
1070
   178
1070
     4
1070
   177
1070
     4
1070
   176
1070
     4
1070
   141
1040
150.0
1070
     7
1000
_OPEN
1070
     6
1000
_OPEN
1070
    41
1040
7.0
1002
}
  0
LINE
  5
1902
330
1A
100
AcDbEntity
  8
SEIHIN
  6
Continuous
 62
     3
 48
5.0
100
AcDbLine
 10
461.2555539618186
 20
352.2395295930738
 30
0.0
 11
461.2555539618186
 21
327.2395295930738
 31
0.0
  0
LINE
  5
1903
330
1A
100
AcDbEntity
  8
SEIHIN
  6
Continuous
 62
     3
 48
5.0
100
AcDbLine
 10
450.7572539618184
 20
352.2395295930738
 30
0.0
 11
450.7572539618184
 21
327.2395295930738
 31
0.0
  0
LINE
  5
1904
330
1A
100
AcDbEntity
  8
SEIHIN
  6
Continuous
 62
     3
 48
5.0
100
AcDbLine
 10
450.7572539618184
 20
352.2395295930738
 30
0.0
 11
461.2555539618186
 21
352.2395295930738
 31
0.0
  0
LINE
  5
1905
330
1A
100
AcDbEntity
  8
SEIHIN
  6
Continuous
 62
     3
 48
5.0
100
AcDbLine
 10
459.2572539618184
 20
357.9111295930739
 30
0.0
 11
459.2572539618184
 21
352.2395295930738
 31
0.0
  0
LINE
  5
1906
330
1A
100
AcDbEntity
  8
SEIHIN
  6
Continuous
 62
     3
 48
5.0
100
AcDbLine
 10
461.1390539618184
 20
359.7929295930739
 30
0.0
 11
461.1390539618184
 21
352.2395295930738
 31
0.0
  0
LINE
  5
1907
330
1A
100
AcDbEntity
  8
SEIHIN
  6
Continuous
 62
     3
 48
5.0
100
AcDbLine
 10
585.4831539618185
 20
332.2395295930739
 30
0.0
 11
585.4831539618185
 21
479.7230295930737
 31
0.0
  0
LINE
  5
1908
330
1A
100
AcDbEntity
  8
SEIHIN
  6
Continuous
 62
     3
 48
5.0
100
AcDbLine
 10
566.3020539618184
 20
327.2395295930738
 30
0.0
 11
566.3020539618184
 21
464.9561295930739
 31
0.0
  0
LINE
  5
1909
330
1A
100
AcDbEntity
  8
SEIHIN
  6
Continuous
 62
     3
 48
5.0
100
AcDbLine
 10
581.6391539618186
 20
477.8790295930737
 30
0.0
 11
581.6391539618186
 21
352.2395295930738
 31
0.0
  0
LINE
  5
190A
330
1A
100
AcDbEntity
  8
SEIHIN
  6
Continuous
 62
     3
 48
5.0
100
AcDbLine
 10
583.2206539618186
 20
479.4605295930737
 30
0.0
 11
583.2206539618186
 21
354.2395295930738
 31
0.0
  0
LINE
  5
190B
330
1A
100
AcDbEntity
  8
SEIHIN
  6
Continuous
 62
     3
 48
5.0
100
AcDbLine
 10
552.6391539618186
 20
448.8788295930739
 30
0.0
 11
552.6391539618186
 21
327.2395295930738
 31
0.0
  0
LINE
  5
190C
330
1A
100
AcDbEntity
  8
SEIHIN
  6
Continuous
 62
     3
 48
5.0
100
AcDbLine
 10
550.6391539618186
 20
446.8789295930739
 30
0.0
 11
550.6390539618184
 21
327.2395295930738
 31
0.0
  0
LINE
  5
190D
330
1A
100
AcDbEntity
  8
SEIHIN
  6
Continuous
 62
     3
 48
5.0
100
AcDbLine
 10
574.6398539618185
 20
352.2395295930738
 30
0.0
 11
574.6398539618185
 21
327.2395295930738
 31
0.0
  0
LINE
  5
190E
330
1A
100
AcDbEntity
  8
SEIHIN
  6
Continuous
 62
     3
 48
5.0
100
AcDbLine
 10
584.4831539618185
 20
327.2395295930738
 30
0.0
 11
585.4831539618185
 21
332.2395295930739
 31
0.0
  0
LINE
  5
190F
330
1A
100
AcDbEntity
  8
SEIHIN
  6
Continuous
 62
     3
 48
5.0
100
AcDbLine
 10
574.6398539618185
 20
352.2395295930738
 30
0.0
 11
581.2206539618184
 21
352.2395295930738
 31
0.0
  0
ARC
  5
1910
330
1A
100
AcDbEntity
  8
SEIHIN
  6
Continuous
 62
     3
 48
5.0
100
AcDbCircle
 10
581.2206539618185
 20
354.2395295930739
 30
0.0
 40
2.000000000000085
100
AcDbArc
 50
269.9999999999976
 51
359.9999999999976
  0
LINE
  5
1911
330
1A
100
AcDbEntity
  8
SUNPOU
  6
Continuous
 62
     4
 48
5.0
100
AcDbLine
 10
577.5334539618185
 20
479.0159295930739
 30
0.0
 11
542.4695539618185
 21
443.9520295930738
 31
0.0
  0
ARC
  5
1912
330
1A
100
AcDbEntity
  8
SUNPOU
  6
Continuous
 62
     3
 48
5.0
100
AcDbCircle
 10
549.6391587568415
 20
446.8789276069102
 30
0.0
 40
0.9999952049790124
100
AcDbArc
 50
0.0001137993402738
 51
135.0001137993407
  0
ARC
  5
1913
330
1A
100
AcDbEntity
  8
SUNPOU
  6
Continuous
 62
     3
 48
5.0
100
AcDbCircle
 10
551.6391587568415
 20
448.8788276069103
 30
0.0
 40
0.9999952049790124
100
AcDbArc
 50
0.0001137993353884
 51
135.0001137993326
  0
ARC
  5
1914
330
1A
100
AcDbEntity
  8
SEIHIN
  6
Continuous
 62
     3
 48
5.0
100
AcDbCircle
 10
580.6391941109305
 20
477.8790129644303
 30
0.0
 40
0.9999598510263651
100
AcDbArc
 50
0.0009527893433859
 51
135.0050045381178
  0
VIEWPORT
  5
22
330
17
100
AcDbEntity
 67
     1
  8
0
100
AcDbViewport
 10
313.6808219178083
 20
148.5
 30
0.0
 40
627.3616438356165
 41
297.0
 68
     2
 69
     1
 12
313.6808219178083
 22
148.5
 13
0.0
 23
0.0
 14
1.0
 24
1.0
 15
10.0
 25
10.0
 16
0.0
 26
0.0
 36
1.0
 17
0.0
 27
0.0
 37
0.0
 42
50.0
 43
0.0
 44
0.0
 45
297.0
 50
0.0
 51
0.0
 72
   100
 90
    32768
  1

281
     0
 71
     1
 74
     0
110
0.0
120
0.0
130
0.0
111
1.0
121
0.0
131
0.0
112
0.0
122
1.0
132
0.0
 79
     0
146
0.0
  0
VIEWPORT
  5
64
330
17
100
AcDbEntity
 67
     1
  8
VIEWPORT
100
AcDbViewport
 10
210.0
 20
148.5
 30
0.0
 40
420.0
 41
297.0
 68
     1
 69
     2
 12
420.0
 22
297.0
 13
0.0
 23
0.0
 14
10.0
 24
10.0
 15
0.0
 25
0.0
 16
0.0
 26
0.0
 36
1.0
 17
0.0
 27
0.0
 37
0.0
 42
50.0
 43
0.0
 44
0.0
 45
605.8799999999999
 50
0.0
 51
0.0
 72
   100
 90
    32768
  1

281
     0
 71
     1
 74
     0
110
0.0
120
0.0
130
0.0
111
1.0
121
0.0
131
0.0
112
0.0
122
1.0
132
0.0
 79
     0
146
0.0
  0
ENDSEC
  0
SECTION
  2
OBJECTS
  0
DICTIONARY
  5
C
330
0
100
AcDbDictionary
281
     1
  3
ACAD_GROUP
350
D
  3
ACAD_LAYOUT
350
4BC
  3
ACAD_MLINESTYLE
350
E
  3
ACAD_PLOTSETTINGS
350
4BD
  3
ACAD_PLOTSTYLENAME
350
4BA
  0
DICTIONARY
  5
D
102
{ACAD_REACTORS
330
C
102
}
330
C
100
AcDbDictionary
281
     1
  0
DICTIONARY
  5
4BC
102
{ACAD_REACTORS
330
C
102
}
330
C
100
AcDbDictionary
281
     1
  3
Model
350
4BE
  3
ﾚｲｱｳﾄ1
350
4BF
  0
DICTIONARY
  5
E
102
{ACAD_REACTORS
330
C
102
}
330
C
100
AcDbDictionary
281
     1
  3
STANDARD
350
13
  0
DICTIONARY
  5
4BD
102
{ACAD_REACTORS
330
C
102
}
330
C
100
AcDbDictionary
281
     1
  0
ACDBDICTIONARYWDFLT
  5
4BA
102
{ACAD_REACTORS
330
C
102
}
330
C
100
AcDbDictionary
281
     1
  3
Normal
350
4BB
100
AcDbDictionaryWithDefault
340
4BB
1001
ACAD
1000
TREAT_AS_HARD
1070
     0
1000
TREAT_AS_HARD
1070
     0
1000
TREAT_AS_HARD
1070
     0
1000
TREAT_AS_HARD
1070
     0
  0
LAYOUT
  5
4BE
102
{ACAD_REACTORS
330
4BC
102
}
330
4BC
100
AcDbPlotSettings
  1

  2
Canon LASER SHOT LBP-2360
  4
A3
  6

 40
5.873749732971191
 41
5.873747825622559
 42
5.873748779296875
 43
5.873748779296875
 44
296.9259948730469
 45
419.9466552734375
 46
0.0
 47
0.0
 48
0.0
 49
0.0
140
0.0
141
0.0
142
1.0
143
2.0
 70
 28336
 72
     1
 73
     1
 74
     2
  7
systemprinter.ctb
 75
    17
147
0.5
148
0.0
149
0.0
100
AcDbLayout
  1
Model
 70
     1
 71
     0
 10
0.0
 20
0.0
 11
12.0
 21
9.0
 12
0.0
 22
0.0
 32
0.0
 14
0.0
 24
0.0
 34
0.0
 15
0.0
 25
0.0
 35
0.0
146
0.0
 13
0.0
 23
0.0
 33
0.0
 16
1.0
 26
0.0
 36
0.0
 17
0.0
 27
1.0
 37
0.0
 76
     0
330
1A
  0
LAYOUT
  5
4BF
102
{ACAD_REACTORS
330
4BC
102
}
330
4BC
100
AcDbPlotSettings
  1

  2
Canon LBP-730 LIPS4
  4

  6

 40
0.0
 41
0.0
 42
0.0
 43
0.0
 44
0.0
 45
0.0
 46
0.0
 47
0.0
 48
0.0
 49
0.0
140
0.0
141
0.0
142
1.0
143
1.0
 70
   688
 72
     0
 73
     0
 74
     5
  7
systemprinter.ctb
 75
    16
147
1.0
148
0.0
149
0.0
100
AcDbLayout
  1
ﾚｲｱｳﾄ1
 70
     1
 71
     1
 10
0.0
 20
0.0
 11
420.0
 21
297.0
 12
0.0
 22
0.0
 32
0.0
 14
0.0
 24
0.0
 34
0.0
 15
420.0
 25
297.0
 35
0.0
146
0.0
 13
0.0
 23
0.0
 33
0.0
 16
1.0
 26
0.0
 36
0.0
 17
0.0
 27
1.0
 37
0.0
 76
     0
330
17
331
64
  0
MLINESTYLE
  5
13
102
{ACAD_REACTORS
330
E
102
}
330
E
100
AcDbMlineStyle
  2
STANDARD
 70
     0
  3

 62
     0
 51
90.0
 52
90.0
 71
     2
 49
0.5
 62
   256
  6
BYLAYER
 49
-0.5
 62
   256
  6
BYLAYER
  0
ACDBPLACEHOLDER
  5
4BB
102
{ACAD_REACTORS
330
4BA
102
}
330
4BA
  0
ENDSEC
  0
EOF
