  0
SECTION
  2
HEADER
  9
$ACADVER
  1
AC1015
  9
$ACADMAINTVER
 70
     6
  9
$DWGCODEPAGE
  3
ANSI_932
  9
$INSBASE
 10
0.0
 20
0.0
 30
0.0
  9
$EXTMIN
 10
0.0000003933412245
 20
-0.0000003446635901
 30
0.0
  9
$EXTMAX
 10
797.6000003933413
 20
551.5999996553366
 30
0.0
  9
$LIMMIN
 10
0.0
 20
0.0
  9
$LIMMAX
 10
840.0
 20
594.0
  9
$ORTHOMODE
 70
     0
  9
$REGENMODE
 70
     1
  9
$FILLMODE
 70
     1
  9
$QTEXTMODE
 70
     0
  9
$MIRRTEXT
 70
     1
  9
$LTSCALE
 40
2.0
  9
$ATTMODE
 70
     1
  9
$TEXTSIZE
 40
5.0
  9
$TRACEWID
 40
1.0
  9
$TEXTSTYLE
  7
STANDARD
  9
$CLAYER
  8
SUNPOU
  9
$CELTYPE
  6
BYLAYER
  9
$CECOLOR
 62
   256
  9
$CELTSCALE
 40
1.0
  9
$DISPSILH
 70
     0
  9
$DIMSCALE
 40
1.0
  9
$DIMASZ
 40
7.0
  9
$DIMEXO
 40
6.0
  9
$DIMDLI
 40
14.0
  9
$DIMRND
 40
0.0
  9
$DIMDLE
 40
0.0
  9
$DIMEXE
 40
3.0
  9
$DIMTP
 40
0.0
  9
$DIMTM
 40
0.0
  9
$DIMTXT
 40
6.0
  9
$DIMCEN
 40
150.0
  9
$DIMTSZ
 40
0.0
  9
$DIMTOL
 70
     0
  9
$DIMLIM
 70
     0
  9
$DIMTIH
 70
     0
  9
$DIMTOH
 70
     0
  9
$DIMSE1
 70
     0
  9
$DIMSE2
 70
     0
  9
$DIMTAD
 70
     3
  9
$DIMZIN
 70
     0
  9
$DIMBLK
  1

  9
$DIMASO
 70
     1
  9
$DIMSHO
 70
     1
  9
$DIMPOST
  1

  9
$DIMAPOST
  1

  9
$DIMALT
 70
     0
  9
$DIMALTD
 70
     2
  9
$DIMALTF
 40
25.4
  9
$DIMLFAC
 40
1.0
  9
$DIMTOFL
 70
     1
  9
$DIMTVP
 40
0.0
  9
$DIMTIX
 70
     0
  9
$DIMSOXD
 70
     0
  9
$DIMSAH
 70
     1
  9
$DIMBLK1
  1
OPEN
  9
$DIMBLK2
  1
OPEN
  9
$DIMSTYLE
  2
STANDARD
  9
$DIMCLRD
 70
   256
  9
$DIMCLRE
 70
   256
  9
$DIMCLRT
 70
   256
  9
$DIMTFAC
 40
1.0
  9
$DIMGAP
 40
2.0
  9
$DIMJUST
 70
     0
  9
$DIMSD1
 70
     0
  9
$DIMSD2
 70
     0
  9
$DIMTOLJ
 70
     1
  9
$DIMTZIN
 70
     0
  9
$DIMALTZ
 70
     0
  9
$DIMALTTZ
 70
     0
  9
$DIMUPT
 70
     0
  9
$DIMDEC
 70
     0
  9
$DIMTDEC
 70
     0
  9
$DIMALTU
 70
     2
  9
$DIMALTTD
 70
     2
  9
$DIMTXSTY
  7
STANDARD
  9
$DIMAUNIT
 70
     0
  9
$DIMADEC
 70
     0
  9
$DIMALTRND
 40
0.0
  9
$DIMAZIN
 70
     0
  9
$DIMDSEP
 70
    46
  9
$DIMATFIT
 70
     3
  9
$DIMFRAC
 70
     0
  9
$DIMLDRBLK
  1
OPEN
  9
$DIMLUNIT
 70
     2
  9
$DIMLWD
 70
    -1
  9
$DIMLWE
 70
    -1
  9
$DIMTMOVE
 70
     0
  9
$LUNITS
 70
     2
  9
$LUPREC
 70
     4
  9
$SKETCHINC
 40
1.0
  9
$FILLETRAD
 40
0.5
  9
$AUNITS
 70
     0
  9
$AUPREC
 70
     0
  9
$MENU
  1
.
  9
$ELEVATION
 40
0.0
  9
$PELEVATION
 40
0.0
  9
$THICKNESS
 40
0.0
  9
$LIMCHECK
 70
     0
  9
$CHAMFERA
 40
20.0
  9
$CHAMFERB
 40
20.0
  9
$CHAMFERC
 40
40.0
  9
$CHAMFERD
 40
0.0
  9
$SKPOLY
 70
     0
  9
$TDCREATE
 40
2451159.855623148
  9
$TDUCREATE
 40
2451159.480623148
  9
$TDUPDATE
 40
2455609.394521378
  9
$TDUUPDATE
 40
2455609.019521378
  9
$TDINDWG
 40
0.1429908565
  9
$TDUSRTIMER
 40
0.1429906713
  9
$USRTIMER
 70
     1
  9
$ANGBASE
 50
0.0
  9
$ANGDIR
 70
     0
  9
$PDMODE
 70
     0
  9
$PDSIZE
 40
0.0
  9
$PLINEWID
 40
0.0
  9
$SPLFRAME
 70
     0
  9
$SPLINETYPE
 70
     6
  9
$SPLINESEGS
 70
     8
  9
$HANDSEED
  5
26C5
  9
$SURFTAB1
 70
     6
  9
$SURFTAB2
 70
     6
  9
$SURFTYPE
 70
     6
  9
$SURFU
 70
     6
  9
$SURFV
 70
     6
  9
$UCSBASE
  2

  9
$UCSNAME
  2

  9
$UCSORG
 10
0.0
 20
0.0
 30
0.0
  9
$UCSXDIR
 10
1.0
 20
0.0
 30
0.0
  9
$UCSYDIR
 10
0.0
 20
1.0
 30
0.0
  9
$UCSORTHOREF
  2

  9
$UCSORTHOVIEW
 70
     0
  9
$UCSORGTOP
 10
0.0
 20
0.0
 30
0.0
  9
$UCSORGBOTTOM
 10
0.0
 20
0.0
 30
0.0
  9
$UCSORGLEFT
 10
0.0
 20
0.0
 30
0.0
  9
$UCSORGRIGHT
 10
0.0
 20
0.0
 30
0.0
  9
$UCSORGFRONT
 10
0.0
 20
0.0
 30
0.0
  9
$UCSORGBACK
 10
0.0
 20
0.0
 30
0.0
  9
$PUCSBASE
  2

  9
$PUCSNAME
  2

  9
$PUCSORG
 10
0.0
 20
0.0
 30
0.0
  9
$PUCSXDIR
 10
1.0
 20
0.0
 30
0.0
  9
$PUCSYDIR
 10
0.0
 20
1.0
 30
0.0
  9
$PUCSORTHOREF
  2

  9
$PUCSORTHOVIEW
 70
     0
  9
$PUCSORGTOP
 10
0.0
 20
0.0
 30
0.0
  9
$PUCSORGBOTTOM
 10
0.0
 20
0.0
 30
0.0
  9
$PUCSORGLEFT
 10
0.0
 20
0.0
 30
0.0
  9
$PUCSORGRIGHT
 10
0.0
 20
0.0
 30
0.0
  9
$PUCSORGFRONT
 10
0.0
 20
0.0
 30
0.0
  9
$PUCSORGBACK
 10
0.0
 20
0.0
 30
0.0
  9
$USERI1
 70
     0
  9
$USERI2
 70
     0
  9
$USERI3
 70
     0
  9
$USERI4
 70
     0
  9
$USERI5
 70
     0
  9
$USERR1
 40
0.0
  9
$USERR2
 40
0.0
  9
$USERR3
 40
0.0
  9
$USERR4
 40
0.0
  9
$USERR5
 40
0.0
  9
$WORLDVIEW
 70
     1
  9
$SHADEDGE
 70
     3
  9
$SHADEDIF
 70
    70
  9
$TILEMODE
 70
     1
  9
$MAXACTVP
 70
    16
  9
$PINSBASE
 10
0.0
 20
0.0
 30
0.0
  9
$PLIMCHECK
 70
     0
  9
$PEXTMIN
 10
0.0
 20
0.0
 30
0.0
  9
$PEXTMAX
 10
420.0
 20
297.0
 30
0.0
  9
$PLIMMIN
 10
0.0
 20
0.0
  9
$PLIMMAX
 10
420.0
 20
297.0
  9
$UNITMODE
 70
     0
  9
$VISRETAIN
 70
     0
  9
$PLINEGEN
 70
     0
  9
$PSLTSCALE
 70
     1
  9
$TREEDEPTH
 70
  3020
  9
$CMLSTYLE
  2
STANDARD
  9
$CMLJUST
 70
     0
  9
$CMLSCALE
 40
1.0
  9
$PROXYGRAPHICS
 70
     1
  9
$MEASUREMENT
 70
     1
  9
$CELWEIGHT
370
    -1
  9
$ENDCAPS
280
     0
  9
$JOINSTYLE
280
     0
  9
$LWDISPLAY
290
     0
  9
$INSUNITS
 70
     0
  9
$HYPERLINKBASE
  1

  9
$STYLESHEET
  1
systemprinter.ctb
  9
$XEDIT
290
     1
  9
$CEPSNTYPE
380
     0
  9
$PSTYLEMODE
290
     1
  9
$FINGERPRINTGUID
  2
{844639E2-177E-11D4-932C-444553540000}
  9
$VERSIONGUID
  2
{447C71A2-8DD8-4F72-913C-7DCED006F870}
  9
$EXTNAMES
290
     1
  9
$PSVPSCALE
 40
0.0
  9
$OLESTARTUP
290
     0
  0
ENDSEC
  0
SECTION
  2
CLASSES
  0
CLASS
  1
ACDBDICTIONARYWDFLT
  2
AcDbDictionaryWithDefault
  3
ObjectDBX Classes
 90
        0
280
     0
281
     0
  0
CLASS
  1
ACDBPLACEHOLDER
  2
AcDbPlaceHolder
  3
ObjectDBX Classes
 90
        0
280
     0
281
     0
  0
CLASS
  1
LAYOUT
  2
AcDbLayout
  3
ObjectDBX Classes
 90
        0
280
     0
281
     0
  0
CLASS
  1
DUMMY
  2
AcDbLongTransaction
  3
DUMMY
 90
        0
280
     0
281
     0
  0
CLASS
  1
LWPOLYLINE
  2
AcDbPolyline
  3
AutoCAD 2000
 90
        0
280
     0
281
     1
  0
CLASS
  1
HATCH
  2
AcDbHatch
  3
AutoCAD 2000
 90
        0
280
     0
281
     1
  0
CLASS
  1
XRECORD
  2
AcDbXrecord
  3
AutoCAD 2000
 90
        0
280
     0
281
     0
  0
CLASS
  1
DUMMY
  2
AcDbLongTransaction
  3
DUMMY
 90
        0
280
     0
281
     0
  0
CLASS
  1
LWPOLYLINE
  2
AcDbPolyline
  3
AutoCAD 2000
 90
        0
280
     0
281
     1
  0
CLASS
  1
HATCH
  2
AcDbHatch
  3
AutoCAD 2000
 90
        0
280
     0
281
     1
  0
CLASS
  1
XRECORD
  2
AcDbXrecord
  3
AutoCAD 2000
 90
        0
280
     0
281
     0
  0
CLASS
  1
DUMMY
  2
AcDbLongTransaction
  3
DUMMY
 90
        0
280
     0
281
     0
  0
CLASS
  1
LWPOLYLINE
  2
AcDbPolyline
  3
AutoCAD 2000
 90
        0
280
     0
281
     1
  0
CLASS
  1
HATCH
  2
AcDbHatch
  3
AutoCAD 2000
 90
        0
280
     0
281
     1
  0
CLASS
  1
XRECORD
  2
AcDbXrecord
  3
AutoCAD 2000
 90
        0
280
     0
281
     0
  0
CLASS
  1
DUMMY
  2
AcDbLongTransaction
  3
DUMMY
 90
        0
280
     0
281
     0
  0
CLASS
  1
LWPOLYLINE
  2
AcDbPolyline
  3
AutoCAD 2000
 90
        0
280
     0
281
     1
  0
CLASS
  1
HATCH
  2
AcDbHatch
  3
AutoCAD 2000
 90
        0
280
     0
281
     1
  0
CLASS
  1
XRECORD
  2
AcDbXrecord
  3
AutoCAD 2000
 90
        0
280
     0
281
     0
  0
CLASS
  1
DUMMY
  2
AcDbLongTransaction
  3
DUMMY
 90
        0
280
     0
281
     0
  0
CLASS
  1
LWPOLYLINE
  2
AcDbPolyline
  3
AutoCAD 2000
 90
        0
280
     0
281
     1
  0
CLASS
  1
HATCH
  2
AcDbHatch
  3
AutoCAD 2000
 90
        0
280
     0
281
     1
  0
CLASS
  1
XRECORD
  2
AcDbXrecord
  3
AutoCAD 2000
 90
        0
280
     0
281
     0
  0
CLASS
  1
DUMMY
  2
AcDbLongTransaction
  3
DUMMY
 90
        0
280
     0
281
     0
  0
CLASS
  1
LWPOLYLINE
  2
AcDbPolyline
  3
AutoCAD 2000
 90
        0
280
     0
281
     1
  0
CLASS
  1
HATCH
  2
AcDbHatch
  3
AutoCAD 2000
 90
        0
280
     0
281
     1
  0
CLASS
  1
XRECORD
  2
AcDbXrecord
  3
AutoCAD 2000
 90
        0
280
     0
281
     0
  0
CLASS
  1
DUMMY
  2
AcDbLongTransaction
  3
DUMMY
 90
        0
280
     0
281
     0
  0
CLASS
  1
LWPOLYLINE
  2
AcDbPolyline
  3
AutoCAD 2000
 90
        0
280
     0
281
     1
  0
CLASS
  1
HATCH
  2
AcDbHatch
  3
AutoCAD 2000
 90
        0
280
     0
281
     1
  0
CLASS
  1
XRECORD
  2
AcDbXrecord
  3
AutoCAD 2000
 90
        0
280
     0
281
     0
  0
ENDSEC
  0
SECTION
  2
TABLES
  0
TABLE
  2
VPORT
  5
8
330
0
100
AcDbSymbolTable
 70
     2
  0
VPORT
  5
26C4
330
8
100
AcDbSymbolTableRecord
100
AcDbViewportTableRecord
  2
*Active
 70
     0
 10
0.0
 20
0.0
 11
1.0
 21
1.0
 12
406.6520987013936
 22
304.2040083774251
 13
0.0
 23
0.0
 14
5.0
 24
5.0
 15
0.0
 25
0.0
 16
0.0
 26
0.0
 36
1.0
 17
0.0
 27
0.0
 37
0.0
 40
637.2603514302034
 41
1.651537335285505
 42
50.0
 43
0.0
 44
0.0
 50
0.0
 51
0.0
 71
     0
 72
   100
 73
     1
 74
     0
 75
     0
 76
     0
 77
     0
 78
     0
281
     0
 65
     1
110
0.0
120
0.0
130
0.0
111
1.0
121
0.0
131
0.0
112
0.0
122
1.0
132
0.0
 79
     0
146
0.0
  0
ENDTAB
  0
TABLE
  2
LTYPE
  5
5
330
0
100
AcDbSymbolTable
 70
     3
  0
LTYPE
  5
14
330
5
100
AcDbSymbolTableRecord
100
AcDbLinetypeTableRecord
  2
BYBLOCK
 70
     0
  3

 72
    65
 73
     0
 40
0.0
  0
LTYPE
  5
15
330
5
100
AcDbSymbolTableRecord
100
AcDbLinetypeTableRecord
  2
BYLAYER
 70
     0
  3

 72
    65
 73
     0
 40
0.0
  0
LTYPE
  5
16
330
5
100
AcDbSymbolTableRecord
100
AcDbLinetypeTableRecord
  2
CONTINUOUS
 70
     0
  3
Solid line
 72
    65
 73
     0
 40
0.0
  0
LTYPE
  5
115
330
5
100
AcDbSymbolTableRecord
100
AcDbLinetypeTableRecord
  2
PHANTOM
 70
     0
  3
______  __  __  ______  __  __  ______  __  __ 
 72
    65
 73
     6
 40
2.5
 49
1.25
 74
     0
 49
-0.25
 74
     0
 49
0.25
 74
     0
 49
-0.25
 74
     0
 49
0.25
 74
     0
 49
-0.25
 74
     0
  0
LTYPE
  5
135
330
5
100
AcDbSymbolTableRecord
100
AcDbLinetypeTableRecord
  2
CENTER
 70
     0
  3
____ _ ____ _ ____ _ ____ _ ____ _ ____ _ ____ 
 72
    65
 73
     4
 40
2.0
 49
1.25
 74
     0
 49
-0.25
 74
     0
 49
0.25
 74
     0
 49
-0.25
 74
     0
  0
ENDTAB
  0
TABLE
  2
LAYER
  5
2
330
0
100
AcDbSymbolTable
 70
     9
  0
LAYER
  5
F
330
2
100
AcDbSymbolTableRecord
100
AcDbLayerTableRecord
  2
0
 70
     0
 62
     7
  6
CONTINUOUS
370
    -3
390
C41
  0
LAYER
  5
62
330
2
100
AcDbSymbolTableRecord
100
AcDbLayerTableRecord
  2
VIEWPORT
 70
     0
 62
     7
  6
CONTINUOUS
370
    -3
390
C41
  0
LAYER
  5
65
330
2
100
AcDbSymbolTableRecord
100
AcDbLayerTableRecord
  2
ZUWAKU
 70
     0
 62
     7
  6
CONTINUOUS
370
    -3
390
C41
  0
LAYER
  5
143
330
2
100
AcDbSymbolTableRecord
100
AcDbLayerTableRecord
  2
NOKITOI
 70
     0
 62
     9
  6
PHANTOM
370
    -3
390
C41
  0
LAYER
  5
144
330
2
100
AcDbSymbolTableRecord
100
AcDbLayerTableRecord
  2
SEIHIN
 70
     0
 62
     3
  6
CONTINUOUS
370
    -3
390
C41
  0
LAYER
  5
3CD
330
2
100
AcDbSymbolTableRecord
100
AcDbLayerTableRecord
  2
CENTER_L
 70
     0
 62
     1
  6
CENTER
370
    -3
390
C41
  0
LAYER
  5
3CE
330
2
100
AcDbSymbolTableRecord
100
AcDbLayerTableRecord
  2
SUNPOU
 70
     0
 62
     4
  6
CONTINUOUS
370
    -3
390
C41
  0
LAYER
  5
6E3
330
2
100
AcDbSymbolTableRecord
100
AcDbLayerTableRecord
  2
DEFPOINTS
 70
     0
 62
     7
  6
CONTINUOUS
290
     0
370
    -3
390
C41
  0
LAYER
  5
15FD
330
2
100
AcDbSymbolTableRecord
100
AcDbLayerTableRecord
  2
MOJI
 70
     0
 62
     2
  6
CONTINUOUS
370
    -3
390
C41
  0
ENDTAB
  0
TABLE
  2
STYLE
  5
3
330
0
100
AcDbSymbolTable
 70
     2
  0
STYLE
  5
10
330
3
100
AcDbSymbolTableRecord
100
AcDbTextStyleTableRecord
  2
STANDARD
 70
     0
 40
0.0
 41
1.0
 50
0.0
 71
     0
 42
5.0
  3
TXT
  4
a:\program files\autocad lt\ms\bigfont.shx
  0
STYLE
  5
15FE
330
3
100
AcDbSymbolTableRecord
100
AcDbTextStyleTableRecord
  2
ｽﾀｲﾙ1
 70
     0
 40
0.0
 41
1.0
 50
0.0
 71
     0
 42
2.5
  3
MS PGothic.ttf
  4

1001
ACAD
1000
MS PGothic
1071
    32818
  0
ENDTAB
  0
TABLE
  2
VIEW
  5
6
330
0
100
AcDbSymbolTable
 70
     0
  0
ENDTAB
  0
TABLE
  2
UCS
  5
7
330
0
100
AcDbSymbolTable
 70
     0
  0
ENDTAB
  0
TABLE
  2
APPID
  5
9
330
0
100
AcDbSymbolTable
 70
     1
  0
APPID
  5
11
330
9
100
AcDbSymbolTableRecord
100
AcDbRegAppTableRecord
  2
ACAD
 70
     0
  0
ENDTAB
  0
TABLE
  2
DIMSTYLE
  5
A
330
0
100
AcDbSymbolTable
 70
     1
100
AcDbDimStyleTable
  0
DIMSTYLE
105
1D
102
{ACAD_REACTORS
330
2002
330
200B
330
200C
330
201F
330
2022
330
2034
330
23DA
330
23DB
330
23E0
330
242B
330
24B4
330
24B5
330
24B6
330
24B7
330
24B8
330
24B9
330
24BF
330
24D0
330
24D1
330
24D8
330
2515
102
}
330
A
100
AcDbSymbolTableRecord
100
AcDbDimStyleTableRecord
  2
STANDARD
 70
     0
340
10
  0
ENDTAB
  0
TABLE
  2
BLOCK_RECORD
  5
1
330
0
100
AcDbSymbolTable
 70
    22
  0
BLOCK_RECORD
  5
1A
330
1
100
AcDbSymbolTableRecord
100
AcDbBlockTableRecord
  2
*MODEL_SPACE
340
26C1
  0
BLOCK_RECORD
  5
17
330
1
100
AcDbSymbolTableRecord
100
AcDbBlockTableRecord
  2
*PAPER_SPACE
340
26C2
  0
BLOCK_RECORD
  5
6D
330
1
100
AcDbSymbolTableRecord
100
AcDbBlockTableRecord
  2
_OPEN
340
0
102
{BLKREFS
331
2173
331
2174
331
217C
331
217D
331
2185
331
2186
331
218E
331
218F
331
2197
331
2198
331
21A2
331
21A3
331
2605
331
2606
331
260E
331
260F
331
2617
331
2618
331
2620
331
2621
331
2629
331
262A
331
2632
331
2633
331
263D
331
263E
331
2646
331
2647
331
264F
331
2650
331
2658
331
2659
331
2661
331
2662
331
266C
331
266D
331
2675
331
2676
331
267E
331
267F
331
2689
331
268A
102
}
  0
BLOCK_RECORD
  5
20CA
330
1
100
AcDbSymbolTableRecord
100
AcDbBlockTableRecord
  2
*D1
340
0
  0
BLOCK_RECORD
  5
20D6
330
1
100
AcDbSymbolTableRecord
100
AcDbBlockTableRecord
  2
*D2
340
0
  0
BLOCK_RECORD
  5
20E2
330
1
100
AcDbSymbolTableRecord
100
AcDbBlockTableRecord
  2
*D3
340
0
  0
BLOCK_RECORD
  5
20EE
330
1
100
AcDbSymbolTableRecord
100
AcDbBlockTableRecord
  2
*D4
340
0
  0
BLOCK_RECORD
  5
20FA
330
1
100
AcDbSymbolTableRecord
100
AcDbBlockTableRecord
  2
*D5
340
0
  0
BLOCK_RECORD
  5
2106
330
1
100
AcDbSymbolTableRecord
100
AcDbBlockTableRecord
  2
*D6
340
0
  0
BLOCK_RECORD
  5
2548
330
1
100
AcDbSymbolTableRecord
100
AcDbBlockTableRecord
  2
*D7
340
0
  0
BLOCK_RECORD
  5
2554
330
1
100
AcDbSymbolTableRecord
100
AcDbBlockTableRecord
  2
*D8
340
0
  0
BLOCK_RECORD
  5
2560
330
1
100
AcDbSymbolTableRecord
100
AcDbBlockTableRecord
  2
*D9
340
0
  0
BLOCK_RECORD
  5
256C
330
1
100
AcDbSymbolTableRecord
100
AcDbBlockTableRecord
  2
*D10
340
0
  0
BLOCK_RECORD
  5
2578
330
1
100
AcDbSymbolTableRecord
100
AcDbBlockTableRecord
  2
*D11
340
0
  0
BLOCK_RECORD
  5
2584
330
1
100
AcDbSymbolTableRecord
100
AcDbBlockTableRecord
  2
*D12
340
0
  0
BLOCK_RECORD
  5
2590
330
1
100
AcDbSymbolTableRecord
100
AcDbBlockTableRecord
  2
*D13
340
0
  0
BLOCK_RECORD
  5
259E
330
1
100
AcDbSymbolTableRecord
100
AcDbBlockTableRecord
  2
*D14
340
0
  0
BLOCK_RECORD
  5
25AA
330
1
100
AcDbSymbolTableRecord
100
AcDbBlockTableRecord
  2
*D15
340
0
  0
BLOCK_RECORD
  5
25B6
330
1
100
AcDbSymbolTableRecord
100
AcDbBlockTableRecord
  2
*D16
340
0
  0
BLOCK_RECORD
  5
25C2
330
1
100
AcDbSymbolTableRecord
100
AcDbBlockTableRecord
  2
*D17
340
0
  0
BLOCK_RECORD
  5
25CE
330
1
100
AcDbSymbolTableRecord
100
AcDbBlockTableRecord
  2
*D18
340
0
  0
BLOCK_RECORD
  5
25DC
330
1
100
AcDbSymbolTableRecord
100
AcDbBlockTableRecord
  2
*D19
340
0
  0
BLOCK_RECORD
  5
25E8
330
1
100
AcDbSymbolTableRecord
100
AcDbBlockTableRecord
  2
*D20
340
0
  0
BLOCK_RECORD
  5
25F4
330
1
100
AcDbSymbolTableRecord
100
AcDbBlockTableRecord
  2
*D21
340
0
  0
ENDTAB
  0
ENDSEC
  0
SECTION
  2
BLOCKS
  0
BLOCK
  5
1B
330
1A
100
AcDbEntity
  8
0
100
AcDbBlockBegin
  2
*MODEL_SPACE
 70
     0
 71
     0
 10
0.0
 20
0.0
 30
0.0
  3
*MODEL_SPACE
  1

  0
ENDBLK
  5
1C
330
1A
100
AcDbEntity
  8
0
100
AcDbBlockEnd
  0
BLOCK
  5
18
330
17
100
AcDbEntity
 67
     1
  8
0
100
AcDbBlockBegin
  2
*PAPER_SPACE
 70
     0
 71
     0
 10
0.0
 20
0.0
 30
0.0
  3
*PAPER_SPACE
  1

  0
ENDBLK
  5
19
330
17
100
AcDbEntity
 67
     1
  8
0
100
AcDbBlockEnd
  0
BLOCK
  5
6E
330
6D
100
AcDbEntity
  8
0
100
AcDbBlockBegin
  2
_OPEN
 70
     0
 71
     0
 10
0.0
 20
0.0
 30
0.0
  3
_OPEN
  1

  0
LINE
  5
6F
330
6D
100
AcDbEntity
  8
0
  6
ByBlock
 62
     0
100
AcDbLine
 10
-1.0
 20
0.1666666666666666
 30
0.0
 11
0.0
 21
0.0
 31
0.0
  0
LINE
  5
70
330
6D
100
AcDbEntity
  8
0
  6
ByBlock
 62
     0
100
AcDbLine
 10
0.0
 20
0.0
 30
0.0
 11
-1.0
 21
-0.1666666666666666
 31
0.0
  0
LINE
  5
71
330
6D
100
AcDbEntity
  8
0
  6
ByBlock
 62
     0
100
AcDbLine
 10
0.0
 20
0.0
 30
0.0
 11
-1.0
 21
0.0
 31
0.0
  0
ENDBLK
  5
72
330
6D
100
AcDbEntity
  8
0
100
AcDbBlockEnd
  0
BLOCK
  5
20D4
330
20CA
100
AcDbEntity
  8
0
100
AcDbBlockBegin
  2
*D1
 70
     1
 71
     0
 10
0.0
 20
0.0
 30
0.0
  3
*D1
  1

  0
LINE
  5
2170
330
20CA
100
AcDbEntity
  8
SUNPOU
 62
     4
100
AcDbLine
 10
530.6116922931437
 20
453.2854054052096
 30
0.0
 11
530.6116922931437
 21
489.7506008261465
 31
0.0
  0
LINE
  5
2171
330
20CA
100
AcDbEntity
  8
SUNPOU
 62
     4
100
AcDbLine
 10
600.6116922931437
 20
453.2854054052096
 30
0.0
 11
600.6116922931437
 21
489.7506008261465
 31
0.0
  0
LINE
  5
2172
330
20CA
100
AcDbEntity
  8
SUNPOU
 62
     4
100
AcDbLine
 10
534.1116922931437
 20
488.2506008261465
 30
0.0
 11
597.1116922931437
 21
488.2506008261465
 31
0.0
  0
INSERT
  5
2173
330
20CA
100
AcDbEntity
  8
SUNPOU
 62
     4
100
AcDbBlockReference
  2
_OPEN
 10
530.6116922931437
 20
488.2506008261465
 30
0.0
 41
3.5
 42
3.5
 43
3.5
 50
180.0
  0
INSERT
  5
2174
330
20CA
100
AcDbEntity
  8
SUNPOU
 62
     4
100
AcDbBlockReference
  2
_OPEN
 10
600.6116922931437
 20
488.2506008261465
 30
0.0
 41
3.5
 42
3.5
 43
3.5
  0
MTEXT
  5
2175
330
20CA
100
AcDbEntity
  8
SUNPOU
 62
     4
100
AcDbMText
 10
565.6116922931437
 20
492.2506008261465
 30
0.0
 40
6.0
 41
0.0
 71
     5
 72
     1
  1
\A1;70
 73
     1
 44
1.0
  0
POINT
  5
2176
330
20CA
100
AcDbEntity
  8
DEFPOINTS
 62
     0
100
AcDbPoint
 10
530.6116922931437
 20
450.2854054052098
 30
0.0
  0
POINT
  5
2177
330
20CA
100
AcDbEntity
  8
DEFPOINTS
 62
     0
100
AcDbPoint
 10
600.6116922931437
 20
450.2854054052098
 30
0.0
  0
POINT
  5
2178
330
20CA
100
AcDbEntity
  8
DEFPOINTS
 62
     0
100
AcDbPoint
 10
600.6116922931437
 20
488.2506008261465
 30
0.0
  0
ENDBLK
  5
20D5
330
20CA
100
AcDbEntity
  8
0
100
AcDbBlockEnd
  0
BLOCK
  5
20E0
330
20D6
100
AcDbEntity
  8
0
100
AcDbBlockBegin
  2
*D2
 70
     1
 71
     0
 10
0.0
 20
0.0
 30
0.0
  3
*D2
  1

  0
LINE
  5
2179
330
20D6
100
AcDbEntity
  8
SUNPOU
 62
     4
100
AcDbLine
 10
603.6116922931437
 20
450.2854054052098
 30
0.0
 11
615.8716755349432
 21
450.2854054052098
 31
0.0
  0
LINE
  5
217A
330
20D6
100
AcDbEntity
  8
SUNPOU
 62
     4
100
AcDbLine
 10
591.2597831592437
 20
432.2854054052096
 30
0.0
 11
615.8716755349432
 21
432.2854054052096
 31
0.0
  0
LINE
  5
217B
330
20D6
100
AcDbEntity
  8
SUNPOU
 62
     4
100
AcDbLine
 10
614.3716755349431
 20
446.7854054052096
 30
0.0
 11
614.3716755349431
 21
435.7854054052096
 31
0.0
  0
INSERT
  5
217C
330
20D6
100
AcDbEntity
  8
SUNPOU
 62
     4
100
AcDbBlockReference
  2
_OPEN
 10
614.3716755349431
 20
450.2854054052098
 30
0.0
 41
3.5
 42
3.5
 43
3.5
 50
90.0
  0
INSERT
  5
217D
330
20D6
100
AcDbEntity
  8
SUNPOU
 62
     4
100
AcDbBlockReference
  2
_OPEN
 10
614.3716755349431
 20
432.2854054052096
 30
0.0
 41
3.5
 42
3.5
 43
3.5
 50
270.0
  0
MTEXT
  5
217E
330
20D6
100
AcDbEntity
  8
SUNPOU
 62
     4
100
AcDbMText
 10
610.3716755349428
 20
441.2854054052098
 30
0.0
 40
6.0
 41
0.0
 71
     5
 72
     1
  1
\A1;18
 11
1.000000000000000E-16
 21
1.0
 31
0.0
 73
     1
 44
1.0
  0
POINT
  5
217F
330
20D6
100
AcDbEntity
  8
DEFPOINTS
 62
     0
100
AcDbPoint
 10
600.6116922931437
 20
450.2854054052098
 30
0.0
  0
POINT
  5
2180
330
20D6
100
AcDbEntity
  8
DEFPOINTS
 62
     0
100
AcDbPoint
 10
588.2597831592437
 20
432.2854054052096
 30
0.0
  0
POINT
  5
2181
330
20D6
100
AcDbEntity
  8
DEFPOINTS
 62
     0
100
AcDbPoint
 10
614.3716755349431
 20
432.2854054052096
 30
0.0
  0
ENDBLK
  5
20E1
330
20D6
100
AcDbEntity
  8
0
100
AcDbBlockEnd
  0
BLOCK
  5
20EC
330
20E2
100
AcDbEntity
  8
0
100
AcDbBlockBegin
  2
*D3
 70
     1
 71
     0
 10
0.0
 20
0.0
 30
0.0
  3
*D3
  1

  0
LINE
  5
2182
330
20E2
100
AcDbEntity
  8
SUNPOU
 62
     4
100
AcDbLine
 10
561.6116922931437
 20
460.2854054052096
 30
0.0
 11
628.8148895007613
 21
460.2854054052096
 31
0.0
  0
LINE
  5
2183
330
20E2
100
AcDbEntity
  8
SUNPOU
 62
     4
100
AcDbLine
 10
568.6116922931437
 20
430.2854054052096
 30
0.0
 11
628.8148895007613
 21
430.2854054052096
 31
0.0
  0
LINE
  5
2184
330
20E2
100
AcDbEntity
  8
SUNPOU
 62
     4
100
AcDbLine
 10
627.3148895007613
 20
456.7854054052096
 30
0.0
 11
627.3148895007613
 21
433.7854054052098
 31
0.0
  0
INSERT
  5
2185
330
20E2
100
AcDbEntity
  8
SUNPOU
 62
     4
100
AcDbBlockReference
  2
_OPEN
 10
627.3148895007613
 20
460.2854054052096
 30
0.0
 41
3.5
 42
3.5
 43
3.5
 50
90.0
  0
INSERT
  5
2186
330
20E2
100
AcDbEntity
  8
SUNPOU
 62
     4
100
AcDbBlockReference
  2
_OPEN
 10
627.3148895007613
 20
430.2854054052096
 30
0.0
 41
3.5
 42
3.5
 43
3.5
 50
270.0
  0
MTEXT
  5
2187
330
20E2
100
AcDbEntity
  8
SUNPOU
 62
     4
100
AcDbMText
 10
623.3148895007611
 20
445.2854054052098
 30
0.0
 40
6.0
 41
0.0
 71
     5
 72
     1
  1
\A1;30
 11
1.000000000000000E-16
 21
1.0
 31
0.0
 73
     1
 44
1.0
  0
POINT
  5
2188
330
20E2
100
AcDbEntity
  8
DEFPOINTS
 62
     0
100
AcDbPoint
 10
558.6116922931437
 20
460.2854054052096
 30
0.0
  0
POINT
  5
2189
330
20E2
100
AcDbEntity
  8
DEFPOINTS
 62
     0
100
AcDbPoint
 10
565.6116922931437
 20
430.2854054052096
 30
0.0
  0
POINT
  5
218A
330
20E2
100
AcDbEntity
  8
DEFPOINTS
 62
     0
100
AcDbPoint
 10
627.3148895007613
 20
430.2854054052096
 30
0.0
  0
ENDBLK
  5
20ED
330
20E2
100
AcDbEntity
  8
0
100
AcDbBlockEnd
  0
BLOCK
  5
20F8
330
20EE
100
AcDbEntity
  8
0
100
AcDbBlockBegin
  2
*D4
 70
     1
 71
     0
 10
0.0
 20
0.0
 30
0.0
  3
*D4
  1

  0
LINE
  5
218B
330
20EE
100
AcDbEntity
  8
SUNPOU
 62
     4
100
AcDbLine
 10
555.6116922931437
 20
460.2854054052096
 30
0.0
 11
555.6116922931437
 21
473.8672851621869
 31
0.0
  0
LINE
  5
218C
330
20EE
100
AcDbEntity
  8
SUNPOU
 62
     4
100
AcDbLine
 10
575.6116922931437
 20
460.2854054052096
 30
0.0
 11
575.6116922931437
 21
473.8672851621869
 31
0.0
  0
LINE
  5
218D
330
20EE
100
AcDbEntity
  8
SUNPOU
 62
     4
100
AcDbLine
 10
559.1116922931437
 20
472.3672851621869
 30
0.0
 11
572.1116922931437
 21
472.3672851621869
 31
0.0
  0
INSERT
  5
218E
330
20EE
100
AcDbEntity
  8
SUNPOU
 62
     4
100
AcDbBlockReference
  2
_OPEN
 10
555.6116922931437
 20
472.3672851621869
 30
0.0
 41
3.5
 42
3.5
 43
3.5
 50
180.0
  0
INSERT
  5
218F
330
20EE
100
AcDbEntity
  8
SUNPOU
 62
     4
100
AcDbBlockReference
  2
_OPEN
 10
575.6116922931437
 20
472.3672851621869
 30
0.0
 41
3.5
 42
3.5
 43
3.5
  0
MTEXT
  5
2190
330
20EE
100
AcDbEntity
  8
SUNPOU
 62
     4
100
AcDbMText
 10
565.6116922931437
 20
476.3672851621869
 30
0.0
 40
6.0
 41
0.0
 71
     5
 72
     1
  1
\A1;20
 73
     1
 44
1.0
  0
POINT
  5
2191
330
20EE
100
AcDbEntity
  8
DEFPOINTS
 62
     0
100
AcDbPoint
 10
555.6116922931437
 20
457.2854054052096
 30
0.0
  0
POINT
  5
2192
330
20EE
100
AcDbEntity
  8
DEFPOINTS
 62
     0
100
AcDbPoint
 10
575.6116922931437
 20
457.2854054052096
 30
0.0
  0
POINT
  5
2193
330
20EE
100
AcDbEntity
  8
DEFPOINTS
 62
     0
100
AcDbPoint
 10
575.6116922931437
 20
472.3672851621869
 30
0.0
  0
ENDBLK
  5
20F9
330
20EE
100
AcDbEntity
  8
0
100
AcDbBlockEnd
  0
BLOCK
  5
2104
330
20FA
100
AcDbEntity
  8
0
100
AcDbBlockBegin
  2
*D5
 70
     1
 71
     0
 10
0.0
 20
0.0
 30
0.0
  3
*D5
  1

  0
LINE
  5
2194
330
20FA
100
AcDbEntity
  8
SUNPOU
 62
     4
100
AcDbLine
 10
585.6116922931437
 20
453.2854054052096
 30
0.0
 11
585.6116922931437
 21
473.8672851621869
 31
0.0
  0
LINE
  5
2195
330
20FA
100
AcDbEntity
  8
SUNPOU
 62
     4
100
AcDbLine
 10
600.6116922931437
 20
453.2854054052096
 30
0.0
 11
600.6116922931437
 21
473.8672851621869
 31
0.0
  0
LINE
  5
2196
330
20FA
100
AcDbEntity
  8
SUNPOU
 62
     4
100
AcDbLine
 10
589.1116922931437
 20
472.3672851621869
 30
0.0
 11
597.1116922931437
 21
472.3672851621869
 31
0.0
  0
INSERT
  5
2197
330
20FA
100
AcDbEntity
  8
SUNPOU
 62
     4
100
AcDbBlockReference
  2
_OPEN
 10
585.6116922931437
 20
472.3672851621869
 30
0.0
 41
3.5
 42
3.5
 43
3.5
 50
180.0
  0
INSERT
  5
2198
330
20FA
100
AcDbEntity
  8
SUNPOU
 62
     4
100
AcDbBlockReference
  2
_OPEN
 10
600.6116922931437
 20
472.3672851621869
 30
0.0
 41
3.5
 42
3.5
 43
3.5
  0
MTEXT
  5
2199
330
20FA
100
AcDbEntity
  8
SUNPOU
 62
     4
100
AcDbMText
 10
593.1116922931437
 20
476.3672851621869
 30
0.0
 40
6.0
 41
0.0
 71
     5
 72
     1
  1
\A1;15
 73
     1
 44
1.0
  0
POINT
  5
219A
330
20FA
100
AcDbEntity
  8
DEFPOINTS
 62
     0
100
AcDbPoint
 10
585.6116922931437
 20
450.2854054052098
 30
0.0
  0
POINT
  5
219B
330
20FA
100
AcDbEntity
  8
DEFPOINTS
 62
     0
100
AcDbPoint
 10
600.6116922931437
 20
450.2854054052098
 30
0.0
  0
POINT
  5
219C
330
20FA
100
AcDbEntity
  8
DEFPOINTS
 62
     0
100
AcDbPoint
 10
600.6116922931437
 20
472.3672851621869
 30
0.0
  0
ENDBLK
  5
2105
330
20FA
100
AcDbEntity
  8
0
100
AcDbBlockEnd
  0
BLOCK
  5
2112
330
2106
100
AcDbEntity
  8
0
100
AcDbBlockBegin
  2
*D6
 70
     1
 71
     0
 10
0.0
 20
0.0
 30
0.0
  3
*D6
  1

  0
LINE
  5
219D
330
2106
100
AcDbEntity
  8
SUNPOU
 62
     4
100
AcDbLine
 10
652.2070764990158
 20
461.7854054052096
 30
0.0
 11
652.2070764990158
 21
473.8672851621869
 31
0.0
  0
LINE
  5
219E
330
2106
100
AcDbEntity
  8
SUNPOU
 62
     4
100
AcDbLine
 10
660.207076499016
 20
451.7854054052096
 30
0.0
 11
660.207076499016
 21
473.8672851621869
 31
0.0
  0
LINE
  5
219F
330
2106
100
AcDbEntity
  8
SUNPOU
 62
     4
100
AcDbLine
 10
648.7070764990158
 20
472.3672851621869
 30
0.0
 11
645.2070764990158
 21
472.3672851621869
 31
0.0
  0
LINE
  5
21A0
330
2106
100
AcDbEntity
  8
SUNPOU
 62
     4
100
AcDbLine
 10
663.707076499016
 20
472.3672851621869
 30
0.0
 11
667.2070764990159
 21
472.3672851621869
 31
0.0
  0
LINE
  5
21A1
330
2106
100
AcDbEntity
  8
SUNPOU
 62
     4
100
AcDbLine
 10
652.2070764990158
 20
472.3672851621869
 30
0.0
 11
660.207076499016
 21
472.3672851621869
 31
0.0
  0
INSERT
  5
21A2
330
2106
100
AcDbEntity
  8
SUNPOU
 62
     4
100
AcDbBlockReference
  2
_OPEN
 10
652.2070764990158
 20
472.3672851621869
 30
0.0
 41
3.5
 42
3.5
 43
3.5
  0
INSERT
  5
21A3
330
2106
100
AcDbEntity
  8
SUNPOU
 62
     4
100
AcDbBlockReference
  2
_OPEN
 10
660.207076499016
 20
472.3672851621869
 30
0.0
 41
3.5
 42
3.5
 43
3.5
 50
180.0
  0
MTEXT
  5
21A4
330
2106
100
AcDbEntity
  8
SUNPOU
 62
     4
100
AcDbMText
 10
656.2070764990159
 20
476.3672851621869
 30
0.0
 40
6.0
 41
0.0
 71
     5
 72
     1
  1
\A1;8
 73
     1
 44
1.0
  0
POINT
  5
21A5
330
2106
100
AcDbEntity
  8
DEFPOINTS
 62
     0
100
AcDbPoint
 10
652.2070764990158
 20
458.7854054052098
 30
0.0
  0
POINT
  5
21A6
330
2106
100
AcDbEntity
  8
DEFPOINTS
 62
     0
100
AcDbPoint
 10
660.207076499016
 20
448.7854054052096
 30
0.0
  0
POINT
  5
21A7
330
2106
100
AcDbEntity
  8
DEFPOINTS
 62
     0
100
AcDbPoint
 10
660.207076499016
 20
472.3672851621869
 30
0.0
  0
ENDBLK
  5
2113
330
2106
100
AcDbEntity
  8
0
100
AcDbBlockEnd
  0
BLOCK
  5
2552
330
2548
100
AcDbEntity
  8
0
100
AcDbBlockBegin
  2
*D7
 70
     1
 71
     0
 10
0.0
 20
0.0
 30
0.0
  3
*D7
  1

  0
LINE
  5
2602
330
2548
100
AcDbEntity
  8
SUNPOU
 62
     4
100
AcDbLine
 10
463.6009057451767
 20
266.576223350839
 30
0.0
 11
392.2543018802849
 21
266.576223350839
 31
0.0
  0
LINE
  5
2603
330
2548
100
AcDbEntity
  8
SUNPOU
 62
     4
100
AcDbLine
 10
544.2509057451767
 20
84.67622335083904
 30
0.0
 11
392.2543018802848
 21
84.67622335083911
 31
0.0
  0
LINE
  5
2604
330
2548
100
AcDbEntity
  8
SUNPOU
 62
     4
100
AcDbLine
 10
395.2543018802849
 20
259.576223350839
 30
0.0
 11
395.2543018802848
 21
91.6762233508391
 31
0.0
  0
INSERT
  5
2605
330
2548
100
AcDbEntity
  8
SUNPOU
 62
     4
100
AcDbBlockReference
  2
_OPEN
 10
395.2543018802849
 20
266.576223350839
 30
0.0
 41
7.0
 42
7.0
 43
7.0
 50
90.0
  0
INSERT
  5
2606
330
2548
100
AcDbEntity
  8
SUNPOU
 62
     4
100
AcDbBlockReference
  2
_OPEN
 10
395.2543018802848
 20
84.67622335083911
 30
0.0
 41
7.0
 42
7.0
 43
7.0
 50
270.0
  0
MTEXT
  5
2607
330
2548
100
AcDbEntity
  8
SUNPOU
 62
     4
100
AcDbMText
 10
390.2543018802848
 20
175.6262233508391
 30
0.0
 40
6.0
 41
0.0
 71
     5
 72
     1
  1
\A1;182
 11
1.000000000000000E-16
 21
1.0
 31
0.0
 73
     1
 44
1.0
  0
POINT
  5
2608
330
2548
100
AcDbEntity
  8
DEFPOINTS
 62
     0
100
AcDbPoint
 10
469.6009057451767
 20
266.576223350839
 30
0.0
  0
POINT
  5
2609
330
2548
100
AcDbEntity
  8
DEFPOINTS
 62
     0
100
AcDbPoint
 10
550.2509057451767
 20
84.67622335083904
 30
0.0
  0
POINT
  5
260A
330
2548
100
AcDbEntity
  8
DEFPOINTS
 62
     0
100
AcDbPoint
 10
395.2543018802848
 20
84.67622335083911
 30
0.0
  0
ENDBLK
  5
2553
330
2548
100
AcDbEntity
  8
0
100
AcDbBlockEnd
  0
BLOCK
  5
255E
330
2554
100
AcDbEntity
  8
0
100
AcDbBlockBegin
  2
*D8
 70
     1
 71
     0
 10
0.0
 20
0.0
 30
0.0
  3
*D8
  1

  0
LINE
  5
260B
330
2554
100
AcDbEntity
  8
SUNPOU
 62
     4
100
AcDbLine
 10
347.2121057451769
 20
272.575823350839
 30
0.0
 11
347.2121057451769
 21
308.1298378266847
 31
0.0
  0
LINE
  5
260C
330
2554
100
AcDbEntity
  8
SUNPOU
 62
     4
100
AcDbLine
 10
127.2115257451768
 20
272.576123350839
 30
0.0
 11
127.2115257451768
 21
308.1298378266847
 31
0.0
  0
LINE
  5
260D
330
2554
100
AcDbEntity
  8
SUNPOU
 62
     4
100
AcDbLine
 10
340.2121057451768
 20
305.1298378266847
 30
0.0
 11
134.2115257451768
 21
305.1298378266847
 31
0.0
  0
INSERT
  5
260E
330
2554
100
AcDbEntity
  8
SUNPOU
 62
     4
100
AcDbBlockReference
  2
_OPEN
 10
347.2121057451769
 20
305.1298378266847
 30
0.0
 41
7.0
 42
7.0
 43
7.0
  0
INSERT
  5
260F
330
2554
100
AcDbEntity
  8
SUNPOU
 62
     4
100
AcDbBlockReference
  2
_OPEN
 10
127.2115257451768
 20
305.1298378266847
 30
0.0
 41
7.0
 42
7.0
 43
7.0
 50
180.0
  0
MTEXT
  5
2610
330
2554
100
AcDbEntity
  8
SUNPOU
 62
     4
100
AcDbMText
 10
237.2118157451768
 20
310.1298378266847
 30
0.0
 40
6.0
 41
0.0
 71
     5
 72
     1
  1
\A1;220
 73
     1
 44
1.0
  0
POINT
  5
2611
330
2554
100
AcDbEntity
  8
DEFPOINTS
 62
     0
100
AcDbPoint
 10
347.2121057451769
 20
266.575823350839
 30
0.0
  0
POINT
  5
2612
330
2554
100
AcDbEntity
  8
DEFPOINTS
 62
     0
100
AcDbPoint
 10
127.2115257451768
 20
266.576123350839
 30
0.0
  0
POINT
  5
2613
330
2554
100
AcDbEntity
  8
DEFPOINTS
 62
     0
100
AcDbPoint
 10
127.2115257451768
 20
305.1298378266847
 30
0.0
  0
ENDBLK
  5
255F
330
2554
100
AcDbEntity
  8
0
100
AcDbBlockEnd
  0
BLOCK
  5
256A
330
2560
100
AcDbEntity
  8
0
100
AcDbBlockBegin
  2
*D9
 70
     1
 71
     0
 10
0.0
 20
0.0
 30
0.0
  3
*D9
  1

  0
LINE
  5
2614
330
2560
100
AcDbEntity
  8
SUNPOU
 62
     4
100
AcDbLine
 10
168.2116916628745
 20
144.6763254998406
 30
0.0
 11
168.2116916628745
 21
53.90044339006954
 31
0.0
  0
LINE
  5
2615
330
2560
100
AcDbEntity
  8
SUNPOU
 62
     4
100
AcDbLine
 10
306.2116139277593
 20
144.6761190528595
 30
0.0
 11
306.2116139277593
 21
53.90044339006954
 31
0.0
  0
LINE
  5
2616
330
2560
100
AcDbEntity
  8
SUNPOU
 62
     4
100
AcDbLine
 10
175.2116916628745
 20
56.90044339006954
 30
0.0
 11
299.2116139277592
 21
56.90044339006954
 31
0.0
  0
INSERT
  5
2617
330
2560
100
AcDbEntity
  8
SUNPOU
 62
     4
100
AcDbBlockReference
  2
_OPEN
 10
168.2116916628745
 20
56.90044339006954
 30
0.0
 41
7.0
 42
7.0
 43
7.0
 50
180.0
  0
INSERT
  5
2618
330
2560
100
AcDbEntity
  8
SUNPOU
 62
     4
100
AcDbBlockReference
  2
_OPEN
 10
306.2116139277593
 20
56.90044339006954
 30
0.0
 41
7.0
 42
7.0
 43
7.0
  0
MTEXT
  5
2619
330
2560
100
AcDbEntity
  8
SUNPOU
 62
     4
100
AcDbMText
 10
237.2116527953169
 20
61.90044339006954
 30
0.0
 40
6.0
 41
0.0
 71
     5
 72
     1
  1
\A1;138
 73
     1
 44
1.0
  0
POINT
  5
261A
330
2560
100
AcDbEntity
  8
DEFPOINTS
 62
     0
100
AcDbPoint
 10
168.2116916628745
 20
150.6763254998406
 30
0.0
  0
POINT
  5
261B
330
2560
100
AcDbEntity
  8
DEFPOINTS
 62
     0
100
AcDbPoint
 10
306.2116139277593
 20
150.6761190528595
 30
0.0
  0
POINT
  5
261C
330
2560
100
AcDbEntity
  8
DEFPOINTS
 62
     0
100
AcDbPoint
 10
306.2116139277593
 20
56.90044339006954
 30
0.0
  0
ENDBLK
  5
256B
330
2560
100
AcDbEntity
  8
0
100
AcDbBlockEnd
  0
BLOCK
  5
2576
330
256C
100
AcDbEntity
  8
0
100
AcDbBlockBegin
  2
*D10
 70
     1
 71
     0
 10
0.0
 20
0.0
 30
0.0
  3
*D10
  1

  0
LINE
  5
261D
330
256C
100
AcDbEntity
  8
SUNPOU
 62
     4
100
AcDbLine
 10
267.2120057451769
 20
391.6325191168347
 30
0.0
 11
267.2120057451769
 21
334.4264835504366
 31
0.0
  0
LINE
  5
261E
330
256C
100
AcDbEntity
  8
SUNPOU
 62
     4
100
AcDbLine
 10
207.2118789359176
 20
391.6327243679885
 30
0.0
 11
207.2118789359176
 21
334.4264835504366
 31
0.0
  0
LINE
  5
261F
330
256C
100
AcDbEntity
  8
SUNPOU
 62
     4
100
AcDbLine
 10
260.2120057451768
 20
337.4264835504366
 30
0.0
 11
214.2118789359176
 21
337.4264835504366
 31
0.0
  0
INSERT
  5
2620
330
256C
100
AcDbEntity
  8
SUNPOU
 62
     4
100
AcDbBlockReference
  2
_OPEN
 10
267.2120057451769
 20
337.4264835504366
 30
0.0
 41
7.0
 42
7.0
 43
7.0
  0
INSERT
  5
2621
330
256C
100
AcDbEntity
  8
SUNPOU
 62
     4
100
AcDbBlockReference
  2
_OPEN
 10
207.2118789359176
 20
337.4264835504366
 30
0.0
 41
7.0
 42
7.0
 43
7.0
 50
180.0
  0
MTEXT
  5
2622
330
256C
100
AcDbEntity
  8
SUNPOU
 62
     4
100
AcDbMText
 10
237.2119423405472
 20
342.4264835504366
 30
0.0
 40
6.0
 41
0.0
 71
     5
 72
     1
  1
\A1;※a 60
 73
     1
 44
1.0
  0
POINT
  5
2623
330
256C
100
AcDbEntity
  8
DEFPOINTS
 62
     0
100
AcDbPoint
 10
267.2120057451769
 20
397.6325191168347
 30
0.0
  0
POINT
  5
2624
330
256C
100
AcDbEntity
  8
DEFPOINTS
 62
     0
100
AcDbPoint
 10
207.2118789359176
 20
397.6327243679887
 30
0.0
  0
POINT
  5
2625
330
256C
100
AcDbEntity
  8
DEFPOINTS
 62
     0
100
AcDbPoint
 10
207.2118789359176
 20
337.4264835504366
 30
0.0
  0
ENDBLK
  5
2577
330
256C
100
AcDbEntity
  8
0
100
AcDbBlockEnd
  0
BLOCK
  5
2582
330
2578
100
AcDbEntity
  8
0
100
AcDbBlockBegin
  2
*D11
 70
     1
 71
     0
 10
0.0
 20
0.0
 30
0.0
  3
*D11
  1

  0
LINE
  5
2626
330
2578
100
AcDbEntity
  8
SUNPOU
 62
     4
100
AcDbLine
 10
469.6009057451767
 20
272.576223350839
 30
0.0
 11
469.6009057451767
 21
305.9311223749125
 31
0.0
  0
LINE
  5
2627
330
2578
100
AcDbEntity
  8
SUNPOU
 62
     4
100
AcDbLine
 10
634.6010057451767
 20
250.176223350839
 30
0.0
 11
634.6010057451767
 21
305.9311223749125
 31
0.0
  0
LINE
  5
2628
330
2578
100
AcDbEntity
  8
SUNPOU
 62
     4
100
AcDbLine
 10
476.6009057451767
 20
302.9311223749125
 30
0.0
 11
627.6010057451767
 21
302.9311223749125
 31
0.0
  0
INSERT
  5
2629
330
2578
100
AcDbEntity
  8
SUNPOU
 62
     4
100
AcDbBlockReference
  2
_OPEN
 10
469.6009057451767
 20
302.9311223749125
 30
0.0
 41
7.0
 42
7.0
 43
7.0
 50
180.0
  0
INSERT
  5
262A
330
2578
100
AcDbEntity
  8
SUNPOU
 62
     4
100
AcDbBlockReference
  2
_OPEN
 10
634.6010057451767
 20
302.9311223749125
 30
0.0
 41
7.0
 42
7.0
 43
7.0
  0
MTEXT
  5
262B
330
2578
100
AcDbEntity
  8
SUNPOU
 62
     4
100
AcDbMText
 10
552.1009557451769
 20
307.9311223749125
 30
0.0
 40
6.0
 41
0.0
 71
     5
 72
     1
  1
\A1;165
 73
     1
 44
1.0
  0
POINT
  5
262C
330
2578
100
AcDbEntity
  8
DEFPOINTS
 62
     0
100
AcDbPoint
 10
469.6009057451767
 20
266.576223350839
 30
0.0
  0
POINT
  5
262D
330
2578
100
AcDbEntity
  8
DEFPOINTS
 62
     0
100
AcDbPoint
 10
634.6010057451767
 20
244.176223350839
 30
0.0
  0
POINT
  5
262E
330
2578
100
AcDbEntity
  8
DEFPOINTS
 62
     0
100
AcDbPoint
 10
634.6010057451767
 20
302.9311223749125
 30
0.0
  0
ENDBLK
  5
2583
330
2578
100
AcDbEntity
  8
0
100
AcDbBlockEnd
  0
BLOCK
  5
258E
330
2584
100
AcDbEntity
  8
0
100
AcDbBlockBegin
  2
*D12
 70
     1
 71
     0
 10
0.0
 20
0.0
 30
0.0
  3
*D12
  1

  0
LINE
  5
262F
330
2584
100
AcDbEntity
  8
SUNPOU
 62
     4
100
AcDbLine
 10
571.0010057451768
 20
195.461523350839
 30
0.0
 11
571.0010057451768
 21
288.9107103045462
 31
0.0
  0
LINE
  5
2630
330
2584
100
AcDbEntity
  8
SUNPOU
 62
     4
100
AcDbLine
 10
634.6010057451767
 20
250.176223350839
 30
0.0
 11
634.6010057451767
 21
288.9107103045462
 31
0.0
  0
LINE
  5
2631
330
2584
100
AcDbEntity
  8
SUNPOU
 62
     4
100
AcDbLine
 10
578.0010057451768
 20
285.9107103045462
 30
0.0
 11
627.6010057451767
 21
285.9107103045462
 31
0.0
  0
INSERT
  5
2632
330
2584
100
AcDbEntity
  8
SUNPOU
 62
     4
100
AcDbBlockReference
  2
_OPEN
 10
571.0010057451768
 20
285.9107103045462
 30
0.0
 41
7.0
 42
7.0
 43
7.0
 50
180.0
  0
INSERT
  5
2633
330
2584
100
AcDbEntity
  8
SUNPOU
 62
     4
100
AcDbBlockReference
  2
_OPEN
 10
634.6010057451767
 20
285.9107103045462
 30
0.0
 41
7.0
 42
7.0
 43
7.0
  0
MTEXT
  5
2634
330
2584
100
AcDbEntity
  8
SUNPOU
 62
     4
100
AcDbMText
 10
602.8010057451768
 20
290.9107103045462
 30
0.0
 40
6.0
 41
0.0
 71
     5
 72
     1
  1
\A1;64
 73
     1
 44
1.0
  0
POINT
  5
2635
330
2584
100
AcDbEntity
  8
DEFPOINTS
 62
     0
100
AcDbPoint
 10
571.0010057451768
 20
189.461523350839
 30
0.0
  0
POINT
  5
2636
330
2584
100
AcDbEntity
  8
DEFPOINTS
 62
     0
100
AcDbPoint
 10
634.6010057451767
 20
244.176223350839
 30
0.0
  0
POINT
  5
2637
330
2584
100
AcDbEntity
  8
DEFPOINTS
 62
     0
100
AcDbPoint
 10
634.6010057451767
 20
285.9107103045462
 30
0.0
  0
ENDBLK
  5
258F
330
2584
100
AcDbEntity
  8
0
100
AcDbBlockEnd
  0
BLOCK
  5
259C
330
2590
100
AcDbEntity
  8
0
100
AcDbBlockBegin
  2
*D13
 70
     1
 71
     0
 10
0.0
 20
0.0
 30
0.0
  3
*D13
  1

  0
LINE
  5
2638
330
2590
100
AcDbEntity
  8
SUNPOU
 62
     4
100
AcDbLine
 10
621.5016185126647
 20
100.9231931633568
 30
0.0
 11
659.9943678395248
 21
100.9231931633568
 31
0.0
  0
LINE
  5
2639
330
2590
100
AcDbEntity
  8
SUNPOU
 62
     4
100
AcDbLine
 10
620.0011057451766
 20
91.17622335083907
 30
0.0
 11
659.9943678395248
 21
91.17622335083907
 31
0.0
  0
LINE
  5
263A
330
2590
100
AcDbEntity
  8
SUNPOU
 62
     4
100
AcDbLine
 10
656.9943678395248
 20
107.9231931633568
 30
0.0
 11
656.9943678395248
 21
114.9231931633568
 31
0.0
  0
LINE
  5
263B
330
2590
100
AcDbEntity
  8
SUNPOU
 62
     4
100
AcDbLine
 10
656.9943678395248
 20
84.17622335083904
 30
0.0
 11
656.9943678395248
 21
49.37622335083904
 31
0.0
  0
LINE
  5
263C
330
2590
100
AcDbEntity
  8
SUNPOU
 62
     4
100
AcDbLine
 10
656.9943678395248
 20
100.9231931633568
 30
0.0
 11
656.9943678395248
 21
91.17622335083907
 31
0.0
  0
INSERT
  5
263D
330
2590
100
AcDbEntity
  8
SUNPOU
 62
     4
100
AcDbBlockReference
  2
_OPEN
 10
656.9943678395248
 20
100.9231931633568
 30
0.0
 41
7.0
 42
7.0
 43
7.0
 50
270.0
  0
INSERT
  5
263E
330
2590
100
AcDbEntity
  8
SUNPOU
 62
     4
100
AcDbBlockReference
  2
_OPEN
 10
656.9943678395248
 20
91.17622335083907
 30
0.0
 41
7.0
 42
7.0
 43
7.0
 50
90.0
  0
MTEXT
  5
263F
330
2590
100
AcDbEntity
  8
SUNPOU
 62
     4
100
AcDbMText
 10
651.9943678395248
 20
63.27622335083915
 30
0.0
 40
6.0
 41
0.0
 71
     5
 72
     1
  1
\A1;※b 10
 11
1.000000000000000E-16
 21
1.0
 31
0.0
 73
     1
 44
1.0
  0
POINT
  5
2640
330
2590
100
AcDbEntity
  8
DEFPOINTS
 62
     0
100
AcDbPoint
 10
615.5016185126647
 20
100.9231931633568
 30
0.0
  0
POINT
  5
2641
330
2590
100
AcDbEntity
  8
DEFPOINTS
 62
     0
100
AcDbPoint
 10
614.0011057451768
 20
91.17622335083907
 30
0.0
  0
POINT
  5
2642
330
2590
100
AcDbEntity
  8
DEFPOINTS
 62
     0
100
AcDbPoint
 10
656.9943678395248
 20
91.17622335083907
 30
0.0
  0
ENDBLK
  5
259D
330
2590
100
AcDbEntity
  8
0
100
AcDbBlockEnd
  0
BLOCK
  5
25A8
330
259E
100
AcDbEntity
  8
0
100
AcDbBlockBegin
  2
*D14
 70
     1
 71
     0
 10
0.0
 20
0.0
 30
0.0
  3
*D14
  1

  0
LINE
  5
2643
330
259E
100
AcDbEntity
  8
SUNPOU
 62
     4
100
AcDbLine
 10
640.6010057451767
 20
244.176223350839
 30
0.0
 11
674.0734536646559
 21
244.176223350839
 31
0.0
  0
LINE
  5
2644
330
259E
100
AcDbEntity
  8
SUNPOU
 62
     4
100
AcDbLine
 10
620.1397057451766
 20
173.676242350839
 30
0.0
 11
674.0734536646559
 21
173.676242350839
 31
0.0
  0
LINE
  5
2645
330
259E
100
AcDbEntity
  8
SUNPOU
 62
     4
100
AcDbLine
 10
671.0734536646559
 20
237.176223350839
 30
0.0
 11
671.0734536646559
 21
180.676242350839
 31
0.0
  0
INSERT
  5
2646
330
259E
100
AcDbEntity
  8
SUNPOU
 62
     4
100
AcDbBlockReference
  2
_OPEN
 10
671.0734536646559
 20
244.176223350839
 30
0.0
 41
7.0
 42
7.0
 43
7.0
 50
90.0
  0
INSERT
  5
2647
330
259E
100
AcDbEntity
  8
SUNPOU
 62
     4
100
AcDbBlockReference
  2
_OPEN
 10
671.0734536646559
 20
173.676242350839
 30
0.0
 41
7.0
 42
7.0
 43
7.0
 50
270.0
  0
MTEXT
  5
2648
330
259E
100
AcDbEntity
  8
SUNPOU
 62
     4
100
AcDbMText
 10
666.0734536646559
 20
208.9262328508391
 30
0.0
 40
6.0
 41
0.0
 71
     5
 72
     1
  1
\A1;70
 11
1.000000000000000E-16
 21
1.0
 31
0.0
 73
     1
 44
1.0
  0
POINT
  5
2649
330
259E
100
AcDbEntity
  8
DEFPOINTS
 62
     0
100
AcDbPoint
 10
634.6010057451767
 20
244.176223350839
 30
0.0
  0
POINT
  5
264A
330
259E
100
AcDbEntity
  8
DEFPOINTS
 62
     0
100
AcDbPoint
 10
614.1397057451768
 20
173.676242350839
 30
0.0
  0
POINT
  5
264B
330
259E
100
AcDbEntity
  8
DEFPOINTS
 62
     0
100
AcDbPoint
 10
671.0734536646559
 20
173.676242350839
 30
0.0
  0
ENDBLK
  5
25A9
330
259E
100
AcDbEntity
  8
0
100
AcDbBlockEnd
  0
BLOCK
  5
25B4
330
25AA
100
AcDbEntity
  8
0
100
AcDbBlockBegin
  2
*D15
 70
     1
 71
     0
 10
0.0
 20
0.0
 30
0.0
  3
*D15
  1

  0
LINE
  5
264C
330
25AA
100
AcDbEntity
  8
SUNPOU
 62
     4
100
AcDbLine
 10
512.5009325371185
 20
144.676223350839
 30
0.0
 11
512.5009325371185
 21
37.09683964472583
 31
0.0
  0
LINE
  5
264D
330
25AA
100
AcDbEntity
  8
SUNPOU
 62
     4
100
AcDbLine
 10
627.1935806110231
 20
144.676223350839
 30
0.0
 11
627.1935806110231
 21
37.09683964472583
 31
0.0
  0
LINE
  5
264E
330
25AA
100
AcDbEntity
  8
SUNPOU
 62
     4
100
AcDbLine
 10
519.5009325371184
 20
40.09683964472583
 30
0.0
 11
620.193580611023
 21
40.09683964472583
 31
0.0
  0
INSERT
  5
264F
330
25AA
100
AcDbEntity
  8
SUNPOU
 62
     4
100
AcDbBlockReference
  2
_OPEN
 10
512.5009325371185
 20
40.09683964472583
 30
0.0
 41
7.0
 42
7.0
 43
7.0
 50
180.0
  0
INSERT
  5
2650
330
25AA
100
AcDbEntity
  8
SUNPOU
 62
     4
100
AcDbBlockReference
  2
_OPEN
 10
627.1935806110231
 20
40.09683964472583
 30
0.0
 41
7.0
 42
7.0
 43
7.0
  0
MTEXT
  5
2651
330
25AA
100
AcDbEntity
  8
SUNPOU
 62
     4
100
AcDbMText
 10
569.8472565740707
 20
45.09683964472583
 30
0.0
 40
6.0
 41
0.0
 71
     5
 72
     1
  1
\A1;115
 73
     1
 44
1.0
  0
POINT
  5
2652
330
25AA
100
AcDbEntity
  8
DEFPOINTS
 62
     0
100
AcDbPoint
 10
512.5009325371185
 20
150.676223350839
 30
0.0
  0
POINT
  5
2653
330
25AA
100
AcDbEntity
  8
DEFPOINTS
 62
     0
100
AcDbPoint
 10
627.1935806110231
 20
150.676223350839
 30
0.0
  0
POINT
  5
2654
330
25AA
100
AcDbEntity
  8
DEFPOINTS
 62
     0
100
AcDbPoint
 10
627.1935806110231
 20
40.09683964472583
 30
0.0
  0
ENDBLK
  5
25B5
330
25AA
100
AcDbEntity
  8
0
100
AcDbBlockEnd
  0
BLOCK
  5
25C0
330
25B6
100
AcDbEntity
  8
0
100
AcDbBlockBegin
  2
*D16
 70
     1
 71
     0
 10
0.0
 20
0.0
 30
0.0
  3
*D16
  1

  0
LINE
  5
2655
330
25B6
100
AcDbEntity
  8
SUNPOU
 62
     4
100
AcDbLine
 10
525.7370057451768
 20
134.676223350839
 30
0.0
 11
412.6475865196034
 21
134.676223350839
 31
0.0
  0
LINE
  5
2656
330
25B6
100
AcDbEntity
  8
SUNPOU
 62
     4
100
AcDbLine
 10
539.0008057451767
 20
91.17622335083907
 30
0.0
 11
412.6475865196034
 21
91.17622335083912
 31
0.0
  0
LINE
  5
2657
330
25B6
100
AcDbEntity
  8
SUNPOU
 62
     4
100
AcDbLine
 10
415.6475865196034
 20
127.676223350839
 30
0.0
 11
415.6475865196034
 21
98.1762233508391
 31
0.0
  0
INSERT
  5
2658
330
25B6
100
AcDbEntity
  8
SUNPOU
 62
     4
100
AcDbBlockReference
  2
_OPEN
 10
415.6475865196035
 20
134.676223350839
 30
0.0
 41
7.0
 42
7.0
 43
7.0
 50
90.0
  0
INSERT
  5
2659
330
25B6
100
AcDbEntity
  8
SUNPOU
 62
     4
100
AcDbBlockReference
  2
_OPEN
 10
415.6475865196034
 20
91.17622335083912
 30
0.0
 41
7.0
 42
7.0
 43
7.0
 50
270.0
  0
MTEXT
  5
265A
330
25B6
100
AcDbEntity
  8
SUNPOU
 62
     4
100
AcDbMText
 10
410.6475865196034
 20
112.9262233508391
 30
0.0
 40
6.0
 41
0.0
 71
     5
 72
     1
  1
\A1;44
 11
1.000000000000000E-16
 21
1.0
 31
0.0
 73
     1
 44
1.0
  0
POINT
  5
265B
330
25B6
100
AcDbEntity
  8
DEFPOINTS
 62
     0
100
AcDbPoint
 10
531.7370057451768
 20
134.676223350839
 30
0.0
  0
POINT
  5
265C
330
25B6
100
AcDbEntity
  8
DEFPOINTS
 62
     0
100
AcDbPoint
 10
545.0008057451767
 20
91.17622335083907
 30
0.0
  0
POINT
  5
265D
330
25B6
100
AcDbEntity
  8
DEFPOINTS
 62
     0
100
AcDbPoint
 10
415.6475865196034
 20
91.17622335083912
 30
0.0
  0
ENDBLK
  5
25C1
330
25B6
100
AcDbEntity
  8
0
100
AcDbBlockEnd
  0
BLOCK
  5
25CC
330
25C2
100
AcDbEntity
  8
0
100
AcDbBlockBegin
  2
*D17
 70
     1
 71
     0
 10
0.0
 20
0.0
 30
0.0
  3
*D17
  1

  0
LINE
  5
265E
330
25C2
100
AcDbEntity
  8
SUNPOU
 62
     4
100
AcDbLine
 10
543.5008057451767
 20
89.17622335083904
 30
0.0
 11
543.5008057451767
 21
53.90044339006954
 31
0.0
  0
LINE
  5
265F
330
25C2
100
AcDbEntity
  8
SUNPOU
 62
     4
100
AcDbLine
 10
615.5011057451766
 20
89.17622335083904
 30
0.0
 11
615.5011057451766
 21
53.90044339006954
 31
0.0
  0
LINE
  5
2660
330
25C2
100
AcDbEntity
  8
SUNPOU
 62
     4
100
AcDbLine
 10
550.5008057451767
 20
56.90044339006954
 30
0.0
 11
608.5011057451766
 21
56.90044339006954
 31
0.0
  0
INSERT
  5
2661
330
25C2
100
AcDbEntity
  8
SUNPOU
 62
     4
100
AcDbBlockReference
  2
_OPEN
 10
543.5008057451767
 20
56.90044339006954
 30
0.0
 41
7.0
 42
7.0
 43
7.0
 50
180.0
  0
INSERT
  5
2662
330
25C2
100
AcDbEntity
  8
SUNPOU
 62
     4
100
AcDbBlockReference
  2
_OPEN
 10
615.5011057451766
 20
56.90044339006954
 30
0.0
 41
7.0
 42
7.0
 43
7.0
  0
MTEXT
  5
2663
330
25C2
100
AcDbEntity
  8
SUNPOU
 62
     4
100
AcDbMText
 10
579.5009557451767
 20
61.90044339006954
 30
0.0
 40
6.0
 41
0.0
 71
     5
 72
     1
  1
\A1;□72
 73
     1
 44
1.0
  0
POINT
  5
2664
330
25C2
100
AcDbEntity
  8
DEFPOINTS
 62
     0
100
AcDbPoint
 10
543.5008057451767
 20
95.17622335083904
 30
0.0
  0
POINT
  5
2665
330
25C2
100
AcDbEntity
  8
DEFPOINTS
 62
     0
100
AcDbPoint
 10
615.5011057451766
 20
95.17622335083904
 30
0.0
  0
POINT
  5
2666
330
25C2
100
AcDbEntity
  8
DEFPOINTS
 62
     0
100
AcDbPoint
 10
615.5011057451766
 20
56.90044339006954
 30
0.0
  0
ENDBLK
  5
25CD
330
25C2
100
AcDbEntity
  8
0
100
AcDbBlockEnd
  0
BLOCK
  5
25DA
330
25CE
100
AcDbEntity
  8
0
100
AcDbBlockBegin
  2
*D18
 70
     1
 71
     0
 10
0.0
 20
0.0
 30
0.0
  3
*D18
  1

  0
LINE
  5
2667
330
25CE
100
AcDbEntity
  8
SUNPOU
 62
     4
100
AcDbLine
 10
508.0673440852553
 20
150.6851948440052
 30
0.0
 11
412.6475865196034
 21
150.6851948440052
 31
0.0
  0
LINE
  5
2668
330
25CE
100
AcDbEntity
  8
SUNPOU
 62
     4
100
AcDbLine
 10
525.7370057451768
 20
134.676231350839
 30
0.0
 11
412.6475865196034
 21
134.676231350839
 31
0.0
  0
LINE
  5
2669
330
25CE
100
AcDbEntity
  8
SUNPOU
 62
     4
100
AcDbLine
 10
415.6475865196034
 20
157.6851948440052
 30
0.0
 11
415.6475865196034
 21
164.6851948440052
 31
0.0
  0
LINE
  5
266A
330
25CE
100
AcDbEntity
  8
SUNPOU
 62
     4
100
AcDbLine
 10
415.6475865196034
 20
127.676231350839
 30
0.0
 11
415.6475865196034
 21
120.676231350839
 31
0.0
  0
LINE
  5
266B
330
25CE
100
AcDbEntity
  8
SUNPOU
 62
     4
100
AcDbLine
 10
415.6475865196034
 20
150.6851948440052
 30
0.0
 11
415.6475865196034
 21
134.676231350839
 31
0.0
  0
INSERT
  5
266C
330
25CE
100
AcDbEntity
  8
SUNPOU
 62
     4
100
AcDbBlockReference
  2
_OPEN
 10
415.6475865196034
 20
150.6851948440052
 30
0.0
 41
7.0
 42
7.0
 43
7.0
 50
270.0
  0
INSERT
  5
266D
330
25CE
100
AcDbEntity
  8
SUNPOU
 62
     4
100
AcDbBlockReference
  2
_OPEN
 10
415.6475865196034
 20
134.676231350839
 30
0.0
 41
7.0
 42
7.0
 43
7.0
 50
90.0
  0
MTEXT
  5
266E
330
25CE
100
AcDbEntity
  8
SUNPOU
 62
     4
100
AcDbMText
 10
410.6475865196034
 20
142.6807130974222
 30
0.0
 40
6.0
 41
0.0
 71
     5
 72
     1
  1
\A1;16
 11
1.000000000000000E-16
 21
1.0
 31
0.0
 73
     1
 44
1.0
  0
POINT
  5
266F
330
25CE
100
AcDbEntity
  8
DEFPOINTS
 62
     0
100
AcDbPoint
 10
514.0673440852554
 20
150.6851948440052
 30
0.0
  0
POINT
  5
2670
330
25CE
100
AcDbEntity
  8
DEFPOINTS
 62
     0
100
AcDbPoint
 10
531.7370057451768
 20
134.676231350839
 30
0.0
  0
POINT
  5
2671
330
25CE
100
AcDbEntity
  8
DEFPOINTS
 62
     0
100
AcDbPoint
 10
415.6475865196034
 20
134.676231350839
 30
0.0
  0
ENDBLK
  5
25DB
330
25CE
100
AcDbEntity
  8
0
100
AcDbBlockEnd
  0
BLOCK
  5
25E6
330
25DC
100
AcDbEntity
  8
0
100
AcDbBlockBegin
  2
*D19
 70
     1
 71
     0
 10
0.0
 20
0.0
 30
0.0
  3
*D19
  1

  0
LINE
  5
2672
330
25DC
100
AcDbEntity
  8
SUNPOU
 62
     4
100
AcDbLine
 10
463.6009057451767
 20
266.576223350839
 30
0.0
 11
431.5113718604957
 21
266.576223350839
 31
0.0
  0
LINE
  5
2673
330
25DC
100
AcDbEntity
  8
SUNPOU
 62
     4
100
AcDbLine
 10
521.6856057451766
 20
173.676223350839
 30
0.0
 11
431.5113718604957
 21
173.676223350839
 31
0.0
  0
LINE
  5
2674
330
25DC
100
AcDbEntity
  8
SUNPOU
 62
     4
100
AcDbLine
 10
434.5113718604957
 20
259.576223350839
 30
0.0
 11
434.5113718604957
 21
180.676223350839
 31
0.0
  0
INSERT
  5
2675
330
25DC
100
AcDbEntity
  8
SUNPOU
 62
     4
100
AcDbBlockReference
  2
_OPEN
 10
434.5113718604957
 20
266.576223350839
 30
0.0
 41
7.0
 42
7.0
 43
7.0
 50
90.0
  0
INSERT
  5
2676
330
25DC
100
AcDbEntity
  8
SUNPOU
 62
     4
100
AcDbBlockReference
  2
_OPEN
 10
434.5113718604957
 20
173.676223350839
 30
0.0
 41
7.0
 42
7.0
 43
7.0
 50
270.0
  0
MTEXT
  5
2677
330
25DC
100
AcDbEntity
  8
SUNPOU
 62
     4
100
AcDbMText
 10
429.5113718604956
 20
220.1262233508391
 30
0.0
 40
6.0
 41
0.0
 71
     5
 72
     1
  1
\A1;93
 11
1.000000000000000E-16
 21
1.0
 31
0.0
 73
     1
 44
1.0
  0
POINT
  5
2678
330
25DC
100
AcDbEntity
  8
DEFPOINTS
 62
     0
100
AcDbPoint
 10
469.6009057451767
 20
266.576223350839
 30
0.0
  0
POINT
  5
2679
330
25DC
100
AcDbEntity
  8
DEFPOINTS
 62
     0
100
AcDbPoint
 10
527.6856057451766
 20
173.676223350839
 30
0.0
  0
POINT
  5
267A
330
25DC
100
AcDbEntity
  8
DEFPOINTS
 62
     0
100
AcDbPoint
 10
434.5113718604957
 20
173.676223350839
 30
0.0
  0
ENDBLK
  5
25E7
330
25DC
100
AcDbEntity
  8
0
100
AcDbBlockEnd
  0
BLOCK
  5
25F2
330
25E8
100
AcDbEntity
  8
0
100
AcDbBlockBegin
  2
*D20
 70
     1
 71
     0
 10
0.0
 20
0.0
 30
0.0
  3
*D20
  1

  0
LINE
  5
267B
330
25E8
100
AcDbEntity
  8
SUNPOU
 62
     4
100
AcDbLine
 10
463.6009057451767
 20
266.576223350839
 30
0.0
 11
412.6475865196034
 21
266.576223350839
 31
0.0
  0
LINE
  5
267C
330
25E8
100
AcDbEntity
  8
SUNPOU
 62
     4
100
AcDbLine
 10
508.2571057451768
 20
150.676223350839
 30
0.0
 11
412.6475865196034
 21
150.676223350839
 31
0.0
  0
LINE
  5
267D
330
25E8
100
AcDbEntity
  8
SUNPOU
 62
     4
100
AcDbLine
 10
415.6475865196034
 20
259.576223350839
 30
0.0
 11
415.6475865196034
 21
157.676223350839
 31
0.0
  0
INSERT
  5
267E
330
25E8
100
AcDbEntity
  8
SUNPOU
 62
     4
100
AcDbBlockReference
  2
_OPEN
 10
415.6475865196034
 20
266.576223350839
 30
0.0
 41
7.0
 42
7.0
 43
7.0
 50
90.0
  0
INSERT
  5
267F
330
25E8
100
AcDbEntity
  8
SUNPOU
 62
     4
100
AcDbBlockReference
  2
_OPEN
 10
415.6475865196034
 20
150.676223350839
 30
0.0
 41
7.0
 42
7.0
 43
7.0
 50
270.0
  0
MTEXT
  5
2680
330
25E8
100
AcDbEntity
  8
SUNPOU
 62
     4
100
AcDbMText
 10
410.6475865196034
 20
208.6262233508391
 30
0.0
 40
6.0
 41
0.0
 71
     5
 72
     1
  1
\A1;116
 11
1.000000000000000E-16
 21
1.0
 31
0.0
 73
     1
 44
1.0
  0
POINT
  5
2681
330
25E8
100
AcDbEntity
  8
DEFPOINTS
 62
     0
100
AcDbPoint
 10
469.6009057451767
 20
266.576223350839
 30
0.0
  0
POINT
  5
2682
330
25E8
100
AcDbEntity
  8
DEFPOINTS
 62
     0
100
AcDbPoint
 10
514.2571057451769
 20
150.676223350839
 30
0.0
  0
POINT
  5
2683
330
25E8
100
AcDbEntity
  8
DEFPOINTS
 62
     0
100
AcDbPoint
 10
415.6475865196034
 20
150.676223350839
 30
0.0
  0
ENDBLK
  5
25F3
330
25E8
100
AcDbEntity
  8
0
100
AcDbBlockEnd
  0
BLOCK
  5
2600
330
25F4
100
AcDbEntity
  8
0
100
AcDbBlockBegin
  2
*D21
 70
     1
 71
     0
 10
0.0
 20
0.0
 30
0.0
  3
*D21
  1

  0
LINE
  5
2684
330
25F4
100
AcDbEntity
  8
SUNPOU
 62
     4
100
AcDbLine
 10
571.0010057451768
 20
195.461523350839
 30
0.0
 11
571.0010057451768
 21
209.4201224595453
 31
0.0
  0
LINE
  5
2685
330
25F4
100
AcDbEntity
  8
SUNPOU
 62
     4
100
AcDbLine
 10
579.5009057451767
 20
145.6201662156413
 30
0.0
 11
579.5009057451767
 21
209.4201224595453
 31
0.0
  0
LINE
  5
2686
330
25F4
100
AcDbEntity
  8
SUNPOU
 62
     4
100
AcDbLine
 10
564.0010057451768
 20
206.4201224595453
 30
0.0
 11
557.0010057451766
 21
206.4201224595453
 31
0.0
  0
LINE
  5
2687
330
25F4
100
AcDbEntity
  8
SUNPOU
 62
     4
100
AcDbLine
 10
586.5009057451767
 20
206.4201224595453
 30
0.0
 11
593.5009057451767
 21
206.4201224595453
 31
0.0
  0
LINE
  5
2688
330
25F4
100
AcDbEntity
  8
SUNPOU
 62
     4
100
AcDbLine
 10
571.0010057451768
 20
206.4201224595453
 30
0.0
 11
579.5009057451767
 21
206.4201224595453
 31
0.0
  0
INSERT
  5
2689
330
25F4
100
AcDbEntity
  8
SUNPOU
 62
     4
100
AcDbBlockReference
  2
_OPEN
 10
571.0010057451768
 20
206.4201224595453
 30
0.0
 41
7.0
 42
7.0
 43
7.0
  0
INSERT
  5
268A
330
25F4
100
AcDbEntity
  8
SUNPOU
 62
     4
100
AcDbBlockReference
  2
_OPEN
 10
579.5009057451767
 20
206.4201224595453
 30
0.0
 41
7.0
 42
7.0
 43
7.0
 50
180.0
  0
MTEXT
  5
268B
330
25F4
100
AcDbEntity
  8
SUNPOU
 62
     4
100
AcDbMText
 10
575.2509557451767
 20
211.4201224595453
 30
0.0
 40
6.0
 41
0.0
 71
     5
 72
     1
  1
\A1;8
 73
     1
 44
1.0
  0
POINT
  5
268C
330
25F4
100
AcDbEntity
  8
DEFPOINTS
 62
     0
100
AcDbPoint
 10
571.0010057451768
 20
189.461523350839
 30
0.0
  0
POINT
  5
268D
330
25F4
100
AcDbEntity
  8
DEFPOINTS
 62
     0
100
AcDbPoint
 10
579.5009057451767
 20
139.6201662156413
 30
0.0
  0
POINT
  5
268E
330
25F4
100
AcDbEntity
  8
DEFPOINTS
 62
     0
100
AcDbPoint
 10
579.5009057451767
 20
206.4201224595453
 30
0.0
  0
ENDBLK
  5
2601
330
25F4
100
AcDbEntity
  8
0
100
AcDbBlockEnd
  0
ENDSEC
  0
SECTION
  2
ENTITIES
  0
TEXT
  5
9DF
330
1A
100
AcDbEntity
  8
SUNPOU
100
AcDbText
 10
676.296058680618
 20
45.3789568130245
 30
0.0
 40
6.0
  1
※a　軒樋の差込寸法を示す
100
AcDbText
  0
TEXT
  5
9E0
330
1A
100
AcDbEntity
  8
SUNPOU
100
AcDbText
 10
676.296058680618
 20
36.49396567134897
 30
0.0
 40
6.0
  1
※b　角々エルボの差込寸法を示す
100
AcDbText
  0
TEXT
  5
EDF
330
1A
100
AcDbEntity
  8
SUNPOU
 62
     4
100
AcDbText
 10
544.754825136059
 20
405.4713357348927
 30
0.0
 40
6.0
  1
じょうご用ストッパー２個入り
100
AcDbText
  0
LINE
  5
18CA
330
1A
100
AcDbEntity
  8
ZUWAKU
100
AcDbLine
 10
208.6466016834092
 20
15.19999965533644
 30
0.0
 11
447.4243643643326
 21
15.19999965533644
 31
0.0
  0
LINE
  5
18CB
330
1A
100
AcDbEntity
  8
ZUWAKU
100
AcDbLine
 10
208.6466016834092
 20
15.59999965533644
 30
0.0
 11
447.4243643643326
 21
15.59999965533645
 31
0.0
  0
LINE
  5
18CC
330
1A
100
AcDbEntity
  8
ZUWAKU
100
AcDbLine
 10
208.6466016834092
 20
15.39999965533644
 30
0.0
 11
447.4243643643326
 21
15.39999965533644
 31
0.0
  0
LINE
  5
18CD
330
1A
100
AcDbEntity
  8
ZUWAKU
100
AcDbLine
 10
0.0000003933412245
 20
30.79999965533642
 30
0.0
 11
797.4000003933411
 21
30.79999965533642
 31
0.0
  0
LINE
  5
18CE
330
1A
100
AcDbEntity
  8
ZUWAKU
100
AcDbLine
 10
0.0000003933412245
 20
30.59999965533641
 30
0.0
 11
797.4000003933411
 21
30.59999965533641
 31
0.0
  0
LINE
  5
18CF
330
1A
100
AcDbEntity
  8
ZUWAKU
100
AcDbLine
 10
0.0000003933412245
 20
30.39999965533641
 30
0.0
 11
797.4000003933411
 21
30.39999965533641
 31
0.0
  0
LINE
  5
18D0
330
1A
100
AcDbEntity
  8
ZUWAKU
100
AcDbLine
 10
0.0000003933412245
 20
30.19999965533641
 30
0.0
 11
797.4000003933411
 21
30.19999965533641
 31
0.0
  0
LINE
  5
18D1
330
1A
100
AcDbEntity
  8
ZUWAKU
100
AcDbLine
 10
0.0000003933412245
 20
29.99999965533641
 30
0.0
 11
797.4000003933411
 21
29.99999965533641
 31
0.0
  0
LWPOLYLINE
  5
18D2
330
1A
100
AcDbEntity
  8
ZUWAKU
100
AcDbPolyline
 90
        4
 70
     1
 43
0.0
 10
0.2000003933411563
 20
551.3999996553365
 10
0.2000003933411563
 20
0.1999996553364553
 10
797.4000003933411
 20
0.1999996553364784
 10
797.4000003933412
 20
551.3999996553365
  0
LWPOLYLINE
  5
18D3
330
1A
100
AcDbEntity
  8
ZUWAKU
100
AcDbPolyline
 90
        4
 70
     1
 43
0.0
 10
0.6000003933411336
 20
550.9999996553365
 10
0.6000003933411336
 20
0.5999996553364327
 10
797.0000003933416
 20
0.5999996553364788
 10
797.0000003933412
 20
550.9999996553365
  0
LWPOLYLINE
  5
18D4
330
1A
100
AcDbEntity
  8
ZUWAKU
100
AcDbPolyline
 90
        4
 70
     1
 43
0.0
 10
0.0000003933412245
 20
551.5999996553364
 10
0.0000003933412245
 20
-0.0000003446635901
 10
797.6000003933413
 20
-0.0000003446635226
 10
797.6000003933413
 20
551.5999996553366
  0
LWPOLYLINE
  5
18D5
330
1A
100
AcDbEntity
  8
ZUWAKU
100
AcDbPolyline
 90
        4
 70
     1
 43
0.0
 10
0.4000003933412018
 20
551.1999996553363
 10
0.4000003933412018
 20
0.3999996553365008
 10
797.2000003933413
 20
0.3999996553364777
 10
797.2000003933413
 20
551.1999996553363
  0
LWPOLYLINE
  5
18D6
330
1A
100
AcDbEntity
  8
ZUWAKU
100
AcDbPolyline
 90
        4
 70
     1
 43
0.0
 10
0.800000393341179
 20
550.7999996553365
 10
0.800000393341179
 20
0.7999996553364781
 10
796.8000003933411
 20
0.7999996553364781
 10
796.8000003933411
 20
550.7999996553365
  0
TEXT
  5
18D7
330
1A
100
AcDbEntity
  8
MOJI
100
AcDbText
 10
92.95778998151036
 20
12.74117778561117
 30
0.0
 40
6.0
  1
アーバントップΣ９０
 41
0.9
  7
ｽﾀｲﾙ1
100
AcDbText
  0
HATCH
  5
18D8
330
1A
100
AcDbEntity
  8
ZUWAKU
100
AcDbHatch
 10
0.0
 20
0.0
 30
0.0
210
0.0
220
0.0
230
1.0
  2
ANSI37
 70
     0
 71
     0
 91
        8
 92
        7
 72
     1
 73
     1
 93
       24
 10
14.50226305446108
 20
17.64484813631999
 42
-0.1989123673796348
 10
14.09221254812234
 20
18.63479762998104
 42
0.0
 10
14.09221254812234
 20
19.92499965533642
 42
-0.4142135623730912
 10
14.61721254812232
 20
20.44999965533641
 42
0.0
 10
17.59221254812223
 20
20.44999965533641
 42
0.4142135623731546
 10
18.11721254812232
 20
20.9749996553364
 42
0.0
 10
18.11721254812232
 20
22.72499965533641
 42
0.4142135623731586
 10
17.59221254812223
 20
23.24999965533641
 42
0.0
 10
14.09221254812234
 20
23.24999965533641
 42
0.4142135623730928
 10
11.29221254812239
 20
20.44999965533644
 42
0.0
 10
11.29221254812239
 20
18.63479762998117
 42
0.1989123673796619
 10
12.52236406713882
 20
15.66494914899756
 42
0.0
 10
15.43216204178349
 20
12.7551511743529
 42
-0.1989123673796613
 10
15.84221254812234
 20
11.76520168069172
 42
0.0
 10
15.84221254812234
 20
10.4749996553364
 42
-0.4142135623730911
 10
15.31721254812237
 20
9.949999655336413
 42
0.0
 10
12.34221254812246
 20
9.949999655336413
 42
0.4142135623731526
 10
11.81721254812237
 20
9.424999655336425
 42
0.0
 10
11.81721254812237
 20
7.674999655336403
 42
0.4142135623731526
 10
12.34221254812246
 20
7.149999655336415
 42
0.0
 10
15.84221254812234
 20
7.149999655336415
 42
0.4142135623731044
 10
18.64221254812241
 20
9.949999655336393
 42
0.0
 10
18.64221254812241
 20
11.76520168069166
 42
0.1989123673796604
 10
17.41206102910587
 20
14.7350501616752
 42
0.0
 97
        0
 92
        7
 72
     1
 73
     1
 93
       16
 10
23.54221254812239
 20
19.04999965533642
 42
-0.4142135623730935
 10
24.94221254812237
 20
20.44999965533641
 42
0.0
 10
26.86721254812232
 20
20.44999965533641
 42
0.4142135623731546
 10
27.39221254812241
 20
20.9749996553364
 42
0.0
 10
27.39221254812241
 20
22.72499965533641
 42
0.4142135623730951
 10
26.86721254812244
 20
23.24999965533641
 42
0.0
 10
24.94221254812226
 20
23.24999965533637
 42
0.4142135623730892
 10
20.74221254812232
 20
19.04999965533635
 42
0.0
 10
20.74221254812232
 20
11.34999965533644
 42
0.4142135623730969
 10
24.94221254812237
 20
7.149999655336415
 42
0.0
 10
26.86721254812232
 20
7.149999655336415
 42
0.4142135623731526
 10
27.39221254812241
 20
7.674999655336403
 42
0.0
 10
27.39221254812241
 20
9.424999655336425
 42
0.4142135623730891
 10
26.86721254812244
 20
9.949999655336413
 42
0.0
 10
24.94221254812237
 20
9.949999655336413
 42
-0.4142135623730928
 10
23.54221254812239
 20
11.3499996553364
 42
0.0
 97
        0
 92
        7
 72
     1
 73
     1
 93
        2
 10
24.24221254812232
 20
15.19999965533641
 42
1.0
 10
27.74221254812232
 20
15.19999965533641
 42
1.0
 97
        0
 92
        7
 72
     1
 73
     1
 93
       26
 10
37.31485903030035
 20
19.20504684889984
 42
0.0
 10
38.37649866343815
 20
22.56690568716943
 42
0.5069206636600134
 10
37.8758677642428
 20
23.24999965533641
 42
0.0
 10
36.17697838463357
 20
23.24999965533641
 42
0.3272098845218764
 10
35.67634748543821
 20
22.88309362350338
 42
0.0
 10
33.80807761080643
 20
16.96690568716949
 42
-0.3272098845219541
 10
33.30744671161096
 20
16.59999965533641
 42
0.0
 10
33.1672125481225
 20
16.59999965533641
 42
-0.4142135623731526
 10
32.64221254812241
 20
17.12499965533639
 42
0.0
 10
32.64221254812241
 20
22.72499965533641
 42
0.4142135623730951
 10
32.11721254812244
 20
23.24999965533641
 42
0.0
 10
30.36721254812232
 20
23.24999965533641
 42
0.4142135623730871
 10
29.84221254812236
 20
22.72499965533643
 42
0.0
 10
29.84221254812236
 20
7.674999655336403
 42
0.4142135623730891
 10
30.36721254812232
 20
7.149999655336415
 42
0.0
 10
32.11721254812232
 20
7.149999655336415
 42
0.4142135623731526
 10
32.64221254812241
 20
7.674999655336403
 42
0.0
 10
32.64221254812241
 20
13.27499965533642
 42
-0.4142135623731526
 10
33.1672125481225
 20
13.79999965533641
 42
0.0
 10
33.30744671161108
 20
13.79999965533641
 42
-0.3272098845218915
 10
33.80807761080643
 20
13.43309362350334
 42
0.0
 10
35.67634748543821
 20
7.516905687169487
 42
0.3272098845218902
 10
36.17697838463357
 20
7.149999655336415
 42
0.0
 10
37.8758677642428
 20
7.149999655336415
 42
0.5069206636600335
 10
38.37649866343815
 20
7.833093623503423
 42
0.0
 10
36.05010728496449
 20
15.19999965533655
 42
0.0
 97
        0
 92
        7
 72
     1
 73
     1
 93
        8
 10
43.49221254812232
 20
22.72499965533642
 42
0.4142135623731546
 10
42.96721254812223
 20
23.24999965533641
 42
0.0
 10
41.21721254812245
 20
23.24999965533641
 42
0.4142135623731507
 10
40.69221254812236
 20
22.72499965533643
 42
0.0
 10
40.69221254812236
 20
7.674999655336403
 42
0.4142135623731526
 10
41.21721254812245
 20
7.149999655336415
 42
0.0
 10
42.96721254812223
 20
7.149999655336415
 42
0.4142135623731526
 10
43.49221254812232
 20
7.674999655336403
 42
0.0
 97
        0
 92
        7
 72
     1
 73
     1
 93
       24
 10
48.39221254812241
 20
19.92499965533642
 42
-0.4142135623731546
 10
48.9172125481225
 20
20.44999965533641
 42
0.0
 10
51.89221254812242
 20
20.44999965533641
 42
0.4142135623730911
 10
52.41721254812239
 20
20.9749996553364
 42
0.0
 10
52.41721254812239
 20
22.72499965533641
 42
0.4142135623730952
 10
51.89221254812242
 20
23.24999965533641
 42
0.0
 10
48.39221254812241
 20
23.24999965533641
 42
0.4142135623731048
 10
45.59221254812235
 20
20.44999965533644
 42
0.0
 10
45.59221254812235
 20
18.63479762998117
 42
0.1989123673796613
 10
46.82236406713889
 20
15.66494914899762
 42
0.0
 10
49.73216204178356
 20
12.75515117435295
 42
-0.1989123673796402
 10
50.14221254812241
 20
11.76520168069188
 42
0.0
 10
50.14221254812241
 20
10.4749996553364
 42
-0.4142135623730911
 10
49.61721254812243
 20
9.949999655336413
 42
0.0
 10
46.64221254812241
 20
9.949999655336413
 42
0.4142135623731526
 10
46.11721254812232
 20
9.424999655336425
 42
0.0
 10
46.11721254812232
 20
7.674999655336403
 42
0.4142135623730891
 10
46.6422125481223
 20
7.149999655336415
 42
0.0
 10
50.14221254812241
 20
7.149999655336415
 42
0.4142135623730925
 10
52.94221254812237
 20
9.949999655336393
 42
0.0
 10
52.94221254812237
 20
11.76520168069166
 42
0.1989123673796675
 10
51.71206102910582
 20
14.73505016167531
 42
0.0
 10
48.80226305446126
 20
17.64484813631983
 42
-0.1989123673796652
 10
48.39221254812241
 20
18.634797629981
 42
0.0
 97
        0
 92
        7
 72
     1
 73
     1
 93
       16
 10
57.84221254812234
 20
22.7249996553364
 42
0.414213562373103
 10
57.31721254812237
 20
23.24999965533641
 42
0.0
 10
55.56721254812237
 20
23.24999965533641
 42
0.4142135623730871
 10
55.04221254812239
 20
22.72499965533643
 42
0.0
 10
55.04221254812239
 20
9.949999655336393
 42
0.4142135623730926
 10
57.84221254812234
 20
7.149999655336415
 42
0.0
 10
61.34221254812235
 20
7.149999655336415
 42
0.4142135623731044
 10
64.1422125481224
 20
9.949999655336393
 42
0.0
 10
64.1422125481224
 20
22.72499965533641
 42
0.4142135623730951
 10
63.61721254812243
 20
23.24999965533641
 42
0.0
 10
61.86721254812233
 20
23.24999965533641
 42
0.4142135623730871
 10
61.34221254812235
 20
22.72499965533643
 42
0.0
 10
61.34221254812235
 20
10.99999965533638
 42
-0.4142135623730879
 10
60.29221254812239
 20
9.949999655336413
 42
0.0
 10
58.89221254812241
 20
9.949999655336413
 42
-0.4142135623731197
 10
57.84221254812234
 20
10.99999965533638
 42
0.0
 97
        0
 92
        7
 72
     1
 73
     1
 93
        8
 10
69.04221254812239
 20
22.72499965533643
 42
0.4142135623730871
 10
68.5172125481224
 20
23.24999965533641
 42
0.0
 10
66.76721254812243
 20
23.24999965533641
 42
0.4142135623731507
 10
66.24221254812233
 20
22.72499965533643
 42
0.0
 10
66.24221254812233
 20
7.674999655336403
 42
0.4142135623730891
 10
66.7672125481223
 20
7.149999655336415
 42
0.0
 10
68.5172125481224
 20
7.149999655336415
 42
0.4142135623730891
 10
69.04221254812239
 20
7.674999655336403
 42
0.0
 97
        0
 75
     0
 76
     1
 52
0.0
 41
0.2
 77
     0
 78
     2
 53
45.0
 43
-900.9423039413376
 44
-13.20000034466352
 45
-0.4490128060534576
 46
0.4490128060534577
 79
     0
 53
135.0
 43
-900.9423039413376
 44
-13.20000034466352
 45
-0.4490128060534577
 46
-0.4490128060534576
 79
     0
 47
0.057451373970553
 98
        8
 10
16.07985535636453
 20
15.16717330122196
 10
22.40451539978039
 20
18.84406183778742
 10
25.16436827900088
 20
15.51188130140713
 10
30.91406037497836
 20
16.20129730177791
 10
41.83847241229796
 20
16.66090956931952
 10
46.89820128847077
 20
19.41857597174362
 10
56.55768636574157
 20
18.72915757043142
 10
67.82708001296396
 20
19.18876983797304
  0
LINE
  5
18D9
330
1A
100
AcDbEntity
  8
ZUWAKU
100
AcDbLine
 10
24.94221254812237
 20
23.24999965533637
 30
0.0
 11
26.86721254812232
 21
23.24999965533641
 31
0.0
  0
LINE
  5
18DA
330
1A
100
AcDbEntity
  8
ZUWAKU
100
AcDbLine
 10
26.86721254812232
 20
20.44999965533641
 30
0.0
 11
24.94221254812237
 21
20.44999965533641
 31
0.0
  0
LINE
  5
18DB
330
1A
100
AcDbEntity
  8
ZUWAKU
100
AcDbLine
 10
24.94221254812237
 20
9.949999655336413
 30
0.0
 11
26.86721254812232
 21
9.949999655336413
 31
0.0
  0
LINE
  5
18DC
330
1A
100
AcDbEntity
  8
ZUWAKU
100
AcDbLine
 10
26.86721254812232
 20
7.149999655336415
 30
0.0
 11
24.94221254812237
 21
7.149999655336415
 31
0.0
  0
CIRCLE
  5
18DD
330
1A
100
AcDbEntity
  8
ZUWAKU
100
AcDbCircle
 10
25.99221254812232
 20
15.19999965533641
 30
0.0
 40
1.75
  0
ARC
  5
18DE
330
1A
100
AcDbEntity
  8
ZUWAKU
100
AcDbCircle
 10
15.49221254812232
 20
18.63479762998111
 30
0.0
 40
1.399999999999999
100
AcDbArc
 50
180.0000000000016
 51
224.9999999999988
  0
LINE
  5
18DF
330
1A
100
AcDbEntity
  8
ZUWAKU
100
AcDbLine
 10
23.54221254812239
 20
19.04999965533641
 30
0.0
 11
23.54221254812239
 21
11.34999965533641
 31
0.0
  0
LINE
  5
18E0
330
1A
100
AcDbEntity
  8
ZUWAKU
100
AcDbLine
 10
20.74221254812232
 20
11.34999965533641
 30
0.0
 11
20.74221254812232
 21
19.04999965533637
 31
0.0
  0
ARC
  5
18E1
330
1A
100
AcDbEntity
  8
ZUWAKU
100
AcDbCircle
 10
15.49221254812232
 20
18.63479762998111
 30
0.0
 40
4.199999999999998
100
AcDbArc
 50
180.0
 51
225.0
  0
ARC
  5
18E2
330
1A
100
AcDbEntity
  8
ZUWAKU
100
AcDbCircle
 10
15.84221254812234
 20
9.949999655336413
 30
0.0
 40
2.799999999999999
100
AcDbArc
 50
270.0
 51
0.0
  0
ARC
  5
18E3
330
1A
100
AcDbEntity
  8
ZUWAKU
100
AcDbCircle
 10
24.94221254812237
 20
11.34999965533641
 30
0.0
 40
4.199999999999998
100
AcDbArc
 50
180.0
 51
270.0
  0
ARC
  5
18E4
330
1A
100
AcDbEntity
  8
ZUWAKU
100
AcDbCircle
 10
14.44221254812237
 20
11.76520168069171
 30
0.0
 40
4.199999999999998
100
AcDbArc
 50
0.0
 51
45.0
  0
LINE
  5
18E5
330
1A
100
AcDbEntity
  8
ZUWAKU
100
AcDbLine
 10
17.41206102910587
 20
14.73505016167524
 30
0.0
 11
14.50226305446119
 21
17.64484813631991
 31
0.0
  0
LINE
  5
18E6
330
1A
100
AcDbEntity
  8
ZUWAKU
100
AcDbLine
 10
15.84221254812234
 20
10.47499965533641
 30
0.0
 11
15.84221254812234
 21
11.76520168069176
 31
0.0
  0
ARC
  5
18E7
330
1A
100
AcDbEntity
  8
ZUWAKU
100
AcDbCircle
 10
15.31721254812237
 20
10.47499965533641
 30
0.0
 40
0.525
100
AcDbArc
 50
270.0
 51
0.0
  0
ARC
  5
18E8
330
1A
100
AcDbEntity
  8
ZUWAKU
100
AcDbCircle
 10
14.44221254812237
 20
11.76520168069176
 30
0.0
 40
1.399999999999999
100
AcDbArc
 50
0.0
 51
45.0
  0
LINE
  5
18E9
330
1A
100
AcDbEntity
  8
ZUWAKU
100
AcDbLine
 10
11.81721254812237
 20
7.674999655336414
 30
0.0
 11
11.81721254812237
 21
9.424999655336414
 31
0.0
  0
ARC
  5
18EA
330
1A
100
AcDbEntity
  8
ZUWAKU
100
AcDbCircle
 10
12.34221254812234
 20
7.674999655336414
 30
0.0
 40
0.525
100
AcDbArc
 50
180.0
 51
270.0
  0
ARC
  5
18EB
330
1A
100
AcDbEntity
  8
ZUWAKU
100
AcDbCircle
 10
12.34221254812234
 20
9.424999655336414
 30
0.0
 40
0.525
100
AcDbArc
 50
90.0
 51
180.0
  0
LINE
  5
18EC
330
1A
100
AcDbEntity
  8
ZUWAKU
100
AcDbLine
 10
12.34221254812234
 20
7.149999655336415
 30
0.0
 11
15.84221254812234
 21
7.149999655336415
 31
0.0
  0
LINE
  5
18ED
330
1A
100
AcDbEntity
  8
ZUWAKU
100
AcDbLine
 10
12.34221254812234
 20
9.949999655336413
 30
0.0
 11
15.31721254812237
 21
9.949999655336413
 31
0.0
  0
LINE
  5
18EE
330
1A
100
AcDbEntity
  8
ZUWAKU
100
AcDbLine
 10
12.52236406713882
 20
15.66494914899759
 30
0.0
 11
15.43216204178349
 21
12.75515117435293
 31
0.0
  0
LINE
  5
18EF
330
1A
100
AcDbEntity
  8
ZUWAKU
100
AcDbLine
 10
18.64221254812241
 20
9.949999655336413
 30
0.0
 11
18.64221254812241
 21
11.76520168069176
 31
0.0
  0
ARC
  5
18F0
330
1A
100
AcDbEntity
  8
ZUWAKU
100
AcDbCircle
 10
24.94221254812237
 20
11.34999965533641
 30
0.0
 40
1.399999999999999
100
AcDbArc
 50
180.0
 51
270.0
  0
ARC
  5
18F1
330
1A
100
AcDbEntity
  8
ZUWAKU
100
AcDbCircle
 10
17.59221254812234
 20
22.72499965533641
 30
0.0
 40
0.525
100
AcDbArc
 50
0.0
 51
90.0
  0
ARC
  5
18F2
330
1A
100
AcDbEntity
  8
ZUWAKU
100
AcDbCircle
 10
17.59221254812234
 20
20.97499965533641
 30
0.0
 40
0.525
100
AcDbArc
 50
270.0
 51
0.0
  0
LINE
  5
18F3
330
1A
100
AcDbEntity
  8
ZUWAKU
100
AcDbLine
 10
14.09221254812234
 20
23.24999965533641
 30
0.0
 11
17.59221254812234
 21
23.24999965533641
 31
0.0
  0
ARC
  5
18F4
330
1A
100
AcDbEntity
  8
ZUWAKU
100
AcDbCircle
 10
14.61721254812232
 20
19.92499965533641
 30
0.0
 40
0.525
100
AcDbArc
 50
90.0
 51
180.0
  0
LINE
  5
18F5
330
1A
100
AcDbEntity
  8
ZUWAKU
100
AcDbLine
 10
14.09221254812234
 20
19.92499965533641
 30
0.0
 11
14.09221254812234
 21
18.63479762998107
 31
0.0
  0
LINE
  5
18F6
330
1A
100
AcDbEntity
  8
ZUWAKU
100
AcDbLine
 10
17.59221254812234
 20
20.44999965533641
 30
0.0
 11
14.61721254812232
 21
20.44999965533641
 31
0.0
  0
LINE
  5
18F7
330
1A
100
AcDbEntity
  8
ZUWAKU
100
AcDbLine
 10
11.29221254812239
 20
20.44999965533641
 30
0.0
 11
11.29221254812239
 21
18.63479762998107
 31
0.0
  0
ARC
  5
18F8
330
1A
100
AcDbEntity
  8
ZUWAKU
100
AcDbCircle
 10
14.09221254812234
 20
20.44999965533641
 30
0.0
 40
2.799999999999999
100
AcDbArc
 50
90.0
 51
180.0
  0
LINE
  5
18F9
330
1A
100
AcDbEntity
  8
ZUWAKU
100
AcDbLine
 10
18.11721254812232
 20
22.72499965533641
 30
0.0
 11
18.11721254812232
 21
20.97499965533641
 31
0.0
  0
ARC
  5
18FA
330
1A
100
AcDbEntity
  8
ZUWAKU
100
AcDbCircle
 10
24.94221254812237
 20
19.04999965533641
 30
0.0
 40
1.399999999999999
100
AcDbArc
 50
90.0
 51
180.0
  0
ARC
  5
18FB
330
1A
100
AcDbEntity
  8
ZUWAKU
100
AcDbCircle
 10
24.94221254812237
 20
19.04999965533637
 30
0.0
 40
4.199999999999998
100
AcDbArc
 50
90.0
 51
180.0
  0
LINE
  5
18FC
330
1A
100
AcDbEntity
  8
ZUWAKU
100
AcDbLine
 10
79.32662994132944
 20
29.99999965533641
 30
0.0
 11
79.32662994132966
 21
0.7999996553364781
 31
0.0
  0
LINE
  5
18FD
330
1A
100
AcDbEntity
  8
ZUWAKU
100
AcDbLine
 10
79.52662994132948
 20
29.99999965533641
 30
0.0
 11
79.5266299413297
 21
0.7999996553364781
 31
0.0
  0
LINE
  5
18FE
330
1A
100
AcDbEntity
  8
ZUWAKU
100
AcDbLine
 10
79.12662994132961
 20
29.99999965533641
 30
0.0
 11
79.12662994132961
 21
0.7999996553364781
 31
0.0
  0
LINE
  5
18FF
330
1A
100
AcDbEntity
  8
ZUWAKU
100
AcDbLine
 10
64.1422125481224
 20
9.949999655336413
 30
0.0
 11
64.1422125481224
 21
22.72499965533641
 31
0.0
  0
LINE
  5
1900
330
1A
100
AcDbEntity
  8
ZUWAKU
100
AcDbLine
 10
61.34221254812235
 20
22.72499965533641
 30
0.0
 11
61.34221254812235
 21
10.9999996553364
 31
0.0
  0
LINE
  5
1901
330
1A
100
AcDbEntity
  8
ZUWAKU
100
AcDbLine
 10
69.04221254812239
 20
7.674999655336414
 30
0.0
 11
69.04221254812239
 21
22.72499965533641
 31
0.0
  0
LINE
  5
1902
330
1A
100
AcDbEntity
  8
ZUWAKU
100
AcDbLine
 10
66.24221254812233
 20
22.72499965533641
 30
0.0
 11
66.24221254812233
 21
7.674999655336414
 31
0.0
  0
ARC
  5
1903
330
1A
100
AcDbEntity
  8
ZUWAKU
100
AcDbCircle
 10
49.79221254812239
 20
18.63479762998111
 30
0.0
 40
1.399999999999999
100
AcDbArc
 50
180.0000000000016
 51
224.9999999999988
  0
ARC
  5
1904
330
1A
100
AcDbEntity
  8
ZUWAKU
100
AcDbCircle
 10
49.79221254812239
 20
18.63479762998111
 30
0.0
 40
4.199999999999998
100
AcDbArc
 50
180.0
 51
225.0
  0
LINE
  5
1905
330
1A
100
AcDbEntity
  8
ZUWAKU
100
AcDbLine
 10
37.31485903030035
 20
19.20504684889984
 30
0.0
 11
36.05010728496449
 21
15.19999965533643
 31
0.0
  0
LINE
  5
1906
330
1A
100
AcDbEntity
  8
ZUWAKU
100
AcDbLine
 10
40.69221254812236
 20
22.72499965533641
 30
0.0
 11
40.69221254812236
 21
7.674999655336414
 31
0.0
  0
LINE
  5
1907
330
1A
100
AcDbEntity
  8
ZUWAKU
100
AcDbLine
 10
43.49221254812232
 20
7.674999655336414
 30
0.0
 11
43.49221254812232
 21
22.72499965533641
 31
0.0
  0
LINE
  5
1908
330
1A
100
AcDbEntity
  8
ZUWAKU
100
AcDbLine
 10
55.04221254812239
 20
22.72499965533641
 30
0.0
 11
55.04221254812239
 21
9.949999655336413
 31
0.0
  0
LINE
  5
1909
330
1A
100
AcDbEntity
  8
ZUWAKU
100
AcDbLine
 10
57.84221254812234
 20
10.9999996553364
 30
0.0
 11
57.84221254812234
 21
22.72499965533641
 31
0.0
  0
LINE
  5
190A
330
1A
100
AcDbEntity
  8
ZUWAKU
100
AcDbLine
 10
32.64221254812241
 20
17.12499965533641
 30
0.0
 11
32.64221254812241
 21
22.72499965533641
 31
0.0
  0
LINE
  5
190B
330
1A
100
AcDbEntity
  8
ZUWAKU
100
AcDbLine
 10
29.84221254812236
 20
22.72499965533641
 30
0.0
 11
29.84221254812236
 21
7.674999655336414
 31
0.0
  0
LINE
  5
190C
330
1A
100
AcDbEntity
  8
ZUWAKU
100
AcDbLine
 10
35.67634748543821
 20
22.88309362350338
 30
0.0
 11
33.80807761080643
 21
16.96690568716944
 31
0.0
  0
LINE
  5
190D
330
1A
100
AcDbEntity
  8
ZUWAKU
100
AcDbLine
 10
60.29221254812239
 20
9.949999655336413
 30
0.0
 11
58.89221254812241
 21
9.949999655336413
 31
0.0
  0
LINE
  5
190E
330
1A
100
AcDbEntity
  8
ZUWAKU
100
AcDbLine
 10
57.84221254812234
 20
7.149999655336415
 30
0.0
 11
61.34221254812235
 21
7.149999655336415
 31
0.0
  0
LINE
  5
190F
330
1A
100
AcDbEntity
  8
ZUWAKU
100
AcDbLine
 10
41.21721254812236
 20
7.149999655336415
 30
0.0
 11
42.96721254812235
 21
7.149999655336415
 31
0.0
  0
LINE
  5
1910
330
1A
100
AcDbEntity
  8
ZUWAKU
100
AcDbLine
 10
35.67634748543821
 20
7.516905687169441
 30
0.0
 11
33.80807761080643
 21
13.43309362350338
 31
0.0
  0
ARC
  5
1911
330
1A
100
AcDbEntity
  8
ZUWAKU
100
AcDbCircle
 10
33.30744671161108
 20
17.12499965533641
 30
0.0
 40
0.525
100
AcDbArc
 50
270.0
 51
342.474431626277
  0
LINE
  5
1912
330
1A
100
AcDbEntity
  8
ZUWAKU
100
AcDbLine
 10
33.30744671161108
 20
16.59999965533641
 30
0.0
 11
33.16721254812239
 21
16.59999965533641
 31
0.0
  0
LINE
  5
1913
330
1A
100
AcDbEntity
  8
ZUWAKU
100
AcDbLine
 10
33.16721254812239
 20
13.79999965533641
 30
0.0
 11
33.30744671161108
 21
13.79999965533641
 31
0.0
  0
ARC
  5
1914
330
1A
100
AcDbEntity
  8
ZUWAKU
100
AcDbCircle
 10
33.16721254812239
 20
17.12499965533641
 30
0.0
 40
0.525
100
AcDbArc
 50
180.0
 51
270.0
  0
LINE
  5
1915
330
1A
100
AcDbEntity
  8
ZUWAKU
100
AcDbLine
 10
30.36721254812232
 20
7.149999655336415
 30
0.0
 11
32.11721254812232
 21
7.149999655336415
 31
0.0
  0
ARC
  5
1916
330
1A
100
AcDbEntity
  8
ZUWAKU
100
AcDbCircle
 10
32.11721254812232
 20
7.674999655336414
 30
0.0
 40
0.525
100
AcDbArc
 50
270.0
 51
0.0
  0
LINE
  5
1917
330
1A
100
AcDbEntity
  8
ZUWAKU
100
AcDbLine
 10
32.64221254812241
 20
7.674999655336414
 30
0.0
 11
32.64221254812241
 21
13.27499965533641
 31
0.0
  0
LINE
  5
1918
330
1A
100
AcDbEntity
  8
ZUWAKU
100
AcDbLine
 10
27.39221254812241
 20
9.424999655336414
 30
0.0
 11
27.39221254812241
 21
7.674999655336414
 31
0.0
  0
ARC
  5
1919
330
1A
100
AcDbEntity
  8
ZUWAKU
100
AcDbCircle
 10
26.86721254812232
 20
7.674999655336414
 30
0.0
 40
0.525
100
AcDbArc
 50
270.0
 51
0.0
  0
ARC
  5
191A
330
1A
100
AcDbEntity
  8
ZUWAKU
100
AcDbCircle
 10
26.86721254812232
 20
9.424999655336414
 30
0.0
 40
0.525
100
AcDbArc
 50
0.0
 51
90.0
  0
ARC
  5
191B
330
1A
100
AcDbEntity
  8
ZUWAKU
100
AcDbCircle
 10
30.36721254812232
 20
7.674999655336414
 30
0.0
 40
0.525
100
AcDbArc
 50
180.0
 51
270.0
  0
ARC
  5
191C
330
1A
100
AcDbEntity
  8
ZUWAKU
100
AcDbCircle
 10
33.30744671161108
 20
13.27499965533641
 30
0.0
 40
0.525
100
AcDbArc
 50
17.52556837372303
 51
90.0
  0
ARC
  5
191D
330
1A
100
AcDbEntity
  8
ZUWAKU
100
AcDbCircle
 10
33.16721254812239
 20
13.27499965533641
 30
0.0
 40
0.525
100
AcDbArc
 50
90.0
 51
180.0
  0
ARC
  5
191E
330
1A
100
AcDbEntity
  8
ZUWAKU
100
AcDbCircle
 10
41.21721254812236
 20
7.674999655336414
 30
0.0
 40
0.525
100
AcDbArc
 50
180.0
 51
270.0
  0
LINE
  5
191F
330
1A
100
AcDbEntity
  8
ZUWAKU
100
AcDbLine
 10
36.17697838463368
 20
7.149999655336415
 30
0.0
 11
37.87586776424268
 21
7.149999655336415
 31
0.0
  0
ARC
  5
1920
330
1A
100
AcDbEntity
  8
ZUWAKU
100
AcDbCircle
 10
37.87586776424268
 20
7.674999655336414
 30
0.0
 40
0.525
100
AcDbArc
 50
270.0
 51
17.52556837372303
  0
LINE
  5
1921
330
1A
100
AcDbEntity
  8
ZUWAKU
100
AcDbLine
 10
38.37649866343815
 20
7.833093623503388
 30
0.0
 11
36.05010728496449
 21
15.19999965533643
 31
0.0
  0
ARC
  5
1922
330
1A
100
AcDbEntity
  8
ZUWAKU
100
AcDbCircle
 10
36.17697838463368
 20
7.674999655336414
 30
0.0
 40
0.525
100
AcDbArc
 50
197.525568373723
 51
270.0
  0
ARC
  5
1923
330
1A
100
AcDbEntity
  8
ZUWAKU
100
AcDbCircle
 10
57.84221254812234
 20
9.949999655336413
 30
0.0
 40
2.799999999999999
100
AcDbArc
 50
180.0
 51
270.0
  0
ARC
  5
1924
330
1A
100
AcDbEntity
  8
ZUWAKU
100
AcDbCircle
 10
50.14221254812241
 20
9.949999655336413
 30
0.0
 40
2.799999999999999
100
AcDbArc
 50
270.0
 51
0.0
  0
LINE
  5
1925
330
1A
100
AcDbEntity
  8
ZUWAKU
100
AcDbLine
 10
51.71206102910594
 20
14.73505016167524
 30
0.0
 11
48.80226305446114
 21
17.64484813631991
 31
0.0
  0
LINE
  5
1926
330
1A
100
AcDbEntity
  8
ZUWAKU
100
AcDbLine
 10
50.14221254812241
 20
10.47499965533641
 30
0.0
 11
50.14221254812241
 21
11.76520168069176
 31
0.0
  0
ARC
  5
1927
330
1A
100
AcDbEntity
  8
ZUWAKU
100
AcDbCircle
 10
48.74221254812233
 20
11.76520168069176
 30
0.0
 40
1.399999999999999
100
AcDbArc
 50
0.0
 51
45.0
  0
ARC
  5
1928
330
1A
100
AcDbEntity
  8
ZUWAKU
100
AcDbCircle
 10
49.61721254812232
 20
10.47499965533641
 30
0.0
 40
0.525
100
AcDbArc
 50
270.0
 51
0.0
  0
LINE
  5
1929
330
1A
100
AcDbEntity
  8
ZUWAKU
100
AcDbLine
 10
46.11721254812232
 20
7.674999655336414
 30
0.0
 11
46.11721254812232
 21
9.424999655336414
 31
0.0
  0
ARC
  5
192A
330
1A
100
AcDbEntity
  8
ZUWAKU
100
AcDbCircle
 10
46.64221254812241
 20
7.674999655336414
 30
0.0
 40
0.525
100
AcDbArc
 50
180.0
 51
270.0
  0
ARC
  5
192B
330
1A
100
AcDbEntity
  8
ZUWAKU
100
AcDbCircle
 10
42.96721254812235
 20
7.674999655336414
 30
0.0
 40
0.525
100
AcDbArc
 50
270.0
 51
0.0
  0
ARC
  5
192C
330
1A
100
AcDbEntity
  8
ZUWAKU
100
AcDbCircle
 10
46.64221254812241
 20
9.424999655336414
 30
0.0
 40
0.525
100
AcDbArc
 50
90.0
 51
180.0
  0
LINE
  5
192D
330
1A
100
AcDbEntity
  8
ZUWAKU
100
AcDbLine
 10
46.64221254812241
 20
9.949999655336413
 30
0.0
 11
49.61721254812232
 21
9.949999655336413
 31
0.0
  0
LINE
  5
192E
330
1A
100
AcDbEntity
  8
ZUWAKU
100
AcDbLine
 10
46.64221254812241
 20
7.149999655336415
 30
0.0
 11
50.14221254812241
 21
7.149999655336415
 31
0.0
  0
LINE
  5
192F
330
1A
100
AcDbEntity
  8
ZUWAKU
100
AcDbLine
 10
46.82236406713889
 20
15.66494914899759
 30
0.0
 11
49.73216204178356
 21
12.75515117435293
 31
0.0
  0
LINE
  5
1930
330
1A
100
AcDbEntity
  8
ZUWAKU
100
AcDbLine
 10
52.94221254812237
 20
9.949999655336413
 30
0.0
 11
52.94221254812237
 21
11.76520168069176
 31
0.0
  0
ARC
  5
1931
330
1A
100
AcDbEntity
  8
ZUWAKU
100
AcDbCircle
 10
48.74221254812233
 20
11.76520168069171
 30
0.0
 40
4.199999999999998
100
AcDbArc
 50
0.0
 51
45.0
  0
ARC
  5
1932
330
1A
100
AcDbEntity
  8
ZUWAKU
100
AcDbCircle
 10
58.89221254812241
 20
10.9999996553364
 30
0.0
 40
1.049999999999999
100
AcDbArc
 50
180.0
 51
270.0
  0
ARC
  5
1933
330
1A
100
AcDbEntity
  8
ZUWAKU
100
AcDbCircle
 10
61.34221254812235
 20
9.949999655336413
 30
0.0
 40
2.799999999999999
100
AcDbArc
 50
270.0
 51
0.0
  0
LINE
  5
1934
330
1A
100
AcDbEntity
  8
ZUWAKU
100
AcDbLine
 10
66.76721254812243
 20
7.149999655336415
 30
0.0
 11
68.5172125481224
 21
7.149999655336415
 31
0.0
  0
ARC
  5
1935
330
1A
100
AcDbEntity
  8
ZUWAKU
100
AcDbCircle
 10
66.76721254812243
 20
7.674999655336414
 30
0.0
 40
0.525
100
AcDbArc
 50
180.0
 51
270.0
  0
ARC
  5
1936
330
1A
100
AcDbEntity
  8
ZUWAKU
100
AcDbCircle
 10
60.29221254812239
 20
10.9999996553364
 30
0.0
 40
1.049999999999999
100
AcDbArc
 50
270.0
 51
0.0
  0
ARC
  5
1937
330
1A
100
AcDbEntity
  8
ZUWAKU
100
AcDbCircle
 10
68.5172125481224
 20
7.674999655336414
 30
0.0
 40
0.525
100
AcDbArc
 50
270.0
 51
0.0
  0
LINE
  5
1938
330
1A
100
AcDbEntity
  8
ZUWAKU
100
AcDbLine
 10
42.96721254812235
 20
23.24999965533641
 30
0.0
 11
41.21721254812236
 21
23.24999965533641
 31
0.0
  0
ARC
  5
1939
330
1A
100
AcDbEntity
  8
ZUWAKU
100
AcDbCircle
 10
32.11721254812232
 20
22.72499965533641
 30
0.0
 40
0.525
100
AcDbArc
 50
0.0
 51
90.0
  0
LINE
  5
193A
330
1A
100
AcDbEntity
  8
ZUWAKU
100
AcDbLine
 10
32.11721254812232
 20
23.24999965533641
 30
0.0
 11
30.36721254812232
 21
23.24999965533641
 31
0.0
  0
ARC
  5
193B
330
1A
100
AcDbEntity
  8
ZUWAKU
100
AcDbCircle
 10
26.86721254812232
 20
22.72499965533641
 30
0.0
 40
0.525
100
AcDbArc
 50
0.0
 51
90.0
  0
ARC
  5
193C
330
1A
100
AcDbEntity
  8
ZUWAKU
100
AcDbCircle
 10
30.36721254812232
 20
22.72499965533641
 30
0.0
 40
0.525
100
AcDbArc
 50
90.0
 51
180.0
  0
ARC
  5
193D
330
1A
100
AcDbEntity
  8
ZUWAKU
100
AcDbCircle
 10
26.86721254812232
 20
20.97499965533641
 30
0.0
 40
0.525
100
AcDbArc
 50
270.0
 51
0.0
  0
LINE
  5
193E
330
1A
100
AcDbEntity
  8
ZUWAKU
100
AcDbLine
 10
27.39221254812241
 20
22.72499965533641
 30
0.0
 11
27.39221254812241
 21
20.97499965533641
 31
0.0
  0
ARC
  5
193F
330
1A
100
AcDbEntity
  8
ZUWAKU
100
AcDbCircle
 10
41.21721254812236
 20
22.72499965533641
 30
0.0
 40
0.525
100
AcDbArc
 50
90.0
 51
180.0
  0
LINE
  5
1940
330
1A
100
AcDbEntity
  8
ZUWAKU
100
AcDbLine
 10
36.17697838463368
 20
23.24999965533641
 30
0.0
 11
37.87586776424268
 21
23.24999965533641
 31
0.0
  0
ARC
  5
1941
330
1A
100
AcDbEntity
  8
ZUWAKU
100
AcDbCircle
 10
37.87586776424268
 20
22.72499965533641
 30
0.0
 40
0.525
100
AcDbArc
 50
342.474431626277
 51
90.0
  0
LINE
  5
1942
330
1A
100
AcDbEntity
  8
ZUWAKU
100
AcDbLine
 10
38.37649866343815
 20
22.56690568716944
 30
0.0
 11
37.31485903030035
 21
19.20504684889984
 31
0.0
  0
ARC
  5
1943
330
1A
100
AcDbEntity
  8
ZUWAKU
100
AcDbCircle
 10
36.17697838463368
 20
22.72499965533641
 30
0.0
 40
0.525
100
AcDbArc
 50
90.0
 51
162.4744316262769
  0
LINE
  5
1944
330
1A
100
AcDbEntity
  8
ZUWAKU
100
AcDbLine
 10
48.39221254812241
 20
23.24999965533641
 30
0.0
 11
51.89221254812242
 21
23.24999965533641
 31
0.0
  0
LINE
  5
1945
330
1A
100
AcDbEntity
  8
ZUWAKU
100
AcDbLine
 10
51.89221254812242
 20
20.44999965533641
 30
0.0
 11
48.91721254812239
 21
20.44999965533641
 31
0.0
  0
ARC
  5
1946
330
1A
100
AcDbEntity
  8
ZUWAKU
100
AcDbCircle
 10
48.91721254812239
 20
19.92499965533641
 30
0.0
 40
0.525
100
AcDbArc
 50
90.0
 51
180.0
  0
LINE
  5
1947
330
1A
100
AcDbEntity
  8
ZUWAKU
100
AcDbLine
 10
48.39221254812241
 20
19.92499965533641
 30
0.0
 11
48.39221254812241
 21
18.63479762998107
 31
0.0
  0
ARC
  5
1948
330
1A
100
AcDbEntity
  8
ZUWAKU
100
AcDbCircle
 10
42.96721254812235
 20
22.72499965533641
 30
0.0
 40
0.525
100
AcDbArc
 50
0.0
 51
90.0
  0
LINE
  5
1949
330
1A
100
AcDbEntity
  8
ZUWAKU
100
AcDbLine
 10
45.59221254812235
 20
20.44999965533641
 30
0.0
 11
45.59221254812235
 21
18.63479762998107
 31
0.0
  0
ARC
  5
194A
330
1A
100
AcDbEntity
  8
ZUWAKU
100
AcDbCircle
 10
48.39221254812241
 20
20.44999965533641
 30
0.0
 40
2.799999999999999
100
AcDbArc
 50
90.0
 51
180.0
  0
ARC
  5
194B
330
1A
100
AcDbEntity
  8
ZUWAKU
100
AcDbCircle
 10
57.31721254812237
 20
22.72499965533641
 30
0.0
 40
0.525
100
AcDbArc
 50
0.0
 51
90.0
  0
ARC
  5
194C
330
1A
100
AcDbEntity
  8
ZUWAKU
100
AcDbCircle
 10
55.56721254812237
 20
22.72499965533641
 30
0.0
 40
0.525
100
AcDbArc
 50
90.0
 51
180.0
  0
LINE
  5
194D
330
1A
100
AcDbEntity
  8
ZUWAKU
100
AcDbLine
 10
57.31721254812237
 20
23.24999965533641
 30
0.0
 11
55.56721254812237
 21
23.24999965533641
 31
0.0
  0
ARC
  5
194E
330
1A
100
AcDbEntity
  8
ZUWAKU
100
AcDbCircle
 10
51.89221254812242
 20
22.72499965533641
 30
0.0
 40
0.525
100
AcDbArc
 50
0.0
 51
90.0
  0
ARC
  5
194F
330
1A
100
AcDbEntity
  8
ZUWAKU
100
AcDbCircle
 10
51.89221254812242
 20
20.97499965533641
 30
0.0
 40
0.525
100
AcDbArc
 50
270.0
 51
0.0
  0
LINE
  5
1950
330
1A
100
AcDbEntity
  8
ZUWAKU
100
AcDbLine
 10
52.41721254812239
 20
22.72499965533641
 30
0.0
 11
52.41721254812239
 21
20.97499965533641
 31
0.0
  0
LINE
  5
1951
330
1A
100
AcDbEntity
  8
ZUWAKU
100
AcDbLine
 10
68.5172125481224
 20
23.24999965533641
 30
0.0
 11
66.76721254812243
 21
23.24999965533641
 31
0.0
  0
ARC
  5
1952
330
1A
100
AcDbEntity
  8
ZUWAKU
100
AcDbCircle
 10
66.76721254812243
 20
22.72499965533641
 30
0.0
 40
0.525
100
AcDbArc
 50
90.0
 51
180.0
  0
ARC
  5
1953
330
1A
100
AcDbEntity
  8
ZUWAKU
100
AcDbCircle
 10
63.61721254812232
 20
22.72499965533641
 30
0.0
 40
0.525
100
AcDbArc
 50
0.0
 51
90.0
  0
LINE
  5
1954
330
1A
100
AcDbEntity
  8
ZUWAKU
100
AcDbLine
 10
63.61721254812232
 20
23.24999965533641
 30
0.0
 11
61.86721254812233
 21
23.24999965533641
 31
0.0
  0
ARC
  5
1955
330
1A
100
AcDbEntity
  8
ZUWAKU
100
AcDbCircle
 10
61.86721254812233
 20
22.72499965533641
 30
0.0
 40
0.525
100
AcDbArc
 50
90.0
 51
180.0
  0
ARC
  5
1956
330
1A
100
AcDbEntity
  8
ZUWAKU
100
AcDbCircle
 10
68.5172125481224
 20
22.72499965533641
 30
0.0
 40
0.525
100
AcDbArc
 50
0.0
 51
90.0
  0
TEXT
  5
1957
330
1A
100
AcDbEntity
  8
MOJI
100
AcDbText
 10
239.8272030741923
 20
3.204920712743831
 30
0.0
 40
5.599999999999999
  1
Σ９０－Ｙ６０・ＵＴ６０
 41
0.9
  7
ｽﾀｲﾙ1
100
AcDbText
  0
TEXT
  5
1958
330
1A
100
AcDbEntity
  8
MOJI
100
AcDbText
 10
239.8272030741923
 20
18.00492071274379
 30
0.0
 40
5.599999999999999
  1
じょうご
 41
0.9
  7
ｽﾀｲﾙ1
100
AcDbText
  0
LINE
  5
1959
330
1A
100
AcDbEntity
  8
ZUWAKU
100
AcDbLine
 10
208.2466016834091
 20
29.99999965533641
 30
0.0
 11
208.2466016834091
 21
0.7999996553364781
 31
0.0
  0
LINE
  5
195A
330
1A
100
AcDbEntity
  8
ZUWAKU
100
AcDbLine
 10
208.646601683409
 20
29.99999965533641
 30
0.0
 11
208.6466016834092
 21
0.7999996553364781
 31
0.0
  0
LINE
  5
195B
330
1A
100
AcDbEntity
  8
ZUWAKU
100
AcDbLine
 10
208.4466016834089
 20
29.99999965533641
 30
0.0
 11
208.4466016834091
 21
0.7999996553364781
 31
0.0
  0
TEXT
  5
195C
330
1A
100
AcDbEntity
  8
ZUWAKU
100
AcDbText
 10
209.7240467056187
 20
9.655356193722028
 30
0.0
 40
4.0
  1
サイズ
 41
0.9
  7
ｽﾀｲﾙ1
100
AcDbText
  0
TEXT
  5
195D
330
1A
100
AcDbEntity
  8
ZUWAKU
100
AcDbText
 10
209.7240467056185
 20
24.05535619372199
 30
0.0
 40
4.0
  1
品名
 41
0.9
  7
ｽﾀｲﾙ1
100
AcDbText
  0
LINE
  5
195E
330
1A
100
AcDbEntity
  8
ZUWAKU
100
AcDbLine
 10
648.8172029035454
 20
15.19999965533644
 30
0.0
 11
697.2490109418824
 21
15.19999965533644
 31
0.0
  0
LINE
  5
195F
330
1A
100
AcDbEntity
  8
ZUWAKU
100
AcDbLine
 10
648.8172029035457
 20
15.39999965533644
 30
0.0
 11
697.2490109418824
 21
15.39999965533644
 31
0.0
  0
LINE
  5
1960
330
1A
100
AcDbEntity
  8
ZUWAKU
100
AcDbLine
 10
648.8172029035454
 20
15.59999965533644
 30
0.0
 11
697.2490109418824
 21
15.59999965533644
 31
0.0
  0
TEXT
  5
1961
330
1A
100
AcDbEntity
  8
ZUWAKU
100
AcDbText
 10
658.2039380806436
 20
18.00492071274379
 30
0.0
 40
5.599999999999999
  1
　　．　　．　　
 41
0.9
  7
ｽﾀｲﾙ1
100
AcDbText
  0
LINE
  5
1962
330
1A
100
AcDbEntity
  8
ZUWAKU
100
AcDbLine
 10
505.1991798914822
 20
15.19999965533644
 30
0.0
 11
552.5269561594537
 21
15.19999965533644
 31
0.0
  0
LINE
  5
1963
330
1A
100
AcDbEntity
  8
ZUWAKU
100
AcDbLine
 10
505.1991798914822
 20
15.39999965533644
 30
0.0
 11
552.5269561594537
 21
15.39999965533644
 31
0.0
  0
LINE
  5
1964
330
1A
100
AcDbEntity
  8
ZUWAKU
100
AcDbLine
 10
505.1991798914822
 20
15.59999965533644
 30
0.0
 11
552.5269561594537
 21
15.59999965533644
 31
0.0
  0
TEXT
  5
1965
330
1A
100
AcDbEntity
  8
MOJI
100
AcDbText
 10
464.5946263965802
 20
11.94261737699639
 30
0.0
 40
5.599999999999999
  1
ＧＮ２４□
 41
0.9
  7
ｽﾀｲﾙ1
100
AcDbText
  0
LINE
  5
1966
330
1A
100
AcDbEntity
  8
ZUWAKU
100
AcDbLine
 10
447.6243643643323
 20
29.99999965533641
 30
0.0
 11
447.6243643643327
 21
0.7999996553364781
 31
0.0
  0
LINE
  5
1967
330
1A
100
AcDbEntity
  8
ZUWAKU
100
AcDbLine
 10
447.8243643643325
 20
29.99999965533641
 30
0.0
 11
447.8243643643327
 21
0.7999996553364781
 31
0.0
  0
LINE
  5
1968
330
1A
100
AcDbEntity
  8
ZUWAKU
100
AcDbLine
 10
447.4243643643326
 20
29.99999965533641
 30
0.0
 11
447.4243643643326
 21
0.7999996553364781
 31
0.0
  0
TEXT
  5
1969
330
1A
100
AcDbEntity
  8
MOJI
100
AcDbText
 10
528.040908365654
 20
18.00492071274379
 30
0.0
 40
5.599999999999999
  1
Ａ３
 41
0.9
  7
ｽﾀｲﾙ1
100
AcDbText
  0
LINE
  5
196A
330
1A
100
AcDbEntity
  8
ZUWAKU
100
AcDbLine
 10
504.999179891482
 20
29.99999965533641
 30
0.0
 11
504.9991798914823
 21
0.7999996553364781
 31
0.0
  0
LINE
  5
196B
330
1A
100
AcDbEntity
  8
ZUWAKU
100
AcDbLine
 10
505.1991798914822
 20
29.99999965533641
 30
0.0
 11
505.1991798914823
 21
0.7999996553364781
 31
0.0
  0
LINE
  5
196C
330
1A
100
AcDbEntity
  8
ZUWAKU
100
AcDbLine
 10
504.7991798914821
 20
29.99999965533641
 30
0.0
 11
504.7991798914821
 21
0.7999996553364781
 31
0.0
  0
TEXT
  5
196D
330
1A
100
AcDbEntity
  8
ZUWAKU
100
AcDbText
 10
462.6937620488483
 20
2.614070566475902
 30
0.0
 40
3.0
  1
□には色品番が入ります
 41
0.9
  7
ｽﾀｲﾙ1
100
AcDbText
  0
TEXT
  5
196E
330
1A
100
AcDbEntity
  8
ZUWAKU
100
AcDbText
 10
506.6766249136919
 20
9.655356193722028
 30
0.0
 40
4.0
  1
縮尺
 41
0.9
  7
ｽﾀｲﾙ1
100
AcDbText
  0
TEXT
  5
196F
330
1A
100
AcDbEntity
  8
MOJI
100
AcDbText
 10
528.040908365654
 20
3.204920712743831
 30
0.0
 40
5.599999999999999
  1
１/２
 41
0.9
  7
ｽﾀｲﾙ1
100
AcDbText
  0
TEXT
  5
1970
330
1A
100
AcDbEntity
  8
ZUWAKU
100
AcDbText
 10
449.3018093865421
 20
24.05535619372199
 30
0.0
 40
4.0
  1
品番
 41
0.9
  7
ｽﾀｲﾙ1
100
AcDbText
  0
TEXT
  5
1971
330
1A
100
AcDbEntity
  8
ZUWAKU
100
AcDbText
 10
506.6766249136917
 20
24.05535619372199
 30
0.0
 40
4.0
  1
用紙
 41
0.9
  7
ｽﾀｲﾙ1
100
AcDbText
  0
LINE
  5
1972
330
1A
100
AcDbEntity
  8
ZUWAKU
100
AcDbLine
 10
648.6172029035456
 20
29.99999965533641
 30
0.0
 11
648.6172029035457
 21
0.7999996553364781
 31
0.0
  0
LINE
  5
1973
330
1A
100
AcDbEntity
  8
ZUWAKU
100
AcDbLine
 10
648.8172029035457
 20
29.99999965533641
 30
0.0
 11
648.8172029035458
 21
0.7999996553364781
 31
0.0
  0
LINE
  5
1974
330
1A
100
AcDbEntity
  8
ZUWAKU
100
AcDbLine
 10
648.4172029035458
 20
29.99999965533641
 30
0.0
 11
648.4172029035458
 21
0.7999996553364781
 31
0.0
  0
LINE
  5
1975
330
1A
100
AcDbEntity
  8
ZUWAKU
100
AcDbLine
 10
552.7269561594534
 20
29.99999965533641
 30
0.0
 11
552.7269561594536
 21
0.7999996553364781
 31
0.0
  0
LINE
  5
1976
330
1A
100
AcDbEntity
  8
ZUWAKU
100
AcDbLine
 10
552.9269561594535
 20
29.99999965533641
 30
0.0
 11
552.9269561594538
 21
0.7999996553364781
 31
0.0
  0
LINE
  5
1977
330
1A
100
AcDbEntity
  8
ZUWAKU
100
AcDbLine
 10
552.5269561594537
 20
29.99999965533641
 30
0.0
 11
552.5269561594537
 21
0.7999996553364781
 31
0.0
  0
TEXT
  5
1978
330
1A
100
AcDbEntity
  8
ZUWAKU
100
AcDbText
 10
650.2946479257553
 20
24.05535619372199
 30
0.0
 40
4.0
  1
DATE
 41
0.9
  7
ｽﾀｲﾙ1
100
AcDbText
  0
LINE
  5
1979
330
1A
100
AcDbEntity
  8
ZUWAKU
100
AcDbLine
 10
697.2490109418824
 20
29.99999965533641
 30
0.0
 11
697.2490109418824
 21
0.7999996553364781
 31
0.0
  0
LINE
  5
197A
330
1A
100
AcDbEntity
  8
ZUWAKU
100
AcDbLine
 10
697.4490109418824
 20
29.99999965533641
 30
0.0
 11
697.4490109418824
 21
0.7999996553364781
 31
0.0
  0
LINE
  5
197B
330
1A
100
AcDbEntity
  8
ZUWAKU
100
AcDbLine
 10
697.6490109418824
 20
29.99999965533641
 30
0.0
 11
697.6490109418826
 21
0.7999996553364781
 31
0.0
  0
LINE
  5
197C
330
1A
100
AcDbEntity
  8
ZUWAKU
100
AcDbLine
 10
697.8490109418823
 20
29.99999965533641
 30
0.0
 11
697.8490109418826
 21
0.7999996553364781
 31
0.0
  0
TEXT
  5
197D
330
1A
100
AcDbEntity
  8
ZUWAKU
100
AcDbText
 10
708.528084585585
 20
17.55383899102321
 30
0.0
 40
6.0
  1
積水化学工業株式会社
 41
0.9
  7
ｽﾀｲﾙ1
100
AcDbText
  0
TEXT
  5
197E
330
1A
100
AcDbEntity
  8
ZUWAKU
100
AcDbText
 10
708.528084585585
 20
6.648839969190477
 30
0.0
 40
6.0
  1
建材事業部
 41
0.9
  7
ｽﾀｲﾙ1
100
AcDbText
  0
DIMENSION
  5
2002
330
1A
100
AcDbEntity
  8
SUNPOU
 62
     4
 48
5.0
100
AcDbDimension
  2
*D1
 10
600.6116922931437
 20
488.2506008261465
 30
0.0
 11
565.6116922931437
 21
492.2506008261465
 31
0.0
 70
    32
 71
     5
 42
-1.0
  3
STANDARD
100
AcDbAlignedDimension
 13
530.6116922931437
 23
450.2854054052098
 33
0.0
 14
600.6116922931437
 24
450.2854054052098
 34
0.0
100
AcDbRotatedDimension
1001
ACAD
1000
DSTYLE
1002
{
1070
    41
1040
3.5
1070
    42
1040
3.0
1070
    43
1040
7.0
1070
    44
1040
1.5
1070
    73
1070
     0
1070
    74
1070
     0
1070
    77
1070
     3
1070
   140
1040
6.0
1070
   141
1040
7.0
1070
   147
1040
1.0
1070
   172
1070
     1
1070
   173
1070
     1
1070
   176
1070
     4
1070
   177
1070
     4
1070
   178
1070
     4
1070
   271
1070
     0
1070
   272
1070
     2
1070
     6
1000
OPEN
1070
     7
1000
OPEN
1002
}
  0
LINE
  5
2003
330
1A
100
AcDbEntity
  8
SEIHIN
100
AcDbLine
 10
544.1116922931437
 20
450.2854054052098
 30
0.0
 11
530.6116922931437
 21
450.2854054052098
 31
0.0
  0
ARC
  5
2004
330
1A
100
AcDbEntity
  8
SEIHIN
100
AcDbCircle
 10
543.6116922931437
 20
434.2854054052096
 30
0.0
 40
2.0
100
AcDbArc
 50
270.0
 51
0.0
  0
ARC
  5
2005
330
1A
100
AcDbEntity
  8
SEIHIN
100
AcDbCircle
 10
542.9636014270438
 20
442.2854054052096
 30
0.0
 40
9.999999999999998
100
AcDbArc
 50
197.3540246363016
 51
270.0
  0
LINE
  5
2006
330
1A
100
AcDbEntity
  8
SEIHIN
100
AcDbLine
 10
543.6116922931437
 20
432.2854054052096
 30
0.0
 11
542.9636014270438
 21
432.2854054052096
 31
0.0
  0
LINE
  5
2007
330
1A
100
AcDbEntity
  8
SEIHIN
100
AcDbLine
 10
533.4188016466437
 20
439.3026554738096
 30
0.0
 11
530.6116922931437
 21
448.2854054052096
 31
0.0
  0
LINE
  5
2008
330
1A
100
AcDbEntity
  8
SEIHIN
100
AcDbLine
 10
530.6116922931437
 20
448.2854054052096
 30
0.0
 11
530.6116922931437
 21
450.2854054052098
 31
0.0
  0
ARC
  5
2009
330
1A
100
AcDbEntity
  8
SEIHIN
100
AcDbCircle
 10
531.6116922931437
 20
449.2854054052096
 30
0.0
 40
1.0
100
AcDbArc
 50
90.0
 51
93.03947777139152
  0
DIMENSION
  5
200B
330
1A
100
AcDbEntity
  8
SUNPOU
 62
     4
 48
5.0
100
AcDbDimension
  2
*D2
 10
614.3716755349431
 20
432.2854054052096
 30
0.0
 11
610.3716755349428
 21
441.2854054052098
 31
0.0
 70
    32
 71
     5
 42
-1.0
  3
STANDARD
100
AcDbAlignedDimension
 13
600.6116922931437
 23
450.2854054052098
 33
0.0
 14
588.2597831592437
 24
432.2854054052096
 34
0.0
 50
90.0
100
AcDbRotatedDimension
1001
ACAD
1000
DSTYLE
1002
{
1070
    41
1040
3.5
1070
    42
1040
3.0
1070
    43
1040
7.0
1070
    44
1040
1.5
1070
    73
1070
     0
1070
    74
1070
     0
1070
    77
1070
     3
1070
   140
1040
6.0
1070
   141
1040
7.0
1070
   147
1040
1.0
1070
   172
1070
     1
1070
   173
1070
     1
1070
   176
1070
     4
1070
   177
1070
     4
1070
   178
1070
     4
1070
   271
1070
     0
1070
   272
1070
     2
1070
     6
1000
OPEN
1070
     7
1000
OPEN
1002
}
  0
DIMENSION
  5
200C
330
1A
100
AcDbEntity
  8
SUNPOU
 62
     4
 48
5.0
100
AcDbDimension
  2
*D3
 10
627.3148895007613
 20
430.2854054052096
 30
0.0
 11
627.3148895007611
 21
445.2854054052098
 31
0.0
 70
   160
 71
     5
 42
-1.0
  3
STANDARD
100
AcDbAlignedDimension
 13
558.6116922931437
 23
460.2854054052096
 33
0.0
 14
565.6116922931437
 24
430.2854054052096
 34
0.0
 50
90.0
100
AcDbRotatedDimension
1001
ACAD
1000
DSTYLE
1002
{
1070
    41
1040
3.5
1070
    42
1040
3.0
1070
    43
1040
7.0
1070
    44
1040
1.5
1070
    73
1070
     0
1070
    74
1070
     0
1070
    77
1070
     3
1070
   140
1040
6.0
1070
   141
1040
7.0
1070
   147
1040
1.0
1070
   172
1070
     1
1070
   173
1070
     1
1070
   176
1070
     4
1070
   177
1070
     4
1070
   178
1070
     4
1070
   271
1070
     0
1070
   272
1070
     2
1070
     6
1000
OPEN
1070
     7
1000
OPEN
1002
}
  0
ARC
  5
200D
330
1A
100
AcDbEntity
  8
SEIHIN
100
AcDbCircle
 10
587.6116922931437
 20
434.2854054052096
 30
0.0
 40
2.0
100
AcDbArc
 50
180.0
 51
270.0
  0
ARC
  5
200E
330
1A
100
AcDbEntity
  8
SEIHIN
100
AcDbCircle
 10
588.2597831592437
 20
442.2854054052096
 30
0.0
 40
9.999999999999973
100
AcDbArc
 50
270.0
 51
342.6459753636983
  0
ARC
  5
200F
330
1A
100
AcDbEntity
  8
SEIHIN
100
AcDbCircle
 10
563.6116922931437
 20
438.2854054052096
 30
0.0
 40
8.0
100
AcDbArc
 50
180.0
 51
270.0
  0
ARC
  5
2010
330
1A
100
AcDbEntity
  8
SEIHIN
100
AcDbCircle
 10
567.6116922931437
 20
438.2854054052096
 30
0.0
 40
7.999999999999972
100
AcDbArc
 50
270.0
 51
0.0
  0
LINE
  5
2011
330
1A
100
AcDbEntity
  8
CENTER_L
  6
CENTER
 62
     1
 48
5.0
100
AcDbLine
 10
565.6116922931437
 20
462.3295385394557
 30
0.0
 11
565.6116922931437
 21
428.2546751514775
 31
0.0
  0
LINE
  5
2012
330
1A
100
AcDbEntity
  8
SEIHIN
100
AcDbLine
 10
567.6116922931437
 20
430.2854054052096
 30
0.0
 11
563.6116922931437
 21
430.2854054052096
 31
0.0
  0
LINE
  5
2013
330
1A
100
AcDbEntity
  8
SEIHIN
100
AcDbLine
 10
588.2597831592437
 20
432.2854054052096
 30
0.0
 11
587.6116922931437
 21
432.2854054052096
 31
0.0
  0
ARC
  5
2014
330
1A
100
AcDbEntity
  8
SEIHIN
100
AcDbCircle
 10
576.6116922931437
 20
450.2854054052098
 30
0.0
 40
1.0
100
AcDbArc
 50
180.0
 51
270.0
  0
LINE
  5
2015
330
1A
100
AcDbEntity
  8
SEIHIN
100
AcDbLine
 10
575.6116922931437
 20
448.2854054052096
 30
0.0
 11
585.6116922931437
 21
448.2854054052096
 31
0.0
  0
LINE
  5
2016
330
1A
100
AcDbEntity
  8
SEIHIN
100
AcDbLine
 10
555.6116922931437
 20
438.2854054052096
 30
0.0
 11
555.6116922931437
 21
457.2854054052096
 31
0.0
  0
LINE
  5
2017
330
1A
100
AcDbEntity
  8
SEIHIN
100
AcDbLine
 10
575.6116922931437
 20
457.2854054052096
 30
0.0
 11
575.6116922931437
 21
438.2854054052096
 31
0.0
  0
LINE
  5
2018
330
1A
100
AcDbEntity
  8
SEIHIN
100
AcDbLine
 10
545.6116922931437
 20
450.2854054052098
 30
0.0
 11
545.6116922931437
 21
434.2854054052096
 31
0.0
  0
LINE
  5
2019
330
1A
100
AcDbEntity
  8
SEIHIN
100
AcDbLine
 10
546.6116922931437
 20
449.2854054052096
 30
0.0
 11
554.6116922931437
 21
449.2854054052096
 31
0.0
  0
LINE
  5
201A
330
1A
100
AcDbEntity
  8
SEIHIN
100
AcDbLine
 10
545.6116922931437
 20
448.2854054052096
 30
0.0
 11
555.6116922931437
 21
448.2854054052096
 31
0.0
  0
LINE
  5
201B
330
1A
100
AcDbEntity
  8
SEIHIN
100
AcDbLine
 10
544.1116922931437
 20
450.2854054052098
 30
0.0
 11
545.6116922931437
 21
450.2854054052098
 31
0.0
  0
ARC
  5
201C
330
1A
100
AcDbEntity
  8
SEIHIN
100
AcDbCircle
 10
546.6116922931437
 20
450.2854054052098
 30
0.0
 40
1.0
100
AcDbArc
 50
180.0
 51
270.0
  0
ARC
  5
201D
330
1A
100
AcDbEntity
  8
SEIHIN
100
AcDbCircle
 10
554.6116922931437
 20
450.2854054052098
 30
0.0
 40
1.0
100
AcDbArc
 50
270.0
 51
0.0
  0
LINE
  5
201E
330
1A
100
AcDbEntity
  8
SEIHIN
100
AcDbLine
 10
558.6116922931437
 20
460.2854054052096
 30
0.0
 11
572.6116922931437
 21
460.2854054052096
 31
0.0
  0
DIMENSION
  5
201F
330
1A
100
AcDbEntity
  8
SUNPOU
 62
     4
 48
5.0
100
AcDbDimension
  2
*D4
 10
575.6116922931437
 20
472.3672851621869
 30
0.0
 11
565.6116922931437
 21
476.3672851621869
 31
0.0
 70
    32
 71
     5
 42
-1.0
  3
STANDARD
100
AcDbAlignedDimension
 13
555.6116922931437
 23
457.2854054052096
 33
0.0
 14
575.6116922931437
 24
457.2854054052096
 34
0.0
100
AcDbRotatedDimension
1001
ACAD
1000
DSTYLE
1002
{
1070
    41
1040
3.5
1070
    42
1040
3.0
1070
    43
1040
7.0
1070
    44
1040
1.5
1070
    73
1070
     0
1070
    74
1070
     0
1070
    77
1070
     3
1070
   140
1040
6.0
1070
   141
1040
7.0
1070
   147
1040
1.0
1070
   172
1070
     1
1070
   173
1070
     1
1070
   176
1070
     4
1070
   177
1070
     4
1070
   178
1070
     4
1070
   271
1070
     0
1070
   272
1070
     2
1070
     6
1000
OPEN
1070
     7
1000
OPEN
1002
}
  0
ARC
  5
2020
330
1A
100
AcDbEntity
  8
SEIHIN
100
AcDbCircle
 10
558.6116922931437
 20
457.2854054052096
 30
0.0
 40
3.0
100
AcDbArc
 50
90.0
 51
180.0
  0
ARC
  5
2021
330
1A
100
AcDbEntity
  8
SEIHIN
100
AcDbCircle
 10
572.6116922931437
 20
457.2854054052096
 30
0.0
 40
3.0
100
AcDbArc
 50
0.0
 51
90.0
  0
DIMENSION
  5
2022
330
1A
100
AcDbEntity
  8
SUNPOU
 62
     4
 48
5.0
100
AcDbDimension
  2
*D5
 10
600.6116922931437
 20
472.3672851621869
 30
0.0
 11
593.1116922931437
 21
476.3672851621869
 31
0.0
 70
    32
 71
     5
 42
-1.0
  3
STANDARD
100
AcDbAlignedDimension
 13
585.6116922931437
 23
450.2854054052098
 33
0.0
 14
600.6116922931437
 24
450.2854054052098
 34
0.0
100
AcDbRotatedDimension
1001
ACAD
1000
DSTYLE
1002
{
1070
    41
1040
3.5
1070
    42
1040
3.0
1070
    43
1040
7.0
1070
    44
1040
1.5
1070
    73
1070
     0
1070
    74
1070
     0
1070
    77
1070
     3
1070
   140
1040
6.0
1070
   141
1040
7.0
1070
   147
1040
1.0
1070
   172
1070
     1
1070
   173
1070
     1
1070
   176
1070
     4
1070
   177
1070
     4
1070
   178
1070
     4
1070
   271
1070
     0
1070
   272
1070
     2
1070
     6
1000
OPEN
1070
     7
1000
OPEN
1002
}
  0
LINE
  5
2023
330
1A
100
AcDbEntity
  8
SEIHIN
100
AcDbLine
 10
600.6116922931437
 20
450.2854054052098
 30
0.0
 11
587.1116922931437
 21
450.2854054052098
 31
0.0
  0
LINE
  5
2024
330
1A
100
AcDbEntity
  8
SEIHIN
100
AcDbLine
 10
585.6116922931437
 20
434.2854054052096
 30
0.0
 11
585.6116922931437
 21
450.2854054052098
 31
0.0
  0
ARC
  5
2025
330
1A
100
AcDbEntity
  8
SEIHIN
100
AcDbCircle
 10
584.6116922931437
 20
450.2854054052098
 30
0.0
 40
1.0
100
AcDbArc
 50
270.0
 51
0.0
  0
LINE
  5
2026
330
1A
100
AcDbEntity
  8
SEIHIN
100
AcDbLine
 10
576.6116922931437
 20
449.2854054052096
 30
0.0
 11
584.6116922931437
 21
449.2854054052096
 31
0.0
  0
LINE
  5
2027
330
1A
100
AcDbEntity
  8
SEIHIN
100
AcDbLine
 10
585.6116922931437
 20
450.2854054052098
 30
0.0
 11
587.1116922931437
 21
450.2854054052098
 31
0.0
  0
LINE
  5
2028
330
1A
100
AcDbEntity
  8
SEIHIN
100
AcDbLine
 10
600.6116922931437
 20
448.2854054052096
 30
0.0
 11
597.8045829395437
 21
439.3026554738096
 31
0.0
  0
ARC
  5
2029
330
1A
100
AcDbEntity
  8
SEIHIN
100
AcDbCircle
 10
599.6116922931437
 20
449.2854054052096
 30
0.0
 40
0.9999999999999188
100
AcDbArc
 50
86.96052222859542
 51
90.0
  0
LINE
  5
202A
330
1A
100
AcDbEntity
  8
SEIHIN
100
AcDbLine
 10
600.6116922931437
 20
450.2854054052098
 30
0.0
 11
600.6116922931437
 21
448.2854054052096
 31
0.0
  0
LINE
  5
202B
330
1A
100
AcDbEntity
  8
SEIHIN
100
AcDbLine
 10
653.7070764990158
 20
439.3026554738096
 30
0.0
 11
653.7070764990158
 21
432.2854054052096
 31
0.0
  0
LINE
  5
202C
330
1A
100
AcDbEntity
  8
SEIHIN
100
AcDbLine
 10
654.2070764990159
 20
439.3026554738096
 30
0.0
 11
654.2070764990159
 21
432.2854054052096
 31
0.0
  0
LINE
  5
202D
330
1A
100
AcDbEntity
  8
SEIHIN
100
AcDbLine
 10
652.207076499016
 20
431.7854054052096
 30
0.0
 11
652.207076499016
 21
433.7854054052098
 31
0.0
  0
LINE
  5
202E
330
1A
100
AcDbEntity
  8
SEIHIN
100
AcDbLine
 10
654.2070764990159
 20
436.2854054052096
 30
0.0
 11
654.2070764990159
 21
432.2854054052096
 31
0.0
  0
LINE
  5
202F
330
1A
100
AcDbEntity
  8
SEIHIN
100
AcDbLine
 10
654.2070764990159
 20
430.2854054052096
 30
0.0
 11
653.7070764990158
 21
430.2854054052096
 31
0.0
  0
ARC
  5
2030
330
1A
100
AcDbEntity
  8
SEIHIN
100
AcDbCircle
 10
653.7070764990158
 20
431.7854054052096
 30
0.0
 40
1.499999999999886
100
AcDbArc
 50
180.0
 51
270.0
  0
LINE
  5
2031
330
1A
100
AcDbEntity
  8
SEIHIN
100
AcDbLine
 10
654.2070764990159
 20
432.2854054052096
 30
0.0
 11
654.2070764990159
 21
430.2854054052096
 31
0.0
  0
LINE
  5
2032
330
1A
100
AcDbEntity
  8
SEIHIN
100
AcDbLine
 10
653.7070764990158
 20
432.2854054052096
 30
0.0
 11
653.7070764990158
 21
430.2854054052096
 31
0.0
  0
LINE
  5
2033
330
1A
100
AcDbEntity
  8
SEIHIN
100
AcDbLine
 10
654.2070764990159
 20
432.2854054052096
 30
0.0
 11
654.2070764990159
 21
430.2854054052096
 31
0.0
  0
DIMENSION
  5
2034
330
1A
100
AcDbEntity
  8
SUNPOU
 62
     4
 48
5.0
100
AcDbDimension
  2
*D6
 10
660.207076499016
 20
472.3672851621869
 30
0.0
 11
656.2070764990159
 21
476.3672851621869
 31
0.0
 70
    32
 71
     5
 42
-1.0
  3
STANDARD
100
AcDbAlignedDimension
 13
652.2070764990158
 23
458.7854054052098
 33
0.0
 14
660.207076499016
 24
448.7854054052096
 34
0.0
100
AcDbRotatedDimension
1001
ACAD
1000
DSTYLE
1002
{
1070
    41
1040
3.5
1070
    42
1040
3.0
1070
    43
1040
7.0
1070
    44
1040
1.5
1070
    73
1070
     0
1070
    74
1070
     0
1070
    77
1070
     3
1070
   140
1040
6.0
1070
   141
1040
7.0
1070
   147
1040
1.0
1070
   172
1070
     1
1070
   173
1070
     1
1070
   176
1070
     4
1070
   177
1070
     4
1070
   178
1070
     4
1070
   271
1070
     0
1070
   272
1070
     2
1070
     6
1000
OPEN
1070
     7
1000
OPEN
1002
}
  0
LINE
  5
2035
330
1A
100
AcDbEntity
  8
SEIHIN
100
AcDbLine
 10
652.207076499016
 20
450.2854054052098
 30
0.0
 11
652.207076499016
 21
457.2854054052096
 31
0.0
  0
LINE
  5
2036
330
1A
100
AcDbEntity
  8
SEIHIN
100
AcDbLine
 10
654.2070764990159
 20
457.2854054052096
 30
0.0
 11
654.2070764990159
 21
450.7854054052096
 31
0.0
  0
LINE
  5
2037
330
1A
100
AcDbEntity
  8
SEIHIN
100
AcDbLine
 10
654.2070764990159
 20
458.2854054052098
 30
0.0
 11
654.2070764990159
 21
450.2854054052098
 31
0.0
  0
LINE
  5
2038
330
1A
100
AcDbEntity
  8
SEIHIN
100
AcDbLine
 10
652.207076499016
 20
450.2854054052098
 30
0.0
 11
659.207076499016
 21
450.2854054052098
 31
0.0
  0
LINE
  5
2039
330
1A
100
AcDbEntity
  8
SEIHIN
100
AcDbLine
 10
659.207076499016
 20
448.2854054052096
 30
0.0
 11
654.2070764990159
 21
448.2854054052096
 31
0.0
  0
LINE
  5
203A
330
1A
100
AcDbEntity
  8
SEIHIN
100
AcDbLine
 10
655.9834561168161
 20
444.2056601829096
 30
0.0
 11
655.6570764990157
 21
448.2854054052096
 31
0.0
  0
LINE
  5
203B
330
1A
100
AcDbEntity
  8
SEIHIN
100
AcDbLine
 10
658.1570764990157
 20
448.2854054052096
 30
0.0
 11
658.1570764990157
 21
443.2854054052096
 31
0.0
  0
LINE
  5
203C
330
1A
100
AcDbEntity
  8
SEIHIN
100
AcDbLine
 10
658.1570764990161
 20
448.2854054052096
 30
0.0
 11
658.1570764990161
 21
443.2854054052096
 31
0.0
  0
LINE
  5
203D
330
1A
100
AcDbEntity
  8
SEIHIN
100
AcDbLine
 10
653.7070764990158
 20
448.2854054052096
 30
0.0
 11
653.7070764990158
 21
439.3026554738096
 31
0.0
  0
LINE
  5
203E
330
1A
100
AcDbEntity
  8
SEIHIN
100
AcDbLine
 10
654.2070764990159
 20
439.3026554738096
 30
0.0
 11
654.2070764990159
 21
448.2854054052096
 31
0.0
  0
LINE
  5
203F
330
1A
100
AcDbEntity
  8
SEIHIN
100
AcDbLine
 10
652.207076499016
 20
439.7500679635097
 30
0.0
 11
652.207076499016
 21
450.2839986425096
 31
0.0
  0
LINE
  5
2040
330
1A
100
AcDbEntity
  8
SEIHIN
100
AcDbLine
 10
658.1570764990157
 20
443.2854054052096
 30
0.0
 11
656.980271395316
 21
443.2854054052096
 31
0.0
  0
ARC
  5
2041
330
1A
100
AcDbEntity
  8
SEIHIN
100
AcDbCircle
 10
656.980271395316
 20
444.2854054052096
 30
0.0
 40
1.000000000000007
100
AcDbArc
 50
184.5739212599011
 51
270.0
  0
LINE
  5
2042
330
1A
100
AcDbEntity
  8
SEIHIN
100
AcDbLine
 10
652.207076499016
 20
433.7854054052098
 30
0.0
 11
652.207076499016
 21
439.7500679635097
 31
0.0
  0
LINE
  5
2043
330
1A
100
AcDbEntity
  8
SEIHIN
100
AcDbLine
 10
652.207076499016
 20
450.2839986425096
 30
0.0
 11
652.207076499016
 21
450.2854054052098
 31
0.0
  0
LINE
  5
2044
330
1A
100
AcDbEntity
  8
SEIHIN
100
AcDbLine
 10
654.2070764990159
 20
448.2854054052096
 30
0.0
 11
653.7070764990158
 21
448.2854054052096
 31
0.0
  0
LINE
  5
2045
330
1A
100
AcDbEntity
  8
SEIHIN
100
AcDbLine
 10
660.207076499016
 20
449.2854054052096
 30
0.0
 11
660.207076499016
 21
448.2854054052096
 31
0.0
  0
LINE
  5
2046
330
1A
100
AcDbEntity
  8
SEIHIN
100
AcDbLine
 10
660.207076499016
 20
448.2854054052096
 30
0.0
 11
659.207076499016
 21
448.2854054052096
 31
0.0
  0
ARC
  5
2047
330
1A
100
AcDbEntity
  8
SEIHIN
100
AcDbCircle
 10
659.207076499016
 20
449.2854054052096
 30
0.0
 40
1.0
100
AcDbArc
 50
0.0
 51
90.0
  0
LINE
  5
2048
330
1A
100
AcDbEntity
  8
SEIHIN
100
AcDbLine
 10
660.207076499016
 20
448.2854054052096
 30
0.0
 11
659.207076499016
 21
448.2854054052096
 31
0.0
  0
LINE
  5
2049
330
1A
100
AcDbEntity
  8
SEIHIN
100
AcDbLine
 10
660.207076499016
 20
449.2854054052096
 30
0.0
 11
660.207076499016
 21
448.2854054052096
 31
0.0
  0
LINE
  5
204A
330
1A
100
AcDbEntity
  8
SEIHIN
100
AcDbLine
 10
654.2070764990159
 20
460.2854054052096
 30
0.0
 11
654.2070764990159
 21
458.2854054052098
 31
0.0
  0
ARC
  5
204B
330
1A
100
AcDbEntity
  8
SEIHIN
100
AcDbCircle
 10
653.7070764990158
 20
458.7854054052098
 30
0.0
 40
1.5
100
AcDbArc
 50
90.0
 51
180.0
  0
LINE
  5
204C
330
1A
100
AcDbEntity
  8
SEIHIN
100
AcDbLine
 10
653.7070764990158
 20
460.2854054052096
 30
0.0
 11
654.2070764990159
 21
460.2854054052096
 31
0.0
  0
LINE
  5
204D
330
1A
100
AcDbEntity
  8
SEIHIN
100
AcDbLine
 10
653.707076499016
 20
460.2854054052096
 30
0.0
 11
654.2070764990159
 21
460.2854054052096
 31
0.0
  0
LINE
  5
204E
330
1A
100
AcDbEntity
  8
SEIHIN
100
AcDbLine
 10
652.207076499016
 20
457.2854054052096
 30
0.0
 11
652.207076499016
 21
458.7854054052098
 31
0.0
  0
LINE
  5
204F
330
1A
100
AcDbEntity
  8
SEIHIN
100
AcDbLine
 10
654.2070764990159
 20
460.2854054052096
 30
0.0
 11
654.2070764990159
 21
457.2854054052096
 31
0.0
  0
DIMENSION
  5
23DA
330
1A
100
AcDbEntity
  8
SUNPOU
 48
5.0
100
AcDbDimension
  2
*D7
 10
395.2543018802848
 20
84.67622335083911
 30
0.0
 11
390.2543018802848
 21
175.6262233508391
 31
0.0
 70
    32
 71
     5
 42
-1.0
  3
STANDARD
100
AcDbAlignedDimension
 13
469.6009057451767
 23
266.576223350839
 33
0.0
 14
550.2509057451767
 24
84.67622335083904
 34
0.0
 50
90.0
100
AcDbRotatedDimension
1001
ACAD
1000
DSTYLE
1002
{
1070
   140
1040
6.0
1070
    74
1070
     0
1070
   172
1070
     1
1070
    73
1070
     0
1070
   272
1070
     2
1070
    77
1070
     3
1070
   173
1070
     1
1070
   147
1040
2.0
1070
    42
1040
6.0
1070
    44
1040
3.0
1070
    43
1040
14.0
1070
   271
1070
     0
1070
   178
1070
     4
1070
   177
1070
     4
1070
   176
1070
     4
1070
   141
1040
150.0
1070
     7
1000
_OPEN
1070
     6
1000
_OPEN
1070
    41
1040
7.0
1002
}
  0
DIMENSION
  5
23DB
330
1A
100
AcDbEntity
  8
SUNPOU
 48
5.0
100
AcDbDimension
  2
*D8
 10
127.2115257451768
 20
305.1298378266847
 30
0.0
 11
237.2118157451768
 21
310.1298378266847
 31
0.0
 70
    32
 71
     5
 42
-1.0
  3
STANDARD
100
AcDbAlignedDimension
 13
347.2121057451769
 23
266.575823350839
 33
0.0
 14
127.2115257451768
 24
266.576123350839
 34
0.0
100
AcDbRotatedDimension
1001
ACAD
1000
DSTYLE
1002
{
1070
   140
1040
6.0
1070
    74
1070
     0
1070
   172
1070
     1
1070
    73
1070
     0
1070
   272
1070
     2
1070
    77
1070
     3
1070
   173
1070
     1
1070
   147
1040
2.0
1070
    42
1040
6.0
1070
    44
1040
3.0
1070
    43
1040
14.0
1070
   271
1070
     0
1070
   178
1070
     4
1070
   177
1070
     4
1070
   176
1070
     4
1070
   141
1040
150.0
1070
     7
1000
_OPEN
1070
     6
1000
_OPEN
1070
    41
1040
7.0
1002
}
  0
LINE
  5
23DC
330
1A
100
AcDbEntity
  8
SEIHIN
 62
     3
 48
5.0
100
AcDbLine
 10
237.2118057451767
 20
266.5764233508391
 30
0.0
 11
127.2115257451768
 21
266.576523350839
 31
0.0
  0
LINE
  5
23DD
330
1A
100
AcDbEntity
  8
SEIHIN
 62
     3
 48
5.0
100
AcDbLine
 10
237.2118057451767
 20
236.576423350839
 30
0.0
 11
132.0215057451767
 21
236.576523350839
 31
0.0
  0
LINE
  5
23DE
330
1A
100
AcDbEntity
  8
SEIHIN
 62
     3
 48
5.0
100
AcDbLine
 10
130.0314057451768
 20
238.377523350839
 30
0.0
 11
127.2115257451768
 21
266.576123350839
 31
0.0
  0
ARC
  5
23DF
330
1A
100
AcDbEntity
  8
SEIHIN
 62
     3
 48
5.0
100
AcDbCircle
 10
132.0215057451767
 20
238.576523350839
 30
0.0
 40
2.000011999999999
100
AcDbArc
 50
185.710308
 51
269.9971350000002
  0
DIMENSION
  5
23E0
330
1A
100
AcDbEntity
  8
SUNPOU
100
AcDbDimension
  2
*D9
 10
306.2116139277593
 20
56.90044339006954
 30
0.0
 11
237.2116527953169
 21
61.90044339006954
 31
0.0
 70
    32
 71
     5
 42
-1.0
  3
STANDARD
100
AcDbAlignedDimension
 13
168.2116916628745
 23
150.6763254998406
 33
0.0
 14
306.2116139277593
 24
150.6761190528595
 34
0.0
100
AcDbRotatedDimension
1001
ACAD
1000
DSTYLE
1002
{
1070
   140
1040
6.0
1070
    74
1070
     0
1070
   172
1070
     1
1070
    73
1070
     0
1070
   272
1070
     2
1070
    77
1070
     3
1070
   173
1070
     1
1070
   147
1040
2.0
1070
    42
1040
6.0
1070
    44
1040
3.0
1070
    43
1040
14.0
1070
   271
1070
     0
1070
   178
1070
     4
1070
   177
1070
     4
1070
   176
1070
     4
1070
   141
1040
150.0
1070
     7
1000
_OPEN
1070
     6
1000
_OPEN
1070
    41
1040
7.0
1002
}
  0
LINE
  5
23E1
330
1A
100
AcDbEntity
  8
SEIHIN
 62
     3
 48
5.0
100
AcDbLine
 10
273.2133057451768
 20
113.108523350839
 30
0.0
 11
273.2116057451768
 21
95.17622335083904
 31
0.0
  0
LINE
  5
23E2
330
1A
100
AcDbEntity
  8
SEIHIN
 62
     3
 48
5.0
100
AcDbLine
 10
264.2133057451768
 20
113.095923350839
 30
0.0
 11
264.2116057451768
 21
95.17622335083904
 31
0.0
  0
LINE
  5
23E3
330
1A
100
AcDbEntity
  8
SEIHIN
 62
     3
 48
5.0
100
AcDbLine
 10
210.2098057451768
 20
113.096023350839
 30
0.0
 11
210.2115057451768
 21
95.17622335083904
 31
0.0
  0
LINE
  5
23E4
330
1A
100
AcDbEntity
  8
SEIHIN
 62
     3
 48
5.0
100
AcDbLine
 10
201.2098057451768
 20
113.108723350839
 30
0.0
 11
201.2115057451768
 21
95.17632335083908
 31
0.0
  0
LINE
  5
23E5
330
1A
100
AcDbEntity
  8
CENTER_L
  6
CENTER
 62
     1
 48
5.0
100
AcDbLine
 10
237.2118057451767
 20
272.189223350839
 30
0.0
 11
237.2115057451768
 21
78.45946335083909
 31
0.0
  0
LINE
  5
23E6
330
1A
100
AcDbEntity
  8
SEIHIN
 62
     3
 48
5.0
100
AcDbLine
 10
237.2115057451768
 20
84.67622335083904
 30
0.0
 11
266.4615057451768
 21
84.67622335083904
 31
0.0
  0
LINE
  5
23E7
330
1A
100
AcDbEntity
  8
SEIHIN
 62
     3
 48
5.0
100
AcDbLine
 10
237.2119057451768
 20
95.17622335083904
 30
0.0
 11
273.2116057451768
 21
95.17622335083904
 31
0.0
  0
LINE
  5
23E8
330
1A
100
AcDbEntity
  8
SEIHIN
 62
     3
 48
5.0
100
AcDbLine
 10
237.2117057451768
 20
91.17622335083907
 30
0.0
 11
271.7116057451768
 21
91.17622335083907
 31
0.0
  0
LINE
  5
23E9
330
1A
100
AcDbEntity
  8
SEIHIN
 62
     3
 48
5.0
100
AcDbLine
 10
237.2115057451768
 20
84.67622335083904
 30
0.0
 11
207.9615057451768
 21
84.67632335083904
 31
0.0
  0
LINE
  5
23EA
330
1A
100
AcDbEntity
  8
SEIHIN
 62
     3
 48
5.0
100
AcDbLine
 10
237.2112057451768
 20
95.17622335083904
 30
0.0
 11
201.2115057451768
 21
95.17632335083908
 31
0.0
  0
LINE
  5
23EB
330
1A
100
AcDbEntity
  8
SEIHIN
 62
     3
 48
5.0
100
AcDbLine
 10
237.2113057451767
 20
91.17622335083907
 30
0.0
 11
202.7115057451768
 21
91.17632335083904
 31
0.0
  0
LINE
  5
23EC
330
1A
100
AcDbEntity
  8
SEIHIN
 62
     3
 48
5.0
100
AcDbLine
 10
201.2115057451768
 20
95.17632335083908
 30
0.0
 11
202.7115057451768
 21
91.17632335083904
 31
0.0
  0
LINE
  5
23ED
330
1A
100
AcDbEntity
  8
SEIHIN
 62
     3
 48
5.0
100
AcDbLine
 10
210.2115057451768
 20
95.17622335083904
 30
0.0
 11
211.7115057451768
 21
91.17622335083907
 31
0.0
  0
LINE
  5
23EE
330
1A
100
AcDbEntity
  8
SEIHIN
 62
     3
 48
5.0
100
AcDbLine
 10
207.8217057451768
 20
91.17632335083904
 30
0.0
 11
207.9615057451768
 21
84.67632335083904
 31
0.0
  0
LINE
  5
23EF
330
1A
100
AcDbEntity
  8
SEIHIN
 62
     3
 48
5.0
100
AcDbLine
 10
264.2116057451768
 20
95.17622335083904
 30
0.0
 11
262.7116057451768
 21
91.17612335083908
 31
0.0
  0
LINE
  5
23F0
330
1A
100
AcDbEntity
  8
SEIHIN
 62
     3
 48
5.0
100
AcDbLine
 10
273.2116057451768
 20
95.17622335083904
 30
0.0
 11
271.7116057451768
 21
91.17622335083907
 31
0.0
  0
LINE
  5
23F1
330
1A
100
AcDbEntity
  8
SEIHIN
 62
     3
 48
5.0
100
AcDbLine
 10
266.6014057451768
 20
91.17622335083907
 30
0.0
 11
266.4615057451768
 21
84.67632335083904
 31
0.0
  0
LINE
  5
23F2
330
1A
100
AcDbEntity
  8
SEIHIN
 62
     3
 48
5.0
100
AcDbLine
 10
237.2118057451767
 20
266.576323350839
 30
0.0
 11
347.2121057451769
 21
266.576223350839
 31
0.0
  0
ARC
  5
23F3
330
1A
100
AcDbEntity
  8
SEIHIN
 62
     3
 48
5.0
100
AcDbCircle
 10
294.2133057451768
 20
113.095823350839
 30
0.0
 40
30.000026
100
AcDbArc
 50
146.4487670000001
 51
179.9755539999998
  0
LINE
  5
23F4
330
1A
100
AcDbEntity
  8
SEIHIN
 62
     3
 48
5.0
100
AcDbLine
 10
237.2116057451768
 20
150.676323350839
 30
0.0
 11
304.7600057451768
 21
150.676123350839
 31
0.0
  0
LINE
  5
23F5
330
1A
100
AcDbEntity
  8
SEIHIN
 62
     3
 48
5.0
100
AcDbLine
 10
237.2116057451768
 20
134.676223350839
 30
0.0
 11
285.1031057451767
 21
134.676223350839
 31
0.0
  0
LINE
  5
23F6
330
1A
100
AcDbEntity
  8
SEIHIN
 62
     3
 48
5.0
100
AcDbLine
 10
237.2117057451768
 20
236.576323350839
 30
0.0
 11
342.4020057451767
 21
236.5761233508391
 31
0.0
  0
LINE
  5
23F7
330
1A
100
AcDbEntity
  8
SEIHIN
 62
     3
 48
5.0
100
AcDbLine
 10
237.2116057451768
 20
173.676323350839
 30
0.0
 11
313.7087057451768
 21
173.676123350839
 31
0.0
  0
LINE
  5
23F8
330
1A
100
AcDbEntity
  8
SEIHIN
 62
     3
 48
5.0
100
AcDbLine
 10
237.2114057451768
 20
129.676223350839
 30
0.0
 11
278.2114057451768
 21
129.676323350839
 31
0.0
  0
LINE
  5
23F9
330
1A
100
AcDbEntity
  8
SEIHIN
 62
     3
 48
5.0
100
AcDbLine
 10
140.2119057451768
 20
236.576423350839
 30
0.0
 11
167.7618057451768
 21
152.056523350839
 31
0.0
  0
LINE
  5
23FA
330
1A
100
AcDbEntity
  8
SEIHIN
 62
     3
 48
5.0
100
AcDbLine
 10
237.2117057451768
 20
173.676323350839
 30
0.0
 11
160.7146057451768
 21
173.676423350839
 31
0.0
  0
ARC
  5
23FB
330
1A
100
AcDbEntity
  8
SEIHIN
 62
     3
 48
5.0
100
AcDbCircle
 10
171.2098057451768
 20
113.096123350839
 30
0.0
 40
30.000026
100
AcDbArc
 50
0.0244460000001662
 51
33.5512329999999
  0
LINE
  5
23FC
330
1A
100
AcDbEntity
  8
SEIHIN
 62
     3
 48
5.0
100
AcDbLine
 10
237.2116057451768
 20
150.676223350839
 30
0.0
 11
169.6633057451767
 21
150.676323350839
 31
0.0
  0
LINE
  5
23FD
330
1A
100
AcDbEntity
  8
SEIHIN
 62
     3
 48
5.0
100
AcDbLine
 10
237.2116057451768
 20
134.676223350839
 30
0.0
 11
189.3201057451768
 21
134.676323350839
 31
0.0
  0
LINE
  5
23FE
330
1A
100
AcDbEntity
  8
SEIHIN
 62
     3
 48
5.0
100
AcDbLine
 10
237.2117057451768
 20
129.676223350839
 30
0.0
 11
196.2117057451768
 21
129.676423350839
 31
0.0
  0
LINE
  5
23FF
330
1A
100
AcDbEntity
  8
SEIHIN
 62
     3
 48
5.0
100
AcDbLine
 10
196.2117057451768
 20
134.676423350839
 30
0.0
 11
196.2117057451768
 21
129.676523350839
 31
0.0
  0
LINE
  5
2400
330
1A
100
AcDbEntity
  8
SEIHIN
 62
     3
 48
5.0
100
AcDbLine
 10
178.3585057451768
 20
150.441323350839
 30
0.0
 11
187.6241057451768
 21
135.616323350839
 31
0.0
  0
ARC
  5
2401
330
1A
100
AcDbEntity
  8
SEIHIN
 62
     3
 48
5.0
100
AcDbCircle
 10
169.6633057451767
 20
152.676323350839
 30
0.0
 40
1.999981999999999
100
AcDbArc
 50
198.053544
 51
270.0
  0
ARC
  5
2402
330
1A
100
AcDbEntity
  8
SEIHIN
 62
     3
 48
5.0
100
AcDbCircle
 10
177.9345057451768
 20
150.176323350839
 30
0.0
 40
0.5
100
AcDbArc
 50
32.00538300000007
 51
90.0
  0
ARC
  5
2403
330
1A
100
AcDbEntity
  8
SEIHIN
 62
     3
 48
5.0
100
AcDbCircle
 10
189.3201057451768
 20
136.676323350839
 30
0.0
 40
2.000001999999999
100
AcDbArc
 50
212.005383
 51
270.0
  0
LINE
  5
2404
330
1A
100
AcDbEntity
  8
SEIHIN
 62
     3
 48
5.0
100
AcDbLine
 10
205.2117057451768
 20
134.676323350839
 30
0.0
 11
205.2117057451768
 21
129.676323350839
 31
0.0
  0
ARC
  5
2405
330
1A
100
AcDbEntity
  8
SEIHIN
 62
     3
 48
5.0
100
AcDbCircle
 10
180.2098057451768
 20
113.096023350839
 30
0.0
 40
30.000026
100
AcDbArc
 50
0.0244460000001662
 51
33.5512329999999
  0
LINE
  5
2406
330
1A
100
AcDbEntity
  8
SEIHIN
 62
     3
 48
5.0
100
AcDbLine
 10
334.2116057451768
 20
236.5761233508391
 30
0.0
 11
306.6615057451767
 21
152.056323350839
 31
0.0
  0
LINE
  5
2407
330
1A
100
AcDbEntity
  8
SEIHIN
 62
     3
 48
5.0
100
AcDbLine
 10
278.2114057451768
 20
134.676323350839
 30
0.0
 11
278.2114057451768
 21
129.676323350839
 31
0.0
  0
LINE
  5
2408
330
1A
100
AcDbEntity
  8
SEIHIN
 62
     3
 48
5.0
100
AcDbLine
 10
269.2114057451768
 20
134.676323350839
 30
0.0
 11
269.2114057451768
 21
129.676323350839
 31
0.0
  0
ARC
  5
2409
330
1A
100
AcDbEntity
  8
SEIHIN
 62
     3
 48
5.0
100
AcDbCircle
 10
303.2133057451768
 20
113.095923350839
 30
0.0
 40
30.000026
100
AcDbArc
 50
146.4487670000001
 51
179.9755539999998
  0
LINE
  5
240A
330
1A
100
AcDbEntity
  8
SEIHIN
 62
     3
 48
5.0
100
AcDbLine
 10
296.0647057451769
 20
150.441223350839
 30
0.0
 11
286.7990057451768
 21
135.616223350839
 31
0.0
  0
ARC
  5
240B
330
1A
100
AcDbEntity
  8
SEIHIN
 62
     3
 48
5.0
100
AcDbCircle
 10
285.1031057451767
 20
136.676223350839
 30
0.0
 40
1.999959999999999
100
AcDbArc
 50
270.0
 51
327.9930979999996
  0
ARC
  5
240C
330
1A
100
AcDbEntity
  8
SEIHIN
 62
     3
 48
5.0
100
AcDbCircle
 10
296.4887057451768
 20
150.176223350839
 30
0.0
 40
0.5
100
AcDbArc
 50
90.0
 51
147.9946169999999
  0
ARC
  5
240D
330
1A
100
AcDbEntity
  8
SEIHIN
 62
     3
 48
5.0
100
AcDbCircle
 10
304.7600057451768
 20
152.676123350839
 30
0.0
 40
1.999981999999999
100
AcDbArc
 50
270.0
 51
341.9464559999999
  0
LINE
  5
240E
330
1A
100
AcDbEntity
  8
SEIHIN
 62
     3
 48
5.0
100
AcDbLine
 10
344.3921057451767
 20
238.377123350839
 30
0.0
 11
347.2121057451769
 21
266.575823350839
 31
0.0
  0
ARC
  5
240F
330
1A
100
AcDbEntity
  8
SEIHIN
 62
     3
 48
5.0
100
AcDbCircle
 10
342.4020057451767
 20
238.576123350839
 30
0.0
 40
2.000011999999999
100
AcDbArc
 50
270.0
 51
354.2896919999998
  0
ARC
  5
2410
330
1A
100
AcDbEntity
  8
SEIHIN
 62
     3
 48
5.0
100
AcDbCircle
 10
132.9520057451768
 20
389.4441869078862
 30
0.0
 40
0.5000010000000001
100
AcDbArc
 50
180.0
 51
322.2225039999993
  0
ARC
  5
2411
330
1A
100
AcDbEntity
  8
SEIHIN
 62
     3
 48
5.0
100
AcDbCircle
 10
142.2117057451768
 20
379.7324869078863
 30
0.0
 40
15.00001499999999
100
AcDbArc
 50
180.0
 51
270.0
  0
ARC
  5
2412
330
1A
100
AcDbEntity
  8
SEIHIN
 62
     3
 48
5.0
100
AcDbCircle
 10
143.2316057451768
 20
379.0438869078863
 30
0.0
 40
12.0
100
AcDbArc
 50
179.9995229999998
 51
270.0
  0
ARC
  5
2413
330
1A
100
AcDbEntity
  8
SEIHIN
 62
     3
 48
5.0
100
AcDbCircle
 10
146.0016057451768
 20
381.8138869078862
 30
0.0
 40
12.0
100
AcDbArc
 50
180.0
 51
270.0
  0
LINE
  5
2414
330
1A
100
AcDbEntity
  8
SEIHIN
 62
     3
 48
5.0
100
AcDbLine
 10
127.2120457451768
 20
411.6326869078863
 30
0.0
 11
127.2119857451767
 21
379.7322869078862
 31
0.0
  0
LINE
  5
2415
330
1A
100
AcDbEntity
  8
SEIHIN
 62
     3
 48
5.0
100
AcDbLine
 10
131.2316057451768
 20
379.0438869078863
 30
0.0
 11
131.2316057451768
 21
411.6323869078862
 31
0.0
  0
LINE
  5
2416
330
1A
100
AcDbEntity
  8
SEIHIN
 62
     3
 48
5.0
100
AcDbLine
 10
127.2116757451767
 20
379.7323869078862
 30
0.0
 11
127.2117357451768
 21
411.6323869078862
 31
0.0
  0
ARC
  5
2417
330
1A
100
AcDbEntity
  8
SEIHIN
 62
     3
 48
5.0
100
AcDbCircle
 10
82.76630574517684
 20
399.2622869078862
 30
0.0
 40
50.000014
100
AcDbArc
 50
356.1238470000001
 51
14.32381400000008
  0
LINE
  5
2418
330
1A
100
AcDbEntity
  8
SEIHIN
 62
     3
 48
5.0
100
AcDbLine
 10
132.4520057451768
 20
395.8820869078862
 30
0.0
 11
132.6520057451767
 21
395.8820869078862
 31
0.0
  0
LINE
  5
2419
330
1A
100
AcDbEntity
  8
SEIHIN
 62
     3
 48
5.0
100
AcDbLine
 10
132.4520057451768
 20
389.4441869078862
 30
0.0
 11
132.4520057451768
 21
395.8823869078862
 31
0.0
  0
LINE
  5
241A
330
1A
100
AcDbEntity
  8
SEIHIN
 62
     3
 48
5.0
100
AcDbLine
 10
127.2120457451768
 20
411.6323869078862
 30
0.0
 11
131.2119057451768
 21
411.6323869078862
 31
0.0
  0
LINE
  5
241B
330
1A
100
AcDbEntity
  8
SEIHIN
 62
     3
 48
5.0
100
AcDbLine
 10
127.2117357451768
 20
411.6323869078862
 30
0.0
 11
131.2316057451768
 21
411.6323869078862
 31
0.0
  0
LINE
  5
241C
330
1A
100
AcDbEntity
  8
SUNPOU
  6
PHANTOM
 62
     4
 48
5.0
100
AcDbLine
 10
207.2118789359176
 20
397.6327243679887
 30
0.0
 11
207.2127683557046
 21
527.6327243650209
 31
0.0
  0
LINE
  5
241D
330
1A
100
AcDbEntity
  8
SUNPOU
  6
PHANTOM
 62
     4
 48
5.0
100
AcDbLine
 10
267.2120057451769
 20
397.6325191168347
 30
0.0
 11
267.2120057451768
 21
527.6325191169095
 31
0.0
  0
LINE
  5
241E
330
1A
100
AcDbEntity
  8
CENTER_L
  6
CENTER
 62
     1
 48
5.0
100
AcDbLine
 10
237.2120057451768
 20
350.5645869078862
 30
0.0
 11
237.2120057451768
 21
537.2980869078863
 31
0.0
  0
ARC
  5
241F
330
1A
100
AcDbEntity
  8
SEIHIN
 62
     3
 48
5.0
100
AcDbCircle
 10
237.2122057451767
 20
474.6324869078862
 30
0.0
 40
29.25
100
AcDbArc
 50
269.9996080000003
 51
89.99980400000014
  0
ARC
  5
2420
330
1A
100
AcDbEntity
  8
SEIHIN
 62
     3
 48
5.0
100
AcDbCircle
 10
237.2119057451768
 20
474.6324869078862
 30
0.0
 40
29.25
100
AcDbArc
 50
90.0
 51
270.0001959999998
  0
LINE
  5
2421
330
1A
100
AcDbEntity
  8
SEIHIN
 62
     3
 48
5.0
100
AcDbLine
 10
189.4118057451768
 20
439.9324869078863
 30
0.0
 11
189.4119057451767
 21
504.5161869078863
 31
0.0
  0
LINE
  5
2422
330
1A
100
AcDbEntity
  8
SEIHIN
 62
     3
 48
5.0
100
AcDbLine
 10
179.4118057451768
 20
430.7629869078862
 30
0.0
 11
179.4119057451768
 21
509.1087869078863
 31
0.0
  0
LINE
  5
2423
330
1A
100
AcDbEntity
  8
SEIHIN
 62
     3
 48
5.0
100
AcDbLine
 10
295.0122057451768
 20
430.7629869078862
 30
0.0
 11
295.0122057451768
 21
509.1087869078863
 31
0.0
  0
LINE
  5
2424
330
1A
100
AcDbEntity
  8
SEIHIN
 62
     3
 48
5.0
100
AcDbLine
 10
285.0122057451768
 20
439.9324869078863
 30
0.0
 11
285.0122057451768
 21
504.5161869078863
 31
0.0
  0
LINE
  5
2425
330
1A
100
AcDbEntity
  8
SEIHIN
 62
     3
 48
5.0
100
AcDbLine
 10
163.0288057451767
 20
417.8082869078862
 30
0.0
 11
163.0289057451768
 21
511.1823869078863
 31
0.0
  0
LINE
  5
2426
330
1A
100
AcDbEntity
  8
SEIHIN
 62
     3
 48
5.0
100
AcDbLine
 10
169.8118057451767
 20
420.7519869078863
 30
0.0
 11
169.8118057451767
 21
509.1087869078863
 31
0.0
  0
LINE
  5
2427
330
1A
100
AcDbEntity
  8
SEIHIN
 62
     3
 48
5.0
100
AcDbLine
 10
160.7151057451768
 20
421.0827869078862
 30
0.0
 11
160.7151057451768
 21
511.1825869078862
 31
0.0
  0
LINE
  5
2428
330
1A
100
AcDbEntity
  8
SEIHIN
 62
     3
 48
5.0
100
AcDbLine
 10
313.7090057451767
 20
421.0826869078863
 30
0.0
 11
313.7091057451767
 21
511.1825869078862
 31
0.0
  0
LINE
  5
2429
330
1A
100
AcDbEntity
  8
SEIHIN
 62
     3
 48
5.0
100
AcDbLine
 10
304.6123057451768
 20
420.7519869078863
 30
0.0
 11
304.6123057451768
 21
509.1087869078863
 31
0.0
  0
LINE
  5
242A
330
1A
100
AcDbEntity
  8
SEIHIN
 62
     3
 48
5.0
100
AcDbLine
 10
311.3953057451768
 20
417.8081869078862
 30
0.0
 11
311.3953057451768
 21
511.1823869078863
 31
0.0
  0
DIMENSION
  5
242B
330
1A
100
AcDbEntity
  8
SUNPOU
100
AcDbDimension
  2
*D10
 10
207.2118789359176
 20
337.4264835504366
 30
0.0
 11
237.2119423405472
 21
342.4264835504366
 31
0.0
 70
    32
  1
※a <>
 71
     5
 42
-1.0
  3
STANDARD
100
AcDbAlignedDimension
 13
267.2120057451769
 23
397.6325191168347
 33
0.0
 14
207.2118789359176
 24
397.6327243679887
 34
0.0
100
AcDbRotatedDimension
1001
ACAD
1000
DSTYLE
1002
{
1070
   140
1040
6.0
1070
    74
1070
     0
1070
   172
1070
     1
1070
    73
1070
     0
1070
   272
1070
     2
1070
    77
1070
     3
1070
   173
1070
     1
1070
   147
1040
2.0
1070
    42
1040
6.0
1070
    44
1040
3.0
1070
    43
1040
14.0
1070
   271
1070
     0
1070
   178
1070
     4
1070
   177
1070
     4
1070
   176
1070
     4
1070
   141
1040
150.0
1070
     7
1000
_OPEN
1070
     6
1000
_OPEN
1070
    41
1040
7.0
1002
}
  0
LINE
  5
242C
330
1A
100
AcDbEntity
  8
SEIHIN
 62
     3
 48
5.0
100
AcDbLine
 10
237.2119057451768
 20
426.9323869078863
 30
0.0
 11
272.0123057451768
 21
426.9324869078863
 31
0.0
  0
LINE
  5
242D
330
1A
100
AcDbEntity
  8
CENTER_L
  6
CENTER
 62
     1
 48
5.0
100
AcDbLine
 10
275.9628475900055
 20
474.632528512041
 30
0.0
 11
198.4615639003482
 21
474.6324453043756
 31
0.0
  0
LINE
  5
242E
330
1A
100
AcDbEntity
  8
SEIHIN
 62
     3
 48
5.0
100
AcDbLine
 10
282.0122057451768
 20
417.7628869078863
 30
0.0
 11
237.2120057451768
 21
417.7629869078862
 31
0.0
  0
LINE
  5
242F
330
1A
100
AcDbEntity
  8
SEIHIN
 62
     3
 48
5.0
100
AcDbLine
 10
332.2124057451768
 20
364.7324869078863
 30
0.0
 11
237.2120057451768
 21
364.7324869078863
 31
0.0
  0
LINE
  5
2430
330
1A
100
AcDbEntity
  8
SEIHIN
 62
     3
 48
5.0
100
AcDbLine
 10
331.1925057451768
 20
367.0438869078862
 30
0.0
 11
237.2120057451768
 21
367.0438869078862
 31
0.0
  0
LINE
  5
2431
330
1A
100
AcDbEntity
  8
SEIHIN
 62
     3
 48
5.0
100
AcDbLine
 10
328.4225057451768
 20
369.8138869078862
 30
0.0
 11
237.2120057451768
 21
369.8138869078862
 31
0.0
  0
LINE
  5
2432
330
1A
100
AcDbEntity
  8
SEIHIN
 62
     3
 48
5.0
100
AcDbLine
 10
308.9220057451767
 20
382.1895869078862
 30
0.0
 11
237.2120057451768
 21
382.1895869078862
 31
0.0
  0
LINE
  5
2433
330
1A
100
AcDbEntity
  8
SEIHIN
 62
     3
 48
5.0
100
AcDbLine
 10
298.3952057451767
 20
404.8082869078863
 30
0.0
 11
237.2121057451768
 21
404.8082869078863
 31
0.0
  0
LINE
  5
2434
330
1A
100
AcDbEntity
  8
SEIHIN
 62
     3
 48
5.0
100
AcDbLine
 10
291.6122057451767
 20
407.7519869078862
 30
0.0
 11
237.2121057451768
 21
407.7519869078862
 31
0.0
  0
LINE
  5
2435
330
1A
100
AcDbEntity
  8
SEIHIN
 62
     3
 48
5.0
100
AcDbLine
 10
134.0016057451767
 20
389.9824869078863
 30
0.0
 11
134.0016057451767
 21
381.8138869078862
 31
0.0
  0
ARC
  5
2436
330
1A
100
AcDbEntity
  8
SEIHIN
 62
     3
 48
5.0
100
AcDbCircle
 10
155.2620057451767
 20
394.8895869078862
 30
0.0
 40
12.700008
100
AcDbArc
 50
202.729771
 51
270.0
  0
LINE
  5
2437
330
1A
100
AcDbEntity
  8
SEIHIN
 62
     3
 48
5.0
100
AcDbLine
 10
165.5021057451767
 20
382.1895869078862
 30
0.0
 11
237.2120057451768
 21
382.1895869078862
 31
0.0
  0
LINE
  5
2438
330
1A
100
AcDbEntity
  8
SEIHIN
 62
     3
 48
5.0
100
AcDbLine
 10
146.0015057451768
 20
369.8138869078862
 30
0.0
 11
237.2120057451768
 21
369.8137869078863
 31
0.0
  0
LINE
  5
2439
330
1A
100
AcDbEntity
  8
SEIHIN
 62
     3
 48
5.0
100
AcDbLine
 10
143.2316057451768
 20
367.0438869078862
 30
0.0
 11
237.2120057451768
 21
367.0438869078862
 31
0.0
  0
LINE
  5
243A
330
1A
100
AcDbEntity
  8
SEIHIN
 62
     3
 48
5.0
100
AcDbLine
 10
142.2117057451768
 20
364.7324869078863
 30
0.0
 11
237.2120057451768
 21
364.7323869078862
 31
0.0
  0
ARC
  5
243B
330
1A
100
AcDbEntity
  8
SEIHIN
 62
     3
 48
5.0
100
AcDbCircle
 10
202.4118057451768
 20
439.9324869078863
 30
0.0
 40
13.0
100
AcDbArc
 50
179.999559
 51
269.9995589999999
  0
LINE
  5
243C
330
1A
100
AcDbEntity
  8
SEIHIN
 62
     3
 48
5.0
100
AcDbLine
 10
192.4118057451768
 20
417.7629869078862
 30
0.0
 11
237.2120057451768
 21
417.7629869078862
 31
0.0
  0
LINE
  5
243D
330
1A
100
AcDbEntity
  8
SEIHIN
 62
     3
 48
5.0
100
AcDbLine
 10
182.8118057451767
 20
407.7519869078862
 30
0.0
 11
237.2119057451768
 21
407.7519869078862
 31
0.0
  0
LINE
  5
243E
330
1A
100
AcDbEntity
  8
SEIHIN
 62
     3
 48
5.0
100
AcDbLine
 10
176.0288057451767
 20
404.8082869078863
 30
0.0
 11
237.2119057451768
 21
404.8082869078863
 31
0.0
  0
ARC
  5
243F
330
1A
100
AcDbEntity
  8
SEIHIN
 62
     3
 48
5.0
100
AcDbCircle
 10
176.0288057451767
 20
417.8082869078862
 30
0.0
 40
13.0
100
AcDbArc
 50
180.0
 51
270.0
  0
ARC
  5
2440
330
1A
100
AcDbEntity
  8
SEIHIN
 62
     3
 48
5.0
100
AcDbCircle
 10
145.4198057451768
 20
418.0781869078862
 30
0.0
 40
10.778708
100
AcDbArc
 50
305.263191
 51
5.347852999999986
  0
ARC
  5
2441
330
1A
100
AcDbEntity
  8
SEIHIN
 62
     3
 48
5.0
100
AcDbCircle
 10
147.7698057451767
 20
418.0781869078862
 30
0.0
 40
10.778708
100
AcDbArc
 50
305.263191
 51
5.347852999999986
  0
LINE
  5
2442
330
1A
100
AcDbEntity
  8
SEIHIN
 62
     3
 48
5.0
100
AcDbLine
 10
153.9923057451768
 20
409.2769869078862
 30
0.0
 11
144.3620057451768
 21
405.4201869078863
 31
0.0
  0
LINE
  5
2443
330
1A
100
AcDbEntity
  8
SEIHIN
 62
     3
 48
5.0
100
AcDbLine
 10
151.6423057451768
 20
409.2769869078862
 30
0.0
 11
142.0120057451768
 21
405.4201869078863
 31
0.0
  0
ARC
  5
2444
330
1A
100
AcDbEntity
  8
SEIHIN
 62
     3
 48
5.0
100
AcDbCircle
 10
170.2100057451768
 20
395.1676869078862
 30
0.0
 40
29.99996799999999
100
AcDbArc
 50
160.0168769999998
 51
179.3324879999998
  0
ARC
  5
2445
330
1A
100
AcDbEntity
  8
SEIHIN
 62
     3
 48
5.0
100
AcDbCircle
 10
172.5599057451768
 20
395.1675869078862
 30
0.0
 40
29.999939
100
AcDbArc
 50
160.0166319999999
 51
179.332297
  0
LINE
  5
2446
330
1A
100
AcDbEntity
  8
SEIHIN
 62
     3
 48
5.0
100
AcDbLine
 10
134.0016057451767
 20
389.9823869078862
 30
0.0
 11
142.5620057451768
 21
389.9824869078863
 31
0.0
  0
LINE
  5
2447
330
1A
100
AcDbEntity
  8
SEIHIN
 62
     3
 48
5.0
100
AcDbLine
 10
134.0016057451767
 20
389.9824869078863
 30
0.0
 11
133.3472057451767
 21
389.1378869078863
 31
0.0
  0
LINE
  5
2448
330
1A
100
AcDbEntity
  8
SEIHIN
 62
     3
 48
5.0
100
AcDbLine
 10
140.2121057451768
 20
389.9824869078863
 30
0.0
 11
140.2121057451768
 21
395.5172869078862
 31
0.0
  0
LINE
  5
2449
330
1A
100
AcDbEntity
  8
SEIHIN
 62
     3
 48
5.0
100
AcDbLine
 10
142.5620057451768
 20
389.9824869078863
 30
0.0
 11
142.5620057451768
 21
395.5172869078862
 31
0.0
  0
LINE
  5
244A
330
1A
100
AcDbEntity
  8
SEIHIN
 62
     3
 48
5.0
100
AcDbLine
 10
142.0162057451768
 20
405.4199869078862
 30
0.0
 11
144.3662057451767
 21
405.4199869078862
 31
0.0
  0
LINE
  5
244B
330
1A
100
AcDbEntity
  8
SEIHIN
 62
     3
 48
5.0
100
AcDbLine
 10
158.4654057451767
 20
419.0823869078863
 30
0.0
 11
163.0288057451767
 21
421.0823869078863
 31
0.0
  0
LINE
  5
244C
330
1A
100
AcDbEntity
  8
SEIHIN
 62
     3
 48
5.0
100
AcDbLine
 10
160.7151057451768
 20
421.0827869078862
 30
0.0
 11
156.1516057451767
 21
419.0827869078862
 31
0.0
  0
LINE
  5
244D
330
1A
100
AcDbEntity
  8
SEIHIN
 62
     3
 48
5.0
100
AcDbLine
 10
156.1516057451767
 20
419.0827869078862
 30
0.0
 11
158.4654057451767
 21
419.0823869078863
 31
0.0
  0
LINE
  5
244E
330
1A
100
AcDbEntity
  8
SEIHIN
 62
     3
 48
5.0
100
AcDbLine
 10
151.6423057451768
 20
409.2769869078862
 30
0.0
 11
153.9923057451768
 21
409.2769869078862
 31
0.0
  0
LINE
  5
244F
330
1A
100
AcDbEntity
  8
SEIHIN
 62
     3
 48
5.0
100
AcDbLine
 10
156.1516057451767
 20
417.0738869078863
 30
0.0
 11
156.1516057451767
 21
419.0827869078862
 31
0.0
  0
LINE
  5
2450
330
1A
100
AcDbEntity
  8
SEIHIN
 62
     3
 48
5.0
100
AcDbLine
 10
160.7151057451768
 20
421.0823869078863
 30
0.0
 11
163.0288057451767
 21
421.0823869078863
 31
0.0
  0
ARC
  5
2451
330
1A
100
AcDbEntity
  8
SEIHIN
 62
     3
 48
5.0
100
AcDbCircle
 10
182.8118057451767
 20
420.7519869078863
 30
0.0
 40
13.0
100
AcDbArc
 50
180.0
 51
270.0
  0
ARC
  5
2452
330
1A
100
AcDbEntity
  8
SEIHIN
 62
     3
 48
5.0
100
AcDbCircle
 10
192.4118057451768
 20
430.7629869078862
 30
0.0
 40
13.0
100
AcDbArc
 50
180.0
 51
270.0
  0
LINE
  5
2453
330
1A
100
AcDbEntity
  8
SEIHIN
 62
     3
 48
5.0
100
AcDbLine
 10
237.2122057451767
 20
426.9323869078863
 30
0.0
 11
202.4118057451768
 21
426.9324869078863
 31
0.0
  0
LINE
  5
2454
330
1A
100
AcDbEntity
  8
SEIHIN
 62
     3
 48
5.0
100
AcDbLine
 10
340.4225057451768
 20
389.9823869078862
 30
0.0
 11
340.4225057451768
 21
381.8137869078863
 31
0.0
  0
LINE
  5
2455
330
1A
100
AcDbEntity
  8
SEIHIN
 62
     3
 48
5.0
100
AcDbLine
 10
347.2124057451769
 20
379.7322869078862
 30
0.0
 11
347.2124057451769
 21
411.6322869078862
 31
0.0
  0
LINE
  5
2456
330
1A
100
AcDbEntity
  8
SEIHIN
 62
     3
 48
5.0
100
AcDbLine
 10
343.1925057451768
 20
379.0437869078862
 30
0.0
 11
343.1925057451768
 21
411.6322869078862
 31
0.0
  0
LINE
  5
2457
330
1A
100
AcDbEntity
  8
SEIHIN
 62
     3
 48
5.0
100
AcDbLine
 10
347.2121057451769
 20
411.6326869078863
 30
0.0
 11
347.2121057451769
 21
379.7322869078862
 31
0.0
  0
ARC
  5
2458
330
1A
100
AcDbEntity
  8
SEIHIN
 62
     3
 48
5.0
100
AcDbCircle
 10
319.1621057451768
 20
394.8895869078862
 30
0.0
 40
12.699962
100
AcDbArc
 50
270.0
 51
337.270054
  0
ARC
  5
2459
330
1A
100
AcDbEntity
  8
SEIHIN
 62
     3
 48
5.0
100
AcDbCircle
 10
328.4225057451768
 20
381.8138869078862
 30
0.0
 40
12.0
100
AcDbArc
 50
270.0
 51
0.0
  0
ARC
  5
245A
330
1A
100
AcDbEntity
  8
SEIHIN
 62
     3
 48
5.0
100
AcDbCircle
 10
332.2124057451768
 20
379.7323869078862
 30
0.0
 40
15.0
100
AcDbArc
 50
269.9996179999996
 51
0.0
  0
ARC
  5
245B
330
1A
100
AcDbEntity
  8
SEIHIN
 62
     3
 48
5.0
100
AcDbCircle
 10
331.1925057451768
 20
379.0438869078863
 30
0.0
 40
12.0
100
AcDbArc
 50
269.9995229999998
 51
0.0
  0
ARC
  5
245C
330
1A
100
AcDbEntity
  8
SEIHIN
 62
     3
 48
5.0
100
AcDbCircle
 10
301.8641057451768
 20
395.1675869078862
 30
0.0
 40
30.000019
100
AcDbArc
 50
0.6677010000001691
 51
19.9831230000002
  0
LINE
  5
245D
330
1A
100
AcDbEntity
  8
SEIHIN
 62
     3
 48
5.0
100
AcDbLine
 10
332.4079057451768
 20
405.4199869078862
 30
0.0
 11
330.0580057451768
 21
405.4199869078862
 31
0.0
  0
LINE
  5
245E
330
1A
100
AcDbEntity
  8
SEIHIN
 62
     3
 48
5.0
100
AcDbLine
 10
322.7818057451768
 20
409.2768869078863
 30
0.0
 11
332.4120057451767
 21
405.4201869078863
 31
0.0
  0
ARC
  5
245F
330
1A
100
AcDbEntity
  8
SEIHIN
 62
     3
 48
5.0
100
AcDbCircle
 10
272.0122057451768
 20
439.9324869078863
 30
0.0
 40
13.0
100
AcDbArc
 50
270.0
 51
0.0
  0
ARC
  5
2460
330
1A
100
AcDbEntity
  8
SEIHIN
 62
     3
 48
5.0
100
AcDbCircle
 10
291.6122057451767
 20
420.7519869078863
 30
0.0
 40
13.0
100
AcDbArc
 50
270.0
 51
0.0
  0
ARC
  5
2461
330
1A
100
AcDbEntity
  8
SEIHIN
 62
     3
 48
5.0
100
AcDbCircle
 10
282.0122057451768
 20
430.7629869078862
 30
0.0
 40
13.0
100
AcDbArc
 50
270.0
 51
359.9995589999999
  0
ARC
  5
2462
330
1A
100
AcDbEntity
  8
SEIHIN
 62
     3
 48
5.0
100
AcDbCircle
 10
329.0043057451768
 20
418.0780869078863
 30
0.0
 40
10.778741
100
AcDbArc
 50
174.6516169999998
 51
234.7363740000009
  0
ARC
  5
2463
330
1A
100
AcDbEntity
  8
SEIHIN
 62
     3
 48
5.0
100
AcDbCircle
 10
326.6543057451767
 20
418.0780869078863
 30
0.0
 40
10.77871199999999
100
AcDbArc
 50
174.6516169999998
 51
234.7368089999999
  0
LINE
  5
2464
330
1A
100
AcDbEntity
  8
SEIHIN
 62
     3
 48
5.0
100
AcDbLine
 10
320.4318057451768
 20
409.2768869078863
 30
0.0
 11
330.0620057451768
 21
405.4201869078863
 31
0.0
  0
ARC
  5
2465
330
1A
100
AcDbEntity
  8
SEIHIN
 62
     3
 48
5.0
100
AcDbCircle
 10
298.3953057451768
 20
417.8081869078862
 30
0.0
 40
13.0
100
AcDbArc
 50
269.9995589999999
 51
0.0
  0
LINE
  5
2466
330
1A
100
AcDbEntity
  8
SEIHIN
 62
     3
 48
5.0
100
AcDbLine
 10
315.9587057451768
 20
419.0823869078863
 30
0.0
 11
311.3952057451768
 21
421.0823869078863
 31
0.0
  0
LINE
  5
2467
330
1A
100
AcDbEntity
  8
SEIHIN
 62
     3
 48
5.0
100
AcDbLine
 10
313.7090057451767
 20
421.0826869078863
 30
0.0
 11
318.2725057451767
 21
419.0827869078862
 31
0.0
  0
LINE
  5
2468
330
1A
100
AcDbEntity
  8
SEIHIN
 62
     3
 48
5.0
100
AcDbLine
 10
313.7090057451767
 20
421.0823869078863
 30
0.0
 11
311.3952057451768
 21
421.0823869078863
 31
0.0
  0
LINE
  5
2469
330
1A
100
AcDbEntity
  8
SEIHIN
 62
     3
 48
5.0
100
AcDbLine
 10
322.7818057451768
 20
409.2769869078862
 30
0.0
 11
320.4318057451768
 21
409.2769869078862
 31
0.0
  0
LINE
  5
246A
330
1A
100
AcDbEntity
  8
SEIHIN
 62
     3
 48
5.0
100
AcDbLine
 10
318.2725057451767
 20
419.0827869078862
 30
0.0
 11
315.9587057451768
 21
419.0823869078863
 31
0.0
  0
LINE
  5
246B
330
1A
100
AcDbEntity
  8
SEIHIN
 62
     3
 48
5.0
100
AcDbLine
 10
318.2724057451768
 20
417.0738869078863
 30
0.0
 11
318.2724057451768
 21
419.0827869078862
 31
0.0
  0
ARC
  5
246C
330
1A
100
AcDbEntity
  8
SEIHIN
 62
     3
 48
5.0
100
AcDbCircle
 10
391.6578057451769
 20
399.2621869078863
 30
0.0
 40
49.999971
100
AcDbArc
 50
165.6760469999998
 51
183.8759239999998
  0
ARC
  5
246D
330
1A
100
AcDbEntity
  8
SEIHIN
 62
     3
 48
5.0
100
AcDbCircle
 10
304.2141057451767
 20
395.1676869078862
 30
0.0
 40
29.99995
100
AcDbArc
 50
0.6673210000000637
 51
19.98294300000035
  0
LINE
  5
246E
330
1A
100
AcDbEntity
  8
SEIHIN
 62
     3
 48
5.0
100
AcDbLine
 10
340.4225057451768
 20
389.9823869078862
 30
0.0
 11
331.8621057451768
 21
389.9823869078862
 31
0.0
  0
LINE
  5
246F
330
1A
100
AcDbEntity
  8
SEIHIN
 62
     3
 48
5.0
100
AcDbLine
 10
334.2120057451768
 20
389.9823869078862
 30
0.0
 11
334.2120057451768
 21
395.5171869078863
 31
0.0
  0
LINE
  5
2470
330
1A
100
AcDbEntity
  8
SEIHIN
 62
     3
 48
5.0
100
AcDbLine
 10
331.8621057451768
 20
389.9823869078862
 30
0.0
 11
331.8621057451768
 21
395.5171869078863
 31
0.0
  0
LINE
  5
2471
330
1A
100
AcDbEntity
  8
SEIHIN
 62
     3
 48
5.0
100
AcDbLine
 10
341.9721057451768
 20
395.8819869078863
 30
0.0
 11
341.7721057451768
 21
395.8819869078863
 31
0.0
  0
ARC
  5
2472
330
1A
100
AcDbEntity
  8
SEIHIN
 62
     3
 48
5.0
100
AcDbCircle
 10
341.4721057451767
 20
389.4439869078862
 30
0.0
 40
0.4999710000000001
100
AcDbArc
 50
217.7684369999997
 51
0.0
  0
LINE
  5
2473
330
1A
100
AcDbEntity
  8
SEIHIN
 62
     3
 48
5.0
100
AcDbLine
 10
340.4225057451768
 20
389.9823869078862
 30
0.0
 11
341.0769057451767
 21
389.1378869078863
 31
0.0
  0
LINE
  5
2474
330
1A
100
AcDbEntity
  8
SEIHIN
 62
     3
 48
5.0
100
AcDbLine
 10
341.9721057451768
 20
389.4439869078862
 30
0.0
 11
341.9721057451768
 21
395.8822869078862
 31
0.0
  0
LINE
  5
2475
330
1A
100
AcDbEntity
  8
SEIHIN
 62
     3
 48
5.0
100
AcDbLine
 10
347.2124057451769
 20
411.6323869078862
 30
0.0
 11
343.1925057451768
 21
411.6323869078862
 31
0.0
  0
LINE
  5
2476
330
1A
100
AcDbEntity
  8
SEIHIN
 62
     3
 48
5.0
100
AcDbLine
 10
347.2121057451769
 20
411.6322869078862
 30
0.0
 11
343.2121057451768
 21
411.6322869078862
 31
0.0
  0
LINE
  5
2477
330
1A
100
AcDbEntity
  8
SEIHIN
 62
     3
 48
5.0
100
AcDbLine
 10
270.0123057451768
 20
519.5161869078861
 30
0.0
 11
237.2122057451767
 21
519.5161869078861
 31
0.0
  0
LINE
  5
2478
330
1A
100
AcDbEntity
  8
SEIHIN
 62
     3
 48
5.0
100
AcDbLine
 10
324.4121057451768
 20
527.4322869078862
 30
0.0
 11
237.2120057451768
 21
527.4323869078862
 31
0.0
  0
LINE
  5
2479
330
1A
100
AcDbEntity
  8
SEIHIN
 62
     3
 48
5.0
100
AcDbLine
 10
293.6122057451767
 20
520.1087869078862
 30
0.0
 11
237.2121057451768
 21
520.1087869078862
 31
0.0
  0
LINE
  5
247A
330
1A
100
AcDbEntity
  8
SEIHIN
 62
     3
 48
5.0
100
AcDbLine
 10
319.4121057451768
 20
522.4160869078863
 30
0.0
 11
237.2120057451768
 21
522.4160869078863
 31
0.0
  0
LINE
  5
247B
330
1A
100
AcDbEntity
  8
SEIHIN
 62
     3
 48
5.0
100
AcDbLine
 10
333.0621057451768
 20
529.7323869078862
 30
0.0
 11
237.2121057451768
 21
529.7324869078863
 31
0.0
  0
ARC
  5
247C
330
1A
100
AcDbEntity
  8
SEIHIN
 62
     3
 48
5.0
100
AcDbCircle
 10
204.4119057451768
 20
504.5161869078863
 30
0.0
 40
15.0
100
AcDbArc
 50
90.0
 51
180.0
  0
LINE
  5
247D
330
1A
100
AcDbEntity
  8
SEIHIN
 62
     3
 48
5.0
100
AcDbLine
 10
180.8118057451768
 20
520.1087869078862
 30
0.0
 11
237.2120057451768
 21
520.1087869078862
 31
0.0
  0
LINE
  5
247E
330
1A
100
AcDbEntity
  8
SEIHIN
 62
     3
 48
5.0
100
AcDbLine
 10
155.0121057451767
 20
522.4160869078863
 30
0.0
 11
237.2120057451768
 21
522.4159869078862
 31
0.0
  0
LINE
  5
247F
330
1A
100
AcDbEntity
  8
SEIHIN
 62
     3
 48
5.0
100
AcDbLine
 10
150.0121057451767
 20
527.4323869078862
 30
0.0
 11
237.2120057451768
 21
527.4323869078862
 31
0.0
  0
LINE
  5
2480
330
1A
100
AcDbEntity
  8
SEIHIN
 62
     3
 48
5.0
100
AcDbLine
 10
141.3620057451768
 20
529.7324869078863
 30
0.0
 11
237.2120057451768
 21
529.7324869078863
 31
0.0
  0
ARC
  5
2481
330
1A
100
AcDbEntity
  8
SEIHIN
 62
     3
 48
5.0
100
AcDbCircle
 10
150.0121057451767
 20
524.4323869078863
 30
0.0
 40
3.0
100
AcDbArc
 50
90.0
 51
180.0
  0
LINE
  5
2482
330
1A
100
AcDbEntity
  8
SEIHIN
 62
     3
 48
5.0
100
AcDbLine
 10
141.4316057451768
 20
504.6624869078862
 30
0.0
 11
141.4316057451768
 21
526.7324869078863
 31
0.0
  0
LINE
  5
2483
330
1A
100
AcDbEntity
  8
SEIHIN
 62
     3
 48
5.0
100
AcDbLine
 10
138.3620057451768
 20
526.7324869078863
 30
0.0
 11
138.3620057451768
 21
504.6624869078862
 31
0.0
  0
LINE
  5
2484
330
1A
100
AcDbEntity
  8
SEIHIN
 62
     3
 48
5.0
100
AcDbLine
 10
147.8951057451768
 20
512.9645869078862
 30
0.0
 11
163.0289057451768
 21
511.1823869078863
 31
0.0
  0
LINE
  5
2485
330
1A
100
AcDbEntity
  8
SEIHIN
 62
     3
 48
5.0
100
AcDbLine
 10
145.5954057451767
 20
512.9590869078862
 30
0.0
 11
160.7151057451768
 21
511.1825869078862
 31
0.0
  0
ARC
  5
2486
330
1A
100
AcDbEntity
  8
SEIHIN
 62
     3
 48
5.0
100
AcDbCircle
 10
155.0121057451767
 20
514.4159869078862
 30
0.0
 40
8.0
100
AcDbArc
 50
90.0
 51
180.0
  0
ARC
  5
2487
330
1A
100
AcDbEntity
  8
SEIHIN
 62
     3
 48
5.0
100
AcDbCircle
 10
148.0121057451767
 20
513.9576869078862
 30
0.0
 40
0.9999839999999998
100
AcDbArc
 50
180.0
 51
263.2807910000001
  0
LINE
  5
2488
330
1A
100
AcDbEntity
  8
SEIHIN
 62
     3
 48
5.0
100
AcDbLine
 10
143.2720057451767
 20
518.6624869078863
 30
0.0
 11
143.2721057451767
 21
512.1624869078863
 31
0.0
  0
ARC
  5
2489
330
1A
100
AcDbEntity
  8
SEIHIN
 62
     3
 48
5.0
100
AcDbCircle
 10
145.7121057451768
 20
513.9521869078862
 30
0.0
 40
0.9999670000000001
100
AcDbArc
 50
180.0
 51
263.2978619999994
  0
ARC
  5
248A
330
1A
100
AcDbEntity
  8
SEIHIN
 62
     3
 48
5.0
100
AcDbCircle
 10
134.8033057451767
 20
510.7506869078862
 30
0.0
 40
9.000035000000001
100
AcDbArc
 50
317.4347249999998
 51
9.025051000000193
  0
LINE
  5
248B
330
1A
100
AcDbEntity
  8
SEIHIN
 62
     3
 48
5.0
100
AcDbLine
 10
138.3618057451767
 20
504.6624869078862
 30
0.0
 11
141.4316057451768
 21
504.6624869078862
 31
0.0
  0
LINE
  5
248C
330
1A
100
AcDbEntity
  8
SEIHIN
 62
     3
 48
5.0
100
AcDbLine
 10
143.2721057451767
 20
512.1624869078863
 30
0.0
 11
143.6920057451768
 21
512.1624869078863
 31
0.0
  0
ARC
  5
248D
330
1A
100
AcDbEntity
  8
SEIHIN
 62
     3
 48
5.0
100
AcDbCircle
 10
146.0121057451767
 20
518.6624869078863
 30
0.0
 40
1.0
100
AcDbArc
 50
0.0
 51
90.0
  0
LINE
  5
248E
330
1A
100
AcDbEntity
  8
SEIHIN
 62
     3
 48
5.0
100
AcDbLine
 10
147.0121057451767
 20
513.9576869078862
 30
0.0
 11
147.0121057451767
 21
514.4159869078862
 31
0.0
  0
LINE
  5
248F
330
1A
100
AcDbEntity
  8
SEIHIN
 62
     3
 48
5.0
100
AcDbLine
 10
144.7120057451768
 20
518.6624869078863
 30
0.0
 11
144.7121057451768
 21
513.9521869078862
 31
0.0
  0
ARC
  5
2490
330
1A
100
AcDbEntity
  8
SEIHIN
 62
     3
 48
5.0
100
AcDbCircle
 10
144.2720057451767
 20
518.6624869078863
 30
0.0
 40
1.0
100
AcDbArc
 50
90.0
 51
180.0
  0
ARC
  5
2491
330
1A
100
AcDbEntity
  8
SEIHIN
 62
     3
 48
5.0
100
AcDbCircle
 10
143.7120057451768
 20
518.6624869078863
 30
0.0
 40
1.0
100
AcDbArc
 50
0.0
 51
73.7397949999998
  0
LINE
  5
2492
330
1A
100
AcDbEntity
  8
SEIHIN
 62
     3
 48
5.0
100
AcDbLine
 10
144.2720057451767
 20
519.6624869078863
 30
0.0
 11
146.0121057451767
 21
519.6624869078863
 31
0.0
  0
LINE
  5
2493
330
1A
100
AcDbEntity
  8
SEIHIN
 62
     3
 48
5.0
100
AcDbLine
 10
147.0609057451768
 20
513.8693869078862
 30
0.0
 11
147.0609057451768
 21
524.9710869078862
 31
0.0
  0
LINE
  5
2494
330
1A
100
AcDbEntity
  8
SEIHIN
 62
     3
 48
5.0
100
AcDbLine
 10
160.7151057451768
 20
511.1825869078862
 30
0.0
 11
163.0289057451768
 21
511.1823869078863
 31
0.0
  0
ARC
  5
2495
330
1A
100
AcDbEntity
  8
SEIHIN
 62
     3
 48
5.0
100
AcDbCircle
 10
190.4119057451767
 20
509.1087869078863
 30
0.0
 40
11.0
100
AcDbArc
 50
90.0
 51
179.999479
  0
ARC
  5
2496
330
1A
100
AcDbEntity
  8
SEIHIN
 62
     3
 48
5.0
100
AcDbCircle
 10
180.8118057451768
 20
509.1087869078863
 30
0.0
 40
11.0
100
AcDbArc
 50
90.0
 51
179.999479
  0
ARC
  5
2497
330
1A
100
AcDbEntity
  8
SEIHIN
 62
     3
 48
5.0
100
AcDbCircle
 10
144.4316057451768
 20
526.7324869078863
 30
0.0
 40
3.0
100
AcDbArc
 50
90.0
 51
180.0
  0
ARC
  5
2498
330
1A
100
AcDbEntity
  8
SEIHIN
 62
     3
 48
5.0
100
AcDbCircle
 10
141.3620057451768
 20
526.7324869078863
 30
0.0
 40
3.0
100
AcDbArc
 50
90.0
 51
180.0
  0
LINE
  5
2499
330
1A
100
AcDbEntity
  8
SEIHIN
 62
     3
 48
5.0
100
AcDbLine
 10
204.4119057451768
 20
519.5161869078861
 30
0.0
 11
237.2119057451768
 21
519.5161869078861
 31
0.0
  0
ARC
  5
249A
330
1A
100
AcDbEntity
  8
SEIHIN
 62
     3
 48
5.0
100
AcDbCircle
 10
329.9925057451768
 20
526.7324869078863
 30
0.0
 40
3.0
100
AcDbArc
 50
0.0
 51
90.0
  0
ARC
  5
249B
330
1A
100
AcDbEntity
  8
SEIHIN
 62
     3
 48
5.0
100
AcDbCircle
 10
330.7121057451768
 20
518.6624869078863
 30
0.0
 40
1.0
100
AcDbArc
 50
106.2602050000002
 51
180.0
  0
ARC
  5
249C
330
1A
100
AcDbEntity
  8
SEIHIN
 62
     3
 48
5.0
100
AcDbCircle
 10
330.1521057451768
 20
518.6624869078863
 30
0.0
 40
1.0
100
AcDbArc
 50
0.0
 51
90.0
  0
ARC
  5
249D
330
1A
100
AcDbEntity
  8
SEIHIN
 62
     3
 48
5.0
100
AcDbCircle
 10
339.6208057451767
 20
510.7505869078862
 30
0.0
 40
8.999997999999998
100
AcDbArc
 50
170.9749489999999
 51
222.5657059999998
  0
ARC
  5
249E
330
1A
100
AcDbEntity
  8
SEIHIN
 62
     3
 48
5.0
100
AcDbCircle
 10
324.4121057451768
 20
524.4323869078863
 30
0.0
 40
3.0
100
AcDbArc
 50
0.0
 51
90.0
  0
ARC
  5
249F
330
1A
100
AcDbEntity
  8
SEIHIN
 62
     3
 48
5.0
100
AcDbCircle
 10
293.6122057451767
 20
509.1087869078863
 30
0.0
 40
11.0
100
AcDbArc
 50
0.0
 51
90.0
  0
ARC
  5
24A0
330
1A
100
AcDbEntity
  8
SEIHIN
 62
     3
 48
5.0
100
AcDbCircle
 10
270.0122057451768
 20
504.5161869078863
 30
0.0
 40
15.0
100
AcDbArc
 50
0.0
 51
90.0
  0
ARC
  5
24A1
330
1A
100
AcDbEntity
  8
SEIHIN
 62
     3
 48
5.0
100
AcDbCircle
 10
284.0122057451768
 20
509.1087869078863
 30
0.0
 40
11.0
100
AcDbArc
 50
0.0
 51
90.0
  0
LINE
  5
24A2
330
1A
100
AcDbEntity
  8
SEIHIN
 62
     3
 48
5.0
100
AcDbLine
 10
328.8288057451768
 20
512.9589869078862
 30
0.0
 11
313.7091057451767
 21
511.1825869078862
 31
0.0
  0
LINE
  5
24A3
330
1A
100
AcDbEntity
  8
SEIHIN
 62
     3
 48
5.0
100
AcDbLine
 10
326.5290057451768
 20
512.9645869078862
 30
0.0
 11
311.3953057451768
 21
511.1823869078863
 31
0.0
  0
LINE
  5
24A4
330
1A
100
AcDbEntity
  8
SEIHIN
 62
     3
 48
5.0
100
AcDbLine
 10
313.7091057451767
 20
511.1825869078862
 30
0.0
 11
311.3953057451768
 21
511.1823869078863
 31
0.0
  0
ARC
  5
24A5
330
1A
100
AcDbEntity
  8
SEIHIN
 62
     3
 48
5.0
100
AcDbCircle
 10
326.4121057451768
 20
513.9576869078862
 30
0.0
 40
1.000028
100
AcDbArc
 50
276.7128489999997
 51
0.0
  0
ARC
  5
24A6
330
1A
100
AcDbEntity
  8
SEIHIN
 62
     3
 48
5.0
100
AcDbCircle
 10
328.7121057451768
 20
513.9521869078862
 30
0.0
 40
0.9999670000000001
100
AcDbArc
 50
276.7021380000005
 51
0.0
  0
ARC
  5
24A7
330
1A
100
AcDbEntity
  8
SEIHIN
 62
     3
 48
5.0
100
AcDbCircle
 10
319.4121057451768
 20
514.4159869078862
 30
0.0
 40
8.0
100
AcDbArc
 50
0.0
 51
90.0
  0
ARC
  5
24A8
330
1A
100
AcDbEntity
  8
SEIHIN
 62
     3
 48
5.0
100
AcDbCircle
 10
328.4121057451768
 20
518.6624869078863
 30
0.0
 40
1.0
100
AcDbArc
 50
90.0
 51
180.0
  0
LINE
  5
24A9
330
1A
100
AcDbEntity
  8
SEIHIN
 62
     3
 48
5.0
100
AcDbLine
 10
329.7121057451768
 20
518.6624869078863
 30
0.0
 11
329.7121057451768
 21
513.9521869078862
 31
0.0
  0
LINE
  5
24AA
330
1A
100
AcDbEntity
  8
SEIHIN
 62
     3
 48
5.0
100
AcDbLine
 10
330.1521057451768
 20
519.6624869078863
 30
0.0
 11
328.4121057451768
 21
519.6624869078863
 31
0.0
  0
LINE
  5
24AB
330
1A
100
AcDbEntity
  8
SEIHIN
 62
     3
 48
5.0
100
AcDbLine
 10
327.4121057451768
 20
513.9576869078862
 30
0.0
 11
327.4121057451768
 21
514.4159869078862
 31
0.0
  0
LINE
  5
24AC
330
1A
100
AcDbEntity
  8
SEIHIN
 62
     3
 48
5.0
100
AcDbLine
 10
327.3633057451768
 20
513.8692869078863
 30
0.0
 11
327.3633057451768
 21
524.9710869078862
 31
0.0
  0
LINE
  5
24AD
330
1A
100
AcDbEntity
  8
SEIHIN
 62
     3
 48
5.0
100
AcDbLine
 10
336.0621057451768
 20
526.7324869078863
 30
0.0
 11
336.0621057451768
 21
504.6624869078862
 31
0.0
  0
LINE
  5
24AE
330
1A
100
AcDbEntity
  8
SEIHIN
 62
     3
 48
5.0
100
AcDbLine
 10
332.9925057451768
 20
504.6624869078862
 30
0.0
 11
332.9925057451768
 21
526.7324869078863
 31
0.0
  0
LINE
  5
24AF
330
1A
100
AcDbEntity
  8
SEIHIN
 62
     3
 48
5.0
100
AcDbLine
 10
331.1521057451768
 20
518.6624869078863
 30
0.0
 11
331.1521057451768
 21
512.1624869078863
 31
0.0
  0
LINE
  5
24B0
330
1A
100
AcDbEntity
  8
SEIHIN
 62
     3
 48
5.0
100
AcDbLine
 10
331.1521057451768
 20
512.1624869078863
 30
0.0
 11
330.7322057451767
 21
512.1624869078863
 31
0.0
  0
LINE
  5
24B1
330
1A
100
AcDbEntity
  8
SEIHIN
 62
     3
 48
5.0
100
AcDbLine
 10
336.0624057451767
 20
504.6624869078862
 30
0.0
 11
332.9925057451768
 21
504.6624869078862
 31
0.0
  0
ARC
  5
24B2
330
1A
100
AcDbEntity
  8
SEIHIN
 62
     3
 48
5.0
100
AcDbCircle
 10
333.0621057451768
 20
526.7324869078863
 30
0.0
 40
3.0
100
AcDbArc
 50
0.0
 51
90.0
  0
MTEXT
  5
24B3
330
1A
100
AcDbEntity
  8
SUNPOU
  6
Continuous
 62
     4
100
AcDbMText
 10
525.511335640936
 20
287.9848962358166
 30
0.0
 40
6.0
 41
0.0
 71
     7
 72
     5
  1
2-φ2.0
 73
     1
 44
1.0
  0
DIMENSION
  5
24B4
330
1A
100
AcDbEntity
  8
SUNPOU
 48
5.0
100
AcDbDimension
  2
*D11
 10
634.6010057451767
 20
302.9311223749125
 30
0.0
 11
552.1009557451769
 21
307.9311223749125
 31
0.0
 70
    32
 71
     5
 42
-1.0
  3
STANDARD
100
AcDbAlignedDimension
 13
469.6009057451767
 23
266.576223350839
 33
0.0
 14
634.6010057451767
 24
244.176223350839
 34
0.0
100
AcDbRotatedDimension
1001
ACAD
1000
DSTYLE
1002
{
1070
   140
1040
6.0
1070
    74
1070
     0
1070
   172
1070
     1
1070
    73
1070
     0
1070
   272
1070
     2
1070
    77
1070
     3
1070
   173
1070
     1
1070
   147
1040
2.0
1070
    42
1040
6.0
1070
    44
1040
3.0
1070
    43
1040
14.0
1070
   271
1070
     0
1070
   178
1070
     4
1070
   177
1070
     4
1070
   176
1070
     4
1070
   141
1040
150.0
1070
     7
1000
_OPEN
1070
     6
1000
_OPEN
1070
    41
1040
7.0
1002
}
  0
DIMENSION
  5
24B5
330
1A
100
AcDbEntity
  8
SUNPOU
 48
5.0
100
AcDbDimension
  2
*D12
 10
634.6010057451767
 20
285.9107103045462
 30
0.0
 11
602.8010057451768
 21
290.9107103045462
 31
0.0
 70
    32
 71
     5
 42
-1.0
  3
STANDARD
100
AcDbAlignedDimension
 13
571.0010057451768
 23
189.461523350839
 33
0.0
 14
634.6010057451767
 24
244.176223350839
 34
0.0
100
AcDbRotatedDimension
1001
ACAD
1000
DSTYLE
1002
{
1070
   140
1040
6.0
1070
    74
1070
     0
1070
   172
1070
     1
1070
    73
1070
     0
1070
   272
1070
     2
1070
    77
1070
     3
1070
   173
1070
     1
1070
   147
1040
2.0
1070
    42
1040
6.0
1070
    44
1040
3.0
1070
    43
1040
14.0
1070
   271
1070
     0
1070
   178
1070
     4
1070
   177
1070
     4
1070
   176
1070
     4
1070
   141
1040
150.0
1070
     7
1000
_OPEN
1070
     6
1000
_OPEN
1070
    41
1040
7.0
1002
}
  0
DIMENSION
  5
24B6
330
1A
100
AcDbEntity
  8
SUNPOU
 48
5.0
100
AcDbDimension
  2
*D13
 10
656.9943678395248
 20
91.17622335083907
 30
0.0
 11
651.9943678395248
 21
63.27622335083915
 31
0.0
 70
    32
  1
※b <>
 71
     5
 42
-1.0
  3
STANDARD
100
AcDbAlignedDimension
 13
615.5016185126647
 23
100.9231931633568
 33
0.0
 14
614.0011057451768
 24
91.17622335083907
 34
0.0
 50
90.0
100
AcDbRotatedDimension
1001
ACAD
1000
DSTYLE
1002
{
1070
   140
1040
6.0
1070
    74
1070
     0
1070
   172
1070
     1
1070
    73
1070
     0
1070
   272
1070
     2
1070
    77
1070
     3
1070
   173
1070
     1
1070
   147
1040
2.0
1070
    42
1040
6.0
1070
    44
1040
3.0
1070
    43
1040
14.0
1070
   271
1070
     0
1070
   178
1070
     4
1070
   177
1070
     4
1070
   176
1070
     4
1070
   141
1040
150.0
1070
     7
1000
_OPEN
1070
     6
1000
_OPEN
1070
    41
1040
7.0
1002
}
  0
DIMENSION
  5
24B7
330
1A
100
AcDbEntity
  8
SUNPOU
 48
5.0
100
AcDbDimension
  2
*D14
 10
671.0734536646559
 20
173.676242350839
 30
0.0
 11
666.0734536646559
 21
208.9262328508391
 31
0.0
 70
    32
 71
     5
 42
-1.0
  3
STANDARD
100
AcDbAlignedDimension
 13
634.6010057451767
 23
244.176223350839
 33
0.0
 14
614.1397057451768
 24
173.676242350839
 34
0.0
 50
90.0
100
AcDbRotatedDimension
1001
ACAD
1000
DSTYLE
1002
{
1070
   140
1040
6.0
1070
    74
1070
     0
1070
   172
1070
     1
1070
    73
1070
     0
1070
   272
1070
     2
1070
    77
1070
     3
1070
   173
1070
     1
1070
   147
1040
2.0
1070
    42
1040
6.0
1070
    44
1040
3.0
1070
    43
1040
14.0
1070
   271
1070
     0
1070
   178
1070
     4
1070
   177
1070
     4
1070
   176
1070
     4
1070
   141
1040
150.0
1070
     7
1000
_OPEN
1070
     6
1000
_OPEN
1070
    41
1040
7.0
1002
}
  0
DIMENSION
  5
24B8
330
1A
100
AcDbEntity
  8
SUNPOU
100
AcDbDimension
  2
*D15
 10
627.1935806110231
 20
40.09683964472583
 30
0.0
 11
569.8472565740707
 21
45.09683964472583
 31
0.0
 70
    32
 71
     5
 42
-1.0
  3
STANDARD
100
AcDbAlignedDimension
 13
512.5009325371185
 23
150.676223350839
 33
0.0
 14
627.1935806110231
 24
150.676223350839
 34
0.0
100
AcDbRotatedDimension
1001
ACAD
1000
DSTYLE
1002
{
1070
   140
1040
6.0
1070
    74
1070
     0
1070
   172
1070
     1
1070
    73
1070
     0
1070
   272
1070
     2
1070
    77
1070
     3
1070
   173
1070
     1
1070
   147
1040
2.0
1070
    42
1040
6.0
1070
    44
1040
3.0
1070
    43
1040
14.0
1070
   271
1070
     0
1070
   178
1070
     4
1070
   177
1070
     4
1070
   176
1070
     4
1070
   141
1040
150.0
1070
     7
1000
_OPEN
1070
     6
1000
_OPEN
1070
    41
1040
7.0
1002
}
  0
DIMENSION
  5
24B9
330
1A
100
AcDbEntity
  8
SUNPOU
 48
5.0
100
AcDbDimension
  2
*D16
 10
415.6475865196034
 20
91.17622335083912
 30
0.0
 11
410.6475865196034
 21
112.9262233508391
 31
0.0
 70
    32
 71
     5
 42
-1.0
  3
STANDARD
100
AcDbAlignedDimension
 13
531.7370057451768
 23
134.676223350839
 33
0.0
 14
545.0008057451767
 24
91.17622335083907
 34
0.0
 50
90.0
100
AcDbRotatedDimension
1001
ACAD
1000
DSTYLE
1002
{
1070
   140
1040
6.0
1070
    74
1070
     0
1070
   172
1070
     1
1070
    73
1070
     0
1070
   272
1070
     2
1070
    77
1070
     3
1070
   173
1070
     1
1070
   147
1040
2.0
1070
    42
1040
6.0
1070
    44
1040
3.0
1070
    43
1040
14.0
1070
   271
1070
     0
1070
   178
1070
     4
1070
   177
1070
     4
1070
   176
1070
     4
1070
   141
1040
150.0
1070
     7
1000
_OPEN
1070
     6
1000
_OPEN
1070
    41
1040
7.0
1002
}
  0
LINE
  5
24BA
330
1A
100
AcDbEntity
  8
SEIHIN
 62
     3
 48
5.0
100
AcDbLine
 10
615.5027057451767
 20
113.108623350839
 30
0.0
 11
615.5011057451766
 21
95.17622335083904
 31
0.0
  0
LINE
  5
24BB
330
1A
100
AcDbEntity
  8
SEIHIN
 62
     3
 48
5.0
100
AcDbLine
 10
606.5027057451767
 20
113.095923350839
 30
0.0
 11
606.5011057451768
 21
95.17612335083908
 31
0.0
  0
LINE
  5
24BC
330
1A
100
AcDbEntity
  8
SEIHIN
 62
     3
 48
5.0
100
AcDbLine
 10
552.4992057451767
 20
113.095923350839
 30
0.0
 11
552.5008057451767
 21
95.17612335083908
 31
0.0
  0
LINE
  5
24BD
330
1A
100
AcDbEntity
  8
SEIHIN
 62
     3
 48
5.0
100
AcDbLine
 10
543.4992057451767
 20
113.108623350839
 30
0.0
 11
543.5008057451767
 21
95.17622335083904
 31
0.0
  0
LINE
  5
24BE
330
1A
100
AcDbEntity
  8
CENTER_L
  6
CENTER
 62
     1
 48
5.0
100
AcDbLine
 10
579.5009057451767
 20
74.73557335083905
 30
0.0
 11
579.5009057451767
 21
139.6201662156413
 31
0.0
  0
DIMENSION
  5
24BF
330
1A
100
AcDbEntity
  8
SUNPOU
 48
5.0
100
AcDbDimension
  2
*D17
 10
615.5011057451766
 20
56.90044339006954
 30
0.0
 11
579.5009557451767
 21
61.90044339006954
 31
0.0
 70
    32
  1
□<>
 71
     5
 42
-1.0
  3
STANDARD
100
AcDbAlignedDimension
 13
543.5008057451767
 23
95.17622335083904
 33
0.0
 14
615.5011057451766
 24
95.17622335083904
 34
0.0
100
AcDbRotatedDimension
1001
ACAD
1000
DSTYLE
1002
{
1070
   140
1040
6.0
1070
    74
1070
     0
1070
   172
1070
     1
1070
    73
1070
     0
1070
   272
1070
     2
1070
    77
1070
     3
1070
   173
1070
     1
1070
   147
1040
2.0
1070
    42
1040
6.0
1070
    44
1040
3.0
1070
    43
1040
14.0
1070
   271
1070
     0
1070
   178
1070
     4
1070
   177
1070
     4
1070
   176
1070
     4
1070
   141
1040
150.0
1070
     7
1000
_OPEN
1070
     6
1000
_OPEN
1070
    41
1040
7.0
1002
}
  0
LINE
  5
24C0
330
1A
100
AcDbEntity
  8
SEIHIN
 62
     3
 48
5.0
100
AcDbLine
 10
579.5012057451769
 20
91.17612335083908
 30
0.0
 11
614.0011057451768
 21
91.17622335083907
 31
0.0
  0
LINE
  5
24C1
330
1A
100
AcDbEntity
  8
SEIHIN
 62
     3
 48
5.0
100
AcDbLine
 10
579.5013057451768
 20
95.17612335083908
 30
0.0
 11
615.5011057451766
 21
95.17622335083904
 31
0.0
  0
LINE
  5
24C2
330
1A
100
AcDbEntity
  8
SEIHIN
 62
     3
 48
5.0
100
AcDbLine
 10
579.5009057451767
 20
84.67622335083904
 30
0.0
 11
608.7510057451766
 21
84.67622335083904
 31
0.0
  0
LINE
  5
24C3
330
1A
100
AcDbEntity
  8
SEIHIN
 62
     3
 48
5.0
100
AcDbLine
 10
579.5009057451767
 20
84.67622335083904
 30
0.0
 11
550.2509057451767
 21
84.67622335083904
 31
0.0
  0
LINE
  5
24C4
330
1A
100
AcDbEntity
  8
SEIHIN
 62
     3
 48
5.0
100
AcDbLine
 10
579.5006057451768
 20
95.17612335083908
 30
0.0
 11
543.5008057451767
 21
95.17622335083904
 31
0.0
  0
LINE
  5
24C5
330
1A
100
AcDbEntity
  8
SEIHIN
 62
     3
 48
5.0
100
AcDbLine
 10
579.5007057451768
 20
91.17612335083908
 30
0.0
 11
545.0008057451767
 21
91.17622335083907
 31
0.0
  0
LINE
  5
24C6
330
1A
100
AcDbEntity
  8
SEIHIN
 62
     3
 48
5.0
100
AcDbLine
 10
543.5008057451767
 20
95.17622335083904
 30
0.0
 11
545.0008057451767
 21
91.17622335083907
 31
0.0
  0
LINE
  5
24C7
330
1A
100
AcDbEntity
  8
SEIHIN
 62
     3
 48
5.0
100
AcDbLine
 10
550.1111057451768
 20
91.17622335083907
 30
0.0
 11
550.2509057451767
 21
84.67632335083904
 31
0.0
  0
LINE
  5
24C8
330
1A
100
AcDbEntity
  8
SEIHIN
 62
     3
 48
5.0
100
AcDbLine
 10
552.5008057451767
 20
95.17612335083908
 30
0.0
 11
554.0008057451769
 21
91.17612335083908
 31
0.0
  0
LINE
  5
24C9
330
1A
100
AcDbEntity
  8
SEIHIN
 62
     3
 48
5.0
100
AcDbLine
 10
606.5011057451768
 20
95.17612335083908
 30
0.0
 11
605.0011057451768
 21
91.17612335083908
 31
0.0
  0
LINE
  5
24CA
330
1A
100
AcDbEntity
  8
SEIHIN
 62
     3
 48
5.0
100
AcDbLine
 10
608.8908057451768
 20
91.17622335083907
 30
0.0
 11
608.7510057451766
 21
84.67632335083904
 31
0.0
  0
LINE
  5
24CB
330
1A
100
AcDbEntity
  8
SEIHIN
 62
     3
 48
5.0
100
AcDbLine
 10
615.5011057451766
 20
95.17622335083904
 30
0.0
 11
614.0011057451768
 21
91.17622335083907
 31
0.0
  0
LEADER
  5
24CC
330
1A
100
AcDbEntity
  8
SUNPOU
  6
Continuous
 62
     4
100
AcDbLeader
  3
STANDARD
 74
     0
 40
6.0
 41
30.19999999999999
 76
     3
 10
508.5009057451767
 20
260.576223350839
 30
0.0
 10
521.4644437427269
 20
285.9848962358166
 30
0.0
 10
523.511335640936
 20
285.9848962358166
 30
0.0
1001
ACAD
1000
DSTYLE
1002
{
1070
     6
1000
OPEN
1070
    41
1040
7.0
1070
    42
1040
6.0
1070
    43
1040
14.0
1070
    44
1040
3.0
1070
    73
1070
     0
1070
    74
1070
     0
1070
    77
1070
     3
1070
   140
1040
6.0
1070
   141
1040
150.0
1070
   147
1040
2.0
1070
   172
1070
     1
1070
   173
1070
     1
1070
   176
1070
     4
1070
   177
1070
     4
1070
   178
1070
     4
1070
   271
1070
     0
1070
   272
1070
     2
1070
   341
1005
6D
1070
   343
1005
6D
1070
   344
1005
6D
1002
}
  0
ARC
  5
24CD
330
1A
100
AcDbEntity
  8
NOKITOI
100
AcDbCircle
 10
530.0686772934243
 20
177.9762018948521
 30
0.0
 40
2.999978544115118
100
AcDbArc
 50
188.1304401609564
 51
269.9995275105259
  0
ARC
  5
24CE
330
1A
100
AcDbEntity
  8
NOKITOI
100
AcDbCircle
 10
528.0738473048956
 20
175.6762279033286
 30
0.0
 40
2.000004552496453
100
AcDbArc
 50
188.1318732947259
 51
270.0001503785779
  0
LINE
  5
24CF
330
1A
100
AcDbEntity
  8
NOKITOI
100
AcDbLine
 10
527.0988525541103
 20
177.551923350839
 30
0.0
 11
523.3667525541105
 21
203.6763233508391
 31
0.0
  0
DIMENSION
  5
24D0
330
1A
100
AcDbEntity
  8
SUNPOU
 48
5.0
100
AcDbDimension
  2
*D18
 10
415.6475865196034
 20
134.676231350839
 30
0.0
 11
410.6475865196034
 21
142.6807130974222
 31
0.0
 70
    32
 71
     5
 42
-1.0
  3
STANDARD
100
AcDbAlignedDimension
 13
514.0673440852554
 23
150.6851948440052
 33
0.0
 14
531.7370057451768
 24
134.676231350839
 34
0.0
 50
90.0
100
AcDbRotatedDimension
1001
ACAD
1000
DSTYLE
1002
{
1070
   140
1040
6.0
1070
    74
1070
     0
1070
   172
1070
     1
1070
    73
1070
     0
1070
   272
1070
     2
1070
    77
1070
     3
1070
   173
1070
     1
1070
   147
1040
2.0
1070
    42
1040
6.0
1070
    44
1040
3.0
1070
    43
1040
14.0
1070
   271
1070
     0
1070
   178
1070
     4
1070
   177
1070
     4
1070
   176
1070
     4
1070
   141
1040
150.0
1070
     7
1000
_OPEN
1070
     6
1000
_OPEN
1070
    41
1040
7.0
1002
}
  0
DIMENSION
  5
24D1
330
1A
100
AcDbEntity
  8
SUNPOU
 48
5.0
100
AcDbDimension
  2
*D19
 10
434.5113718604957
 20
173.676223350839
 30
0.0
 11
429.5113718604956
 21
220.1262233508391
 31
0.0
 70
    32
 71
     5
 42
-1.0
  3
STANDARD
100
AcDbAlignedDimension
 13
469.6009057451767
 23
266.576223350839
 33
0.0
 14
527.6856057451766
 24
173.676223350839
 34
0.0
 50
90.0
100
AcDbRotatedDimension
1001
ACAD
1000
DSTYLE
1002
{
1070
   140
1040
6.0
1070
    74
1070
     0
1070
   172
1070
     1
1070
    73
1070
     0
1070
   272
1070
     2
1070
    77
1070
     3
1070
   173
1070
     1
1070
   147
1040
2.0
1070
    42
1040
6.0
1070
    44
1040
3.0
1070
    43
1040
14.0
1070
   271
1070
     0
1070
   178
1070
     4
1070
   177
1070
     4
1070
   176
1070
     4
1070
   141
1040
150.0
1070
     7
1000
_OPEN
1070
     6
1000
_OPEN
1070
    41
1040
7.0
1002
}
  0
ARC
  5
24D2
330
1A
100
AcDbEntity
  8
SEIHIN
 62
     3
 48
5.0
100
AcDbCircle
 10
527.6856057451766
 20
175.676223350839
 30
0.0
 40
2.000004999999999
100
AcDbArc
 50
188.1317229999998
 51
270.0
  0
LINE
  5
24D3
330
1A
100
AcDbEntity
  8
SEIHIN
 62
     3
 48
5.0
100
AcDbLine
 10
522.5009057451767
 20
150.676223350839
 30
0.0
 11
529.9482057451769
 21
135.781723350839
 31
0.0
  0
LINE
  5
24D4
330
1A
100
AcDbEntity
  8
SEIHIN
 62
     3
 48
5.0
100
AcDbLine
 10
627.1936057451768
 20
150.676223350839
 30
0.0
 11
514.2571057451769
 21
150.676223350839
 31
0.0
  0
ARC
  5
24D5
330
1A
100
AcDbEntity
  8
NOKITOI
100
AcDbCircle
 10
531.7932769042787
 20
203.5094320394216
 30
0.0
 40
16.19999005602696
100
AcDbArc
 50
187.9696639128036
 51
241.7088364731411
  0
ARC
  5
24D6
330
1A
100
AcDbEntity
  8
NOKITOI
100
AcDbCircle
 10
531.7933078238567
 20
203.5093840676959
 30
0.0
 40
17.49996433219532
100
AcDbArc
 50
187.9693736291693
 51
244.7893872175536
  0
LINE
  5
24D7
330
1A
100
AcDbEntity
  8
NOKITOI
100
AcDbLine
 10
522.1763525541104
 20
202.8170233508391
 30
0.0
 11
524.1152525541104
 21
189.2444233508391
 31
0.0
  0
DIMENSION
  5
24D8
330
1A
100
AcDbEntity
  8
SUNPOU
 48
5.0
100
AcDbDimension
  2
*D20
 10
415.6475865196034
 20
150.676223350839
 30
0.0
 11
410.6475865196034
 21
208.6262233508391
 31
0.0
 70
    32
 71
     5
 42
-1.0
  3
STANDARD
100
AcDbAlignedDimension
 13
469.6009057451767
 23
266.576223350839
 33
0.0
 14
514.2571057451769
 24
150.676223350839
 34
0.0
 50
90.0
100
AcDbRotatedDimension
1001
ACAD
1000
DSTYLE
1002
{
1070
   140
1040
6.0
1070
    74
1070
     0
1070
   172
1070
     1
1070
    73
1070
     0
1070
   272
1070
     2
1070
    77
1070
     3
1070
   173
1070
     1
1070
   147
1040
2.0
1070
    42
1040
6.0
1070
    44
1040
3.0
1070
    43
1040
14.0
1070
   271
1070
     0
1070
   178
1070
     4
1070
   177
1070
     4
1070
   176
1070
     4
1070
   141
1040
150.0
1070
     7
1000
_OPEN
1070
     6
1000
_OPEN
1070
    41
1040
7.0
1002
}
  0
ARC
  5
24D9
330
1A
100
AcDbEntity
  8
SEIHIN
 62
     3
 48
5.0
100
AcDbCircle
 10
531.3973057451768
 20
203.512923350839
 30
0.0
 40
17.49997999999999
100
AcDbArc
 50
187.9999009999999
 51
244.8174350000001
  0
LINE
  5
24DA
330
1A
100
AcDbEntity
  8
SEIHIN
 62
     3
 48
5.0
100
AcDbLine
 10
489.0670057451769
 20
223.211923350839
 30
0.0
 11
492.5462057451769
 21
191.495323350839
 31
0.0
  0
LINE
  5
24DB
330
1A
100
AcDbEntity
  8
SEIHIN
 62
     3
 48
5.0
100
AcDbLine
 10
509.4723057451769
 20
173.895623350839
 30
0.0
 11
512.2738057451769
 21
152.417523350839
 31
0.0
  0
ARC
  5
24DC
330
1A
100
AcDbEntity
  8
SEIHIN
 62
     3
 48
5.0
100
AcDbCircle
 10
514.2571057451769
 20
152.676223350839
 30
0.0
 40
2.000051
100
AcDbArc
 50
187.4316549999998
 51
270.0
  0
ARC
  5
24DD
330
1A
100
AcDbEntity
  8
SEIHIN
 62
     3
 48
5.0
100
AcDbCircle
 10
512.4270057451769
 20
193.676223350839
 30
0.0
 40
20.000032
100
AcDbArc
 50
186.260247
 51
269.9997139999992
  0
LINE
  5
24DE
330
1A
100
AcDbEntity
  8
NOKITOI
100
AcDbLine
 10
524.3392525541103
 20
187.6762233508391
 30
0.0
 11
526.0939525541104
 21
175.393323350839
 31
0.0
  0
LINE
  5
24DF
330
1A
100
AcDbEntity
  8
SEIHIN
 62
     3
 48
5.0
100
AcDbLine
 10
523.9510057451766
 20
187.676223350839
 30
0.0
 11
525.7057057451767
 21
175.393323350839
 31
0.0
  0
LINE
  5
24E0
330
1A
100
AcDbEntity
  8
SEIHIN
 62
     3
 48
5.0
100
AcDbLine
 10
522.6006057451767
 20
173.676223350839
 30
0.0
 11
512.4270057451769
 21
173.676223350839
 31
0.0
  0
LINE
  5
24E1
330
1A
100
AcDbEntity
  8
NOKITOI
100
AcDbLine
 10
507.8392525541103
 20
248.6763233508391
 30
0.0
 11
507.8392525541103
 21
243.9763233508391
 31
0.0
  0
LINE
  5
24E2
330
1A
100
AcDbEntity
  8
NOKITOI
100
AcDbLine
 10
506.5392525541104
 20
246.5764233508391
 30
0.0
 11
506.5392525541104
 21
247.3763233508391
 31
0.0
  0
LINE
  5
24E3
330
1A
100
AcDbEntity
  8
NOKITOI
100
AcDbLine
 10
500.8392525541103
 20
247.3763233508391
 30
0.0
 11
500.8392525541103
 21
240.9763233508391
 31
0.0
  0
LINE
  5
24E4
330
1A
100
AcDbEntity
  8
NOKITOI
100
AcDbLine
 10
499.5392525541104
 20
252.3763233508391
 30
0.0
 11
499.5392525541104
 21
238.9763233508391
 31
0.0
  0
LINE
  5
24E5
330
1A
100
AcDbEntity
  8
NOKITOI
100
AcDbLine
 10
495.5928525541103
 20
250.1282233508391
 30
0.0
 11
496.9868525541104
 21
238.9763233508391
 31
0.0
  0
LINE
  5
24E6
330
1A
100
AcDbEntity
  8
NOKITOI
100
AcDbLine
 10
494.2607525541104
 20
250.3042233508391
 30
0.0
 11
495.8392525541102
 21
237.6763233508391
 31
0.0
  0
LINE
  5
24E7
330
1A
100
AcDbEntity
  8
SEIHIN
 62
     3
 48
5.0
100
AcDbLine
 10
493.2304057451768
 20
250.837523350839
 30
0.0
 11
494.6494057451769
 21
238.350323350839
 31
0.0
  0
LINE
  5
24E8
330
1A
100
AcDbEntity
  8
SEIHIN
 62
     3
 48
5.0
100
AcDbLine
 10
469.6009057451767
 20
266.576223350839
 30
0.0
 11
472.4318057451769
 21
238.267823350839
 31
0.0
  0
LINE
  5
24E9
330
1A
100
AcDbEntity
  8
SEIHIN
 62
     3
 48
5.0
100
AcDbLine
 10
473.7695057451768
 20
236.576223350839
 30
0.0
 11
500.3857057451767
 21
236.576223350839
 31
0.0
  0
ARC
  5
24EA
330
1A
100
AcDbEntity
  8
SEIHIN
 62
     3
 48
5.0
100
AcDbCircle
 10
474.1564057451769
 20
221.5762233508391
 30
0.0
 40
15.00002
100
AcDbArc
 50
6.259962000000062
 51
90.0
  0
LINE
  5
24EB
330
1A
100
AcDbEntity
  8
SEIHIN
 62
     3
 48
5.0
100
AcDbLine
 10
473.7695057451768
 20
236.576223350839
 30
0.0
 11
474.1564057451769
 21
236.576223350839
 31
0.0
  0
ARC
  5
24EC
330
1A
100
AcDbEntity
  8
SEIHIN
 62
     3
 48
5.0
100
AcDbCircle
 10
474.4219057451767
 20
238.466823350839
 30
0.0
 40
2.000011999999999
100
AcDbArc
 50
185.710308
 51
250.9616929999998
  0
LINE
  5
24ED
330
1A
100
AcDbEntity
  8
NOKITOI
100
AcDbLine
 10
510.5451525541105
 20
229.0627233508391
 30
0.0
 11
514.4623525541105
 21
201.0830233508391
 31
0.0
  0
LINE
  5
24EE
330
1A
100
AcDbEntity
  8
NOKITOI
100
AcDbLine
 10
510.4699525541104
 20
238.9763233508391
 30
0.0
 11
513.5381525541104
 21
217.0602233508391
 31
0.0
  0
LINE
  5
24EF
330
1A
100
AcDbEntity
  8
SEIHIN
 62
     3
 48
5.0
100
AcDbLine
 10
514.0676057451768
 20
201.077423350839
 30
0.0
 11
510.2884057451769
 21
227.9679233508391
 31
0.0
  0
ARC
  5
24F0
330
1A
100
AcDbEntity
  8
NOKITOI
100
AcDbCircle
 10
530.8691157876671
 20
219.4865734171378
 30
0.0
 40
17.49998460705381
100
AcDbArc
 50
187.9696597232937
 51
244.6144785993157
  0
ARC
  5
24F1
330
1A
100
AcDbEntity
  8
NOKITOI
100
AcDbCircle
 10
530.8690877226942
 20
219.4865861102725
 30
0.0
 40
18.7999459388005
100
AcDbArc
 50
209.4020944837779
 51
242.4591529343755
  0
LINE
  5
24F2
330
1A
100
AcDbEntity
  8
NOKITOI
100
AcDbLine
 10
514.4906525541103
 20
210.257023350839
 30
0.0
 11
515.7497525541102
 21
201.263323350839
 31
0.0
  0
ARC
  5
24F3
330
1A
100
AcDbEntity
  8
NOKITOI
100
AcDbCircle
 10
500.6417363576479
 20
227.6763374378589
 30
0.0
 40
9.999985912993367
100
AcDbArc
 50
7.969086351823961
 51
89.9999072009758
  0
ARC
  5
24F4
330
1A
100
AcDbEntity
  8
SEIHIN
 62
     3
 48
5.0
100
AcDbCircle
 10
500.3857057451767
 20
226.576223350839
 30
0.0
 40
10.00000699999999
100
AcDbArc
 50
7.999809000000082
 51
90.0
  0
ARC
  5
24F5
330
1A
100
AcDbEntity
  8
NOKITOI
100
AcDbCircle
 10
500.6347464356313
 20
227.7271287239213
 30
0.0
 40
11.30001845330597
100
AcDbArc
 50
35.7247799592235
 51
61.6976929906939
  0
LINE
  5
24F6
330
1A
100
AcDbEntity
  8
NOKITOI
100
AcDbLine
 10
509.3392525541103
 20
237.6763233508391
 30
0.0
 11
509.8155525541105
 21
234.274023350839
 31
0.0
  0
ARC
  5
24F7
330
1A
100
AcDbEntity
  8
NOKITOI
100
AcDbCircle
 10
502.8392525541103
 20
240.9763233508391
 30
0.0
 40
2.0
100
AcDbArc
 50
180.0
 51
270.0
  0
LINE
  5
24F8
330
1A
100
AcDbEntity
  8
NOKITOI
100
AcDbLine
 10
499.5392525541104
 20
238.9763233508391
 30
0.0
 11
496.9868525541104
 21
238.9763233508391
 31
0.0
  0
LINE
  5
24F9
330
1A
100
AcDbEntity
  8
NOKITOI
100
AcDbLine
 10
495.8392525541102
 20
237.6763233508391
 30
0.0
 11
500.6417525541102
 21
237.6763233508391
 31
0.0
  0
ARC
  5
24FA
330
1A
100
AcDbEntity
  8
SEIHIN
 62
     3
 48
5.0
100
AcDbCircle
 10
496.6366057451767
 20
238.5762233508391
 30
0.0
 40
1.999993999999999
100
AcDbArc
 50
186.482556
 51
270.0
  0
ARC
  5
24FB
330
1A
100
AcDbEntity
  8
NOKITOI
100
AcDbCircle
 10
506.5392525541104
 20
245.2764233508391
 30
0.0
 40
1.300000000000011
100
AcDbArc
 50
90.0
 51
270.0
  0
LINE
  5
24FC
330
1A
100
AcDbEntity
  8
NOKITOI
100
AcDbLine
 10
506.5392525541104
 20
243.9763233508391
 30
0.0
 11
507.8392525541103
 21
243.9763233508391
 31
0.0
  0
LINE
  5
24FD
330
1A
100
AcDbEntity
  8
NOKITOI
100
AcDbLine
 10
505.9038525541105
 20
237.6763233508391
 30
0.0
 11
509.3392525541103
 21
237.6763233508391
 31
0.0
  0
LINE
  5
24FE
330
1A
100
AcDbEntity
  8
NOKITOI
100
AcDbLine
 10
510.4699525541104
 20
238.9763233508391
 30
0.0
 11
502.8392525541103
 21
238.9763233508391
 31
0.0
  0
ARC
  5
24FF
330
1A
100
AcDbEntity
  8
NOKITOI
100
AcDbCircle
 10
497.2376675136752
 20
250.6763402967681
 30
0.0
 40
2.999983054108305
100
AcDbArc
 50
90.00028570825525
 51
187.1253020571569
  0
LINE
  5
2500
330
1A
100
AcDbEntity
  8
SEIHIN
 62
     3
 48
5.0
100
AcDbLine
 10
514.2420057451768
 20
266.576223350839
 30
0.0
 11
469.6009057451767
 21
266.576223350839
 31
0.0
  0
ARC
  5
2501
330
1A
100
AcDbEntity
  8
SEIHIN
 62
     3
 48
5.0
100
AcDbCircle
 10
496.2112057451769
 20
251.176223350839
 30
0.0
 40
2.999990999999999
100
AcDbArc
 50
90.0
 51
186.482556
  0
LINE
  5
2502
330
1A
100
AcDbEntity
  8
CENTER_L
  6
CENTER
 62
     1
 48
5.0
100
AcDbLine
 10
514.0535057451767
 20
259.576223350839
 30
0.0
 11
502.7112057451769
 21
259.576223350839
 31
0.0
  0
ARC
  5
2503
330
1A
100
AcDbEntity
  8
SEIHIN
 62
     3
 48
5.0
100
AcDbCircle
 10
501.6098057451769
 20
267.651623350839
 30
0.0
 40
15.00000499999999
100
AcDbArc
 50
266.7174510000006
 51
346.6142080000003
  0
LINE
  5
2504
330
1A
100
AcDbEntity
  8
CENTER_L
  6
CENTER
 62
     1
 48
5.0
100
AcDbLine
 10
508.5009057451767
 20
254.9002233508391
 30
0.0
 11
508.5009057451767
 21
265.099823350839
 31
0.0
  0
ARC
  5
2505
330
1A
100
AcDbEntity
  8
NOKITOI
100
AcDbCircle
 10
502.8392525541103
 20
247.3763233508391
 30
0.0
 40
2.0
100
AcDbArc
 50
90.0
 51
180.0
  0
LINE
  5
2506
330
1A
100
AcDbEntity
  8
NOKITOI
100
AcDbLine
 10
505.8392525541104
 20
250.6763233508391
 30
0.0
 11
501.3392525541103
 21
250.6763233508391
 31
0.0
  0
ARC
  5
2507
330
1A
100
AcDbEntity
  8
NOKITOI
100
AcDbCircle
 10
501.3392525541103
 20
251.1763233508391
 30
0.0
 40
0.5
100
AcDbArc
 50
180.0
 51
270.0
  0
LINE
  5
2508
330
1A
100
AcDbEntity
  8
NOKITOI
100
AcDbLine
 10
500.8392525541103
 20
253.6763233508391
 30
0.0
 11
500.8392525541103
 21
251.1763233508391
 31
0.0
  0
ARC
  5
2509
330
1A
100
AcDbEntity
  8
NOKITOI
100
AcDbCircle
 10
497.5774315035789
 20
250.3762995048734
 30
0.0
 40
2.000023846076516
100
AcDbArc
 50
89.99939695388625
 51
187.1251239525233
  0
LINE
  5
250A
330
1A
100
AcDbEntity
  8
NOKITOI
100
AcDbLine
 10
497.5774525541104
 20
252.3763233508391
 30
0.0
 11
499.5392525541104
 21
252.3763233508391
 31
0.0
  0
LINE
  5
250B
330
1A
100
AcDbEntity
  8
NOKITOI
100
AcDbLine
 10
497.2376525541104
 20
253.6763233508391
 30
0.0
 11
500.8392525541103
 21
253.6763233508391
 31
0.0
  0
LINE
  5
250C
330
1A
100
AcDbEntity
  8
SEIHIN
 62
     3
 48
5.0
100
AcDbLine
 10
496.2112057451769
 20
254.176223350839
 30
0.0
 11
500.7509057451767
 21
254.176223350839
 31
0.0
  0
LINE
  5
250D
330
1A
100
AcDbEntity
  8
SEIHIN
 62
     3
 48
5.0
100
AcDbLine
 10
500.7509057451767
 20
252.676223350839
 30
0.0
 11
500.7509057451767
 21
254.176223350839
 31
0.0
  0
ARC
  5
250E
330
1A
100
AcDbEntity
  8
NOKITOI
100
AcDbCircle
 10
505.8392525541104
 20
248.6763233508391
 30
0.0
 40
2.0
100
AcDbArc
 50
0.0
 51
90.0
  0
ARC
  5
250F
330
1A
100
AcDbEntity
  8
NOKITOI
100
AcDbCircle
 10
504.5392525541104
 20
247.3763233508391
 30
0.0
 40
2.0
100
AcDbArc
 50
0.0
 51
90.0
  0
LINE
  5
2510
330
1A
100
AcDbEntity
  8
NOKITOI
100
AcDbLine
 10
504.5392525541104
 20
249.3763233508391
 30
0.0
 11
502.8392525541103
 21
249.3763233508391
 31
0.0
  0
CIRCLE
  5
2511
330
1A
100
AcDbEntity
  8
SEIHIN
 62
     3
 48
5.0
100
AcDbCircle
 10
508.5009057451767
 20
259.576223350839
 30
0.0
 40
1.0
  0
ARC
  5
2512
330
1A
100
AcDbEntity
  8
SEIHIN
 62
     3
 48
5.0
100
AcDbCircle
 10
514.2420057451768
 20
264.576223350839
 30
0.0
 40
2.000068
100
AcDbArc
 50
348.545687
 51
90.0
  0
LINE
  5
2513
330
1A
100
AcDbEntity
  8
NOKITOI
100
AcDbLine
 10
617.8392525541103
 20
217.676323350839
 30
0.0
 11
615.9260525541104
 21
175.5854233508391
 31
0.0
  0
LINE
  5
2514
330
1A
100
AcDbEntity
  8
NOKITOI
100
AcDbLine
 10
617.2435525541105
 20
233.1990233508391
 30
0.0
 11
614.7271525541103
 21
177.840023350839
 31
0.0
  0
DIMENSION
  5
2515
330
1A
100
AcDbEntity
  8
SUNPOU
 48
5.0
100
AcDbDimension
  2
*D21
 10
579.5009057451767
 20
206.4201224595453
 30
0.0
 11
575.2509557451767
 21
211.4201224595453
 31
0.0
 70
    32
 71
     5
 42
-1.0
  3
STANDARD
100
AcDbAlignedDimension
 13
571.0010057451768
 23
189.461523350839
 33
0.0
 14
579.5009057451767
 24
139.6201662156413
 34
0.0
100
AcDbRotatedDimension
1001
ACAD
1000
DSTYLE
1002
{
1070
   140
1040
6.0
1070
    74
1070
     0
1070
   172
1070
     1
1070
    73
1070
     0
1070
   272
1070
     2
1070
    77
1070
     3
1070
   173
1070
     1
1070
   147
1040
2.0
1070
    42
1040
6.0
1070
    44
1040
3.0
1070
    43
1040
14.0
1070
   271
1070
     0
1070
   178
1070
     4
1070
   177
1070
     4
1070
   176
1070
     4
1070
   141
1040
150.0
1070
     7
1000
_OPEN
1070
     6
1000
_OPEN
1070
    41
1040
7.0
1002
}
  0
LINE
  5
2516
330
1A
100
AcDbEntity
  8
SEIHIN
 62
     3
 48
5.0
100
AcDbLine
 10
616.1377057451767
 20
175.585423350839
 30
0.0
 11
617.8659057451768
 21
213.644223350839
 31
0.0
  0
LINE
  5
2517
330
1A
100
AcDbEntity
  8
SEIHIN
 62
     3
 48
5.0
100
AcDbLine
 10
626.6723057451768
 20
136.602123350839
 30
0.0
 11
629.4297057451768
 21
211.050223350839
 31
0.0
  0
LINE
  5
2518
330
1A
100
AcDbEntity
  8
NOKITOI
100
AcDbLine
 10
530.0686525541101
 20
174.976223350839
 30
0.0
 11
611.7302525541103
 21
174.976223350839
 31
0.0
  0
LINE
  5
2519
330
1A
100
AcDbEntity
  8
NOKITOI
100
AcDbLine
 10
528.0738525541103
 20
173.676223350839
 30
0.0
 11
613.9280525541104
 21
173.676223350839
 31
0.0
  0
LINE
  5
251A
330
1A
100
AcDbEntity
  8
SEIHIN
 62
     3
 48
5.0
100
AcDbLine
 10
579.5008057451768
 20
129.676123350839
 30
0.0
 11
620.5008057451768
 21
129.676323350839
 31
0.0
  0
LINE
  5
251B
330
1A
100
AcDbEntity
  8
SEIHIN
 62
     3
 48
5.0
100
AcDbLine
 10
579.5009057451767
 20
134.676223350839
 30
0.0
 11
624.6736057451768
 21
134.676223350839
 31
0.0
  0
LINE
  5
251C
330
1A
100
AcDbEntity
  8
SEIHIN
 62
     3
 48
5.0
100
AcDbLine
 10
527.6856057451766
 20
173.676223350839
 30
0.0
 11
614.1397057451768
 21
173.676223350839
 31
0.0
  0
LINE
  5
251D
330
1A
100
AcDbEntity
  8
SEIHIN
 62
     3
 48
5.0
100
AcDbLine
 10
579.5011057451766
 20
129.676123350839
 30
0.0
 11
538.5011057451768
 21
129.676323350839
 31
0.0
  0
LINE
  5
251E
330
1A
100
AcDbEntity
  8
SEIHIN
 62
     3
 48
5.0
100
AcDbLine
 10
579.5009057451767
 20
134.676223350839
 30
0.0
 11
531.7370057451768
 21
134.676223350839
 31
0.0
  0
LINE
  5
251F
330
1A
100
AcDbEntity
  8
SEIHIN
 62
     3
 48
5.0
100
AcDbLine
 10
547.5011057451767
 20
134.676323350839
 30
0.0
 11
547.5011057451767
 21
129.676323350839
 31
0.0
  0
LINE
  5
2520
330
1A
100
AcDbEntity
  8
SEIHIN
 62
     3
 48
5.0
100
AcDbLine
 10
538.5011057451768
 20
134.676323350839
 30
0.0
 11
538.5011057451768
 21
129.676423350839
 31
0.0
  0
ARC
  5
2521
330
1A
100
AcDbEntity
  8
SEIHIN
 62
     3
 48
5.0
100
AcDbCircle
 10
513.4992057451767
 20
113.096123350839
 30
0.0
 40
29.999957
100
AcDbArc
 50
0.024254999999846
 51
33.55117999999942
  0
ARC
  5
2522
330
1A
100
AcDbEntity
  8
SEIHIN
 62
     3
 48
5.0
100
AcDbCircle
 10
522.4992057451767
 20
113.095923350839
 30
0.0
 40
29.999985
100
AcDbArc
 50
0.0244460000001662
 51
33.55133900000015
  0
ARC
  5
2523
330
1A
100
AcDbEntity
  8
SEIHIN
 62
     3
 48
5.0
100
AcDbCircle
 10
531.7370057451768
 20
136.676223350839
 30
0.0
 40
1.999991999999999
100
AcDbArc
 50
206.5676139999997
 51
270.0
  0
LINE
  5
2524
330
1A
100
AcDbEntity
  8
CENTER_L
  6
CENTER
 62
     1
 48
5.0
100
AcDbLine
 10
571.0009057451767
 20
159.784923350839
 30
0.0
 11
571.0010057451768
 21
189.461523350839
 31
0.0
  0
ARC
  5
2525
330
1A
100
AcDbEntity
  8
SEIHIN
 62
     3
 48
5.0
100
AcDbCircle
 10
624.6736057451768
 20
136.676223350839
 30
0.0
 40
2.000036999999999
100
AcDbArc
 50
270.0
 51
357.8767829999999
  0
LINE
  5
2526
330
1A
100
AcDbEntity
  8
SEIHIN
 62
     3
 48
5.0
100
AcDbLine
 10
620.5008057451768
 20
134.676323350839
 30
0.0
 11
620.5008057451768
 21
129.676423350839
 31
0.0
  0
LINE
  5
2527
330
1A
100
AcDbEntity
  8
SEIHIN
 62
     3
 48
5.0
100
AcDbLine
 10
611.5008057451768
 20
134.676323350839
 30
0.0
 11
611.5008057451768
 21
129.676323350839
 31
0.0
  0
ARC
  5
2528
330
1A
100
AcDbEntity
  8
SEIHIN
 62
     3
 48
5.0
100
AcDbCircle
 10
636.5027057451767
 20
113.095923350839
 30
0.0
 40
30.000026
100
AcDbArc
 50
146.4487670000001
 51
179.9755539999998
  0
ARC
  5
2529
330
1A
100
AcDbEntity
  8
SEIHIN
 62
     3
 48
5.0
100
AcDbCircle
 10
645.5027057451767
 20
113.096123350839
 30
0.0
 40
29.999999
100
AcDbArc
 50
146.4489259999999
 51
179.9757450000001
  0
ARC
  5
252A
330
1A
100
AcDbEntity
  8
NOKITOI
100
AcDbCircle
 10
611.7302490702028
 20
177.9762200216687
 30
0.0
 40
2.999996670831682
100
AcDbArc
 50
270.0000665378031
 51
357.3979379474861
  0
ARC
  5
252B
330
1A
100
AcDbEntity
  8
NOKITOI
100
AcDbCircle
 10
613.9280850781273
 20
175.6762544303561
 30
0.0
 40
2.00003107978152
100
AcDbArc
 50
269.9990682700249
 51
357.3970263848195
  0
ARC
  5
252C
330
1A
100
AcDbEntity
  8
SEIHIN
 62
     3
 48
5.0
100
AcDbCircle
 10
614.1397057451768
 20
175.676223350839
 30
0.0
 40
1.999981
100
AcDbArc
 50
270.0
 51
357.3978279999998
  0
LINE
  5
252D
330
1A
100
AcDbEntity
  8
SEIHIN
 62
     3
 48
5.0
100
AcDbLine
 10
611.6023057451768
 20
244.176223350839
 30
0.0
 11
634.6010057451767
 21
244.176223350839
 31
0.0
  0
LINE
  5
252E
330
1A
100
AcDbEntity
  8
SEIHIN
 62
     3
 48
5.0
100
AcDbLine
 10
617.8356057451767
 20
212.976223350839
 30
0.0
 11
632.6010057451767
 21
212.976223350839
 31
0.0
  0
LINE
  5
252F
330
1A
100
AcDbEntity
  8
NOKITOI
100
AcDbLine
 10
622.5392525541105
 20
218.9763233508391
 30
0.0
 11
622.5392525541105
 21
230.9589233508391
 31
0.0
  0
LINE
  5
2530
330
1A
100
AcDbEntity
  8
NOKITOI
100
AcDbLine
 10
618.5074525541104
 20
232.376323350839
 30
0.0
 11
617.8983525541103
 21
218.9763233508391
 31
0.0
  0
LINE
  5
2531
330
1A
100
AcDbEntity
  8
NOKITOI
100
AcDbLine
 10
623.8392525541104
 20
231.6763233508391
 30
0.0
 11
623.8392525541104
 21
217.0594233508391
 31
0.0
  0
LINE
  5
2532
330
1A
100
AcDbEntity
  8
SEIHIN
 62
     3
 48
5.0
100
AcDbLine
 10
624.5310057451766
 20
217.076223350839
 30
0.0
 11
624.5310057451766
 21
232.176223350839
 31
0.0
  0
ARC
  5
2533
330
1A
100
AcDbEntity
  8
NOKITOI
100
AcDbCircle
 10
623.3392419143369
 20
217.0594173257378
 30
0.0
 40
0.500010639809949
100
AcDbArc
 50
239.0447944605787
 51
0.0006904110642984
  0
LINE
  5
2534
330
1A
100
AcDbEntity
  8
NOKITOI
100
AcDbLine
 10
617.8392525541103
 20
217.676323350839
 30
0.0
 11
621.3392525541103
 21
217.676323350839
 31
0.0
  0
LINE
  5
2535
330
1A
100
AcDbEntity
  8
NOKITOI
100
AcDbLine
 10
621.3392525541103
 20
217.676323350839
 30
0.0
 11
623.0820525541104
 21
216.630623350839
 31
0.0
  0
LINE
  5
2536
330
1A
100
AcDbEntity
  8
NOKITOI
100
AcDbLine
 10
617.8983525541103
 20
218.9763233508391
 30
0.0
 11
622.5392525541105
 21
218.9763233508391
 31
0.0
  0
LINE
  5
2537
330
1A
100
AcDbEntity
  8
SEIHIN
 62
     3
 48
5.0
100
AcDbLine
 10
622.5310057451768
 20
215.0762233508391
 30
0.0
 11
619.3644057451769
 21
215.0762233508391
 31
0.0
  0
ARC
  5
2538
330
1A
100
AcDbEntity
  8
SEIHIN
 62
     3
 48
5.0
100
AcDbCircle
 10
619.3644057451769
 20
213.5762233508391
 30
0.0
 40
1.500020999999999
100
AcDbArc
 50
90.0
 51
177.4017739999998
  0
ARC
  5
2539
330
1A
100
AcDbEntity
  8
SEIHIN
 62
     3
 48
5.0
100
AcDbCircle
 10
622.5310057451768
 20
217.076223350839
 30
0.0
 40
2.0
100
AcDbArc
 50
270.0
 51
0.0
  0
ARC
  5
253A
330
1A
100
AcDbEntity
  8
SEIHIN
 62
     3
 48
5.0
100
AcDbCircle
 10
618.6010057451767
 20
241.038223350839
 30
0.0
 40
8.999972999999997
100
AcDbArc
 50
178.8705569999999
 51
259.9536670000004
  0
ARC
  5
253B
330
1A
100
AcDbEntity
  8
NOKITOI
100
AcDbCircle
 10
617.742944423106
 20
233.1763155809599
 30
0.0
 40
0.5000077699453767
100
AcDbArc
 50
89.9990682700233
 51
177.3970263848191
  0
LINE
  5
253C
330
1A
100
AcDbEntity
  8
SEIHIN
 62
     3
 48
5.0
100
AcDbLine
 10
622.5310057451768
 20
234.176223350839
 30
0.0
 11
617.0310057451766
 21
234.176223350839
 31
0.0
  0
LINE
  5
253D
330
1A
100
AcDbEntity
  8
SEIHIN
 62
     3
 48
5.0
100
AcDbLine
 10
617.0310057451766
 20
234.176223350839
 30
0.0
 11
617.0310057451766
 21
232.176223350839
 31
0.0
  0
LINE
  5
253E
330
1A
100
AcDbEntity
  8
NOKITOI
100
AcDbLine
 10
620.2897525541105
 20
232.376323350839
 30
0.0
 11
618.5074525541104
 21
232.376323350839
 31
0.0
  0
LINE
  5
253F
330
1A
100
AcDbEntity
  8
NOKITOI
100
AcDbLine
 10
617.7429525541104
 20
233.6763233508391
 30
0.0
 11
620.6652525541105
 21
233.6763233508391
 31
0.0
  0
LINE
  5
2540
330
1A
100
AcDbEntity
  8
NOKITOI
100
AcDbLine
 10
620.6652525541105
 20
233.6763233508391
 30
0.0
 11
623.8392525541104
 21
231.6763233508391
 31
0.0
  0
LINE
  5
2541
330
1A
100
AcDbEntity
  8
NOKITOI
100
AcDbLine
 10
622.5392525541105
 20
230.9589233508391
 30
0.0
 11
620.2897525541105
 21
232.376323350839
 31
0.0
  0
ARC
  5
2542
330
1A
100
AcDbEntity
  8
SEIHIN
 62
     3
 48
5.0
100
AcDbCircle
 10
622.5310057451768
 20
232.176223350839
 30
0.0
 40
2.0
100
AcDbArc
 50
0.0
 51
90.0
  0
LINE
  5
2543
330
1A
100
AcDbEntity
  8
SEIHIN
 62
     3
 48
5.0
100
AcDbLine
 10
609.6028057451767
 20
242.215623350839
 30
0.0
 11
609.6027057451768
 21
241.215623350839
 31
0.0
  0
ARC
  5
2544
330
1A
100
AcDbEntity
  8
SEIHIN
 62
     3
 48
5.0
100
AcDbCircle
 10
611.6023057451768
 20
242.176223350839
 30
0.0
 40
1.999993999999999
100
AcDbArc
 50
90.0
 51
178.8711929999998
  0
LINE
  5
2545
330
1A
100
AcDbEntity
  8
SEIHIN
 62
     3
 48
5.0
100
AcDbLine
 10
634.6010057451767
 20
214.976223350839
 30
0.0
 11
634.6010057451767
 21
244.176223350839
 31
0.0
  0
ARC
  5
2546
330
1A
100
AcDbEntity
  8
SEIHIN
 62
     3
 48
5.0
100
AcDbCircle
 10
631.4283057451768
 20
210.976223350839
 30
0.0
 40
2.000035
100
AcDbArc
 50
90.0
 51
177.8796459999997
  0
ARC
  5
2547
330
1A
100
AcDbEntity
  8
SEIHIN
 62
     3
 48
5.0
100
AcDbCircle
 10
632.6010057451767
 20
214.976223350839
 30
0.0
 40
2.0
100
AcDbArc
 50
270.0
 51
0.0
  0
VIEWPORT
  5
22
330
17
100
AcDbEntity
 67
     1
  8
0
100
AcDbViewport
 10
313.6808219178082
 20
148.5
 30
0.0
 40
627.3616438356165
 41
297.0
 68
     2
 69
     1
 12
313.6808219178082
 22
148.5
 13
0.0
 23
0.0
 14
1.0
 24
1.0
 15
10.0
 25
10.0
 16
0.0
 26
0.0
 36
1.0
 17
0.0
 27
0.0
 37
0.0
 42
50.0
 43
0.0
 44
0.0
 45
297.0
 50
0.0
 51
0.0
 72
   100
 90
    32768
  1

281
     0
 71
     1
 74
     0
110
0.0
120
0.0
130
0.0
111
1.0
121
0.0
131
0.0
112
0.0
122
1.0
132
0.0
 79
     0
146
0.0
  0
VIEWPORT
  5
64
330
17
100
AcDbEntity
 67
     1
  8
VIEWPORT
100
AcDbViewport
 10
210.0
 20
148.5
 30
0.0
 40
420.0
 41
297.0
 68
     1
 69
     2
 12
420.0
 22
297.0
 13
0.0
 23
0.0
 14
10.0
 24
10.0
 15
0.0
 25
0.0
 16
0.0
 26
0.0
 36
1.0
 17
0.0
 27
0.0
 37
0.0
 42
50.0
 43
0.0
 44
0.0
 45
605.8799999999998
 50
0.0
 51
0.0
 72
   100
 90
    32768
  1

281
     0
 71
     1
 74
     0
110
0.0
120
0.0
130
0.0
111
1.0
121
0.0
131
0.0
112
0.0
122
1.0
132
0.0
 79
     0
146
0.0
  0
ENDSEC
  0
SECTION
  2
OBJECTS
  0
DICTIONARY
  5
C
330
0
100
AcDbDictionary
281
     1
  3
ACAD_GROUP
350
D
  3
ACAD_LAYOUT
350
C42
  3
ACAD_MLINESTYLE
350
E
  3
ACAD_PLOTSETTINGS
350
C43
  3
ACAD_PLOTSTYLENAME
350
C40
  0
DICTIONARY
  5
D
102
{ACAD_REACTORS
330
C
102
}
330
C
100
AcDbDictionary
281
     1
  0
DICTIONARY
  5
C42
102
{ACAD_REACTORS
330
C
102
}
330
C
100
AcDbDictionary
281
     1
  3
Model
350
26C1
  3
ﾚｲｱｳﾄ1
350
26C2
  0
DICTIONARY
  5
E
102
{ACAD_REACTORS
330
C
102
}
330
C
100
AcDbDictionary
281
     1
  3
STANDARD
350
13
  0
DICTIONARY
  5
C43
102
{ACAD_REACTORS
330
C
102
}
330
C
100
AcDbDictionary
281
     1
  0
ACDBDICTIONARYWDFLT
  5
C40
102
{ACAD_REACTORS
330
C
102
}
330
C
100
AcDbDictionary
281
     1
  3
Normal
350
C41
100
AcDbDictionaryWithDefault
340
C41
1001
ACAD
1000
TREAT_AS_HARD
1070
     0
1000
TREAT_AS_HARD
1070
     0
1000
TREAT_AS_HARD
1070
     0
1000
TREAT_AS_HARD
1070
     0
1000
TREAT_AS_HARD
1070
     0
1000
TREAT_AS_HARD
1070
     0
  0
LAYOUT
  5
26C1
102
{ACAD_REACTORS
330
C42
102
}
330
C42
100
AcDbPlotSettings
  1

  2
EPSON LP-9200C
  4

  6

 40
0.0
 41
0.0
 42
0.0
 43
0.0
 44
0.0
 45
0.0
 46
0.0
 47
0.0
 48
0.0
 49
0.0
140
0.0
141
0.0
142
1.0
143
1.0
 70
  1712
 72
     0
 73
     0
 74
     0
  7

 75
     0
147
1.0
148
0.0
149
0.0
100
AcDbLayout
  1
Model
 70
     1
 71
     0
 10
0.0
 20
0.0
 11
12.0
 21
9.0
 12
0.0
 22
0.0
 32
0.0
 14
0.0
 24
0.0
 34
0.0
 15
0.0
 25
0.0
 35
0.0
146
0.0
 13
0.0
 23
0.0
 33
0.0
 16
1.0
 26
0.0
 36
0.0
 17
0.0
 27
1.0
 37
0.0
 76
     0
330
1A
  0
LAYOUT
  5
26C2
102
{ACAD_REACTORS
330
C42
102
}
330
C42
100
AcDbPlotSettings
  1

  2
EPSON LP-9200C
  4

  6

 40
0.0
 41
0.0
 42
0.0
 43
0.0
 44
0.0
 45
0.0
 46
0.0
 47
0.0
 48
0.0
 49
0.0
140
0.0
141
0.0
142
1.0
143
1.0
 70
   688
 72
     0
 73
     0
 74
     5
  7

 75
    16
147
1.0
148
0.0
149
0.0
100
AcDbLayout
  1
ﾚｲｱｳﾄ1
 70
     1
 71
     1
 10
0.0
 20
0.0
 11
420.0
 21
297.0
 12
0.0
 22
0.0
 32
0.0
 14
0.0
 24
0.0
 34
0.0
 15
420.0
 25
297.0
 35
0.0
146
0.0
 13
0.0
 23
0.0
 33
0.0
 16
1.0
 26
0.0
 36
0.0
 17
0.0
 27
1.0
 37
0.0
 76
     0
330
17
331
64
  0
MLINESTYLE
  5
13
102
{ACAD_REACTORS
330
E
102
}
330
E
100
AcDbMlineStyle
  2
STANDARD
 70
     0
  3

 62
     0
 51
90.0
 52
90.0
 71
     2
 49
0.5
 62
   256
  6
BYLAYER
 49
-0.5
 62
   256
  6
BYLAYER
  0
ACDBPLACEHOLDER
  5
C41
102
{ACAD_REACTORS
330
C40
102
}
330
C40
  0
ENDSEC
  0
EOF
