  0
SECTION
  2
HEADER
  9
$ACADVER
  1
AC1015
  9
$ACADMAINTVER
 70
     6
  9
$DWGCODEPAGE
  3
ANSI_932
  9
$INSBASE
 10
0.0
 20
0.0
 30
0.0
  9
$EXTMIN
 10
0.0000003933412245
 20
-0.0000003446635901
 30
0.0
  9
$EXTMAX
 10
797.6000003933414
 20
551.5999996553366
 30
0.0
  9
$LIMMIN
 10
0.0
 20
0.0
  9
$LIMMAX
 10
840.0
 20
594.0
  9
$ORTHOMODE
 70
     0
  9
$REGENMODE
 70
     1
  9
$FILLMODE
 70
     1
  9
$QTEXTMODE
 70
     0
  9
$MIRRTEXT
 70
     1
  9
$LTSCALE
 40
2.0
  9
$ATTMODE
 70
     1
  9
$TEXTSIZE
 40
5.0
  9
$TRACEWID
 40
1.0
  9
$TEXTSTYLE
  7
STANDARD
  9
$CLAYER
  8
SUNPOU
  9
$CELTYPE
  6
BYLAYER
  9
$CECOLOR
 62
   256
  9
$CELTSCALE
 40
1.0
  9
$DISPSILH
 70
     0
  9
$DIMSCALE
 40
1.0
  9
$DIMASZ
 40
7.0
  9
$DIMEXO
 40
6.0
  9
$DIMDLI
 40
14.0
  9
$DIMRND
 40
0.0
  9
$DIMDLE
 40
0.0
  9
$DIMEXE
 40
3.0
  9
$DIMTP
 40
0.0
  9
$DIMTM
 40
0.0
  9
$DIMTXT
 40
6.0
  9
$DIMCEN
 40
150.0
  9
$DIMTSZ
 40
0.0
  9
$DIMTOL
 70
     0
  9
$DIMLIM
 70
     0
  9
$DIMTIH
 70
     0
  9
$DIMTOH
 70
     0
  9
$DIMSE1
 70
     0
  9
$DIMSE2
 70
     0
  9
$DIMTAD
 70
     3
  9
$DIMZIN
 70
     0
  9
$DIMBLK
  1

  9
$DIMASO
 70
     1
  9
$DIMSHO
 70
     1
  9
$DIMPOST
  1

  9
$DIMAPOST
  1

  9
$DIMALT
 70
     0
  9
$DIMALTD
 70
     2
  9
$DIMALTF
 40
25.4
  9
$DIMLFAC
 40
1.0
  9
$DIMTOFL
 70
     1
  9
$DIMTVP
 40
0.0
  9
$DIMTIX
 70
     0
  9
$DIMSOXD
 70
     0
  9
$DIMSAH
 70
     1
  9
$DIMBLK1
  1
OPEN
  9
$DIMBLK2
  1
OPEN
  9
$DIMSTYLE
  2
STANDARD
  9
$DIMCLRD
 70
   256
  9
$DIMCLRE
 70
   256
  9
$DIMCLRT
 70
   256
  9
$DIMTFAC
 40
1.0
  9
$DIMGAP
 40
2.0
  9
$DIMJUST
 70
     0
  9
$DIMSD1
 70
     0
  9
$DIMSD2
 70
     0
  9
$DIMTOLJ
 70
     1
  9
$DIMTZIN
 70
     0
  9
$DIMALTZ
 70
     0
  9
$DIMALTTZ
 70
     0
  9
$DIMUPT
 70
     0
  9
$DIMDEC
 70
     0
  9
$DIMTDEC
 70
     0
  9
$DIMALTU
 70
     2
  9
$DIMALTTD
 70
     2
  9
$DIMTXSTY
  7
STANDARD
  9
$DIMAUNIT
 70
     0
  9
$DIMADEC
 70
     0
  9
$DIMALTRND
 40
0.0
  9
$DIMAZIN
 70
     0
  9
$DIMDSEP
 70
    46
  9
$DIMATFIT
 70
     3
  9
$DIMFRAC
 70
     0
  9
$DIMLDRBLK
  1
OPEN
  9
$DIMLUNIT
 70
     2
  9
$DIMLWD
 70
    -1
  9
$DIMLWE
 70
    -1
  9
$DIMTMOVE
 70
     2
  9
$LUNITS
 70
     2
  9
$LUPREC
 70
     4
  9
$SKETCHINC
 40
1.0
  9
$FILLETRAD
 40
0.5
  9
$AUNITS
 70
     0
  9
$AUPREC
 70
     0
  9
$MENU
  1
.
  9
$ELEVATION
 40
0.0
  9
$PELEVATION
 40
0.0
  9
$THICKNESS
 40
0.0
  9
$LIMCHECK
 70
     0
  9
$CHAMFERA
 40
20.0
  9
$CHAMFERB
 40
20.0
  9
$CHAMFERC
 40
40.0
  9
$CHAMFERD
 40
0.0
  9
$SKPOLY
 70
     0
  9
$TDCREATE
 40
2451159.855623148
  9
$TDUCREATE
 40
2451159.480623148
  9
$TDUPDATE
 40
2455609.395658657
  9
$TDUUPDATE
 40
2455609.020658657
  9
$TDINDWG
 40
0.1420716435
  9
$TDUSRTIMER
 40
0.1420716435
  9
$USRTIMER
 70
     1
  9
$ANGBASE
 50
0.0
  9
$ANGDIR
 70
     0
  9
$PDMODE
 70
     0
  9
$PDSIZE
 40
0.0
  9
$PLINEWID
 40
0.0
  9
$SPLFRAME
 70
     0
  9
$SPLINETYPE
 70
     6
  9
$SPLINESEGS
 70
     8
  9
$HANDSEED
  5
2B5D
  9
$SURFTAB1
 70
     6
  9
$SURFTAB2
 70
     6
  9
$SURFTYPE
 70
     6
  9
$SURFU
 70
     6
  9
$SURFV
 70
     6
  9
$UCSBASE
  2

  9
$UCSNAME
  2

  9
$UCSORG
 10
0.0
 20
0.0
 30
0.0
  9
$UCSXDIR
 10
1.0
 20
0.0
 30
0.0
  9
$UCSYDIR
 10
0.0
 20
1.0
 30
0.0
  9
$UCSORTHOREF
  2

  9
$UCSORTHOVIEW
 70
     0
  9
$UCSORGTOP
 10
0.0
 20
0.0
 30
0.0
  9
$UCSORGBOTTOM
 10
0.0
 20
0.0
 30
0.0
  9
$UCSORGLEFT
 10
0.0
 20
0.0
 30
0.0
  9
$UCSORGRIGHT
 10
0.0
 20
0.0
 30
0.0
  9
$UCSORGFRONT
 10
0.0
 20
0.0
 30
0.0
  9
$UCSORGBACK
 10
0.0
 20
0.0
 30
0.0
  9
$PUCSBASE
  2

  9
$PUCSNAME
  2

  9
$PUCSORG
 10
0.0
 20
0.0
 30
0.0
  9
$PUCSXDIR
 10
1.0
 20
0.0
 30
0.0
  9
$PUCSYDIR
 10
0.0
 20
1.0
 30
0.0
  9
$PUCSORTHOREF
  2

  9
$PUCSORTHOVIEW
 70
     0
  9
$PUCSORGTOP
 10
0.0
 20
0.0
 30
0.0
  9
$PUCSORGBOTTOM
 10
0.0
 20
0.0
 30
0.0
  9
$PUCSORGLEFT
 10
0.0
 20
0.0
 30
0.0
  9
$PUCSORGRIGHT
 10
0.0
 20
0.0
 30
0.0
  9
$PUCSORGFRONT
 10
0.0
 20
0.0
 30
0.0
  9
$PUCSORGBACK
 10
0.0
 20
0.0
 30
0.0
  9
$USERI1
 70
     0
  9
$USERI2
 70
     0
  9
$USERI3
 70
     0
  9
$USERI4
 70
     0
  9
$USERI5
 70
     0
  9
$USERR1
 40
0.0
  9
$USERR2
 40
0.0
  9
$USERR3
 40
0.0
  9
$USERR4
 40
0.0
  9
$USERR5
 40
0.0
  9
$WORLDVIEW
 70
     1
  9
$SHADEDGE
 70
     3
  9
$SHADEDIF
 70
    70
  9
$TILEMODE
 70
     1
  9
$MAXACTVP
 70
    16
  9
$PINSBASE
 10
0.0
 20
0.0
 30
0.0
  9
$PLIMCHECK
 70
     0
  9
$PEXTMIN
 10
0.0
 20
0.0
 30
0.0
  9
$PEXTMAX
 10
420.0
 20
297.0
 30
0.0
  9
$PLIMMIN
 10
0.0
 20
0.0
  9
$PLIMMAX
 10
420.0
 20
297.0
  9
$UNITMODE
 70
     0
  9
$VISRETAIN
 70
     0
  9
$PLINEGEN
 70
     0
  9
$PSLTSCALE
 70
     1
  9
$TREEDEPTH
 70
  3020
  9
$CMLSTYLE
  2
STANDARD
  9
$CMLJUST
 70
     0
  9
$CMLSCALE
 40
1.0
  9
$PROXYGRAPHICS
 70
     1
  9
$MEASUREMENT
 70
     1
  9
$CELWEIGHT
370
    -1
  9
$ENDCAPS
280
     0
  9
$JOINSTYLE
280
     0
  9
$LWDISPLAY
290
     0
  9
$INSUNITS
 70
     0
  9
$HYPERLINKBASE
  1

  9
$STYLESHEET
  1
print.ctb
  9
$XEDIT
290
     1
  9
$CEPSNTYPE
380
     0
  9
$PSTYLEMODE
290
     1
  9
$FINGERPRINTGUID
  2
{844639E2-177E-11D4-932C-444553540000}
  9
$VERSIONGUID
  2
{EEBE4814-1D0D-4B01-95EF-8472D6E4E82B}
  9
$EXTNAMES
290
     1
  9
$PSVPSCALE
 40
0.0
  9
$OLESTARTUP
290
     0
  0
ENDSEC
  0
SECTION
  2
CLASSES
  0
CLASS
  1
ACDBDICTIONARYWDFLT
  2
AcDbDictionaryWithDefault
  3
ObjectDBX Classes
 90
        0
280
     0
281
     0
  0
CLASS
  1
ACDBPLACEHOLDER
  2
AcDbPlaceHolder
  3
ObjectDBX Classes
 90
        0
280
     0
281
     0
  0
CLASS
  1
LAYOUT
  2
AcDbLayout
  3
ObjectDBX Classes
 90
        0
280
     0
281
     0
  0
CLASS
  1
DUMMY
  2
AcDbLongTransaction
  3
DUMMY
 90
        0
280
     0
281
     0
  0
CLASS
  1
LWPOLYLINE
  2
AcDbPolyline
  3
AutoCAD 2000
 90
        0
280
     0
281
     1
  0
CLASS
  1
HATCH
  2
AcDbHatch
  3
AutoCAD 2000
 90
        0
280
     0
281
     1
  0
CLASS
  1
XRECORD
  2
AcDbXrecord
  3
AutoCAD 2000
 90
        0
280
     0
281
     0
  0
CLASS
  1
DUMMY
  2
AcDbLongTransaction
  3
DUMMY
 90
        0
280
     0
281
     0
  0
CLASS
  1
LWPOLYLINE
  2
AcDbPolyline
  3
AutoCAD 2000
 90
        0
280
     0
281
     1
  0
CLASS
  1
HATCH
  2
AcDbHatch
  3
AutoCAD 2000
 90
        0
280
     0
281
     1
  0
CLASS
  1
XRECORD
  2
AcDbXrecord
  3
AutoCAD 2000
 90
        0
280
     0
281
     0
  0
CLASS
  1
DUMMY
  2
AcDbLongTransaction
  3
DUMMY
 90
        0
280
     0
281
     0
  0
CLASS
  1
LWPOLYLINE
  2
AcDbPolyline
  3
AutoCAD 2000
 90
        0
280
     0
281
     1
  0
CLASS
  1
HATCH
  2
AcDbHatch
  3
AutoCAD 2000
 90
        0
280
     0
281
     1
  0
CLASS
  1
XRECORD
  2
AcDbXrecord
  3
AutoCAD 2000
 90
        0
280
     0
281
     0
  0
CLASS
  1
DUMMY
  2
AcDbLongTransaction
  3
DUMMY
 90
        0
280
     0
281
     0
  0
CLASS
  1
LWPOLYLINE
  2
AcDbPolyline
  3
AutoCAD 2000
 90
        0
280
     0
281
     1
  0
CLASS
  1
HATCH
  2
AcDbHatch
  3
AutoCAD 2000
 90
        0
280
     0
281
     1
  0
CLASS
  1
XRECORD
  2
AcDbXrecord
  3
AutoCAD 2000
 90
        0
280
     0
281
     0
  0
CLASS
  1
DUMMY
  2
AcDbLongTransaction
  3
DUMMY
 90
        0
280
     0
281
     0
  0
CLASS
  1
LWPOLYLINE
  2
AcDbPolyline
  3
AutoCAD 2000
 90
        0
280
     0
281
     1
  0
CLASS
  1
HATCH
  2
AcDbHatch
  3
AutoCAD 2000
 90
        0
280
     0
281
     1
  0
CLASS
  1
XRECORD
  2
AcDbXrecord
  3
AutoCAD 2000
 90
        0
280
     0
281
     0
  0
CLASS
  1
DUMMY
  2
AcDbLongTransaction
  3
DUMMY
 90
        0
280
     0
281
     0
  0
CLASS
  1
LWPOLYLINE
  2
AcDbPolyline
  3
AutoCAD 2000
 90
        0
280
     0
281
     1
  0
CLASS
  1
HATCH
  2
AcDbHatch
  3
AutoCAD 2000
 90
        0
280
     0
281
     1
  0
CLASS
  1
XRECORD
  2
AcDbXrecord
  3
AutoCAD 2000
 90
        0
280
     0
281
     0
  0
ENDSEC
  0
SECTION
  2
TABLES
  0
TABLE
  2
VPORT
  5
8
330
0
100
AcDbSymbolTable
 70
     2
  0
VPORT
  5
2B5C
330
8
100
AcDbSymbolTableRecord
100
AcDbViewportTableRecord
  2
*Active
 70
     0
 10
0.0
 20
0.0
 11
1.0
 21
1.0
 12
406.6520987013937
 22
304.2040083774252
 13
0.0
 23
0.0
 14
5.0
 24
5.0
 15
0.0
 25
0.0
 16
0.0
 26
0.0
 36
1.0
 17
0.0
 27
0.0
 37
0.0
 40
637.2603514302036
 41
1.651537335285505
 42
50.0
 43
0.0
 44
0.0
 50
0.0
 51
0.0
 71
     0
 72
   100
 73
     1
 74
     0
 75
     0
 76
     0
 77
     0
 78
     0
281
     0
 65
     1
110
0.0
120
0.0
130
0.0
111
1.0
121
0.0
131
0.0
112
0.0
122
1.0
132
0.0
 79
     0
146
0.0
  0
ENDTAB
  0
TABLE
  2
LTYPE
  5
5
330
0
100
AcDbSymbolTable
 70
     3
  0
LTYPE
  5
14
330
5
100
AcDbSymbolTableRecord
100
AcDbLinetypeTableRecord
  2
BYBLOCK
 70
     0
  3

 72
    65
 73
     0
 40
0.0
  0
LTYPE
  5
15
330
5
100
AcDbSymbolTableRecord
100
AcDbLinetypeTableRecord
  2
BYLAYER
 70
     0
  3

 72
    65
 73
     0
 40
0.0
  0
LTYPE
  5
16
330
5
100
AcDbSymbolTableRecord
100
AcDbLinetypeTableRecord
  2
CONTINUOUS
 70
     0
  3
Solid line
 72
    65
 73
     0
 40
0.0
  0
LTYPE
  5
115
330
5
100
AcDbSymbolTableRecord
100
AcDbLinetypeTableRecord
  2
PHANTOM
 70
     0
  3
______  __  __  ______  __  __  ______  __  __ 
 72
    65
 73
     6
 40
2.5
 49
1.25
 74
     0
 49
-0.25
 74
     0
 49
0.25
 74
     0
 49
-0.25
 74
     0
 49
0.25
 74
     0
 49
-0.25
 74
     0
  0
LTYPE
  5
135
330
5
100
AcDbSymbolTableRecord
100
AcDbLinetypeTableRecord
  2
CENTER
 70
     0
  3
____ _ ____ _ ____ _ ____ _ ____ _ ____ _ ____ 
 72
    65
 73
     4
 40
2.0
 49
1.25
 74
     0
 49
-0.25
 74
     0
 49
0.25
 74
     0
 49
-0.25
 74
     0
  0
ENDTAB
  0
TABLE
  2
LAYER
  5
2
330
0
100
AcDbSymbolTable
 70
     9
  0
LAYER
  5
F
330
2
100
AcDbSymbolTableRecord
100
AcDbLayerTableRecord
  2
0
 70
     0
 62
     7
  6
CONTINUOUS
370
    -3
390
C41
  0
LAYER
  5
62
330
2
100
AcDbSymbolTableRecord
100
AcDbLayerTableRecord
  2
VIEWPORT
 70
     0
 62
     7
  6
CONTINUOUS
370
    -3
390
C41
  0
LAYER
  5
65
330
2
100
AcDbSymbolTableRecord
100
AcDbLayerTableRecord
  2
ZUWAKU
 70
     0
 62
     7
  6
CONTINUOUS
370
    -3
390
C41
  0
LAYER
  5
143
330
2
100
AcDbSymbolTableRecord
100
AcDbLayerTableRecord
  2
NOKITOI
 70
     0
 62
     9
  6
PHANTOM
370
    -3
390
C41
  0
LAYER
  5
144
330
2
100
AcDbSymbolTableRecord
100
AcDbLayerTableRecord
  2
SEIHIN
 70
     0
 62
     3
  6
CONTINUOUS
370
    -3
390
C41
  0
LAYER
  5
3CD
330
2
100
AcDbSymbolTableRecord
100
AcDbLayerTableRecord
  2
CENTER L
 70
     0
 62
     1
  6
CENTER
370
    -3
390
C41
  0
LAYER
  5
3CE
330
2
100
AcDbSymbolTableRecord
100
AcDbLayerTableRecord
  2
SUNPOU
 70
     0
 62
     4
  6
CONTINUOUS
370
    -3
390
C41
  0
LAYER
  5
6E3
330
2
100
AcDbSymbolTableRecord
100
AcDbLayerTableRecord
  2
DEFPOINTS
 70
     0
 62
     7
  6
CONTINUOUS
290
     0
370
    -3
390
C41
  0
LAYER
  5
15FD
330
2
100
AcDbSymbolTableRecord
100
AcDbLayerTableRecord
  2
moji
 70
     0
 62
     2
  6
CONTINUOUS
370
    -3
390
C41
  0
ENDTAB
  0
TABLE
  2
STYLE
  5
3
330
0
100
AcDbSymbolTable
 70
     2
  0
STYLE
  5
10
330
3
100
AcDbSymbolTableRecord
100
AcDbTextStyleTableRecord
  2
STANDARD
 70
     0
 40
0.0
 41
1.0
 50
0.0
 71
     0
 42
5.0
  3
TXT
  4
a:\program files\autocad lt\ms\bigfont.shx
  0
STYLE
  5
15FE
330
3
100
AcDbSymbolTableRecord
100
AcDbTextStyleTableRecord
  2
ｽﾀｲﾙ1
 70
     0
 40
0.0
 41
1.0
 50
0.0
 71
     0
 42
2.5
  3
MS PGothic.ttf
  4

1001
ACAD
1000
MS PGothic
1071
    32818
  0
ENDTAB
  0
TABLE
  2
VIEW
  5
6
330
0
100
AcDbSymbolTable
 70
     0
  0
ENDTAB
  0
TABLE
  2
UCS
  5
7
330
0
100
AcDbSymbolTable
 70
     0
  0
ENDTAB
  0
TABLE
  2
APPID
  5
9
330
0
100
AcDbSymbolTable
 70
     1
  0
APPID
  5
11
330
9
100
AcDbSymbolTableRecord
100
AcDbRegAppTableRecord
  2
ACAD
 70
     0
  0
ENDTAB
  0
TABLE
  2
DIMSTYLE
  5
A
330
0
100
AcDbSymbolTable
 70
     1
100
AcDbDimStyleTable
  0
DIMSTYLE
105
1D
102
{ACAD_REACTORS
330
2002
330
200B
330
200C
330
201F
330
2022
330
2034
330
28B1
330
28B2
330
28B3
330
28EE
330
2983
330
2984
330
2985
330
2986
330
2987
330
2988
330
298C
330
299A
330
299B
330
29A2
330
29DE
102
}
330
A
100
AcDbSymbolTableRecord
100
AcDbDimStyleTableRecord
  2
STANDARD
 70
     0
340
10
  0
ENDTAB
  0
TABLE
  2
BLOCK_RECORD
  5
1
330
0
100
AcDbSymbolTable
 70
    22
  0
BLOCK_RECORD
  5
1A
330
1
100
AcDbSymbolTableRecord
100
AcDbBlockTableRecord
  2
*MODEL_SPACE
340
C44
  0
BLOCK_RECORD
  5
17
330
1
100
AcDbSymbolTableRecord
100
AcDbBlockTableRecord
  2
*PAPER_SPACE
340
C45
  0
BLOCK_RECORD
  5
6D
330
1
100
AcDbSymbolTableRecord
100
AcDbBlockTableRecord
  2
_OPEN
340
0
102
{BLKREFS
331
2173
331
2174
331
217C
331
217D
331
2185
331
2186
331
218E
331
218F
331
2197
331
2198
331
21A2
331
21A3
331
2ACC
331
2ACD
331
2AD5
331
2AD6
331
2ADE
331
2ADF
331
2AE7
331
2AE8
331
2AF0
331
2AF1
331
2AF9
331
2AFA
331
2B02
331
2B03
331
2B0B
331
2B0C
331
2B16
331
2B17
331
2B1F
331
2B20
331
2B28
331
2B29
331
2B33
331
2B34
331
2B3C
331
2B3D
331
2B45
331
2B46
331
2B50
331
2B51
102
}
  0
BLOCK_RECORD
  5
20CA
330
1
100
AcDbSymbolTableRecord
100
AcDbBlockTableRecord
  2
*D1
340
0
  0
BLOCK_RECORD
  5
20D6
330
1
100
AcDbSymbolTableRecord
100
AcDbBlockTableRecord
  2
*D2
340
0
  0
BLOCK_RECORD
  5
20E2
330
1
100
AcDbSymbolTableRecord
100
AcDbBlockTableRecord
  2
*D3
340
0
  0
BLOCK_RECORD
  5
20EE
330
1
100
AcDbSymbolTableRecord
100
AcDbBlockTableRecord
  2
*D4
340
0
  0
BLOCK_RECORD
  5
20FA
330
1
100
AcDbSymbolTableRecord
100
AcDbBlockTableRecord
  2
*D5
340
0
  0
BLOCK_RECORD
  5
2106
330
1
100
AcDbSymbolTableRecord
100
AcDbBlockTableRecord
  2
*D6
340
0
  0
BLOCK_RECORD
  5
2A0F
330
1
100
AcDbSymbolTableRecord
100
AcDbBlockTableRecord
  2
*D7
340
0
  0
BLOCK_RECORD
  5
2A1B
330
1
100
AcDbSymbolTableRecord
100
AcDbBlockTableRecord
  2
*D8
340
0
  0
BLOCK_RECORD
  5
2A27
330
1
100
AcDbSymbolTableRecord
100
AcDbBlockTableRecord
  2
*D9
340
0
  0
BLOCK_RECORD
  5
2A33
330
1
100
AcDbSymbolTableRecord
100
AcDbBlockTableRecord
  2
*D10
340
0
  0
BLOCK_RECORD
  5
2A3F
330
1
100
AcDbSymbolTableRecord
100
AcDbBlockTableRecord
  2
*D11
340
0
  0
BLOCK_RECORD
  5
2A4B
330
1
100
AcDbSymbolTableRecord
100
AcDbBlockTableRecord
  2
*D12
340
0
  0
BLOCK_RECORD
  5
2A57
330
1
100
AcDbSymbolTableRecord
100
AcDbBlockTableRecord
  2
*D13
340
0
  0
BLOCK_RECORD
  5
2A63
330
1
100
AcDbSymbolTableRecord
100
AcDbBlockTableRecord
  2
*D14
340
0
  0
BLOCK_RECORD
  5
2A6F
330
1
100
AcDbSymbolTableRecord
100
AcDbBlockTableRecord
  2
*D15
340
0
  0
BLOCK_RECORD
  5
2A7D
330
1
100
AcDbSymbolTableRecord
100
AcDbBlockTableRecord
  2
*D16
340
0
  0
BLOCK_RECORD
  5
2A89
330
1
100
AcDbSymbolTableRecord
100
AcDbBlockTableRecord
  2
*D17
340
0
  0
BLOCK_RECORD
  5
2A95
330
1
100
AcDbSymbolTableRecord
100
AcDbBlockTableRecord
  2
*D18
340
0
  0
BLOCK_RECORD
  5
2AA3
330
1
100
AcDbSymbolTableRecord
100
AcDbBlockTableRecord
  2
*D19
340
0
  0
BLOCK_RECORD
  5
2AAF
330
1
100
AcDbSymbolTableRecord
100
AcDbBlockTableRecord
  2
*D20
340
0
  0
BLOCK_RECORD
  5
2ABB
330
1
100
AcDbSymbolTableRecord
100
AcDbBlockTableRecord
  2
*D21
340
0
  0
ENDTAB
  0
ENDSEC
  0
SECTION
  2
BLOCKS
  0
BLOCK
  5
1B
330
1A
100
AcDbEntity
  8
0
100
AcDbBlockBegin
  2
*MODEL_SPACE
 70
     0
 71
     0
 10
0.0
 20
0.0
 30
0.0
  3
*MODEL_SPACE
  1

  0
ENDBLK
  5
1C
330
1A
100
AcDbEntity
  8
0
100
AcDbBlockEnd
  0
BLOCK
  5
18
330
17
100
AcDbEntity
 67
     1
  8
0
100
AcDbBlockBegin
  2
*PAPER_SPACE
 70
     0
 71
     0
 10
0.0
 20
0.0
 30
0.0
  3
*PAPER_SPACE
  1

  0
ENDBLK
  5
19
330
17
100
AcDbEntity
 67
     1
  8
0
100
AcDbBlockEnd
  0
BLOCK
  5
6E
330
6D
100
AcDbEntity
  8
0
100
AcDbBlockBegin
  2
_OPEN
 70
     0
 71
     0
 10
0.0
 20
0.0
 30
0.0
  3
_OPEN
  1

  0
LINE
  5
6F
330
6D
100
AcDbEntity
  8
0
  6
ByBlock
 62
     0
100
AcDbLine
 10
-1.0
 20
0.1666666666666667
 30
0.0
 11
0.0
 21
0.0
 31
0.0
  0
LINE
  5
70
330
6D
100
AcDbEntity
  8
0
  6
ByBlock
 62
     0
100
AcDbLine
 10
0.0
 20
0.0
 30
0.0
 11
-1.0
 21
-0.1666666666666667
 31
0.0
  0
LINE
  5
71
330
6D
100
AcDbEntity
  8
0
  6
ByBlock
 62
     0
100
AcDbLine
 10
0.0
 20
0.0
 30
0.0
 11
-1.0
 21
0.0
 31
0.0
  0
ENDBLK
  5
72
330
6D
100
AcDbEntity
  8
0
100
AcDbBlockEnd
  0
BLOCK
  5
20D4
330
20CA
100
AcDbEntity
  8
0
100
AcDbBlockBegin
  2
*D1
 70
     1
 71
     0
 10
0.0
 20
0.0
 30
0.0
  3
*D1
  1

  0
LINE
  5
2170
330
20CA
100
AcDbEntity
  8
SUNPOU
 62
     4
370
    -2
100
AcDbLine
 10
530.6116922931437
 20
453.2854054052098
 30
0.0
 11
530.6116922931437
 21
489.7506008261465
 31
0.0
  0
LINE
  5
2171
330
20CA
100
AcDbEntity
  8
SUNPOU
 62
     4
370
    -2
100
AcDbLine
 10
600.6116922931437
 20
453.2854054052098
 30
0.0
 11
600.6116922931437
 21
489.7506008261465
 31
0.0
  0
LINE
  5
2172
330
20CA
100
AcDbEntity
  8
SUNPOU
 62
     4
370
    -2
100
AcDbLine
 10
534.1116922931437
 20
488.2506008261465
 30
0.0
 11
597.1116922931437
 21
488.2506008261465
 31
0.0
  0
INSERT
  5
2173
330
20CA
100
AcDbEntity
  8
SUNPOU
 62
     4
370
    -2
100
AcDbBlockReference
  2
_OPEN
 10
530.6116922931437
 20
488.2506008261465
 30
0.0
 41
3.5
 42
3.5
 43
3.5
 50
180.0
  0
INSERT
  5
2174
330
20CA
100
AcDbEntity
  8
SUNPOU
 62
     4
370
    -2
100
AcDbBlockReference
  2
_OPEN
 10
600.6116922931437
 20
488.2506008261465
 30
0.0
 41
3.5
 42
3.5
 43
3.5
  0
MTEXT
  5
2175
330
20CA
100
AcDbEntity
  8
SUNPOU
 62
     4
100
AcDbMText
 10
565.6116922931437
 20
492.2506008261465
 30
0.0
 40
6.0
 41
0.0
 71
     5
 72
     1
  1
\A1;70
 73
     1
 44
1.0
  0
POINT
  5
2176
330
20CA
100
AcDbEntity
  8
DEFPOINTS
 62
     0
100
AcDbPoint
 10
530.6116922931437
 20
450.2854054052098
 30
0.0
  0
POINT
  5
2177
330
20CA
100
AcDbEntity
  8
DEFPOINTS
 62
     0
100
AcDbPoint
 10
600.6116922931437
 20
450.2854054052098
 30
0.0
  0
POINT
  5
2178
330
20CA
100
AcDbEntity
  8
DEFPOINTS
 62
     0
100
AcDbPoint
 10
600.6116922931437
 20
488.2506008261465
 30
0.0
  0
ENDBLK
  5
20D5
330
20CA
100
AcDbEntity
  8
0
100
AcDbBlockEnd
  0
BLOCK
  5
20E0
330
20D6
100
AcDbEntity
  8
0
100
AcDbBlockBegin
  2
*D2
 70
     1
 71
     0
 10
0.0
 20
0.0
 30
0.0
  3
*D2
  1

  0
LINE
  5
2179
330
20D6
100
AcDbEntity
  8
SUNPOU
 62
     4
370
    -2
100
AcDbLine
 10
603.6116922931437
 20
450.2854054052098
 30
0.0
 11
615.8716755349431
 21
450.2854054052098
 31
0.0
  0
LINE
  5
217A
330
20D6
100
AcDbEntity
  8
SUNPOU
 62
     4
370
    -2
100
AcDbLine
 10
591.2597831592437
 20
432.2854054052097
 30
0.0
 11
615.8716755349431
 21
432.2854054052097
 31
0.0
  0
LINE
  5
217B
330
20D6
100
AcDbEntity
  8
SUNPOU
 62
     4
370
    -2
100
AcDbLine
 10
614.3716755349431
 20
446.7854054052098
 30
0.0
 11
614.3716755349431
 21
435.7854054052097
 31
0.0
  0
INSERT
  5
217C
330
20D6
100
AcDbEntity
  8
SUNPOU
 62
     4
370
    -2
100
AcDbBlockReference
  2
_OPEN
 10
614.3716755349431
 20
450.2854054052098
 30
0.0
 41
3.5
 42
3.5
 43
3.5
 50
90.0
  0
INSERT
  5
217D
330
20D6
100
AcDbEntity
  8
SUNPOU
 62
     4
370
    -2
100
AcDbBlockReference
  2
_OPEN
 10
614.3716755349431
 20
432.2854054052097
 30
0.0
 41
3.5
 42
3.5
 43
3.5
 50
270.0
  0
MTEXT
  5
217E
330
20D6
100
AcDbEntity
  8
SUNPOU
 62
     4
100
AcDbMText
 10
610.3716755349429
 20
441.2854054052098
 30
0.0
 40
6.0
 41
0.0
 71
     5
 72
     1
  1
\A1;18
 11
6.123031769111886E-17
 21
1.0
 31
0.0
 73
     1
 44
1.0
  0
POINT
  5
217F
330
20D6
100
AcDbEntity
  8
DEFPOINTS
 62
     0
100
AcDbPoint
 10
600.6116922931437
 20
450.2854054052098
 30
0.0
  0
POINT
  5
2180
330
20D6
100
AcDbEntity
  8
DEFPOINTS
 62
     0
100
AcDbPoint
 10
588.2597831592437
 20
432.2854054052097
 30
0.0
  0
POINT
  5
2181
330
20D6
100
AcDbEntity
  8
DEFPOINTS
 62
     0
100
AcDbPoint
 10
614.3716755349431
 20
432.2854054052097
 30
0.0
  0
ENDBLK
  5
20E1
330
20D6
100
AcDbEntity
  8
0
100
AcDbBlockEnd
  0
BLOCK
  5
20EC
330
20E2
100
AcDbEntity
  8
0
100
AcDbBlockBegin
  2
*D3
 70
     1
 71
     0
 10
0.0
 20
0.0
 30
0.0
  3
*D3
  1

  0
LINE
  5
2182
330
20E2
100
AcDbEntity
  8
SUNPOU
 62
     4
370
    -2
100
AcDbLine
 10
561.6116922931437
 20
460.2854054052098
 30
0.0
 11
628.8148895007613
 21
460.2854054052098
 31
0.0
  0
LINE
  5
2183
330
20E2
100
AcDbEntity
  8
SUNPOU
 62
     4
370
    -2
100
AcDbLine
 10
568.6116922931437
 20
430.2854054052098
 30
0.0
 11
628.8148895007613
 21
430.2854054052098
 31
0.0
  0
LINE
  5
2184
330
20E2
100
AcDbEntity
  8
SUNPOU
 62
     4
370
    -2
100
AcDbLine
 10
627.3148895007613
 20
456.7854054052098
 30
0.0
 11
627.3148895007613
 21
433.7854054052098
 31
0.0
  0
INSERT
  5
2185
330
20E2
100
AcDbEntity
  8
SUNPOU
 62
     4
370
    -2
100
AcDbBlockReference
  2
_OPEN
 10
627.3148895007613
 20
460.2854054052098
 30
0.0
 41
3.5
 42
3.5
 43
3.5
 50
90.0
  0
INSERT
  5
2186
330
20E2
100
AcDbEntity
  8
SUNPOU
 62
     4
370
    -2
100
AcDbBlockReference
  2
_OPEN
 10
627.3148895007613
 20
430.2854054052098
 30
0.0
 41
3.5
 42
3.5
 43
3.5
 50
270.0
  0
MTEXT
  5
2187
330
20E2
100
AcDbEntity
  8
SUNPOU
 62
     4
100
AcDbMText
 10
623.3148895007612
 20
445.2854054052098
 30
0.0
 40
6.0
 41
0.0
 71
     5
 72
     1
  1
\A1;30
 11
6.123031769111886E-17
 21
1.0
 31
0.0
 73
     1
 44
1.0
  0
POINT
  5
2188
330
20E2
100
AcDbEntity
  8
DEFPOINTS
 62
     0
100
AcDbPoint
 10
558.6116922931437
 20
460.2854054052098
 30
0.0
  0
POINT
  5
2189
330
20E2
100
AcDbEntity
  8
DEFPOINTS
 62
     0
100
AcDbPoint
 10
565.6116922931437
 20
430.2854054052098
 30
0.0
  0
POINT
  5
218A
330
20E2
100
AcDbEntity
  8
DEFPOINTS
 62
     0
100
AcDbPoint
 10
627.3148895007613
 20
430.2854054052098
 30
0.0
  0
ENDBLK
  5
20ED
330
20E2
100
AcDbEntity
  8
0
100
AcDbBlockEnd
  0
BLOCK
  5
20F8
330
20EE
100
AcDbEntity
  8
0
100
AcDbBlockBegin
  2
*D4
 70
     1
 71
     0
 10
0.0
 20
0.0
 30
0.0
  3
*D4
  1

  0
LINE
  5
218B
330
20EE
100
AcDbEntity
  8
SUNPOU
 62
     4
370
    -2
100
AcDbLine
 10
555.6116922931437
 20
460.2854054052098
 30
0.0
 11
555.6116922931437
 21
473.8672851621869
 31
0.0
  0
LINE
  5
218C
330
20EE
100
AcDbEntity
  8
SUNPOU
 62
     4
370
    -2
100
AcDbLine
 10
575.6116922931437
 20
460.2854054052098
 30
0.0
 11
575.6116922931437
 21
473.8672851621869
 31
0.0
  0
LINE
  5
218D
330
20EE
100
AcDbEntity
  8
SUNPOU
 62
     4
370
    -2
100
AcDbLine
 10
559.1116922931437
 20
472.3672851621869
 30
0.0
 11
572.1116922931437
 21
472.3672851621869
 31
0.0
  0
INSERT
  5
218E
330
20EE
100
AcDbEntity
  8
SUNPOU
 62
     4
370
    -2
100
AcDbBlockReference
  2
_OPEN
 10
555.6116922931437
 20
472.3672851621869
 30
0.0
 41
3.5
 42
3.5
 43
3.5
 50
180.0
  0
INSERT
  5
218F
330
20EE
100
AcDbEntity
  8
SUNPOU
 62
     4
370
    -2
100
AcDbBlockReference
  2
_OPEN
 10
575.6116922931437
 20
472.3672851621869
 30
0.0
 41
3.5
 42
3.5
 43
3.5
  0
MTEXT
  5
2190
330
20EE
100
AcDbEntity
  8
SUNPOU
 62
     4
100
AcDbMText
 10
565.6116922931437
 20
476.3672851621869
 30
0.0
 40
6.0
 41
0.0
 71
     5
 72
     1
  1
\A1;20
 73
     1
 44
1.0
  0
POINT
  5
2191
330
20EE
100
AcDbEntity
  8
DEFPOINTS
 62
     0
100
AcDbPoint
 10
555.6116922931437
 20
457.2854054052098
 30
0.0
  0
POINT
  5
2192
330
20EE
100
AcDbEntity
  8
DEFPOINTS
 62
     0
100
AcDbPoint
 10
575.6116922931437
 20
457.2854054052098
 30
0.0
  0
POINT
  5
2193
330
20EE
100
AcDbEntity
  8
DEFPOINTS
 62
     0
100
AcDbPoint
 10
575.6116922931437
 20
472.3672851621869
 30
0.0
  0
ENDBLK
  5
20F9
330
20EE
100
AcDbEntity
  8
0
100
AcDbBlockEnd
  0
BLOCK
  5
2104
330
20FA
100
AcDbEntity
  8
0
100
AcDbBlockBegin
  2
*D5
 70
     1
 71
     0
 10
0.0
 20
0.0
 30
0.0
  3
*D5
  1

  0
LINE
  5
2194
330
20FA
100
AcDbEntity
  8
SUNPOU
 62
     4
370
    -2
100
AcDbLine
 10
585.6116922931437
 20
453.2854054052098
 30
0.0
 11
585.6116922931437
 21
473.8672851621869
 31
0.0
  0
LINE
  5
2195
330
20FA
100
AcDbEntity
  8
SUNPOU
 62
     4
370
    -2
100
AcDbLine
 10
600.6116922931437
 20
453.2854054052098
 30
0.0
 11
600.6116922931437
 21
473.8672851621869
 31
0.0
  0
LINE
  5
2196
330
20FA
100
AcDbEntity
  8
SUNPOU
 62
     4
370
    -2
100
AcDbLine
 10
589.1116922931437
 20
472.3672851621869
 30
0.0
 11
597.1116922931437
 21
472.3672851621869
 31
0.0
  0
INSERT
  5
2197
330
20FA
100
AcDbEntity
  8
SUNPOU
 62
     4
370
    -2
100
AcDbBlockReference
  2
_OPEN
 10
585.6116922931437
 20
472.3672851621869
 30
0.0
 41
3.5
 42
3.5
 43
3.5
 50
180.0
  0
INSERT
  5
2198
330
20FA
100
AcDbEntity
  8
SUNPOU
 62
     4
370
    -2
100
AcDbBlockReference
  2
_OPEN
 10
600.6116922931437
 20
472.3672851621869
 30
0.0
 41
3.5
 42
3.5
 43
3.5
  0
MTEXT
  5
2199
330
20FA
100
AcDbEntity
  8
SUNPOU
 62
     4
100
AcDbMText
 10
593.1116922931437
 20
476.3672851621869
 30
0.0
 40
6.0
 41
0.0
 71
     5
 72
     1
  1
\A1;15
 73
     1
 44
1.0
  0
POINT
  5
219A
330
20FA
100
AcDbEntity
  8
DEFPOINTS
 62
     0
100
AcDbPoint
 10
585.6116922931437
 20
450.2854054052098
 30
0.0
  0
POINT
  5
219B
330
20FA
100
AcDbEntity
  8
DEFPOINTS
 62
     0
100
AcDbPoint
 10
600.6116922931437
 20
450.2854054052098
 30
0.0
  0
POINT
  5
219C
330
20FA
100
AcDbEntity
  8
DEFPOINTS
 62
     0
100
AcDbPoint
 10
600.6116922931437
 20
472.3672851621869
 30
0.0
  0
ENDBLK
  5
2105
330
20FA
100
AcDbEntity
  8
0
100
AcDbBlockEnd
  0
BLOCK
  5
2112
330
2106
100
AcDbEntity
  8
0
100
AcDbBlockBegin
  2
*D6
 70
     1
 71
     0
 10
0.0
 20
0.0
 30
0.0
  3
*D6
  1

  0
LINE
  5
219D
330
2106
100
AcDbEntity
  8
SUNPOU
 62
     4
370
    -2
100
AcDbLine
 10
652.2070764990158
 20
461.7854054052098
 30
0.0
 11
652.2070764990158
 21
473.8672851621869
 31
0.0
  0
LINE
  5
219E
330
2106
100
AcDbEntity
  8
SUNPOU
 62
     4
370
    -2
100
AcDbLine
 10
660.207076499016
 20
451.7854054052097
 30
0.0
 11
660.207076499016
 21
473.8672851621869
 31
0.0
  0
LINE
  5
219F
330
2106
100
AcDbEntity
  8
SUNPOU
 62
     4
370
    -2
100
AcDbLine
 10
648.7070764990158
 20
472.3672851621869
 30
0.0
 11
645.2070764990158
 21
472.3672851621869
 31
0.0
  0
LINE
  5
21A0
330
2106
100
AcDbEntity
  8
SUNPOU
 62
     4
370
    -2
100
AcDbLine
 10
663.707076499016
 20
472.3672851621869
 30
0.0
 11
667.207076499016
 21
472.3672851621869
 31
0.0
  0
LINE
  5
21A1
330
2106
100
AcDbEntity
  8
SUNPOU
 62
     4
370
    -2
100
AcDbLine
 10
652.2070764990158
 20
472.3672851621869
 30
0.0
 11
660.207076499016
 21
472.3672851621869
 31
0.0
  0
INSERT
  5
21A2
330
2106
100
AcDbEntity
  8
SUNPOU
 62
     4
370
    -2
100
AcDbBlockReference
  2
_OPEN
 10
652.2070764990158
 20
472.3672851621869
 30
0.0
 41
3.5
 42
3.5
 43
3.5
  0
INSERT
  5
21A3
330
2106
100
AcDbEntity
  8
SUNPOU
 62
     4
370
    -2
100
AcDbBlockReference
  2
_OPEN
 10
660.207076499016
 20
472.3672851621869
 30
0.0
 41
3.5
 42
3.5
 43
3.5
 50
180.0
  0
MTEXT
  5
21A4
330
2106
100
AcDbEntity
  8
SUNPOU
 62
     4
100
AcDbMText
 10
656.2070764990159
 20
476.3672851621869
 30
0.0
 40
6.0
 41
0.0
 71
     5
 72
     1
  1
\A1;8
 73
     1
 44
1.0
  0
POINT
  5
21A5
330
2106
100
AcDbEntity
  8
DEFPOINTS
 62
     0
100
AcDbPoint
 10
652.2070764990158
 20
458.7854054052098
 30
0.0
  0
POINT
  5
21A6
330
2106
100
AcDbEntity
  8
DEFPOINTS
 62
     0
100
AcDbPoint
 10
660.207076499016
 20
448.7854054052097
 30
0.0
  0
POINT
  5
21A7
330
2106
100
AcDbEntity
  8
DEFPOINTS
 62
     0
100
AcDbPoint
 10
660.207076499016
 20
472.3672851621869
 30
0.0
  0
ENDBLK
  5
2113
330
2106
100
AcDbEntity
  8
0
100
AcDbBlockEnd
  0
BLOCK
  5
2A19
330
2A0F
100
AcDbEntity
  8
0
100
AcDbBlockBegin
  2
*D7
 70
     1
 71
     0
 10
0.0
 20
0.0
 30
0.0
  3
*D7
  1

  0
LINE
  5
2AC9
330
2A0F
100
AcDbEntity
  8
SUNPOU
 62
     4
370
    -2
100
AcDbLine
 10
475.7491334281555
 20
269.9478934930352
 30
0.0
 11
399.7487716817064
 21
269.9478934930352
 31
0.0
  0
LINE
  5
2ACA
330
2A0F
100
AcDbEntity
  8
SUNPOU
 62
     4
370
    -2
100
AcDbLine
 10
556.3990334281555
 20
88.04799349303522
 30
0.0
 11
399.7487716817063
 21
88.04799349303528
 31
0.0
  0
LINE
  5
2ACB
330
2A0F
100
AcDbEntity
  8
SUNPOU
 62
     4
370
    -2
100
AcDbLine
 10
402.7487716817064
 20
262.9478934930352
 30
0.0
 11
402.7487716817063
 21
95.04799349303528
 31
0.0
  0
INSERT
  5
2ACC
330
2A0F
100
AcDbEntity
  8
SUNPOU
 62
     4
370
    -2
100
AcDbBlockReference
  2
_OPEN
 10
402.7487716817064
 20
269.9478934930352
 30
0.0
 41
7.0
 42
7.0
 43
7.0
 50
90.0
  0
INSERT
  5
2ACD
330
2A0F
100
AcDbEntity
  8
SUNPOU
 62
     4
370
    -2
100
AcDbBlockReference
  2
_OPEN
 10
402.7487716817063
 20
88.04799349303528
 30
0.0
 41
7.0
 42
7.0
 43
7.0
 50
270.0
  0
MTEXT
  5
2ACE
330
2A0F
100
AcDbEntity
  8
SUNPOU
 62
     4
100
AcDbMText
 10
397.7487716817063
 20
178.9979434930353
 30
0.0
 40
6.0
 41
0.0
 71
     5
 72
     1
  1
\A1;182
 11
6.123031769111886E-17
 21
1.0
 31
0.0
 73
     1
 44
1.0
  0
POINT
  5
2ACF
330
2A0F
100
AcDbEntity
  8
DEFPOINTS
 62
     0
100
AcDbPoint
 10
481.7491334281555
 20
269.9478934930352
 30
0.0
  0
POINT
  5
2AD0
330
2A0F
100
AcDbEntity
  8
DEFPOINTS
 62
     0
100
AcDbPoint
 10
562.3990334281555
 20
88.04799349303522
 30
0.0
  0
POINT
  5
2AD1
330
2A0F
100
AcDbEntity
  8
DEFPOINTS
 62
     0
100
AcDbPoint
 10
402.7487716817063
 20
88.04799349303528
 30
0.0
  0
ENDBLK
  5
2A1A
330
2A0F
100
AcDbEntity
  8
0
100
AcDbBlockEnd
  0
BLOCK
  5
2A25
330
2A1B
100
AcDbEntity
  8
0
100
AcDbBlockBegin
  2
*D8
 70
     1
 71
     0
 10
0.0
 20
0.0
 30
0.0
  3
*D8
  1

  0
LINE
  5
2AD2
330
2A1B
100
AcDbEntity
  8
SUNPOU
 62
     4
370
    -2
100
AcDbLine
 10
149.3596334281556
 20
275.9481934930352
 30
0.0
 11
149.3596334281556
 21
311.5855070622606
 31
0.0
  0
LINE
  5
2AD3
330
2A1B
100
AcDbEntity
  8
SUNPOU
 62
     4
370
    -2
100
AcDbLine
 10
369.3602334281555
 20
275.9474934930352
 30
0.0
 11
369.3602334281555
 21
311.5855070622606
 31
0.0
  0
LINE
  5
2AD4
330
2A1B
100
AcDbEntity
  8
SUNPOU
 62
     4
370
    -2
100
AcDbLine
 10
156.3596334281556
 20
308.5855070622606
 30
0.0
 11
362.3602334281555
 21
308.5855070622606
 31
0.0
  0
INSERT
  5
2AD5
330
2A1B
100
AcDbEntity
  8
SUNPOU
 62
     4
370
    -2
100
AcDbBlockReference
  2
_OPEN
 10
149.3596334281556
 20
308.5855070622606
 30
0.0
 41
7.0
 42
7.0
 43
7.0
 50
180.0
  0
INSERT
  5
2AD6
330
2A1B
100
AcDbEntity
  8
SUNPOU
 62
     4
370
    -2
100
AcDbBlockReference
  2
_OPEN
 10
369.3602334281555
 20
308.5855070622606
 30
0.0
 41
7.0
 42
7.0
 43
7.0
  0
MTEXT
  5
2AD7
330
2A1B
100
AcDbEntity
  8
SUNPOU
 62
     4
100
AcDbMText
 10
259.3599334281556
 20
313.5855070622606
 30
0.0
 40
6.0
 41
0.0
 71
     5
 72
     1
  1
\A1;220
 73
     1
 44
1.0
  0
POINT
  5
2AD8
330
2A1B
100
AcDbEntity
  8
DEFPOINTS
 62
     0
100
AcDbPoint
 10
149.3596334281556
 20
269.9481934930352
 30
0.0
  0
POINT
  5
2AD9
330
2A1B
100
AcDbEntity
  8
DEFPOINTS
 62
     0
100
AcDbPoint
 10
369.3602334281555
 20
269.9474934930352
 30
0.0
  0
POINT
  5
2ADA
330
2A1B
100
AcDbEntity
  8
DEFPOINTS
 62
     0
100
AcDbPoint
 10
369.3602334281555
 20
308.5855070622606
 30
0.0
  0
ENDBLK
  5
2A26
330
2A1B
100
AcDbEntity
  8
0
100
AcDbBlockEnd
  0
BLOCK
  5
2A31
330
2A27
100
AcDbEntity
  8
0
100
AcDbBlockBegin
  2
*D9
 70
     1
 71
     0
 10
0.0
 20
0.0
 30
0.0
  3
*D9
  1

  0
LINE
  5
2ADB
330
2A27
100
AcDbEntity
  8
SUNPOU
 62
     4
370
    -2
100
AcDbLine
 10
190.3598193458532
 20
148.0479956420369
 30
0.0
 11
190.3598193458532
 21
53.598429556165
 31
0.0
  0
LINE
  5
2ADC
330
2A27
100
AcDbEntity
  8
SUNPOU
 62
     4
370
    -2
100
AcDbLine
 10
328.3597399777444
 20
148.0477891950606
 30
0.0
 11
328.3597399777444
 21
53.598429556165
 31
0.0
  0
LINE
  5
2ADD
330
2A27
100
AcDbEntity
  8
SUNPOU
 62
     4
370
    -2
100
AcDbLine
 10
197.3598193458532
 20
56.598429556165
 30
0.0
 11
321.3597399777444
 21
56.598429556165
 31
0.0
  0
INSERT
  5
2ADE
330
2A27
100
AcDbEntity
  8
SUNPOU
 62
     4
370
    -2
100
AcDbBlockReference
  2
_OPEN
 10
190.3598193458532
 20
56.598429556165
 30
0.0
 41
7.0
 42
7.0
 43
7.0
 50
180.0
  0
INSERT
  5
2ADF
330
2A27
100
AcDbEntity
  8
SUNPOU
 62
     4
370
    -2
100
AcDbBlockReference
  2
_OPEN
 10
328.3597399777444
 20
56.598429556165
 30
0.0
 41
7.0
 42
7.0
 43
7.0
  0
MTEXT
  5
2AE0
330
2A27
100
AcDbEntity
  8
SUNPOU
 62
     4
100
AcDbMText
 10
259.3597796617988
 20
61.598429556165
 30
0.0
 40
6.0
 41
0.0
 71
     5
 72
     1
  1
\A1;138
 73
     1
 44
1.0
  0
POINT
  5
2AE1
330
2A27
100
AcDbEntity
  8
DEFPOINTS
 62
     0
100
AcDbPoint
 10
190.3598193458532
 20
154.0479956420369
 30
0.0
  0
POINT
  5
2AE2
330
2A27
100
AcDbEntity
  8
DEFPOINTS
 62
     0
100
AcDbPoint
 10
328.3597399777444
 20
154.0477891950606
 30
0.0
  0
POINT
  5
2AE3
330
2A27
100
AcDbEntity
  8
DEFPOINTS
 62
     0
100
AcDbPoint
 10
328.3597399777444
 20
56.598429556165
 30
0.0
  0
ENDBLK
  5
2A32
330
2A27
100
AcDbEntity
  8
0
100
AcDbBlockEnd
  0
BLOCK
  5
2A3D
330
2A33
100
AcDbEntity
  8
0
100
AcDbBlockBegin
  2
*D10
 70
     1
 71
     0
 10
0.0
 20
0.0
 30
0.0
  3
*D10
  1

  0
LINE
  5
2AE4
330
2A33
100
AcDbEntity
  8
SUNPOU
 62
     4
370
    -2
100
AcDbLine
 10
229.3603082221987
 20
382.8057803360999
 30
0.0
 11
229.3603082221987
 21
330.8563923313675
 31
0.0
  0
LINE
  5
2AE5
330
2A33
100
AcDbEntity
  8
SUNPOU
 62
     4
370
    -2
100
AcDbLine
 10
289.3603586341123
 20
382.8057803360999
 30
0.0
 11
289.3603586341123
 21
330.8563923313675
 31
0.0
  0
LINE
  5
2AE6
330
2A33
100
AcDbEntity
  8
SUNPOU
 62
     4
370
    -2
100
AcDbLine
 10
236.3603082221987
 20
333.8563923313675
 30
0.0
 11
282.3603586341123
 21
333.8563923313675
 31
0.0
  0
INSERT
  5
2AE7
330
2A33
100
AcDbEntity
  8
SUNPOU
 62
     4
370
    -2
100
AcDbBlockReference
  2
_OPEN
 10
229.3603082221987
 20
333.8563923313675
 30
0.0
 41
7.0
 42
7.0
 43
7.0
 50
180.0
  0
INSERT
  5
2AE8
330
2A33
100
AcDbEntity
  8
SUNPOU
 62
     4
370
    -2
100
AcDbBlockReference
  2
_OPEN
 10
289.3603586341123
 20
333.8563923313675
 30
0.0
 41
7.0
 42
7.0
 43
7.0
  0
MTEXT
  5
2AE9
330
2A33
100
AcDbEntity
  8
SUNPOU
 62
     4
100
AcDbMText
 10
259.3603334281555
 20
338.8563923313675
 30
0.0
 40
6.0
 41
0.0
 71
     5
 72
     1
  1
\A1;※a 60
 73
     1
 44
1.0
  0
POINT
  5
2AEA
330
2A33
100
AcDbEntity
  8
DEFPOINTS
 62
     0
100
AcDbPoint
 10
229.3603082221987
 20
388.8057803360999
 30
0.0
  0
POINT
  5
2AEB
330
2A33
100
AcDbEntity
  8
DEFPOINTS
 62
     0
100
AcDbPoint
 10
289.3603586341123
 20
388.8057803360999
 30
0.0
  0
POINT
  5
2AEC
330
2A33
100
AcDbEntity
  8
DEFPOINTS
 62
     0
100
AcDbPoint
 10
289.3603586341123
 20
333.8563923313675
 30
0.0
  0
ENDBLK
  5
2A3E
330
2A33
100
AcDbEntity
  8
0
100
AcDbBlockEnd
  0
BLOCK
  5
2A49
330
2A3F
100
AcDbEntity
  8
0
100
AcDbBlockBegin
  2
*D11
 70
     1
 71
     0
 10
0.0
 20
0.0
 30
0.0
  3
*D11
  1

  0
LINE
  5
2AED
330
2A3F
100
AcDbEntity
  8
SUNPOU
 62
     4
370
    -2
100
AcDbLine
 10
481.7491334281555
 20
275.9478934930352
 30
0.0
 11
481.7491334281555
 21
311.4990705948558
 31
0.0
  0
LINE
  5
2AEE
330
2A3F
100
AcDbEntity
  8
SUNPOU
 62
     4
370
    -2
100
AcDbLine
 10
646.7491334281555
 20
253.5478934930352
 30
0.0
 11
646.7491334281555
 21
311.4990705948558
 31
0.0
  0
LINE
  5
2AEF
330
2A3F
100
AcDbEntity
  8
SUNPOU
 62
     4
370
    -2
100
AcDbLine
 10
488.7491334281555
 20
308.4990705948558
 30
0.0
 11
639.7491334281555
 21
308.4990705948558
 31
0.0
  0
INSERT
  5
2AF0
330
2A3F
100
AcDbEntity
  8
SUNPOU
 62
     4
370
    -2
100
AcDbBlockReference
  2
_OPEN
 10
481.7491334281555
 20
308.4990705948558
 30
0.0
 41
7.0
 42
7.0
 43
7.0
 50
180.0
  0
INSERT
  5
2AF1
330
2A3F
100
AcDbEntity
  8
SUNPOU
 62
     4
370
    -2
100
AcDbBlockReference
  2
_OPEN
 10
646.7491334281555
 20
308.4990705948558
 30
0.0
 41
7.0
 42
7.0
 43
7.0
  0
MTEXT
  5
2AF2
330
2A3F
100
AcDbEntity
  8
SUNPOU
 62
     4
100
AcDbMText
 10
564.2491334281555
 20
313.4990705948558
 30
0.0
 40
6.0
 41
0.0
 71
     5
 72
     1
  1
\A1;165
 73
     1
 44
1.0
  0
POINT
  5
2AF3
330
2A3F
100
AcDbEntity
  8
DEFPOINTS
 62
     0
100
AcDbPoint
 10
481.7491334281555
 20
269.9478934930352
 30
0.0
  0
POINT
  5
2AF4
330
2A3F
100
AcDbEntity
  8
DEFPOINTS
 62
     0
100
AcDbPoint
 10
646.7491334281555
 20
247.5478934930352
 30
0.0
  0
POINT
  5
2AF5
330
2A3F
100
AcDbEntity
  8
DEFPOINTS
 62
     0
100
AcDbPoint
 10
646.7491334281555
 20
308.4990705948558
 30
0.0
  0
ENDBLK
  5
2A4A
330
2A3F
100
AcDbEntity
  8
0
100
AcDbBlockEnd
  0
BLOCK
  5
2A55
330
2A4B
100
AcDbEntity
  8
0
100
AcDbBlockBegin
  2
*D12
 70
     1
 71
     0
 10
0.0
 20
0.0
 30
0.0
  3
*D12
  1

  0
LINE
  5
2AF6
330
2A4B
100
AcDbEntity
  8
SUNPOU
 62
     4
370
    -2
100
AcDbLine
 10
583.1491334281556
 20
198.8331934930352
 30
0.0
 11
583.1491334281556
 21
294.1851381177014
 31
0.0
  0
LINE
  5
2AF7
330
2A4B
100
AcDbEntity
  8
SUNPOU
 62
     4
370
    -2
100
AcDbLine
 10
646.7491334281555
 20
253.5478934930352
 30
0.0
 11
646.7491334281555
 21
294.1851381177014
 31
0.0
  0
LINE
  5
2AF8
330
2A4B
100
AcDbEntity
  8
SUNPOU
 62
     4
370
    -2
100
AcDbLine
 10
590.1491334281556
 20
291.1851381177014
 30
0.0
 11
639.7491334281555
 21
291.1851381177014
 31
0.0
  0
INSERT
  5
2AF9
330
2A4B
100
AcDbEntity
  8
SUNPOU
 62
     4
370
    -2
100
AcDbBlockReference
  2
_OPEN
 10
583.1491334281556
 20
291.1851381177014
 30
0.0
 41
7.0
 42
7.0
 43
7.0
 50
180.0
  0
INSERT
  5
2AFA
330
2A4B
100
AcDbEntity
  8
SUNPOU
 62
     4
370
    -2
100
AcDbBlockReference
  2
_OPEN
 10
646.7491334281555
 20
291.1851381177014
 30
0.0
 41
7.0
 42
7.0
 43
7.0
  0
MTEXT
  5
2AFB
330
2A4B
100
AcDbEntity
  8
SUNPOU
 62
     4
100
AcDbMText
 10
615.6404552869698
 20
296.1851381177014
 30
0.0
 40
6.0
 41
0.0
 71
     5
 72
     1
  1
\A1;64
 73
     1
 44
1.0
  0
POINT
  5
2AFC
330
2A4B
100
AcDbEntity
  8
DEFPOINTS
 62
     0
100
AcDbPoint
 10
583.1491334281556
 20
192.8331934930352
 30
0.0
  0
POINT
  5
2AFD
330
2A4B
100
AcDbEntity
  8
DEFPOINTS
 62
     0
100
AcDbPoint
 10
646.7491334281555
 20
247.5478934930352
 30
0.0
  0
POINT
  5
2AFE
330
2A4B
100
AcDbEntity
  8
DEFPOINTS
 62
     0
100
AcDbPoint
 10
646.7491334281555
 20
291.1851381177014
 30
0.0
  0
ENDBLK
  5
2A56
330
2A4B
100
AcDbEntity
  8
0
100
AcDbBlockEnd
  0
BLOCK
  5
2A61
330
2A57
100
AcDbEntity
  8
0
100
AcDbBlockBegin
  2
*D13
 70
     1
 71
     0
 10
0.0
 20
0.0
 30
0.0
  3
*D13
  1

  0
LINE
  5
2AFF
330
2A57
100
AcDbEntity
  8
SUNPOU
 62
     4
370
    -2
100
AcDbLine
 10
652.7491334281555
 20
247.5478934930352
 30
0.0
 11
689.307260186717
 21
247.5478934930352
 31
0.0
  0
LINE
  5
2B00
330
2A57
100
AcDbEntity
  8
SUNPOU
 62
     4
370
    -2
100
AcDbLine
 10
632.2878334281555
 20
177.0478934930352
 30
0.0
 11
689.307260186717
 21
177.0478934930352
 31
0.0
  0
LINE
  5
2B01
330
2A57
100
AcDbEntity
  8
SUNPOU
 62
     4
370
    -2
100
AcDbLine
 10
686.307260186717
 20
240.5478934930352
 30
0.0
 11
686.307260186717
 21
184.0478934930352
 31
0.0
  0
INSERT
  5
2B02
330
2A57
100
AcDbEntity
  8
SUNPOU
 62
     4
370
    -2
100
AcDbBlockReference
  2
_OPEN
 10
686.307260186717
 20
247.5478934930352
 30
0.0
 41
7.0
 42
7.0
 43
7.0
 50
90.0
  0
INSERT
  5
2B03
330
2A57
100
AcDbEntity
  8
SUNPOU
 62
     4
370
    -2
100
AcDbBlockReference
  2
_OPEN
 10
686.307260186717
 20
177.0478934930352
 30
0.0
 41
7.0
 42
7.0
 43
7.0
 50
270.0
  0
MTEXT
  5
2B04
330
2A57
100
AcDbEntity
  8
SUNPOU
 62
     4
100
AcDbMText
 10
681.307260186717
 20
212.2978934930353
 30
0.0
 40
6.0
 41
0.0
 71
     5
 72
     1
  1
\A1;71
 11
6.123031769111886E-17
 21
1.0
 31
0.0
 73
     1
 44
1.0
  0
POINT
  5
2B05
330
2A57
100
AcDbEntity
  8
DEFPOINTS
 62
     0
100
AcDbPoint
 10
646.7491334281555
 20
247.5478934930352
 30
0.0
  0
POINT
  5
2B06
330
2A57
100
AcDbEntity
  8
DEFPOINTS
 62
     0
100
AcDbPoint
 10
626.2878334281555
 20
177.0478934930352
 30
0.0
  0
POINT
  5
2B07
330
2A57
100
AcDbEntity
  8
DEFPOINTS
 62
     0
100
AcDbPoint
 10
686.307260186717
 20
177.0478934930352
 30
0.0
  0
ENDBLK
  5
2A62
330
2A57
100
AcDbEntity
  8
0
100
AcDbBlockEnd
  0
BLOCK
  5
2A6D
330
2A63
100
AcDbEntity
  8
0
100
AcDbBlockBegin
  2
*D14
 70
     1
 71
     0
 10
0.0
 20
0.0
 30
0.0
  3
*D14
  1

  0
LINE
  5
2B08
330
2A63
100
AcDbEntity
  8
SUNPOU
 62
     4
370
    -2
100
AcDbLine
 10
524.6490602200971
 20
148.0478934930352
 30
0.0
 11
524.6490602200971
 21
35.99423762786933
 31
0.0
  0
LINE
  5
2B09
330
2A63
100
AcDbEntity
  8
SUNPOU
 62
     4
370
    -2
100
AcDbLine
 10
639.3417082940017
 20
148.0478934930352
 30
0.0
 11
639.3417082940017
 21
35.99423762786933
 31
0.0
  0
LINE
  5
2B0A
330
2A63
100
AcDbEntity
  8
SUNPOU
 62
     4
370
    -2
100
AcDbLine
 10
531.6490602200971
 20
38.99423762786933
 30
0.0
 11
632.3417082940017
 21
38.99423762786933
 31
0.0
  0
INSERT
  5
2B0B
330
2A63
100
AcDbEntity
  8
SUNPOU
 62
     4
370
    -2
100
AcDbBlockReference
  2
_OPEN
 10
524.6490602200971
 20
38.99423762786933
 30
0.0
 41
7.0
 42
7.0
 43
7.0
 50
180.0
  0
INSERT
  5
2B0C
330
2A63
100
AcDbEntity
  8
SUNPOU
 62
     4
370
    -2
100
AcDbBlockReference
  2
_OPEN
 10
639.3417082940017
 20
38.99423762786933
 30
0.0
 41
7.0
 42
7.0
 43
7.0
  0
MTEXT
  5
2B0D
330
2A63
100
AcDbEntity
  8
SUNPOU
 62
     4
100
AcDbMText
 10
581.9953842570494
 20
43.99423762786933
 30
0.0
 40
6.0
 41
0.0
 71
     5
 72
     1
  1
\A1;115
 73
     1
 44
1.0
  0
POINT
  5
2B0E
330
2A63
100
AcDbEntity
  8
DEFPOINTS
 62
     0
100
AcDbPoint
 10
524.6490602200971
 20
154.0478934930352
 30
0.0
  0
POINT
  5
2B0F
330
2A63
100
AcDbEntity
  8
DEFPOINTS
 62
     0
100
AcDbPoint
 10
639.3417082940017
 20
154.0478934930352
 30
0.0
  0
POINT
  5
2B10
330
2A63
100
AcDbEntity
  8
DEFPOINTS
 62
     0
100
AcDbPoint
 10
639.3417082940017
 20
38.99423762786933
 30
0.0
  0
ENDBLK
  5
2A6E
330
2A63
100
AcDbEntity
  8
0
100
AcDbBlockEnd
  0
BLOCK
  5
2A7B
330
2A6F
100
AcDbEntity
  8
0
100
AcDbBlockBegin
  2
*D15
 70
     1
 71
     0
 10
0.0
 20
0.0
 30
0.0
  3
*D15
  1

  0
LINE
  5
2B11
330
2A6F
100
AcDbEntity
  8
SUNPOU
 62
     4
370
    -2
100
AcDbLine
 10
632.1489334281555
 20
94.54769349303521
 30
0.0
 11
668.6461754534944
 21
94.54769349303521
 31
0.0
  0
LINE
  5
2B12
330
2A6F
100
AcDbEntity
  8
SUNPOU
 62
     4
370
    -2
100
AcDbLine
 10
633.6495022274086
 20
104.5476891435772
 30
0.0
 11
668.6461754534944
 21
104.5476891435772
 31
0.0
  0
LINE
  5
2B13
330
2A6F
100
AcDbEntity
  8
SUNPOU
 62
     4
370
    -2
100
AcDbLine
 10
665.6461754534944
 20
87.54769349303521
 30
0.0
 11
665.6461754534944
 21
80.54769349303521
 31
0.0
  0
LINE
  5
2B14
330
2A6F
100
AcDbEntity
  8
SUNPOU
 62
     4
370
    -2
100
AcDbLine
 10
665.6461754534944
 20
111.5476891435772
 30
0.0
 11
665.6461754534944
 21
146.3476891435772
 31
0.0
  0
LINE
  5
2B15
330
2A6F
100
AcDbEntity
  8
SUNPOU
 62
     4
370
    -2
100
AcDbLine
 10
665.6461754534944
 20
94.54769349303521
 30
0.0
 11
665.6461754534944
 21
104.5476891435772
 31
0.0
  0
INSERT
  5
2B16
330
2A6F
100
AcDbEntity
  8
SUNPOU
 62
     4
370
    -2
100
AcDbBlockReference
  2
_OPEN
 10
665.6461754534944
 20
94.54769349303521
 30
0.0
 41
7.0
 42
7.0
 43
7.0
 50
90.0
  0
INSERT
  5
2B17
330
2A6F
100
AcDbEntity
  8
SUNPOU
 62
     4
370
    -2
100
AcDbBlockReference
  2
_OPEN
 10
665.6461754534944
 20
104.5476891435772
 30
0.0
 41
7.0
 42
7.0
 43
7.0
 50
270.0
  0
MTEXT
  5
2B18
330
2A6F
100
AcDbEntity
  8
SUNPOU
 62
     4
100
AcDbMText
 10
660.6461754534944
 20
132.4476891435773
 30
0.0
 40
6.0
 41
0.0
 71
     5
 72
     1
  1
\A1;※b 10
 11
6.123031769111886E-17
 21
1.0
 31
0.0
 73
     1
 44
1.0
  0
POINT
  5
2B19
330
2A6F
100
AcDbEntity
  8
DEFPOINTS
 62
     0
100
AcDbPoint
 10
626.1489334281555
 20
94.54769349303521
 30
0.0
  0
POINT
  5
2B1A
330
2A6F
100
AcDbEntity
  8
DEFPOINTS
 62
     0
100
AcDbPoint
 10
627.6495022274086
 20
104.5476891435772
 30
0.0
  0
POINT
  5
2B1B
330
2A6F
100
AcDbEntity
  8
DEFPOINTS
 62
     0
100
AcDbPoint
 10
665.6461754534944
 20
104.5476891435772
 30
0.0
  0
ENDBLK
  5
2A7C
330
2A6F
100
AcDbEntity
  8
0
100
AcDbBlockEnd
  0
BLOCK
  5
2A87
330
2A7D
100
AcDbEntity
  8
0
100
AcDbBlockBegin
  2
*D16
 70
     1
 71
     0
 10
0.0
 20
0.0
 30
0.0
  3
*D16
  1

  0
LINE
  5
2B1C
330
2A7D
100
AcDbEntity
  8
SUNPOU
 62
     4
370
    -2
100
AcDbLine
 10
537.8851334281555
 20
138.0478934930352
 30
0.0
 11
420.1649843830197
 21
138.0478934930353
 31
0.0
  0
LINE
  5
2B1D
330
2A7D
100
AcDbEntity
  8
SUNPOU
 62
     4
370
    -2
100
AcDbLine
 10
551.1492334281555
 20
94.54769349303521
 30
0.0
 11
420.1649843830196
 21
94.54769349303525
 31
0.0
  0
LINE
  5
2B1E
330
2A7D
100
AcDbEntity
  8
SUNPOU
 62
     4
370
    -2
100
AcDbLine
 10
423.1649843830197
 20
131.0478934930353
 30
0.0
 11
423.1649843830196
 21
101.5476934930353
 31
0.0
  0
INSERT
  5
2B1F
330
2A7D
100
AcDbEntity
  8
SUNPOU
 62
     4
370
    -2
100
AcDbBlockReference
  2
_OPEN
 10
423.1649843830197
 20
138.0478934930353
 30
0.0
 41
7.0
 42
7.0
 43
7.0
 50
90.0
  0
INSERT
  5
2B20
330
2A7D
100
AcDbEntity
  8
SUNPOU
 62
     4
370
    -2
100
AcDbBlockReference
  2
_OPEN
 10
423.1649843830196
 20
94.54769349303525
 30
0.0
 41
7.0
 42
7.0
 43
7.0
 50
270.0
  0
MTEXT
  5
2B21
330
2A7D
100
AcDbEntity
  8
SUNPOU
 62
     4
100
AcDbMText
 10
418.1649843830196
 20
116.2977934930353
 30
0.0
 40
6.0
 41
0.0
 71
     5
 72
     1
  1
\A1;44
 11
6.123031769111886E-17
 21
1.0
 31
0.0
 73
     1
 44
1.0
  0
POINT
  5
2B22
330
2A7D
100
AcDbEntity
  8
DEFPOINTS
 62
     0
100
AcDbPoint
 10
543.8851334281555
 20
138.0478934930352
 30
0.0
  0
POINT
  5
2B23
330
2A7D
100
AcDbEntity
  8
DEFPOINTS
 62
     0
100
AcDbPoint
 10
557.1492334281555
 20
94.54769349303521
 30
0.0
  0
POINT
  5
2B24
330
2A7D
100
AcDbEntity
  8
DEFPOINTS
 62
     0
100
AcDbPoint
 10
423.1649843830196
 20
94.54769349303525
 30
0.0
  0
ENDBLK
  5
2A88
330
2A7D
100
AcDbEntity
  8
0
100
AcDbBlockEnd
  0
BLOCK
  5
2A93
330
2A89
100
AcDbEntity
  8
0
100
AcDbBlockBegin
  2
*D17
 70
     1
 71
     0
 10
0.0
 20
0.0
 30
0.0
  3
*D17
  1

  0
LINE
  5
2B25
330
2A89
100
AcDbEntity
  8
SUNPOU
 62
     4
370
    -2
100
AcDbLine
 10
555.6492304323809
 20
92.57929450934171
 30
0.0
 11
555.6492304323809
 21
53.598429556165
 31
0.0
  0
LINE
  5
2B26
330
2A89
100
AcDbEntity
  8
SUNPOU
 62
     4
370
    -2
100
AcDbLine
 10
627.6477709250696
 20
92.54459348480638
 30
0.0
 11
627.6477709250696
 21
53.598429556165
 31
0.0
  0
LINE
  5
2B27
330
2A89
100
AcDbEntity
  8
SUNPOU
 62
     4
370
    -2
100
AcDbLine
 10
562.6492304323809
 20
56.598429556165
 30
0.0
 11
620.6477709250696
 21
56.598429556165
 31
0.0
  0
INSERT
  5
2B28
330
2A89
100
AcDbEntity
  8
SUNPOU
 62
     4
370
    -2
100
AcDbBlockReference
  2
_OPEN
 10
555.6492304323809
 20
56.598429556165
 30
0.0
 41
7.0
 42
7.0
 43
7.0
 50
180.0
  0
INSERT
  5
2B29
330
2A89
100
AcDbEntity
  8
SUNPOU
 62
     4
370
    -2
100
AcDbBlockReference
  2
_OPEN
 10
627.6477709250696
 20
56.598429556165
 30
0.0
 41
7.0
 42
7.0
 43
7.0
  0
MTEXT
  5
2B2A
330
2A89
100
AcDbEntity
  8
SUNPOU
 62
     4
100
AcDbMText
 10
591.6485006787252
 20
61.598429556165
 30
0.0
 40
6.0
 41
0.0
 71
     5
 72
     1
  1
\A1;φ72
 73
     1
 44
1.0
  0
POINT
  5
2B2B
330
2A89
100
AcDbEntity
  8
DEFPOINTS
 62
     0
100
AcDbPoint
 10
555.6492304323809
 20
98.57929450934171
 30
0.0
  0
POINT
  5
2B2C
330
2A89
100
AcDbEntity
  8
DEFPOINTS
 62
     0
100
AcDbPoint
 10
627.6477709250696
 20
98.54459348480638
 30
0.0
  0
POINT
  5
2B2D
330
2A89
100
AcDbEntity
  8
DEFPOINTS
 62
     0
100
AcDbPoint
 10
627.6477709250696
 20
56.598429556165
 30
0.0
  0
ENDBLK
  5
2A94
330
2A89
100
AcDbEntity
  8
0
100
AcDbBlockEnd
  0
BLOCK
  5
2AA1
330
2A95
100
AcDbEntity
  8
0
100
AcDbBlockBegin
  2
*D18
 70
     1
 71
     0
 10
0.0
 20
0.0
 30
0.0
  3
*D18
  1

  0
LINE
  5
2B2E
330
2A95
100
AcDbEntity
  8
SUNPOU
 62
     4
370
    -2
100
AcDbLine
 10
520.4052334281555
 20
154.0478424930352
 30
0.0
 11
420.1649843830196
 21
154.0478424930352
 31
0.0
  0
LINE
  5
2B2F
330
2A95
100
AcDbEntity
  8
SUNPOU
 62
     4
370
    -2
100
AcDbLine
 10
537.8851334281555
 20
138.0479014930352
 30
0.0
 11
420.1649843830196
 21
138.0479014930353
 31
0.0
  0
LINE
  5
2B30
330
2A95
100
AcDbEntity
  8
SUNPOU
 62
     4
370
    -2
100
AcDbLine
 10
423.1649843830196
 20
161.0478424930352
 30
0.0
 11
423.1649843830196
 21
168.0478424930352
 31
0.0
  0
LINE
  5
2B31
330
2A95
100
AcDbEntity
  8
SUNPOU
 62
     4
370
    -2
100
AcDbLine
 10
423.1649843830196
 20
131.0479014930353
 30
0.0
 11
423.1649843830195
 21
124.0479014930352
 31
0.0
  0
LINE
  5
2B32
330
2A95
100
AcDbEntity
  8
SUNPOU
 62
     4
370
    -2
100
AcDbLine
 10
423.1649843830196
 20
154.0478424930352
 30
0.0
 11
423.1649843830196
 21
138.0479014930353
 31
0.0
  0
INSERT
  5
2B33
330
2A95
100
AcDbEntity
  8
SUNPOU
 62
     4
370
    -2
100
AcDbBlockReference
  2
_OPEN
 10
423.1649843830196
 20
154.0478424930352
 30
0.0
 41
7.0
 42
7.0
 43
7.0
 50
270.0
  0
INSERT
  5
2B34
330
2A95
100
AcDbEntity
  8
SUNPOU
 62
     4
370
    -2
100
AcDbBlockReference
  2
_OPEN
 10
423.1649843830196
 20
138.0479014930353
 30
0.0
 41
7.0
 42
7.0
 43
7.0
 50
90.0
  0
MTEXT
  5
2B35
330
2A95
100
AcDbEntity
  8
SUNPOU
 62
     4
100
AcDbMText
 10
418.1649843830195
 20
146.0478719930353
 30
0.0
 40
6.0
 41
0.0
 71
     5
 72
     1
  1
\A1;16
 11
6.123031769111886E-17
 21
1.0
 31
0.0
 73
     1
 44
1.0
  0
POINT
  5
2B36
330
2A95
100
AcDbEntity
  8
DEFPOINTS
 62
     0
100
AcDbPoint
 10
526.4052334281555
 20
154.0478424930352
 30
0.0
  0
POINT
  5
2B37
330
2A95
100
AcDbEntity
  8
DEFPOINTS
 62
     0
100
AcDbPoint
 10
543.8851334281555
 20
138.0479014930352
 30
0.0
  0
POINT
  5
2B38
330
2A95
100
AcDbEntity
  8
DEFPOINTS
 62
     0
100
AcDbPoint
 10
423.1649843830196
 20
138.0479014930353
 30
0.0
  0
ENDBLK
  5
2AA2
330
2A95
100
AcDbEntity
  8
0
100
AcDbBlockEnd
  0
BLOCK
  5
2AAD
330
2AA3
100
AcDbEntity
  8
0
100
AcDbBlockBegin
  2
*D19
 70
     1
 71
     0
 10
0.0
 20
0.0
 30
0.0
  3
*D19
  1

  0
LINE
  5
2B39
330
2AA3
100
AcDbEntity
  8
SUNPOU
 62
     4
370
    -2
100
AcDbLine
 10
475.7491334281555
 20
269.9478934930352
 30
0.0
 11
439.8250383433233
 21
269.9478934930352
 31
0.0
  0
LINE
  5
2B3A
330
2AA3
100
AcDbEntity
  8
SUNPOU
 62
     4
370
    -2
100
AcDbLine
 10
533.8337334281555
 20
177.0478934930352
 30
0.0
 11
439.8250383433233
 21
177.0478934930353
 31
0.0
  0
LINE
  5
2B3B
330
2AA3
100
AcDbEntity
  8
SUNPOU
 62
     4
370
    -2
100
AcDbLine
 10
442.8250383433233
 20
262.9478934930352
 30
0.0
 11
442.8250383433233
 21
184.0478934930353
 31
0.0
  0
INSERT
  5
2B3C
330
2AA3
100
AcDbEntity
  8
SUNPOU
 62
     4
370
    -2
100
AcDbBlockReference
  2
_OPEN
 10
442.8250383433233
 20
269.9478934930352
 30
0.0
 41
7.0
 42
7.0
 43
7.0
 50
90.0
  0
INSERT
  5
2B3D
330
2AA3
100
AcDbEntity
  8
SUNPOU
 62
     4
370
    -2
100
AcDbBlockReference
  2
_OPEN
 10
442.8250383433233
 20
177.0478934930353
 30
0.0
 41
7.0
 42
7.0
 43
7.0
 50
270.0
  0
MTEXT
  5
2B3E
330
2AA3
100
AcDbEntity
  8
SUNPOU
 62
     4
100
AcDbMText
 10
437.8250383433232
 20
223.4978934930353
 30
0.0
 40
6.0
 41
0.0
 71
     5
 72
     1
  1
\A1;93
 11
6.123031769111886E-17
 21
1.0
 31
0.0
 73
     1
 44
1.0
  0
POINT
  5
2B3F
330
2AA3
100
AcDbEntity
  8
DEFPOINTS
 62
     0
100
AcDbPoint
 10
481.7491334281555
 20
269.9478934930352
 30
0.0
  0
POINT
  5
2B40
330
2AA3
100
AcDbEntity
  8
DEFPOINTS
 62
     0
100
AcDbPoint
 10
539.8337334281555
 20
177.0478934930352
 30
0.0
  0
POINT
  5
2B41
330
2AA3
100
AcDbEntity
  8
DEFPOINTS
 62
     0
100
AcDbPoint
 10
442.8250383433233
 20
177.0478934930353
 30
0.0
  0
ENDBLK
  5
2AAE
330
2AA3
100
AcDbEntity
  8
0
100
AcDbBlockEnd
  0
BLOCK
  5
2AB9
330
2AAF
100
AcDbEntity
  8
0
100
AcDbBlockBegin
  2
*D20
 70
     1
 71
     0
 10
0.0
 20
0.0
 30
0.0
  3
*D20
  1

  0
LINE
  5
2B42
330
2AAF
100
AcDbEntity
  8
SUNPOU
 62
     4
370
    -2
100
AcDbLine
 10
475.7491334281555
 20
269.9478934930352
 30
0.0
 11
420.1649843830196
 21
269.9478934930352
 31
0.0
  0
LINE
  5
2B43
330
2AAF
100
AcDbEntity
  8
SUNPOU
 62
     4
370
    -2
100
AcDbLine
 10
520.4052334281555
 20
154.0478934930352
 30
0.0
 11
420.1649843830196
 21
154.0478934930353
 31
0.0
  0
LINE
  5
2B44
330
2AAF
100
AcDbEntity
  8
SUNPOU
 62
     4
370
    -2
100
AcDbLine
 10
423.1649843830196
 20
262.9478934930352
 30
0.0
 11
423.1649843830196
 21
161.0478934930353
 31
0.0
  0
INSERT
  5
2B45
330
2AAF
100
AcDbEntity
  8
SUNPOU
 62
     4
370
    -2
100
AcDbBlockReference
  2
_OPEN
 10
423.1649843830196
 20
269.9478934930352
 30
0.0
 41
7.0
 42
7.0
 43
7.0
 50
90.0
  0
INSERT
  5
2B46
330
2AAF
100
AcDbEntity
  8
SUNPOU
 62
     4
370
    -2
100
AcDbBlockReference
  2
_OPEN
 10
423.1649843830196
 20
154.0478934930353
 30
0.0
 41
7.0
 42
7.0
 43
7.0
 50
270.0
  0
MTEXT
  5
2B47
330
2AAF
100
AcDbEntity
  8
SUNPOU
 62
     4
100
AcDbMText
 10
418.1649843830195
 20
211.9978934930353
 30
0.0
 40
6.0
 41
0.0
 71
     5
 72
     1
  1
\A1;116
 11
6.123031769111886E-17
 21
1.0
 31
0.0
 73
     1
 44
1.0
  0
POINT
  5
2B48
330
2AAF
100
AcDbEntity
  8
DEFPOINTS
 62
     0
100
AcDbPoint
 10
481.7491334281555
 20
269.9478934930352
 30
0.0
  0
POINT
  5
2B49
330
2AAF
100
AcDbEntity
  8
DEFPOINTS
 62
     0
100
AcDbPoint
 10
526.4052334281555
 20
154.0478934930352
 30
0.0
  0
POINT
  5
2B4A
330
2AAF
100
AcDbEntity
  8
DEFPOINTS
 62
     0
100
AcDbPoint
 10
423.1649843830196
 20
154.0478934930353
 30
0.0
  0
ENDBLK
  5
2ABA
330
2AAF
100
AcDbEntity
  8
0
100
AcDbBlockEnd
  0
BLOCK
  5
2AC7
330
2ABB
100
AcDbEntity
  8
0
100
AcDbBlockBegin
  2
*D21
 70
     1
 71
     0
 10
0.0
 20
0.0
 30
0.0
  3
*D21
  1

  0
LINE
  5
2B4B
330
2ABB
100
AcDbEntity
  8
SUNPOU
 62
     4
370
    -2
100
AcDbLine
 10
583.1491334281556
 20
198.8331934930352
 30
0.0
 11
583.1491334281556
 21
223.5427482063658
 31
0.0
  0
LINE
  5
2B4C
330
2ABB
100
AcDbEntity
  8
SUNPOU
 62
     4
370
    -2
100
AcDbLine
 10
591.6491334281556
 20
149.003257916486
 30
0.0
 11
591.6491334281556
 21
223.5427482063658
 31
0.0
  0
LINE
  5
2B4D
330
2ABB
100
AcDbEntity
  8
SUNPOU
 62
     4
370
    -2
100
AcDbLine
 10
576.1491334281556
 20
220.5427482063658
 30
0.0
 11
569.1491334281556
 21
220.5427482063658
 31
0.0
  0
LINE
  5
2B4E
330
2ABB
100
AcDbEntity
  8
SUNPOU
 62
     4
370
    -2
100
AcDbLine
 10
598.6491334281556
 20
220.5427482063658
 30
0.0
 11
605.6491334281556
 21
220.5427482063658
 31
0.0
  0
LINE
  5
2B4F
330
2ABB
100
AcDbEntity
  8
SUNPOU
 62
     4
370
    -2
100
AcDbLine
 10
583.1491334281556
 20
220.5427482063658
 30
0.0
 11
591.6491334281556
 21
220.5427482063658
 31
0.0
  0
INSERT
  5
2B50
330
2ABB
100
AcDbEntity
  8
SUNPOU
 62
     4
370
    -2
100
AcDbBlockReference
  2
_OPEN
 10
583.1491334281556
 20
220.5427482063658
 30
0.0
 41
7.0
 42
7.0
 43
7.0
  0
INSERT
  5
2B51
330
2ABB
100
AcDbEntity
  8
SUNPOU
 62
     4
370
    -2
100
AcDbBlockReference
  2
_OPEN
 10
591.6491334281556
 20
220.5427482063658
 30
0.0
 41
7.0
 42
7.0
 43
7.0
 50
180.0
  0
MTEXT
  5
2B52
330
2ABB
100
AcDbEntity
  8
SUNPOU
 62
     4
100
AcDbMText
 10
587.3991334281556
 20
225.5427482063658
 30
0.0
 40
6.0
 41
0.0
 71
     5
 72
     1
  1
\A1;9
 73
     1
 44
1.0
  0
POINT
  5
2B53
330
2ABB
100
AcDbEntity
  8
DEFPOINTS
 62
     0
100
AcDbPoint
 10
583.1491334281556
 20
192.8331934930352
 30
0.0
  0
POINT
  5
2B54
330
2ABB
100
AcDbEntity
  8
DEFPOINTS
 62
     0
100
AcDbPoint
 10
591.6491334281556
 20
143.003257916486
 30
0.0
  0
POINT
  5
2B55
330
2ABB
100
AcDbEntity
  8
DEFPOINTS
 62
     0
100
AcDbPoint
 10
591.6491334281556
 20
220.5427482063658
 30
0.0
  0
ENDBLK
  5
2AC8
330
2ABB
100
AcDbEntity
  8
0
100
AcDbBlockEnd
  0
ENDSEC
  0
SECTION
  2
ENTITIES
  0
TEXT
  5
9DF
330
1A
100
AcDbEntity
  8
SUNPOU
100
AcDbText
 10
676.296058680618
 20
45.3789568130245
 30
0.0
 40
6.0
  1
※a　軒樋の差込寸法を示す
100
AcDbText
  0
TEXT
  5
9E0
330
1A
100
AcDbEntity
  8
SUNPOU
100
AcDbText
 10
676.296058680618
 20
36.49396567134897
 30
0.0
 40
6.0
  1
※b　角々エルボの差込寸法を示す
100
AcDbText
  0
TEXT
  5
EDF
330
1A
100
AcDbEntity
  8
SUNPOU
 62
     4
100
AcDbText
 10
544.754825136059
 20
405.4713357348927
 30
0.0
 40
6.0
  1
じょうご用ストッパー２個入り
100
AcDbText
  0
LINE
  5
18CA
330
1A
100
AcDbEntity
  8
ZUWAKU
100
AcDbLine
 10
208.6466016834092
 20
15.19999965533645
 30
0.0
 11
447.4243643643326
 21
15.19999965533644
 31
0.0
  0
LINE
  5
18CB
330
1A
100
AcDbEntity
  8
ZUWAKU
100
AcDbLine
 10
208.6466016834092
 20
15.59999965533644
 30
0.0
 11
447.4243643643326
 21
15.59999965533645
 31
0.0
  0
LINE
  5
18CC
330
1A
100
AcDbEntity
  8
ZUWAKU
100
AcDbLine
 10
208.6466016834092
 20
15.39999965533644
 30
0.0
 11
447.4243643643326
 21
15.39999965533644
 31
0.0
  0
LINE
  5
18CD
330
1A
100
AcDbEntity
  8
ZUWAKU
100
AcDbLine
 10
0.0000003933412245
 20
30.79999965533642
 30
0.0
 11
797.4000003933411
 21
30.79999965533642
 31
0.0
  0
LINE
  5
18CE
330
1A
100
AcDbEntity
  8
ZUWAKU
100
AcDbLine
 10
0.0000003933412245
 20
30.59999965533642
 30
0.0
 11
797.4000003933411
 21
30.59999965533642
 31
0.0
  0
LINE
  5
18CF
330
1A
100
AcDbEntity
  8
ZUWAKU
100
AcDbLine
 10
0.0000003933412245
 20
30.39999965533642
 30
0.0
 11
797.4000003933411
 21
30.39999965533642
 31
0.0
  0
LINE
  5
18D0
330
1A
100
AcDbEntity
  8
ZUWAKU
100
AcDbLine
 10
0.0000003933412245
 20
30.19999965533641
 30
0.0
 11
797.4000003933411
 21
30.19999965533641
 31
0.0
  0
LINE
  5
18D1
330
1A
100
AcDbEntity
  8
ZUWAKU
100
AcDbLine
 10
0.0000003933412245
 20
29.99999965533641
 30
0.0
 11
797.4000003933411
 21
29.99999965533641
 31
0.0
  0
LWPOLYLINE
  5
18D2
330
1A
100
AcDbEntity
  8
ZUWAKU
100
AcDbPolyline
 90
        4
 70
     1
 43
0.0
 10
0.2000003933411563
 20
551.3999996553365
 10
0.2000003933411563
 20
0.1999996553364554
 10
797.4000003933411
 20
0.1999996553364785
 10
797.4000003933413
 20
551.3999996553365
  0
LWPOLYLINE
  5
18D3
330
1A
100
AcDbEntity
  8
ZUWAKU
100
AcDbPolyline
 90
        4
 70
     1
 43
0.0
 10
0.6000003933411335
 20
550.9999996553365
 10
0.6000003933411335
 20
0.5999996553364326
 10
797.0000003933415
 20
0.5999996553364788
 10
797.0000003933412
 20
550.9999996553365
  0
LWPOLYLINE
  5
18D4
330
1A
100
AcDbEntity
  8
ZUWAKU
100
AcDbPolyline
 90
        4
 70
     1
 43
0.0
 10
0.0000003933412245
 20
551.5999996553364
 10
0.0000003933412245
 20
-0.0000003446635901
 10
797.6000003933414
 20
-0.0000003446635226
 10
797.6000003933414
 20
551.5999996553366
  0
LWPOLYLINE
  5
18D5
330
1A
100
AcDbEntity
  8
ZUWAKU
100
AcDbPolyline
 90
        4
 70
     1
 43
0.0
 10
0.4000003933412017
 20
551.1999996553365
 10
0.4000003933412017
 20
0.3999996553365008
 10
797.2000003933413
 20
0.3999996553364777
 10
797.2000003933413
 20
551.1999996553365
  0
LWPOLYLINE
  5
18D6
330
1A
100
AcDbEntity
  8
ZUWAKU
100
AcDbPolyline
 90
        4
 70
     1
 43
0.0
 10
0.800000393341179
 20
550.7999996553365
 10
0.800000393341179
 20
0.7999996553364781
 10
796.8000003933412
 20
0.7999996553364781
 10
796.8000003933412
 20
550.7999996553365
  0
TEXT
  5
18D7
330
1A
100
AcDbEntity
  8
moji
100
AcDbText
 10
92.95778998151036
 20
12.74117778561117
 30
0.0
 40
6.0
  1
アーバントップΣ９０
 41
0.9
  7
ｽﾀｲﾙ1
100
AcDbText
  0
HATCH
  5
18D8
330
1A
100
AcDbEntity
  8
ZUWAKU
100
AcDbHatch
 10
0.0
 20
0.0
 30
0.0
210
0.0
220
0.0
230
1.0
  2
ANSI37
 70
     0
 71
     0
 91
        8
 92
        7
 72
     1
 73
     1
 93
       24
 10
14.50226305446108
 20
17.64484813631999
 42
-0.1989123673796348
 10
14.09221254812235
 20
18.63479762998104
 42
0.0
 10
14.09221254812235
 20
19.92499965533642
 42
-0.4142135623730912
 10
14.61721254812233
 20
20.44999965533641
 42
0.0
 10
17.59221254812223
 20
20.44999965533641
 42
0.4142135623731546
 10
18.11721254812233
 20
20.9749996553364
 42
0.0
 10
18.11721254812233
 20
22.72499965533642
 42
0.4142135623731586
 10
17.59221254812223
 20
23.24999965533642
 42
0.0
 10
14.09221254812235
 20
23.24999965533642
 42
0.4142135623730928
 10
11.29221254812239
 20
20.44999965533644
 42
0.0
 10
11.29221254812239
 20
18.63479762998117
 42
0.1989123673796619
 10
12.52236406713882
 20
15.66494914899757
 42
0.0
 10
15.4321620417835
 20
12.75515117435291
 42
-0.1989123673796613
 10
15.84221254812235
 20
11.76520168069172
 42
0.0
 10
15.84221254812235
 20
10.4749996553364
 42
-0.4142135623730911
 10
15.31721254812237
 20
9.949999655336413
 42
0.0
 10
12.34221254812246
 20
9.949999655336413
 42
0.4142135623731526
 10
11.81721254812237
 20
9.424999655336425
 42
0.0
 10
11.81721254812237
 20
7.674999655336404
 42
0.4142135623731526
 10
12.34221254812246
 20
7.149999655336416
 42
0.0
 10
15.84221254812235
 20
7.149999655336416
 42
0.4142135623731044
 10
18.64221254812242
 20
9.949999655336391
 42
0.0
 10
18.64221254812242
 20
11.76520168069166
 42
0.1989123673796604
 10
17.41206102910587
 20
14.7350501616752
 42
0.0
 97
        0
 92
        7
 72
     1
 73
     1
 93
       16
 10
23.54221254812239
 20
19.04999965533642
 42
-0.4142135623730935
 10
24.94221254812237
 20
20.44999965533641
 42
0.0
 10
26.86721254812233
 20
20.44999965533641
 42
0.4142135623731546
 10
27.39221254812242
 20
20.9749996553364
 42
0.0
 10
27.39221254812242
 20
22.72499965533642
 42
0.4142135623730952
 10
26.86721254812244
 20
23.24999965533642
 42
0.0
 10
24.94221254812226
 20
23.24999965533637
 42
0.4142135623730892
 10
20.74221254812233
 20
19.04999965533635
 42
0.0
 10
20.74221254812233
 20
11.34999965533644
 42
0.4142135623730969
 10
24.94221254812237
 20
7.149999655336416
 42
0.0
 10
26.86721254812233
 20
7.149999655336416
 42
0.4142135623731526
 10
27.39221254812242
 20
7.674999655336404
 42
0.0
 10
27.39221254812242
 20
9.424999655336425
 42
0.414213562373089
 10
26.86721254812244
 20
9.949999655336413
 42
0.0
 10
24.94221254812237
 20
9.949999655336413
 42
-0.4142135623730928
 10
23.54221254812239
 20
11.3499996553364
 42
0.0
 97
        0
 92
        7
 72
     1
 73
     1
 93
        2
 10
24.24221254812233
 20
15.19999965533641
 42
1.0
 10
27.74221254812233
 20
15.19999965533641
 42
1.0
 97
        0
 92
        7
 72
     1
 73
     1
 93
       26
 10
37.31485903030034
 20
19.20504684889984
 42
0.0
 10
38.37649866343816
 20
22.56690568716943
 42
0.5069206636600134
 10
37.8758677642428
 20
23.24999965533642
 42
0.0
 10
36.17697838463357
 20
23.24999965533642
 42
0.3272098845218764
 10
35.67634748543821
 20
22.88309362350339
 42
0.0
 10
33.80807761080644
 20
16.96690568716949
 42
-0.3272098845219541
 10
33.30744671161096
 20
16.59999965533641
 42
0.0
 10
33.16721254812251
 20
16.59999965533641
 42
-0.4142135623731526
 10
32.64221254812242
 20
17.1249996553364
 42
0.0
 10
32.64221254812242
 20
22.72499965533642
 42
0.4142135623730952
 10
32.11721254812244
 20
23.24999965533642
 42
0.0
 10
30.36721254812233
 20
23.24999965533642
 42
0.4142135623730872
 10
29.84221254812235
 20
22.72499965533643
 42
0.0
 10
29.84221254812235
 20
7.674999655336404
 42
0.414213562373089
 10
30.36721254812233
 20
7.149999655336416
 42
0.0
 10
32.11721254812233
 20
7.149999655336416
 42
0.4142135623731526
 10
32.64221254812242
 20
7.674999655336404
 42
0.0
 10
32.64221254812242
 20
13.27499965533643
 42
-0.4142135623731526
 10
33.16721254812251
 20
13.79999965533641
 42
0.0
 10
33.30744671161108
 20
13.79999965533641
 42
-0.3272098845218915
 10
33.80807761080644
 20
13.43309362350334
 42
0.0
 10
35.67634748543821
 20
7.516905687169487
 42
0.3272098845218902
 10
36.17697838463357
 20
7.149999655336416
 42
0.0
 10
37.8758677642428
 20
7.149999655336416
 42
0.5069206636600334
 10
38.37649866343816
 20
7.833093623503423
 42
0.0
 10
36.0501072849645
 20
15.19999965533655
 42
0.0
 97
        0
 92
        7
 72
     1
 73
     1
 93
        8
 10
43.49221254812233
 20
22.72499965533643
 42
0.4142135623731546
 10
42.96721254812223
 20
23.24999965533642
 42
0.0
 10
41.21721254812246
 20
23.24999965533642
 42
0.4142135623731506
 10
40.69221254812237
 20
22.72499965533643
 42
0.0
 10
40.69221254812237
 20
7.674999655336404
 42
0.4142135623731526
 10
41.21721254812246
 20
7.149999655336416
 42
0.0
 10
42.96721254812223
 20
7.149999655336416
 42
0.4142135623731526
 10
43.49221254812233
 20
7.674999655336404
 42
0.0
 97
        0
 92
        7
 72
     1
 73
     1
 93
       24
 10
48.39221254812242
 20
19.92499965533642
 42
-0.4142135623731547
 10
48.91721254812251
 20
20.44999965533641
 42
0.0
 10
51.89221254812242
 20
20.44999965533641
 42
0.4142135623730911
 10
52.41721254812239
 20
20.9749996553364
 42
0.0
 10
52.41721254812239
 20
22.72499965533642
 42
0.4142135623730952
 10
51.89221254812242
 20
23.24999965533642
 42
0.0
 10
48.39221254812242
 20
23.24999965533642
 42
0.4142135623731048
 10
45.59221254812235
 20
20.44999965533644
 42
0.0
 10
45.59221254812235
 20
18.63479762998117
 42
0.1989123673796613
 10
46.82236406713889
 20
15.66494914899762
 42
0.0
 10
49.73216204178357
 20
12.75515117435295
 42
-0.1989123673796402
 10
50.14221254812242
 20
11.76520168069188
 42
0.0
 10
50.14221254812242
 20
10.4749996553364
 42
-0.4142135623730911
 10
49.61721254812244
 20
9.949999655336413
 42
0.0
 10
46.64221254812242
 20
9.949999655336413
 42
0.4142135623731526
 10
46.11721254812233
 20
9.424999655336425
 42
0.0
 10
46.11721254812233
 20
7.674999655336404
 42
0.414213562373089
 10
46.6422125481223
 20
7.149999655336416
 42
0.0
 10
50.14221254812242
 20
7.149999655336416
 42
0.4142135623730925
 10
52.94221254812237
 20
9.949999655336391
 42
0.0
 10
52.94221254812237
 20
11.76520168069166
 42
0.1989123673796675
 10
51.71206102910583
 20
14.73505016167532
 42
0.0
 10
48.80226305446126
 20
17.64484813631983
 42
-0.1989123673796653
 10
48.39221254812242
 20
18.634797629981
 42
0.0
 97
        0
 92
        7
 72
     1
 73
     1
 93
       16
 10
57.84221254812235
 20
22.7249996553364
 42
0.414213562373103
 10
57.31721254812237
 20
23.24999965533642
 42
0.0
 10
55.56721254812237
 20
23.24999965533642
 42
0.4142135623730872
 10
55.04221254812239
 20
22.72499965533643
 42
0.0
 10
55.04221254812239
 20
9.949999655336391
 42
0.4142135623730925
 10
57.84221254812235
 20
7.149999655336416
 42
0.0
 10
61.34221254812235
 20
7.149999655336416
 42
0.4142135623731044
 10
64.14221254812242
 20
9.949999655336391
 42
0.0
 10
64.14221254812242
 20
22.72499965533642
 42
0.4142135623730952
 10
63.61721254812244
 20
23.24999965533642
 42
0.0
 10
61.86721254812233
 20
23.24999965533642
 42
0.4142135623730872
 10
61.34221254812235
 20
22.72499965533643
 42
0.0
 10
61.34221254812235
 20
10.99999965533639
 42
-0.414213562373088
 10
60.29221254812239
 20
9.949999655336413
 42
0.0
 10
58.89221254812242
 20
9.949999655336413
 42
-0.4142135623731197
 10
57.84221254812235
 20
10.99999965533639
 42
0.0
 97
        0
 92
        7
 72
     1
 73
     1
 93
        8
 10
69.04221254812239
 20
22.72499965533643
 42
0.4142135623730872
 10
68.51721254812242
 20
23.24999965533642
 42
0.0
 10
66.76721254812242
 20
23.24999965533642
 42
0.4142135623731506
 10
66.24221254812233
 20
22.72499965533643
 42
0.0
 10
66.24221254812233
 20
7.674999655336404
 42
0.414213562373089
 10
66.7672125481223
 20
7.149999655336416
 42
0.0
 10
68.51721254812242
 20
7.149999655336416
 42
0.414213562373089
 10
69.04221254812239
 20
7.674999655336404
 42
0.0
 97
        0
 75
     0
 76
     1
 52
0.0
 41
0.2
 77
     0
 78
     2
 53
45.0
 43
-900.9423039413377
 44
-13.20000034466352
 45
-0.4490128060534576
 46
0.4490128060534577
 79
     0
 53
135.0
 43
-900.9423039413377
 44
-13.20000034466352
 45
-0.4490128060534577
 46
-0.4490128060534576
 79
     0
 47
0.057451373970553
 98
        8
 10
16.07985535636453
 20
15.16717330122197
 10
22.40451539978039
 20
18.84406183778742
 10
25.16436827900088
 20
15.51188130140713
 10
30.91406037497836
 20
16.20129730177791
 10
41.83847241229796
 20
16.66090956931953
 10
46.89820128847077
 20
19.41857597174362
 10
56.55768636574157
 20
18.72915757043143
 10
67.82708001296396
 20
19.18876983797304
  0
LINE
  5
18D9
330
1A
100
AcDbEntity
  8
ZUWAKU
100
AcDbLine
 10
24.94221254812237
 20
23.24999965533637
 30
0.0
 11
26.86721254812233
 21
23.24999965533642
 31
0.0
  0
LINE
  5
18DA
330
1A
100
AcDbEntity
  8
ZUWAKU
100
AcDbLine
 10
26.86721254812233
 20
20.44999965533641
 30
0.0
 11
24.94221254812237
 21
20.44999965533641
 31
0.0
  0
LINE
  5
18DB
330
1A
100
AcDbEntity
  8
ZUWAKU
100
AcDbLine
 10
24.94221254812237
 20
9.949999655336413
 30
0.0
 11
26.86721254812233
 21
9.949999655336413
 31
0.0
  0
LINE
  5
18DC
330
1A
100
AcDbEntity
  8
ZUWAKU
100
AcDbLine
 10
26.86721254812233
 20
7.149999655336416
 30
0.0
 11
24.94221254812237
 21
7.149999655336416
 31
0.0
  0
CIRCLE
  5
18DD
330
1A
100
AcDbEntity
  8
ZUWAKU
100
AcDbCircle
 10
25.99221254812233
 20
15.19999965533641
 30
0.0
 40
1.75
  0
ARC
  5
18DE
330
1A
100
AcDbEntity
  8
ZUWAKU
100
AcDbCircle
 10
15.49221254812233
 20
18.63479762998112
 30
0.0
 40
1.4
100
AcDbArc
 50
180.0000000000016
 51
224.9999999999988
  0
LINE
  5
18DF
330
1A
100
AcDbEntity
  8
ZUWAKU
100
AcDbLine
 10
23.54221254812239
 20
19.04999965533641
 30
0.0
 11
23.54221254812239
 21
11.34999965533642
 31
0.0
  0
LINE
  5
18E0
330
1A
100
AcDbEntity
  8
ZUWAKU
100
AcDbLine
 10
20.74221254812233
 20
11.34999965533642
 30
0.0
 11
20.74221254812233
 21
19.04999965533637
 31
0.0
  0
ARC
  5
18E1
330
1A
100
AcDbEntity
  8
ZUWAKU
100
AcDbCircle
 10
15.49221254812233
 20
18.63479762998112
 30
0.0
 40
4.199999999999999
100
AcDbArc
 50
180.0
 51
225.0
  0
ARC
  5
18E2
330
1A
100
AcDbEntity
  8
ZUWAKU
100
AcDbCircle
 10
15.84221254812235
 20
9.949999655336413
 30
0.0
 40
2.8
100
AcDbArc
 50
270.0
 51
0.0
  0
ARC
  5
18E3
330
1A
100
AcDbEntity
  8
ZUWAKU
100
AcDbCircle
 10
24.94221254812237
 20
11.34999965533642
 30
0.0
 40
4.199999999999999
100
AcDbArc
 50
180.0
 51
270.0
  0
ARC
  5
18E4
330
1A
100
AcDbEntity
  8
ZUWAKU
100
AcDbCircle
 10
14.44221254812237
 20
11.76520168069172
 30
0.0
 40
4.199999999999999
100
AcDbArc
 50
0.0
 51
45.0
  0
LINE
  5
18E5
330
1A
100
AcDbEntity
  8
ZUWAKU
100
AcDbLine
 10
17.41206102910587
 20
14.73505016167524
 30
0.0
 11
14.5022630544612
 21
17.64484813631992
 31
0.0
  0
LINE
  5
18E6
330
1A
100
AcDbEntity
  8
ZUWAKU
100
AcDbLine
 10
15.84221254812235
 20
10.47499965533642
 30
0.0
 11
15.84221254812235
 21
11.76520168069176
 31
0.0
  0
ARC
  5
18E7
330
1A
100
AcDbEntity
  8
ZUWAKU
100
AcDbCircle
 10
15.31721254812237
 20
10.47499965533642
 30
0.0
 40
0.5249999999999999
100
AcDbArc
 50
270.0
 51
0.0
  0
ARC
  5
18E8
330
1A
100
AcDbEntity
  8
ZUWAKU
100
AcDbCircle
 10
14.44221254812237
 20
11.76520168069176
 30
0.0
 40
1.4
100
AcDbArc
 50
0.0
 51
45.0
  0
LINE
  5
18E9
330
1A
100
AcDbEntity
  8
ZUWAKU
100
AcDbLine
 10
11.81721254812237
 20
7.674999655336414
 30
0.0
 11
11.81721254812237
 21
9.424999655336414
 31
0.0
  0
ARC
  5
18EA
330
1A
100
AcDbEntity
  8
ZUWAKU
100
AcDbCircle
 10
12.34221254812235
 20
7.674999655336414
 30
0.0
 40
0.5249999999999999
100
AcDbArc
 50
180.0
 51
270.0
  0
ARC
  5
18EB
330
1A
100
AcDbEntity
  8
ZUWAKU
100
AcDbCircle
 10
12.34221254812235
 20
9.424999655336414
 30
0.0
 40
0.5249999999999999
100
AcDbArc
 50
90.0
 51
180.0
  0
LINE
  5
18EC
330
1A
100
AcDbEntity
  8
ZUWAKU
100
AcDbLine
 10
12.34221254812235
 20
7.149999655336416
 30
0.0
 11
15.84221254812235
 21
7.149999655336416
 31
0.0
  0
LINE
  5
18ED
330
1A
100
AcDbEntity
  8
ZUWAKU
100
AcDbLine
 10
12.34221254812235
 20
9.949999655336413
 30
0.0
 11
15.31721254812237
 21
9.949999655336413
 31
0.0
  0
LINE
  5
18EE
330
1A
100
AcDbEntity
  8
ZUWAKU
100
AcDbLine
 10
12.52236406713882
 20
15.66494914899759
 30
0.0
 11
15.4321620417835
 21
12.75515117435293
 31
0.0
  0
LINE
  5
18EF
330
1A
100
AcDbEntity
  8
ZUWAKU
100
AcDbLine
 10
18.64221254812242
 20
9.949999655336413
 30
0.0
 11
18.64221254812242
 21
11.76520168069176
 31
0.0
  0
ARC
  5
18F0
330
1A
100
AcDbEntity
  8
ZUWAKU
100
AcDbCircle
 10
24.94221254812237
 20
11.34999965533642
 30
0.0
 40
1.4
100
AcDbArc
 50
180.0
 51
270.0
  0
ARC
  5
18F1
330
1A
100
AcDbEntity
  8
ZUWAKU
100
AcDbCircle
 10
17.59221254812235
 20
22.72499965533641
 30
0.0
 40
0.5249999999999999
100
AcDbArc
 50
0.0
 51
90.0
  0
ARC
  5
18F2
330
1A
100
AcDbEntity
  8
ZUWAKU
100
AcDbCircle
 10
17.59221254812235
 20
20.97499965533641
 30
0.0
 40
0.5249999999999999
100
AcDbArc
 50
270.0
 51
0.0
  0
LINE
  5
18F3
330
1A
100
AcDbEntity
  8
ZUWAKU
100
AcDbLine
 10
14.09221254812235
 20
23.24999965533642
 30
0.0
 11
17.59221254812235
 21
23.24999965533642
 31
0.0
  0
ARC
  5
18F4
330
1A
100
AcDbEntity
  8
ZUWAKU
100
AcDbCircle
 10
14.61721254812233
 20
19.92499965533641
 30
0.0
 40
0.5249999999999999
100
AcDbArc
 50
90.0
 51
180.0
  0
LINE
  5
18F5
330
1A
100
AcDbEntity
  8
ZUWAKU
100
AcDbLine
 10
14.09221254812235
 20
19.92499965533641
 30
0.0
 11
14.09221254812235
 21
18.63479762998107
 31
0.0
  0
LINE
  5
18F6
330
1A
100
AcDbEntity
  8
ZUWAKU
100
AcDbLine
 10
17.59221254812235
 20
20.44999965533641
 30
0.0
 11
14.61721254812233
 21
20.44999965533641
 31
0.0
  0
LINE
  5
18F7
330
1A
100
AcDbEntity
  8
ZUWAKU
100
AcDbLine
 10
11.29221254812239
 20
20.44999965533641
 30
0.0
 11
11.29221254812239
 21
18.63479762998107
 31
0.0
  0
ARC
  5
18F8
330
1A
100
AcDbEntity
  8
ZUWAKU
100
AcDbCircle
 10
14.09221254812235
 20
20.44999965533641
 30
0.0
 40
2.8
100
AcDbArc
 50
90.0
 51
180.0
  0
LINE
  5
18F9
330
1A
100
AcDbEntity
  8
ZUWAKU
100
AcDbLine
 10
18.11721254812233
 20
22.72499965533641
 30
0.0
 11
18.11721254812233
 21
20.97499965533641
 31
0.0
  0
ARC
  5
18FA
330
1A
100
AcDbEntity
  8
ZUWAKU
100
AcDbCircle
 10
24.94221254812237
 20
19.04999965533641
 30
0.0
 40
1.4
100
AcDbArc
 50
90.0
 51
180.0
  0
ARC
  5
18FB
330
1A
100
AcDbEntity
  8
ZUWAKU
100
AcDbCircle
 10
24.94221254812237
 20
19.04999965533637
 30
0.0
 40
4.199999999999999
100
AcDbArc
 50
90.0
 51
180.0
  0
LINE
  5
18FC
330
1A
100
AcDbEntity
  8
ZUWAKU
100
AcDbLine
 10
79.32662994132943
 20
29.99999965533641
 30
0.0
 11
79.32662994132966
 21
0.7999996553364781
 31
0.0
  0
LINE
  5
18FD
330
1A
100
AcDbEntity
  8
ZUWAKU
100
AcDbLine
 10
79.52662994132948
 20
29.99999965533641
 30
0.0
 11
79.5266299413297
 21
0.7999996553364781
 31
0.0
  0
LINE
  5
18FE
330
1A
100
AcDbEntity
  8
ZUWAKU
100
AcDbLine
 10
79.12662994132961
 20
29.99999965533641
 30
0.0
 11
79.12662994132961
 21
0.7999996553364781
 31
0.0
  0
LINE
  5
18FF
330
1A
100
AcDbEntity
  8
ZUWAKU
100
AcDbLine
 10
64.14221254812242
 20
9.949999655336413
 30
0.0
 11
64.14221254812242
 21
22.72499965533641
 31
0.0
  0
LINE
  5
1900
330
1A
100
AcDbEntity
  8
ZUWAKU
100
AcDbLine
 10
61.34221254812235
 20
22.72499965533641
 30
0.0
 11
61.34221254812235
 21
10.99999965533641
 31
0.0
  0
LINE
  5
1901
330
1A
100
AcDbEntity
  8
ZUWAKU
100
AcDbLine
 10
69.04221254812239
 20
7.674999655336414
 30
0.0
 11
69.04221254812239
 21
22.72499965533641
 31
0.0
  0
LINE
  5
1902
330
1A
100
AcDbEntity
  8
ZUWAKU
100
AcDbLine
 10
66.24221254812233
 20
22.72499965533641
 30
0.0
 11
66.24221254812233
 21
7.674999655336414
 31
0.0
  0
ARC
  5
1903
330
1A
100
AcDbEntity
  8
ZUWAKU
100
AcDbCircle
 10
49.79221254812239
 20
18.63479762998112
 30
0.0
 40
1.4
100
AcDbArc
 50
180.0000000000016
 51
224.9999999999988
  0
ARC
  5
1904
330
1A
100
AcDbEntity
  8
ZUWAKU
100
AcDbCircle
 10
49.79221254812239
 20
18.63479762998112
 30
0.0
 40
4.199999999999999
100
AcDbArc
 50
180.0
 51
225.0
  0
LINE
  5
1905
330
1A
100
AcDbEntity
  8
ZUWAKU
100
AcDbLine
 10
37.31485903030034
 20
19.20504684889984
 30
0.0
 11
36.0501072849645
 21
15.19999965533643
 31
0.0
  0
LINE
  5
1906
330
1A
100
AcDbEntity
  8
ZUWAKU
100
AcDbLine
 10
40.69221254812237
 20
22.72499965533641
 30
0.0
 11
40.69221254812237
 21
7.674999655336414
 31
0.0
  0
LINE
  5
1907
330
1A
100
AcDbEntity
  8
ZUWAKU
100
AcDbLine
 10
43.49221254812233
 20
7.674999655336414
 30
0.0
 11
43.49221254812233
 21
22.72499965533641
 31
0.0
  0
LINE
  5
1908
330
1A
100
AcDbEntity
  8
ZUWAKU
100
AcDbLine
 10
55.04221254812239
 20
22.72499965533641
 30
0.0
 11
55.04221254812239
 21
9.949999655336413
 31
0.0
  0
LINE
  5
1909
330
1A
100
AcDbEntity
  8
ZUWAKU
100
AcDbLine
 10
57.84221254812235
 20
10.99999965533641
 30
0.0
 11
57.84221254812235
 21
22.72499965533641
 31
0.0
  0
LINE
  5
190A
330
1A
100
AcDbEntity
  8
ZUWAKU
100
AcDbLine
 10
32.64221254812242
 20
17.12499965533642
 30
0.0
 11
32.64221254812242
 21
22.72499965533641
 31
0.0
  0
LINE
  5
190B
330
1A
100
AcDbEntity
  8
ZUWAKU
100
AcDbLine
 10
29.84221254812235
 20
22.72499965533641
 30
0.0
 11
29.84221254812235
 21
7.674999655336414
 31
0.0
  0
LINE
  5
190C
330
1A
100
AcDbEntity
  8
ZUWAKU
100
AcDbLine
 10
35.67634748543821
 20
22.88309362350339
 30
0.0
 11
33.80807761080644
 21
16.96690568716944
 31
0.0
  0
LINE
  5
190D
330
1A
100
AcDbEntity
  8
ZUWAKU
100
AcDbLine
 10
60.29221254812239
 20
9.949999655336413
 30
0.0
 11
58.89221254812242
 21
9.949999655336413
 31
0.0
  0
LINE
  5
190E
330
1A
100
AcDbEntity
  8
ZUWAKU
100
AcDbLine
 10
57.84221254812235
 20
7.149999655336416
 30
0.0
 11
61.34221254812235
 21
7.149999655336416
 31
0.0
  0
LINE
  5
190F
330
1A
100
AcDbEntity
  8
ZUWAKU
100
AcDbLine
 10
41.21721254812235
 20
7.149999655336416
 30
0.0
 11
42.96721254812235
 21
7.149999655336416
 31
0.0
  0
LINE
  5
1910
330
1A
100
AcDbEntity
  8
ZUWAKU
100
AcDbLine
 10
35.67634748543821
 20
7.516905687169441
 30
0.0
 11
33.80807761080644
 21
13.43309362350338
 31
0.0
  0
ARC
  5
1911
330
1A
100
AcDbEntity
  8
ZUWAKU
100
AcDbCircle
 10
33.30744671161108
 20
17.12499965533642
 30
0.0
 40
0.5249999999999999
100
AcDbArc
 50
270.0
 51
342.474431626277
  0
LINE
  5
1912
330
1A
100
AcDbEntity
  8
ZUWAKU
100
AcDbLine
 10
33.30744671161108
 20
16.59999965533641
 30
0.0
 11
33.16721254812239
 21
16.59999965533641
 31
0.0
  0
LINE
  5
1913
330
1A
100
AcDbEntity
  8
ZUWAKU
100
AcDbLine
 10
33.16721254812239
 20
13.79999965533641
 30
0.0
 11
33.30744671161108
 21
13.79999965533641
 31
0.0
  0
ARC
  5
1914
330
1A
100
AcDbEntity
  8
ZUWAKU
100
AcDbCircle
 10
33.16721254812239
 20
17.12499965533642
 30
0.0
 40
0.5249999999999999
100
AcDbArc
 50
180.0
 51
270.0
  0
LINE
  5
1915
330
1A
100
AcDbEntity
  8
ZUWAKU
100
AcDbLine
 10
30.36721254812233
 20
7.149999655336416
 30
0.0
 11
32.11721254812233
 21
7.149999655336416
 31
0.0
  0
ARC
  5
1916
330
1A
100
AcDbEntity
  8
ZUWAKU
100
AcDbCircle
 10
32.11721254812233
 20
7.674999655336414
 30
0.0
 40
0.5249999999999999
100
AcDbArc
 50
270.0
 51
0.0
  0
LINE
  5
1917
330
1A
100
AcDbEntity
  8
ZUWAKU
100
AcDbLine
 10
32.64221254812242
 20
7.674999655336414
 30
0.0
 11
32.64221254812242
 21
13.27499965533642
 31
0.0
  0
LINE
  5
1918
330
1A
100
AcDbEntity
  8
ZUWAKU
100
AcDbLine
 10
27.39221254812242
 20
9.424999655336414
 30
0.0
 11
27.39221254812242
 21
7.674999655336414
 31
0.0
  0
ARC
  5
1919
330
1A
100
AcDbEntity
  8
ZUWAKU
100
AcDbCircle
 10
26.86721254812233
 20
7.674999655336414
 30
0.0
 40
0.5249999999999999
100
AcDbArc
 50
270.0
 51
0.0
  0
ARC
  5
191A
330
1A
100
AcDbEntity
  8
ZUWAKU
100
AcDbCircle
 10
26.86721254812233
 20
9.424999655336414
 30
0.0
 40
0.5249999999999999
100
AcDbArc
 50
0.0
 51
90.0
  0
ARC
  5
191B
330
1A
100
AcDbEntity
  8
ZUWAKU
100
AcDbCircle
 10
30.36721254812233
 20
7.674999655336414
 30
0.0
 40
0.5249999999999999
100
AcDbArc
 50
180.0
 51
270.0
  0
ARC
  5
191C
330
1A
100
AcDbEntity
  8
ZUWAKU
100
AcDbCircle
 10
33.30744671161108
 20
13.27499965533642
 30
0.0
 40
0.5249999999999999
100
AcDbArc
 50
17.52556837372303
 51
90.0
  0
ARC
  5
191D
330
1A
100
AcDbEntity
  8
ZUWAKU
100
AcDbCircle
 10
33.16721254812239
 20
13.27499965533642
 30
0.0
 40
0.5249999999999999
100
AcDbArc
 50
90.0
 51
180.0
  0
ARC
  5
191E
330
1A
100
AcDbEntity
  8
ZUWAKU
100
AcDbCircle
 10
41.21721254812235
 20
7.674999655336414
 30
0.0
 40
0.5249999999999999
100
AcDbArc
 50
180.0
 51
270.0
  0
LINE
  5
191F
330
1A
100
AcDbEntity
  8
ZUWAKU
100
AcDbLine
 10
36.17697838463369
 20
7.149999655336416
 30
0.0
 11
37.87586776424269
 21
7.149999655336416
 31
0.0
  0
ARC
  5
1920
330
1A
100
AcDbEntity
  8
ZUWAKU
100
AcDbCircle
 10
37.87586776424269
 20
7.674999655336414
 30
0.0
 40
0.5249999999999999
100
AcDbArc
 50
270.0
 51
17.52556837372303
  0
LINE
  5
1921
330
1A
100
AcDbEntity
  8
ZUWAKU
100
AcDbLine
 10
38.37649866343816
 20
7.833093623503387
 30
0.0
 11
36.0501072849645
 21
15.19999965533643
 31
0.0
  0
ARC
  5
1922
330
1A
100
AcDbEntity
  8
ZUWAKU
100
AcDbCircle
 10
36.17697838463369
 20
7.674999655336414
 30
0.0
 40
0.5249999999999999
100
AcDbArc
 50
197.525568373723
 51
270.0
  0
ARC
  5
1923
330
1A
100
AcDbEntity
  8
ZUWAKU
100
AcDbCircle
 10
57.84221254812235
 20
9.949999655336413
 30
0.0
 40
2.8
100
AcDbArc
 50
180.0
 51
270.0
  0
ARC
  5
1924
330
1A
100
AcDbEntity
  8
ZUWAKU
100
AcDbCircle
 10
50.14221254812242
 20
9.949999655336413
 30
0.0
 40
2.8
100
AcDbArc
 50
270.0
 51
0.0
  0
LINE
  5
1925
330
1A
100
AcDbEntity
  8
ZUWAKU
100
AcDbLine
 10
51.71206102910594
 20
14.73505016167524
 30
0.0
 11
48.80226305446115
 21
17.64484813631992
 31
0.0
  0
LINE
  5
1926
330
1A
100
AcDbEntity
  8
ZUWAKU
100
AcDbLine
 10
50.14221254812242
 20
10.47499965533642
 30
0.0
 11
50.14221254812242
 21
11.76520168069176
 31
0.0
  0
ARC
  5
1927
330
1A
100
AcDbEntity
  8
ZUWAKU
100
AcDbCircle
 10
48.74221254812233
 20
11.76520168069176
 30
0.0
 40
1.4
100
AcDbArc
 50
0.0
 51
45.0
  0
ARC
  5
1928
330
1A
100
AcDbEntity
  8
ZUWAKU
100
AcDbCircle
 10
49.61721254812233
 20
10.47499965533642
 30
0.0
 40
0.5249999999999999
100
AcDbArc
 50
270.0
 51
0.0
  0
LINE
  5
1929
330
1A
100
AcDbEntity
  8
ZUWAKU
100
AcDbLine
 10
46.11721254812233
 20
7.674999655336414
 30
0.0
 11
46.11721254812233
 21
9.424999655336414
 31
0.0
  0
ARC
  5
192A
330
1A
100
AcDbEntity
  8
ZUWAKU
100
AcDbCircle
 10
46.64221254812242
 20
7.674999655336414
 30
0.0
 40
0.5249999999999999
100
AcDbArc
 50
180.0
 51
270.0
  0
ARC
  5
192B
330
1A
100
AcDbEntity
  8
ZUWAKU
100
AcDbCircle
 10
42.96721254812235
 20
7.674999655336414
 30
0.0
 40
0.5249999999999999
100
AcDbArc
 50
270.0
 51
0.0
  0
ARC
  5
192C
330
1A
100
AcDbEntity
  8
ZUWAKU
100
AcDbCircle
 10
46.64221254812242
 20
9.424999655336414
 30
0.0
 40
0.5249999999999999
100
AcDbArc
 50
90.0
 51
180.0
  0
LINE
  5
192D
330
1A
100
AcDbEntity
  8
ZUWAKU
100
AcDbLine
 10
46.64221254812242
 20
9.949999655336413
 30
0.0
 11
49.61721254812233
 21
9.949999655336413
 31
0.0
  0
LINE
  5
192E
330
1A
100
AcDbEntity
  8
ZUWAKU
100
AcDbLine
 10
46.64221254812242
 20
7.149999655336416
 30
0.0
 11
50.14221254812242
 21
7.149999655336416
 31
0.0
  0
LINE
  5
192F
330
1A
100
AcDbEntity
  8
ZUWAKU
100
AcDbLine
 10
46.82236406713889
 20
15.66494914899759
 30
0.0
 11
49.73216204178357
 21
12.75515117435293
 31
0.0
  0
LINE
  5
1930
330
1A
100
AcDbEntity
  8
ZUWAKU
100
AcDbLine
 10
52.94221254812237
 20
9.949999655336413
 30
0.0
 11
52.94221254812237
 21
11.76520168069176
 31
0.0
  0
ARC
  5
1931
330
1A
100
AcDbEntity
  8
ZUWAKU
100
AcDbCircle
 10
48.74221254812233
 20
11.76520168069172
 30
0.0
 40
4.199999999999999
100
AcDbArc
 50
0.0
 51
45.0
  0
ARC
  5
1932
330
1A
100
AcDbEntity
  8
ZUWAKU
100
AcDbCircle
 10
58.89221254812242
 20
10.99999965533641
 30
0.0
 40
1.05
100
AcDbArc
 50
180.0
 51
270.0
  0
ARC
  5
1933
330
1A
100
AcDbEntity
  8
ZUWAKU
100
AcDbCircle
 10
61.34221254812235
 20
9.949999655336413
 30
0.0
 40
2.8
100
AcDbArc
 50
270.0
 51
0.0
  0
LINE
  5
1934
330
1A
100
AcDbEntity
  8
ZUWAKU
100
AcDbLine
 10
66.76721254812242
 20
7.149999655336416
 30
0.0
 11
68.51721254812242
 21
7.149999655336416
 31
0.0
  0
ARC
  5
1935
330
1A
100
AcDbEntity
  8
ZUWAKU
100
AcDbCircle
 10
66.76721254812242
 20
7.674999655336414
 30
0.0
 40
0.5249999999999999
100
AcDbArc
 50
180.0
 51
270.0
  0
ARC
  5
1936
330
1A
100
AcDbEntity
  8
ZUWAKU
100
AcDbCircle
 10
60.29221254812239
 20
10.99999965533641
 30
0.0
 40
1.05
100
AcDbArc
 50
270.0
 51
0.0
  0
ARC
  5
1937
330
1A
100
AcDbEntity
  8
ZUWAKU
100
AcDbCircle
 10
68.51721254812242
 20
7.674999655336414
 30
0.0
 40
0.5249999999999999
100
AcDbArc
 50
270.0
 51
0.0
  0
LINE
  5
1938
330
1A
100
AcDbEntity
  8
ZUWAKU
100
AcDbLine
 10
42.96721254812235
 20
23.24999965533642
 30
0.0
 11
41.21721254812235
 21
23.24999965533642
 31
0.0
  0
ARC
  5
1939
330
1A
100
AcDbEntity
  8
ZUWAKU
100
AcDbCircle
 10
32.11721254812233
 20
22.72499965533641
 30
0.0
 40
0.5249999999999999
100
AcDbArc
 50
0.0
 51
90.0
  0
LINE
  5
193A
330
1A
100
AcDbEntity
  8
ZUWAKU
100
AcDbLine
 10
32.11721254812233
 20
23.24999965533642
 30
0.0
 11
30.36721254812233
 21
23.24999965533642
 31
0.0
  0
ARC
  5
193B
330
1A
100
AcDbEntity
  8
ZUWAKU
100
AcDbCircle
 10
26.86721254812233
 20
22.72499965533641
 30
0.0
 40
0.5249999999999999
100
AcDbArc
 50
0.0
 51
90.0
  0
ARC
  5
193C
330
1A
100
AcDbEntity
  8
ZUWAKU
100
AcDbCircle
 10
30.36721254812233
 20
22.72499965533641
 30
0.0
 40
0.5249999999999999
100
AcDbArc
 50
90.0
 51
180.0
  0
ARC
  5
193D
330
1A
100
AcDbEntity
  8
ZUWAKU
100
AcDbCircle
 10
26.86721254812233
 20
20.97499965533641
 30
0.0
 40
0.5249999999999999
100
AcDbArc
 50
270.0
 51
0.0
  0
LINE
  5
193E
330
1A
100
AcDbEntity
  8
ZUWAKU
100
AcDbLine
 10
27.39221254812242
 20
22.72499965533641
 30
0.0
 11
27.39221254812242
 21
20.97499965533641
 31
0.0
  0
ARC
  5
193F
330
1A
100
AcDbEntity
  8
ZUWAKU
100
AcDbCircle
 10
41.21721254812235
 20
22.72499965533641
 30
0.0
 40
0.5249999999999999
100
AcDbArc
 50
90.0
 51
180.0
  0
LINE
  5
1940
330
1A
100
AcDbEntity
  8
ZUWAKU
100
AcDbLine
 10
36.17697838463369
 20
23.24999965533642
 30
0.0
 11
37.87586776424269
 21
23.24999965533642
 31
0.0
  0
ARC
  5
1941
330
1A
100
AcDbEntity
  8
ZUWAKU
100
AcDbCircle
 10
37.87586776424269
 20
22.72499965533641
 30
0.0
 40
0.5249999999999999
100
AcDbArc
 50
342.474431626277
 51
90.0
  0
LINE
  5
1942
330
1A
100
AcDbEntity
  8
ZUWAKU
100
AcDbLine
 10
38.37649866343816
 20
22.56690568716945
 30
0.0
 11
37.31485903030034
 21
19.20504684889984
 31
0.0
  0
ARC
  5
1943
330
1A
100
AcDbEntity
  8
ZUWAKU
100
AcDbCircle
 10
36.17697838463369
 20
22.72499965533641
 30
0.0
 40
0.5249999999999999
100
AcDbArc
 50
90.0
 51
162.474431626277
  0
LINE
  5
1944
330
1A
100
AcDbEntity
  8
ZUWAKU
100
AcDbLine
 10
48.39221254812242
 20
23.24999965533642
 30
0.0
 11
51.89221254812242
 21
23.24999965533642
 31
0.0
  0
LINE
  5
1945
330
1A
100
AcDbEntity
  8
ZUWAKU
100
AcDbLine
 10
51.89221254812242
 20
20.44999965533641
 30
0.0
 11
48.91721254812239
 21
20.44999965533641
 31
0.0
  0
ARC
  5
1946
330
1A
100
AcDbEntity
  8
ZUWAKU
100
AcDbCircle
 10
48.91721254812239
 20
19.92499965533641
 30
0.0
 40
0.5249999999999999
100
AcDbArc
 50
90.0
 51
180.0
  0
LINE
  5
1947
330
1A
100
AcDbEntity
  8
ZUWAKU
100
AcDbLine
 10
48.39221254812242
 20
19.92499965533641
 30
0.0
 11
48.39221254812242
 21
18.63479762998107
 31
0.0
  0
ARC
  5
1948
330
1A
100
AcDbEntity
  8
ZUWAKU
100
AcDbCircle
 10
42.96721254812235
 20
22.72499965533641
 30
0.0
 40
0.5249999999999999
100
AcDbArc
 50
0.0
 51
90.0
  0
LINE
  5
1949
330
1A
100
AcDbEntity
  8
ZUWAKU
100
AcDbLine
 10
45.59221254812235
 20
20.44999965533641
 30
0.0
 11
45.59221254812235
 21
18.63479762998107
 31
0.0
  0
ARC
  5
194A
330
1A
100
AcDbEntity
  8
ZUWAKU
100
AcDbCircle
 10
48.39221254812242
 20
20.44999965533641
 30
0.0
 40
2.8
100
AcDbArc
 50
90.0
 51
180.0
  0
ARC
  5
194B
330
1A
100
AcDbEntity
  8
ZUWAKU
100
AcDbCircle
 10
57.31721254812237
 20
22.72499965533641
 30
0.0
 40
0.5249999999999999
100
AcDbArc
 50
0.0
 51
90.0
  0
ARC
  5
194C
330
1A
100
AcDbEntity
  8
ZUWAKU
100
AcDbCircle
 10
55.56721254812237
 20
22.72499965533641
 30
0.0
 40
0.5249999999999999
100
AcDbArc
 50
90.0
 51
180.0
  0
LINE
  5
194D
330
1A
100
AcDbEntity
  8
ZUWAKU
100
AcDbLine
 10
57.31721254812237
 20
23.24999965533642
 30
0.0
 11
55.56721254812237
 21
23.24999965533642
 31
0.0
  0
ARC
  5
194E
330
1A
100
AcDbEntity
  8
ZUWAKU
100
AcDbCircle
 10
51.89221254812242
 20
22.72499965533641
 30
0.0
 40
0.5249999999999999
100
AcDbArc
 50
0.0
 51
90.0
  0
ARC
  5
194F
330
1A
100
AcDbEntity
  8
ZUWAKU
100
AcDbCircle
 10
51.89221254812242
 20
20.97499965533641
 30
0.0
 40
0.5249999999999999
100
AcDbArc
 50
270.0
 51
0.0
  0
LINE
  5
1950
330
1A
100
AcDbEntity
  8
ZUWAKU
100
AcDbLine
 10
52.41721254812239
 20
22.72499965533641
 30
0.0
 11
52.41721254812239
 21
20.97499965533641
 31
0.0
  0
LINE
  5
1951
330
1A
100
AcDbEntity
  8
ZUWAKU
100
AcDbLine
 10
68.51721254812242
 20
23.24999965533642
 30
0.0
 11
66.76721254812242
 21
23.24999965533642
 31
0.0
  0
ARC
  5
1952
330
1A
100
AcDbEntity
  8
ZUWAKU
100
AcDbCircle
 10
66.76721254812242
 20
22.72499965533641
 30
0.0
 40
0.5249999999999999
100
AcDbArc
 50
90.0
 51
180.0
  0
ARC
  5
1953
330
1A
100
AcDbEntity
  8
ZUWAKU
100
AcDbCircle
 10
63.61721254812233
 20
22.72499965533641
 30
0.0
 40
0.5249999999999999
100
AcDbArc
 50
0.0
 51
90.0
  0
LINE
  5
1954
330
1A
100
AcDbEntity
  8
ZUWAKU
100
AcDbLine
 10
63.61721254812233
 20
23.24999965533642
 30
0.0
 11
61.86721254812233
 21
23.24999965533642
 31
0.0
  0
ARC
  5
1955
330
1A
100
AcDbEntity
  8
ZUWAKU
100
AcDbCircle
 10
61.86721254812233
 20
22.72499965533641
 30
0.0
 40
0.5249999999999999
100
AcDbArc
 50
90.0
 51
180.0
  0
ARC
  5
1956
330
1A
100
AcDbEntity
  8
ZUWAKU
100
AcDbCircle
 10
68.51721254812242
 20
22.72499965533641
 30
0.0
 40
0.5249999999999999
100
AcDbArc
 50
0.0
 51
90.0
  0
TEXT
  5
1957
330
1A
100
AcDbEntity
  8
moji
100
AcDbText
 10
239.8272030741923
 20
3.204920712743832
 30
0.0
 40
5.6
  1
Σ９０－ＵＴ６０
 41
0.9
  7
ｽﾀｲﾙ1
100
AcDbText
  0
TEXT
  5
1958
330
1A
100
AcDbEntity
  8
moji
100
AcDbText
 10
239.8272030741923
 20
18.0049207127438
 30
0.0
 40
5.6
  1
じょうご
 41
0.9
  7
ｽﾀｲﾙ1
100
AcDbText
  0
LINE
  5
1959
330
1A
100
AcDbEntity
  8
ZUWAKU
100
AcDbLine
 10
208.2466016834092
 20
29.99999965533641
 30
0.0
 11
208.2466016834092
 21
0.7999996553364781
 31
0.0
  0
LINE
  5
195A
330
1A
100
AcDbEntity
  8
ZUWAKU
100
AcDbLine
 10
208.646601683409
 20
29.99999965533641
 30
0.0
 11
208.6466016834092
 21
0.7999996553364781
 31
0.0
  0
LINE
  5
195B
330
1A
100
AcDbEntity
  8
ZUWAKU
100
AcDbLine
 10
208.446601683409
 20
29.99999965533641
 30
0.0
 11
208.4466016834092
 21
0.7999996553364781
 31
0.0
  0
TEXT
  5
195C
330
1A
100
AcDbEntity
  8
ZUWAKU
100
AcDbText
 10
209.7240467056188
 20
9.655356193722028
 30
0.0
 40
4.0
  1
サイズ
 41
0.9
  7
ｽﾀｲﾙ1
100
AcDbText
  0
TEXT
  5
195D
330
1A
100
AcDbEntity
  8
ZUWAKU
100
AcDbText
 10
209.7240467056186
 20
24.05535619372199
 30
0.0
 40
4.0
  1
品名
 41
0.9
  7
ｽﾀｲﾙ1
100
AcDbText
  0
LINE
  5
195E
330
1A
100
AcDbEntity
  8
ZUWAKU
100
AcDbLine
 10
648.8172029035454
 20
15.19999965533644
 30
0.0
 11
697.2490109418825
 21
15.19999965533645
 31
0.0
  0
LINE
  5
195F
330
1A
100
AcDbEntity
  8
ZUWAKU
100
AcDbLine
 10
648.8172029035457
 20
15.39999965533645
 30
0.0
 11
697.2490109418825
 21
15.39999965533644
 31
0.0
  0
LINE
  5
1960
330
1A
100
AcDbEntity
  8
ZUWAKU
100
AcDbLine
 10
648.8172029035454
 20
15.59999965533644
 30
0.0
 11
697.2490109418825
 21
15.59999965533644
 31
0.0
  0
TEXT
  5
1961
330
1A
100
AcDbEntity
  8
ZUWAKU
100
AcDbText
 10
658.2039380806436
 20
18.0049207127438
 30
0.0
 40
5.6
  1
　　．　　．　　
 41
0.9
  7
ｽﾀｲﾙ1
100
AcDbText
  0
LINE
  5
1962
330
1A
100
AcDbEntity
  8
ZUWAKU
100
AcDbLine
 10
505.1991798914821
 20
15.19999965533645
 30
0.0
 11
552.5269561594537
 21
15.19999965533645
 31
0.0
  0
LINE
  5
1963
330
1A
100
AcDbEntity
  8
ZUWAKU
100
AcDbLine
 10
505.1991798914821
 20
15.39999965533644
 30
0.0
 11
552.5269561594537
 21
15.39999965533644
 31
0.0
  0
LINE
  5
1964
330
1A
100
AcDbEntity
  8
ZUWAKU
100
AcDbLine
 10
505.1991798914821
 20
15.59999965533644
 30
0.0
 11
552.5269561594537
 21
15.59999965533644
 31
0.0
  0
TEXT
  5
1965
330
1A
100
AcDbEntity
  8
moji
100
AcDbText
 10
464.5946263965802
 20
11.9426173769964
 30
0.0
 40
5.6
  1
ＧＮ２５□
 41
0.9
  7
ｽﾀｲﾙ1
100
AcDbText
  0
LINE
  5
1966
330
1A
100
AcDbEntity
  8
ZUWAKU
100
AcDbLine
 10
447.6243643643325
 20
29.99999965533641
 30
0.0
 11
447.6243643643327
 21
0.7999996553364781
 31
0.0
  0
LINE
  5
1967
330
1A
100
AcDbEntity
  8
ZUWAKU
100
AcDbLine
 10
447.8243643643325
 20
29.99999965533641
 30
0.0
 11
447.8243643643327
 21
0.7999996553364781
 31
0.0
  0
LINE
  5
1968
330
1A
100
AcDbEntity
  8
ZUWAKU
100
AcDbLine
 10
447.4243643643326
 20
29.99999965533641
 30
0.0
 11
447.4243643643326
 21
0.7999996553364781
 31
0.0
  0
TEXT
  5
1969
330
1A
100
AcDbEntity
  8
moji
100
AcDbText
 10
528.0409083656541
 20
18.0049207127438
 30
0.0
 40
5.6
  1
Ａ３
 41
0.9
  7
ｽﾀｲﾙ1
100
AcDbText
  0
LINE
  5
196A
330
1A
100
AcDbEntity
  8
ZUWAKU
100
AcDbLine
 10
504.9991798914821
 20
29.99999965533641
 30
0.0
 11
504.9991798914823
 21
0.7999996553364781
 31
0.0
  0
LINE
  5
196B
330
1A
100
AcDbEntity
  8
ZUWAKU
100
AcDbLine
 10
505.1991798914821
 20
29.99999965533641
 30
0.0
 11
505.1991798914823
 21
0.7999996553364781
 31
0.0
  0
LINE
  5
196C
330
1A
100
AcDbEntity
  8
ZUWAKU
100
AcDbLine
 10
504.7991798914823
 20
29.99999965533641
 30
0.0
 11
504.7991798914823
 21
0.7999996553364781
 31
0.0
  0
TEXT
  5
196D
330
1A
100
AcDbEntity
  8
ZUWAKU
100
AcDbText
 10
462.6937620488484
 20
2.614070566475903
 30
0.0
 40
3.0
  1
□には色品番が入ります
 41
0.9
  7
ｽﾀｲﾙ1
100
AcDbText
  0
TEXT
  5
196E
330
1A
100
AcDbEntity
  8
ZUWAKU
100
AcDbText
 10
506.676624913692
 20
9.655356193722028
 30
0.0
 40
4.0
  1
縮尺
 41
0.9
  7
ｽﾀｲﾙ1
100
AcDbText
  0
TEXT
  5
196F
330
1A
100
AcDbEntity
  8
moji
100
AcDbText
 10
528.0409083656541
 20
3.204920712743832
 30
0.0
 40
5.6
  1
１/２
 41
0.9
  7
ｽﾀｲﾙ1
100
AcDbText
  0
TEXT
  5
1970
330
1A
100
AcDbEntity
  8
ZUWAKU
100
AcDbText
 10
449.3018093865421
 20
24.05535619372199
 30
0.0
 40
4.0
  1
品番
 41
0.9
  7
ｽﾀｲﾙ1
100
AcDbText
  0
TEXT
  5
1971
330
1A
100
AcDbEntity
  8
ZUWAKU
100
AcDbText
 10
506.6766249136917
 20
24.05535619372199
 30
0.0
 40
4.0
  1
用紙
 41
0.9
  7
ｽﾀｲﾙ1
100
AcDbText
  0
LINE
  5
1972
330
1A
100
AcDbEntity
  8
ZUWAKU
100
AcDbLine
 10
648.6172029035456
 20
29.99999965533641
 30
0.0
 11
648.6172029035458
 21
0.7999996553364781
 31
0.0
  0
LINE
  5
1973
330
1A
100
AcDbEntity
  8
ZUWAKU
100
AcDbLine
 10
648.8172029035457
 20
29.99999965533641
 30
0.0
 11
648.8172029035459
 21
0.7999996553364781
 31
0.0
  0
LINE
  5
1974
330
1A
100
AcDbEntity
  8
ZUWAKU
100
AcDbLine
 10
648.4172029035458
 20
29.99999965533641
 30
0.0
 11
648.4172029035458
 21
0.7999996553364781
 31
0.0
  0
LINE
  5
1975
330
1A
100
AcDbEntity
  8
ZUWAKU
100
AcDbLine
 10
552.7269561594535
 20
29.99999965533641
 30
0.0
 11
552.7269561594537
 21
0.7999996553364781
 31
0.0
  0
LINE
  5
1976
330
1A
100
AcDbEntity
  8
ZUWAKU
100
AcDbLine
 10
552.9269561594535
 20
29.99999965533641
 30
0.0
 11
552.9269561594538
 21
0.7999996553364781
 31
0.0
  0
LINE
  5
1977
330
1A
100
AcDbEntity
  8
ZUWAKU
100
AcDbLine
 10
552.5269561594537
 20
29.99999965533641
 30
0.0
 11
552.5269561594537
 21
0.7999996553364781
 31
0.0
  0
TEXT
  5
1978
330
1A
100
AcDbEntity
  8
ZUWAKU
100
AcDbText
 10
650.2946479257553
 20
24.05535619372199
 30
0.0
 40
4.0
  1
DATE
 41
0.9
  7
ｽﾀｲﾙ1
100
AcDbText
  0
LINE
  5
1979
330
1A
100
AcDbEntity
  8
ZUWAKU
100
AcDbLine
 10
697.2490109418825
 20
29.99999965533641
 30
0.0
 11
697.2490109418825
 21
0.7999996553364781
 31
0.0
  0
LINE
  5
197A
330
1A
100
AcDbEntity
  8
ZUWAKU
100
AcDbLine
 10
697.4490109418825
 20
29.99999965533641
 30
0.0
 11
697.4490109418825
 21
0.7999996553364781
 31
0.0
  0
LINE
  5
197B
330
1A
100
AcDbEntity
  8
ZUWAKU
100
AcDbLine
 10
697.6490109418824
 20
29.99999965533641
 30
0.0
 11
697.6490109418826
 21
0.7999996553364781
 31
0.0
  0
LINE
  5
197C
330
1A
100
AcDbEntity
  8
ZUWAKU
100
AcDbLine
 10
697.8490109418824
 20
29.99999965533641
 30
0.0
 11
697.8490109418826
 21
0.7999996553364781
 31
0.0
  0
TEXT
  5
197D
330
1A
100
AcDbEntity
  8
ZUWAKU
100
AcDbText
 10
708.528084585585
 20
17.55383899102321
 30
0.0
 40
6.0
  1
積水化学工業株式会社
 41
0.9
  7
ｽﾀｲﾙ1
100
AcDbText
  0
TEXT
  5
197E
330
1A
100
AcDbEntity
  8
ZUWAKU
100
AcDbText
 10
708.528084585585
 20
6.648839969190476
 30
0.0
 40
6.0
  1
建材事業部
 41
0.9
  7
ｽﾀｲﾙ1
100
AcDbText
  0
DIMENSION
  5
2002
330
1A
100
AcDbEntity
  8
SUNPOU
 62
     4
 48
5.0
100
AcDbDimension
  2
*D1
 10
600.6116922931437
 20
488.2506008261465
 30
0.0
 11
565.6116922931437
 21
492.2506008261465
 31
0.0
 70
    32
 71
     5
 42
70.0
  3
STANDARD
100
AcDbAlignedDimension
 13
530.6116922931437
 23
450.2854054052098
 33
0.0
 14
600.6116922931437
 24
450.2854054052098
 34
0.0
100
AcDbRotatedDimension
1001
ACAD
1000
DSTYLE
1002
{
1070
    41
1040
3.5
1070
    42
1040
3.0
1070
    43
1040
7.0
1070
    44
1040
1.5
1070
    73
1070
     0
1070
    74
1070
     0
1070
    77
1070
     3
1070
   140
1040
6.0
1070
   141
1040
7.0
1070
   147
1040
1.0
1070
   172
1070
     1
1070
   173
1070
     1
1070
   176
1070
     4
1070
   177
1070
     4
1070
   178
1070
     4
1070
   271
1070
     0
1070
   272
1070
     2
1070
     6
1000
OPEN
1070
     7
1000
OPEN
1002
}
  0
LINE
  5
2003
330
1A
100
AcDbEntity
  8
SEIHIN
100
AcDbLine
 10
544.1116922931437
 20
450.2854054052098
 30
0.0
 11
530.6116922931437
 21
450.2854054052098
 31
0.0
  0
ARC
  5
2004
330
1A
100
AcDbEntity
  8
SEIHIN
100
AcDbCircle
 10
543.6116922931437
 20
434.2854054052098
 30
0.0
 40
2.0
100
AcDbArc
 50
270.0
 51
0.0
  0
ARC
  5
2005
330
1A
100
AcDbEntity
  8
SEIHIN
100
AcDbCircle
 10
542.9636014270438
 20
442.2854054052097
 30
0.0
 40
9.999999999999998
100
AcDbArc
 50
197.3540246363016
 51
270.0
  0
LINE
  5
2006
330
1A
100
AcDbEntity
  8
SEIHIN
100
AcDbLine
 10
543.6116922931437
 20
432.2854054052098
 30
0.0
 11
542.9636014270438
 21
432.2854054052098
 31
0.0
  0
LINE
  5
2007
330
1A
100
AcDbEntity
  8
SEIHIN
100
AcDbLine
 10
533.4188016466437
 20
439.3026554738097
 30
0.0
 11
530.6116922931437
 21
448.2854054052098
 31
0.0
  0
LINE
  5
2008
330
1A
100
AcDbEntity
  8
SEIHIN
100
AcDbLine
 10
530.6116922931437
 20
448.2854054052098
 30
0.0
 11
530.6116922931437
 21
450.2854054052098
 31
0.0
  0
ARC
  5
2009
330
1A
100
AcDbEntity
  8
SEIHIN
100
AcDbCircle
 10
531.6116922931437
 20
449.2854054052098
 30
0.0
 40
1.0
100
AcDbArc
 50
90.0
 51
93.03947777139152
  0
DIMENSION
  5
200B
330
1A
100
AcDbEntity
  8
SUNPOU
 62
     4
 48
5.0
100
AcDbDimension
  2
*D2
 10
614.3716755349431
 20
432.2854054052097
 30
0.0
 11
610.3716755349429
 21
441.2854054052098
 31
0.0
 70
    32
 71
     5
 42
18.00000000000006
  3
STANDARD
100
AcDbAlignedDimension
 13
600.6116922931437
 23
450.2854054052098
 33
0.0
 14
588.2597831592437
 24
432.2854054052097
 34
0.0
 50
90.0
100
AcDbRotatedDimension
1001
ACAD
1000
DSTYLE
1002
{
1070
    41
1040
3.5
1070
    42
1040
3.0
1070
    43
1040
7.0
1070
    44
1040
1.5
1070
    73
1070
     0
1070
    74
1070
     0
1070
    77
1070
     3
1070
   140
1040
6.0
1070
   141
1040
7.0
1070
   147
1040
1.0
1070
   172
1070
     1
1070
   173
1070
     1
1070
   176
1070
     4
1070
   177
1070
     4
1070
   178
1070
     4
1070
   271
1070
     0
1070
   272
1070
     2
1070
     6
1000
OPEN
1070
     7
1000
OPEN
1002
}
  0
DIMENSION
  5
200C
330
1A
100
AcDbEntity
  8
SUNPOU
 62
     4
 48
5.0
100
AcDbDimension
  2
*D3
 10
627.3148895007613
 20
430.2854054052098
 30
0.0
 11
627.3148895007612
 21
445.2854054052098
 31
0.0
 70
   160
 71
     5
 42
30.0
  3
STANDARD
100
AcDbAlignedDimension
 13
558.6116922931437
 23
460.2854054052098
 33
0.0
 14
565.6116922931437
 24
430.2854054052098
 34
0.0
 50
90.0
100
AcDbRotatedDimension
1001
ACAD
1000
DSTYLE
1002
{
1070
    41
1040
3.5
1070
    42
1040
3.0
1070
    43
1040
7.0
1070
    44
1040
1.5
1070
    73
1070
     0
1070
    74
1070
     0
1070
    77
1070
     3
1070
   140
1040
6.0
1070
   141
1040
7.0
1070
   147
1040
1.0
1070
   172
1070
     1
1070
   173
1070
     1
1070
   176
1070
     4
1070
   177
1070
     4
1070
   178
1070
     4
1070
   271
1070
     0
1070
   272
1070
     2
1070
     6
1000
OPEN
1070
     7
1000
OPEN
1002
}
  0
ARC
  5
200D
330
1A
100
AcDbEntity
  8
SEIHIN
100
AcDbCircle
 10
587.6116922931437
 20
434.2854054052098
 30
0.0
 40
2.0
100
AcDbArc
 50
180.0
 51
270.0
  0
ARC
  5
200E
330
1A
100
AcDbEntity
  8
SEIHIN
100
AcDbCircle
 10
588.2597831592437
 20
442.2854054052097
 30
0.0
 40
9.999999999999972
100
AcDbArc
 50
270.0
 51
342.6459753636984
  0
ARC
  5
200F
330
1A
100
AcDbEntity
  8
SEIHIN
100
AcDbCircle
 10
563.6116922931437
 20
438.2854054052097
 30
0.0
 40
8.0
100
AcDbArc
 50
180.0
 51
270.0
  0
ARC
  5
2010
330
1A
100
AcDbEntity
  8
SEIHIN
100
AcDbCircle
 10
567.6116922931437
 20
438.2854054052097
 30
0.0
 40
7.999999999999972
100
AcDbArc
 50
270.0
 51
0.0
  0
LINE
  5
2011
330
1A
100
AcDbEntity
  8
CENTER L
  6
CENTER
 62
     1
 48
5.0
100
AcDbLine
 10
565.6116922931437
 20
462.3295385394557
 30
0.0
 11
565.6116922931437
 21
428.2546751514776
 31
0.0
  0
LINE
  5
2012
330
1A
100
AcDbEntity
  8
SEIHIN
100
AcDbLine
 10
567.6116922931437
 20
430.2854054052098
 30
0.0
 11
563.6116922931437
 21
430.2854054052098
 31
0.0
  0
LINE
  5
2013
330
1A
100
AcDbEntity
  8
SEIHIN
100
AcDbLine
 10
588.2597831592437
 20
432.2854054052098
 30
0.0
 11
587.6116922931437
 21
432.2854054052098
 31
0.0
  0
ARC
  5
2014
330
1A
100
AcDbEntity
  8
SEIHIN
100
AcDbCircle
 10
576.6116922931437
 20
450.2854054052098
 30
0.0
 40
1.0
100
AcDbArc
 50
180.0
 51
270.0
  0
LINE
  5
2015
330
1A
100
AcDbEntity
  8
SEIHIN
100
AcDbLine
 10
575.6116922931437
 20
448.2854054052098
 30
0.0
 11
585.6116922931437
 21
448.2854054052098
 31
0.0
  0
LINE
  5
2016
330
1A
100
AcDbEntity
  8
SEIHIN
100
AcDbLine
 10
555.6116922931437
 20
438.2854054052097
 30
0.0
 11
555.6116922931437
 21
457.2854054052098
 31
0.0
  0
LINE
  5
2017
330
1A
100
AcDbEntity
  8
SEIHIN
100
AcDbLine
 10
575.6116922931437
 20
457.2854054052098
 30
0.0
 11
575.6116922931437
 21
438.2854054052097
 31
0.0
  0
LINE
  5
2018
330
1A
100
AcDbEntity
  8
SEIHIN
100
AcDbLine
 10
545.6116922931437
 20
450.2854054052098
 30
0.0
 11
545.6116922931437
 21
434.2854054052098
 31
0.0
  0
LINE
  5
2019
330
1A
100
AcDbEntity
  8
SEIHIN
100
AcDbLine
 10
546.6116922931437
 20
449.2854054052098
 30
0.0
 11
554.6116922931437
 21
449.2854054052098
 31
0.0
  0
LINE
  5
201A
330
1A
100
AcDbEntity
  8
SEIHIN
100
AcDbLine
 10
545.6116922931437
 20
448.2854054052098
 30
0.0
 11
555.6116922931437
 21
448.2854054052098
 31
0.0
  0
LINE
  5
201B
330
1A
100
AcDbEntity
  8
SEIHIN
100
AcDbLine
 10
544.1116922931437
 20
450.2854054052098
 30
0.0
 11
545.6116922931437
 21
450.2854054052098
 31
0.0
  0
ARC
  5
201C
330
1A
100
AcDbEntity
  8
SEIHIN
100
AcDbCircle
 10
546.6116922931437
 20
450.2854054052098
 30
0.0
 40
1.0
100
AcDbArc
 50
180.0
 51
270.0
  0
ARC
  5
201D
330
1A
100
AcDbEntity
  8
SEIHIN
100
AcDbCircle
 10
554.6116922931437
 20
450.2854054052098
 30
0.0
 40
1.0
100
AcDbArc
 50
270.0
 51
0.0
  0
LINE
  5
201E
330
1A
100
AcDbEntity
  8
SEIHIN
100
AcDbLine
 10
558.6116922931437
 20
460.2854054052098
 30
0.0
 11
572.6116922931437
 21
460.2854054052098
 31
0.0
  0
DIMENSION
  5
201F
330
1A
100
AcDbEntity
  8
SUNPOU
 62
     4
 48
5.0
100
AcDbDimension
  2
*D4
 10
575.6116922931437
 20
472.3672851621869
 30
0.0
 11
565.6116922931437
 21
476.3672851621869
 31
0.0
 70
    32
 71
     5
 42
20.0
  3
STANDARD
100
AcDbAlignedDimension
 13
555.6116922931437
 23
457.2854054052098
 33
0.0
 14
575.6116922931437
 24
457.2854054052098
 34
0.0
100
AcDbRotatedDimension
1001
ACAD
1000
DSTYLE
1002
{
1070
    41
1040
3.5
1070
    42
1040
3.0
1070
    43
1040
7.0
1070
    44
1040
1.5
1070
    73
1070
     0
1070
    74
1070
     0
1070
    77
1070
     3
1070
   140
1040
6.0
1070
   141
1040
7.0
1070
   147
1040
1.0
1070
   172
1070
     1
1070
   173
1070
     1
1070
   176
1070
     4
1070
   177
1070
     4
1070
   178
1070
     4
1070
   271
1070
     0
1070
   272
1070
     2
1070
     6
1000
OPEN
1070
     7
1000
OPEN
1002
}
  0
ARC
  5
2020
330
1A
100
AcDbEntity
  8
SEIHIN
100
AcDbCircle
 10
558.6116922931437
 20
457.2854054052098
 30
0.0
 40
3.0
100
AcDbArc
 50
90.0
 51
180.0
  0
ARC
  5
2021
330
1A
100
AcDbEntity
  8
SEIHIN
100
AcDbCircle
 10
572.6116922931437
 20
457.2854054052098
 30
0.0
 40
3.0
100
AcDbArc
 50
0.0
 51
90.0
  0
DIMENSION
  5
2022
330
1A
100
AcDbEntity
  8
SUNPOU
 62
     4
 48
5.0
100
AcDbDimension
  2
*D5
 10
600.6116922931437
 20
472.3672851621869
 30
0.0
 11
593.1116922931437
 21
476.3672851621869
 31
0.0
 70
    32
 71
     5
 42
15.0
  3
STANDARD
100
AcDbAlignedDimension
 13
585.6116922931437
 23
450.2854054052098
 33
0.0
 14
600.6116922931437
 24
450.2854054052098
 34
0.0
100
AcDbRotatedDimension
1001
ACAD
1000
DSTYLE
1002
{
1070
    41
1040
3.5
1070
    42
1040
3.0
1070
    43
1040
7.0
1070
    44
1040
1.5
1070
    73
1070
     0
1070
    74
1070
     0
1070
    77
1070
     3
1070
   140
1040
6.0
1070
   141
1040
7.0
1070
   147
1040
1.0
1070
   172
1070
     1
1070
   173
1070
     1
1070
   176
1070
     4
1070
   177
1070
     4
1070
   178
1070
     4
1070
   271
1070
     0
1070
   272
1070
     2
1070
     6
1000
OPEN
1070
     7
1000
OPEN
1002
}
  0
LINE
  5
2023
330
1A
100
AcDbEntity
  8
SEIHIN
100
AcDbLine
 10
600.6116922931437
 20
450.2854054052098
 30
0.0
 11
587.1116922931437
 21
450.2854054052098
 31
0.0
  0
LINE
  5
2024
330
1A
100
AcDbEntity
  8
SEIHIN
100
AcDbLine
 10
585.6116922931437
 20
434.2854054052098
 30
0.0
 11
585.6116922931437
 21
450.2854054052098
 31
0.0
  0
ARC
  5
2025
330
1A
100
AcDbEntity
  8
SEIHIN
100
AcDbCircle
 10
584.6116922931437
 20
450.2854054052098
 30
0.0
 40
1.0
100
AcDbArc
 50
270.0
 51
0.0
  0
LINE
  5
2026
330
1A
100
AcDbEntity
  8
SEIHIN
100
AcDbLine
 10
576.6116922931437
 20
449.2854054052098
 30
0.0
 11
584.6116922931437
 21
449.2854054052098
 31
0.0
  0
LINE
  5
2027
330
1A
100
AcDbEntity
  8
SEIHIN
100
AcDbLine
 10
585.6116922931437
 20
450.2854054052098
 30
0.0
 11
587.1116922931437
 21
450.2854054052098
 31
0.0
  0
LINE
  5
2028
330
1A
100
AcDbEntity
  8
SEIHIN
100
AcDbLine
 10
600.6116922931437
 20
448.2854054052098
 30
0.0
 11
597.8045829395437
 21
439.3026554738097
 31
0.0
  0
ARC
  5
2029
330
1A
100
AcDbEntity
  8
SEIHIN
100
AcDbCircle
 10
599.6116922931437
 20
449.2854054052098
 30
0.0
 40
0.9999999999999191
100
AcDbArc
 50
86.96052222859544
 51
90.0
  0
LINE
  5
202A
330
1A
100
AcDbEntity
  8
SEIHIN
100
AcDbLine
 10
600.6116922931437
 20
450.2854054052098
 30
0.0
 11
600.6116922931437
 21
448.2854054052098
 31
0.0
  0
LINE
  5
202B
330
1A
100
AcDbEntity
  8
SEIHIN
100
AcDbLine
 10
653.7070764990158
 20
439.3026554738098
 30
0.0
 11
653.7070764990158
 21
432.2854054052098
 31
0.0
  0
LINE
  5
202C
330
1A
100
AcDbEntity
  8
SEIHIN
100
AcDbLine
 10
654.207076499016
 20
439.3026554738098
 30
0.0
 11
654.207076499016
 21
432.2854054052098
 31
0.0
  0
LINE
  5
202D
330
1A
100
AcDbEntity
  8
SEIHIN
100
AcDbLine
 10
652.207076499016
 20
431.7854054052098
 30
0.0
 11
652.207076499016
 21
433.7854054052098
 31
0.0
  0
LINE
  5
202E
330
1A
100
AcDbEntity
  8
SEIHIN
100
AcDbLine
 10
654.207076499016
 20
436.2854054052096
 30
0.0
 11
654.207076499016
 21
432.2854054052096
 31
0.0
  0
LINE
  5
202F
330
1A
100
AcDbEntity
  8
SEIHIN
100
AcDbLine
 10
654.207076499016
 20
430.2854054052098
 30
0.0
 11
653.7070764990158
 21
430.2854054052098
 31
0.0
  0
ARC
  5
2030
330
1A
100
AcDbEntity
  8
SEIHIN
100
AcDbCircle
 10
653.7070764990158
 20
431.7854054052098
 30
0.0
 40
1.499999999999886
100
AcDbArc
 50
180.0
 51
270.0
  0
LINE
  5
2031
330
1A
100
AcDbEntity
  8
SEIHIN
100
AcDbLine
 10
654.207076499016
 20
432.2854054052098
 30
0.0
 11
654.207076499016
 21
430.2854054052098
 31
0.0
  0
LINE
  5
2032
330
1A
100
AcDbEntity
  8
SEIHIN
100
AcDbLine
 10
653.7070764990158
 20
432.2854054052098
 30
0.0
 11
653.7070764990158
 21
430.2854054052098
 31
0.0
  0
LINE
  5
2033
330
1A
100
AcDbEntity
  8
SEIHIN
100
AcDbLine
 10
654.207076499016
 20
432.2854054052096
 30
0.0
 11
654.207076499016
 21
430.2854054052096
 31
0.0
  0
DIMENSION
  5
2034
330
1A
100
AcDbEntity
  8
SUNPOU
 62
     4
 48
5.0
100
AcDbDimension
  2
*D6
 10
660.207076499016
 20
472.3672851621869
 30
0.0
 11
656.2070764990159
 21
476.3672851621869
 31
0.0
 70
    32
 71
     5
 42
8.000000000000227
  3
STANDARD
100
AcDbAlignedDimension
 13
652.2070764990158
 23
458.7854054052098
 33
0.0
 14
660.207076499016
 24
448.7854054052097
 34
0.0
100
AcDbRotatedDimension
1001
ACAD
1000
DSTYLE
1002
{
1070
    41
1040
3.5
1070
    42
1040
3.0
1070
    43
1040
7.0
1070
    44
1040
1.5
1070
    73
1070
     0
1070
    74
1070
     0
1070
    77
1070
     3
1070
   140
1040
6.0
1070
   141
1040
7.0
1070
   147
1040
1.0
1070
   172
1070
     1
1070
   173
1070
     1
1070
   176
1070
     4
1070
   177
1070
     4
1070
   178
1070
     4
1070
   271
1070
     0
1070
   272
1070
     2
1070
     6
1000
OPEN
1070
     7
1000
OPEN
1002
}
  0
LINE
  5
2035
330
1A
100
AcDbEntity
  8
SEIHIN
100
AcDbLine
 10
652.207076499016
 20
450.2854054052098
 30
0.0
 11
652.207076499016
 21
457.2854054052098
 31
0.0
  0
LINE
  5
2036
330
1A
100
AcDbEntity
  8
SEIHIN
100
AcDbLine
 10
654.207076499016
 20
457.2854054052098
 30
0.0
 11
654.207076499016
 21
450.7854054052098
 31
0.0
  0
LINE
  5
2037
330
1A
100
AcDbEntity
  8
SEIHIN
100
AcDbLine
 10
654.207076499016
 20
458.2854054052098
 30
0.0
 11
654.207076499016
 21
450.2854054052098
 31
0.0
  0
LINE
  5
2038
330
1A
100
AcDbEntity
  8
SEIHIN
100
AcDbLine
 10
652.207076499016
 20
450.2854054052098
 30
0.0
 11
659.207076499016
 21
450.2854054052098
 31
0.0
  0
LINE
  5
2039
330
1A
100
AcDbEntity
  8
SEIHIN
100
AcDbLine
 10
659.207076499016
 20
448.2854054052098
 30
0.0
 11
654.207076499016
 21
448.2854054052098
 31
0.0
  0
LINE
  5
203A
330
1A
100
AcDbEntity
  8
SEIHIN
100
AcDbLine
 10
655.9834561168161
 20
444.2056601829097
 30
0.0
 11
655.6570764990158
 21
448.2854054052098
 31
0.0
  0
LINE
  5
203B
330
1A
100
AcDbEntity
  8
SEIHIN
100
AcDbLine
 10
658.1570764990158
 20
448.2854054052098
 30
0.0
 11
658.1570764990158
 21
443.2854054052098
 31
0.0
  0
LINE
  5
203C
330
1A
100
AcDbEntity
  8
SEIHIN
100
AcDbLine
 10
658.1570764990161
 20
448.2854054052096
 30
0.0
 11
658.1570764990161
 21
443.2854054052096
 31
0.0
  0
LINE
  5
203D
330
1A
100
AcDbEntity
  8
SEIHIN
100
AcDbLine
 10
653.7070764990158
 20
448.2854054052098
 30
0.0
 11
653.7070764990158
 21
439.3026554738098
 31
0.0
  0
LINE
  5
203E
330
1A
100
AcDbEntity
  8
SEIHIN
100
AcDbLine
 10
654.207076499016
 20
439.3026554738098
 30
0.0
 11
654.207076499016
 21
448.2854054052098
 31
0.0
  0
LINE
  5
203F
330
1A
100
AcDbEntity
  8
SEIHIN
100
AcDbLine
 10
652.207076499016
 20
439.7500679635098
 30
0.0
 11
652.207076499016
 21
450.2839986425097
 31
0.0
  0
LINE
  5
2040
330
1A
100
AcDbEntity
  8
SEIHIN
100
AcDbLine
 10
658.1570764990158
 20
443.2854054052098
 30
0.0
 11
656.9802713953161
 21
443.2854054052098
 31
0.0
  0
ARC
  5
2041
330
1A
100
AcDbEntity
  8
SEIHIN
100
AcDbCircle
 10
656.9802713953161
 20
444.2854054052098
 30
0.0
 40
1.000000000000008
100
AcDbArc
 50
184.5739212599011
 51
270.0
  0
LINE
  5
2042
330
1A
100
AcDbEntity
  8
SEIHIN
100
AcDbLine
 10
652.207076499016
 20
433.7854054052098
 30
0.0
 11
652.207076499016
 21
439.7500679635098
 31
0.0
  0
LINE
  5
2043
330
1A
100
AcDbEntity
  8
SEIHIN
100
AcDbLine
 10
652.207076499016
 20
450.2839986425097
 30
0.0
 11
652.207076499016
 21
450.2854054052098
 31
0.0
  0
LINE
  5
2044
330
1A
100
AcDbEntity
  8
SEIHIN
100
AcDbLine
 10
654.207076499016
 20
448.2854054052098
 30
0.0
 11
653.7070764990158
 21
448.2854054052098
 31
0.0
  0
LINE
  5
2045
330
1A
100
AcDbEntity
  8
SEIHIN
100
AcDbLine
 10
660.207076499016
 20
449.2854054052098
 30
0.0
 11
660.207076499016
 21
448.2854054052098
 31
0.0
  0
LINE
  5
2046
330
1A
100
AcDbEntity
  8
SEIHIN
100
AcDbLine
 10
660.207076499016
 20
448.2854054052098
 30
0.0
 11
659.207076499016
 21
448.2854054052098
 31
0.0
  0
ARC
  5
2047
330
1A
100
AcDbEntity
  8
SEIHIN
100
AcDbCircle
 10
659.207076499016
 20
449.2854054052098
 30
0.0
 40
1.0
100
AcDbArc
 50
0.0
 51
90.0
  0
LINE
  5
2048
330
1A
100
AcDbEntity
  8
SEIHIN
100
AcDbLine
 10
660.207076499016
 20
448.2854054052096
 30
0.0
 11
659.207076499016
 21
448.2854054052096
 31
0.0
  0
LINE
  5
2049
330
1A
100
AcDbEntity
  8
SEIHIN
100
AcDbLine
 10
660.207076499016
 20
449.2854054052098
 30
0.0
 11
660.207076499016
 21
448.2854054052096
 31
0.0
  0
LINE
  5
204A
330
1A
100
AcDbEntity
  8
SEIHIN
100
AcDbLine
 10
654.207076499016
 20
460.2854054052098
 30
0.0
 11
654.207076499016
 21
458.2854054052098
 31
0.0
  0
ARC
  5
204B
330
1A
100
AcDbEntity
  8
SEIHIN
100
AcDbCircle
 10
653.7070764990158
 20
458.7854054052098
 30
0.0
 40
1.5
100
AcDbArc
 50
90.0
 51
180.0
  0
LINE
  5
204C
330
1A
100
AcDbEntity
  8
SEIHIN
100
AcDbLine
 10
653.7070764990158
 20
460.2854054052098
 30
0.0
 11
654.207076499016
 21
460.2854054052098
 31
0.0
  0
LINE
  5
204D
330
1A
100
AcDbEntity
  8
SEIHIN
100
AcDbLine
 10
653.707076499016
 20
460.2854054052098
 30
0.0
 11
654.207076499016
 21
460.2854054052098
 31
0.0
  0
LINE
  5
204E
330
1A
100
AcDbEntity
  8
SEIHIN
100
AcDbLine
 10
652.207076499016
 20
457.2854054052098
 30
0.0
 11
652.207076499016
 21
458.7854054052098
 31
0.0
  0
LINE
  5
204F
330
1A
100
AcDbEntity
  8
SEIHIN
100
AcDbLine
 10
654.207076499016
 20
460.2854054052098
 30
0.0
 11
654.207076499016
 21
457.2854054052098
 31
0.0
  0
DIMENSION
  5
28B1
330
1A
100
AcDbEntity
  8
SUNPOU
 48
5.0
100
AcDbDimension
  2
*D7
 10
402.7487716817063
 20
88.04799349303528
 30
0.0
 11
397.7487716817063
 21
178.9979434930353
 31
0.0
 70
    32
 71
     5
 42
181.8999
  3
STANDARD
100
AcDbAlignedDimension
 13
481.7491334281555
 23
269.9478934930352
 33
0.0
 14
562.3990334281555
 24
88.04799349303522
 34
0.0
 50
90.0
100
AcDbRotatedDimension
1001
ACAD
1000
DSTYLE
1002
{
1070
   140
1040
6.0
1070
    74
1070
     0
1070
   172
1070
     1
1070
    73
1070
     0
1070
   272
1070
     2
1070
    77
1070
     3
1070
   173
1070
     1
1070
   147
1040
2.0
1070
    42
1040
6.0
1070
    44
1040
3.0
1070
    43
1040
14.0
1070
   271
1070
     0
1070
   178
1070
     4
1070
   177
1070
     4
1070
   176
1070
     4
1070
   141
1040
150.0
1070
     7
1000
_OPEN
1070
     6
1000
_OPEN
1070
    41
1040
7.0
1002
}
  0
DIMENSION
  5
28B2
330
1A
100
AcDbEntity
  8
SUNPOU
 48
5.0
100
AcDbDimension
  2
*D8
 10
369.3602334281555
 20
308.5855070622606
 30
0.0
 11
259.3599334281556
 21
313.5855070622606
 31
0.0
 70
    32
 71
     5
 42
220.0006
  3
STANDARD
100
AcDbAlignedDimension
 13
149.3596334281556
 23
269.9481934930352
 33
0.0
 14
369.3602334281555
 24
269.9474934930352
 34
0.0
100
AcDbRotatedDimension
1001
ACAD
1000
DSTYLE
1002
{
1070
   140
1040
6.0
1070
    74
1070
     0
1070
   172
1070
     1
1070
    73
1070
     0
1070
   272
1070
     2
1070
    77
1070
     3
1070
   173
1070
     1
1070
   147
1040
2.0
1070
    42
1040
6.0
1070
    44
1040
3.0
1070
    43
1040
14.0
1070
   271
1070
     0
1070
   178
1070
     4
1070
   177
1070
     4
1070
   176
1070
     4
1070
   141
1040
150.0
1070
     7
1000
_OPEN
1070
     6
1000
_OPEN
1070
    41
1040
7.0
1002
}
  0
DIMENSION
  5
28B3
330
1A
100
AcDbEntity
  8
SUNPOU
100
AcDbDimension
  2
*D9
 10
328.3597399777444
 20
56.598429556165
 30
0.0
 11
259.3597796617988
 21
61.598429556165
 31
0.0
 70
    32
 71
     5
 42
137.9999206318911
  3
STANDARD
100
AcDbAlignedDimension
 13
190.3598193458532
 23
154.0479956420369
 33
0.0
 14
328.3597399777444
 24
154.0477891950606
 34
0.0
100
AcDbRotatedDimension
1001
ACAD
1000
DSTYLE
1002
{
1070
   140
1040
6.0
1070
    74
1070
     0
1070
   172
1070
     1
1070
    73
1070
     0
1070
   272
1070
     2
1070
    77
1070
     3
1070
   173
1070
     1
1070
   147
1040
2.0
1070
    42
1040
6.0
1070
    44
1040
3.0
1070
    43
1040
14.0
1070
   271
1070
     0
1070
   178
1070
     4
1070
   177
1070
     4
1070
   176
1070
     4
1070
   141
1040
150.0
1070
     7
1000
_OPEN
1070
     6
1000
_OPEN
1070
    41
1040
7.0
1002
}
  0
LINE
  5
28B4
330
1A
100
AcDbEntity
  8
SEIHIN
  6
Continuous
 62
     3
 48
5.0
100
AcDbLine
 10
295.3612334281555
 20
116.4800934930352
 30
0.0
 11
295.3595334281555
 21
98.54769349303521
 31
0.0
  0
LINE
  5
28B5
330
1A
100
AcDbEntity
  8
SEIHIN
  6
Continuous
 62
     3
 48
5.0
100
AcDbLine
 10
223.3581334281555
 20
116.4801934930352
 30
0.0
 11
223.3598334281555
 21
98.54779349303522
 31
0.0
  0
LINE
  5
28B6
330
1A
100
AcDbEntity
  8
CENTER L
  6
CENTER
 62
     1
 48
5.0
100
AcDbLine
 10
259.3599355760949
 20
276.9479594414965
 30
0.0
 11
259.3596334281555
 21
81.83113349303523
 31
0.0
  0
LINE
  5
28B7
330
1A
100
AcDbEntity
  8
SEIHIN
  6
Continuous
 62
     3
 48
5.0
100
AcDbLine
 10
293.8594334281555
 20
94.54769349303521
 30
0.0
 11
259.3596334281555
 21
94.54789349303522
 31
0.0
  0
LINE
  5
28B8
330
1A
100
AcDbEntity
  8
SEIHIN
  6
Continuous
 62
     3
 48
5.0
100
AcDbLine
 10
259.3596334281555
 20
98.54459349303519
 30
0.0
 11
295.3612334281555
 21
98.54449349303522
 31
0.0
  0
LINE
  5
28B9
330
1A
100
AcDbEntity
  8
SEIHIN
  6
Continuous
 62
     3
 48
5.0
100
AcDbLine
 10
259.3596334281555
 20
88.04789349303522
 30
0.0
 11
288.6096334281555
 21
88.04789349303522
 31
0.0
  0
LINE
  5
28BA
330
1A
100
AcDbEntity
  8
SEIHIN
  6
Continuous
 62
     3
 48
5.0
100
AcDbLine
 10
224.8598334281555
 20
94.54779349303522
 30
0.0
 11
259.3597334281556
 21
94.54789349303522
 31
0.0
  0
LINE
  5
28BB
330
1A
100
AcDbEntity
  8
SEIHIN
  6
Continuous
 62
     3
 48
5.0
100
AcDbLine
 10
259.3597334281556
 20
88.04789349303522
 30
0.0
 11
230.1097334281556
 21
88.04799349303522
 31
0.0
  0
LINE
  5
28BC
330
1A
100
AcDbEntity
  8
SEIHIN
  6
Continuous
 62
     3
 48
5.0
100
AcDbLine
 10
259.3597334281556
 20
98.54459349303519
 30
0.0
 11
223.3581334281555
 21
98.54459349303519
 31
0.0
  0
LINE
  5
28BD
330
1A
100
AcDbEntity
  8
SEIHIN
  6
Continuous
 62
     3
 48
5.0
100
AcDbLine
 10
223.3598334281555
 20
98.54769349303521
 30
0.0
 11
224.8598334281555
 21
94.54769349303521
 31
0.0
  0
LINE
  5
28BE
330
1A
100
AcDbEntity
  8
SEIHIN
  6
Continuous
 62
     3
 48
5.0
100
AcDbLine
 10
229.9698334281555
 20
94.54799349303522
 30
0.0
 11
230.1097334281556
 21
88.04799349303522
 31
0.0
  0
LINE
  5
28BF
330
1A
100
AcDbEntity
  8
SEIHIN
  6
Continuous
 62
     3
 48
5.0
100
AcDbLine
 10
288.7495334281555
 20
94.54789349303522
 30
0.0
 11
288.6096334281555
 21
88.04789349303522
 31
0.0
  0
LINE
  5
28C0
330
1A
100
AcDbEntity
  8
SEIHIN
  6
Continuous
 62
     3
 48
5.0
100
AcDbLine
 10
295.3595334281555
 20
98.54759349303521
 30
0.0
 11
293.8594334281555
 21
94.54759349303521
 31
0.0
  0
LINE
  5
28C1
330
1A
100
AcDbEntity
  8
SEIHIN
  6
Continuous
 62
     3
 48
5.0
100
AcDbLine
 10
259.3599334281555
 20
269.9479934930352
 30
0.0
 11
369.3602334281555
 21
269.9478934930352
 31
0.0
  0
LINE
  5
28C2
330
1A
100
AcDbEntity
  8
SEIHIN
  6
Continuous
 62
     3
 48
5.0
100
AcDbLine
 10
259.3597334281556
 20
133.0481934930352
 30
0.0
 11
300.3594334281555
 21
133.0480934930352
 31
0.0
  0
LINE
  5
28C3
330
1A
100
AcDbEntity
  8
SEIHIN
  6
Continuous
 62
     3
 48
5.0
100
AcDbLine
 10
259.3597334281556
 20
154.0479934930352
 30
0.0
 11
326.9081334281555
 21
154.0477934930352
 31
0.0
  0
LINE
  5
28C4
330
1A
100
AcDbEntity
  8
SEIHIN
  6
Continuous
 62
     3
 48
5.0
100
AcDbLine
 10
259.3597334281556
 20
138.0478934930352
 30
0.0
 11
307.2512334281555
 21
138.0478934930352
 31
0.0
  0
LINE
  5
28C5
330
1A
100
AcDbEntity
  8
SEIHIN
  6
Continuous
 62
     3
 48
5.0
100
AcDbLine
 10
259.3598334281555
 20
239.9478934930352
 30
0.0
 11
364.5501334281555
 21
239.9477934930352
 31
0.0
  0
LINE
  5
28C6
330
1A
100
AcDbEntity
  8
SEIHIN
  6
Continuous
 62
     3
 48
5.0
100
AcDbLine
 10
259.3597334281556
 20
177.0478934930352
 30
0.0
 11
335.8568334281555
 21
177.0477934930352
 31
0.0
  0
LINE
  5
28C7
330
1A
100
AcDbEntity
  8
SEIHIN
  6
Continuous
 62
     3
 48
5.0
100
AcDbLine
 10
162.3600334281555
 20
239.9480934930352
 30
0.0
 11
189.9099334281555
 21
155.4281934930352
 31
0.0
  0
LINE
  5
28C8
330
1A
100
AcDbEntity
  8
SEIHIN
  6
Continuous
 62
     3
 48
5.0
100
AcDbLine
 10
259.3598334281555
 20
177.0478934930352
 30
0.0
 11
182.8627334281555
 21
177.0480934930352
 31
0.0
  0
ARC
  5
28C9
330
1A
100
AcDbEntity
  8
SEIHIN
  6
Continuous
 62
     3
 48
5.0
100
AcDbCircle
 10
211.4682334281555
 20
140.0479934930352
 30
0.0
 40
2.000002
100
AcDbArc
 50
212.0053830000001
 51
270.0
  0
LINE
  5
28CA
330
1A
100
AcDbEntity
  8
SEIHIN
  6
Continuous
 62
     3
 48
5.0
100
AcDbLine
 10
259.3597334281556
 20
154.0478934930352
 30
0.0
 11
191.8114334281555
 21
154.0479934930352
 31
0.0
  0
LINE
  5
28CB
330
1A
100
AcDbEntity
  8
SEIHIN
  6
Continuous
 62
     3
 48
5.0
100
AcDbLine
 10
200.5066334281555
 20
153.8129934930352
 30
0.0
 11
209.7722334281555
 21
138.9879934930352
 31
0.0
  0
ARC
  5
28CC
330
1A
100
AcDbEntity
  8
SEIHIN
  6
Continuous
 62
     3
 48
5.0
100
AcDbCircle
 10
191.8114334281555
 20
156.0479934930352
 30
0.0
 40
1.999982
100
AcDbArc
 50
198.053544
 51
270.0
  0
ARC
  5
28CD
330
1A
100
AcDbEntity
  8
SEIHIN
  6
Continuous
 62
     3
 48
5.0
100
AcDbCircle
 10
200.0826334281555
 20
153.5479934930352
 30
0.0
 40
0.5
100
AcDbArc
 50
32.00538300000008
 51
90.0
  0
LINE
  5
28CE
330
1A
100
AcDbEntity
  8
SEIHIN
  6
Continuous
 62
     3
 48
5.0
100
AcDbLine
 10
259.3597334281556
 20
138.0478934930352
 30
0.0
 11
211.4682334281555
 21
138.0479934930352
 31
0.0
  0
LINE
  5
28CF
330
1A
100
AcDbEntity
  8
SEIHIN
  6
Continuous
 62
     3
 48
5.0
100
AcDbLine
 10
259.3597334281556
 20
133.0481934930352
 30
0.0
 11
218.3599334281555
 21
133.0481934930352
 31
0.0
  0
ARC
  5
28D0
330
1A
100
AcDbEntity
  8
SEIHIN
  6
Continuous
 62
     3
 48
5.0
100
AcDbCircle
 10
193.3581334281555
 20
116.4674934930352
 30
0.0
 40
29.999999
100
AcDbArc
 50
0.0244460000001662
 51
33.55107400000004
  0
LINE
  5
28D1
330
1A
100
AcDbEntity
  8
SEIHIN
  6
Continuous
 62
     3
 48
5.0
100
AcDbLine
 10
218.3599334281555
 20
138.0478934930352
 30
0.0
 11
218.3599334281555
 21
133.0479934930352
 31
0.0
  0
LINE
  5
28D2
330
1A
100
AcDbEntity
  8
SEIHIN
  6
Continuous
 62
     3
 48
5.0
100
AcDbLine
 10
259.3599334281555
 20
269.9480934930352
 30
0.0
 11
149.3596334281556
 21
269.9481934930352
 31
0.0
  0
LINE
  5
28D3
330
1A
100
AcDbEntity
  8
SEIHIN
  6
Continuous
 62
     3
 48
5.0
100
AcDbLine
 10
259.3599334281555
 20
239.9480934930352
 30
0.0
 11
154.1696334281555
 21
239.9481934930352
 31
0.0
  0
LINE
  5
28D4
330
1A
100
AcDbEntity
  8
SEIHIN
  6
Continuous
 62
     3
 48
5.0
100
AcDbLine
 10
152.1795334281555
 20
241.7491934930352
 30
0.0
 11
149.3596334281556
 21
269.9477934930352
 31
0.0
  0
ARC
  5
28D5
330
1A
100
AcDbEntity
  8
SEIHIN
  6
Continuous
 62
     3
 48
5.0
100
AcDbCircle
 10
154.1696334281555
 20
241.9481934930352
 30
0.0
 40
2.000012
100
AcDbArc
 50
185.7103080000001
 51
270.0
  0
LINE
  5
28D6
330
1A
100
AcDbEntity
  8
SEIHIN
  6
Continuous
 62
     3
 48
5.0
100
AcDbLine
 10
356.3598334281555
 20
239.9477934930352
 30
0.0
 11
328.8096334281555
 21
155.4279934930352
 31
0.0
  0
LINE
  5
28D7
330
1A
100
AcDbEntity
  8
SEIHIN
  6
Continuous
 62
     3
 48
5.0
100
AcDbLine
 10
318.2128334281555
 20
153.8128934930352
 30
0.0
 11
308.9472334281555
 21
138.9878934930352
 31
0.0
  0
ARC
  5
28D8
330
1A
100
AcDbEntity
  8
SEIHIN
  6
Continuous
 62
     3
 48
5.0
100
AcDbCircle
 10
307.2512334281555
 20
140.0478934930352
 30
0.0
 40
2.000002
100
AcDbArc
 50
270.0
 51
327.9946169999999
  0
ARC
  5
28D9
330
1A
100
AcDbEntity
  8
SEIHIN
  6
Continuous
 62
     3
 48
5.0
100
AcDbCircle
 10
325.3612334281555
 20
116.4673934930352
 30
0.0
 40
29.999999
100
AcDbArc
 50
146.4489259999999
 51
179.9757450000002
  0
LINE
  5
28DA
330
1A
100
AcDbEntity
  8
SEIHIN
  6
Continuous
 62
     3
 48
5.0
100
AcDbLine
 10
300.3595334281555
 20
138.0477934930352
 30
0.0
 11
300.3594334281555
 21
133.0477934930352
 31
0.0
  0
ARC
  5
28DB
330
1A
100
AcDbEntity
  8
SEIHIN
  6
Continuous
 62
     3
 48
5.0
100
AcDbCircle
 10
318.6368334281555
 20
153.5478934930352
 30
0.0
 40
0.5
100
AcDbArc
 50
90.0
 51
147.9946169999999
  0
ARC
  5
28DC
330
1A
100
AcDbEntity
  8
SEIHIN
  6
Continuous
 62
     3
 48
5.0
100
AcDbCircle
 10
326.9081334281555
 20
156.0477934930352
 30
0.0
 40
1.999982
100
AcDbArc
 50
270.0
 51
341.946456
  0
LINE
  5
28DD
330
1A
100
AcDbEntity
  8
SEIHIN
  6
Continuous
 62
     3
 48
5.0
100
AcDbLine
 10
366.5402334281555
 20
241.7487934930352
 30
0.0
 11
369.3602334281555
 21
269.9474934930352
 31
0.0
  0
ARC
  5
28DE
330
1A
100
AcDbEntity
  8
SEIHIN
  6
Continuous
 62
     3
 48
5.0
100
AcDbCircle
 10
364.5501334281555
 20
241.9477934930352
 30
0.0
 40
2.000012
100
AcDbArc
 50
270.0
 51
354.2896919999999
  0
LINE
  5
28DF
330
1A
100
AcDbEntity
  8
SUNPOU
  6
PHANTOM
 62
     4
 48
5.0
100
AcDbLine
 10
229.3603082221987
 20
388.8057803360999
 30
0.0
 11
229.36023860423
 21
518.8057803362497
 31
0.0
  0
LINE
  5
28E0
330
1A
100
AcDbEntity
  8
SUNPOU
  6
PHANTOM
 62
     4
 48
5.0
100
AcDbLine
 10
289.3603586341123
 20
388.8057803360999
 30
0.0
 11
289.360428252081
 21
518.8057803362497
 31
0.0
  0
ARC
  5
28E1
330
1A
100
AcDbEntity
  8
SEIHIN
  6
Continuous
 62
     3
 48
5.0
100
AcDbCircle
 10
259.3605334281555
 20
465.8057481270899
 30
0.0
 40
29.25
100
AcDbArc
 50
269.9996080000003
 51
89.99980400000014
  0
ARC
  5
28E2
330
1A
100
AcDbEntity
  8
SEIHIN
  6
Continuous
 62
     3
 48
5.0
100
AcDbCircle
 10
259.3602334281555
 20
465.8056481270899
 30
0.0
 40
29.25
100
AcDbArc
 50
90.0
 51
270.0001959999999
  0
LINE
  5
28E3
330
1A
100
AcDbEntity
  8
SEIHIN
  6
Continuous
 62
     3
 48
5.0
100
AcDbLine
 10
185.1771334281555
 20
408.9814481270899
 30
0.0
 11
185.1772334281556
 21
502.35564812709
 31
0.0
  0
LINE
  5
28E4
330
1A
100
AcDbEntity
  8
SEIHIN
  6
Continuous
 62
     3
 48
5.0
100
AcDbLine
 10
211.5601334281556
 20
431.1057481270899
 30
0.0
 11
211.5602334281555
 21
495.6894481270899
 31
0.0
  0
LINE
  5
28E5
330
1A
100
AcDbEntity
  8
SEIHIN
  6
Continuous
 62
     3
 48
5.0
100
AcDbLine
 10
191.9601334281555
 20
411.9251481270899
 30
0.0
 11
191.9601334281555
 21
500.2820481270899
 31
0.0
  0
LINE
  5
28E6
330
1A
100
AcDbEntity
  8
SEIHIN
  6
Continuous
 62
     3
 48
5.0
100
AcDbLine
 10
201.5601334281556
 20
421.9361481270899
 30
0.0
 11
201.5602334281555
 21
500.2820481270899
 31
0.0
  0
LINE
  5
28E7
330
1A
100
AcDbEntity
  8
SEIHIN
  6
Continuous
 62
     3
 48
5.0
100
AcDbLine
 10
182.8634334281555
 20
412.2559481270899
 30
0.0
 11
182.8634334281555
 21
502.35574812709
 31
0.0
  0
LINE
  5
28E8
330
1A
100
AcDbEntity
  8
SEIHIN
  6
Continuous
 62
     3
 48
5.0
100
AcDbLine
 10
335.8573334281555
 20
412.2559481270899
 30
0.0
 11
335.8574334281555
 21
502.35574812709
 31
0.0
  0
LINE
  5
28E9
330
1A
100
AcDbEntity
  8
SEIHIN
  6
Continuous
 62
     3
 48
5.0
100
AcDbLine
 10
317.1605334281555
 20
421.9361481270899
 30
0.0
 11
317.1605334281555
 21
500.2819481270899
 31
0.0
  0
LINE
  5
28EA
330
1A
100
AcDbEntity
  8
SEIHIN
  6
Continuous
 62
     3
 48
5.0
100
AcDbLine
 10
326.7606334281555
 20
411.9251481270899
 30
0.0
 11
326.7606334281555
 21
500.2819481270899
 31
0.0
  0
LINE
  5
28EB
330
1A
100
AcDbEntity
  8
SEIHIN
  6
Continuous
 62
     3
 48
5.0
100
AcDbLine
 10
333.5436334281555
 20
408.9814481270899
 30
0.0
 11
333.5436334281555
 21
502.3555481270898
 31
0.0
  0
LINE
  5
28EC
330
1A
100
AcDbEntity
  8
SEIHIN
  6
Continuous
 62
     3
 48
5.0
100
AcDbLine
 10
307.1605334281555
 20
431.1057481270899
 30
0.0
 11
307.1605334281555
 21
495.6894481270899
 31
0.0
  0
LINE
  5
28ED
330
1A
100
AcDbEntity
  8
CENTER L
  6
CENTER
 62
     1
 48
5.0
100
AcDbLine
 10
259.3603372666761
 20
348.9056481270899
 30
0.0
 11
259.3604334281555
 21
528.4712481270899
 31
0.0
  0
DIMENSION
  5
28EE
330
1A
100
AcDbEntity
  8
SUNPOU
100
AcDbDimension
  2
*D10
 10
289.3603586341123
 20
333.8563923313675
 30
0.0
 11
259.3603334281555
 21
338.8563923313675
 31
0.0
 70
    32
  1
※a <>
 71
     5
 42
60.00005041191366
  3
STANDARD
100
AcDbAlignedDimension
 13
229.3603082221987
 23
388.8057803360999
 33
0.0
 14
289.3603586341123
 24
388.8057803360999
 34
0.0
100
AcDbRotatedDimension
1001
ACAD
1000
DSTYLE
1002
{
1070
   140
1040
6.0
1070
    74
1070
     0
1070
   172
1070
     1
1070
    73
1070
     0
1070
   272
1070
     2
1070
    77
1070
     3
1070
   173
1070
     1
1070
   147
1040
2.0
1070
    42
1040
6.0
1070
    44
1040
3.0
1070
    43
1040
14.0
1070
   271
1070
     0
1070
   178
1070
     4
1070
   177
1070
     4
1070
   176
1070
     4
1070
   141
1040
150.0
1070
     7
1000
_OPEN
1070
     6
1000
_OPEN
1070
    41
1040
7.0
1002
}
  0
LINE
  5
28EF
330
1A
100
AcDbEntity
  8
SEIHIN
  6
Continuous
 62
     3
 48
5.0
100
AcDbLine
 10
259.3602334281555
 20
418.1056481270899
 30
0.0
 11
294.1606334281555
 21
418.1057481270899
 31
0.0
  0
LINE
  5
28F0
330
1A
100
AcDbEntity
  8
SEIHIN
  6
Continuous
 62
     3
 48
5.0
100
AcDbLine
 10
304.1605334281555
 20
408.9360481270899
 30
0.0
 11
259.3604334281555
 21
408.9362481270899
 31
0.0
  0
LINE
  5
28F1
330
1A
100
AcDbEntity
  8
SEIHIN
  6
Continuous
 62
     3
 48
5.0
100
AcDbLine
 10
354.3607334281555
 20
355.9056481270899
 30
0.0
 11
259.3604334281555
 21
355.9056481270899
 31
0.0
  0
LINE
  5
28F2
330
1A
100
AcDbEntity
  8
SEIHIN
  6
Continuous
 62
     3
 48
5.0
100
AcDbLine
 10
353.3408334281555
 20
358.2170481270899
 30
0.0
 11
259.3604334281555
 21
358.2171481270899
 31
0.0
  0
LINE
  5
28F3
330
1A
100
AcDbEntity
  8
SEIHIN
  6
Continuous
 62
     3
 48
5.0
100
AcDbLine
 10
350.5708334281555
 20
360.9870481270899
 30
0.0
 11
259.3604334281555
 21
360.9870481270899
 31
0.0
  0
LINE
  5
28F4
330
1A
100
AcDbEntity
  8
SEIHIN
  6
Continuous
 62
     3
 48
5.0
100
AcDbLine
 10
331.0703334281555
 20
373.3628481270899
 30
0.0
 11
259.3604334281555
 21
373.3628481270899
 31
0.0
  0
LINE
  5
28F5
330
1A
100
AcDbEntity
  8
SEIHIN
  6
Continuous
 62
     3
 48
5.0
100
AcDbLine
 10
320.5435334281555
 20
395.9814481270899
 30
0.0
 11
259.3604334281555
 21
395.9815481270899
 31
0.0
  0
LINE
  5
28F6
330
1A
100
AcDbEntity
  8
SEIHIN
  6
Continuous
 62
     3
 48
5.0
100
AcDbLine
 10
313.7605334281555
 20
398.9251481270899
 30
0.0
 11
259.3604334281555
 21
398.9251481270899
 31
0.0
  0
LINE
  5
28F7
330
1A
100
AcDbEntity
  8
CENTER L
  6
CENTER
 62
     1
 48
5.0
100
AcDbLine
 10
297.8388085882597
 20
465.8057894388683
 30
0.0
 11
222.379395499988
 21
465.8057084233282
 31
0.0
  0
LINE
  5
28F8
330
1A
100
AcDbEntity
  8
SEIHIN
  6
Continuous
 62
     3
 48
5.0
100
AcDbLine
 10
164.7103334281555
 20
381.1556481270899
 30
0.0
 11
164.7103334281555
 21
386.6904481270899
 31
0.0
  0
LINE
  5
28F9
330
1A
100
AcDbEntity
  8
SEIHIN
  6
Continuous
 62
     3
 48
5.0
100
AcDbLine
 10
162.3604334281556
 20
381.1556481270899
 30
0.0
 11
162.3604334281556
 21
386.6904481270899
 31
0.0
  0
LINE
  5
28FA
330
1A
100
AcDbEntity
  8
SEIHIN
  6
Continuous
 62
     3
 48
5.0
100
AcDbLine
 10
154.6003334281555
 20
380.6173481270899
 30
0.0
 11
154.6003334281555
 21
387.0555481270899
 31
0.0
  0
LINE
  5
28FB
330
1A
100
AcDbEntity
  8
SEIHIN
  6
Continuous
 62
     3
 48
5.0
100
AcDbLine
 10
149.3604334281556
 20
402.8059481270899
 30
0.0
 11
149.3603334281555
 21
370.9055481270899
 31
0.0
  0
LINE
  5
28FC
330
1A
100
AcDbEntity
  8
SEIHIN
  6
Continuous
 62
     3
 48
5.0
100
AcDbLine
 10
153.3799334281555
 20
370.2170481270899
 30
0.0
 11
153.3799334281555
 21
402.8055481270899
 31
0.0
  0
LINE
  5
28FD
330
1A
100
AcDbEntity
  8
SEIHIN
  6
Continuous
 62
     3
 48
5.0
100
AcDbLine
 10
149.3600334281555
 20
370.9055481270899
 30
0.0
 11
149.3600334281555
 21
402.8055481270899
 31
0.0
  0
LINE
  5
28FE
330
1A
100
AcDbEntity
  8
SEIHIN
  6
Continuous
 62
     3
 48
5.0
100
AcDbLine
 10
187.6504334281555
 20
373.3628481270899
 30
0.0
 11
259.3604334281555
 21
373.3627481270899
 31
0.0
  0
LINE
  5
28FF
330
1A
100
AcDbEntity
  8
SEIHIN
  6
Continuous
 62
     3
 48
5.0
100
AcDbLine
 10
168.1498334281556
 20
360.9871481270899
 30
0.0
 11
259.3603334281555
 21
360.9870481270899
 31
0.0
  0
LINE
  5
2900
330
1A
100
AcDbEntity
  8
SEIHIN
  6
Continuous
 62
     3
 48
5.0
100
AcDbLine
 10
165.3799334281555
 20
358.2171481270899
 30
0.0
 11
259.3603334281555
 21
358.2170481270899
 31
0.0
  0
LINE
  5
2901
330
1A
100
AcDbEntity
  8
SEIHIN
  6
Continuous
 62
     3
 48
5.0
100
AcDbLine
 10
164.3600334281555
 20
355.9056481270899
 30
0.0
 11
259.3603334281555
 21
355.9056481270899
 31
0.0
  0
ARC
  5
2902
330
1A
100
AcDbEntity
  8
SEIHIN
  6
Continuous
 62
     3
 48
5.0
100
AcDbCircle
 10
177.4103334281555
 20
386.0628481270899
 30
0.0
 40
12.699962
100
AcDbArc
 50
202.729946
 51
270.0
  0
ARC
  5
2903
330
1A
100
AcDbEntity
  8
SEIHIN
  6
Continuous
 62
     3
 48
5.0
100
AcDbCircle
 10
165.3799334281555
 20
370.2171481270899
 30
0.0
 40
12.0
100
AcDbArc
 50
180.0
 51
270.0
  0
ARC
  5
2904
330
1A
100
AcDbEntity
  8
SEIHIN
  6
Continuous
 62
     3
 48
5.0
100
AcDbCircle
 10
168.1499334281555
 20
372.9871481270899
 30
0.0
 40
12.0
100
AcDbArc
 50
180.0
 51
270.0
  0
ARC
  5
2905
330
1A
100
AcDbEntity
  8
SEIHIN
  6
Continuous
 62
     3
 48
5.0
100
AcDbCircle
 10
164.3600334281555
 20
370.9056481270899
 30
0.0
 40
15.0
100
AcDbArc
 50
180.0
 51
270.0
  0
LINE
  5
2906
330
1A
100
AcDbEntity
  8
SEIHIN
  6
Continuous
 62
     3
 48
5.0
100
AcDbLine
 10
156.1499334281555
 20
381.1556481270899
 30
0.0
 11
164.7103334281555
 21
381.1556481270899
 31
0.0
  0
LINE
  5
2907
330
1A
100
AcDbEntity
  8
SEIHIN
  6
Continuous
 62
     3
 48
5.0
100
AcDbLine
 10
156.1499334281555
 20
381.1556481270899
 30
0.0
 11
155.4955334281555
 21
380.3111481270899
 31
0.0
  0
ARC
  5
2908
330
1A
100
AcDbEntity
  8
SEIHIN
  6
Continuous
 62
     3
 48
5.0
100
AcDbCircle
 10
155.1003334281555
 20
380.6173481270899
 30
0.0
 40
0.499971
100
AcDbArc
 50
180.0
 51
322.2315630000003
  0
LINE
  5
2909
330
1A
100
AcDbEntity
  8
SEIHIN
  6
Continuous
 62
     3
 48
5.0
100
AcDbLine
 10
156.1499334281555
 20
381.1556481270899
 30
0.0
 11
156.1499334281555
 21
372.9870481270899
 31
0.0
  0
ARC
  5
290A
330
1A
100
AcDbEntity
  8
SEIHIN
  6
Continuous
 62
     3
 48
5.0
100
AcDbCircle
 10
214.5601334281556
 20
421.9361481270899
 30
0.0
 40
13.0
100
AcDbArc
 50
180.0
 51
270.0
  0
ARC
  5
290B
330
1A
100
AcDbEntity
  8
SEIHIN
  6
Continuous
 62
     3
 48
5.0
100
AcDbCircle
 10
224.5601334281556
 20
431.1057481270899
 30
0.0
 40
13.0
100
AcDbArc
 50
180.0
 51
270.0
  0
LINE
  5
290C
330
1A
100
AcDbEntity
  8
SEIHIN
  6
Continuous
 62
     3
 48
5.0
100
AcDbLine
 10
204.9601334281555
 20
398.9251481270899
 30
0.0
 11
259.3602334281555
 21
398.9251481270899
 31
0.0
  0
LINE
  5
290D
330
1A
100
AcDbEntity
  8
SEIHIN
  6
Continuous
 62
     3
 48
5.0
100
AcDbLine
 10
198.1771334281555
 20
395.9814481270899
 30
0.0
 11
259.3602334281555
 21
395.9814481270899
 31
0.0
  0
ARC
  5
290E
330
1A
100
AcDbEntity
  8
SEIHIN
  6
Continuous
 62
     3
 48
5.0
100
AcDbCircle
 10
169.9181334281555
 20
409.2513481270899
 30
0.0
 40
10.778712
100
AcDbArc
 50
305.263191
 51
5.348383000000125
  0
ARC
  5
290F
330
1A
100
AcDbEntity
  8
SEIHIN
  6
Continuous
 62
     3
 48
5.0
100
AcDbCircle
 10
167.5681334281555
 20
409.2513481270899
 30
0.0
 40
10.778712
100
AcDbArc
 50
305.263191
 51
5.348383000000125
  0
ARC
  5
2910
330
1A
100
AcDbEntity
  8
SEIHIN
  6
Continuous
 62
     3
 48
5.0
100
AcDbCircle
 10
104.9146434281555
 20
390.4355481270899
 30
0.0
 40
49.99999099999999
100
AcDbArc
 50
356.1238470000002
 51
14.32370599999984
  0
LINE
  5
2911
330
1A
100
AcDbEntity
  8
SEIHIN
  6
Continuous
 62
     3
 48
5.0
100
AcDbLine
 10
154.6003334281555
 20
387.0552481270899
 30
0.0
 11
154.8003334281555
 21
387.0552481270899
 31
0.0
  0
LINE
  5
2912
330
1A
100
AcDbEntity
  8
SEIHIN
  6
Continuous
 62
     3
 48
5.0
100
AcDbLine
 10
149.3604334281556
 20
402.8055481270899
 30
0.0
 11
153.3602334281555
 21
402.8055481270899
 31
0.0
  0
LINE
  5
2913
330
1A
100
AcDbEntity
  8
SEIHIN
  6
Continuous
 62
     3
 48
5.0
100
AcDbLine
 10
149.3600334281555
 20
402.8055481270899
 30
0.0
 11
153.3799334281555
 21
402.8055481270899
 31
0.0
  0
ARC
  5
2914
330
1A
100
AcDbEntity
  8
SEIHIN
  6
Continuous
 62
     3
 48
5.0
100
AcDbCircle
 10
194.7083334281555
 20
386.3407481270899
 30
0.0
 40
30.000036
100
AcDbArc
 50
160.0166979999998
 51
179.3322989999998
  0
ARC
  5
2915
330
1A
100
AcDbEntity
  8
SEIHIN
  6
Continuous
 62
     3
 48
5.0
100
AcDbCircle
 10
192.3583334281555
 20
386.3409481270899
 30
0.0
 40
29.99995
100
AcDbArc
 50
160.0170569999997
 51
179.332679
  0
LINE
  5
2916
330
1A
100
AcDbEntity
  8
SEIHIN
  6
Continuous
 62
     3
 48
5.0
100
AcDbLine
 10
176.1406334281555
 20
400.4501481270899
 30
0.0
 11
166.5103334281555
 21
396.5934481270899
 31
0.0
  0
LINE
  5
2917
330
1A
100
AcDbEntity
  8
SEIHIN
  6
Continuous
 62
     3
 48
5.0
100
AcDbLine
 10
173.7906334281555
 20
400.4501481270899
 30
0.0
 11
164.1603334281555
 21
396.5934481270899
 31
0.0
  0
LINE
  5
2918
330
1A
100
AcDbEntity
  8
SEIHIN
  6
Continuous
 62
     3
 48
5.0
100
AcDbLine
 10
164.1645334281555
 20
396.5932481270899
 30
0.0
 11
166.5145334281555
 21
396.5932481270899
 31
0.0
  0
LINE
  5
2919
330
1A
100
AcDbEntity
  8
SEIHIN
  6
Continuous
 62
     3
 48
5.0
100
AcDbLine
 10
173.7907334281555
 20
400.4501481270899
 30
0.0
 11
176.1406334281555
 21
400.4501481270899
 31
0.0
  0
ARC
  5
291A
330
1A
100
AcDbEntity
  8
SEIHIN
  6
Continuous
 62
     3
 48
5.0
100
AcDbCircle
 10
204.9601334281555
 20
411.9251481270899
 30
0.0
 40
13.0
100
AcDbArc
 50
179.9995589999999
 51
270.0
  0
ARC
  5
291B
330
1A
100
AcDbEntity
  8
SEIHIN
  6
Continuous
 62
     3
 48
5.0
100
AcDbCircle
 10
198.1771334281555
 20
408.9814481270899
 30
0.0
 40
13.0
100
AcDbArc
 50
180.0
 51
270.0
  0
LINE
  5
291C
330
1A
100
AcDbEntity
  8
SEIHIN
  6
Continuous
 62
     3
 48
5.0
100
AcDbLine
 10
182.8634334281555
 20
412.2556481270899
 30
0.0
 11
185.1771334281555
 21
412.2556481270899
 31
0.0
  0
LINE
  5
291D
330
1A
100
AcDbEntity
  8
SEIHIN
  6
Continuous
 62
     3
 48
5.0
100
AcDbLine
 10
178.2999334281555
 20
408.2470481270899
 30
0.0
 11
178.2999334281555
 21
410.2559481270899
 31
0.0
  0
LINE
  5
291E
330
1A
100
AcDbEntity
  8
SEIHIN
  6
Continuous
 62
     3
 48
5.0
100
AcDbLine
 10
178.2999334281555
 20
410.2559481270899
 30
0.0
 11
180.6137334281555
 21
410.2556481270899
 31
0.0
  0
LINE
  5
291F
330
1A
100
AcDbEntity
  8
SEIHIN
  6
Continuous
 62
     3
 48
5.0
100
AcDbLine
 10
180.6137334281555
 20
410.2556481270899
 30
0.0
 11
185.1771334281555
 21
412.2556481270899
 31
0.0
  0
LINE
  5
2920
330
1A
100
AcDbEntity
  8
SEIHIN
  6
Continuous
 62
     3
 48
5.0
100
AcDbLine
 10
182.8634334281555
 20
412.2559481270899
 30
0.0
 11
178.2999334281555
 21
410.2559481270899
 31
0.0
  0
LINE
  5
2921
330
1A
100
AcDbEntity
  8
SEIHIN
  6
Continuous
 62
     3
 48
5.0
100
AcDbLine
 10
259.3605334281555
 20
418.1056481270899
 30
0.0
 11
224.5601334281556
 21
418.1057481270899
 31
0.0
  0
LINE
  5
2922
330
1A
100
AcDbEntity
  8
SEIHIN
  6
Continuous
 62
     3
 48
5.0
100
AcDbLine
 10
214.5601334281556
 20
408.9361481270899
 30
0.0
 11
259.3603334281555
 21
408.9361481270899
 31
0.0
  0
LINE
  5
2923
330
1A
100
AcDbEntity
  8
SEIHIN
  6
Continuous
 62
     3
 48
5.0
100
AcDbLine
 10
364.1204334281555
 20
380.6172481270899
 30
0.0
 11
364.1204334281555
 21
387.0554481270899
 31
0.0
  0
LINE
  5
2924
330
1A
100
AcDbEntity
  8
SEIHIN
  6
Continuous
 62
     3
 48
5.0
100
AcDbLine
 10
356.3603334281555
 20
381.1556481270899
 30
0.0
 11
356.3603334281555
 21
386.6903481270899
 31
0.0
  0
LINE
  5
2925
330
1A
100
AcDbEntity
  8
SEIHIN
  6
Continuous
 62
     3
 48
5.0
100
AcDbLine
 10
354.0104334281555
 20
381.1556481270899
 30
0.0
 11
354.0104334281555
 21
386.6903481270899
 31
0.0
  0
LINE
  5
2926
330
1A
100
AcDbEntity
  8
SEIHIN
  6
Continuous
 62
     3
 48
5.0
100
AcDbLine
 10
369.3607334281555
 20
370.9054481270899
 30
0.0
 11
369.3607334281555
 21
402.8055481270899
 31
0.0
  0
LINE
  5
2927
330
1A
100
AcDbEntity
  8
SEIHIN
  6
Continuous
 62
     3
 48
5.0
100
AcDbLine
 10
365.3408334281555
 20
370.2169481270899
 30
0.0
 11
365.3408334281555
 21
402.8055481270899
 31
0.0
  0
LINE
  5
2928
330
1A
100
AcDbEntity
  8
SEIHIN
  6
Continuous
 62
     3
 48
5.0
100
AcDbLine
 10
369.3604334281555
 20
402.8058481270899
 30
0.0
 11
369.3604334281555
 21
370.9054481270899
 31
0.0
  0
ARC
  5
2929
330
1A
100
AcDbEntity
  8
SEIHIN
  6
Continuous
 62
     3
 48
5.0
100
AcDbCircle
 10
354.3607334281555
 20
370.9056481270899
 30
0.0
 40
15.0
100
AcDbArc
 50
269.9996179999997
 51
359.9996180000001
  0
ARC
  5
292A
330
1A
100
AcDbEntity
  8
SEIHIN
  6
Continuous
 62
     3
 48
5.0
100
AcDbCircle
 10
350.5708334281555
 20
372.9871481270899
 30
0.0
 40
12.0
100
AcDbArc
 50
270.0
 51
359.9995229999998
  0
ARC
  5
292B
330
1A
100
AcDbEntity
  8
SEIHIN
  6
Continuous
 62
     3
 48
5.0
100
AcDbCircle
 10
353.3408334281555
 20
370.2171481270899
 30
0.0
 40
12.0
100
AcDbArc
 50
269.9995229999998
 51
359.9995229999998
  0
LINE
  5
292C
330
1A
100
AcDbEntity
  8
SEIHIN
  6
Continuous
 62
     3
 48
5.0
100
AcDbLine
 10
362.5708334281555
 20
381.1555481270899
 30
0.0
 11
354.0104334281555
 21
381.1556481270899
 31
0.0
  0
ARC
  5
292D
330
1A
100
AcDbEntity
  8
SEIHIN
  6
Continuous
 62
     3
 48
5.0
100
AcDbCircle
 10
341.3104334281555
 20
386.0628481270899
 30
0.0
 40
12.699981
100
AcDbArc
 50
269.9995490000005
 51
337.2696380000003
  0
ARC
  5
292E
330
1A
100
AcDbEntity
  8
SEIHIN
  6
Continuous
 62
     3
 48
5.0
100
AcDbCircle
 10
363.6204334281555
 20
380.6172481270899
 30
0.0
 40
0.500001
100
AcDbArc
 50
217.7774960000004
 51
0.0
  0
LINE
  5
292F
330
1A
100
AcDbEntity
  8
SEIHIN
  6
Continuous
 62
     3
 48
5.0
100
AcDbLine
 10
362.5708334281555
 20
381.1556481270899
 30
0.0
 11
363.2252334281555
 21
380.3110481270899
 31
0.0
  0
LINE
  5
2930
330
1A
100
AcDbEntity
  8
SEIHIN
  6
Continuous
 62
     3
 48
5.0
100
AcDbLine
 10
362.5708334281555
 20
381.1556481270899
 30
0.0
 11
362.5708334281555
 21
372.9869481270899
 31
0.0
  0
ARC
  5
2931
330
1A
100
AcDbEntity
  8
SEIHIN
  6
Continuous
 62
     3
 48
5.0
100
AcDbCircle
 10
351.1526334281555
 20
409.2513481270899
 30
0.0
 40
10.778741
100
AcDbArc
 50
174.6516169999999
 51
234.7363740000009
  0
ARC
  5
2932
330
1A
100
AcDbEntity
  8
SEIHIN
  6
Continuous
 62
     3
 48
5.0
100
AcDbCircle
 10
348.8026334281555
 20
409.2513481270899
 30
0.0
 40
10.778712
100
AcDbArc
 50
174.6516169999999
 51
234.736809
  0
ARC
  5
2933
330
1A
100
AcDbEntity
  8
SEIHIN
  6
Continuous
 62
     3
 48
5.0
100
AcDbCircle
 10
294.1605334281555
 20
431.1057481270899
 30
0.0
 40
13.0
100
AcDbArc
 50
270.0
 51
0.0
  0
ARC
  5
2934
330
1A
100
AcDbEntity
  8
SEIHIN
  6
Continuous
 62
     3
 48
5.0
100
AcDbCircle
 10
304.1605334281555
 20
421.9361481270899
 30
0.0
 40
13.0
100
AcDbArc
 50
270.0
 51
0.0
  0
ARC
  5
2935
330
1A
100
AcDbEntity
  8
SEIHIN
  6
Continuous
 62
     3
 48
5.0
100
AcDbCircle
 10
313.7606334281555
 20
411.9251481270899
 30
0.0
 40
13.0
100
AcDbArc
 50
269.9995589999999
 51
0.0
  0
ARC
  5
2936
330
1A
100
AcDbEntity
  8
SEIHIN
  6
Continuous
 62
     3
 48
5.0
100
AcDbCircle
 10
320.5436334281555
 20
408.9814481270899
 30
0.0
 40
13.0
100
AcDbArc
 50
270.0
 51
359.9995589999999
  0
LINE
  5
2937
330
1A
100
AcDbEntity
  8
SEIHIN
  6
Continuous
 62
     3
 48
5.0
100
AcDbLine
 10
340.4208334281555
 20
410.2559481270899
 30
0.0
 11
338.1070334281555
 21
410.2556481270899
 31
0.0
  0
LINE
  5
2938
330
1A
100
AcDbEntity
  8
SEIHIN
  6
Continuous
 62
     3
 48
5.0
100
AcDbLine
 10
340.4207334281555
 20
408.2470481270899
 30
0.0
 11
340.4207334281555
 21
410.2559481270899
 31
0.0
  0
LINE
  5
2939
330
1A
100
AcDbEntity
  8
SEIHIN
  6
Continuous
 62
     3
 48
5.0
100
AcDbLine
 10
335.8573334281555
 20
412.2555481270899
 30
0.0
 11
333.5435334281555
 21
412.2555481270899
 31
0.0
  0
LINE
  5
293A
330
1A
100
AcDbEntity
  8
SEIHIN
  6
Continuous
 62
     3
 48
5.0
100
AcDbLine
 10
335.8573334281555
 20
412.2559481270899
 30
0.0
 11
340.4208334281555
 21
410.2559481270899
 31
0.0
  0
LINE
  5
293B
330
1A
100
AcDbEntity
  8
SEIHIN
  6
Continuous
 62
     3
 48
5.0
100
AcDbLine
 10
338.1070334281555
 20
410.2556481270899
 30
0.0
 11
333.5435334281555
 21
412.2555481270899
 31
0.0
  0
ARC
  5
293C
330
1A
100
AcDbEntity
  8
SEIHIN
  6
Continuous
 62
     3
 48
5.0
100
AcDbCircle
 10
326.3624334281555
 20
386.3408481270899
 30
0.0
 40
29.999951
100
AcDbArc
 50
0.667512000000166
 51
19.98294300000035
  0
ARC
  5
293D
330
1A
100
AcDbEntity
  8
SEIHIN
  6
Continuous
 62
     3
 48
5.0
100
AcDbCircle
 10
324.0125334281555
 20
386.3407481270899
 30
0.0
 40
29.999939
100
AcDbArc
 50
0.6677029999999514
 51
19.98336800000029
  0
LINE
  5
293E
330
1A
100
AcDbEntity
  8
SEIHIN
  6
Continuous
 62
     3
 48
5.0
100
AcDbLine
 10
342.5801334281555
 20
400.4500481270899
 30
0.0
 11
352.2103334281555
 21
396.5933481270899
 31
0.0
  0
LINE
  5
293F
330
1A
100
AcDbEntity
  8
SEIHIN
  6
Continuous
 62
     3
 48
5.0
100
AcDbLine
 10
344.9301334281555
 20
400.4500481270899
 30
0.0
 11
354.5603334281555
 21
396.5933481270899
 31
0.0
  0
LINE
  5
2940
330
1A
100
AcDbEntity
  8
SEIHIN
  6
Continuous
 62
     3
 48
5.0
100
AcDbLine
 10
344.9301334281555
 20
400.4501481270899
 30
0.0
 11
342.5801334281555
 21
400.4501481270899
 31
0.0
  0
LINE
  5
2941
330
1A
100
AcDbEntity
  8
SEIHIN
  6
Continuous
 62
     3
 48
5.0
100
AcDbLine
 10
354.5562334281555
 20
396.5931481270899
 30
0.0
 11
352.2062334281555
 21
396.5931481270899
 31
0.0
  0
ARC
  5
2942
330
1A
100
AcDbEntity
  8
SEIHIN
  6
Continuous
 62
     3
 48
5.0
100
AcDbCircle
 10
413.8061334281555
 20
390.4353481270899
 30
0.0
 40
50.000021
100
AcDbArc
 50
165.676047
 51
183.8759159999999
  0
LINE
  5
2943
330
1A
100
AcDbEntity
  8
SEIHIN
  6
Continuous
 62
     3
 48
5.0
100
AcDbLine
 10
364.1204334281555
 20
387.0552481270899
 30
0.0
 11
363.9204334281555
 21
387.0552481270899
 31
0.0
  0
LINE
  5
2944
330
1A
100
AcDbEntity
  8
SEIHIN
  6
Continuous
 62
     3
 48
5.0
100
AcDbLine
 10
369.3607334281555
 20
402.8055481270899
 30
0.0
 11
365.3408334281555
 21
402.8055481270899
 31
0.0
  0
LINE
  5
2945
330
1A
100
AcDbEntity
  8
SEIHIN
  6
Continuous
 62
     3
 48
5.0
100
AcDbLine
 10
369.3604334281555
 20
402.8055481270899
 30
0.0
 11
365.3604334281555
 21
402.8055481270899
 31
0.0
  0
LINE
  5
2946
330
1A
100
AcDbEntity
  8
SEIHIN
  6
Continuous
 62
     3
 48
5.0
100
AcDbLine
 10
292.1606334281555
 20
510.6894481270899
 30
0.0
 11
259.3605334281555
 21
510.6894481270899
 31
0.0
  0
LINE
  5
2947
330
1A
100
AcDbEntity
  8
SEIHIN
  6
Continuous
 62
     3
 48
5.0
100
AcDbLine
 10
346.5604334281555
 20
518.6054481270899
 30
0.0
 11
259.3604334281555
 21
518.6055481270901
 31
0.0
  0
LINE
  5
2948
330
1A
100
AcDbEntity
  8
SEIHIN
  6
Continuous
 62
     3
 48
5.0
100
AcDbLine
 10
315.7606334281555
 20
511.2820481270899
 30
0.0
 11
259.3604334281555
 21
511.2820481270899
 31
0.0
  0
LINE
  5
2949
330
1A
100
AcDbEntity
  8
SEIHIN
  6
Continuous
 62
     3
 48
5.0
100
AcDbLine
 10
341.5604334281555
 20
513.5891481270901
 30
0.0
 11
259.3604334281555
 21
513.5891481270901
 31
0.0
  0
LINE
  5
294A
330
1A
100
AcDbEntity
  8
SEIHIN
  6
Continuous
 62
     3
 48
5.0
100
AcDbLine
 10
355.2104334281555
 20
520.90554812709
 30
0.0
 11
259.3604334281555
 21
520.90564812709
 31
0.0
  0
ARC
  5
294B
330
1A
100
AcDbEntity
  8
SEIHIN
  6
Continuous
 62
     3
 48
5.0
100
AcDbCircle
 10
212.5602334281555
 20
500.2820481270899
 30
0.0
 40
11.0
100
AcDbArc
 50
90.0
 51
180.0
  0
ARC
  5
294C
330
1A
100
AcDbEntity
  8
SEIHIN
  6
Continuous
 62
     3
 48
5.0
100
AcDbCircle
 10
226.5602334281555
 20
495.6894481270899
 30
0.0
 40
15.0
100
AcDbArc
 50
90.0
 51
180.0
  0
LINE
  5
294D
330
1A
100
AcDbEntity
  8
SEIHIN
  6
Continuous
 62
     3
 48
5.0
100
AcDbLine
 10
202.9601334281555
 20
511.2820481270899
 30
0.0
 11
259.3603334281555
 21
511.2820481270899
 31
0.0
  0
LINE
  5
294E
330
1A
100
AcDbEntity
  8
SEIHIN
  6
Continuous
 62
     3
 48
5.0
100
AcDbLine
 10
177.1604334281555
 20
513.5891481270901
 30
0.0
 11
259.3604334281555
 21
513.5891481270901
 31
0.0
  0
LINE
  5
294F
330
1A
100
AcDbEntity
  8
SEIHIN
  6
Continuous
 62
     3
 48
5.0
100
AcDbLine
 10
172.1604334281555
 20
518.60564812709
 30
0.0
 11
259.3604334281555
 21
518.6055481270901
 31
0.0
  0
LINE
  5
2950
330
1A
100
AcDbEntity
  8
SEIHIN
  6
Continuous
 62
     3
 48
5.0
100
AcDbLine
 10
163.5103334281555
 20
520.90564812709
 30
0.0
 11
259.3603334281555
 21
520.90564812709
 31
0.0
  0
ARC
  5
2951
330
1A
100
AcDbEntity
  8
SEIHIN
  6
Continuous
 62
     3
 48
5.0
100
AcDbCircle
 10
177.1604334281555
 20
505.5891481270899
 30
0.0
 40
8.0
100
AcDbArc
 50
90.0
 51
180.0
  0
LINE
  5
2952
330
1A
100
AcDbEntity
  8
SEIHIN
  6
Continuous
 62
     3
 48
5.0
100
AcDbLine
 10
170.0435334281555
 20
504.1377481270899
 30
0.0
 11
185.1772334281556
 21
502.35564812709
 31
0.0
  0
LINE
  5
2953
330
1A
100
AcDbEntity
  8
SEIHIN
  6
Continuous
 62
     3
 48
5.0
100
AcDbLine
 10
167.7437334281555
 20
504.13224812709
 30
0.0
 11
182.8634334281555
 21
502.35574812709
 31
0.0
  0
ARC
  5
2954
330
1A
100
AcDbEntity
  8
SEIHIN
  6
Continuous
 62
     3
 48
5.0
100
AcDbCircle
 10
156.9517334281555
 20
501.92384812709
 30
0.0
 40
8.999949000000001
100
AcDbArc
 50
317.4342940000008
 51
9.025151000000129
  0
LINE
  5
2955
330
1A
100
AcDbEntity
  8
SEIHIN
  6
Continuous
 62
     3
 48
5.0
100
AcDbLine
 10
163.5799334281555
 20
495.8357481270899
 30
0.0
 11
163.5799334281555
 21
517.90564812709
 31
0.0
  0
LINE
  5
2956
330
1A
100
AcDbEntity
  8
SEIHIN
  6
Continuous
 62
     3
 48
5.0
100
AcDbLine
 10
160.5103334281555
 20
517.90564812709
 30
0.0
 11
160.5103334281555
 21
495.8357481270899
 31
0.0
  0
LINE
  5
2957
330
1A
100
AcDbEntity
  8
SEIHIN
  6
Continuous
 62
     3
 48
5.0
100
AcDbLine
 10
160.5101334281555
 20
495.8357481270899
 30
0.0
 11
163.5799334281555
 21
495.8357481270899
 31
0.0
  0
ARC
  5
2958
330
1A
100
AcDbEntity
  8
SEIHIN
  6
Continuous
 62
     3
 48
5.0
100
AcDbCircle
 10
163.5103334281555
 20
517.90564812709
 30
0.0
 40
3.0
100
AcDbArc
 50
90.0
 51
180.0
  0
LINE
  5
2959
330
1A
100
AcDbEntity
  8
SEIHIN
  6
Continuous
 62
     3
 48
5.0
100
AcDbLine
 10
169.2092334281555
 20
505.04254812709
 30
0.0
 11
169.2092334281555
 21
516.1443481270899
 31
0.0
  0
ARC
  5
295A
330
1A
100
AcDbEntity
  8
SEIHIN
  6
Continuous
 62
     3
 48
5.0
100
AcDbCircle
 10
168.1604334281555
 20
509.83574812709
 30
0.0
 40
1.0
100
AcDbArc
 50
0.0
 51
90.0
  0
ARC
  5
295B
330
1A
100
AcDbEntity
  8
SEIHIN
  6
Continuous
 62
     3
 48
5.0
100
AcDbCircle
 10
165.8604334281556
 20
509.83574812709
 30
0.0
 40
1.0
100
AcDbArc
 50
0.0
 51
73.73979499999979
  0
LINE
  5
295C
330
1A
100
AcDbEntity
  8
SEIHIN
  6
Continuous
 62
     3
 48
5.0
100
AcDbLine
 10
166.4204334281555
 20
510.83574812709
 30
0.0
 11
168.1604334281555
 21
510.83574812709
 31
0.0
  0
ARC
  5
295D
330
1A
100
AcDbEntity
  8
SEIHIN
  6
Continuous
 62
     3
 48
5.0
100
AcDbCircle
 10
166.4204334281555
 20
509.83574812709
 30
0.0
 40
1.0
100
AcDbArc
 50
90.0
 51
180.0
  0
ARC
  5
295E
330
1A
100
AcDbEntity
  8
SEIHIN
  6
Continuous
 62
     3
 48
5.0
100
AcDbCircle
 10
167.8604334281556
 20
505.1253481270899
 30
0.0
 40
0.9999670000000001
100
AcDbArc
 50
180.0
 51
263.2978619999994
  0
LINE
  5
295F
330
1A
100
AcDbEntity
  8
SEIHIN
  6
Continuous
 62
     3
 48
5.0
100
AcDbLine
 10
165.4204334281555
 20
503.33574812709
 30
0.0
 11
165.8403334281555
 21
503.33574812709
 31
0.0
  0
LINE
  5
2960
330
1A
100
AcDbEntity
  8
SEIHIN
  6
Continuous
 62
     3
 48
5.0
100
AcDbLine
 10
166.8604334281556
 20
509.83574812709
 30
0.0
 11
166.8604334281556
 21
505.1253481270899
 31
0.0
  0
LINE
  5
2961
330
1A
100
AcDbEntity
  8
SEIHIN
  6
Continuous
 62
     3
 48
5.0
100
AcDbLine
 10
165.4204334281555
 20
509.83574812709
 30
0.0
 11
165.4204334281555
 21
503.33574812709
 31
0.0
  0
ARC
  5
2962
330
1A
100
AcDbEntity
  8
SEIHIN
  6
Continuous
 62
     3
 48
5.0
100
AcDbCircle
 10
170.1604334281555
 20
505.1308481270899
 30
0.0
 40
0.999984
100
AcDbArc
 50
180.0
 51
263.2807910000001
  0
LINE
  5
2963
330
1A
100
AcDbEntity
  8
SEIHIN
  6
Continuous
 62
     3
 48
5.0
100
AcDbLine
 10
169.1604334281555
 20
505.1308481270899
 30
0.0
 11
169.1604334281555
 21
505.5891481270899
 31
0.0
  0
ARC
  5
2964
330
1A
100
AcDbEntity
  8
SEIHIN
  6
Continuous
 62
     3
 48
5.0
100
AcDbCircle
 10
172.1604334281555
 20
515.60564812709
 30
0.0
 40
3.0
100
AcDbArc
 50
90.0
 51
180.0
  0
ARC
  5
2965
330
1A
100
AcDbEntity
  8
SEIHIN
  6
Continuous
 62
     3
 48
5.0
100
AcDbCircle
 10
166.5799334281555
 20
517.90564812709
 30
0.0
 40
3.0
100
AcDbArc
 50
90.0
 51
180.0
  0
ARC
  5
2966
330
1A
100
AcDbEntity
  8
SEIHIN
  6
Continuous
 62
     3
 48
5.0
100
AcDbCircle
 10
202.9601334281555
 20
500.2820481270899
 30
0.0
 40
11.0
100
AcDbArc
 50
90.0
 51
180.0
  0
LINE
  5
2967
330
1A
100
AcDbEntity
  8
SEIHIN
  6
Continuous
 62
     3
 48
5.0
100
AcDbLine
 10
182.8634334281555
 20
502.35574812709
 30
0.0
 11
185.1772334281556
 21
502.35564812709
 31
0.0
  0
LINE
  5
2968
330
1A
100
AcDbEntity
  8
SEIHIN
  6
Continuous
 62
     3
 48
5.0
100
AcDbLine
 10
226.5602334281555
 20
510.6894481270899
 30
0.0
 11
259.3602334281555
 21
510.6894481270899
 31
0.0
  0
LINE
  5
2969
330
1A
100
AcDbEntity
  8
SEIHIN
  6
Continuous
 62
     3
 48
5.0
100
AcDbLine
 10
350.9771334281555
 20
504.13214812709
 30
0.0
 11
335.8574334281555
 21
502.35574812709
 31
0.0
  0
LINE
  5
296A
330
1A
100
AcDbEntity
  8
SEIHIN
  6
Continuous
 62
     3
 48
5.0
100
AcDbLine
 10
348.6773334281555
 20
504.1377481270899
 30
0.0
 11
333.5436334281555
 21
502.3555481270898
 31
0.0
  0
ARC
  5
296B
330
1A
100
AcDbEntity
  8
SEIHIN
  6
Continuous
 62
     3
 48
5.0
100
AcDbCircle
 10
306.1605334281555
 20
500.2819481270899
 30
0.0
 40
11.0
100
AcDbArc
 50
0.0
 51
90.0
  0
ARC
  5
296C
330
1A
100
AcDbEntity
  8
SEIHIN
  6
Continuous
 62
     3
 48
5.0
100
AcDbCircle
 10
292.1605334281555
 20
495.6894481270899
 30
0.0
 40
15.0
100
AcDbArc
 50
0.0
 51
90.0
  0
ARC
  5
296D
330
1A
100
AcDbEntity
  8
SEIHIN
  6
Continuous
 62
     3
 48
5.0
100
AcDbCircle
 10
315.7606334281555
 20
500.2819481270899
 30
0.0
 40
11.0
100
AcDbArc
 50
0.0
 51
90.0
  0
LINE
  5
296E
330
1A
100
AcDbEntity
  8
SEIHIN
  6
Continuous
 62
     3
 48
5.0
100
AcDbLine
 10
335.8574334281555
 20
502.35574812709
 30
0.0
 11
333.5436334281555
 21
502.3555481270898
 31
0.0
  0
LINE
  5
296F
330
1A
100
AcDbEntity
  8
SEIHIN
  6
Continuous
 62
     3
 48
5.0
100
AcDbLine
 10
358.2104334281555
 20
517.90564812709
 30
0.0
 11
358.2104334281555
 21
495.8356481270898
 31
0.0
  0
LINE
  5
2970
330
1A
100
AcDbEntity
  8
SEIHIN
  6
Continuous
 62
     3
 48
5.0
100
AcDbLine
 10
355.1408334281555
 20
495.8356481270898
 30
0.0
 11
355.1408334281555
 21
517.90564812709
 31
0.0
  0
ARC
  5
2971
330
1A
100
AcDbEntity
  8
SEIHIN
  6
Continuous
 62
     3
 48
5.0
100
AcDbCircle
 10
361.7691334281555
 20
501.92374812709
 30
0.0
 40
9.000035000000001
100
AcDbArc
 50
170.9749489999998
 51
222.5652750000001
  0
LINE
  5
2972
330
1A
100
AcDbEntity
  8
SEIHIN
  6
Continuous
 62
     3
 48
5.0
100
AcDbLine
 10
358.2106334281555
 20
495.8356481270898
 30
0.0
 11
355.1408334281555
 21
495.8356481270898
 31
0.0
  0
ARC
  5
2973
330
1A
100
AcDbEntity
  8
SEIHIN
  6
Continuous
 62
     3
 48
5.0
100
AcDbCircle
 10
355.2104334281555
 20
517.90564812709
 30
0.0
 40
3.0
100
AcDbArc
 50
0.0
 51
90.0
  0
ARC
  5
2974
330
1A
100
AcDbEntity
  8
SEIHIN
  6
Continuous
 62
     3
 48
5.0
100
AcDbCircle
 10
341.5604334281555
 20
505.5891481270899
 30
0.0
 40
8.0
100
AcDbArc
 50
0.0
 51
90.0
  0
LINE
  5
2975
330
1A
100
AcDbEntity
  8
SEIHIN
  6
Continuous
 62
     3
 48
5.0
100
AcDbLine
 10
349.5116334281555
 20
505.04254812709
 30
0.0
 11
349.5116334281555
 21
516.1443481270899
 31
0.0
  0
ARC
  5
2976
330
1A
100
AcDbEntity
  8
SEIHIN
  6
Continuous
 62
     3
 48
5.0
100
AcDbCircle
 10
350.5604334281555
 20
509.8356481270898
 30
0.0
 40
1.0
100
AcDbArc
 50
90.0
 51
180.0
  0
ARC
  5
2977
330
1A
100
AcDbEntity
  8
SEIHIN
  6
Continuous
 62
     3
 48
5.0
100
AcDbCircle
 10
348.5604334281555
 20
505.1308481270899
 30
0.0
 40
1.000028
100
AcDbArc
 50
276.7128489999997
 51
0.0
  0
ARC
  5
2978
330
1A
100
AcDbEntity
  8
SEIHIN
  6
Continuous
 62
     3
 48
5.0
100
AcDbCircle
 10
352.8604334281555
 20
509.8356481270898
 30
0.0
 40
1.0
100
AcDbArc
 50
106.2602050000002
 51
180.0
  0
ARC
  5
2979
330
1A
100
AcDbEntity
  8
SEIHIN
  6
Continuous
 62
     3
 48
5.0
100
AcDbCircle
 10
352.3004334281555
 20
509.8356481270898
 30
0.0
 40
1.0
100
AcDbArc
 50
0.0
 51
90.0
  0
LINE
  5
297A
330
1A
100
AcDbEntity
  8
SEIHIN
  6
Continuous
 62
     3
 48
5.0
100
AcDbLine
 10
352.3004334281555
 20
510.8356481270898
 30
0.0
 11
350.5604334281555
 21
510.8356481270898
 31
0.0
  0
ARC
  5
297B
330
1A
100
AcDbEntity
  8
SEIHIN
  6
Continuous
 62
     3
 48
5.0
100
AcDbCircle
 10
350.8604334281555
 20
505.1253481270899
 30
0.0
 40
0.9999670000000001
100
AcDbArc
 50
276.7021380000006
 51
0.0
  0
LINE
  5
297C
330
1A
100
AcDbEntity
  8
SEIHIN
  6
Continuous
 62
     3
 48
5.0
100
AcDbLine
 10
353.3004334281555
 20
503.33574812709
 30
0.0
 11
352.8805334281555
 21
503.33574812709
 31
0.0
  0
LINE
  5
297D
330
1A
100
AcDbEntity
  8
SEIHIN
  6
Continuous
 62
     3
 48
5.0
100
AcDbLine
 10
349.5604334281555
 20
505.1308481270899
 30
0.0
 11
349.5604334281555
 21
505.5891481270899
 31
0.0
  0
LINE
  5
297E
330
1A
100
AcDbEntity
  8
SEIHIN
  6
Continuous
 62
     3
 48
5.0
100
AcDbLine
 10
353.3004334281555
 20
509.8356481270898
 30
0.0
 11
353.3004334281555
 21
503.33574812709
 31
0.0
  0
LINE
  5
297F
330
1A
100
AcDbEntity
  8
SEIHIN
  6
Continuous
 62
     3
 48
5.0
100
AcDbLine
 10
351.8604334281555
 20
509.8356481270898
 30
0.0
 11
351.8604334281555
 21
505.1253481270899
 31
0.0
  0
ARC
  5
2980
330
1A
100
AcDbEntity
  8
SEIHIN
  6
Continuous
 62
     3
 48
5.0
100
AcDbCircle
 10
346.5604334281555
 20
515.60564812709
 30
0.0
 40
3.0
100
AcDbArc
 50
0.0
 51
90.0
  0
ARC
  5
2981
330
1A
100
AcDbEntity
  8
SEIHIN
  6
Continuous
 62
     3
 48
5.0
100
AcDbCircle
 10
352.1408334281555
 20
517.90564812709
 30
0.0
 40
3.0
100
AcDbArc
 50
0.0
 51
90.0
  0
LEADER
  5
2982
330
1A
100
AcDbEntity
  8
SUNPOU
 62
     4
100
AcDbLeader
  3
STANDARD
 74
     0
 40
6.0
 41
30.2
 76
     3
 10
521.503896041749
 20
263.4669126395053
 30
0.0
 10
537.228848438132
 20
291.2039437444396
 30
0.0
 10
538.9291283029452
 20
291.2039437444396
 30
0.0
1001
ACAD
1000
DSTYLE
1002
{
1070
     6
1000
OPEN
1070
    41
1040
7.0
1070
    42
1040
6.0
1070
    43
1040
14.0
1070
    44
1040
3.0
1070
    73
1070
     0
1070
    74
1070
     0
1070
    77
1070
     3
1070
   140
1040
6.0
1070
   141
1040
150.0
1070
   147
1040
2.0
1070
   172
1070
     1
1070
   173
1070
     1
1070
   176
1070
     4
1070
   177
1070
     4
1070
   178
1070
     4
1070
   271
1070
     0
1070
   272
1070
     2
1070
   341
1005
6D
1070
   343
1005
6D
1070
   344
1005
6D
1002
}
  0
DIMENSION
  5
2983
330
1A
100
AcDbEntity
  8
SUNPOU
 48
5.0
100
AcDbDimension
  2
*D11
 10
646.7491334281555
 20
308.4990705948558
 30
0.0
 11
564.2491334281555
 21
313.4990705948558
 31
0.0
 70
    32
 71
     5
 42
164.9999999999999
  3
STANDARD
100
AcDbAlignedDimension
 13
481.7491334281555
 23
269.9478934930352
 33
0.0
 14
646.7491334281555
 24
247.5478934930352
 34
0.0
100
AcDbRotatedDimension
1001
ACAD
1000
DSTYLE
1002
{
1070
   140
1040
6.0
1070
    74
1070
     0
1070
   172
1070
     1
1070
    73
1070
     0
1070
   272
1070
     2
1070
    77
1070
     3
1070
   173
1070
     1
1070
   147
1040
2.0
1070
    42
1040
6.0
1070
    44
1040
3.0
1070
    43
1040
14.0
1070
   271
1070
     0
1070
   178
1070
     4
1070
   177
1070
     4
1070
   176
1070
     4
1070
   141
1040
150.0
1070
     7
1000
_OPEN
1070
     6
1000
_OPEN
1070
    41
1040
7.0
1002
}
  0
DIMENSION
  5
2984
330
1A
100
AcDbEntity
  8
SUNPOU
 48
5.0
100
AcDbDimension
  2
*D12
 10
646.7491334281555
 20
291.1851381177014
 30
0.0
 11
615.6404552869698
 21
291.1851381177014
 31
0.0
 70
   160
 71
     5
 42
63.59999999999991
  3
STANDARD
100
AcDbAlignedDimension
 13
583.1491334281556
 23
192.8331934930352
 33
0.0
 14
646.7491334281555
 24
247.5478934930352
 34
0.0
100
AcDbRotatedDimension
1001
ACAD
1000
DSTYLE
1002
{
1070
   140
1040
6.0
1070
    74
1070
     0
1070
   172
1070
     1
1070
    73
1070
     0
1070
   272
1070
     2
1070
    77
1070
     3
1070
   173
1070
     1
1070
   147
1040
2.0
1070
    42
1040
6.0
1070
    44
1040
3.0
1070
    43
1040
14.0
1070
   271
1070
     0
1070
   178
1070
     4
1070
   177
1070
     4
1070
   176
1070
     4
1070
   141
1040
150.0
1070
     7
1000
_OPEN
1070
     6
1000
_OPEN
1070
    41
1040
7.0
1002
}
  0
DIMENSION
  5
2985
330
1A
100
AcDbEntity
  8
SUNPOU
 48
5.0
100
AcDbDimension
  2
*D13
 10
686.307260186717
 20
177.0478934930352
 30
0.0
 11
681.307260186717
 21
212.2978934930353
 31
0.0
 70
    32
 71
     5
 42
70.49999999999997
  3
STANDARD
100
AcDbAlignedDimension
 13
646.7491334281555
 23
247.5478934930352
 33
0.0
 14
626.2878334281555
 24
177.0478934930352
 34
0.0
 50
90.0
100
AcDbRotatedDimension
1001
ACAD
1000
DSTYLE
1002
{
1070
   140
1040
6.0
1070
    74
1070
     0
1070
   172
1070
     1
1070
    73
1070
     0
1070
   272
1070
     2
1070
    77
1070
     3
1070
   173
1070
     1
1070
   147
1040
2.0
1070
    42
1040
6.0
1070
    44
1040
3.0
1070
    43
1040
14.0
1070
   271
1070
     0
1070
   178
1070
     4
1070
   177
1070
     4
1070
   176
1070
     4
1070
   141
1040
150.0
1070
     7
1000
_OPEN
1070
     6
1000
_OPEN
1070
    41
1040
7.0
1002
}
  0
DIMENSION
  5
2986
330
1A
100
AcDbEntity
  8
SUNPOU
100
AcDbDimension
  2
*D14
 10
639.3417082940017
 20
38.99423762786933
 30
0.0
 11
581.9953842570494
 21
43.99423762786933
 31
0.0
 70
    32
 71
     5
 42
114.6926480739046
  3
STANDARD
100
AcDbAlignedDimension
 13
524.6490602200971
 23
154.0478934930352
 33
0.0
 14
639.3417082940017
 24
154.0478934930352
 34
0.0
100
AcDbRotatedDimension
1001
ACAD
1000
DSTYLE
1002
{
1070
   140
1040
6.0
1070
    74
1070
     0
1070
   172
1070
     1
1070
    73
1070
     0
1070
   272
1070
     2
1070
    77
1070
     3
1070
   173
1070
     1
1070
   147
1040
2.0
1070
    42
1040
6.0
1070
    44
1040
3.0
1070
    43
1040
14.0
1070
   271
1070
     0
1070
   178
1070
     4
1070
   177
1070
     4
1070
   176
1070
     4
1070
   141
1040
150.0
1070
     7
1000
_OPEN
1070
     6
1000
_OPEN
1070
    41
1040
7.0
1002
}
  0
DIMENSION
  5
2987
330
1A
100
AcDbEntity
  8
SUNPOU
100
AcDbDimension
  2
*D15
 10
665.6461754534944
 20
104.5476891435772
 30
0.0
 11
660.6461754534944
 21
132.4476891435773
 31
0.0
 70
    32
  1
※b <>
 71
     5
 42
9.999995650542005
  3
STANDARD
100
AcDbAlignedDimension
 13
626.1489334281555
 23
94.54769349303521
 33
0.0
 14
627.6495022274086
 24
104.5476891435772
 34
0.0
 50
90.0
100
AcDbRotatedDimension
1001
ACAD
1000
DSTYLE
1002
{
1070
   140
1040
6.0
1070
    74
1070
     0
1070
   172
1070
     1
1070
    73
1070
     0
1070
   272
1070
     2
1070
    77
1070
     3
1070
   173
1070
     1
1070
   147
1040
2.0
1070
    42
1040
6.0
1070
    44
1040
3.0
1070
    43
1040
14.0
1070
   271
1070
     0
1070
   178
1070
     4
1070
   177
1070
     4
1070
   176
1070
     4
1070
   141
1040
150.0
1070
     7
1000
_OPEN
1070
     6
1000
_OPEN
1070
    41
1040
7.0
1002
}
  0
DIMENSION
  5
2988
330
1A
100
AcDbEntity
  8
SUNPOU
 48
5.0
100
AcDbDimension
  2
*D16
 10
423.1649843830196
 20
94.54769349303525
 30
0.0
 11
418.1649843830196
 21
116.2977934930353
 31
0.0
 70
    32
 71
     5
 42
43.50019999999999
  3
STANDARD
100
AcDbAlignedDimension
 13
543.8851334281555
 23
138.0478934930352
 33
0.0
 14
557.1492334281555
 24
94.54769349303521
 34
0.0
 50
90.0
100
AcDbRotatedDimension
1001
ACAD
1000
DSTYLE
1002
{
1070
   140
1040
6.0
1070
    74
1070
     0
1070
   172
1070
     1
1070
    73
1070
     0
1070
   272
1070
     2
1070
    77
1070
     3
1070
   173
1070
     1
1070
   147
1040
2.0
1070
    42
1040
6.0
1070
    44
1040
3.0
1070
    43
1040
14.0
1070
   271
1070
     0
1070
   178
1070
     4
1070
   177
1070
     4
1070
   176
1070
     4
1070
   141
1040
150.0
1070
     7
1000
_OPEN
1070
     6
1000
_OPEN
1070
    41
1040
7.0
1002
}
  0
LINE
  5
2989
330
1A
100
AcDbEntity
  8
SEIHIN
  6
Continuous
 62
     3
 48
5.0
100
AcDbLine
 10
627.6506334281555
 20
116.4801934930352
 30
0.0
 11
627.6489334281555
 21
98.54769349303521
 31
0.0
  0
LINE
  5
298A
330
1A
100
AcDbEntity
  8
SEIHIN
  6
Continuous
 62
     3
 48
5.0
100
AcDbLine
 10
555.6475334281555
 20
116.4801934930352
 30
0.0
 11
555.6492334281555
 21
98.54769349303521
 31
0.0
  0
LINE
  5
298B
330
1A
100
AcDbEntity
  8
CENTER L
  6
CENTER
 62
     1
 48
5.0
100
AcDbLine
 10
591.6491334281556
 20
78.10723349303521
 30
0.0
 11
591.6491334281556
 21
143.003257916486
 31
0.0
  0
DIMENSION
  5
298C
330
1A
100
AcDbEntity
  8
SUNPOU
 48
5.0
100
AcDbDimension
  2
*D17
 10
627.6477709250696
 20
56.598429556165
 30
0.0
 11
591.6485006787252
 21
61.598429556165
 31
0.0
 70
    32
  1
φ<>
 71
     5
 42
71.99854049268868
  3
STANDARD
100
AcDbAlignedDimension
 13
555.6492304323809
 23
98.57929450934171
 33
0.0
 14
627.6477709250696
 24
98.54459348480638
 34
0.0
100
AcDbRotatedDimension
1001
ACAD
1000
DSTYLE
1002
{
1070
   140
1040
6.0
1070
    74
1070
     0
1070
   172
1070
     1
1070
    73
1070
     0
1070
   272
1070
     2
1070
    77
1070
     3
1070
   173
1070
     1
1070
   147
1040
2.0
1070
    42
1040
6.0
1070
    44
1040
3.0
1070
    43
1040
14.0
1070
   271
1070
     0
1070
   178
1070
     4
1070
   177
1070
     4
1070
   176
1070
     4
1070
   141
1040
150.0
1070
     7
1000
_OPEN
1070
     6
1000
_OPEN
1070
    41
1040
7.0
1002
}
  0
LINE
  5
298D
330
1A
100
AcDbEntity
  8
SEIHIN
  6
Continuous
 62
     3
 48
5.0
100
AcDbLine
 10
626.1489334281555
 20
94.54769349303521
 30
0.0
 11
591.6491334281556
 21
94.54779349303522
 31
0.0
  0
LINE
  5
298E
330
1A
100
AcDbEntity
  8
SEIHIN
  6
Continuous
 62
     3
 48
5.0
100
AcDbLine
 10
591.6491334281556
 20
88.04789349303522
 30
0.0
 11
620.8991334281556
 21
88.04789349303522
 31
0.0
  0
LINE
  5
298F
330
1A
100
AcDbEntity
  8
SEIHIN
  6
Continuous
 62
     3
 48
5.0
100
AcDbLine
 10
591.6491334281556
 20
98.54449349303522
 30
0.0
 11
627.6507334281555
 21
98.54459349303519
 31
0.0
  0
LINE
  5
2990
330
1A
100
AcDbEntity
  8
SEIHIN
  6
Continuous
 62
     3
 48
5.0
100
AcDbLine
 10
591.6491334281556
 20
88.04789349303522
 30
0.0
 11
562.3990334281555
 21
88.04789349303522
 31
0.0
  0
LINE
  5
2991
330
1A
100
AcDbEntity
  8
SEIHIN
  6
Continuous
 62
     3
 48
5.0
100
AcDbLine
 10
591.6491334281556
 20
98.54449349303522
 30
0.0
 11
555.6475334281555
 21
98.54459349303519
 31
0.0
  0
LINE
  5
2992
330
1A
100
AcDbEntity
  8
SEIHIN
  6
Continuous
 62
     3
 48
5.0
100
AcDbLine
 10
557.1492334281555
 20
94.54769349303521
 30
0.0
 11
591.6490334281555
 21
94.54779349303522
 31
0.0
  0
LINE
  5
2993
330
1A
100
AcDbEntity
  8
SEIHIN
  6
Continuous
 62
     3
 48
5.0
100
AcDbLine
 10
562.2592334281555
 20
94.54789349303522
 30
0.0
 11
562.3990334281555
 21
88.04799349303522
 31
0.0
  0
LINE
  5
2994
330
1A
100
AcDbEntity
  8
SEIHIN
  6
Continuous
 62
     3
 48
5.0
100
AcDbLine
 10
555.6492334281555
 20
98.54769349303521
 30
0.0
 11
557.1492334281555
 21
94.54769349303521
 31
0.0
  0
LINE
  5
2995
330
1A
100
AcDbEntity
  8
SEIHIN
  6
Continuous
 62
     3
 48
5.0
100
AcDbLine
 10
621.0389334281555
 20
94.54789349303522
 30
0.0
 11
620.8991334281556
 21
88.04799349303522
 31
0.0
  0
LINE
  5
2996
330
1A
100
AcDbEntity
  8
SEIHIN
  6
Continuous
 62
     3
 48
5.0
100
AcDbLine
 10
627.6489334281555
 20
98.54769349303521
 30
0.0
 11
626.1489334281555
 21
94.54769349303521
 31
0.0
  0
ARC
  5
2997
330
1A
100
AcDbEntity
  8
NOKITOI
  6
PHANTOM
 62
     8
 48
5.0
100
AcDbCircle
 10
540.1336781789407
 20
179.0478980455248
 30
0.0
 40
2.000004552496454
100
AcDbArc
 50
188.131873294726
 51
270.0001503785779
  0
LINE
  5
2998
330
1A
100
AcDbEntity
  8
NOKITOI
  6
PHANTOM
 62
     8
 48
5.0
100
AcDbLine
 10
539.1586834281554
 20
180.9235934930352
 30
0.0
 11
535.4265834281555
 21
207.0479934930353
 31
0.0
  0
LINE
  5
2999
330
1A
100
AcDbEntity
  8
NOKITOI
  6
PHANTOM
 62
     8
 48
5.0
100
AcDbLine
 10
536.3990834281553
 20
191.0478934930353
 30
0.0
 11
538.1537834281554
 21
178.7649934930352
 31
0.0
  0
DIMENSION
  5
299A
330
1A
100
AcDbEntity
  8
SUNPOU
 48
5.0
100
AcDbDimension
  2
*D18
 10
423.1649843830196
 20
138.0479014930353
 30
0.0
 11
418.1649843830195
 21
146.0478719930353
 31
0.0
 70
    32
 71
     5
 42
15.99994099999998
  3
STANDARD
100
AcDbAlignedDimension
 13
526.4052334281555
 23
154.0478424930352
 33
0.0
 14
543.8851334281555
 24
138.0479014930352
 34
0.0
 50
90.0
100
AcDbRotatedDimension
1001
ACAD
1000
DSTYLE
1002
{
1070
   140
1040
6.0
1070
    74
1070
     0
1070
   172
1070
     1
1070
    73
1070
     0
1070
   272
1070
     2
1070
    77
1070
     3
1070
   173
1070
     1
1070
   147
1040
2.0
1070
    42
1040
6.0
1070
    44
1040
3.0
1070
    43
1040
14.0
1070
   271
1070
     0
1070
   178
1070
     4
1070
   177
1070
     4
1070
   176
1070
     4
1070
   141
1040
150.0
1070
     7
1000
_OPEN
1070
     6
1000
_OPEN
1070
    41
1040
7.0
1002
}
  0
DIMENSION
  5
299B
330
1A
100
AcDbEntity
  8
SUNPOU
 48
5.0
100
AcDbDimension
  2
*D19
 10
442.8250383433233
 20
177.0478934930353
 30
0.0
 11
437.8250383433232
 21
223.4978934930353
 31
0.0
 70
    32
 71
     5
 42
92.89999999999995
  3
STANDARD
100
AcDbAlignedDimension
 13
481.7491334281555
 23
269.9478934930352
 33
0.0
 14
539.8337334281555
 24
177.0478934930352
 34
0.0
 50
90.0
100
AcDbRotatedDimension
1001
ACAD
1000
DSTYLE
1002
{
1070
   140
1040
6.0
1070
    74
1070
     0
1070
   172
1070
     1
1070
    73
1070
     0
1070
   272
1070
     2
1070
    77
1070
     3
1070
   173
1070
     1
1070
   147
1040
2.0
1070
    42
1040
6.0
1070
    44
1040
3.0
1070
    43
1040
14.0
1070
   271
1070
     0
1070
   178
1070
     4
1070
   177
1070
     4
1070
   176
1070
     4
1070
   141
1040
150.0
1070
     7
1000
_OPEN
1070
     6
1000
_OPEN
1070
    41
1040
7.0
1002
}
  0
ARC
  5
299C
330
1A
100
AcDbEntity
  8
SEIHIN
  6
Continuous
 62
     3
 48
5.0
100
AcDbCircle
 10
539.8337334281555
 20
179.0478934930352
 30
0.0
 40
2.000005
100
AcDbArc
 50
188.1317229999999
 51
270.0
  0
LINE
  5
299D
330
1A
100
AcDbEntity
  8
SEIHIN
  6
Continuous
 62
     3
 48
5.0
100
AcDbLine
 10
534.6491334281554
 20
154.0478934930352
 30
0.0
 11
542.0963334281555
 21
139.1533934930352
 31
0.0
  0
LINE
  5
299E
330
1A
100
AcDbEntity
  8
SEIHIN
  6
Continuous
 62
     3
 48
5.0
100
AcDbLine
 10
639.3417334281555
 20
154.0478934930352
 30
0.0
 11
526.4052334281555
 21
154.0478934930352
 31
0.0
  0
ARC
  5
299F
330
1A
100
AcDbEntity
  8
NOKITOI
  6
PHANTOM
 62
     8
 48
5.0
100
AcDbCircle
 10
543.8531077783237
 20
206.8811021816178
 30
0.0
 40
16.19999005602697
100
AcDbArc
 50
187.9696639128037
 51
241.7088364731412
  0
ARC
  5
29A0
330
1A
100
AcDbEntity
  8
NOKITOI
  6
PHANTOM
 62
     8
 48
5.0
100
AcDbCircle
 10
543.8531386979016
 20
206.8810542098921
 30
0.0
 40
17.49996433219532
100
AcDbArc
 50
187.9693736291693
 51
244.7893872175536
  0
LINE
  5
29A1
330
1A
100
AcDbEntity
  8
NOKITOI
  6
PHANTOM
 62
     8
 48
5.0
100
AcDbLine
 10
534.2361834281554
 20
206.1886934930353
 30
0.0
 11
536.1750834281554
 21
192.6160934930353
 31
0.0
  0
DIMENSION
  5
29A2
330
1A
100
AcDbEntity
  8
SUNPOU
 48
5.0
100
AcDbDimension
  2
*D20
 10
423.1649843830196
 20
154.0478934930353
 30
0.0
 11
418.1649843830195
 21
211.9978934930353
 31
0.0
 70
    32
 71
     5
 42
115.9
  3
STANDARD
100
AcDbAlignedDimension
 13
481.7491334281555
 23
269.9478934930352
 33
0.0
 14
526.4052334281555
 24
154.0478934930352
 34
0.0
 50
90.0
100
AcDbRotatedDimension
1001
ACAD
1000
DSTYLE
1002
{
1070
   140
1040
6.0
1070
    74
1070
     0
1070
   172
1070
     1
1070
    73
1070
     0
1070
   272
1070
     2
1070
    77
1070
     3
1070
   173
1070
     1
1070
   147
1040
2.0
1070
    42
1040
6.0
1070
    44
1040
3.0
1070
    43
1040
14.0
1070
   271
1070
     0
1070
   178
1070
     4
1070
   177
1070
     4
1070
   176
1070
     4
1070
   141
1040
150.0
1070
     7
1000
_OPEN
1070
     6
1000
_OPEN
1070
    41
1040
7.0
1002
}
  0
ARC
  5
29A3
330
1A
100
AcDbEntity
  8
SEIHIN
  6
Continuous
 62
     3
 48
5.0
100
AcDbCircle
 10
543.5454334281556
 20
206.8845934930353
 30
0.0
 40
17.49998
100
AcDbArc
 50
187.9999009999999
 51
244.8174350000002
  0
LINE
  5
29A4
330
1A
100
AcDbEntity
  8
SEIHIN
  6
Continuous
 62
     3
 48
5.0
100
AcDbLine
 10
501.2151334281555
 20
226.5834934930352
 30
0.0
 11
504.6944334281554
 21
194.8669934930352
 31
0.0
  0
ARC
  5
29A5
330
1A
100
AcDbEntity
  8
SEIHIN
  6
Continuous
 62
     3
 48
5.0
100
AcDbCircle
 10
524.5751334281556
 20
197.0478934930352
 30
0.0
 40
20.000032
100
AcDbArc
 50
186.260247
 51
269.9997139999992
  0
LINE
  5
29A6
330
1A
100
AcDbEntity
  8
SEIHIN
  6
Continuous
 62
     3
 48
5.0
100
AcDbLine
 10
521.6204334281556
 20
177.2672934930352
 30
0.0
 11
524.4219334281555
 21
155.7891934930352
 31
0.0
  0
ARC
  5
29A7
330
1A
100
AcDbEntity
  8
SEIHIN
  6
Continuous
 62
     3
 48
5.0
100
AcDbCircle
 10
526.4052334281555
 20
156.0478934930352
 30
0.0
 40
2.000051
100
AcDbArc
 50
187.4316549999999
 51
270.0
  0
LINE
  5
29A8
330
1A
100
AcDbEntity
  8
SEIHIN
  6
Continuous
 62
     3
 48
5.0
100
AcDbLine
 10
536.0991334281555
 20
191.0478934930352
 30
0.0
 11
537.8538334281554
 21
178.7649934930352
 31
0.0
  0
LINE
  5
29A9
330
1A
100
AcDbEntity
  8
SEIHIN
  6
Continuous
 62
     3
 48
5.0
100
AcDbLine
 10
534.7488334281555
 20
177.0478934930352
 30
0.0
 11
524.5751334281556
 21
177.0478934930352
 31
0.0
  0
LINE
  5
29AA
330
1A
100
AcDbEntity
  8
NOKITOI
  6
PHANTOM
 62
     8
 48
5.0
100
AcDbLine
 10
512.8990834281553
 20
250.7479934930353
 30
0.0
 11
512.8990834281553
 21
244.3479934930353
 31
0.0
  0
LINE
  5
29AB
330
1A
100
AcDbEntity
  8
NOKITOI
  6
PHANTOM
 62
     8
 48
5.0
100
AcDbLine
 10
511.5990834281554
 20
255.7479934930353
 30
0.0
 11
511.5990834281554
 21
242.3479934930353
 31
0.0
  0
LINE
  5
29AC
330
1A
100
AcDbEntity
  8
NOKITOI
  6
PHANTOM
 62
     8
 48
5.0
100
AcDbLine
 10
507.6526834281553
 20
253.4998934930353
 30
0.0
 11
509.0466834281554
 21
242.3479934930353
 31
0.0
  0
LINE
  5
29AD
330
1A
100
AcDbEntity
  8
NOKITOI
  6
PHANTOM
 62
     8
 48
5.0
100
AcDbLine
 10
506.3205834281555
 20
253.6758934930354
 30
0.0
 11
507.8990834281553
 21
241.0479934930353
 31
0.0
  0
LINE
  5
29AE
330
1A
100
AcDbEntity
  8
SEIHIN
  6
Continuous
 62
     3
 48
5.0
100
AcDbLine
 10
505.3785334281555
 20
254.2091934930352
 30
0.0
 11
506.7975334281555
 21
241.7219934930352
 31
0.0
  0
LINE
  5
29AF
330
1A
100
AcDbEntity
  8
SEIHIN
  6
Continuous
 62
     3
 48
5.0
100
AcDbLine
 10
481.7491334281555
 20
269.9478934930352
 30
0.0
 11
484.5799334281555
 21
241.6393934930352
 31
0.0
  0
LINE
  5
29B0
330
1A
100
AcDbEntity
  8
SEIHIN
  6
Continuous
 62
     3
 48
5.0
100
AcDbLine
 10
485.9177334281555
 20
239.9478934930352
 30
0.0
 11
512.5338334281555
 21
239.9478934930352
 31
0.0
  0
ARC
  5
29B1
330
1A
100
AcDbEntity
  8
SEIHIN
  6
Continuous
 62
     3
 48
5.0
100
AcDbCircle
 10
486.3045334281555
 20
224.9478934930353
 30
0.0
 40
15.00002
100
AcDbArc
 50
6.259962000000061
 51
90.0
  0
LINE
  5
29B2
330
1A
100
AcDbEntity
  8
SEIHIN
  6
Continuous
 62
     3
 48
5.0
100
AcDbLine
 10
485.9177334281555
 20
239.9478934930352
 30
0.0
 11
486.3045334281555
 21
239.9478934930352
 31
0.0
  0
ARC
  5
29B3
330
1A
100
AcDbEntity
  8
SEIHIN
  6
Continuous
 62
     3
 48
5.0
100
AcDbCircle
 10
486.5700334281555
 20
241.8384934930352
 30
0.0
 40
1.999995
100
AcDbArc
 50
185.7103080000001
 51
250.9644010000003
  0
LINE
  5
29B4
330
1A
100
AcDbEntity
  8
NOKITOI
  6
PHANTOM
 62
     8
 48
5.0
100
AcDbLine
 10
522.6049834281555
 20
232.4343934930353
 30
0.0
 11
526.5221834281554
 21
204.4546934930353
 31
0.0
  0
LINE
  5
29B5
330
1A
100
AcDbEntity
  8
NOKITOI
  6
PHANTOM
 62
     8
 48
5.0
100
AcDbLine
 10
522.5297834281555
 20
242.3479934930353
 30
0.0
 11
525.5979834281554
 21
220.4318934930353
 31
0.0
  0
LINE
  5
29B6
330
1A
100
AcDbEntity
  8
SEIHIN
  6
Continuous
 62
     3
 48
5.0
100
AcDbLine
 10
526.2157334281555
 20
204.4490934930352
 30
0.0
 11
522.4365334281555
 21
231.3395934930352
 31
0.0
  0
ARC
  5
29B7
330
1A
100
AcDbEntity
  8
NOKITOI
  6
PHANTOM
 62
     8
 48
5.0
100
AcDbCircle
 10
542.9289466617121
 20
222.858243559334
 30
0.0
 40
17.49998460705382
100
AcDbArc
 50
187.9696597232936
 51
244.6144785993157
  0
ARC
  5
29B8
330
1A
100
AcDbEntity
  8
NOKITOI
  6
PHANTOM
 62
     8
 48
5.0
100
AcDbCircle
 10
542.9289185967391
 20
222.8582562524687
 30
0.0
 40
18.7999459388005
100
AcDbArc
 50
209.402094483778
 51
242.4591529343756
  0
LINE
  5
29B9
330
1A
100
AcDbEntity
  8
NOKITOI
  6
PHANTOM
 62
     8
 48
5.0
100
AcDbLine
 10
526.5504834281554
 20
213.6286934930352
 30
0.0
 11
527.8095834281553
 21
204.6349934930352
 31
0.0
  0
ARC
  5
29BA
330
1A
100
AcDbEntity
  8
NOKITOI
  6
PHANTOM
 62
     8
 48
5.0
100
AcDbCircle
 10
512.6945773096763
 20
231.0987988661175
 30
0.0
 40
11.30001845330598
100
AcDbArc
 50
35.7247799592235
 51
61.6976929906939
  0
LINE
  5
29BB
330
1A
100
AcDbEntity
  8
NOKITOI
  6
PHANTOM
 62
     8
 48
5.0
100
AcDbLine
 10
521.3990834281553
 20
241.0479934930353
 30
0.0
 11
521.8753834281554
 21
237.6456934930352
 31
0.0
  0
LINE
  5
29BC
330
1A
100
AcDbEntity
  8
NOKITOI
  6
PHANTOM
 62
     8
 48
5.0
100
AcDbLine
 10
522.5297834281555
 20
242.3479934930353
 30
0.0
 11
514.8990834281553
 21
242.3479934930353
 31
0.0
  0
ARC
  5
29BD
330
1A
100
AcDbEntity
  8
NOKITOI
  6
PHANTOM
 62
     8
 48
5.0
100
AcDbCircle
 10
512.7015672316929
 20
231.0480075800551
 30
0.0
 40
9.999985912993367
100
AcDbArc
 50
7.969086351823962
 51
89.9999072009758
  0
ARC
  5
29BE
330
1A
100
AcDbEntity
  8
SEIHIN
  6
Continuous
 62
     3
 48
5.0
100
AcDbCircle
 10
512.5338334281555
 20
229.9478934930353
 30
0.0
 40
10.000007
100
AcDbArc
 50
7.999809000000082
 51
90.0
  0
ARC
  5
29BF
330
1A
100
AcDbEntity
  8
NOKITOI
  6
PHANTOM
 62
     8
 48
5.0
100
AcDbCircle
 10
514.8990834281553
 20
244.3479934930353
 30
0.0
 40
2.0
100
AcDbArc
 50
180.0
 51
270.0
  0
LINE
  5
29C0
330
1A
100
AcDbEntity
  8
NOKITOI
  6
PHANTOM
 62
     8
 48
5.0
100
AcDbLine
 10
511.5990834281554
 20
242.3479934930353
 30
0.0
 11
509.0466834281554
 21
242.3479934930353
 31
0.0
  0
LINE
  5
29C1
330
1A
100
AcDbEntity
  8
NOKITOI
  6
PHANTOM
 62
     8
 48
5.0
100
AcDbLine
 10
507.8990834281553
 20
241.0479934930353
 30
0.0
 11
512.7015834281554
 21
241.0479934930353
 31
0.0
  0
ARC
  5
29C2
330
1A
100
AcDbEntity
  8
SEIHIN
  6
Continuous
 62
     3
 48
5.0
100
AcDbCircle
 10
508.7847334281555
 20
241.9478934930352
 30
0.0
 40
1.999999
100
AcDbArc
 50
186.4854029999999
 51
270.0
  0
LINE
  5
29C3
330
1A
100
AcDbEntity
  8
NOKITOI
  6
PHANTOM
 62
     8
 48
5.0
100
AcDbLine
 10
517.9636834281555
 20
241.0479934930353
 30
0.0
 11
521.3990834281553
 21
241.0479934930353
 31
0.0
  0
LINE
  5
29C4
330
1A
100
AcDbEntity
  8
SEIHIN
  6
Continuous
 62
     3
 48
5.0
100
AcDbLine
 10
526.3902334281555
 20
269.9478934930352
 30
0.0
 11
481.7491334281555
 21
269.9478934930352
 31
0.0
  0
ARC
  5
29C5
330
1A
100
AcDbEntity
  8
SEIHIN
  6
Continuous
 62
     3
 48
5.0
100
AcDbCircle
 10
508.3593334281555
 20
254.5478934930352
 30
0.0
 40
2.999991
100
AcDbArc
 50
90.0
 51
186.4825560000001
  0
ARC
  5
29C6
330
1A
100
AcDbEntity
  8
SEIHIN
  6
Continuous
 62
     3
 48
5.0
100
AcDbCircle
 10
526.3902334281555
 20
267.9478934930352
 30
0.0
 40
2.000019
100
AcDbArc
 50
348.5451179999997
 51
90.0
  0
LINE
  5
29C7
330
1A
100
AcDbEntity
  8
CENTER L
  6
CENTER
 62
     1
 48
5.0
100
AcDbLine
 10
520.6491334281554
 20
258.2718934930352
 30
0.0
 11
520.6491334281554
 21
268.4713934930352
 31
0.0
  0
LINE
  5
29C8
330
1A
100
AcDbEntity
  8
CENTER L
  6
CENTER
 62
     1
 48
5.0
100
AcDbLine
 10
526.2016334281555
 20
262.9478934930352
 30
0.0
 11
514.8593334281555
 21
262.9478934930352
 31
0.0
  0
ARC
  5
29C9
330
1A
100
AcDbEntity
  8
SEIHIN
  6
Continuous
 62
     3
 48
5.0
100
AcDbCircle
 10
513.7579334281555
 20
271.0232934930352
 30
0.0
 40
15.000005
100
AcDbArc
 50
266.7174510000007
 51
346.6142080000003
  0
LINE
  5
29CA
330
1A
100
AcDbEntity
  8
NOKITOI
  6
PHANTOM
 62
     8
 48
5.0
100
AcDbLine
 10
512.8990834281553
 20
257.0479934930353
 30
0.0
 11
512.8990834281553
 21
254.5479934930353
 31
0.0
  0
ARC
  5
29CB
330
1A
100
AcDbEntity
  8
NOKITOI
  6
PHANTOM
 62
     8
 48
5.0
100
AcDbCircle
 10
509.637262377624
 20
253.7479696470696
 30
0.0
 40
2.000023846076517
100
AcDbArc
 50
89.99939695388625
 51
187.1251239525234
  0
ARC
  5
29CC
330
1A
100
AcDbEntity
  8
NOKITOI
  6
PHANTOM
 62
     8
 48
5.0
100
AcDbCircle
 10
509.2974983877202
 20
254.0480104389643
 30
0.0
 40
2.999983054108306
100
AcDbArc
 50
90.00028570825525
 51
187.1253020571568
  0
ARC
  5
29CD
330
1A
100
AcDbEntity
  8
NOKITOI
  6
PHANTOM
 62
     8
 48
5.0
100
AcDbCircle
 10
514.8990834281553
 20
250.7479934930353
 30
0.0
 40
2.0
100
AcDbArc
 50
90.0
 51
180.0
  0
LINE
  5
29CE
330
1A
100
AcDbEntity
  8
NOKITOI
  6
PHANTOM
 62
     8
 48
5.0
100
AcDbLine
 10
517.8990834281553
 20
254.0479934930353
 30
0.0
 11
513.3990834281553
 21
254.0479934930353
 31
0.0
  0
ARC
  5
29CF
330
1A
100
AcDbEntity
  8
NOKITOI
  6
PHANTOM
 62
     8
 48
5.0
100
AcDbCircle
 10
513.3990834281553
 20
254.5479934930353
 30
0.0
 40
0.5
100
AcDbArc
 50
180.0
 51
270.0
  0
LINE
  5
29D0
330
1A
100
AcDbEntity
  8
NOKITOI
  6
PHANTOM
 62
     8
 48
5.0
100
AcDbLine
 10
509.6372834281553
 20
255.7479934930353
 30
0.0
 11
511.5990834281554
 21
255.7479934930353
 31
0.0
  0
LINE
  5
29D1
330
1A
100
AcDbEntity
  8
NOKITOI
  6
PHANTOM
 62
     8
 48
5.0
100
AcDbLine
 10
519.8990834281553
 20
252.0479934930353
 30
0.0
 11
519.8990834281553
 21
247.3479934930353
 31
0.0
  0
ARC
  5
29D2
330
1A
100
AcDbEntity
  8
NOKITOI
  6
PHANTOM
 62
     8
 48
5.0
100
AcDbCircle
 10
518.5990834281554
 20
248.6480934930353
 30
0.0
 40
1.300000000000011
100
AcDbArc
 50
90.0
 51
270.0
  0
LINE
  5
29D3
330
1A
100
AcDbEntity
  8
NOKITOI
  6
PHANTOM
 62
     8
 48
5.0
100
AcDbLine
 10
518.5990834281554
 20
249.9480934930353
 30
0.0
 11
518.5990834281554
 21
250.7479934930353
 31
0.0
  0
LINE
  5
29D4
330
1A
100
AcDbEntity
  8
NOKITOI
  6
PHANTOM
 62
     8
 48
5.0
100
AcDbLine
 10
518.5990834281554
 20
247.3479934930353
 30
0.0
 11
519.8990834281553
 21
247.3479934930353
 31
0.0
  0
ARC
  5
29D5
330
1A
100
AcDbEntity
  8
NOKITOI
  6
PHANTOM
 62
     8
 48
5.0
100
AcDbCircle
 10
517.8990834281553
 20
252.0479934930353
 30
0.0
 40
2.0
100
AcDbArc
 50
0.0
 51
90.0
  0
ARC
  5
29D6
330
1A
100
AcDbEntity
  8
NOKITOI
  6
PHANTOM
 62
     8
 48
5.0
100
AcDbCircle
 10
516.5990834281554
 20
250.7479934930353
 30
0.0
 40
2.0
100
AcDbArc
 50
0.0
 51
90.0
  0
LINE
  5
29D7
330
1A
100
AcDbEntity
  8
NOKITOI
  6
PHANTOM
 62
     8
 48
5.0
100
AcDbLine
 10
516.5990834281554
 20
252.7479934930353
 30
0.0
 11
514.8990834281553
 21
252.7479934930353
 31
0.0
  0
LINE
  5
29D8
330
1A
100
AcDbEntity
  8
NOKITOI
  6
PHANTOM
 62
     8
 48
5.0
100
AcDbLine
 10
509.2974834281554
 20
257.0479934930353
 30
0.0
 11
512.8990834281553
 21
257.0479934930353
 31
0.0
  0
LINE
  5
29D9
330
1A
100
AcDbEntity
  8
SEIHIN
  6
Continuous
 62
     3
 48
5.0
100
AcDbLine
 10
512.8991334281556
 20
256.0478934930352
 30
0.0
 11
512.8991334281556
 21
257.5478934930352
 31
0.0
  0
LINE
  5
29DA
330
1A
100
AcDbEntity
  8
SEIHIN
  6
Continuous
 62
     3
 48
5.0
100
AcDbLine
 10
508.3593334281555
 20
257.5478934930352
 30
0.0
 11
512.8991334281556
 21
257.5478934930352
 31
0.0
  0
CIRCLE
  5
29DB
330
1A
100
AcDbEntity
  8
SEIHIN
  6
Continuous
 62
     3
 48
5.0
100
AcDbCircle
 10
520.6491334281554
 20
262.9478934930352
 30
0.0
 40
1.0
  0
LINE
  5
29DC
330
1A
100
AcDbEntity
  8
NOKITOI
  6
PHANTOM
 62
     8
 48
5.0
100
AcDbLine
 10
629.8990834281553
 20
221.0479934930352
 30
0.0
 11
627.9858834281555
 21
178.9570934930353
 31
0.0
  0
LINE
  5
29DD
330
1A
100
AcDbEntity
  8
NOKITOI
  6
PHANTOM
 62
     8
 48
5.0
100
AcDbLine
 10
629.3033834281555
 20
236.5706934930353
 30
0.0
 11
626.7869834281553
 21
181.2116934930352
 31
0.0
  0
DIMENSION
  5
29DE
330
1A
100
AcDbEntity
  8
SUNPOU
 48
5.0
100
AcDbDimension
  2
*D21
 10
591.6491334281556
 20
220.5427482063658
 30
0.0
 11
587.3991334281556
 21
225.5427482063658
 31
0.0
 70
    32
 71
     5
 42
8.5
  3
STANDARD
100
AcDbAlignedDimension
 13
583.1491334281556
 23
192.8331934930352
 33
0.0
 14
591.6491334281556
 24
143.003257916486
 34
0.0
100
AcDbRotatedDimension
1001
ACAD
1000
DSTYLE
1002
{
1070
   140
1040
6.0
1070
    74
1070
     0
1070
   172
1070
     1
1070
    73
1070
     0
1070
   272
1070
     2
1070
    77
1070
     3
1070
   173
1070
     1
1070
   147
1040
2.0
1070
    42
1040
6.0
1070
    44
1040
3.0
1070
    43
1040
14.0
1070
   271
1070
     0
1070
   178
1070
     4
1070
   177
1070
     4
1070
   176
1070
     4
1070
   141
1040
150.0
1070
     7
1000
_OPEN
1070
     6
1000
_OPEN
1070
    41
1040
7.0
1002
}
  0
LINE
  5
29DF
330
1A
100
AcDbEntity
  8
SEIHIN
  6
Continuous
 62
     3
 48
5.0
100
AcDbLine
 10
628.2858334281555
 20
178.9570934930352
 30
0.0
 11
630.0140334281555
 21
217.0158934930352
 31
0.0
  0
LINE
  5
29E0
330
1A
100
AcDbEntity
  8
SEIHIN
  6
Continuous
 62
     3
 48
5.0
100
AcDbLine
 10
638.8204334281555
 20
139.9737934930352
 30
0.0
 11
641.5778334281555
 21
214.4218934930352
 31
0.0
  0
LINE
  5
29E1
330
1A
100
AcDbEntity
  8
NOKITOI
  6
PHANTOM
 62
     8
 48
5.0
100
AcDbLine
 10
542.1284834281553
 20
178.3478934930352
 30
0.0
 11
623.7900834281553
 21
178.3478934930352
 31
0.0
  0
LINE
  5
29E2
330
1A
100
AcDbEntity
  8
NOKITOI
  6
PHANTOM
 62
     8
 48
5.0
100
AcDbLine
 10
540.1336834281553
 20
177.0478934930352
 30
0.0
 11
625.9878834281554
 21
177.0478934930352
 31
0.0
  0
LINE
  5
29E3
330
1A
100
AcDbEntity
  8
SEIHIN
  6
Continuous
 62
     3
 48
5.0
100
AcDbLine
 10
591.6490334281555
 20
133.0480934930352
 30
0.0
 11
632.6488334281555
 21
133.0480934930352
 31
0.0
  0
LINE
  5
29E4
330
1A
100
AcDbEntity
  8
SEIHIN
  6
Continuous
 62
     3
 48
5.0
100
AcDbLine
 10
591.6491334281556
 20
138.0478934930352
 30
0.0
 11
636.8217334281555
 21
138.0478934930352
 31
0.0
  0
LINE
  5
29E5
330
1A
100
AcDbEntity
  8
SEIHIN
  6
Continuous
 62
     3
 48
5.0
100
AcDbLine
 10
539.8337334281555
 20
177.0478934930352
 30
0.0
 11
626.2878334281555
 21
177.0478934930352
 31
0.0
  0
LINE
  5
29E6
330
1A
100
AcDbEntity
  8
SEIHIN
  6
Continuous
 62
     3
 48
5.0
100
AcDbLine
 10
591.6491334281556
 20
133.0480934930352
 30
0.0
 11
550.6493334281555
 21
133.0480934930352
 31
0.0
  0
LINE
  5
29E7
330
1A
100
AcDbEntity
  8
SEIHIN
  6
Continuous
 62
     3
 48
5.0
100
AcDbLine
 10
591.6491334281556
 20
138.0478934930352
 30
0.0
 11
543.8851334281555
 21
138.0478934930352
 31
0.0
  0
ARC
  5
29E8
330
1A
100
AcDbEntity
  8
SEIHIN
  6
Continuous
 62
     3
 48
5.0
100
AcDbCircle
 10
525.6475334281555
 20
116.4674934930352
 30
0.0
 40
29.999999
100
AcDbArc
 50
0.0242549999998459
 51
33.55107400000004
  0
ARC
  5
29E9
330
1A
100
AcDbEntity
  8
SEIHIN
  6
Continuous
 62
     3
 48
5.0
100
AcDbCircle
 10
543.8851334281555
 20
140.0478934930352
 30
0.0
 40
1.999992
100
AcDbArc
 50
206.5676139999997
 51
270.0
  0
LINE
  5
29EA
330
1A
100
AcDbEntity
  8
SEIHIN
  6
Continuous
 62
     3
 48
5.0
100
AcDbLine
 10
550.6493334281555
 20
138.0477934930352
 30
0.0
 11
550.6493334281555
 21
133.0478934930352
 31
0.0
  0
ARC
  5
29EB
330
1A
100
AcDbEntity
  8
NOKITOI
  6
PHANTOM
 62
     8
 48
5.0
100
AcDbCircle
 10
542.1285081674694
 20
181.3478720370484
 30
0.0
 40
2.99997854411512
100
AcDbArc
 50
188.1304401609566
 51
269.9995275105259
  0
LINE
  5
29EC
330
1A
100
AcDbEntity
  8
CENTER L
  6
CENTER
 62
     1
 48
5.0
100
AcDbLine
 10
583.1491334281556
 20
163.1565934930352
 30
0.0
 11
583.1491334281556
 21
192.8331934930352
 31
0.0
  0
ARC
  5
29ED
330
1A
100
AcDbEntity
  8
SEIHIN
  6
Continuous
 62
     3
 48
5.0
100
AcDbCircle
 10
657.6506334281555
 20
116.4674934930352
 30
0.0
 40
29.999957
100
AcDbArc
 50
146.4488200000006
 51
179.9757450000002
  0
LINE
  5
29EE
330
1A
100
AcDbEntity
  8
SEIHIN
  6
Continuous
 62
     3
 48
5.0
100
AcDbLine
 10
632.6488334281555
 20
138.0477934930352
 30
0.0
 11
632.6488334281555
 21
133.0478934930352
 31
0.0
  0
ARC
  5
29EF
330
1A
100
AcDbEntity
  8
SEIHIN
  6
Continuous
 62
     3
 48
5.0
100
AcDbCircle
 10
636.8217334281555
 20
140.0478934930352
 30
0.0
 40
2.000037
100
AcDbArc
 50
270.0
 51
357.8767829999999
  0
ARC
  5
29F0
330
1A
100
AcDbEntity
  8
NOKITOI
  6
PHANTOM
 62
     8
 48
5.0
100
AcDbCircle
 10
625.9879159521724
 20
179.0479245725523
 30
0.0
 40
2.000031079781521
100
AcDbArc
 50
269.999068270025
 51
357.3970263848195
  0
ARC
  5
29F1
330
1A
100
AcDbEntity
  8
SEIHIN
  6
Continuous
 62
     3
 48
5.0
100
AcDbCircle
 10
626.2878334281555
 20
179.0478934930352
 30
0.0
 40
1.999981
100
AcDbArc
 50
270.0
 51
357.397828
  0
ARC
  5
29F2
330
1A
100
AcDbEntity
  8
NOKITOI
  6
PHANTOM
 62
     8
 48
5.0
100
AcDbCircle
 10
623.790079944248
 20
181.3478901638649
 30
0.0
 40
2.999996670831683
100
AcDbArc
 50
270.0000665378032
 51
357.3979379474862
  0
ARC
  5
29F3
330
1A
100
AcDbEntity
  8
SEIHIN
  6
Continuous
 62
     3
 48
5.0
100
AcDbCircle
 10
630.7491334281555
 20
244.4098934930352
 30
0.0
 40
8.999972999999999
100
AcDbArc
 50
178.8705569999999
 51
259.9536670000005
  0
LINE
  5
29F4
330
1A
100
AcDbEntity
  8
SEIHIN
  6
Continuous
 62
     3
 48
5.0
100
AcDbLine
 10
646.7491334281555
 20
218.3477934930352
 30
0.0
 11
646.7491334281555
 21
247.5478934930352
 31
0.0
  0
ARC
  5
29F5
330
1A
100
AcDbEntity
  8
SEIHIN
  6
Continuous
 62
     3
 48
5.0
100
AcDbCircle
 10
634.6791334281555
 20
235.5478934930352
 30
0.0
 40
2.0
100
AcDbArc
 50
0.0
 51
90.0
  0
LINE
  5
29F6
330
1A
100
AcDbEntity
  8
SEIHIN
  6
Continuous
 62
     3
 48
5.0
100
AcDbLine
 10
629.9837334281555
 20
216.3477934930352
 30
0.0
 11
644.7491334281555
 21
216.3477934930352
 31
0.0
  0
ARC
  5
29F7
330
1A
100
AcDbEntity
  8
SEIHIN
  6
Continuous
 62
     3
 48
5.0
100
AcDbCircle
 10
634.6791334281555
 20
220.4478934930352
 30
0.0
 40
2.0
100
AcDbArc
 50
270.0
 51
0.0
  0
LINE
  5
29F8
330
1A
100
AcDbEntity
  8
NOKITOI
  6
PHANTOM
 62
     8
 48
5.0
100
AcDbLine
 10
635.8990834281555
 20
235.0479934930353
 30
0.0
 11
635.8990834281555
 21
220.4310934930353
 31
0.0
  0
ARC
  5
29F9
330
1A
100
AcDbEntity
  8
NOKITOI
  6
PHANTOM
 62
     8
 48
5.0
100
AcDbCircle
 10
635.3990727883819
 20
220.431087467934
 30
0.0
 40
0.500010639809949
100
AcDbArc
 50
239.0447944605788
 51
0.0006904110642984
  0
LINE
  5
29FA
330
1A
100
AcDbEntity
  8
NOKITOI
  6
PHANTOM
 62
     8
 48
5.0
100
AcDbLine
 10
629.8990834281553
 20
221.0479934930352
 30
0.0
 11
633.3990834281553
 21
221.0479934930352
 31
0.0
  0
LINE
  5
29FB
330
1A
100
AcDbEntity
  8
NOKITOI
  6
PHANTOM
 62
     8
 48
5.0
100
AcDbLine
 10
633.3990834281553
 20
221.0479934930352
 30
0.0
 11
635.1418834281554
 21
220.0022934930352
 31
0.0
  0
ARC
  5
29FC
330
1A
100
AcDbEntity
  8
SEIHIN
  6
Continuous
 62
     3
 48
5.0
100
AcDbCircle
 10
631.5125334281555
 20
216.9478934930352
 30
0.0
 40
1.500021
100
AcDbArc
 50
90.0
 51
177.4017739999999
  0
LINE
  5
29FD
330
1A
100
AcDbEntity
  8
SEIHIN
  6
Continuous
 62
     3
 48
5.0
100
AcDbLine
 10
634.6791334281555
 20
218.4478934930352
 30
0.0
 11
631.5125334281555
 21
218.4478934930352
 31
0.0
  0
LINE
  5
29FE
330
1A
100
AcDbEntity
  8
NOKITOI
  6
PHANTOM
 62
     8
 48
5.0
100
AcDbLine
 10
634.5990834281555
 20
222.3479934930353
 30
0.0
 11
634.5990834281555
 21
234.3305934930353
 31
0.0
  0
LINE
  5
29FF
330
1A
100
AcDbEntity
  8
NOKITOI
  6
PHANTOM
 62
     8
 48
5.0
100
AcDbLine
 10
630.5672834281554
 20
235.7479934930352
 30
0.0
 11
629.9581834281553
 21
222.3479934930353
 31
0.0
  0
LINE
  5
2A00
330
1A
100
AcDbEntity
  8
NOKITOI
  6
PHANTOM
 62
     8
 48
5.0
100
AcDbLine
 10
629.9581834281553
 20
222.3479934930353
 30
0.0
 11
634.5990834281555
 21
222.3479934930353
 31
0.0
  0
LINE
  5
2A01
330
1A
100
AcDbEntity
  8
NOKITOI
  6
PHANTOM
 62
     8
 48
5.0
100
AcDbLine
 10
632.3495834281555
 20
235.7479934930352
 30
0.0
 11
630.5672834281554
 21
235.7479934930352
 31
0.0
  0
LINE
  5
2A02
330
1A
100
AcDbEntity
  8
NOKITOI
  6
PHANTOM
 62
     8
 48
5.0
100
AcDbLine
 10
629.8027834281554
 20
237.0479934930353
 30
0.0
 11
632.7250834281555
 21
237.0479934930353
 31
0.0
  0
LINE
  5
2A03
330
1A
100
AcDbEntity
  8
NOKITOI
  6
PHANTOM
 62
     8
 48
5.0
100
AcDbLine
 10
632.7250834281555
 20
237.0479934930353
 30
0.0
 11
635.8990834281555
 21
235.0479934930353
 31
0.0
  0
ARC
  5
2A04
330
1A
100
AcDbEntity
  8
NOKITOI
  6
PHANTOM
 62
     8
 48
5.0
100
AcDbCircle
 10
629.8027752971511
 20
236.5479857231561
 30
0.0
 40
0.5000077699453767
100
AcDbArc
 50
89.99906827002333
 51
177.3970263848191
  0
LINE
  5
2A05
330
1A
100
AcDbEntity
  8
NOKITOI
  6
PHANTOM
 62
     8
 48
5.0
100
AcDbLine
 10
634.5990834281555
 20
234.3305934930353
 30
0.0
 11
632.3495834281555
 21
235.7479934930352
 31
0.0
  0
LINE
  5
2A06
330
1A
100
AcDbEntity
  8
SEIHIN
  6
Continuous
 62
     3
 48
5.0
100
AcDbLine
 10
629.1791334281555
 20
237.5478934930352
 30
0.0
 11
629.1791334281555
 21
235.5478934930352
 31
0.0
  0
LINE
  5
2A07
330
1A
100
AcDbEntity
  8
SEIHIN
  6
Continuous
 62
     3
 48
5.0
100
AcDbLine
 10
634.6791334281555
 20
237.5478934930352
 30
0.0
 11
629.1791334281555
 21
237.5478934930352
 31
0.0
  0
LINE
  5
2A08
330
1A
100
AcDbEntity
  8
SEIHIN
  6
Continuous
 62
     3
 48
5.0
100
AcDbLine
 10
636.6791334281555
 20
220.4478934930352
 30
0.0
 11
636.6791334281555
 21
235.5478934930352
 31
0.0
  0
ARC
  5
2A09
330
1A
100
AcDbEntity
  8
SEIHIN
  6
Continuous
 62
     3
 48
5.0
100
AcDbCircle
 10
643.5764334281555
 20
214.3477934930352
 30
0.0
 40
2.000037
100
AcDbArc
 50
90.0
 51
177.8767830000002
  0
ARC
  5
2A0A
330
1A
100
AcDbEntity
  8
SEIHIN
  6
Continuous
 62
     3
 48
5.0
100
AcDbCircle
 10
644.7491334281555
 20
218.3477934930352
 30
0.0
 40
2.0
100
AcDbArc
 50
270.0
 51
0.0
  0
LINE
  5
2A0B
330
1A
100
AcDbEntity
  8
SEIHIN
  6
Continuous
 62
     3
 48
5.0
100
AcDbLine
 10
623.7504334281555
 20
247.5478934930352
 30
0.0
 11
646.7491334281555
 21
247.5478934930352
 31
0.0
  0
LINE
  5
2A0C
330
1A
100
AcDbEntity
  8
SEIHIN
  6
Continuous
 62
     3
 48
5.0
100
AcDbLine
 10
621.7509334281555
 20
245.5872934930352
 30
0.0
 11
621.7508334281555
 21
244.5872934930352
 31
0.0
  0
ARC
  5
2A0D
330
1A
100
AcDbEntity
  8
SEIHIN
  6
Continuous
 62
     3
 48
5.0
100
AcDbCircle
 10
623.7504334281555
 20
245.5478934930352
 30
0.0
 40
1.999994
100
AcDbArc
 50
90.0
 51
178.8711929999999
  0
MTEXT
  5
2A0E
330
1A
100
AcDbEntity
  8
SUNPOU
 62
     4
100
AcDbMText
 10
540.9291283029452
 20
293.2039437444396
 30
0.0
 40
6.0
 41
0.0
 71
     7
 72
     5
  1
2-φ2.0
 73
     1
 44
1.0
  0
VIEWPORT
  5
22
330
17
100
AcDbEntity
 67
     1
  8
0
100
AcDbViewport
 10
313.6808219178083
 20
148.5
 30
0.0
 40
627.3616438356165
 41
297.0
 68
     2
 69
     1
 12
313.6808219178083
 22
148.5
 13
0.0
 23
0.0
 14
1.0
 24
1.0
 15
10.0
 25
10.0
 16
0.0
 26
0.0
 36
1.0
 17
0.0
 27
0.0
 37
0.0
 42
50.0
 43
0.0
 44
0.0
 45
297.0
 50
0.0
 51
0.0
 72
   100
 90
    32768
  1

281
     0
 71
     1
 74
     0
110
0.0
120
0.0
130
0.0
111
1.0
121
0.0
131
0.0
112
0.0
122
1.0
132
0.0
 79
     0
146
0.0
  0
VIEWPORT
  5
64
330
17
100
AcDbEntity
 67
     1
  8
VIEWPORT
100
AcDbViewport
 10
210.0
 20
148.5
 30
0.0
 40
420.0
 41
297.0
 68
     1
 69
     2
 12
420.0
 22
297.0
 13
0.0
 23
0.0
 14
10.0
 24
10.0
 15
0.0
 25
0.0
 16
0.0
 26
0.0
 36
1.0
 17
0.0
 27
0.0
 37
0.0
 42
50.0
 43
0.0
 44
0.0
 45
605.8799999999999
 50
0.0
 51
0.0
 72
   100
 90
    32768
  1

281
     0
 71
     1
 74
     0
110
0.0
120
0.0
130
0.0
111
1.0
121
0.0
131
0.0
112
0.0
122
1.0
132
0.0
 79
     0
146
0.0
  0
ENDSEC
  0
SECTION
  2
OBJECTS
  0
DICTIONARY
  5
C
330
0
100
AcDbDictionary
281
     1
  3
ACAD_GROUP
350
D
  3
ACAD_LAYOUT
350
C42
  3
ACAD_MLINESTYLE
350
E
  3
ACAD_PLOTSETTINGS
350
C43
  3
ACAD_PLOTSTYLENAME
350
C40
  0
DICTIONARY
  5
D
102
{ACAD_REACTORS
330
C
102
}
330
C
100
AcDbDictionary
281
     1
  0
DICTIONARY
  5
C42
102
{ACAD_REACTORS
330
C
102
}
330
C
100
AcDbDictionary
281
     1
  3
Model
350
C44
  3
ﾚｲｱｳﾄ1
350
C45
  0
DICTIONARY
  5
E
102
{ACAD_REACTORS
330
C
102
}
330
C
100
AcDbDictionary
281
     1
  3
STANDARD
350
13
  0
DICTIONARY
  5
C43
102
{ACAD_REACTORS
330
C
102
}
330
C
100
AcDbDictionary
281
     1
  0
ACDBDICTIONARYWDFLT
  5
C40
102
{ACAD_REACTORS
330
C
102
}
330
C
100
AcDbDictionary
281
     1
  3
Normal
350
C41
100
AcDbDictionaryWithDefault
340
C41
1001
ACAD
1000
TREAT_AS_HARD
1070
     0
1000
TREAT_AS_HARD
1070
     0
1000
TREAT_AS_HARD
1070
     0
1000
TREAT_AS_HARD
1070
     0
1000
TREAT_AS_HARD
1070
     0
1000
TREAT_AS_HARD
1070
     0
  0
LAYOUT
  5
C44
102
{ACAD_REACTORS
330
C42
102
}
330
C42
100
AcDbPlotSettings
  1

  2
Acrobat PDFWriter
  4
A3
  6

 40
7.143749713897705
 41
7.14375638961792
 42
7.143768310546875
 43
7.14373779296875
 44
297.1270751953125
 45
420.1583251953125
 46
0.0
 47
0.0
 48
0.0
 49
0.0
140
0.0
141
0.0
142
1.0
143
2.0
 70
 28336
 72
     1
 73
     1
 74
     2
  7
print.ctb
 75
    17
147
0.5
148
0.0
149
0.0
100
AcDbLayout
  1
Model
 70
     1
 71
     0
 10
0.0
 20
0.0
 11
12.0
 21
9.0
 12
0.0
 22
0.0
 32
0.0
 14
0.0
 24
0.0
 34
0.0
 15
0.0
 25
0.0
 35
0.0
146
0.0
 13
0.0
 23
0.0
 33
0.0
 16
1.0
 26
0.0
 36
0.0
 17
0.0
 27
1.0
 37
0.0
 76
     0
330
1A
  0
LAYOUT
  5
C45
102
{ACAD_REACTORS
330
C42
102
}
330
C42
100
AcDbPlotSettings
  1

  2
Canon LBP-A404 LIPS3
  4

  6

 40
0.0
 41
0.0
 42
0.0
 43
0.0
 44
0.0
 45
0.0
 46
0.0
 47
0.0
 48
0.0
 49
0.0
140
0.0
141
0.0
142
1.0
143
1.0
 70
   688
 72
     0
 73
     0
 74
     5
  7

 75
    16
147
1.0
148
0.0
149
0.0
100
AcDbLayout
  1
ﾚｲｱｳﾄ1
 70
     1
 71
     1
 10
0.0
 20
0.0
 11
420.0
 21
297.0
 12
0.0
 22
0.0
 32
0.0
 14
0.0
 24
0.0
 34
0.0
 15
420.0
 25
297.0
 35
0.0
146
0.0
 13
0.0
 23
0.0
 33
0.0
 16
1.0
 26
0.0
 36
0.0
 17
0.0
 27
1.0
 37
0.0
 76
     0
330
17
331
64
  0
MLINESTYLE
  5
13
102
{ACAD_REACTORS
330
E
102
}
330
E
100
AcDbMlineStyle
  2
STANDARD
 70
     0
  3

 62
     0
 51
90.0
 52
90.0
 71
     2
 49
0.5
 62
   256
  6
BYLAYER
 49
-0.5
 62
   256
  6
BYLAYER
  0
ACDBPLACEHOLDER
  5
C41
102
{ACAD_REACTORS
330
C40
102
}
330
C40
  0
ENDSEC
  0
EOF
