  0
SECTION
  2
HEADER
  9
$ACADVER
  1
AC1012
  9
$DWGCODEPAGE
  3
dos932
  9
$INSBASE
 10
0.0
 20
0.0
 30
0.0
  9
$EXTMIN
 10
10.05047808566086
 20
4.949376903717846
 30
0.0
  9
$EXTMAX
 10
806.2246110975902
 20
563.7825862828226
 30
0.0
  9
$LIMMIN
 10
0.0
 20
0.0
  9
$LIMMAX
 10
840.0
 20
594.0
  9
$ORTHOMODE
 70
     0
  9
$REGENMODE
 70
     1
  9
$FILLMODE
 70
     1
  9
$QTEXTMODE
 70
     0
  9
$MIRRTEXT
 70
     1
  9
$DRAGMODE
 70
     2
  9
$LTSCALE
 40
2.0
  9
$OSMODE
 70
    37
  9
$ATTMODE
 70
     1
  9
$TEXTSIZE
 40
5.0
  9
$TRACEWID
 40
1.0
  9
$TEXTSTYLE
  7
STANDARD
  9
$CLAYER
  8
ZUWAKU
  9
$CELTYPE
  6
BYLAYER
  9
$CECOLOR
 62
   256
  9
$CELTSCALE
 40
5.0
  9
$DELOBJ
 70
     1
  9
$DISPSILH
 70
     0
  9
$DIMSCALE
 40
1.0
  9
$DIMASZ
 40
7.0
  9
$DIMEXO
 40
6.0
  9
$DIMDLI
 40
14.0
  9
$DIMRND
 40
0.0
  9
$DIMDLE
 40
0.0
  9
$DIMEXE
 40
3.0
  9
$DIMTP
 40
0.0
  9
$DIMTM
 40
0.0
  9
$DIMTXT
 40
6.0
  9
$DIMCEN
 40
150.0
  9
$DIMTSZ
 40
0.0
  9
$DIMTOL
 70
     0
  9
$DIMLIM
 70
     0
  9
$DIMTIH
 70
     0
  9
$DIMTOH
 70
     0
  9
$DIMSE1
 70
     0
  9
$DIMSE2
 70
     0
  9
$DIMTAD
 70
     3
  9
$DIMZIN
 70
     0
  9
$DIMBLK
  1

  9
$DIMASO
 70
     1
  9
$DIMSHO
 70
     1
  9
$DIMPOST
  1

  9
$DIMAPOST
  1

  9
$DIMALT
 70
     0
  9
$DIMALTD
 70
     2
  9
$DIMALTF
 40
25.4
  9
$DIMLFAC
 40
1.0
  9
$DIMTOFL
 70
     1
  9
$DIMTVP
 40
0.0
  9
$DIMTIX
 70
     0
  9
$DIMSOXD
 70
     0
  9
$DIMSAH
 70
     1
  9
$DIMBLK1
  1
OPEN
  9
$DIMBLK2
  1
OPEN
  9
$DIMSTYLE
  2
STANDARD
  9
$DIMCLRD
 70
   256
  9
$DIMCLRE
 70
   256
  9
$DIMCLRT
 70
   256
  9
$DIMTFAC
 40
1.0
  9
$DIMGAP
 40
2.0
  9
$DIMJUST
 70
     0
  9
$DIMSD1
 70
     0
  9
$DIMSD2
 70
     0
  9
$DIMTOLJ
 70
     1
  9
$DIMTZIN
 70
     0
  9
$DIMALTZ
 70
     0
  9
$DIMALTTZ
 70
     0
  9
$DIMFIT
 70
     3
  9
$DIMUPT
 70
     0
  9
$DIMUNIT
 70
     2
  9
$DIMDEC
 70
     0
  9
$DIMTDEC
 70
     0
  9
$DIMALTU
 70
     2
  9
$DIMALTTD
 70
     2
  9
$DIMTXSTY
  7
STANDARD
  9
$DIMAUNIT
 70
     0
  9
$LUNITS
 70
     2
  9
$LUPREC
 70
     4
  9
$SKETCHINC
 40
1.0
  9
$FILLETRAD
 40
20.0
  9
$AUNITS
 70
     0
  9
$AUPREC
 70
     0
  9
$MENU
  1
.
  9
$ELEVATION
 40
0.0
  9
$PELEVATION
 40
0.0
  9
$THICKNESS
 40
0.0
  9
$LIMCHECK
 70
     0
  9
$BLIPMODE
 70
     0
  9
$CHAMFERA
 40
20.0
  9
$CHAMFERB
 40
20.0
  9
$CHAMFERC
 40
40.0
  9
$CHAMFERD
 40
0.0
  9
$SKPOLY
 70
     0
  9
$TDCREATE
 40
2451271.727637731
  9
$TDUPDATE
 40
2452395.851951979
  9
$TDINDWG
 40
0.0204882176
  9
$TDUSRTIMER
 40
0.0204882176
  9
$USRTIMER
 70
     1
  9
$ANGBASE
 50
0.0
  9
$ANGDIR
 70
     0
  9
$PDMODE
 70
     0
  9
$PDSIZE
 40
0.0
  9
$PLINEWID
 40
0.0
  9
$COORDS
 70
     1
  9
$SPLFRAME
 70
     0
  9
$SPLINETYPE
 70
     6
  9
$SPLINESEGS
 70
     8
  9
$ATTDIA
 70
     0
  9
$ATTREQ
 70
     1
  9
$HANDLING
 70
 10241
  9
$HANDSEED
  5
939
  9
$SURFTAB1
 70
     6
  9
$SURFTAB2
 70
     6
  9
$SURFTYPE
 70
     6
  9
$SURFU
 70
     6
  9
$SURFV
 70
     6
  9
$UCSNAME
  2

  9
$UCSORG
 10
0.0
 20
0.0
 30
0.0
  9
$UCSXDIR
 10
1.0
 20
0.0
 30
0.0
  9
$UCSYDIR
 10
0.0
 20
1.0
 30
0.0
  9
$PUCSNAME
  2

  9
$PUCSORG
 10
0.0
 20
0.0
 30
0.0
  9
$PUCSXDIR
 10
1.0
 20
0.0
 30
0.0
  9
$PUCSYDIR
 10
0.0
 20
1.0
 30
0.0
  9
$USERI1
 70
     0
  9
$USERI2
 70
     0
  9
$USERI3
 70
     0
  9
$USERI4
 70
     0
  9
$USERI5
 70
     0
  9
$USERR1
 40
0.0
  9
$USERR2
 40
0.0
  9
$USERR3
 40
0.0
  9
$USERR4
 40
0.0
  9
$USERR5
 40
0.0
  9
$WORLDVIEW
 70
     1
  9
$SHADEDGE
 70
     3
  9
$SHADEDIF
 70
    70
  9
$TILEMODE
 70
     1
  9
$MAXACTVP
 70
    16
  9
$PINSBASE
 10
0.0
 20
0.0
 30
0.0
  9
$PLIMCHECK
 70
     0
  9
$PEXTMIN
 10
0.0
 20
0.0
 30
0.0
  9
$PEXTMAX
 10
420.0
 20
297.0
 30
0.0
  9
$PLIMMIN
 10
0.0
 20
0.0
  9
$PLIMMAX
 10
420.0
 20
297.0
  9
$UNITMODE
 70
     0
  9
$VISRETAIN
 70
     0
  9
$PLINEGEN
 70
     0
  9
$PSLTSCALE
 70
     1
  9
$TREEDEPTH
 70
  3020
  9
$PICKSTYLE
 70
     1
  9
$CMLSTYLE
  2
STANDARD
  9
$CMLJUST
 70
     0
  9
$CMLSCALE
 40
1.0
  9
$SAVEIMAGES
 70
     1
  0
ENDSEC
  0
SECTION
  2
CLASSES
  0
CLASS
  1
ACDBDICTIONARYWDFLT
  2
AcDbDictionaryWithDefault
  3
AutoCAD 2000
 90
    32768
280
     0
281
     0
  0
CLASS
  1
ACDBPLACEHOLDER
  2
AcDbPlaceHolder
  3
AutoCAD 2000
 90
    32768
280
     0
281
     0
  0
CLASS
  1
LAYOUT
  2
AcDbLayout
  3
AutoCAD 2000
 90
    32768
280
     0
281
     0
  0
CLASS
  1
LONG_TRANSACTION
  2
AcDbLongTransaction
  3
AutoCAD 2000
 90
    32768
280
     0
281
     0
  0
CLASS
  1
LWPOLYLINE
  2
AcDbPolyline
  3
AutoCAD 2000
 90
    32768
280
     0
281
     1
  0
CLASS
  1
HATCH
  2
AcDbHatch
  3
AutoCAD 2000
 90
    32768
280
     0
281
     1
  0
CLASS
  1
XRECORD
  2
AcDbXrecord
  3
AutoCAD 2000
 90
    32768
280
     0
281
     0
  0
CLASS
  1
LONG_TRANSACTION
  2
AcDbLongTransaction
  3
AutoCAD 2000
 90
    32768
280
     0
281
     0
  0
CLASS
  1
LWPOLYLINE
  2
AcDbPolyline
  3
AutoCAD 2000
 90
    32768
280
     0
281
     1
  0
CLASS
  1
HATCH
  2
AcDbHatch
  3
AutoCAD 2000
 90
    32768
280
     0
281
     1
  0
CLASS
  1
XRECORD
  2
AcDbXrecord
  3
AutoCAD 2000
 90
    32768
280
     0
281
     0
  0
CLASS
  1
LONG_TRANSACTION
  2
AcDbLongTransaction
  3
AutoCAD 2000
 90
    32768
280
     0
281
     0
  0
CLASS
  1
LWPOLYLINE
  2
AcDbPolyline
  3
AutoCAD 2000
 90
    32768
280
     0
281
     1
  0
CLASS
  1
HATCH
  2
AcDbHatch
  3
AutoCAD 2000
 90
    32768
280
     0
281
     1
  0
CLASS
  1
XRECORD
  2
AcDbXrecord
  3
AutoCAD 2000
 90
    32768
280
     0
281
     0
  0
ENDSEC
  0
SECTION
  2
TABLES
  0
TABLE
  2
VPORT
  5
8
330
0
100
AcDbSymbolTable
 70
     2
  0
VPORT
  5
936
330
8
100
AcDbSymbolTableRecord
100
AcDbViewportTableRecord
  2
*ACTIVE
 70
     0
 10
0.0
 20
0.0
 11
1.0
 21
1.0
 12
527.337385722155
 22
282.6024906496706
 13
0.0
 23
0.0
 14
5.0
 24
5.0
 15
0.0
 25
0.0
 16
0.0
 26
0.0
 36
1.0
 17
0.0
 27
0.0
 37
0.0
 40
587.3429998340074
 41
2.169459962756052
 42
50.0
 43
0.0
 44
0.0
 50
0.0
 51
0.0
 71
     0
 72
   100
 73
     1
 74
     0
 75
     0
 76
     0
 77
     0
 78
     0
  0
ENDTAB
  0
TABLE
  2
LTYPE
  5
5
330
0
100
AcDbSymbolTable
 70
     2
  0
LTYPE
  5
14
330
5
100
AcDbSymbolTableRecord
100
AcDbLinetypeTableRecord
  2
BYBLOCK
 70
     0
  3

 72
    65
 73
     0
 40
0.0
  0
LTYPE
  5
15
330
5
100
AcDbSymbolTableRecord
100
AcDbLinetypeTableRecord
  2
BYLAYER
 70
     0
  3

 72
    65
 73
     0
 40
0.0
  0
LTYPE
  5
16
330
5
100
AcDbSymbolTableRecord
100
AcDbLinetypeTableRecord
  2
CONTINUOUS
 70
     0
  3
Solid line
 72
    65
 73
     0
 40
0.0
  0
LTYPE
  5
135
330
5
100
AcDbSymbolTableRecord
100
AcDbLinetypeTableRecord
  2
CENTER
 70
     0
  3
____ _ ____ _ ____ _ ____ _ ____ _ ____ _ ____ 
 72
    65
 73
     4
 40
2.0
 49
1.25
 74
     0
 49
-0.25
 74
     0
 49
0.25
 74
     0
 49
-0.25
 74
     0
  0
ENDTAB
  0
TABLE
  2
LAYER
  5
2
330
0
100
AcDbSymbolTable
 70
     8
  0
LAYER
  5
F
330
2
100
AcDbSymbolTableRecord
100
AcDbLayerTableRecord
  2
0
 70
     0
 62
     7
  6
CONTINUOUS
  0
LAYER
  5
62
330
2
100
AcDbSymbolTableRecord
100
AcDbLayerTableRecord
  2
VIEWPORT
 70
     0
 62
     7
  6
CONTINUOUS
  0
LAYER
  5
65
330
2
100
AcDbSymbolTableRecord
100
AcDbLayerTableRecord
  2
ZUWAKU
 70
     0
 62
     7
  6
CONTINUOUS
  0
LAYER
  5
143
330
2
100
AcDbSymbolTableRecord
100
AcDbLayerTableRecord
  2
SEIHIN
 70
     0
 62
     3
  6
CONTINUOUS
  0
LAYER
  5
144
330
2
100
AcDbSymbolTableRecord
100
AcDbLayerTableRecord
  2
SUNPOU
 70
     0
 62
     4
  6
CONTINUOUS
  0
LAYER
  5
145
330
2
100
AcDbSymbolTableRecord
100
AcDbLayerTableRecord
  2
CENTER_L
 70
     0
 62
     1
  6
CENTER
  0
LAYER
  5
69E
330
2
100
AcDbSymbolTableRecord
100
AcDbLayerTableRecord
  2
NOKITOI
 70
     0
 62
     6
  6
CONTINUOUS
  0
LAYER
  5
6AB
330
2
100
AcDbSymbolTableRecord
100
AcDbLayerTableRecord
  2
DEFPOINTS
 70
     0
 62
     7
  6
CONTINUOUS
  0
ENDTAB
  0
TABLE
  2
STYLE
  5
3
330
0
100
AcDbSymbolTable
 70
     1
  0
STYLE
  5
10
330
3
100
AcDbSymbolTableRecord
100
AcDbTextStyleTableRecord
  2
STANDARD
 70
     0
 40
0.0
 41
1.0
 50
0.0
 71
     0
 42
5.0
  3
TXT
  4
bigfont.shx
  0
ENDTAB
  0
TABLE
  2
VIEW
  5
6
330
0
100
AcDbSymbolTable
 70
     0
  0
ENDTAB
  0
TABLE
  2
UCS
  5
7
330
0
100
AcDbSymbolTable
 70
     0
  0
ENDTAB
  0
TABLE
  2
APPID
  5
9
330
0
100
AcDbSymbolTable
 70
     1
  0
APPID
  5
11
330
9
100
AcDbSymbolTableRecord
100
AcDbRegAppTableRecord
  2
ACAD
 70
     0
  0
ENDTAB
  0
TABLE
  2
DIMSTYLE
  5
A
330
0
100
AcDbSymbolTable
 70
     1
  0
DIMSTYLE
105
1D
102
{ACAD_REACTORS
330
6B0
330
6BD
330
6CA
330
6DA
330
766
330
773
330
791
330
79E
330
809
330
840
330
869
330
90F
102
}
330
A
100
AcDbSymbolTableRecord
100
AcDbDimStyleTableRecord
  2
STANDARD
 70
     0
  3

  4

  5

  6

  7

 40
1.0
 41
0.18
 42
0.0625
 43
0.38
 44
0.18
 45
0.0
 46
0.0
 47
0.0
 48
0.0
140
0.18
141
0.09
142
0.0
143
25.4
144
1.0
145
0.0
146
1.0
147
0.09
 71
     0
 72
     0
 73
     1
 74
     1
 75
     0
 76
     0
 77
     0
 78
     0
170
     0
171
     2
172
     0
173
     0
174
     0
175
     0
176
     0
177
     0
178
     0
270
     2
271
     4
272
     4
273
     2
274
     2
340
10
275
     0
280
     0
281
     0
282
     0
283
     1
284
     0
285
     0
286
     0
287
     3
288
     0
  0
ENDTAB
  0
TABLE
  2
BLOCK_RECORD
  5
1
330
0
100
AcDbSymbolTable
 70
    13
  0
BLOCK_RECORD
  5
1A
102
{ACAD_XDICTIONARY
360
8CD
102
}
330
1
100
AcDbSymbolTableRecord
100
AcDbBlockTableRecord
  2
*MODEL_SPACE
  0
BLOCK_RECORD
  5
17
102
{ACAD_XDICTIONARY
360
8CB
102
}
330
1
100
AcDbSymbolTableRecord
100
AcDbBlockTableRecord
  2
*PAPER_SPACE
  0
BLOCK_RECORD
  5
6D
330
1
100
AcDbSymbolTableRecord
100
AcDbBlockTableRecord
  2
_OPEN
  0
BLOCK_RECORD
  5
6A3
330
1
100
AcDbSymbolTableRecord
100
AcDbBlockTableRecord
  2
*D1
  0
BLOCK_RECORD
  5
6B1
330
1
100
AcDbSymbolTableRecord
100
AcDbBlockTableRecord
  2
*D2
  0
BLOCK_RECORD
  5
6BE
330
1
100
AcDbSymbolTableRecord
100
AcDbBlockTableRecord
  2
*D3
  0
BLOCK_RECORD
  5
6CC
330
1
100
AcDbSymbolTableRecord
100
AcDbBlockTableRecord
  2
*D4
  0
BLOCK_RECORD
  5
75A
330
1
100
AcDbSymbolTableRecord
100
AcDbBlockTableRecord
  2
*D5
  0
BLOCK_RECORD
  5
767
330
1
100
AcDbSymbolTableRecord
100
AcDbBlockTableRecord
  2
*D6
  0
BLOCK_RECORD
  5
783
330
1
100
AcDbSymbolTableRecord
100
AcDbBlockTableRecord
  2
*D7
  0
BLOCK_RECORD
  5
792
330
1
100
AcDbSymbolTableRecord
100
AcDbBlockTableRecord
  2
*D8
  0
BLOCK_RECORD
  5
7FD
330
1
100
AcDbSymbolTableRecord
100
AcDbBlockTableRecord
  2
*D9
  0
BLOCK_RECORD
  5
832
330
1
100
AcDbSymbolTableRecord
100
AcDbBlockTableRecord
  2
*D10
  0
BLOCK_RECORD
  5
85D
330
1
100
AcDbSymbolTableRecord
100
AcDbBlockTableRecord
  2
*D11
  0
BLOCK_RECORD
  5
910
330
1
100
AcDbSymbolTableRecord
100
AcDbBlockTableRecord
  2
*D12
  0
ENDTAB
  0
ENDSEC
  0
SECTION
  2
BLOCKS
  0
BLOCK
  5
1B
330
1A
100
AcDbEntity
  8
0
100
AcDbBlockBegin
  2
*MODEL_SPACE
 70
     0
 10
0.0
 20
0.0
 30
0.0
  3
*MODEL_SPACE
  1

  0
ENDBLK
  5
1C
330
1A
100
AcDbEntity
  8
0
100
AcDbBlockEnd
  0
BLOCK
  5
18
330
17
100
AcDbEntity
 67
     1
  8
0
100
AcDbBlockBegin
  2
*PAPER_SPACE
 70
     0
 10
0.0
 20
0.0
 30
0.0
  3
*PAPER_SPACE
  1

  0
ENDBLK
  5
19
330
17
100
AcDbEntity
 67
     1
  8
0
100
AcDbBlockEnd
  0
BLOCK
  5
6E
330
6D
100
AcDbEntity
  8
0
100
AcDbBlockBegin
  2
_OPEN
 70
     0
 10
0.0
 20
0.0
 30
0.0
  3
_OPEN
  1

  0
LINE
  5
6F
330
6D
100
AcDbEntity
  8
0
  6
BYBLOCK
 62
     0
100
AcDbLine
 10
-1.0
 20
0.1666666666666666
 30
0.0
 11
0.0
 21
0.0
 31
0.0
  0
LINE
  5
70
330
6D
100
AcDbEntity
  8
0
  6
BYBLOCK
 62
     0
100
AcDbLine
 10
0.0
 20
0.0
 30
0.0
 11
-1.0
 21
-0.1666666666666666
 31
0.0
  0
LINE
  5
71
330
6D
100
AcDbEntity
  8
0
  6
BYBLOCK
 62
     0
100
AcDbLine
 10
0.0
 20
0.0
 30
0.0
 11
-1.0
 21
0.0
 31
0.0
  0
ENDBLK
  5
72
330
6D
100
AcDbEntity
  8
0
100
AcDbBlockEnd
  0
BLOCK
  5
74F
330
6A3
100
AcDbEntity
  8
0
 48
5.0
100
AcDbBlockBegin
  2
*D1
 70
     1
 10
0.0
 20
0.0
 30
0.0
  3
*D1
  1

  0
LINE
  5
750
330
6A3
100
AcDbEntity
  8
0
  6
BYBLOCK
 62
     4
 48
5.0
100
AcDbLine
 10
220.6149607017136
 20
286.6609233191193
 30
0.0
 11
220.6149607017136
 21
306.1774359027567
 31
0.0
  0
LINE
  5
751
330
6A3
100
AcDbEntity
  8
0
  6
BYBLOCK
 62
     4
 48
5.0
100
AcDbLine
 10
138.6149607017138
 20
286.6611233191194
 30
0.0
 11
138.6149607017138
 21
306.1774359027567
 31
0.0
  0
LINE
  5
752
330
6A3
100
AcDbEntity
  8
0
  6
BYBLOCK
 62
     4
 48
5.0
100
AcDbLine
 10
213.6149607017137
 20
303.1774359027567
 30
0.0
 11
145.6149607017138
 21
303.1774359027567
 31
0.0
  0
INSERT
  5
753
330
6A3
100
AcDbEntity
  8
0
  6
BYBLOCK
 62
     4
 48
5.0
100
AcDbBlockReference
  2
_OPEN
 10
220.6149607017136
 20
303.1774359027567
 30
0.0
 41
7.0
 42
7.0
 43
7.0
  0
INSERT
  5
754
330
6A3
100
AcDbEntity
  8
0
  6
BYBLOCK
 62
     4
 48
5.0
100
AcDbBlockReference
  2
_OPEN
 10
138.6149607017138
 20
303.1774359027567
 30
0.0
 41
7.0
 42
7.0
 43
7.0
 50
180.0
  0
MTEXT
  5
755
330
6A3
100
AcDbEntity
  8
0
  6
BYBLOCK
 62
     4
 48
5.0
100
AcDbMText
 10
179.6149607017137
 20
308.1774359027567
 30
0.0
 40
6.0
 41
0.0
 71
     5
 72
     1
  1
\A1;φ82
1001
ACAD
1000
MTEXTBEGIN
1070
    73
1070
     1
1070
    44
1040
1.0
1070
    74
1070
     0
1000
MTEXTEND
1000
MTEXTBEGIN
1070
    73
1070
     1
1070
    44
1040
1.0
1070
    74
1070
     0
1000
MTEXTEND
1000
MTEXTBEGIN
1070
    73
1070
     1
1070
    44
1040
1.0
1070
    74
1070
     0
1000
MTEXTEND
  0
POINT
  5
756
330
6A3
100
AcDbEntity
  8
DEFPOINTS
  6
BYBLOCK
 62
     0
 48
5.0
100
AcDbPoint
 10
220.6149607017136
 20
280.6609233191193
 30
0.0
  0
POINT
  5
757
330
6A3
100
AcDbEntity
  8
DEFPOINTS
  6
BYBLOCK
 62
     0
 48
5.0
100
AcDbPoint
 10
138.6149607017138
 20
280.6611233191194
 30
0.0
  0
POINT
  5
758
330
6A3
100
AcDbEntity
  8
DEFPOINTS
  6
BYBLOCK
 62
     0
 48
5.0
100
AcDbPoint
 10
138.6149607017138
 20
303.1774359027567
 30
0.0
  0
ENDBLK
  5
759
330
6A3
100
AcDbEntity
  8
0
 48
5.0
100
AcDbBlockEnd
  0
BLOCK
  5
6B2
330
6B1
100
AcDbEntity
  8
0
 48
5.0
100
AcDbBlockBegin
  2
*D2
 70
     1
 10
0.0
 20
0.0
 30
0.0
  3
*D2
  1

  0
LINE
  5
6B3
330
6B1
100
AcDbEntity
  8
0
  6
BYBLOCK
 62
     4
 48
5.0
100
AcDbLine
 10
220.6148607017138
 20
198.6610233191193
 30
0.0
 11
262.913435810517
 21
198.6610233191193
 31
0.0
  0
LINE
  5
6B4
330
6B1
100
AcDbEntity
  8
0
  6
BYBLOCK
 62
     4
 48
5.0
100
AcDbLine
 10
226.6149607017136
 20
280.6609233191193
 30
0.0
 11
262.913435810517
 21
280.6609233191193
 31
0.0
  0
LINE
  5
6B5
330
6B1
100
AcDbEntity
  8
0
  6
BYBLOCK
 62
     4
 48
5.0
100
AcDbLine
 10
259.913435810517
 20
205.6610233191193
 30
0.0
 11
259.913435810517
 21
273.6609233191193
 31
0.0
  0
INSERT
  5
6B6
330
6B1
100
AcDbEntity
  8
0
  6
BYBLOCK
 62
     4
 48
5.0
100
AcDbBlockReference
  2
_OPEN
 10
259.913435810517
 20
198.6610233191193
 30
0.0
 41
7.0
 42
7.0
 43
7.0
 50
270.0
  0
INSERT
  5
6B7
330
6B1
100
AcDbEntity
  8
0
  6
BYBLOCK
 62
     4
 48
5.0
100
AcDbBlockReference
  2
_OPEN
 10
259.913435810517
 20
280.6609233191193
 30
0.0
 41
7.0
 42
7.0
 43
7.0
 50
90.0
  0
MTEXT
  5
6B8
330
6B1
100
AcDbEntity
  8
0
  6
BYBLOCK
 62
     4
 48
5.0
100
AcDbMText
 10
254.913435810517
 20
239.6609733191193
 30
0.0
 40
6.0
 41
0.0
 71
     5
 72
     1
  1
\A1;82
 11
0.0
 21
1.0
 31
0.0
1001
ACAD
1000
MTEXTBEGIN
1070
    73
1070
     1
1070
    44
1040
1.0
1070
    74
1070
     0
1000
MTEXTEND
1000
MTEXTBEGIN
1070
    73
1070
     1
1070
    44
1040
1.0
1070
    74
1070
     0
1000
MTEXTEND
1000
MTEXTBEGIN
1070
    73
1070
     1
1070
    44
1040
1.0
1070
    74
1070
     0
1000
MTEXTEND
  0
POINT
  5
6B9
330
6B1
100
AcDbEntity
  8
DEFPOINTS
  6
BYBLOCK
 62
     0
 48
5.0
100
AcDbPoint
 10
214.6148607017138
 20
198.6610233191193
 30
0.0
  0
POINT
  5
6BA
330
6B1
100
AcDbEntity
  8
DEFPOINTS
  6
BYBLOCK
 62
     0
 48
5.0
100
AcDbPoint
 10
220.6149607017136
 20
280.6609233191193
 30
0.0
  0
POINT
  5
6BB
330
6B1
100
AcDbEntity
  8
DEFPOINTS
  6
BYBLOCK
 62
     0
 48
5.0
100
AcDbPoint
 10
259.913435810517
 20
280.6609233191193
 30
0.0
  0
ENDBLK
  5
6BC
330
6B1
100
AcDbEntity
  8
0
 48
5.0
100
AcDbBlockEnd
  0
BLOCK
  5
739
330
6BE
100
AcDbEntity
  8
0
 48
5.0
100
AcDbBlockBegin
  2
*D3
 70
     1
 10
0.0
 20
0.0
 30
0.0
  3
*D3
  1

  0
LINE
  5
73A
330
6BE
100
AcDbEntity
  8
0
  6
BYBLOCK
 62
     4
 48
5.0
100
AcDbLine
 10
424.0215106617702
 20
258.4670758539608
 30
0.0
 11
424.0215106617702
 21
232.9532943241608
 31
0.0
  0
LINE
  5
73B
330
6BE
100
AcDbEntity
  8
0
  6
BYBLOCK
 62
     4
 48
5.0
100
AcDbLine
 10
363.9915106617704
 20
258.2488715682464
 30
0.0
 11
363.9915106617704
 21
232.9532943241608
 31
0.0
  0
LINE
  5
73C
330
6BE
100
AcDbEntity
  8
0
  6
BYBLOCK
 62
     4
 48
5.0
100
AcDbLine
 10
417.0215106617702
 20
235.9532943241609
 30
0.0
 11
370.9915106617704
 21
235.9532943241609
 31
0.0
  0
INSERT
  5
73D
330
6BE
100
AcDbEntity
  8
0
  6
BYBLOCK
 62
     4
 48
5.0
100
AcDbBlockReference
  2
_OPEN
 10
424.0215106617702
 20
235.9532943241609
 30
0.0
 41
7.0
 42
7.0
 43
7.0
  0
INSERT
  5
73E
330
6BE
100
AcDbEntity
  8
0
  6
BYBLOCK
 62
     4
 48
5.0
100
AcDbBlockReference
  2
_OPEN
 10
363.9915106617704
 20
235.9532943241609
 30
0.0
 41
7.0
 42
7.0
 43
7.0
 50
180.0
  0
MTEXT
  5
73F
330
6BE
100
AcDbEntity
  8
0
  6
BYBLOCK
 62
     4
 48
5.0
100
AcDbMText
 10
394.0065106617703
 20
240.9532943241608
 30
0.0
 40
6.0
 41
0.0
 71
     5
 72
     1
  1
\A1;φ60
1001
ACAD
1000
MTEXTBEGIN
1070
    73
1070
     1
1070
    44
1040
1.0
1070
    74
1070
     0
1000
MTEXTEND
1000
MTEXTBEGIN
1070
    73
1070
     1
1070
    44
1040
1.0
1070
    74
1070
     0
1000
MTEXTEND
1000
MTEXTBEGIN
1070
    73
1070
     1
1070
    44
1040
1.0
1070
    74
1070
     0
1000
MTEXTEND
  0
POINT
  5
740
330
6BE
100
AcDbEntity
  8
DEFPOINTS
  6
BYBLOCK
 62
     0
 48
5.0
100
AcDbPoint
 10
424.0215106617702
 20
264.4670758539608
 30
0.0
  0
POINT
  5
741
330
6BE
100
AcDbEntity
  8
DEFPOINTS
  6
BYBLOCK
 62
     0
 48
5.0
100
AcDbPoint
 10
363.9915106617704
 20
264.2488715682465
 30
0.0
  0
POINT
  5
742
330
6BE
100
AcDbEntity
  8
DEFPOINTS
  6
BYBLOCK
 62
     0
 48
5.0
100
AcDbPoint
 10
363.9915106617704
 20
235.9532943241609
 30
0.0
  0
ENDBLK
  5
743
330
6BE
100
AcDbEntity
  8
0
 48
5.0
100
AcDbBlockEnd
  0
BLOCK
  5
6F5
330
6CC
100
AcDbEntity
  8
0
 48
5.0
100
AcDbBlockBegin
  2
*D4
 70
     1
 10
0.0
 20
0.0
 30
0.0
  3
*D4
  1

  0
LINE
  5
92B
330
6CC
100
AcDbEntity
  8
SUNPOU
  6
CONTINUOUS
 62
     4
 48
5.0
100
AcDbLine
 10
241.6676770930076
 20
208.6610233191193
 30
0.0
 11
262.154806498243
 21
208.6610233191193
 31
0.0
  0
LINE
  5
92C
330
6CC
100
AcDbEntity
  8
SUNPOU
  6
CONTINUOUS
 62
     4
 48
5.0
100
AcDbLine
 10
240.6148607017138
 20
198.6610233191193
 30
0.0
 11
262.154806498243
 21
198.6610233191193
 31
0.0
  0
LINE
  5
92D
330
6CC
100
AcDbEntity
  8
SUNPOU
  6
CONTINUOUS
 62
     4
 48
5.0
100
AcDbLine
 10
259.154806498243
 20
215.6610233191193
 30
0.0
 11
259.154806498243
 21
222.6610233191193
 31
0.0
  0
LINE
  5
92E
330
6CC
100
AcDbEntity
  8
SUNPOU
  6
CONTINUOUS
 62
     4
 48
5.0
100
AcDbLine
 10
259.154806498243
 20
191.6610233191193
 30
0.0
 11
259.154806498243
 21
163.2610233191193
 31
0.0
  0
LINE
  5
92F
330
6CC
100
AcDbEntity
  8
SUNPOU
  6
CONTINUOUS
 62
     4
 48
5.0
100
AcDbLine
 10
259.154806498243
 20
208.6610233191193
 30
0.0
 11
259.154806498243
 21
198.6610233191193
 31
0.0
  0
INSERT
  5
930
330
6CC
100
AcDbEntity
  8
SUNPOU
  6
CONTINUOUS
 62
     4
 48
5.0
100
AcDbBlockReference
  2
_OPEN
 10
259.154806498243
 20
208.6610233191193
 30
0.0
 41
7.0
 42
7.0
 43
7.0
 50
270.0
  0
INSERT
  5
931
330
6CC
100
AcDbEntity
  8
SUNPOU
  6
CONTINUOUS
 62
     4
 48
5.0
100
AcDbBlockReference
  2
_OPEN
 10
259.154806498243
 20
198.6610233191193
 30
0.0
 41
7.0
 42
7.0
 43
7.0
 50
90.0
  0
MTEXT
  5
932
330
6CC
100
AcDbEntity
  8
SUNPOU
  6
CONTINUOUS
 62
     4
 48
5.0
100
AcDbMText
 10
254.1548064982429
 20
173.9610233191193
 30
0.0
 40
6.0
 41
0.0
 71
     5
 72
     1
  1
\A1;\U+203B 10
 11
0.0000000000000001
 21
1.0
 31
0.0
1001
ACAD
1000
MTEXTBEGIN
1070
    73
1070
     1
1070
    44
1040
1.0
1070
    74
1070
     0
1000
MTEXTEND
  0
POINT
  5
933
330
6CC
100
AcDbEntity
  8
DEFPOINTS
  6
CONTINUOUS
 62
     0
 48
5.0
100
AcDbPoint
 10
235.6676770930076
 20
208.6610233191193
 30
0.0
  0
POINT
  5
934
330
6CC
100
AcDbEntity
  8
DEFPOINTS
  6
CONTINUOUS
 62
     0
 48
5.0
100
AcDbPoint
 10
234.6148607017138
 20
198.6610233191193
 30
0.0
  0
POINT
  5
935
330
6CC
100
AcDbEntity
  8
DEFPOINTS
  6
CONTINUOUS
 62
     0
 48
5.0
100
AcDbPoint
 10
259.154806498243
 20
198.6610233191193
 30
0.0
  0
ENDBLK
  5
701
330
6CC
100
AcDbEntity
  8
0
 48
5.0
100
AcDbBlockEnd
  0
BLOCK
  5
7F0
330
75A
100
AcDbEntity
  8
0
 48
5.0
100
AcDbBlockBegin
  2
*D5
 70
     1
 10
0.0
 20
0.0
 30
0.0
  3
*D5
  1

  0
LINE
  5
7F1
330
75A
100
AcDbEntity
  8
0
  6
BYBLOCK
 62
     4
 48
5.0
100
AcDbLine
 10
420.767679355996
 20
297.5860233191194
 30
0.0
 11
420.767679355996
 21
322.5631961555261
 31
0.0
  0
LINE
  5
7F2
330
75A
100
AcDbEntity
  8
0
  6
BYBLOCK
 62
     4
 48
5.0
100
AcDbLine
 10
367.267679355996
 20
297.5861233191194
 30
0.0
 11
367.267679355996
 21
322.5631961555261
 31
0.0
  0
LINE
  5
7F3
330
75A
100
AcDbEntity
  8
0
  6
BYBLOCK
 62
     4
 48
5.0
100
AcDbLine
 10
413.767679355996
 20
319.5631961555261
 30
0.0
 11
374.267679355996
 21
319.5631961555261
 31
0.0
  0
INSERT
  5
7F4
330
75A
100
AcDbEntity
  8
0
  6
BYBLOCK
 62
     4
 48
5.0
100
AcDbBlockReference
  2
_OPEN
 10
420.767679355996
 20
319.5631961555261
 30
0.0
 41
7.0
 42
7.0
 43
7.0
  0
INSERT
  5
7F5
330
75A
100
AcDbEntity
  8
0
  6
BYBLOCK
 62
     4
 48
5.0
100
AcDbBlockReference
  2
_OPEN
 10
367.267679355996
 20
319.5631961555261
 30
0.0
 41
7.0
 42
7.0
 43
7.0
 50
180.0
  0
MTEXT
  5
7F6
330
75A
100
AcDbEntity
  8
0
  6
BYBLOCK
 62
     4
 48
5.0
100
AcDbMText
 10
394.017679355996
 20
324.5631961555261
 30
0.0
 40
6.0
 41
0.0
 71
     5
 72
     1
  1
\A1;φ54
1001
ACAD
1000
MTEXTBEGIN
1070
    73
1070
     1
1070
    44
1040
1.0
1070
    74
1070
     0
1000
MTEXTEND
1000
MTEXTBEGIN
1070
    73
1070
     1
1070
    44
1040
1.0
1070
    74
1070
     0
1000
MTEXTEND
1000
MTEXTBEGIN
1070
    73
1070
     1
1070
    44
1040
1.0
1070
    74
1070
     0
1000
MTEXTEND
  0
POINT
  5
7F7
330
75A
100
AcDbEntity
  8
DEFPOINTS
  6
BYBLOCK
 62
     0
 48
5.0
100
AcDbPoint
 10
420.767679355996
 20
291.5860233191194
 30
0.0
  0
POINT
  5
7F8
330
75A
100
AcDbEntity
  8
DEFPOINTS
  6
BYBLOCK
 62
     0
 48
5.0
100
AcDbPoint
 10
367.267679355996
 20
291.5861233191193
 30
0.0
  0
POINT
  5
7F9
330
75A
100
AcDbEntity
  8
DEFPOINTS
  6
BYBLOCK
 62
     0
 48
5.0
100
AcDbPoint
 10
367.267679355996
 20
319.5631961555261
 30
0.0
  0
ENDBLK
  5
7FA
330
75A
100
AcDbEntity
  8
0
 48
5.0
100
AcDbBlockEnd
  0
BLOCK
  5
7CF
330
767
100
AcDbEntity
  8
0
 48
5.0
100
AcDbBlockBegin
  2
*D6
 70
     1
 10
0.0
 20
0.0
 30
0.0
  3
*D6
  1

  0
LINE
  5
7D0
330
767
100
AcDbEntity
  8
0
  6
BYBLOCK
 62
     4
 48
5.0
100
AcDbLine
 10
433.006579355996
 20
289.4610233191194
 30
0.0
 11
433.006579355996
 21
343.5485557155029
 31
0.0
  0
LINE
  5
7D1
330
767
100
AcDbEntity
  8
0
  6
BYBLOCK
 62
     4
 48
5.0
100
AcDbLine
 10
355.028679355996
 20
289.4612233191193
 30
0.0
 11
355.028679355996
 21
343.5485557155029
 31
0.0
  0
LINE
  5
7D2
330
767
100
AcDbEntity
  8
0
  6
BYBLOCK
 62
     4
 48
5.0
100
AcDbLine
 10
426.006579355996
 20
340.5485557155029
 30
0.0
 11
362.028679355996
 21
340.5485557155029
 31
0.0
  0
INSERT
  5
7D3
330
767
100
AcDbEntity
  8
0
  6
BYBLOCK
 62
     4
 48
5.0
100
AcDbBlockReference
  2
_OPEN
 10
433.006579355996
 20
340.5485557155029
 30
0.0
 41
7.0
 42
7.0
 43
7.0
  0
INSERT
  5
7D4
330
767
100
AcDbEntity
  8
0
  6
BYBLOCK
 62
     4
 48
5.0
100
AcDbBlockReference
  2
_OPEN
 10
355.028679355996
 20
340.5485557155029
 30
0.0
 41
7.0
 42
7.0
 43
7.0
 50
180.0
  0
MTEXT
  5
7D5
330
767
100
AcDbEntity
  8
0
  6
BYBLOCK
 62
     4
 48
5.0
100
AcDbMText
 10
394.017629355996
 20
345.5485557155029
 30
0.0
 40
6.0
 41
0.0
 71
     5
 72
     1
  1
\A1;φ78
1001
ACAD
1000
MTEXTBEGIN
1070
    73
1070
     1
1070
    44
1040
1.0
1070
    74
1070
     0
1000
MTEXTEND
1000
MTEXTBEGIN
1070
    73
1070
     1
1070
    44
1040
1.0
1070
    74
1070
     0
1000
MTEXTEND
1000
MTEXTBEGIN
1070
    73
1070
     1
1070
    44
1040
1.0
1070
    74
1070
     0
1000
MTEXTEND
  0
POINT
  5
7D6
330
767
100
AcDbEntity
  8
DEFPOINTS
  6
BYBLOCK
 62
     0
 48
5.0
100
AcDbPoint
 10
433.006579355996
 20
283.4610233191194
 30
0.0
  0
POINT
  5
7D7
330
767
100
AcDbEntity
  8
DEFPOINTS
  6
BYBLOCK
 62
     0
 48
5.0
100
AcDbPoint
 10
355.028679355996
 20
283.4612233191193
 30
0.0
  0
POINT
  5
7D8
330
767
100
AcDbEntity
  8
DEFPOINTS
  6
BYBLOCK
 62
     0
 48
5.0
100
AcDbPoint
 10
355.028679355996
 20
340.5485557155029
 30
0.0
  0
ENDBLK
  5
7D9
330
767
100
AcDbEntity
  8
0
 48
5.0
100
AcDbBlockEnd
  0
BLOCK
  5
84C
330
783
100
AcDbEntity
  8
0
 48
5.0
100
AcDbBlockBegin
  2
*D7
 70
     1
 10
0.0
 20
0.0
 30
0.0
  3
*D7
  1

  0
LINE
  5
84D
330
783
100
AcDbEntity
  8
0
  6
BYBLOCK
 62
     4
 48
5.0
100
AcDbLine
 10
439.0175793559959
 20
282.4610233191194
 30
0.0
 11
474.7037860647615
 21
282.4610233191194
 31
0.0
  0
LINE
  5
84E
330
783
100
AcDbEntity
  8
0
  6
BYBLOCK
 62
     4
 48
5.0
100
AcDbLine
 10
428.3564106617705
 20
262.4610233476116
 30
0.0
 11
474.7037860647615
 21
262.4610233476116
 31
0.0
  0
LINE
  5
84F
330
783
100
AcDbEntity
  8
0
  6
BYBLOCK
 62
     4
 48
5.0
100
AcDbLine
 10
471.7037860647614
 20
289.4610233191194
 30
0.0
 11
471.7037860647614
 21
296.4610233191194
 31
0.0
  0
LINE
  5
850
330
783
100
AcDbEntity
  8
0
  6
BYBLOCK
 62
     4
 48
5.0
100
AcDbLine
 10
471.7037860647614
 20
255.4610233476116
 30
0.0
 11
471.7037860647614
 21
248.4610233476116
 31
0.0
  0
LINE
  5
851
330
783
100
AcDbEntity
  8
0
  6
BYBLOCK
 62
     4
 48
5.0
100
AcDbLine
 10
471.7037860647614
 20
282.4610233191194
 30
0.0
 11
471.7037860647614
 21
262.4610233476116
 31
0.0
  0
INSERT
  5
852
330
783
100
AcDbEntity
  8
0
  6
BYBLOCK
 62
     4
 48
5.0
100
AcDbBlockReference
  2
_OPEN
 10
471.7037860647614
 20
282.4610233191194
 30
0.0
 41
7.0
 42
7.0
 43
7.0
 50
270.0
  0
INSERT
  5
853
330
783
100
AcDbEntity
  8
0
  6
BYBLOCK
 62
     4
 48
5.0
100
AcDbBlockReference
  2
_OPEN
 10
471.7037860647614
 20
262.4610233476116
 30
0.0
 41
7.0
 42
7.0
 43
7.0
 50
90.0
  0
MTEXT
  5
854
330
783
100
AcDbEntity
  8
0
  6
BYBLOCK
 62
     4
 48
5.0
100
AcDbMText
 10
466.7037860647615
 20
272.4610233333655
 30
0.0
 40
6.0
 41
0.0
 71
     5
 72
     1
  1
\A1;20
 11
0.0
 21
1.0
 31
0.0
1001
ACAD
1000
MTEXTBEGIN
1070
    73
1070
     1
1070
    44
1040
1.0
1070
    74
1070
     0
1000
MTEXTEND
1000
MTEXTBEGIN
1070
    73
1070
     1
1070
    44
1040
1.0
1070
    74
1070
     0
1000
MTEXTEND
1000
MTEXTBEGIN
1070
    73
1070
     1
1070
    44
1040
1.0
1070
    74
1070
     0
1000
MTEXTEND
  0
POINT
  5
855
330
783
100
AcDbEntity
  8
DEFPOINTS
  6
BYBLOCK
 62
     0
 48
5.0
100
AcDbPoint
 10
433.0175793559958
 20
282.4610233191194
 30
0.0
  0
POINT
  5
856
330
783
100
AcDbEntity
  8
DEFPOINTS
  6
BYBLOCK
 62
     0
 48
5.0
100
AcDbPoint
 10
422.3564106617705
 20
262.4610233476116
 30
0.0
  0
POINT
  5
857
330
783
100
AcDbEntity
  8
DEFPOINTS
  6
BYBLOCK
 62
     0
 48
5.0
100
AcDbPoint
 10
471.7037860647614
 20
262.4610233476116
 30
0.0
  0
ENDBLK
  5
858
330
783
100
AcDbEntity
  8
0
 48
5.0
100
AcDbBlockEnd
  0
BLOCK
  5
841
330
792
100
AcDbEntity
  8
0
 48
5.0
100
AcDbBlockBegin
  2
*D8
 70
     1
 10
0.0
 20
0.0
 30
0.0
  3
*D8
  1

  0
LINE
  5
842
330
792
100
AcDbEntity
  8
0
  6
BYBLOCK
 62
     4
 48
5.0
100
AcDbLine
 10
408.633179355996
 20
304.4644233191193
 30
0.0
 11
492.2959332476389
 21
304.4644233191193
 31
0.0
  0
LINE
  5
843
330
792
100
AcDbEntity
  8
0
  6
BYBLOCK
 62
     4
 48
5.0
100
AcDbLine
 10
428.3564106617705
 20
262.4610233476116
 30
0.0
 11
492.2959332476389
 21
262.4610233476116
 31
0.0
  0
LINE
  5
844
330
792
100
AcDbEntity
  8
0
  6
BYBLOCK
 62
     4
 48
5.0
100
AcDbLine
 10
489.2959332476388
 20
297.4644233191193
 30
0.0
 11
489.2959332476388
 21
269.4610233476116
 31
0.0
  0
INSERT
  5
845
330
792
100
AcDbEntity
  8
0
  6
BYBLOCK
 62
     4
 48
5.0
100
AcDbBlockReference
  2
_OPEN
 10
489.2959332476388
 20
304.4644233191193
 30
0.0
 41
7.0
 42
7.0
 43
7.0
 50
90.0
  0
INSERT
  5
846
330
792
100
AcDbEntity
  8
0
  6
BYBLOCK
 62
     4
 48
5.0
100
AcDbBlockReference
  2
_OPEN
 10
489.2959332476388
 20
262.4610233476116
 30
0.0
 41
7.0
 42
7.0
 43
7.0
 50
270.0
  0
MTEXT
  5
847
330
792
100
AcDbEntity
  8
0
  6
BYBLOCK
 62
     4
 48
5.0
100
AcDbMText
 10
484.2959332476389
 20
283.4627233333654
 30
0.0
 40
6.0
 41
0.0
 71
     5
 72
     1
  1
\A1;42
 11
0.0
 21
1.0
 31
0.0
1001
ACAD
1000
MTEXTBEGIN
1070
    73
1070
     1
1070
    44
1040
1.0
1070
    74
1070
     0
1000
MTEXTEND
1000
MTEXTBEGIN
1070
    73
1070
     1
1070
    44
1040
1.0
1070
    74
1070
     0
1000
MTEXTEND
1000
MTEXTBEGIN
1070
    73
1070
     1
1070
    44
1040
1.0
1070
    74
1070
     0
1000
MTEXTEND
  0
POINT
  5
848
330
792
100
AcDbEntity
  8
DEFPOINTS
  6
BYBLOCK
 62
     0
 48
5.0
100
AcDbPoint
 10
402.633179355996
 20
304.4644233191193
 30
0.0
  0
POINT
  5
849
330
792
100
AcDbEntity
  8
DEFPOINTS
  6
BYBLOCK
 62
     0
 48
5.0
100
AcDbPoint
 10
422.3564106617705
 20
262.4610233476116
 30
0.0
  0
POINT
  5
84A
330
792
100
AcDbEntity
  8
DEFPOINTS
  6
BYBLOCK
 62
     0
 48
5.0
100
AcDbPoint
 10
489.2959332476388
 20
262.4610233476116
 30
0.0
  0
ENDBLK
  5
84B
330
792
100
AcDbEntity
  8
0
 48
5.0
100
AcDbBlockEnd
  0
BLOCK
  5
820
330
7FD
100
AcDbEntity
  8
0
 48
5.0
100
AcDbBlockBegin
  2
*D9
 70
     1
 10
0.0
 20
0.0
 30
0.0
  3
*D9
  1

  0
LINE
  5
821
330
7FD
100
AcDbEntity
  8
0
  6
BYBLOCK
 62
     4
 48
5.0
100
AcDbLine
 10
677.6108434700092
 20
359.4610195271499
 30
0.0
 11
677.6108434700092
 21
321.8493364201442
 31
0.0
  0
LINE
  5
822
330
7FD
100
AcDbEntity
  8
0
  6
BYBLOCK
 62
     4
 48
5.0
100
AcDbLine
 10
616.6108434701039
 20
359.4611271111139
 30
0.0
 11
616.6108434701039
 21
321.8493364201442
 31
0.0
  0
LINE
  5
823
330
7FD
100
AcDbEntity
  8
0
  6
BYBLOCK
 62
     4
 48
5.0
100
AcDbLine
 10
670.6108434700093
 20
324.8493364201442
 30
0.0
 11
623.610843470104
 21
324.8493364201442
 31
0.0
  0
INSERT
  5
824
330
7FD
100
AcDbEntity
  8
0
  6
BYBLOCK
 62
     4
 48
5.0
100
AcDbBlockReference
  2
_OPEN
 10
677.6108434700092
 20
324.8493364201442
 30
0.0
 41
7.0
 42
7.0
 43
7.0
  0
INSERT
  5
825
330
7FD
100
AcDbEntity
  8
0
  6
BYBLOCK
 62
     4
 48
5.0
100
AcDbBlockReference
  2
_OPEN
 10
616.6108434701039
 20
324.8493364201442
 30
0.0
 41
7.0
 42
7.0
 43
7.0
 50
180.0
  0
MTEXT
  5
826
330
7FD
100
AcDbEntity
  8
0
  6
BYBLOCK
 62
     4
 48
5.0
100
AcDbMText
 10
647.1108434700566
 20
329.8493364201442
 30
0.0
 40
6.0
 41
0.0
 71
     5
 72
     1
  1
\A1;穴径 φ61
1001
ACAD
1000
MTEXTBEGIN
1070
    73
1070
     1
1070
    44
1040
1.0
1070
    74
1070
     0
1000
MTEXTEND
1000
MTEXTBEGIN
1070
    73
1070
     1
1070
    44
1040
1.0
1070
    74
1070
     0
1000
MTEXTEND
1000
MTEXTBEGIN
1070
    73
1070
     1
1070
    44
1040
1.0
1070
    74
1070
     0
1000
MTEXTEND
  0
POINT
  5
827
330
7FD
100
AcDbEntity
  8
DEFPOINTS
  6
BYBLOCK
 62
     0
 48
5.0
100
AcDbPoint
 10
677.6108434700092
 20
365.4610195271499
 30
0.0
  0
POINT
  5
828
330
7FD
100
AcDbEntity
  8
DEFPOINTS
  6
BYBLOCK
 62
     0
 48
5.0
100
AcDbPoint
 10
616.6108434701039
 20
365.4611271111139
 30
0.0
  0
POINT
  5
829
330
7FD
100
AcDbEntity
  8
DEFPOINTS
  6
BYBLOCK
 62
     0
 48
5.0
100
AcDbPoint
 10
616.6108434701039
 20
324.8493364201442
 30
0.0
  0
ENDBLK
  5
82A
330
7FD
100
AcDbEntity
  8
0
 48
5.0
100
AcDbBlockEnd
  0
BLOCK
  5
833
330
832
100
AcDbEntity
  8
0
 48
5.0
100
AcDbBlockBegin
  2
*D10
 70
     1
 10
0.0
 20
0.0
 30
0.0
  3
*D10
  1

  0
LINE
  5
834
330
832
100
AcDbEntity
  8
0
  6
BYBLOCK
 62
     4
 48
5.0
100
AcDbLine
 10
435.017579355996
 20
284.4610233191194
 30
0.0
 11
456.2901166043778
 21
284.4610233191194
 31
0.0
  0
LINE
  5
835
330
832
100
AcDbEntity
  8
0
  6
BYBLOCK
 62
     4
 48
5.0
100
AcDbLine
 10
439.0175793559959
 20
282.4610233191194
 30
0.0
 11
456.2901166043778
 21
282.4610233191194
 31
0.0
  0
LINE
  5
836
330
832
100
AcDbEntity
  8
0
  6
BYBLOCK
 62
     4
 48
5.0
100
AcDbLine
 10
453.2901166043778
 20
275.4610233191194
 30
0.0
 11
453.2901166043778
 21
268.4610233191194
 31
0.0
  0
LINE
  5
837
330
832
100
AcDbEntity
  8
0
  6
BYBLOCK
 62
     4
 48
5.0
100
AcDbLine
 10
453.2901166043778
 20
291.4610233191194
 30
0.0
 11
453.2901166043778
 21
301.4610233191194
 31
0.0
  0
LINE
  5
838
330
832
100
AcDbEntity
  8
0
  6
BYBLOCK
 62
     4
 48
5.0
100
AcDbLine
 10
453.2901166043778
 20
282.4610233191194
 30
0.0
 11
453.2901166043778
 21
284.4610233191194
 31
0.0
  0
INSERT
  5
839
330
832
100
AcDbEntity
  8
0
  6
BYBLOCK
 62
     4
 48
5.0
100
AcDbBlockReference
  2
_OPEN
 10
453.2901166043778
 20
282.4610233191194
 30
0.0
 41
7.0
 42
7.0
 43
7.0
 50
90.0
  0
INSERT
  5
83A
330
832
100
AcDbEntity
  8
0
  6
BYBLOCK
 62
     4
 48
5.0
100
AcDbBlockReference
  2
_OPEN
 10
453.2901166043778
 20
284.4610233191194
 30
0.0
 41
7.0
 42
7.0
 43
7.0
 50
270.0
  0
MTEXT
  5
83B
330
832
100
AcDbEntity
  8
0
  6
BYBLOCK
 62
     4
 48
5.0
100
AcDbMText
 10
448.2901166043778
 20
297.4610233191194
 30
0.0
 40
6.0
 41
0.0
 71
     5
 72
     1
  1
\A1;2
 11
0.0
 21
1.0
 31
0.0
1001
ACAD
1000
MTEXTBEGIN
1070
    73
1070
     1
1070
    44
1040
1.0
1070
    74
1070
     0
1000
MTEXTEND
1000
MTEXTBEGIN
1070
    73
1070
     1
1070
    44
1040
1.0
1070
    74
1070
     0
1000
MTEXTEND
1000
MTEXTBEGIN
1070
    73
1070
     1
1070
    44
1040
1.0
1070
    74
1070
     0
1000
MTEXTEND
  0
POINT
  5
83C
330
832
100
AcDbEntity
  8
DEFPOINTS
  6
BYBLOCK
 62
     0
 48
5.0
100
AcDbPoint
 10
429.017579355996
 20
284.4610233191194
 30
0.0
  0
POINT
  5
83D
330
832
100
AcDbEntity
  8
DEFPOINTS
  6
BYBLOCK
 62
     0
 48
5.0
100
AcDbPoint
 10
433.0175793559958
 20
282.4610233191194
 30
0.0
  0
POINT
  5
83E
330
832
100
AcDbEntity
  8
DEFPOINTS
  6
BYBLOCK
 62
     0
 48
5.0
100
AcDbPoint
 10
453.2901166043778
 20
282.4610233191194
 30
0.0
  0
ENDBLK
  5
83F
330
832
100
AcDbEntity
  8
0
 48
5.0
100
AcDbBlockEnd
  0
BLOCK
  5
88B
330
85D
100
AcDbEntity
  8
0
 48
5.0
100
AcDbBlockBegin
  2
*D11
 70
     1
 10
0.0
 20
0.0
 30
0.0
  3
*D11
  1

  0
LINE
  5
88C
330
85D
100
AcDbEntity
  8
0
  6
BYBLOCK
 62
     4
 48
5.0
100
AcDbLine
 10
208.8149607017137
 20
183.6610233191194
 30
0.0
 11
208.8149607017137
 21
161.1328792131844
 31
0.0
  0
LINE
  5
88D
330
85D
100
AcDbEntity
  8
0
  6
BYBLOCK
 62
     4
 48
5.0
100
AcDbLine
 10
150.4147607017137
 20
183.6611233191193
 30
0.0
 11
150.4147607017137
 21
161.1328792131844
 31
0.0
  0
LINE
  5
88E
330
85D
100
AcDbEntity
  8
0
  6
BYBLOCK
 62
     4
 48
5.0
100
AcDbLine
 10
201.8149607017136
 20
164.1328792131844
 30
0.0
 11
157.4147607017137
 21
164.1328792131844
 31
0.0
  0
INSERT
  5
88F
330
85D
100
AcDbEntity
  8
0
  6
BYBLOCK
 62
     4
 48
5.0
100
AcDbBlockReference
  2
_OPEN
 10
208.8149607017137
 20
164.1328792131844
 30
0.0
 41
7.0
 42
7.0
 43
7.0
  0
INSERT
  5
890
330
85D
100
AcDbEntity
  8
0
  6
BYBLOCK
 62
     4
 48
5.0
100
AcDbBlockReference
  2
_OPEN
 10
150.4147607017137
 20
164.1328792131844
 30
0.0
 41
7.0
 42
7.0
 43
7.0
 50
180.0
  0
MTEXT
  5
891
330
85D
100
AcDbEntity
  8
0
  6
BYBLOCK
 62
     4
 48
5.0
100
AcDbMText
 10
179.6148607017137
 20
169.1328792131844
 30
0.0
 40
6.0
 41
0.0
 71
     5
 72
     1
  1
\A1;φ58
1001
ACAD
1000
MTEXTBEGIN
1070
    73
1070
     1
1070
    44
1040
1.0
1070
    74
1070
     0
1000
MTEXTEND
1000
MTEXTBEGIN
1070
    73
1070
     1
1070
    44
1040
1.0
1070
    74
1070
     0
1000
MTEXTEND
1000
MTEXTBEGIN
1070
    73
1070
     1
1070
    44
1040
1.0
1070
    74
1070
     0
1000
MTEXTEND
  0
POINT
  5
892
330
85D
100
AcDbEntity
  8
DEFPOINTS
  6
BYBLOCK
 62
     0
 48
5.0
100
AcDbPoint
 10
208.8149607017137
 20
189.6610233191194
 30
0.0
  0
POINT
  5
893
330
85D
100
AcDbEntity
  8
DEFPOINTS
  6
BYBLOCK
 62
     0
 48
5.0
100
AcDbPoint
 10
150.4147607017137
 20
189.6611233191193
 30
0.0
  0
POINT
  5
894
330
85D
100
AcDbEntity
  8
DEFPOINTS
  6
BYBLOCK
 62
     0
 48
5.0
100
AcDbPoint
 10
150.4147607017137
 20
164.1328792131844
 30
0.0
  0
ENDBLK
  5
895
330
85D
100
AcDbEntity
  8
0
 48
5.0
100
AcDbBlockEnd
  0
BLOCK
  5
91A
330
910
100
AcDbEntity
  8
0
 48
5.0
100
AcDbBlockBegin
  2
*D12
 70
     1
 10
0.0
 20
0.0
 30
0.0
  3
*D12
  1

  0
LINE
  5
91C
330
910
100
AcDbEntity
  8
SUNPOU
  6
CONTINUOUS
 62
     4
 48
5.0
100
AcDbLine
 10
680.8892733386326
 20
91.99069460861705
 30
0.0
 11
680.8892733386326
 21
54.37901150161133
 31
0.0
  0
LINE
  5
91D
330
910
100
AcDbEntity
  8
SUNPOU
  6
CONTINUOUS
 62
     4
 48
5.0
100
AcDbLine
 10
619.8892733387273
 20
91.99080219258098
 30
0.0
 11
619.8892733387273
 21
54.37901150161133
 31
0.0
  0
LINE
  5
91E
330
910
100
AcDbEntity
  8
SUNPOU
  6
CONTINUOUS
 62
     4
 48
5.0
100
AcDbLine
 10
673.8892733386326
 20
57.37901150161133
 30
0.0
 11
626.8892733387273
 21
57.37901150161133
 31
0.0
  0
INSERT
  5
91F
330
910
100
AcDbEntity
  8
SUNPOU
  6
CONTINUOUS
 62
     4
 48
5.0
100
AcDbBlockReference
  2
_OPEN
 10
680.8892733386326
 20
57.37901150161133
 30
0.0
 41
7.0
 42
7.0
 43
7.0
  0
INSERT
  5
920
330
910
100
AcDbEntity
  8
SUNPOU
  6
CONTINUOUS
 62
     4
 48
5.0
100
AcDbBlockReference
  2
_OPEN
 10
619.8892733387273
 20
57.37901150161133
 30
0.0
 41
7.0
 42
7.0
 43
7.0
 50
180.0
  0
MTEXT
  5
921
330
910
100
AcDbEntity
  8
SUNPOU
  6
CONTINUOUS
 62
     4
 48
5.0
100
AcDbMText
 10
650.3892733386798
 20
62.37901150161133
 30
0.0
 40
6.0
 41
0.0
 71
     5
 72
     1
  1
\A1;穴径 φ61
1001
ACAD
1000
MTEXTBEGIN
1070
    73
1070
     1
1070
    44
1040
1.0
1070
    74
1070
     0
1000
MTEXTEND
  0
POINT
  5
922
330
910
100
AcDbEntity
  8
DEFPOINTS
  6
CONTINUOUS
 62
     0
 48
5.0
100
AcDbPoint
 10
680.8892733386326
 20
97.99069460861705
 30
0.0
  0
POINT
  5
923
330
910
100
AcDbEntity
  8
DEFPOINTS
  6
CONTINUOUS
 62
     0
 48
5.0
100
AcDbPoint
 10
619.8892733387273
 20
97.99080219258099
 30
0.0
  0
POINT
  5
924
330
910
100
AcDbEntity
  8
DEFPOINTS
  6
CONTINUOUS
 62
     0
 48
5.0
100
AcDbPoint
 10
619.8892733387273
 20
57.37901150161133
 30
0.0
  0
ENDBLK
  5
91B
330
910
100
AcDbEntity
  8
0
 48
5.0
100
AcDbBlockEnd
  0
ENDSEC
  0
SECTION
  2
ENTITIES
  0
TEXT
  5
11A
330
1A
100
AcDbEntity
  8
ZUWAKU
 62
     7
 48
10.0
100
AcDbText
 10
795.5579444309237
 20
4.974918402528146
 30
0.0
 40
8.0
  1
A1
100
AcDbText
  0
LINE
  5
11B
330
1A
100
AcDbEntity
  8
ZUWAKU
 62
     7
 48
10.0
100
AcDbLine
 10
10.05047808566086
 20
25.78258628282265
 30
0.0
 11
806.0504780856609
 21
25.78258628282253
 31
0.0
  0
LINE
  5
11C
330
1A
100
AcDbEntity
  8
ZUWAKU
  6
CONTINUOUS
 62
     7
100
AcDbLine
 10
806.0504780856609
 20
563.7825862828226
 30
0.0
 11
10.05047808566086
 21
563.7825862828226
 31
0.0
  0
LINE
  5
11D
330
1A
100
AcDbEntity
  8
ZUWAKU
  6
CONTINUOUS
 62
     7
100
AcDbLine
 10
806.0504780856609
 20
13.78258628282265
 30
0.0
 11
10.05047808566086
 21
13.78258628282265
 31
0.0
  0
LINE
  5
11E
330
1A
100
AcDbEntity
  8
ZUWAKU
  6
CONTINUOUS
 62
     7
100
AcDbLine
 10
10.05047808566086
 20
563.7825862828226
 30
0.0
 11
10.05047808566086
 21
13.78258628282265
 31
0.0
  0
LINE
  5
11F
330
1A
100
AcDbEntity
  8
ZUWAKU
 62
     7
 48
10.0
100
AcDbLine
 10
44.55797523147839
 20
13.78258628282265
 30
0.0
 11
44.5579752314784
 21
25.78258628282265
 31
0.0
  0
TEXT
  5
120
330
1A
100
AcDbEntity
  8
ZUWAKU
 62
     7
100
AcDbText
 10
16.05676551180931
 20
15.52294263804401
 30
0.0
 40
8.0
  1
品 種
100
AcDbText
  0
LINE
  5
121
330
1A
100
AcDbEntity
  8
ZUWAKU
 62
     7
 48
10.0
100
AcDbLine
 10
276.1028387068254
 20
13.78258628282265
 30
0.0
 11
276.1028387068254
 21
25.78258628282261
 31
0.0
  0
LINE
  5
122
330
1A
100
AcDbEntity
  8
ZUWAKU
 62
     7
 48
10.0
100
AcDbLine
 10
209.5138526425484
 20
13.78258628282265
 30
0.0
 11
209.5138526425485
 21
25.78258628282263
 31
0.0
  0
TEXT
  5
124
330
1A
100
AcDbEntity
  8
ZUWAKU
 62
     7
100
AcDbText
 10
215.4560837190756
 20
16.18358115302453
 30
0.0
 40
8.0
  1
品名・ｻ ｲ ｽﾞ
100
AcDbText
  0
LINE
  5
126
330
1A
100
AcDbEntity
  8
ZUWAKU
 62
     7
 48
10.0
100
AcDbLine
 10
768.7231079932794
 20
13.78258628282237
 30
0.0
 11
768.7231079932794
 21
25.78258628282254
 31
0.0
  0
LINE
  5
127
330
1A
100
AcDbEntity
  8
ZUWAKU
 62
     7
 48
10.0
100
AcDbLine
 10
733.8119002376948
 20
13.78258628282242
 30
0.0
 11
733.8119002376946
 21
25.78258628282254
 31
0.0
  0
TEXT
  5
128
330
1A
100
AcDbEntity
  8
ZUWAKU
 62
     7
100
AcDbText
 10
739.6955629973526
 20
15.24227755810852
 30
0.0
 40
8.0
  1
尺 度
100
AcDbText
  0
TEXT
  5
129
330
1A
100
AcDbEntity
  8
ZUWAKU
 62
     7
100
AcDbText
 10
779.7374630323229
 20
15.55488920081529
 30
0.0
 40
8.0
  1
1/2
100
AcDbText
  0
TEXT
  5
12B
330
1A
100
AcDbEntity
  8
ZUWAKU
 62
     7
100
AcDbText
 10
620.3363288383084
 20
15.6519090944263
 30
0.0
 40
8.0
  1
品 番
100
AcDbText
  0
LINE
  5
12C
330
1A
100
AcDbEntity
  8
ZUWAKU
 62
     7
 48
10.0
100
AcDbLine
 10
614.3351028194128
 20
13.78258628282232
 30
0.0
 11
614.3351028194128
 21
25.78258628282256
 31
0.0
  0
LINE
  5
12D
330
1A
100
AcDbEntity
  8
ZUWAKU
 62
     7
 48
10.0
100
AcDbLine
 10
648.7607587371021
 20
13.78258628282232
 30
0.0
 11
648.7607587371021
 21
25.78258628282255
 31
0.0
  0
TEXT
  5
12E
330
1A
100
AcDbEntity
  8
ZUWAKU
 62
     7
 48
10.0
100
AcDbText
 10
646.2758615931216
 20
4.949376903717848
 30
0.0
 40
8.0
  1
積水化学工業株式会社  建材
100
AcDbText
  0
LINE
  5
12F
330
1A
100
AcDbEntity
  8
ZUWAKU
  6
CONTINUOUS
 62
     7
100
AcDbLine
 10
806.0504780856609
 20
563.7825862828226
 30
0.0
 11
806.0504780856609
 21
13.78258628282265
 31
0.0
  0
TEXT
  5
356
330
1A
100
AcDbEntity
  8
ZUWAKU
 62
     7
100
AcDbText
 10
50.3519382305086
 20
16.10306189639755
 30
0.0
 40
8.0
  1
自在ドレン
100
AcDbText
  0
TEXT
  5
358
330
1A
100
AcDbEntity
  8
ZUWAKU
 62
     7
100
AcDbText
 10
282.3131429914078
 20
15.64241700452384
 30
0.0
 40
8.0
  1
ロング　ＵＴ６０
100
AcDbText
  0
LINE
  5
362
330
1A
100
AcDbEntity
  8
CENTER_L
 48
5.0
100
AcDbLine
 10
394.006479355996
 20
279.1079233191193
 30
0.0
 11
394.0064359046853
 21
225.4610233476116
 31
0.0
  0
ARC
  5
399
330
1A
100
AcDbEntity
  8
SEIHIN
  6
CONTINUOUS
100
AcDbCircle
 10
414.4676521950488
 20
260.8498712824222
 30
0.0
 40
4.50002716120279
100
AcDbArc
 50
359.9993893159465
 51
59.04393031739582
  0
LINE
  5
39C
330
1A
100
AcDbEntity
  8
SEIHIN
  6
CONTINUOUS
100
AcDbLine
 10
394.017579355996
 20
252.4610233191194
 30
0.0
 11
433.0175793559958
 21
252.4610233191194
 31
0.0
  0
LINE
  5
39D
330
1A
100
AcDbEntity
  8
SEIHIN
  6
CONTINUOUS
100
AcDbLine
 10
394.017579355996
 20
253.4610233191194
 30
0.0
 11
433.0175793559958
 21
253.4610233191194
 31
0.0
  0
LINE
  5
39E
330
1A
100
AcDbEntity
  8
SEIHIN
  6
CONTINUOUS
100
AcDbLine
 10
394.006479355996
 20
254.4610233191194
 30
0.0
 11
418.967679355996
 21
254.4610233191194
 31
0.0
  0
LINE
  5
39F
330
1A
100
AcDbEntity
  8
SEIHIN
  6
CONTINUOUS
100
AcDbLine
 10
405.2050793559959
 20
273.7522233191193
 30
0.0
 11
418.3395793559959
 21
265.8738233191193
 31
0.0
  0
ARC
  5
3A6
330
1A
100
AcDbEntity
  8
SEIHIN
  6
CONTINUOUS
100
AcDbCircle
 10
385.4022976921683
 20
269.4645283966245
 30
0.0
 40
4.999994922528492
100
AcDbArc
 50
90.00021011727085
 51
120.9563022405606
  0
ARC
  5
3A7
330
1A
100
AcDbEntity
  8
SEIHIN
  6
CONTINUOUS
100
AcDbCircle
 10
385.7622361150689
 20
268.1645390363964
 30
0.0
 40
4.499984283080876
100
AcDbArc
 50
90.00072268148526
 51
120.9568366028322
  0
LINE
  5
3A9
330
1A
100
AcDbEntity
  8
SEIHIN
  6
CONTINUOUS
100
AcDbLine
 10
394.017579355996
 20
252.4610233191194
 30
0.0
 11
355.017579355996
 21
252.4612233191193
 31
0.0
  0
LINE
  5
3AA
330
1A
100
AcDbEntity
  8
SEIHIN
  6
CONTINUOUS
100
AcDbLine
 10
394.017579355996
 20
253.4610233191194
 30
0.0
 11
355.017579355996
 21
253.4612233191193
 31
0.0
  0
LINE
  5
3AB
330
1A
100
AcDbEntity
  8
SEIHIN
  6
CONTINUOUS
100
AcDbLine
 10
369.067679355996
 20
254.4611233191192
 30
0.0
 11
394.006479355996
 21
254.4610233191194
 31
0.0
  0
LINE
  5
3AC
330
1A
100
AcDbEntity
  8
SEIHIN
  6
CONTINUOUS
100
AcDbLine
 10
382.830379355996
 20
273.7523233191192
 30
0.0
 11
369.6957793559959
 21
265.8739233191192
 31
0.0
  0
LINE
  5
3AD
330
1A
100
AcDbEntity
  8
SEIHIN
  6
CONTINUOUS
100
AcDbLine
 10
383.447479355996
 20
272.0235233191193
 30
0.0
 11
371.252979355996
 21
264.7089233191193
 31
0.0
  0
ARC
  5
3AE
330
1A
100
AcDbEntity
  8
SEIHIN
  6
CONTINUOUS
100
AcDbCircle
 10
372.2676742784908
 20
261.5861143526774
 30
0.0
 40
4.999994922502762
100
AcDbArc
 50
120.9559893753297
 51
179.9998972520397
  0
ARC
  5
3AF
330
1A
100
AcDbEntity
  8
SEIHIN
  6
CONTINUOUS
100
AcDbCircle
 10
365.2675793559959
 20
256.4611233191192
 30
0.0
 40
2.0
100
AcDbArc
 50
270.0
 51
0.0
  0
LINE
  5
3B0
330
1A
100
AcDbEntity
  8
SEIHIN
  6
CONTINUOUS
100
AcDbLine
 10
359.017579355996
 20
254.4612233191193
 30
0.0
 11
369.067679355996
 21
254.4611233191192
 31
0.0
  0
LINE
  5
3B1
330
1A
100
AcDbEntity
  8
SEIHIN
  6
CONTINUOUS
100
AcDbLine
 10
355.028679355996
 20
252.4612233191193
 30
0.0
 11
355.028679355996
 21
253.4612233191193
 31
0.0
  0
LINE
  5
3B2
330
1A
100
AcDbEntity
  8
SEIHIN
  6
CONTINUOUS
100
AcDbLine
 10
359.017579355996
 20
254.4612233191193
 30
0.0
 11
355.090779355996
 21
253.4612233191193
 31
0.0
  0
LINE
  5
3B5
330
1A
100
AcDbEntity
  8
SEIHIN
  6
CONTINUOUS
100
AcDbLine
 10
367.267679355996
 20
261.5861233191194
 30
0.0
 11
367.2675793559959
 21
256.4611233191192
 31
0.0
  0
LINE
  5
3B6
330
1A
100
AcDbEntity
  8
SEIHIN
  6
CONTINUOUS
100
AcDbLine
 10
369.067679355996
 20
254.4588233191193
 30
0.0
 11
369.067679355996
 21
260.8499233191192
 31
0.0
  0
ARC
  5
3B7
330
1A
100
AcDbEntity
  8
SEIHIN
  6
CONTINUOUS
100
AcDbCircle
 10
373.5677322359303
 20
260.850016701454
 30
0.0
 40
4.500052880903155
100
AcDbArc
 50
120.9577398284917
 51
180.0011889668432
  0
LINE
  5
3BA
330
1A
100
AcDbEntity
  8
SEIHIN
  6
CONTINUOUS
100
AcDbLine
 10
391.0175793559959
 20
254.4587233191193
 30
0.0
 11
391.017679355996
 21
274.4587233191194
 31
0.0
  0
LINE
  5
3BB
330
1A
100
AcDbEntity
  8
SEIHIN
  6
CONTINUOUS
100
AcDbLine
 10
397.0175793559959
 20
254.4587233191193
 30
0.0
 11
397.017679355996
 21
274.4587233191194
 31
0.0
  0
LINE
  5
3BC
330
1A
100
AcDbEntity
  8
SEIHIN
  6
CONTINUOUS
100
AcDbLine
 10
404.587879355996
 20
272.0234233191194
 30
0.0
 11
416.782479355996
 21
264.7089233191193
 31
0.0
  0
LINE
  5
3BD
330
1A
100
AcDbEntity
  8
SEIHIN
  6
CONTINUOUS
100
AcDbLine
 10
394.017679355996
 20
274.4644233191193
 30
0.0
 11
402.633179355996
 21
274.4644233191193
 31
0.0
  0
LINE
  5
3BE
330
1A
100
AcDbEntity
  8
SEIHIN
  6
CONTINUOUS
100
AcDbLine
 10
397.017679355996
 20
272.6644233191192
 30
0.0
 11
402.2731793559959
 21
272.6644233191192
 31
0.0
  0
LINE
  5
3BF
330
1A
100
AcDbEntity
  8
SEIHIN
  6
CONTINUOUS
100
AcDbLine
 10
391.017679355996
 20
274.4587233191194
 30
0.0
 11
394.017679355996
 21
274.4587233191194
 31
0.0
  0
LINE
  5
3C0
330
1A
100
AcDbEntity
  8
SEIHIN
  6
CONTINUOUS
100
AcDbLine
 10
394.017679355996
 20
274.4644233191193
 30
0.0
 11
385.402279355996
 21
274.4645233191194
 31
0.0
  0
LINE
  5
3C1
330
1A
100
AcDbEntity
  8
SEIHIN
  6
CONTINUOUS
100
AcDbLine
 10
391.017679355996
 20
272.6644233191192
 30
0.0
 11
385.762179355996
 21
272.6645233191193
 31
0.0
  0
LINE
  5
3C2
330
1A
100
AcDbEntity
  8
SEIHIN
  6
CONTINUOUS
100
AcDbLine
 10
397.017679355996
 20
274.4587233191194
 30
0.0
 11
394.017679355996
 21
274.4587233191194
 31
0.0
  0
ARC
  5
3C3
330
1A
100
AcDbEntity
  8
SEIHIN
  6
CONTINUOUS
100
AcDbCircle
 10
402.6331610198237
 20
269.4644283966246
 30
0.0
 40
4.999994922528313
100
AcDbArc
 50
59.04369775944012
 51
89.99978988272955
  0
ARC
  5
3C4
330
1A
100
AcDbEntity
  8
SEIHIN
  6
CONTINUOUS
100
AcDbCircle
 10
402.2731225969236
 20
268.1644390363962
 30
0.0
 40
4.499984283081003
100
AcDbArc
 50
59.04316339717527
 51
89.99927731852251
  0
ARC
  5
3CE
330
1A
100
AcDbEntity
  8
SEIHIN
  6
CONTINUOUS
100
AcDbCircle
 10
422.767679355996
 20
256.4610233191194
 30
0.0
 40
2.0
100
AcDbArc
 50
180.0
 51
270.0
  0
LINE
  5
3CF
330
1A
100
AcDbEntity
  8
SEIHIN
  6
CONTINUOUS
100
AcDbLine
 10
418.967679355996
 20
254.4587233191193
 30
0.0
 11
418.967679355996
 21
260.8498233191193
 31
0.0
  0
LINE
  5
3D0
330
1A
100
AcDbEntity
  8
SEIHIN
  6
CONTINUOUS
100
AcDbLine
 10
429.017579355996
 20
254.4610233191194
 30
0.0
 11
418.967679355996
 21
254.4610233191194
 31
0.0
  0
LINE
  5
3D1
330
1A
100
AcDbEntity
  8
SEIHIN
  6
CONTINUOUS
100
AcDbLine
 10
422.767579355996
 20
254.4610233191194
 30
0.0
 11
429.017579355996
 21
254.4610233191194
 31
0.0
  0
LINE
  5
3D3
330
1A
100
AcDbEntity
  8
SEIHIN
  6
CONTINUOUS
100
AcDbLine
 10
433.006579355996
 20
252.4610233191194
 30
0.0
 11
433.006579355996
 21
253.4610233191194
 31
0.0
  0
LINE
  5
3D4
330
1A
100
AcDbEntity
  8
SEIHIN
  6
CONTINUOUS
100
AcDbLine
 10
429.017579355996
 20
254.4610233191194
 30
0.0
 11
432.9444793559958
 21
253.4610233191194
 31
0.0
  0
ARC
  5
3D5
330
1A
100
AcDbEntity
  8
SEIHIN
  6
CONTINUOUS
100
AcDbCircle
 10
415.7676844335012
 20
261.5860143526774
 30
0.0
 40
4.999994922502875
100
AcDbArc
 50
0.0001027479604945
 51
59.04401062467107
  0
LINE
  5
3D6
330
1A
100
AcDbEntity
  8
SEIHIN
  6
CONTINUOUS
100
AcDbLine
 10
420.767679355996
 20
261.5860233191194
 30
0.0
 11
420.767679355996
 21
256.4610233191194
 31
0.0
  0
LINE
  5
3EE
330
1A
100
AcDbEntity
  8
CENTER_L
 48
5.0
100
AcDbLine
 10
394.006579355996
 20
416.6610233191193
 30
0.0
 11
344.0065793559959
 21
416.6611233191194
 31
0.0
  0
LINE
  5
3EF
330
1A
100
AcDbEntity
  8
SEIHIN
  6
CONTINUOUS
 62
     3
100
AcDbLine
 10
397.006579355996
 20
420.6610233191193
 30
0.0
 11
397.006579355996
 21
445.0027233191193
 31
0.0
  0
LINE
  5
3F0
330
1A
100
AcDbEntity
  8
SEIHIN
  6
CONTINUOUS
 62
     3
100
AcDbLine
 10
391.006579355996
 20
420.6610233191193
 30
0.0
 11
391.006679355996
 21
445.0027233191193
 31
0.0
  0
ARC
  5
3F1
330
1A
100
AcDbEntity
  8
SEIHIN
  6
CONTINUOUS
 62
     3
100
AcDbCircle
 10
394.006579355996
 20
416.6610233191193
 30
0.0
 40
27.0
100
AcDbArc
 50
0.0
 51
180.0
  0
ARC
  5
3F2
330
1A
100
AcDbEntity
  8
SEIHIN
  6
CONTINUOUS
 62
     3
100
AcDbCircle
 10
394.0065793380051
 20
416.6609733191193
 30
0.0
 40
39.00000001802293
100
AcDbArc
 50
0.0000734561275285
 51
359.9999265438724
  0
ARC
  5
3F5
330
1A
100
AcDbEntity
  8
SEIHIN
  6
CONTINUOUS
 62
     3
100
AcDbCircle
 10
394.0065793572633
 20
416.6609733191193
 30
0.0
 40
34.99999999876843
100
AcDbArc
 50
0.0000818511135725
 51
359.9999181488864
  0
ARC
  5
3F6
330
1A
100
AcDbEntity
  8
SEIHIN
  6
CONTINUOUS
 62
     3
100
AcDbCircle
 10
394.0065793380051
 20
416.6609733191193
 30
0.0
 40
39.00000001802293
100
AcDbArc
 50
0.0000734561275285
 51
359.9999265438724
  0
LINE
  5
3F7
330
1A
100
AcDbEntity
  8
CENTER_L
 48
5.0
100
AcDbLine
 10
394.006479355996
 20
372.3411233191193
 30
0.0
 11
394.006779355996
 21
466.6611233191194
 31
0.0
  0
LINE
  5
3F8
330
1A
100
AcDbEntity
  8
SEIHIN
  6
CONTINUOUS
 62
     3
100
AcDbLine
 10
398.006579355996
 20
419.6610233191192
 30
0.0
 11
422.348279355996
 21
419.6610233191192
 31
0.0
  0
LINE
  5
3F9
330
1A
100
AcDbEntity
  8
SEIHIN
  6
CONTINUOUS
 62
     3
100
AcDbLine
 10
398.006579355996
 20
413.6610233191192
 30
0.0
 11
422.348279355996
 21
413.6610233191192
 31
0.0
  0
ARC
  5
3FA
330
1A
100
AcDbEntity
  8
SEIHIN
  6
CONTINUOUS
 62
     3
100
AcDbCircle
 10
394.006579355996
 20
416.6610233191193
 30
0.0
 40
27.0
100
AcDbArc
 50
180.0
 51
0.0
  0
LINE
  5
3FC
330
1A
100
AcDbEntity
  8
CENTER_L
 48
5.0
100
AcDbLine
 10
394.006579355996
 20
416.6610233191193
 30
0.0
 11
444.0066793559958
 21
416.6609233191193
 31
0.0
  0
LINE
  5
3FD
330
1A
100
AcDbEntity
  8
CENTER_L
 48
5.0
100
AcDbLine
 10
394.006579355996
 20
416.6610233191193
 30
0.0
 11
444.0066793559958
 21
416.6609233191193
 31
0.0
  0
LINE
  5
404
330
1A
100
AcDbEntity
  8
SEIHIN
  6
CONTINUOUS
 62
     3
100
AcDbLine
 10
365.6649793559959
 20
413.6611233191194
 30
0.0
 11
390.006579355996
 21
413.6610233191192
 31
0.0
  0
LINE
  5
405
330
1A
100
AcDbEntity
  8
SEIHIN
  6
CONTINUOUS
 62
     3
100
AcDbLine
 10
365.6649793559959
 20
419.6611233191194
 30
0.0
 11
390.006579355996
 21
419.6610233191192
 31
0.0
  0
LINE
  5
408
330
1A
100
AcDbEntity
  8
SEIHIN
  6
CONTINUOUS
 62
     3
100
AcDbLine
 10
391.006579355996
 20
388.3194233191193
 30
0.0
 11
391.006579355996
 21
412.6610233191193
 31
0.0
  0
LINE
  5
409
330
1A
100
AcDbEntity
  8
SEIHIN
  6
CONTINUOUS
 62
     3
100
AcDbLine
 10
397.006579355996
 20
388.3194233191193
 30
0.0
 11
397.006579355996
 21
412.6610233191193
 31
0.0
  0
ARC
  5
40A
330
1A
100
AcDbEntity
  8
SEIHIN
  6
CONTINUOUS
 62
     3
100
AcDbCircle
 10
390.006579355996
 20
420.6610233191192
 30
0.0
 40
1.000000000000056
100
AcDbArc
 50
270.0000000000032
 51
0.0000000000032569
  0
ARC
  5
40B
330
1A
100
AcDbEntity
  8
SEIHIN
  6
CONTINUOUS
 62
     3
100
AcDbCircle
 10
390.006579355996
 20
412.6610233191192
 30
0.0
 40
0.9999999999999431
100
AcDbArc
 50
0.0000000000032569
 51
90.00000000000325
  0
ARC
  5
40C
330
1A
100
AcDbEntity
  8
SEIHIN
  6
CONTINUOUS
 62
     3
100
AcDbCircle
 10
398.006579355996
 20
420.6610233191192
 30
0.0
 40
1.000000000000056
100
AcDbArc
 50
179.9999999999967
 51
269.9999999999967
  0
ARC
  5
40D
330
1A
100
AcDbEntity
  8
SEIHIN
  6
CONTINUOUS
 62
     3
100
AcDbCircle
 10
398.006579355996
 20
412.6610233191192
 30
0.0
 40
0.9999999999999431
100
AcDbArc
 50
89.99999999999674
 51
179.9999999999967
  0
LINE
  5
414
330
1A
100
AcDbEntity
  8
SEIHIN
  6
CONTINUOUS
 62
     3
100
AcDbLine
 10
675.4608006356646
 20
348.4610233191194
 30
0.0
 11
675.4608006356646
 21
350.4610233191194
 31
0.0
  0
LINE
  5
415
330
1A
100
AcDbEntity
  8
SEIHIN
  6
CONTINUOUS
 62
     3
100
AcDbLine
 10
618.7608006356644
 20
348.4610233191194
 30
0.0
 11
618.7608006356644
 21
350.4610233191194
 31
0.0
  0
LINE
  5
419
330
1A
100
AcDbEntity
  8
CENTER_L
 48
5.0
100
AcDbLine
 10
647.1108006356645
 20
341.3213233191192
 30
0.0
 11
647.1109006356646
 21
397.6773233191192
 31
0.0
  0
TEXT
  5
41A
330
1A
100
AcDbEntity
  8
ZUWAKU
 62
     7
100
AcDbText
 10
654.2531733678779
 20
15.90287984531518
 30
0.0
 40
8.0
  1
ＧＮ２９
100
AcDbText
  0
LINE
  5
41E
330
1A
100
AcDbEntity
  8
SEIHIN
  6
CONTINUOUS
 62
     3
100
AcDbLine
 10
681.3589006356644
 20
212.1610233191193
 30
0.0
 11
681.5816006356644
 21
259.1610233191194
 31
0.0
  0
LINE
  5
41F
330
1A
100
AcDbEntity
  8
SEIHIN
  6
CONTINUOUS
 62
     3
100
AcDbLine
 10
612.8626006356644
 20
212.1611233191194
 30
0.0
 11
612.6400006356646
 21
259.1611233191193
 31
0.0
  0
LINE
  5
420
330
1A
100
AcDbEntity
  8
SEIHIN
  6
CONTINUOUS
 62
     3
100
AcDbLine
 10
674.3108006356644
 20
257.6611233191193
 30
0.0
 11
674.6107006356644
 21
189.6610233191194
 31
0.0
  0
LINE
  5
421
330
1A
100
AcDbEntity
  8
SEIHIN
  6
CONTINUOUS
 62
     3
100
AcDbLine
 10
676.3108006356644
 20
255.1611233191193
 30
0.0
 11
676.3108006356644
 21
189.6610233191194
 31
0.0
  0
LINE
  5
422
330
1A
100
AcDbEntity
  8
SEIHIN
  6
CONTINUOUS
 62
     3
100
AcDbLine
 10
683.1107006356644
 20
202.6610233191194
 30
0.0
 11
683.6179006356644
 21
260.2895233191194
 31
0.0
  0
LINE
  5
423
330
1A
100
AcDbEntity
  8
SEIHIN
  6
CONTINUOUS
 62
     3
100
AcDbLine
 10
611.1107006356645
 20
202.6611233191193
 30
0.0
 11
610.6036006356644
 21
260.2896233191192
 31
0.0
  0
LINE
  5
424
330
1A
100
AcDbEntity
  8
SEIHIN
  6
CONTINUOUS
 62
     3
100
AcDbLine
 10
617.9108006356646
 20
255.1611233191193
 30
0.0
 11
617.9107006356646
 21
189.6611233191193
 31
0.0
  0
LINE
  5
425
330
1A
100
AcDbEntity
  8
SEIHIN
  6
CONTINUOUS
 62
     3
100
AcDbLine
 10
619.9108006356643
 20
257.6611233191193
 30
0.0
 11
619.6107006356645
 21
189.6611233191193
 31
0.0
  0
LINE
  5
428
330
1A
100
AcDbEntity
  8
CENTER_L
 48
5.0
100
AcDbLine
 10
647.1108006356645
 20
288.6610233191192
 30
0.0
 11
647.1107006356644
 21
185.7611233191193
 31
0.0
  0
LINE
  5
429
330
1A
100
AcDbEntity
  8
SEIHIN
  6
CONTINUOUS
 62
     3
100
AcDbLine
 10
647.1108006356645
 20
189.6610233191194
 30
0.0
 11
676.3108006356644
 21
189.6610233191194
 31
0.0
  0
LINE
  5
42F
330
1A
100
AcDbEntity
  8
SEIHIN
  6
CONTINUOUS
 62
     3
100
AcDbLine
 10
647.1106006356644
 20
189.6610233191194
 30
0.0
 11
617.9106006356644
 21
189.6611233191193
 31
0.0
  0
LINE
  5
430
330
1A
100
AcDbEntity
  8
SEIHIN
  6
CONTINUOUS
 62
     3
100
AcDbLine
 10
613.0856006356646
 20
203.6480233191193
 30
0.0
 11
612.9149006356644
 21
210.1611233191193
 31
0.0
  0
ARC
  5
431
330
1A
100
AcDbEntity
  8
SEIHIN
  6
CONTINUOUS
 62
     3
100
AcDbCircle
 10
613.5854151874789
 20
203.6611091437174
 30
0.0
 40
0.4999858248098591
100
AcDbArc
 50
181.4997388070885
 51
269.9983324376296
  0
LINE
  5
432
330
1A
100
AcDbEntity
  8
SEIHIN
  6
CONTINUOUS
 62
     3
100
AcDbLine
 10
613.5854006356645
 20
203.1611233191193
 30
0.0
 11
617.9108006356646
 21
203.1611233191193
 31
0.0
  0
LINE
  5
433
330
1A
100
AcDbEntity
  8
SEIHIN
  6
CONTINUOUS
 62
     3
100
AcDbLine
 10
612.1107006356645
 20
198.6611233191193
 30
0.0
 11
617.9107006356646
 21
198.6611233191193
 31
0.0
  0
LINE
  5
434
330
1A
100
AcDbEntity
  8
SEIHIN
  6
CONTINUOUS
 62
     3
100
AcDbLine
 10
615.2107006356644
 20
203.1611233191193
 30
0.0
 11
614.9107006356643
 21
198.6611233191193
 31
0.0
  0
LINE
  5
435
330
1A
100
AcDbEntity
  8
SEIHIN
  6
CONTINUOUS
 62
     3
100
AcDbLine
 10
611.1107006356645
 20
202.6611233191193
 30
0.0
 11
612.1107006356645
 21
198.6611233191193
 31
0.0
  0
LINE
  5
436
330
1A
100
AcDbEntity
  8
SEIHIN
  6
CONTINUOUS
 62
     3
100
AcDbLine
 10
612.8626006356644
 20
212.1611233191194
 30
0.0
 11
617.2067006356646
 21
212.1611233191194
 31
0.0
  0
LINE
  5
437
330
1A
100
AcDbEntity
  8
SEIHIN
  6
CONTINUOUS
 62
     3
100
AcDbLine
 10
612.9149006356644
 20
210.1611233191193
 30
0.0
 11
617.2067006356646
 21
210.1611233191193
 31
0.0
  0
LINE
  5
438
330
1A
100
AcDbEntity
  8
SEIHIN
  6
CONTINUOUS
 62
     3
100
AcDbLine
 10
617.2066006356645
 20
210.1611233191193
 30
0.0
 11
617.2066006356645
 21
212.1611233191194
 31
0.0
  0
LINE
  5
439
330
1A
100
AcDbEntity
  8
SEIHIN
  6
CONTINUOUS
 62
     3
100
AcDbLine
 10
616.6107006356646
 20
210.1611233191193
 30
0.0
 11
616.6107006356646
 21
212.1611233191194
 31
0.0
  0
LINE
  5
43E
330
1A
100
AcDbEntity
  8
SEIHIN
  6
CONTINUOUS
 62
     3
100
AcDbLine
 10
681.1359006356645
 20
203.6479233191193
 30
0.0
 11
681.3065006356644
 21
210.1610233191194
 31
0.0
  0
ARC
  5
43F
330
1A
100
AcDbEntity
  8
SEIHIN
  6
CONTINUOUS
 62
     3
100
AcDbCircle
 10
680.6360373937352
 20
203.661059126555
 30
0.0
 40
0.500035808786696
100
AcDbArc
 50
269.995788137004
 51
358.4946819714537
  0
LINE
  5
440
330
1A
100
AcDbEntity
  8
SEIHIN
  6
CONTINUOUS
 62
     3
100
AcDbLine
 10
680.6360006356644
 20
203.1610233191194
 30
0.0
 11
676.3107006356642
 21
203.1610233191194
 31
0.0
  0
LINE
  5
441
330
1A
100
AcDbEntity
  8
SEIHIN
  6
CONTINUOUS
 62
     3
100
AcDbLine
 10
682.1107006356644
 20
198.6610233191193
 30
0.0
 11
676.3107006356642
 21
198.6610233191193
 31
0.0
  0
LINE
  5
442
330
1A
100
AcDbEntity
  8
SEIHIN
  6
CONTINUOUS
 62
     3
100
AcDbLine
 10
679.0107006356643
 20
203.1610233191194
 30
0.0
 11
679.3107006356642
 21
198.6610233191193
 31
0.0
  0
LINE
  5
443
330
1A
100
AcDbEntity
  8
SEIHIN
  6
CONTINUOUS
 62
     3
100
AcDbLine
 10
683.1107006356644
 20
202.6610233191194
 30
0.0
 11
682.1107006356644
 21
198.6610233191193
 31
0.0
  0
LINE
  5
444
330
1A
100
AcDbEntity
  8
SEIHIN
  6
CONTINUOUS
 62
     3
100
AcDbLine
 10
681.3589006356644
 20
212.1610233191193
 30
0.0
 11
677.0147006356644
 21
212.1610233191193
 31
0.0
  0
LINE
  5
445
330
1A
100
AcDbEntity
  8
SEIHIN
  6
CONTINUOUS
 62
     3
100
AcDbLine
 10
681.3065006356644
 20
210.1610233191194
 30
0.0
 11
677.0147006356644
 21
210.1610233191194
 31
0.0
  0
LINE
  5
446
330
1A
100
AcDbEntity
  8
SEIHIN
  6
CONTINUOUS
 62
     3
100
AcDbLine
 10
677.0148006356643
 20
210.1610233191194
 30
0.0
 11
677.0148006356643
 21
212.1610233191193
 31
0.0
  0
LINE
  5
447
330
1A
100
AcDbEntity
  8
SEIHIN
  6
CONTINUOUS
 62
     3
100
AcDbLine
 10
677.6107006356644
 20
210.1610233191194
 30
0.0
 11
677.6107006356644
 21
212.1610233191193
 31
0.0
  0
LINE
  5
452
330
1A
100
AcDbEntity
  8
SEIHIN
  6
CONTINUOUS
 62
     3
100
AcDbLine
 10
675.4608006356646
 20
348.4610233191194
 30
0.0
 11
618.7608006356644
 21
348.4611233191192
 31
0.0
  0
LINE
  5
453
330
1A
100
AcDbEntity
  8
SEIHIN
  6
CONTINUOUS
 62
     3
100
AcDbLine
 10
647.1108006356645
 20
280.6610233191193
 30
0.0
 11
688.1108006356644
 21
280.6610233191193
 31
0.0
  0
LINE
  5
454
330
1A
100
AcDbEntity
  8
SEIHIN
  6
CONTINUOUS
 62
     3
100
AcDbLine
 10
676.1108006356644
 20
257.6611233191193
 30
0.0
 11
647.1108006356645
 21
257.6611233191193
 31
0.0
  0
LINE
  5
457
330
1A
100
AcDbEntity
  8
SEIHIN
  6
CONTINUOUS
 62
     3
100
AcDbLine
 10
626.0153006356645
 20
274.6168233191193
 30
0.0
 11
626.0153006356645
 21
271.7770233191194
 31
0.0
  0
LINE
  5
458
330
1A
100
AcDbEntity
  8
SEIHIN
  6
CONTINUOUS
 62
     3
100
AcDbLine
 10
623.8503006356645
 20
275.1970233191193
 30
0.0
 11
623.8503006356645
 21
271.1970233191193
 31
0.0
  0
LINE
  5
459
330
1A
100
AcDbEntity
  8
SEIHIN
  6
CONTINUOUS
 62
     3
100
AcDbLine
 10
617.1109006356646
 20
280.6611233191194
 30
0.0
 11
617.1108006356645
 21
258.6611233191193
 31
0.0
  0
LINE
  5
45A
330
1A
100
AcDbEntity
  8
SEIHIN
  6
CONTINUOUS
 62
     3
100
AcDbLine
 10
615.1109006356644
 20
278.6611233191194
 30
0.0
 11
615.1109006356644
 21
265.3611233191194
 31
0.0
  0
ARC
  5
45B
330
1A
100
AcDbEntity
  8
SEIHIN
  6
CONTINUOUS
 62
     3
100
AcDbCircle
 10
580.6108240907811
 20
259.8576529667173
 30
0.0
 40
32.45003645821894
100
AcDbArc
 50
3.186136538962371
 51
33.69034076619801
  0
ARC
  5
45C
330
1A
100
AcDbEntity
  8
SEIHIN
  6
CONTINUOUS
 62
     3
100
AcDbCircle
 10
580.6108015803563
 20
259.8577200899525
 30
0.0
 40
30.000011102248
100
AcDbArc
 50
0.8252846098930303
 51
31.78836825568922
  0
LINE
  5
45D
330
1A
100
AcDbEntity
  8
SEIHIN
  6
CONTINUOUS
 62
     3
100
AcDbLine
 10
623.8503006356645
 20
271.1970233191193
 30
0.0
 11
645.5009006356645
 21
274.6610233191193
 31
0.0
  0
LINE
  5
45E
330
1A
100
AcDbEntity
  8
SEIHIN
  6
CONTINUOUS
 62
     3
100
AcDbLine
 10
644.6359006356645
 20
275.2411233191194
 30
0.0
 11
626.0153006356645
 21
271.7770233191194
 31
0.0
  0
LINE
  5
45F
330
1A
100
AcDbEntity
  8
SEIHIN
  6
CONTINUOUS
 62
     3
100
AcDbLine
 10
618.1108006356645
 20
257.6611233191193
 30
0.0
 11
647.1108006356645
 21
257.6611233191193
 31
0.0
  0
ARC
  5
460
330
1A
100
AcDbEntity
  8
SEIHIN
  6
CONTINUOUS
 62
     3
100
AcDbCircle
 10
613.5358006356645
 20
262.3612233191193
 30
0.0
 40
0.4999999999999716
100
AcDbArc
 50
180.0000000000032
 51
270.0000000000032
  0
LINE
  5
461
330
1A
100
AcDbEntity
  8
SEIHIN
  6
CONTINUOUS
 62
     3
100
AcDbLine
 10
616.9108006356646
 20
256.1611233191193
 30
0.0
 11
615.5358006356643
 21
256.1611233191193
 31
0.0
  0
LINE
  5
462
330
1A
100
AcDbEntity
  8
SEIHIN
  6
CONTINUOUS
 62
     3
100
AcDbLine
 10
614.5110006356645
 20
259.7246233191193
 30
0.0
 11
614.5108006356645
 21
259.1611233191193
 31
0.0
  0
LINE
  5
463
330
1A
100
AcDbEntity
  8
SEIHIN
  6
CONTINUOUS
 62
     3
100
AcDbLine
 10
615.0358006356643
 20
261.3611233191194
 30
0.0
 11
615.0358006356643
 21
259.6611233191193
 31
0.0
  0
ARC
  5
464
330
1A
100
AcDbEntity
  8
SEIHIN
  6
CONTINUOUS
 62
     3
100
AcDbCircle
 10
614.5358006356643
 20
259.6611233191193
 30
0.0
 40
0.5
100
AcDbArc
 50
270.0
 51
0.0
  0
ARC
  5
465
330
1A
100
AcDbEntity
  8
SEIHIN
  6
CONTINUOUS
 62
     3
100
AcDbCircle
 10
614.5358006356643
 20
261.3612233191193
 30
0.0
 40
0.5000000000000285
100
AcDbArc
 50
359.9999999999967
 51
89.99999999999674
  0
ARC
  5
466
330
1A
100
AcDbEntity
  8
SEIHIN
  6
CONTINUOUS
 62
     3
100
AcDbCircle
 10
618.1108006356644
 20
258.6611233191193
 30
0.0
 40
0.9999999999999715
100
AcDbArc
 50
180.0000000000016
 51
270.0000000000016
  0
ARC
  5
467
330
1A
100
AcDbEntity
  8
SEIHIN
  6
CONTINUOUS
 62
     3
100
AcDbCircle
 10
616.9108006356646
 20
255.1611233191193
 30
0.0
 40
1.0
100
AcDbArc
 50
0.0
 51
90.0
  0
ARC
  5
468
330
1A
100
AcDbEntity
  8
SEIHIN
  6
CONTINUOUS
 62
     3
100
AcDbCircle
 10
613.5358006356645
 20
258.6611233191193
 30
0.0
 40
0.5000000000000427
100
AcDbArc
 50
90.00000000000651
 51
180.0000000000048
  0
LINE
  5
469
330
1A
100
AcDbEntity
  8
SEIHIN
  6
CONTINUOUS
 62
     3
100
AcDbLine
 10
614.5358006356643
 20
261.8611233191193
 30
0.0
 11
613.5358006356645
 21
261.8611233191193
 31
0.0
  0
LINE
  5
46A
330
1A
100
AcDbEntity
  8
SEIHIN
  6
CONTINUOUS
 62
     3
100
AcDbLine
 10
614.5358006356643
 20
259.1612233191193
 30
0.0
 11
612.6400006356646
 21
259.1612233191193
 31
0.0
  0
ARC
  5
46B
330
1A
100
AcDbEntity
  8
SEIHIN
  6
CONTINUOUS
 62
     3
100
AcDbCircle
 10
612.5109731860411
 20
259.7245587523916
 30
0.0
 40
2.000027449937234
100
AcDbArc
 50
359.9989849254557
 51
75.52779604020833
  0
ARC
  5
46C
330
1A
100
AcDbEntity
  8
SEIHIN
  6
CONTINUOUS
 62
     3
100
AcDbCircle
 10
615.5358006356643
 20
258.6611233191192
 30
0.0
 40
2.499999999999914
100
AcDbArc
 50
179.999999999998
 51
269.999999999998
  0
ARC
  5
46D
330
1A
100
AcDbEntity
  8
SEIHIN
  6
CONTINUOUS
 62
     3
100
AcDbCircle
 10
614.6109006356644
 20
265.3611233191193
 30
0.0
 40
0.4999999999999148
100
AcDbArc
 50
270.0000000000097
 51
0.0000000000097707
  0
LINE
  5
46E
330
1A
100
AcDbEntity
  8
SEIHIN
  6
CONTINUOUS
 62
     3
100
AcDbLine
 10
613.0358006356646
 20
264.3611233191194
 30
0.0
 11
613.0358006356646
 21
262.3612233191193
 31
0.0
  0
ARC
  5
46F
330
1A
100
AcDbEntity
  8
SEIHIN
  6
CONTINUOUS
 62
     3
100
AcDbCircle
 10
613.5358006356645
 20
264.3611233191194
 30
0.0
 40
0.5
100
AcDbArc
 50
90.0
 51
180.0
  0
LINE
  5
470
330
1A
100
AcDbEntity
  8
SEIHIN
  6
CONTINUOUS
 62
     3
100
AcDbLine
 10
614.6109006356645
 20
264.8612233191192
 30
0.0
 11
613.5359006356646
 21
264.8612233191192
 31
0.0
  0
LINE
  5
471
330
1A
100
AcDbEntity
  8
SEIHIN
  6
CONTINUOUS
 62
     3
100
AcDbLine
 10
626.7509006356645
 20
259.6610233191193
 30
0.0
 11
645.5008006356645
 21
262.6610233191192
 31
0.0
  0
LINE
  5
472
330
1A
100
AcDbEntity
  8
SEIHIN
  6
CONTINUOUS
 62
     3
100
AcDbLine
 10
645.5009006356645
 20
272.6610233191193
 30
0.0
 11
623.8503006356645
 21
269.1970233191193
 31
0.0
  0
LINE
  5
473
330
1A
100
AcDbEntity
  8
SEIHIN
  6
CONTINUOUS
 62
     3
100
AcDbLine
 10
623.8503006356645
 20
265.1969233191193
 30
0.0
 11
645.5009006356645
 21
268.6610233191192
 31
0.0
  0
LINE
  5
474
330
1A
100
AcDbEntity
  8
SEIHIN
  6
CONTINUOUS
 62
     3
100
AcDbLine
 10
645.5009006356645
 20
266.6610233191192
 30
0.0
 11
623.8503006356645
 21
263.1969233191193
 31
0.0
  0
LINE
  5
475
330
1A
100
AcDbEntity
  8
SEIHIN
  6
CONTINUOUS
 62
     3
100
AcDbLine
 10
644.6359006356645
 20
263.2411233191194
 30
0.0
 11
626.0150006356646
 21
259.7769233191193
 31
0.0
  0
LINE
  5
476
330
1A
100
AcDbEntity
  8
SEIHIN
  6
CONTINUOUS
 62
     3
100
AcDbLine
 10
644.6359006356645
 20
266.0809233191193
 30
0.0
 11
626.0150006356646
 21
262.6168233191193
 31
0.0
  0
LINE
  5
477
330
1A
100
AcDbEntity
  8
SEIHIN
  6
CONTINUOUS
 62
     3
100
AcDbLine
 10
644.6359006356645
 20
269.2411233191194
 30
0.0
 11
626.0151006356645
 21
265.7770233191194
 31
0.0
  0
LINE
  5
478
330
1A
100
AcDbEntity
  8
SEIHIN
  6
CONTINUOUS
 62
     3
100
AcDbLine
 10
644.6359006356645
 20
272.0809233191193
 30
0.0
 11
626.0152006356642
 21
268.6168233191193
 31
0.0
  0
LINE
  5
479
330
1A
100
AcDbEntity
  8
SEIHIN
  6
CONTINUOUS
 62
     3
100
AcDbLine
 10
626.0153006356645
 20
262.6168233191193
 30
0.0
 11
626.0153006356645
 21
259.7770233191194
 31
0.0
  0
LINE
  5
47A
330
1A
100
AcDbEntity
  8
SEIHIN
  6
CONTINUOUS
 62
     3
100
AcDbLine
 10
623.8503006356645
 20
263.1969233191193
 30
0.0
 11
623.8503006356645
 21
259.6611233191193
 31
0.0
  0
LINE
  5
47B
330
1A
100
AcDbEntity
  8
SEIHIN
  6
CONTINUOUS
 62
     3
100
AcDbLine
 10
626.7509006356645
 20
259.6610233191193
 30
0.0
 11
623.8503006356645
 21
259.6610233191193
 31
0.0
  0
LINE
  5
47C
330
1A
100
AcDbEntity
  8
SEIHIN
  6
CONTINUOUS
 62
     3
100
AcDbLine
 10
625.5824006356645
 20
259.6610233191193
 30
0.0
 11
626.0153006356645
 21
259.7770233191194
 31
0.0
  0
LINE
  5
47D
330
1A
100
AcDbEntity
  8
SEIHIN
  6
CONTINUOUS
 62
     3
100
AcDbLine
 10
623.8503006356645
 20
271.1970233191193
 30
0.0
 11
626.0153006356645
 21
271.7770233191194
 31
0.0
  0
LINE
  5
47E
330
1A
100
AcDbEntity
  8
SEIHIN
  6
CONTINUOUS
 62
     3
100
AcDbLine
 10
626.0153006356645
 20
268.6168233191193
 30
0.0
 11
626.0153006356645
 21
265.7770233191194
 31
0.0
  0
LINE
  5
47F
330
1A
100
AcDbEntity
  8
SEIHIN
  6
CONTINUOUS
 62
     3
100
AcDbLine
 10
623.8503006356645
 20
269.1970233191193
 30
0.0
 11
626.0153006356645
 21
268.6168233191193
 31
0.0
  0
LINE
  5
480
330
1A
100
AcDbEntity
  8
SEIHIN
  6
CONTINUOUS
 62
     3
100
AcDbLine
 10
623.8503006356645
 20
263.1969233191193
 30
0.0
 11
626.0153006356645
 21
262.6168233191193
 31
0.0
  0
LINE
  5
481
330
1A
100
AcDbEntity
  8
SEIHIN
  6
CONTINUOUS
 62
     3
100
AcDbLine
 10
623.8503006356645
 20
265.1969233191193
 30
0.0
 11
626.0153006356645
 21
265.7770233191194
 31
0.0
  0
LINE
  5
482
330
1A
100
AcDbEntity
  8
SEIHIN
  6
CONTINUOUS
 62
     3
100
AcDbLine
 10
623.8503006356645
 20
269.1970233191193
 30
0.0
 11
623.8503006356645
 21
265.1969233191193
 31
0.0
  0
LINE
  5
483
330
1A
100
AcDbEntity
  8
SEIHIN
  6
CONTINUOUS
 62
     3
100
AcDbLine
 10
644.6359006356645
 20
260.0809233191193
 30
0.0
 11
641.2364006356645
 21
259.6610233191193
 31
0.0
  0
LINE
  5
484
330
1A
100
AcDbEntity
  8
SEIHIN
  6
CONTINUOUS
 62
     3
100
AcDbLine
 10
645.5009006356645
 20
259.6610233191193
 30
0.0
 11
639.2508006356645
 21
259.6610233191193
 31
0.0
  0
LINE
  5
485
330
1A
100
AcDbEntity
  8
SEIHIN
  6
CONTINUOUS
 62
     3
100
AcDbLine
 10
645.5008006356645
 20
260.6610233191192
 30
0.0
 11
639.2508006356645
 21
259.6610233191193
 31
0.0
  0
LINE
  5
486
330
1A
100
AcDbEntity
  8
SEIHIN
  6
CONTINUOUS
 62
     3
100
AcDbLine
 10
645.5009006356645
 20
260.6610233191192
 30
0.0
 11
645.5009006356645
 21
259.6610233191193
 31
0.0
  0
LINE
  5
487
330
1A
100
AcDbEntity
  8
SEIHIN
  6
CONTINUOUS
 62
     3
100
AcDbLine
 10
644.6359006356645
 20
260.0809233191193
 30
0.0
 11
644.6359006356645
 21
259.6610233191193
 31
0.0
  0
LINE
  5
488
330
1A
100
AcDbEntity
  8
SEIHIN
  6
CONTINUOUS
 62
     3
100
AcDbLine
 10
645.5009006356645
 20
260.6610233191192
 30
0.0
 11
644.6359006356645
 21
260.0809233191193
 31
0.0
  0
LINE
  5
489
330
1A
100
AcDbEntity
  8
SEIHIN
  6
CONTINUOUS
 62
     3
100
AcDbLine
 10
645.5009006356645
 20
272.6610233191193
 30
0.0
 11
645.5009006356645
 21
268.6610233191192
 31
0.0
  0
LINE
  5
48A
330
1A
100
AcDbEntity
  8
SEIHIN
  6
CONTINUOUS
 62
     3
100
AcDbLine
 10
644.6359006356645
 20
272.0809233191193
 30
0.0
 11
644.6359006356645
 21
269.2411233191194
 31
0.0
  0
LINE
  5
48B
330
1A
100
AcDbEntity
  8
SEIHIN
  6
CONTINUOUS
 62
     3
100
AcDbLine
 10
645.5009006356645
 20
266.6610233191192
 30
0.0
 11
644.6359006356645
 21
266.0809233191193
 31
0.0
  0
LINE
  5
48C
330
1A
100
AcDbEntity
  8
SEIHIN
  6
CONTINUOUS
 62
     3
100
AcDbLine
 10
645.5009006356645
 20
268.6610233191192
 30
0.0
 11
644.6359006356645
 21
269.2411233191194
 31
0.0
  0
LINE
  5
48D
330
1A
100
AcDbEntity
  8
SEIHIN
  6
CONTINUOUS
 62
     3
100
AcDbLine
 10
645.5009006356645
 20
272.6610233191193
 30
0.0
 11
644.6359006356645
 21
272.0809233191193
 31
0.0
  0
LINE
  5
48E
330
1A
100
AcDbEntity
  8
SEIHIN
  6
CONTINUOUS
 62
     3
100
AcDbLine
 10
645.5009006356645
 20
262.6610233191192
 30
0.0
 11
644.6359006356645
 21
263.2411233191194
 31
0.0
  0
LINE
  5
48F
330
1A
100
AcDbEntity
  8
SEIHIN
  6
CONTINUOUS
 62
     3
100
AcDbLine
 10
644.6359006356645
 20
266.0809233191193
 30
0.0
 11
644.6359006356645
 21
263.2411233191194
 31
0.0
  0
LINE
  5
490
330
1A
100
AcDbEntity
  8
SEIHIN
  6
CONTINUOUS
 62
     3
100
AcDbLine
 10
645.5009006356645
 20
266.6610233191192
 30
0.0
 11
645.5009006356645
 21
262.6610233191192
 31
0.0
  0
LINE
  5
491
330
1A
100
AcDbEntity
  8
SEIHIN
  6
CONTINUOUS
 62
     3
100
AcDbLine
 10
647.1109006356646
 20
280.6610233191193
 30
0.0
 11
606.1109006356645
 21
280.6612233191192
 31
0.0
  0
LINE
  5
495
330
1A
100
AcDbEntity
  8
SEIHIN
  6
CONTINUOUS
 62
     3
100
AcDbLine
 10
608.1109006356646
 20
279.6612233191193
 30
0.0
 11
612.1109006356646
 21
278.6611233191194
 31
0.0
  0
LINE
  5
496
330
1A
100
AcDbEntity
  8
SEIHIN
  6
CONTINUOUS
 62
     3
100
AcDbLine
 10
607.6109006356646
 20
277.8577233191193
 30
0.0
 11
610.6109006356644
 21
277.8577233191193
 31
0.0
  0
LINE
  5
497
330
1A
100
AcDbEntity
  8
SEIHIN
  6
CONTINUOUS
 62
     3
100
AcDbLine
 10
608.1109006356646
 20
279.6612233191193
 30
0.0
 11
608.1109006356646
 21
280.6612233191192
 31
0.0
  0
LINE
  5
498
330
1A
100
AcDbEntity
  8
SEIHIN
  6
CONTINUOUS
 62
     3
100
AcDbLine
 10
607.6109006356646
 20
280.6611233191194
 30
0.0
 11
607.6109006356646
 21
277.8577233191193
 31
0.0
  0
LINE
  5
499
330
1A
100
AcDbEntity
  8
SEIHIN
  6
CONTINUOUS
 62
     3
100
AcDbLine
 10
606.1109006356645
 20
280.6611233191194
 30
0.0
 11
606.1109006356645
 21
275.6611233191193
 31
0.0
  0
LINE
  5
49A
330
1A
100
AcDbEntity
  8
SEIHIN
  6
CONTINUOUS
 62
     3
100
AcDbLine
 10
610.6109006356644
 20
279.0361233191193
 30
0.0
 11
610.6109006356644
 21
277.6611233191193
 31
0.0
  0
LINE
  5
49B
330
1A
100
AcDbEntity
  8
SEIHIN
  6
CONTINUOUS
 62
     3
100
AcDbLine
 10
612.1109006356646
 20
278.6611233191194
 30
0.0
 11
615.1109006356644
 21
278.6611233191194
 31
0.0
  0
LINE
  5
49C
330
1A
100
AcDbEntity
  8
SEIHIN
  6
CONTINUOUS
 62
     3
100
AcDbLine
 10
611.6109006356646
 20
276.6611233191194
 30
0.0
 11
615.1109006356644
 21
276.6611233191194
 31
0.0
  0
ARC
  5
49D
330
1A
100
AcDbEntity
  8
SEIHIN
  6
CONTINUOUS
 62
     3
100
AcDbCircle
 10
611.6109006356643
 20
277.6611233191195
 30
0.0
 40
1.000000000000085
100
AcDbArc
 50
180.0000000000048
 51
270.0000000000049
  0
LINE
  5
49E
330
1A
100
AcDbEntity
  8
SEIHIN
  6
CONTINUOUS
 62
     3
100
AcDbLine
 10
645.5009006356645
 20
278.6610233191193
 30
0.0
 11
623.8503006356645
 21
275.1970233191193
 31
0.0
  0
LINE
  5
49F
330
1A
100
AcDbEntity
  8
SEIHIN
  6
CONTINUOUS
 62
     3
100
AcDbLine
 10
644.6359006356645
 20
278.0809233191193
 30
0.0
 11
626.0153006356645
 21
274.6168233191193
 31
0.0
  0
LINE
  5
4A0
330
1A
100
AcDbEntity
  8
SEIHIN
  6
CONTINUOUS
 62
     3
100
AcDbLine
 10
633.0008006356645
 20
278.6610233191193
 30
0.0
 11
623.8503006356645
 21
278.6610233191193
 31
0.0
  0
LINE
  5
4A1
330
1A
100
AcDbEntity
  8
SEIHIN
  6
CONTINUOUS
 62
     3
100
AcDbLine
 10
630.7671006356645
 20
278.6610233191193
 30
0.0
 11
626.0153006356645
 21
277.7770233191194
 31
0.0
  0
LINE
  5
4A2
330
1A
100
AcDbEntity
  8
SEIHIN
  6
CONTINUOUS
 62
     3
100
AcDbLine
 10
623.8503006356645
 20
277.1970233191193
 30
0.0
 11
633.0008006356645
 21
278.6610233191193
 31
0.0
  0
LINE
  5
4A3
330
1A
100
AcDbEntity
  8
SEIHIN
  6
CONTINUOUS
 62
     3
100
AcDbLine
 10
623.8503006356645
 20
277.1970233191193
 30
0.0
 11
626.0153006356645
 21
277.7770233191194
 31
0.0
  0
LINE
  5
4A4
330
1A
100
AcDbEntity
  8
SEIHIN
  6
CONTINUOUS
 62
     3
100
AcDbLine
 10
623.8503006356645
 20
278.6611233191194
 30
0.0
 11
623.8503006356645
 21
277.1970233191193
 31
0.0
  0
LINE
  5
4A5
330
1A
100
AcDbEntity
  8
SEIHIN
  6
CONTINUOUS
 62
     3
100
AcDbLine
 10
626.0153006356645
 20
278.6614233191194
 30
0.0
 11
626.0153006356645
 21
277.7770233191194
 31
0.0
  0
LINE
  5
4A6
330
1A
100
AcDbEntity
  8
SEIHIN
  6
CONTINUOUS
 62
     3
100
AcDbLine
 10
623.8503006356645
 20
275.1970233191193
 30
0.0
 11
626.0153006356645
 21
274.6168233191193
 31
0.0
  0
LINE
  5
4A7
330
1A
100
AcDbEntity
  8
SEIHIN
  6
CONTINUOUS
 62
     3
100
AcDbLine
 10
645.5009006356645
 20
278.6610233191193
 30
0.0
 11
644.6359006356645
 21
278.0809233191193
 31
0.0
  0
LINE
  5
4A8
330
1A
100
AcDbEntity
  8
SEIHIN
  6
CONTINUOUS
 62
     3
100
AcDbLine
 10
645.5009006356645
 20
274.6610233191193
 30
0.0
 11
644.6359006356645
 21
275.2411233191194
 31
0.0
  0
LINE
  5
4A9
330
1A
100
AcDbEntity
  8
SEIHIN
  6
CONTINUOUS
 62
     3
100
AcDbLine
 10
644.6359006356645
 20
278.0809233191193
 30
0.0
 11
644.6359006356645
 21
275.2411233191194
 31
0.0
  0
LINE
  5
4AA
330
1A
100
AcDbEntity
  8
SEIHIN
  6
CONTINUOUS
 62
     3
100
AcDbLine
 10
645.5009006356645
 20
278.6610233191193
 30
0.0
 11
645.5009006356645
 21
274.6610233191193
 31
0.0
  0
LINE
  5
4AB
330
1A
100
AcDbEntity
  8
SEIHIN
  6
CONTINUOUS
 62
     3
100
AcDbLine
 10
680.6108006356644
 20
274.1610233191193
 30
0.0
 11
683.6785006356644
 21
272.3899233191193
 31
0.0
  0
LINE
  5
4AC
330
1A
100
AcDbEntity
  8
SEIHIN
  6
CONTINUOUS
 62
     3
100
AcDbLine
 10
670.9812006356645
 20
274.4482233191193
 30
0.0
 11
671.9812006356644
 21
273.6351233191194
 31
0.0
  0
LINE
  5
4AD
330
1A
100
AcDbEntity
  8
SEIHIN
  6
CONTINUOUS
 62
     3
100
AcDbLine
 10
677.1108006356644
 20
274.6610233191193
 30
0.0
 11
671.9812006356644
 21
273.6351233191194
 31
0.0
  0
ARC
  5
4AE
330
1A
100
AcDbEntity
  8
SEIHIN
  6
CONTINUOUS
 62
     3
100
AcDbCircle
 10
713.6107989333233
 20
259.8574175001747
 30
0.0
 40
30.00001182249807
100
AcDbArc
 50
148.2116267778628
 51
179.1745194576245
  0
LINE
  5
4AF
330
1A
100
AcDbEntity
  8
SEIHIN
  6
CONTINUOUS
 62
     3
100
AcDbLine
 10
677.1108006356644
 20
280.6610233191193
 30
0.0
 11
677.1108006356644
 21
258.6611233191193
 31
0.0
  0
LINE
  5
4B0
330
1A
100
AcDbEntity
  8
SEIHIN
  6
CONTINUOUS
 62
     3
100
AcDbLine
 10
679.1108006356644
 20
278.6610233191193
 30
0.0
 11
679.1108006356644
 21
265.3610233191193
 31
0.0
  0
ARC
  5
4B1
330
1A
100
AcDbEntity
  8
SEIHIN
  6
CONTINUOUS
 62
     3
100
AcDbCircle
 10
713.6108372017336
 20
259.85753299711
 30
0.0
 40
32.44998653561362
100
AcDbArc
 50
146.3099825054939
 51
176.8141769195619
  0
ARC
  5
4B6
330
1A
100
AcDbEntity
  8
SEIHIN
  6
CONTINUOUS
 62
     3
100
AcDbCircle
 10
680.6858006356645
 20
262.3610233191192
 30
0.0
 40
0.4999999999999432
100
AcDbArc
 50
270.0000000000065
 51
0.0000000000065138
  0
LINE
  5
4B7
330
1A
100
AcDbEntity
  8
SEIHIN
  6
CONTINUOUS
 62
     3
100
AcDbLine
 10
670.9812006356645
 20
262.4482233191193
 30
0.0
 11
671.9812006356644
 21
261.6351233191194
 31
0.0
  0
LINE
  5
4B8
330
1A
100
AcDbEntity
  8
SEIHIN
  6
CONTINUOUS
 62
     3
100
AcDbLine
 10
677.1108006356644
 20
262.6610233191192
 30
0.0
 11
671.9812006356644
 21
261.6351233191194
 31
0.0
  0
LINE
  5
4B9
330
1A
100
AcDbEntity
  8
SEIHIN
  6
CONTINUOUS
 62
     3
100
AcDbLine
 10
677.1108006356644
 20
259.6610233191193
 30
0.0
 11
671.9813006356644
 21
259.6610233191193
 31
0.0
  0
LINE
  5
4BA
330
1A
100
AcDbEntity
  8
SEIHIN
  6
CONTINUOUS
 62
     3
100
AcDbLine
 10
677.1108006356644
 20
260.6610233191192
 30
0.0
 11
674.9458006356644
 21
260.0809233191193
 31
0.0
  0
LINE
  5
4BB
330
1A
100
AcDbEntity
  8
SEIHIN
  6
CONTINUOUS
 62
     3
100
AcDbLine
 10
674.9458006356644
 20
260.0809233191193
 30
0.0
 11
674.9458006356644
 21
259.6610233191193
 31
0.0
  0
LINE
  5
4BC
330
1A
100
AcDbEntity
  8
SEIHIN
  6
CONTINUOUS
 62
     3
100
AcDbLine
 10
674.9458006356644
 20
260.0809233191193
 30
0.0
 11
672.8463006356644
 21
259.6610233191193
 31
0.0
  0
LINE
  5
4BD
330
1A
100
AcDbEntity
  8
SEIHIN
  6
CONTINUOUS
 62
     3
100
AcDbLine
 10
671.9812006356644
 20
261.6351233191194
 30
0.0
 11
671.9812006356644
 21
259.6610233191193
 31
0.0
  0
LINE
  5
4BE
330
1A
100
AcDbEntity
  8
SEIHIN
  6
CONTINUOUS
 62
     3
100
AcDbLine
 10
677.3108006356644
 20
256.1611233191193
 30
0.0
 11
678.6858006356644
 21
256.1611233191193
 31
0.0
  0
LINE
  5
4BF
330
1A
100
AcDbEntity
  8
SEIHIN
  6
CONTINUOUS
 62
     3
100
AcDbLine
 10
679.6858006356644
 20
261.8610233191193
 30
0.0
 11
680.6858006356645
 21
261.8610233191193
 31
0.0
  0
LINE
  5
4C0
330
1A
100
AcDbEntity
  8
SEIHIN
  6
CONTINUOUS
 62
     3
100
AcDbLine
 10
679.6858006356644
 20
259.1610233191194
 30
0.0
 11
681.5816006356644
 21
259.1610233191194
 31
0.0
  0
LINE
  5
4C1
330
1A
100
AcDbEntity
  8
SEIHIN
  6
CONTINUOUS
 62
     3
100
AcDbLine
 10
679.7106006356646
 20
259.7245233191193
 30
0.0
 11
679.7108006356645
 21
259.1610233191194
 31
0.0
  0
LINE
  5
4C2
330
1A
100
AcDbEntity
  8
SEIHIN
  6
CONTINUOUS
 62
     3
100
AcDbLine
 10
679.1858006356644
 20
261.3610233191193
 30
0.0
 11
679.1858006356644
 21
259.6610233191193
 31
0.0
  0
ARC
  5
4C3
330
1A
100
AcDbEntity
  8
SEIHIN
  6
CONTINUOUS
 62
     3
100
AcDbCircle
 10
679.6858006356644
 20
259.6610233191193
 30
0.0
 40
0.5000000000000285
100
AcDbArc
 50
180.0000000000097
 51
270.0000000000097
  0
ARC
  5
4C4
330
1A
100
AcDbEntity
  8
SEIHIN
  6
CONTINUOUS
 62
     3
100
AcDbCircle
 10
679.6858006356644
 20
261.3610233191192
 30
0.0
 40
0.5000000000000569
100
AcDbArc
 50
89.99999999999349
 51
179.9999999999934
  0
ARC
  5
4C5
330
1A
100
AcDbEntity
  8
SEIHIN
  6
CONTINUOUS
 62
     3
100
AcDbCircle
 10
680.6858506356643
 20
258.6610733191193
 30
0.0
 40
0.4999500025002057
100
AcDbArc
 50
0.0057301509377196
 51
90.00573015093937
  0
ARC
  5
4C6
330
1A
100
AcDbEntity
  8
SEIHIN
  6
CONTINUOUS
 62
     3
100
AcDbCircle
 10
678.6858006356644
 20
258.6611233191193
 30
0.0
 40
2.5
100
AcDbArc
 50
270.0
 51
0.0
  0
ARC
  5
4C7
330
1A
100
AcDbEntity
  8
SEIHIN
  6
CONTINUOUS
 62
     3
100
AcDbCircle
 10
681.7105796716946
 20
259.7244962574862
 30
0.0
 40
1.999979036213257
100
AcDbArc
 50
104.4711295245596
 51
179.9992247331902
  0
ARC
  5
4C8
330
1A
100
AcDbEntity
  8
SEIHIN
  6
CONTINUOUS
 62
     3
100
AcDbCircle
 10
676.1108006356644
 20
258.6611233191192
 30
0.0
 40
0.9999999999999147
100
AcDbArc
 50
270.0000000000016
 51
0.0000000000016284
  0
ARC
  5
4C9
330
1A
100
AcDbEntity
  8
SEIHIN
  6
CONTINUOUS
 62
     3
100
AcDbCircle
 10
677.3108006356644
 20
255.1611233191193
 30
0.0
 40
1.0
100
AcDbArc
 50
90.0
 51
180.0
  0
LINE
  5
4CA
330
1A
100
AcDbEntity
  8
SEIHIN
  6
CONTINUOUS
 62
     3
100
AcDbLine
 10
677.1108006356644
 20
268.6610233191192
 30
0.0
 11
671.9812006356644
 21
267.6351233191194
 31
0.0
  0
LINE
  5
4CB
330
1A
100
AcDbEntity
  8
SEIHIN
  6
CONTINUOUS
 62
     3
100
AcDbLine
 10
677.1108006356644
 20
266.6610233191192
 30
0.0
 11
674.9458006356644
 21
266.0809233191193
 31
0.0
  0
LINE
  5
4CC
330
1A
100
AcDbEntity
  8
SEIHIN
  6
CONTINUOUS
 62
     3
100
AcDbLine
 10
677.1108006356644
 20
268.6610233191192
 30
0.0
 11
674.9458006356644
 21
269.2411233191194
 31
0.0
  0
LINE
  5
4CD
330
1A
100
AcDbEntity
  8
SEIHIN
  6
CONTINUOUS
 62
     3
100
AcDbLine
 10
677.1108006356644
 20
272.6610233191193
 30
0.0
 11
674.9458006356644
 21
272.0809233191193
 31
0.0
  0
LINE
  5
4CE
330
1A
100
AcDbEntity
  8
SEIHIN
  6
CONTINUOUS
 62
     3
100
AcDbLine
 10
677.1108006356644
 20
262.6610233191192
 30
0.0
 11
674.9458006356644
 21
263.2411233191194
 31
0.0
  0
LINE
  5
4CF
330
1A
100
AcDbEntity
  8
SEIHIN
  6
CONTINUOUS
 62
     3
100
AcDbLine
 10
670.9812006356645
 20
268.4482233191193
 30
0.0
 11
671.9812006356644
 21
267.6351233191194
 31
0.0
  0
LINE
  5
4D0
330
1A
100
AcDbEntity
  8
SEIHIN
  6
CONTINUOUS
 62
     3
100
AcDbLine
 10
674.9458006356644
 20
269.2411233191194
 30
0.0
 11
670.9812006356645
 21
268.4482233191193
 31
0.0
  0
LINE
  5
4D1
330
1A
100
AcDbEntity
  8
SEIHIN
  6
CONTINUOUS
 62
     3
100
AcDbLine
 10
674.9458006356644
 20
272.0809233191193
 30
0.0
 11
670.9812006356645
 21
271.2880233191193
 31
0.0
  0
LINE
  5
4D2
330
1A
100
AcDbEntity
  8
SEIHIN
  6
CONTINUOUS
 62
     3
100
AcDbLine
 10
671.9812006356644
 20
273.6351233191194
 30
0.0
 11
671.9812006356644
 21
271.4880233191192
 31
0.0
  0
LINE
  5
4D3
330
1A
100
AcDbEntity
  8
SEIHIN
  6
CONTINUOUS
 62
     3
100
AcDbLine
 10
671.9812006356644
 20
267.6351233191194
 30
0.0
 11
671.9812006356644
 21
265.4880233191192
 31
0.0
  0
LINE
  5
4D4
330
1A
100
AcDbEntity
  8
SEIHIN
  6
CONTINUOUS
 62
     3
100
AcDbLine
 10
670.9812006356645
 20
271.2880233191193
 30
0.0
 11
670.9812006356645
 21
268.4482233191193
 31
0.0
  0
LINE
  5
4D5
330
1A
100
AcDbEntity
  8
SEIHIN
  6
CONTINUOUS
 62
     3
100
AcDbLine
 10
674.9458006356644
 20
272.0809233191193
 30
0.0
 11
674.9458006356644
 21
269.2411233191194
 31
0.0
  0
LINE
  5
4D6
330
1A
100
AcDbEntity
  8
SEIHIN
  6
CONTINUOUS
 62
     3
100
AcDbLine
 10
674.9458006356644
 20
263.2411233191194
 30
0.0
 11
670.9812006356645
 21
262.4482233191193
 31
0.0
  0
LINE
  5
4D7
330
1A
100
AcDbEntity
  8
SEIHIN
  6
CONTINUOUS
 62
     3
100
AcDbLine
 10
670.9812006356645
 20
265.2880233191193
 30
0.0
 11
670.9812006356645
 21
262.4482233191193
 31
0.0
  0
LINE
  5
4D8
330
1A
100
AcDbEntity
  8
SEIHIN
  6
CONTINUOUS
 62
     3
100
AcDbLine
 10
674.9458006356644
 20
266.0809233191193
 30
0.0
 11
670.9812006356645
 21
265.2880233191193
 31
0.0
  0
LINE
  5
4D9
330
1A
100
AcDbEntity
  8
SEIHIN
  6
CONTINUOUS
 62
     3
100
AcDbLine
 10
674.9458006356644
 20
266.0809233191193
 30
0.0
 11
674.9458006356644
 21
263.2411233191194
 31
0.0
  0
LINE
  5
4DA
330
1A
100
AcDbEntity
  8
SEIHIN
  6
CONTINUOUS
 62
     3
100
AcDbLine
 10
679.6108006356644
 20
264.8610233191193
 30
0.0
 11
680.6858006356645
 21
264.8610233191193
 31
0.0
  0
LINE
  5
4DB
330
1A
100
AcDbEntity
  8
SEIHIN
  6
CONTINUOUS
 62
     3
100
AcDbLine
 10
681.1858006356644
 20
264.3610233191193
 30
0.0
 11
681.1858006356644
 21
262.3610233191193
 31
0.0
  0
ARC
  5
4DC
330
1A
100
AcDbEntity
  8
SEIHIN
  6
CONTINUOUS
 62
     3
100
AcDbCircle
 10
679.6108006356644
 20
265.3610233191193
 30
0.0
 40
0.4999999999999716
100
AcDbArc
 50
180.0000000000032
 51
270.0000000000032
  0
ARC
  5
4DD
330
1A
100
AcDbEntity
  8
SEIHIN
  6
CONTINUOUS
 62
     3
100
AcDbCircle
 10
680.6858006356645
 20
264.3610233191194
 30
0.0
 40
0.4999999999999716
100
AcDbArc
 50
359.9999999999902
 51
89.99999999999023
  0
LINE
  5
4E2
330
1A
100
AcDbEntity
  8
SEIHIN
  6
CONTINUOUS
 62
     3
100
AcDbLine
 10
686.1108006356644
 20
279.6610233191193
 30
0.0
 11
682.1108006356644
 21
278.6610233191193
 31
0.0
  0
LINE
  5
4E3
330
1A
100
AcDbEntity
  8
SEIHIN
  6
CONTINUOUS
 62
     3
100
AcDbLine
 10
681.1108006356644
 20
278.1610233191194
 30
0.0
 11
686.1108006356644
 21
278.1610233191194
 31
0.0
  0
LINE
  5
4E7
330
1A
100
AcDbEntity
  8
SEIHIN
  6
CONTINUOUS
 62
     3
100
AcDbLine
 10
677.1108006356644
 20
278.6610233191193
 30
0.0
 11
671.9813006356644
 21
278.6610233191193
 31
0.0
  0
LINE
  5
4E8
330
1A
100
AcDbEntity
  8
SEIHIN
  6
CONTINUOUS
 62
     3
100
AcDbLine
 10
677.1108006356644
 20
278.6610233191193
 30
0.0
 11
671.9812006356644
 21
278.6610233191193
 31
0.0
  0
LINE
  5
4E9
330
1A
100
AcDbEntity
  8
SEIHIN
  6
CONTINUOUS
 62
     3
100
AcDbLine
 10
677.1108006356644
 20
278.6610233191193
 30
0.0
 11
674.9458006356644
 21
278.0809233191193
 31
0.0
  0
LINE
  5
4EA
330
1A
100
AcDbEntity
  8
SEIHIN
  6
CONTINUOUS
 62
     3
100
AcDbLine
 10
677.1108006356644
 20
274.6610233191193
 30
0.0
 11
674.9458006356644
 21
275.2411233191194
 31
0.0
  0
LINE
  5
4EB
330
1A
100
AcDbEntity
  8
SEIHIN
  6
CONTINUOUS
 62
     3
100
AcDbLine
 10
671.9812006356644
 20
278.6610233191193
 30
0.0
 11
671.9812006356644
 21
277.4880233191193
 31
0.0
  0
LINE
  5
4EC
330
1A
100
AcDbEntity
  8
SEIHIN
  6
CONTINUOUS
 62
     3
100
AcDbLine
 10
674.9458006356644
 20
278.0809233191193
 30
0.0
 11
670.9812006356645
 21
277.2880233191193
 31
0.0
  0
LINE
  5
4ED
330
1A
100
AcDbEntity
  8
SEIHIN
  6
CONTINUOUS
 62
     3
100
AcDbLine
 10
674.9458006356644
 20
275.2411233191194
 30
0.0
 11
670.9812006356645
 21
274.4482233191193
 31
0.0
  0
LINE
  5
4EE
330
1A
100
AcDbEntity
  8
SEIHIN
  6
CONTINUOUS
 62
     3
100
AcDbLine
 10
670.9812006356645
 20
277.2880233191193
 30
0.0
 11
670.9812006356645
 21
274.4482233191193
 31
0.0
  0
LINE
  5
4EF
330
1A
100
AcDbEntity
  8
SEIHIN
  6
CONTINUOUS
 62
     3
100
AcDbLine
 10
674.9458006356644
 20
278.0809233191193
 30
0.0
 11
674.9458006356644
 21
275.2411233191194
 31
0.0
  0
LINE
  5
4F0
330
1A
100
AcDbEntity
  8
SEIHIN
  6
CONTINUOUS
 62
     3
100
AcDbLine
 10
682.1108006356644
 20
278.6610233191193
 30
0.0
 11
679.1108006356644
 21
278.6610233191193
 31
0.0
  0
LINE
  5
4F1
330
1A
100
AcDbEntity
  8
SEIHIN
  6
CONTINUOUS
 62
     3
100
AcDbLine
 10
680.6108006356644
 20
276.6610233191193
 30
0.0
 11
679.1108006356644
 21
276.6610233191193
 31
0.0
  0
LINE
  5
4F2
330
1A
100
AcDbEntity
  8
SEIHIN
  6
CONTINUOUS
 62
     3
100
AcDbLine
 10
683.6108006356644
 20
279.0360233191194
 30
0.0
 11
683.6108006356644
 21
278.1610233191194
 31
0.0
  0
ARC
  5
4F3
330
1A
100
AcDbEntity
  8
SEIHIN
  6
CONTINUOUS
 62
     3
100
AcDbCircle
 10
681.1108006356644
 20
277.6610233191194
 30
0.0
 40
0.4999999999999432
100
AcDbArc
 50
90.00000000000651
 51
180.0000000000065
  0
LINE
  5
4F4
330
1A
100
AcDbEntity
  8
SEIHIN
  6
CONTINUOUS
 62
     3
100
AcDbLine
 10
680.6108006356644
 20
274.1610233191193
 30
0.0
 11
680.6108006356644
 21
277.6610233191194
 31
0.0
  0
LINE
  5
4F7
330
1A
100
AcDbEntity
  8
SEIHIN
  6
CONTINUOUS
 62
     3
100
AcDbLine
 10
686.1108006356644
 20
279.6610233191193
 30
0.0
 11
686.1108006356644
 21
280.6610233191193
 31
0.0
  0
LINE
  5
4F8
330
1A
100
AcDbEntity
  8
SEIHIN
  6
CONTINUOUS
 62
     3
100
AcDbLine
 10
686.6108006356644
 20
280.6610233191193
 30
0.0
 11
686.6108006356644
 21
277.8576233191192
 31
0.0
  0
ARC
  5
4F9
330
1A
100
AcDbEntity
  8
SEIHIN
  6
CONTINUOUS
 62
     3
100
AcDbCircle
 10
686.1108006356644
 20
278.6610233191193
 30
0.0
 40
0.4999999999999716
100
AcDbArc
 50
269.9999999999967
 51
359.9999999999967
  0
LINE
  5
4FA
330
1A
100
AcDbEntity
  8
SEIHIN
  6
CONTINUOUS
 62
     3
100
AcDbLine
 10
688.1108006356644
 20
280.6610233191193
 30
0.0
 11
688.1108006356644
 21
275.6610233191194
 31
0.0
  0
LINE
  5
4FD
330
1A
100
AcDbEntity
  8
SEIHIN
  6
CONTINUOUS
 62
     3
100
AcDbLine
 10
647.1220006356645
 20
390.4644233191192
 30
0.0
 11
655.7375006356645
 21
390.4644233191192
 31
0.0
  0
LINE
  5
4FE
330
1A
100
AcDbEntity
  8
SEIHIN
  6
CONTINUOUS
 62
     3
100
AcDbLine
 10
650.1220006356643
 20
388.6644233191194
 30
0.0
 11
655.3775006356643
 21
388.6644233191194
 31
0.0
  0
LINE
  5
4FF
330
1A
100
AcDbEntity
  8
SEIHIN
  6
CONTINUOUS
 62
     3
100
AcDbLine
 10
647.1220006356645
 20
368.4610233191194
 30
0.0
 11
686.1220006356646
 21
368.4610233191194
 31
0.0
  0
LINE
  5
500
330
1A
100
AcDbEntity
  8
SEIHIN
  6
CONTINUOUS
 62
     3
100
AcDbLine
 10
647.1220006356645
 20
369.4610233191194
 30
0.0
 11
686.1220006356646
 21
369.4610233191194
 31
0.0
  0
LINE
  5
501
330
1A
100
AcDbEntity
  8
SEIHIN
  6
CONTINUOUS
 62
     3
100
AcDbLine
 10
647.1220006356645
 20
370.4610233191194
 30
0.0
 11
672.0720006356645
 21
370.4610233191194
 31
0.0
  0
LINE
  5
502
330
1A
100
AcDbEntity
  8
SEIHIN
  6
CONTINUOUS
 62
     3
100
AcDbLine
 10
677.1258006356645
 20
356.0411233191194
 30
0.0
 11
649.7255006356644
 21
350.4610233191194
 31
0.0
  0
LINE
  5
503
330
1A
100
AcDbEntity
  8
SEIHIN
  6
CONTINUOUS
 62
     3
100
AcDbLine
 10
675.4608006356646
 20
355.4610233191193
 30
0.0
 11
650.4608006356646
 21
350.4610233191194
 31
0.0
  0
LINE
  5
504
330
1A
100
AcDbEntity
  8
SEIHIN
  6
CONTINUOUS
 62
     3
100
AcDbLine
 10
618.7608006356644
 20
353.2549233191193
 30
0.0
 11
675.4609006356645
 21
365.4610233191192
 31
0.0
  0
LINE
  5
505
330
1A
100
AcDbEntity
  8
SEIHIN
  6
CONTINUOUS
 62
     3
100
AcDbLine
 10
666.1704006356644
 20
365.4610233191192
 30
0.0
 11
618.7608006356644
 21
355.2549233191194
 31
0.0
  0
LINE
  5
506
330
1A
100
AcDbEntity
  8
SEIHIN
  6
CONTINUOUS
 62
     3
100
AcDbLine
 10
675.4608006356646
 20
361.4610233191193
 30
0.0
 11
624.3635006356645
 21
350.4611233191192
 31
0.0
  0
LINE
  5
507
330
1A
100
AcDbEntity
  8
SEIHIN
  6
CONTINUOUS
 62
     3
100
AcDbLine
 10
633.6539006356645
 20
350.4610233191194
 30
0.0
 11
675.4608006356646
 21
359.4610233191193
 31
0.0
  0
LINE
  5
508
330
1A
100
AcDbEntity
  8
SEIHIN
  6
CONTINUOUS
 62
     3
100
AcDbLine
 10
677.1259006356644
 20
350.4610233191194
 30
0.0
 11
617.0959006356643
 21
350.4611233191192
 31
0.0
  0
LINE
  5
509
330
1A
100
AcDbEntity
  8
SEIHIN
  6
CONTINUOUS
 62
     3
100
AcDbLine
 10
618.7609006356645
 20
365.4611233191193
 30
0.0
 11
675.4608006356646
 21
365.4610233191192
 31
0.0
  0
LINE
  5
50A
330
1A
100
AcDbEntity
  8
SEIHIN
  6
CONTINUOUS
 62
     3
100
AcDbLine
 10
677.1258006356645
 20
358.8809233191192
 30
0.0
 11
635.5266006356645
 21
350.4610233191194
 31
0.0
  0
LINE
  5
50B
330
1A
100
AcDbEntity
  8
SEIHIN
  6
CONTINUOUS
 62
     3
100
AcDbLine
 10
677.1259006356644
 20
364.8809233191194
 30
0.0
 11
617.0959006356643
 21
352.6749233191194
 31
0.0
  0
LINE
  5
50C
330
1A
100
AcDbEntity
  8
SEIHIN
  6
CONTINUOUS
 62
     3
100
AcDbLine
 10
677.1259006356644
 20
362.0411233191194
 30
0.0
 11
619.7258006356644
 21
350.4611233191192
 31
0.0
  0
LINE
  5
50D
330
1A
100
AcDbEntity
  8
SEIHIN
  6
CONTINUOUS
 62
     3
100
AcDbLine
 10
664.7255006356645
 20
365.4610233191192
 30
0.0
 11
617.0959006356643
 21
355.8351233191194
 31
0.0
  0
LINE
  5
510
330
1A
100
AcDbEntity
  8
SEIHIN
  6
CONTINUOUS
 62
     3
100
AcDbLine
 10
620.5268006356646
 20
365.4611233191193
 30
0.0
 11
617.0959006356643
 21
364.6749233191194
 31
0.0
  0
LINE
  5
511
330
1A
100
AcDbEntity
  8
SEIHIN
  6
CONTINUOUS
 62
     3
100
AcDbLine
 10
618.7608006356644
 20
365.2549233191194
 30
0.0
 11
617.0959006356643
 21
364.6749233191194
 31
0.0
  0
ARC
  5
512
330
1A
100
AcDbEntity
  8
SEIHIN
  6
CONTINUOUS
 62
     3
100
AcDbCircle
 10
618.3720006356645
 20
372.4611233191192
 30
0.0
 40
2.0
100
AcDbArc
 50
270.0
 51
0.0
  0
LINE
  5
513
330
1A
100
AcDbEntity
  8
SEIHIN
  6
CONTINUOUS
 62
     3
100
AcDbLine
 10
618.7608006356644
 20
353.2549233191193
 30
0.0
 11
617.0959006356643
 21
352.6749233191194
 31
0.0
  0
LINE
  5
514
330
1A
100
AcDbEntity
  8
SEIHIN
  6
CONTINUOUS
 62
     3
100
AcDbLine
 10
618.7608006356644
 20
355.2549233191194
 30
0.0
 11
617.0959006356643
 21
355.8350233191194
 31
0.0
  0
LINE
  5
515
330
1A
100
AcDbEntity
  8
SEIHIN
  6
CONTINUOUS
 62
     3
100
AcDbLine
 10
618.7608006356644
 20
359.2549233191194
 30
0.0
 11
617.0959006356643
 21
358.6749233191194
 31
0.0
  0
LINE
  5
516
330
1A
100
AcDbEntity
  8
SEIHIN
  6
CONTINUOUS
 62
     3
100
AcDbLine
 10
618.7608006356644
 20
361.2549233191194
 30
0.0
 11
617.0959006356643
 21
361.8350233191194
 31
0.0
  0
LINE
  5
517
330
1A
100
AcDbEntity
  8
SEIHIN
  6
CONTINUOUS
 62
     3
100
AcDbLine
 10
634.7257006356644
 20
365.4611233191193
 30
0.0
 11
617.0959006356643
 21
361.8351233191194
 31
0.0
  0
LINE
  5
518
330
1A
100
AcDbEntity
  8
SEIHIN
  6
CONTINUOUS
 62
     3
100
AcDbLine
 10
612.1220006356645
 20
370.4612233191193
 30
0.0
 11
622.1720006356645
 21
370.4611233191192
 31
0.0
  0
LINE
  5
519
330
1A
100
AcDbEntity
  8
SEIHIN
  6
CONTINUOUS
 62
     3
100
AcDbLine
 10
650.5266006356643
 20
365.4610233191192
 30
0.0
 11
617.0959006356643
 21
358.6749233191194
 31
0.0
  0
LINE
  5
51A
330
1A
100
AcDbEntity
  8
SEIHIN
  6
CONTINUOUS
 62
     3
100
AcDbLine
 10
647.1220006356645
 20
368.4610233191194
 30
0.0
 11
608.1220006356645
 21
368.4612233191193
 31
0.0
  0
LINE
  5
51B
330
1A
100
AcDbEntity
  8
SEIHIN
  6
CONTINUOUS
 62
     3
100
AcDbLine
 10
647.1220006356645
 20
369.4610233191194
 30
0.0
 11
608.1220006356645
 21
369.4612233191193
 31
0.0
  0
LINE
  5
51C
330
1A
100
AcDbEntity
  8
SEIHIN
  6
CONTINUOUS
 62
     3
100
AcDbLine
 10
617.0959006356643
 20
358.6749233191194
 30
0.0
 11
617.0959006356643
 21
355.8350233191194
 31
0.0
  0
LINE
  5
51D
330
1A
100
AcDbEntity
  8
SEIHIN
  6
CONTINUOUS
 62
     3
100
AcDbLine
 10
617.0959006356643
 20
352.6749233191194
 30
0.0
 11
617.0959006356643
 21
350.4610233191194
 31
0.0
  0
LINE
  5
51E
330
1A
100
AcDbEntity
  8
SEIHIN
  6
CONTINUOUS
 62
     3
100
AcDbLine
 10
612.1220006356645
 20
370.4612233191193
 30
0.0
 11
608.1951006356646
 21
369.4612233191193
 31
0.0
  0
LINE
  5
51F
330
1A
100
AcDbEntity
  8
SEIHIN
  6
CONTINUOUS
 62
     3
100
AcDbLine
 10
608.1330006356645
 20
368.4612233191193
 30
0.0
 11
608.1330006356645
 21
369.4612233191193
 31
0.0
  0
LINE
  5
520
330
1A
100
AcDbEntity
  8
SEIHIN
  6
CONTINUOUS
 62
     3
100
AcDbLine
 10
617.0959006356643
 20
364.6749233191194
 30
0.0
 11
617.0959006356643
 21
361.8350233191194
 31
0.0
  0
LINE
  5
521
330
1A
100
AcDbEntity
  8
SEIHIN
  6
CONTINUOUS
 62
     3
100
AcDbLine
 10
644.1220006356645
 20
370.4587233191194
 30
0.0
 11
644.1221006356642
 21
390.4587233191194
 31
0.0
  0
LINE
  5
522
330
1A
100
AcDbEntity
  8
SEIHIN
  6
CONTINUOUS
 62
     3
100
AcDbLine
 10
650.1220006356643
 20
370.4587233191194
 30
0.0
 11
650.1220006356643
 21
390.4587233191194
 31
0.0
  0
LINE
  5
523
330
1A
100
AcDbEntity
  8
SEIHIN
  6
CONTINUOUS
 62
     3
100
AcDbLine
 10
622.1720006356645
 20
370.4588233191192
 30
0.0
 11
622.1720006356645
 21
376.8499233191192
 31
0.0
  0
LINE
  5
524
330
1A
100
AcDbEntity
  8
SEIHIN
  6
CONTINUOUS
 62
     3
100
AcDbLine
 10
620.3720006356645
 20
377.5861233191192
 30
0.0
 11
620.3720006356645
 21
372.4611233191192
 31
0.0
  0
LINE
  5
525
330
1A
100
AcDbEntity
  8
SEIHIN
  6
CONTINUOUS
 62
     3
100
AcDbLine
 10
638.2992006356644
 20
365.4611233191193
 30
0.0
 11
618.7608006356644
 21
361.2549233191194
 31
0.0
  0
LINE
  5
526
330
1A
100
AcDbEntity
  8
SEIHIN
  6
CONTINUOUS
 62
     3
100
AcDbLine
 10
618.7609006356645
 20
359.2549233191194
 30
0.0
 11
647.5897006356643
 21
365.4610233191192
 31
0.0
  0
LINE
  5
527
330
1A
100
AcDbEntity
  8
SEIHIN
  6
CONTINUOUS
 62
     3
100
AcDbLine
 10
647.1109006356646
 20
370.4248233191193
 30
0.0
 11
622.1720006356645
 21
370.4249233191193
 31
0.0
  0
LINE
  5
528
330
1A
100
AcDbEntity
  8
SEIHIN
  6
CONTINUOUS
 62
     3
100
AcDbLine
 10
618.7608006356644
 20
359.2549233191194
 30
0.0
 11
618.7608006356644
 21
361.2549233191194
 31
0.0
  0
LINE
  5
529
330
1A
100
AcDbEntity
  8
SEIHIN
  6
CONTINUOUS
 62
     3
100
AcDbLine
 10
618.7608006356644
 20
353.2549233191193
 30
0.0
 11
618.7608006356644
 21
355.2549233191194
 31
0.0
  0
LINE
  5
52A
330
1A
100
AcDbEntity
  8
SEIHIN
  6
CONTINUOUS
 62
     3
100
AcDbLine
 10
618.7609006356645
 20
365.2549233191194
 30
0.0
 11
619.7184006356645
 21
365.4611233191193
 31
0.0
  0
LINE
  5
52B
330
1A
100
AcDbEntity
  8
SEIHIN
  6
CONTINUOUS
 62
     3
100
AcDbLine
 10
618.7608006356644
 20
365.2549233191194
 30
0.0
 11
618.7608006356644
 21
368.4610233191194
 31
0.0
  0
LINE
  5
52C
330
1A
100
AcDbEntity
  8
SEIHIN
  6
CONTINUOUS
 62
     3
100
AcDbLine
 10
635.9347006356645
 20
389.7523233191193
 30
0.0
 11
622.8001006356643
 21
381.8739233191192
 31
0.0
  0
LINE
  5
52D
330
1A
100
AcDbEntity
  8
SEIHIN
  6
CONTINUOUS
 62
     3
100
AcDbLine
 10
636.5519006356644
 20
388.0235233191191
 30
0.0
 11
624.3573006356646
 21
380.7089233191193
 31
0.0
  0
ARC
  5
52E
330
1A
100
AcDbEntity
  8
SEIHIN
  6
CONTINUOUS
 62
     3
100
AcDbCircle
 10
625.3719955581593
 20
377.5861143526774
 30
0.0
 40
4.999994922502835
100
AcDbArc
 50
120.955989375331
 51
179.999897252041
  0
ARC
  5
52F
330
1A
100
AcDbEntity
  8
SEIHIN
  6
CONTINUOUS
 62
     3
100
AcDbCircle
 10
626.6720277966119
 20
376.8499712824222
 30
0.0
 40
4.50002716120289
100
AcDbArc
 50
120.9560696826051
 51
180.0006106840543
  0
LINE
  5
530
330
1A
100
AcDbEntity
  8
SEIHIN
  6
CONTINUOUS
 62
     3
100
AcDbLine
 10
644.1221006356642
 20
388.6644233191194
 30
0.0
 11
638.8666006356645
 21
388.6645233191194
 31
0.0
  0
LINE
  5
531
330
1A
100
AcDbEntity
  8
SEIHIN
  6
CONTINUOUS
 62
     3
100
AcDbLine
 10
647.1220006356645
 20
390.4644233191192
 30
0.0
 11
638.5066006356645
 21
390.4645233191194
 31
0.0
  0
ARC
  5
532
330
1A
100
AcDbEntity
  8
SEIHIN
  6
CONTINUOUS
 62
     3
100
AcDbCircle
 10
638.5066189718368
 20
385.4645283966245
 30
0.0
 40
4.999994922528485
100
AcDbArc
 50
90.00021011727078
 51
120.9563022405605
  0
ARC
  5
533
330
1A
100
AcDbEntity
  8
SEIHIN
  6
CONTINUOUS
 62
     3
100
AcDbCircle
 10
638.8665573947374
 20
384.1645390363966
 30
0.0
 40
4.499984283080705
100
AcDbArc
 50
90.00072268148754
 51
120.9568366028344
  0
LINE
  5
534
330
1A
100
AcDbEntity
  8
SEIHIN
  6
CONTINUOUS
 62
     3
100
AcDbLine
 10
650.1220006356643
 20
390.4587233191194
 30
0.0
 11
647.1220006356645
 21
390.4587233191194
 31
0.0
  0
LINE
  5
535
330
1A
100
AcDbEntity
  8
SEIHIN
  6
CONTINUOUS
 62
     3
100
AcDbLine
 10
644.1221006356642
 20
390.4587233191194
 30
0.0
 11
647.1221006356643
 21
390.4587233191194
 31
0.0
  0
LINE
  5
53C
330
1A
100
AcDbEntity
  8
SEIHIN
  6
CONTINUOUS
 62
     3
100
AcDbLine
 10
682.1220006356646
 20
370.4610233191194
 30
0.0
 11
686.0488006356645
 21
369.4610233191194
 31
0.0
  0
LINE
  5
53D
330
1A
100
AcDbEntity
  8
SEIHIN
  6
CONTINUOUS
 62
     3
100
AcDbLine
 10
672.0720006356645
 20
370.4587233191194
 30
0.0
 11
672.0720006356645
 21
376.8498233191193
 31
0.0
  0
LINE
  5
53E
330
1A
100
AcDbEntity
  8
SEIHIN
  6
CONTINUOUS
 62
     3
100
AcDbLine
 10
673.8720006356645
 20
377.5860233191191
 30
0.0
 11
673.8720006356645
 21
372.4610233191194
 31
0.0
  0
LINE
  5
53F
330
1A
100
AcDbEntity
  8
SEIHIN
  6
CONTINUOUS
 62
     3
100
AcDbLine
 10
661.5251006356645
 20
350.4610233191194
 30
0.0
 11
675.4608006356646
 21
353.4610233191193
 31
0.0
  0
LINE
  5
540
330
1A
100
AcDbEntity
  8
SEIHIN
  6
CONTINUOUS
 62
     3
100
AcDbLine
 10
677.1258006356645
 20
352.8809233191192
 30
0.0
 11
665.5263006356643
 21
350.4610233191194
 31
0.0
  0
LINE
  5
541
330
1A
100
AcDbEntity
  8
SEIHIN
  6
CONTINUOUS
 62
     3
100
AcDbLine
 10
675.4609006356645
 20
361.4610233191193
 30
0.0
 11
677.1259006356644
 21
362.0411233191194
 31
0.0
  0
LINE
  5
542
330
1A
100
AcDbEntity
  8
SEIHIN
  6
CONTINUOUS
 62
     3
100
AcDbLine
 10
675.4609006356645
 20
353.4610233191193
 30
0.0
 11
677.1259006356644
 21
352.8809233191192
 31
0.0
  0
LINE
  5
543
330
1A
100
AcDbEntity
  8
SEIHIN
  6
CONTINUOUS
 62
     3
100
AcDbLine
 10
675.4609006356645
 20
355.4610233191193
 30
0.0
 11
677.1259006356644
 21
356.0411233191194
 31
0.0
  0
LINE
  5
544
330
1A
100
AcDbEntity
  8
SEIHIN
  6
CONTINUOUS
 62
     3
100
AcDbLine
 10
675.4609006356645
 20
359.4610233191193
 30
0.0
 11
677.1259006356644
 21
358.8809233191192
 31
0.0
  0
LINE
  5
545
330
1A
100
AcDbEntity
  8
SEIHIN
  6
CONTINUOUS
 62
     3
100
AcDbLine
 10
675.4608006356646
 20
359.4610233191193
 30
0.0
 11
675.4608006356646
 21
361.4610233191193
 31
0.0
  0
LINE
  5
546
330
1A
100
AcDbEntity
  8
SEIHIN
  6
CONTINUOUS
 62
     3
100
AcDbLine
 10
675.4608006356646
 20
353.4610233191193
 30
0.0
 11
675.4608006356646
 21
355.4610233191193
 31
0.0
  0
LINE
  5
547
330
1A
100
AcDbEntity
  8
SEIHIN
  6
CONTINUOUS
 62
     3
100
AcDbLine
 10
677.1259006356644
 20
358.8809233191192
 30
0.0
 11
677.1259006356644
 21
356.0411233191194
 31
0.0
  0
LINE
  5
548
330
1A
100
AcDbEntity
  8
SEIHIN
  6
CONTINUOUS
 62
     3
100
AcDbLine
 10
677.1259006356644
 20
352.8809233191192
 30
0.0
 11
677.1258006356645
 21
350.4610233191194
 31
0.0
  0
ARC
  5
549
330
1A
100
AcDbEntity
  8
SEIHIN
  6
CONTINUOUS
 62
     3
100
AcDbCircle
 10
675.8720006356646
 20
372.4610233191194
 30
0.0
 40
2.0
100
AcDbArc
 50
180.0
 51
270.0
  0
LINE
  5
54A
330
1A
100
AcDbEntity
  8
SEIHIN
  6
CONTINUOUS
 62
     3
100
AcDbLine
 10
675.4609006356645
 20
365.4610233191192
 30
0.0
 11
677.1259006356644
 21
364.8809233191194
 31
0.0
  0
LINE
  5
54B
330
1A
100
AcDbEntity
  8
SEIHIN
  6
CONTINUOUS
 62
     3
100
AcDbLine
 10
682.1220006356646
 20
370.4610233191194
 30
0.0
 11
672.0720006356645
 21
370.4610233191194
 31
0.0
  0
LINE
  5
54C
330
1A
100
AcDbEntity
  8
SEIHIN
  6
CONTINUOUS
 62
     3
100
AcDbLine
 10
675.4608006356646
 20
365.4610233191192
 30
0.0
 11
675.4608006356646
 21
368.4610233191194
 31
0.0
  0
LINE
  5
54D
330
1A
100
AcDbEntity
  8
SEIHIN
  6
CONTINUOUS
 62
     3
100
AcDbLine
 10
677.1259006356644
 20
364.8809233191194
 30
0.0
 11
677.1259006356644
 21
362.0411233191194
 31
0.0
  0
LINE
  5
54E
330
1A
100
AcDbEntity
  8
SEIHIN
  6
CONTINUOUS
 62
     3
100
AcDbLine
 10
675.8720006356646
 20
370.4610233191194
 30
0.0
 11
682.1220006356646
 21
370.4610233191194
 31
0.0
  0
LINE
  5
54F
330
1A
100
AcDbEntity
  8
SEIHIN
  6
CONTINUOUS
 62
     3
100
AcDbLine
 10
658.3094006356644
 20
389.7522233191192
 30
0.0
 11
671.4440006356645
 21
381.8738233191193
 31
0.0
  0
LINE
  5
550
330
1A
100
AcDbEntity
  8
SEIHIN
  6
CONTINUOUS
 62
     3
100
AcDbLine
 10
657.6922006356645
 20
388.0234233191194
 30
0.0
 11
669.8868006356645
 21
380.7089233191193
 31
0.0
  0
ARC
  5
551
330
1A
100
AcDbEntity
  8
SEIHIN
  6
CONTINUOUS
 62
     3
100
AcDbCircle
 10
655.7374822994924
 20
385.4644283966245
 30
0.0
 40
4.999994922528259
100
AcDbArc
 50
59.04369775944241
 51
89.99978988273182
  0
ARC
  5
552
330
1A
100
AcDbEntity
  8
SEIHIN
  6
CONTINUOUS
 62
     3
100
AcDbCircle
 10
655.377443876592
 20
384.1644390363961
 30
0.0
 40
4.499984283081153
100
AcDbArc
 50
59.04316339717315
 51
89.99927731852043
  0
ARC
  5
553
330
1A
100
AcDbEntity
  8
SEIHIN
  6
CONTINUOUS
 62
     3
100
AcDbCircle
 10
668.8720057131695
 20
377.5860143526772
 30
0.0
 40
4.999994922503073
100
AcDbArc
 50
0.0001027479605759
 51
59.04401062467129
  0
ARC
  5
554
330
1A
100
AcDbEntity
  8
SEIHIN
  6
CONTINUOUS
 62
     3
100
AcDbCircle
 10
667.5719477557304
 20
376.8499167014541
 30
0.0
 40
4.500052880903023
100
AcDbArc
 50
359.9988110331577
 51
59.04226017151006
  0
LINE
  5
557
330
1A
100
AcDbEntity
  8
SEIHIN
  6
CONTINUOUS
 62
     3
100
AcDbLine
 10
686.1109006356644
 20
368.4610233191194
 30
0.0
 11
686.1109006356644
 21
369.4610233191194
 31
0.0
  0
LINE
  5
560
330
1A
100
AcDbEntity
  8
CENTER_L
 48
5.0
100
AcDbLine
 10
199.6149433307955
 20
287.6610233191826
 30
0.0
 11
199.6148607017138
 21
185.6435233191193
 31
0.0
  0
LINE
  5
561
330
1A
100
AcDbEntity
  8
SEIHIN
  6
CONTINUOUS
 62
     3
100
AcDbLine
 10
235.6148607017138
 20
202.6610233191194
 30
0.0
 11
236.1252607017138
 21
260.6430233191193
 31
0.0
  0
LINE
  5
562
330
1A
100
AcDbEntity
  8
SEIHIN
  6
CONTINUOUS
 62
     3
100
AcDbLine
 10
163.6148607017138
 20
202.6611233191193
 30
0.0
 11
163.1046607017138
 21
260.6431233191193
 31
0.0
  0
LINE
  5
563
330
1A
100
AcDbEntity
  8
SEIHIN
  6
CONTINUOUS
 62
     3
100
AcDbLine
 10
199.6149607017138
 20
189.6610233191194
 30
0.0
 11
228.8149607017136
 21
189.6610233191194
 31
0.0
  0
LINE
  5
564
330
1A
100
AcDbEntity
  8
SEIHIN
  6
CONTINUOUS
 62
     3
100
AcDbLine
 10
234.6148607017138
 20
198.6610233191193
 30
0.0
 11
199.6148607017138
 21
198.6610233191193
 31
0.0
  0
LINE
  5
565
330
1A
100
AcDbEntity
  8
SEIHIN
  6
CONTINUOUS
 62
     3
100
AcDbLine
 10
235.6148607017138
 20
202.6610233191194
 30
0.0
 11
199.6148607017138
 21
202.6610233191194
 31
0.0
  0
LINE
  5
566
330
1A
100
AcDbEntity
  8
SEIHIN
  6
CONTINUOUS
 62
     3
100
AcDbLine
 10
199.6147607017136
 20
189.6610233191194
 30
0.0
 11
170.4147607017137
 21
189.6611233191193
 31
0.0
  0
LINE
  5
567
330
1A
100
AcDbEntity
  8
SEIHIN
  6
CONTINUOUS
 62
     3
100
AcDbLine
 10
163.6148607017138
 20
202.6611233191193
 30
0.0
 11
199.6148607017138
 21
202.6610233191194
 31
0.0
  0
LINE
  5
568
330
1A
100
AcDbEntity
  8
SEIHIN
  6
CONTINUOUS
 62
     3
100
AcDbLine
 10
164.6148607017138
 20
198.6611233191193
 30
0.0
 11
199.6148607017138
 21
198.6610233191193
 31
0.0
  0
LINE
  5
569
330
1A
100
AcDbEntity
  8
SEIHIN
  6
CONTINUOUS
 62
     3
100
AcDbLine
 10
163.6148607017138
 20
202.6611233191193
 30
0.0
 11
164.6148607017138
 21
198.6611233191193
 31
0.0
  0
LINE
  5
56A
330
1A
100
AcDbEntity
  8
SEIHIN
  6
CONTINUOUS
 62
     3
100
AcDbLine
 10
170.4148607017138
 20
198.6611233191193
 30
0.0
 11
170.4148607017138
 21
189.6611233191193
 31
0.0
  0
LINE
  5
56B
330
1A
100
AcDbEntity
  8
SEIHIN
  6
CONTINUOUS
 62
     3
100
AcDbLine
 10
235.6148607017138
 20
202.6610233191194
 30
0.0
 11
234.6148607017138
 21
198.6610233191193
 31
0.0
  0
LINE
  5
56C
330
1A
100
AcDbEntity
  8
SEIHIN
  6
CONTINUOUS
 62
     3
100
AcDbLine
 10
228.8149607017136
 20
198.6610233191193
 30
0.0
 11
228.8149607017136
 21
189.6610233191194
 31
0.0
  0
LINE
  5
570
330
1A
100
AcDbEntity
  8
SEIHIN
  6
CONTINUOUS
 62
     3
100
AcDbLine
 10
199.6149607017138
 20
275.6610233191194
 30
0.0
 11
240.6149607017137
 21
275.6610233191194
 31
0.0
  0
LINE
  5
571
330
1A
100
AcDbEntity
  8
SEIHIN
  6
CONTINUOUS
 62
     3
100
AcDbLine
 10
158.6149607017138
 20
280.6611233191194
 30
0.0
 11
240.6149607017137
 21
280.6609233191193
 31
0.0
  0
LINE
  5
575
330
1A
100
AcDbEntity
  8
SEIHIN
  6
CONTINUOUS
 62
     3
100
AcDbLine
 10
199.6149607017138
 20
275.6610233191194
 30
0.0
 11
158.6149607017138
 21
275.6611233191193
 31
0.0
  0
ARC
  5
576
330
1A
100
AcDbEntity
  8
SEIHIN
  6
CONTINUOUS
 62
     3
100
AcDbCircle
 10
133.1149819387288
 20
259.8576487368502
 30
0.0
 40
29.99997876307768
100
AcDbArc
 50
0.0001424417424507
 51
31.78834216661583
  0
LINE
  5
579
330
1A
100
AcDbEntity
  8
SEIHIN
  6
CONTINUOUS
 62
     3
100
AcDbLine
 10
158.6149607017138
 20
280.6611233191194
 30
0.0
 11
158.6149607017138
 21
275.6611233191193
 31
0.0
  0
ARC
  5
581
330
1A
100
AcDbEntity
  8
SEIHIN
  6
CONTINUOUS
 62
     3
100
AcDbCircle
 10
266.1149658037723
 20
259.8574412368291
 30
0.0
 40
30.00000510217094
100
AcDbArc
 50
148.2116721572416
 51
179.9998432343998
  0
LINE
  5
58B
330
1A
100
AcDbEntity
  8
SEIHIN
  6
CONTINUOUS
 62
     3
100
AcDbLine
 10
240.6149607017137
 20
280.6610233191193
 30
0.0
 11
240.6149607017137
 21
275.6610233191194
 31
0.0
  0
LINE
  5
58D
330
1A
100
AcDbEntity
  8
CENTER_L
 48
5.0
100
AcDbLine
 10
249.6150607017139
 20
416.6609233191193
 30
0.0
 11
149.6150607017137
 21
416.6611233191194
 31
0.0
  0
LINE
  5
591
330
1A
100
AcDbEntity
  8
CENTER_L
 48
5.0
100
AcDbLine
 10
199.6149607017138
 20
372.3411233191193
 30
0.0
 11
199.6152607017138
 21
466.6611233191194
 31
0.0
  0
LINE
  5
5A2
330
1A
100
AcDbEntity
  8
SEIHIN
  6
CONTINUOUS
 62
     3
100
AcDbLine
 10
192.1150607017138
 20
378.3890233191194
 30
0.0
 11
192.1150607017138
 21
377.8796233191194
 31
0.0
  0
LINE
  5
5A3
330
1A
100
AcDbEntity
  8
SEIHIN
  6
CONTINUOUS
 62
     3
100
AcDbLine
 10
207.1150607017138
 20
378.3890233191194
 30
0.0
 11
207.1150607017138
 21
377.8796233191194
 31
0.0
  0
LINE
  5
680
330
1A
100
AcDbEntity
  8
SEIHIN
  6
CONTINUOUS
100
AcDbLine
 10
422.3564106617705
 20
232.4610233476116
 30
0.0
 11
365.6564106617704
 21
232.4610233476116
 31
0.0
  0
LINE
  5
681
330
1A
100
AcDbEntity
  8
SEIHIN
  6
CONTINUOUS
 62
     3
100
AcDbLine
 10
424.0215106617704
 20
249.4670758539608
 30
0.0
 11
363.9915106617704
 21
249.2488715682465
 31
0.0
  0
LINE
  5
682
330
1A
100
AcDbEntity
  8
SEIHIN
  6
CONTINUOUS
 62
     3
100
AcDbLine
 10
424.0215106617704
 20
234.4670758539608
 30
0.0
 11
363.9915106617704
 21
234.2488715682465
 31
0.0
  0
LINE
  5
683
330
1A
100
AcDbEntity
  8
SEIHIN
  6
CONTINUOUS
 62
     3
100
AcDbLine
 10
363.9915106617704
 20
249.2488715682465
 30
0.0
 11
363.9915106617704
 21
234.2488715682465
 31
0.0
  0
LINE
  5
684
330
1A
100
AcDbEntity
  8
SEIHIN
  6
CONTINUOUS
 62
     3
100
AcDbLine
 10
424.0215106617705
 20
249.4670758539608
 30
0.0
 11
424.0215106617702
 21
234.4670758539608
 31
0.0
  0
LINE
  5
685
330
1A
100
AcDbEntity
  8
SEIHIN
  6
CONTINUOUS
100
AcDbLine
 10
422.3564106617705
 20
232.4610233476115
 30
0.0
 11
422.3564106617704
 21
234.4610233476116
 31
0.0
  0
LINE
  5
686
330
1A
100
AcDbEntity
  8
SEIHIN
  6
CONTINUOUS
100
AcDbLine
 10
365.6564106617704
 20
232.4610233476116
 30
0.0
 11
365.6564106617704
 21
234.2549233476115
 31
0.0
  0
ARC
  5
687
330
1A
100
AcDbEntity
  8
SEIHIN
  6
CONTINUOUS
 62
     3
100
AcDbCircle
 10
199.6151016683169
 20
416.6609233190374
 30
0.0
 40
39.5
100
AcDbArc
 50
0.0
 51
359.9998549999999
  0
ARC
  5
688
330
1A
100
AcDbEntity
  8
SEIHIN
  6
CONTINUOUS
 62
     3
100
AcDbCircle
 10
199.6151016683169
 20
416.6609233190374
 30
0.0
 40
41.0
100
AcDbArc
 50
0.0
 51
359.99986
  0
CIRCLE
  5
689
330
1A
100
AcDbEntity
  8
SEIHIN
  6
CONTINUOUS
 62
     3
100
AcDbCircle
 10
199.615146767397
 20
416.6610233189472
 30
0.0
 40
29.99972193114234
  0
CIRCLE
  5
68A
330
1A
100
AcDbEntity
  8
SEIHIN
  6
CONTINUOUS
 62
     3
100
AcDbCircle
 10
199.615146767397
 20
416.6610233189472
 30
0.0
 40
23.8701219311301
  0
ARC
  5
68B
330
1A
100
AcDbEntity
  8
SEIHIN
  6
CONTINUOUS
 62
     3
100
AcDbCircle
 10
199.615146767397
 20
416.6610233189472
 30
0.0
 40
27.1996219311367
100
AcDbArc
 50
213.0767205358958
 51
260.8382685415479
  0
LINE
  5
68C
330
1A
100
AcDbEntity
  8
SEIHIN
  6
CONTINUOUS
 62
     3
100
AcDbLine
 10
174.4771638577092
 20
400.2883286360894
 30
0.0
 11
176.8234811371529
 21
401.8165155468476
 31
0.0
  0
LINE
  5
68D
330
1A
100
AcDbEntity
  8
SEIHIN
  6
CONTINUOUS
 62
     3
100
AcDbLine
 10
194.8385360858562
 20
387.0440128968466
 30
0.0
 11
195.2843731372832
 21
389.8083915492028
 31
0.0
  0
ARC
  5
68E
330
1A
100
AcDbEntity
  8
SEIHIN
  6
CONTINUOUS
 62
     3
100
AcDbCircle
 10
199.615146767397
 20
416.6610233189472
 30
0.0
 40
27.1996219311367
100
AcDbArc
 50
333.0767205358972
 51
20.83826854154861
  0
LINE
  5
68F
330
1A
100
AcDbEntity
  8
SEIHIN
  6
CONTINUOUS
 62
     3
100
AcDbLine
 10
226.3633077460023
 20
403.0772388606879
 30
0.0
 11
223.8667004198331
 21
404.3451157746456
 31
0.0
  0
LINE
  5
690
330
1A
100
AcDbEntity
  8
SEIHIN
  6
CONTINUOUS
 62
     3
100
AcDbLine
 10
227.6525355178552
 20
427.3328623357957
 30
0.0
 11
225.0355948535215
 21
426.3367792221014
 31
0.0
  0
ARC
  5
691
330
1A
100
AcDbEntity
  8
SEIHIN
  6
CONTINUOUS
 62
     3
100
AcDbCircle
 10
199.615146767397
 20
416.6610233189472
 30
0.0
 40
27.1996219311367
100
AcDbArc
 50
93.0767205358966
 51
140.8382685415475
  0
LINE
  5
692
330
1A
100
AcDbEntity
  8
SEIHIN
  6
CONTINUOUS
 62
     3
100
AcDbLine
 10
176.3543686984793
 20
435.6061947242004
 30
0.0
 11
178.5254723113863
 21
433.8378991855378
 31
0.0
  0
LINE
  5
693
330
1A
100
AcDbEntity
  8
SEIHIN
  6
CONTINUOUS
 62
     3
100
AcDbLine
 10
198.0049686984792
 20
446.6175024600652
 30
0.0
 11
198.1552587452048
 21
443.8214386353489
 31
0.0
  0
LINE
  5
69A
330
1A
100
AcDbEntity
  8
SEIHIN
  6
CONTINUOUS
100
AcDbLine
 10
422.3564106617704
 20
249.4610233476115
 30
0.0
 11
422.3564106617705
 21
252.4610233476116
 31
0.0
  0
LINE
  5
69B
330
1A
100
AcDbEntity
  8
SEIHIN
  6
CONTINUOUS
100
AcDbLine
 10
365.6564106617704
 20
249.2549233476115
 30
0.0
 11
365.6564106617704
 21
252.4610233476116
 31
0.0
  0
LINE
  5
69C
330
1A
100
AcDbEntity
  8
SEIHIN
  6
CONTINUOUS
 62
     4
100
AcDbLine
 10
365.6564106617705
 20
249.2549233476117
 30
0.0
 11
365.7654568400293
 21
234.255319721815
 31
0.0
  0
LINE
  5
69D
330
1A
100
AcDbEntity
  8
SEIHIN
  6
CONTINUOUS
 62
     4
100
AcDbLine
 10
422.3564106617705
 20
249.4610233476115
 30
0.0
 11
422.4654568400295
 21
234.4614197218151
 31
0.0
  0
DIMENSION
  5
6B0
330
1A
100
AcDbEntity
  8
SUNPOU
  6
CONTINUOUS
 48
5.0
100
AcDbDimension
  2
*D1
 10
158.6149607017138
 20
303.1774359027567
 30
0.0
 11
199.6149607017137
 21
308.1774359027567
 31
0.0
 12
20.0
 22
0.0
 32
0.0
 70
    32
  1
φ<>
  3
STANDARD
100
AcDbAlignedDimension
 13
240.6149607017137
 23
280.6609233191193
 33
0.0
 14
158.6149607017138
 24
280.6611233191194
 34
0.0
100
AcDbRotatedDimension
1001
ACAD
1000
DSTYLE
1002
{
1070
   140
1040
6.0
1070
    74
1070
     0
1070
   172
1070
     1
1070
    73
1070
     0
1070
   272
1070
     2
1070
    77
1070
     3
1070
   173
1070
     1
1070
   147
1040
2.0
1070
    42
1040
6.0
1070
    44
1040
3.0
1070
    43
1040
14.0
1070
   271
1070
     0
1070
   178
1070
     4
1070
   177
1070
     4
1070
   176
1070
     4
1070
   141
1040
150.0
1070
     7
1000
_OPEN
1070
     6
1000
_OPEN
1070
    41
1040
7.0
1002
}
  0
DIMENSION
  5
6BD
330
1A
100
AcDbEntity
  8
SUNPOU
  6
CONTINUOUS
 48
5.0
100
AcDbDimension
  2
*D2
 10
279.913435810517
 20
280.6609233191193
 30
0.0
 11
274.913435810517
 21
239.6609733191193
 31
0.0
 12
20.0
 22
0.0
 32
0.0
 70
    32
  3
STANDARD
100
AcDbAlignedDimension
 13
234.6148607017138
 23
198.6610233191193
 33
0.0
 14
240.6149607017137
 24
280.6609233191193
 34
0.0
 50
90.0
100
AcDbRotatedDimension
1001
ACAD
1000
DSTYLE
1002
{
1070
   140
1040
6.0
1070
    74
1070
     0
1070
   172
1070
     1
1070
    73
1070
     0
1070
   272
1070
     2
1070
    77
1070
     3
1070
   173
1070
     1
1070
   147
1040
2.0
1070
    42
1040
6.0
1070
    44
1040
3.0
1070
    43
1040
14.0
1070
   271
1070
     0
1070
   178
1070
     4
1070
   177
1070
     4
1070
   176
1070
     4
1070
   141
1040
150.0
1070
     7
1000
_OPEN
1070
     6
1000
_OPEN
1070
    41
1040
7.0
1002
}
  0
DIMENSION
  5
6CA
330
1A
100
AcDbEntity
  8
SUNPOU
  6
CONTINUOUS
 48
5.0
100
AcDbDimension
  2
*D3
 10
363.9915106617704
 20
205.9532943241608
 30
0.0
 11
394.0065106617703
 21
210.9532943241609
 31
0.0
 12
0.0
 22
-30.0
 32
0.0
 70
    32
  1
φ<>
  3
STANDARD
100
AcDbAlignedDimension
 13
424.0215106617702
 23
234.4670758539608
 33
0.0
 14
363.9915106617704
 24
234.2488715682465
 34
0.0
100
AcDbRotatedDimension
1001
ACAD
1000
DSTYLE
1002
{
1070
   140
1040
6.0
1070
    74
1070
     0
1070
   172
1070
     1
1070
    73
1070
     0
1070
   272
1070
     2
1070
    77
1070
     3
1070
   173
1070
     1
1070
   147
1040
2.0
1070
    42
1040
6.0
1070
    44
1040
3.0
1070
    43
1040
14.0
1070
   271
1070
     0
1070
   178
1070
     4
1070
   177
1070
     4
1070
   176
1070
     4
1070
   141
1040
150.0
1070
     7
1000
_OPEN
1070
     6
1000
_OPEN
1070
    41
1040
7.0
1002
}
  0
DIMENSION
  5
6DA
330
1A
100
AcDbEntity
  8
SUNPOU
  6
CONTINUOUS
 48
5.0
100
AcDbDimension
  2
*D4
 10
259.154806498243
 20
198.6610233191193
 30
0.0
 11
254.1548064982429
 21
173.9610233191193
 31
0.0
 70
    32
  1
\U+203B <>
  3
STANDARD
100
AcDbAlignedDimension
 13
235.6676770930076
 23
208.6610233191193
 33
0.0
 14
234.6148607017138
 24
198.6610233191193
 34
0.0
 50
90.0
100
AcDbRotatedDimension
1001
ACAD
1000
DSTYLE
1002
{
1070
   140
1040
6.0
1070
    74
1070
     0
1070
   172
1070
     1
1070
    73
1070
     0
1070
   272
1070
     2
1070
    77
1070
     3
1070
   173
1070
     1
1070
   147
1040
2.0
1070
    42
1040
6.0
1070
    44
1040
3.0
1070
    43
1040
14.0
1070
   271
1070
     0
1070
   178
1070
     4
1070
   177
1070
     4
1070
   176
1070
     4
1070
   141
1040
150.0
1070
     7
1000
_OPEN
1070
     6
1000
_OPEN
1070
    41
1040
7.0
1002
}
  0
DIMENSION
  5
766
330
1A
100
AcDbEntity
  8
SUNPOU
  6
CONTINUOUS
 48
5.0
100
AcDbDimension
  2
*D5
 10
367.267679355996
 20
289.5631961555261
 30
0.0
 11
394.017679355996
 21
294.5631961555261
 31
0.0
 12
0.0
 22
-30.0
 32
0.0
 70
    32
  1
φ<>
  3
STANDARD
100
AcDbAlignedDimension
 13
420.767679355996
 23
261.5860233191194
 33
0.0
 14
367.267679355996
 24
261.5861233191194
 34
0.0
100
AcDbRotatedDimension
1001
ACAD
1000
DSTYLE
1002
{
1070
   140
1040
6.0
1070
    74
1070
     0
1070
   172
1070
     1
1070
    73
1070
     0
1070
   272
1070
     2
1070
    77
1070
     3
1070
   173
1070
     1
1070
   147
1040
2.0
1070
    42
1040
6.0
1070
    44
1040
3.0
1070
    43
1040
14.0
1070
   271
1070
     0
1070
   178
1070
     4
1070
   177
1070
     4
1070
   176
1070
     4
1070
   141
1040
150.0
1070
     7
1000
_OPEN
1070
     6
1000
_OPEN
1070
    41
1040
7.0
1002
}
  0
DIMENSION
  5
773
330
1A
100
AcDbEntity
  8
SUNPOU
  6
CONTINUOUS
 48
5.0
100
AcDbDimension
  2
*D6
 10
355.028679355996
 20
310.5485557155029
 30
0.0
 11
394.017629355996
 21
315.5485557155029
 31
0.0
 12
0.0
 22
-30.0
 32
0.0
 70
    32
  1
φ<>
  3
STANDARD
100
AcDbAlignedDimension
 13
433.006579355996
 23
253.4610233191194
 33
0.0
 14
355.028679355996
 24
253.4612233191193
 34
0.0
100
AcDbRotatedDimension
1001
ACAD
1000
DSTYLE
1002
{
1070
   140
1040
6.0
1070
    74
1070
     0
1070
   172
1070
     1
1070
    73
1070
     0
1070
   272
1070
     2
1070
    77
1070
     3
1070
   173
1070
     1
1070
   147
1040
2.0
1070
    42
1040
6.0
1070
    44
1040
3.0
1070
    43
1040
14.0
1070
   271
1070
     0
1070
   178
1070
     4
1070
   177
1070
     4
1070
   176
1070
     4
1070
   141
1040
150.0
1070
     7
1000
_OPEN
1070
     6
1000
_OPEN
1070
    41
1040
7.0
1002
}
  0
DIMENSION
  5
791
330
1A
100
AcDbEntity
  8
SUNPOU
  6
CONTINUOUS
 48
5.0
100
AcDbDimension
  2
*D7
 10
471.7037860647614
 20
232.4610233476116
 30
0.0
 11
466.7037860647615
 21
242.4610233333655
 31
0.0
 12
0.0
 22
-30.0
 32
0.0
 70
    32
  3
STANDARD
100
AcDbAlignedDimension
 13
433.0175793559958
 23
252.4610233191194
 33
0.0
 14
422.3564106617705
 24
232.4610233476116
 34
0.0
 50
90.0
100
AcDbRotatedDimension
1001
ACAD
1000
DSTYLE
1002
{
1070
   140
1040
6.0
1070
    74
1070
     0
1070
   172
1070
     1
1070
    73
1070
     0
1070
   272
1070
     2
1070
    77
1070
     3
1070
   173
1070
     1
1070
   147
1040
2.0
1070
    42
1040
6.0
1070
    44
1040
3.0
1070
    43
1040
14.0
1070
   271
1070
     0
1070
   178
1070
     4
1070
   177
1070
     4
1070
   176
1070
     4
1070
   141
1040
150.0
1070
     7
1000
_OPEN
1070
     6
1000
_OPEN
1070
    41
1040
7.0
1002
}
  0
DIMENSION
  5
79E
330
1A
100
AcDbEntity
  8
SUNPOU
  6
CONTINUOUS
 48
5.0
100
AcDbDimension
  2
*D8
 10
489.2959332476388
 20
232.4610233476116
 30
0.0
 11
484.2959332476389
 21
253.4627233333655
 31
0.0
 12
0.0
 22
-30.0
 32
0.0
 70
    32
  3
STANDARD
100
AcDbAlignedDimension
 13
402.633179355996
 23
274.4644233191193
 33
0.0
 14
422.3564106617705
 24
232.4610233476116
 34
0.0
 50
90.0
100
AcDbRotatedDimension
1001
ACAD
1000
DSTYLE
1002
{
1070
   140
1040
6.0
1070
    74
1070
     0
1070
   172
1070
     1
1070
    73
1070
     0
1070
   272
1070
     2
1070
    77
1070
     3
1070
   173
1070
     1
1070
   147
1040
2.0
1070
    42
1040
6.0
1070
    44
1040
3.0
1070
    43
1040
14.0
1070
   271
1070
     0
1070
   178
1070
     4
1070
   177
1070
     4
1070
   176
1070
     4
1070
   141
1040
150.0
1070
     7
1000
_OPEN
1070
     6
1000
_OPEN
1070
    41
1040
7.0
1002
}
  0
DIMENSION
  5
809
330
1A
100
AcDbEntity
  8
SUNPOU
  6
CONTINUOUS
 48
5.0
100
AcDbDimension
  2
*D9
 10
616.6108434701039
 20
324.8493364201442
 30
0.0
 11
647.1108434700566
 21
329.8493364201442
 31
0.0
 70
    32
  1
穴径 φ<>
  3
STANDARD
100
AcDbAlignedDimension
 13
677.6108434700092
 23
365.4610195271499
 33
0.0
 14
616.6108434701039
 24
365.4611271111139
 34
0.0
100
AcDbRotatedDimension
1001
ACAD
1000
DSTYLE
1002
{
1070
   140
1040
6.0
1070
    74
1070
     0
1070
   172
1070
     1
1070
    73
1070
     0
1070
   272
1070
     2
1070
    77
1070
     3
1070
   173
1070
     1
1070
   147
1040
2.0
1070
    42
1040
6.0
1070
    44
1040
3.0
1070
    43
1040
14.0
1070
   271
1070
     0
1070
   178
1070
     4
1070
   177
1070
     4
1070
   176
1070
     4
1070
   141
1040
150.0
1070
     7
1000
_OPEN
1070
     6
1000
_OPEN
1070
    41
1040
7.0
1002
}
  0
LINE
  5
82B
330
1A
100
AcDbEntity
  8
NOKITOI
  6
CONTINUOUS
 62
     6
100
AcDbLine
 10
618.2608006356644
 20
368.1611713252693
 30
0.0
 11
591.2608006356643
 21
368.1613097868077
 31
0.0
  0
LINE
  5
82C
330
1A
100
AcDbEntity
  8
NOKITOI
  6
CONTINUOUS
 62
     6
100
AcDbLine
 10
618.2608006356644
 20
365.6611713252364
 30
0.0
 11
618.2608006356644
 21
368.1611713252692
 31
0.0
  0
LINE
  5
82D
330
1A
100
AcDbEntity
  8
NOKITOI
  6
CONTINUOUS
 62
     6
100
AcDbLine
 10
618.2608006356644
 20
365.6611713252364
 30
0.0
 11
591.2608006356643
 21
365.6613097867748
 31
0.0
  0
LINE
  5
82F
330
1A
100
AcDbEntity
  8
NOKITOI
  6
CONTINUOUS
 62
     6
 48
5.0
100
AcDbLine
 10
675.9608870143885
 20
365.6610689402437
 30
0.0
 11
702.9608870147098
 21
365.6611115823483
 31
0.0
  0
LINE
  5
830
330
1A
100
AcDbEntity
  8
NOKITOI
  6
CONTINUOUS
 62
     6
 48
5.0
100
AcDbLine
 10
675.9608958865582
 20
368.1610689402609
 30
0.0
 11
702.9608958868796
 21
368.1611115823655
 31
0.0
  0
LINE
  5
831
330
1A
100
AcDbEntity
  8
NOKITOI
  6
CONTINUOUS
 62
     6
 48
5.0
100
AcDbLine
 10
675.9608870143885
 20
365.6610689402437
 30
0.0
 11
675.9608958865582
 21
368.1610689402608
 31
0.0
  0
DIMENSION
  5
840
330
1A
100
AcDbEntity
  8
SUNPOU
  6
CONTINUOUS
 48
5.0
100
AcDbDimension
  2
*D10
 10
453.2901166043778
 20
252.4610233191194
 30
0.0
 11
453.2901166043778
 21
267.4610233191194
 31
0.0
 12
0.0
 22
-30.0
 32
0.0
 70
   160
  3
STANDARD
100
AcDbAlignedDimension
 13
429.017579355996
 23
254.4610233191194
 33
0.0
 14
433.0175793559958
 24
252.4610233191194
 34
0.0
 50
90.0
100
AcDbRotatedDimension
1001
ACAD
1000
DSTYLE
1002
{
1070
   288
1070
     1
1070
   140
1040
6.0
1070
    74
1070
     0
1070
   172
1070
     1
1070
    73
1070
     0
1070
   272
1070
     2
1070
    77
1070
     3
1070
   173
1070
     1
1070
   147
1040
2.0
1070
    42
1040
6.0
1070
    44
1040
3.0
1070
    43
1040
14.0
1070
   271
1070
     0
1070
   178
1070
     4
1070
   177
1070
     4
1070
   176
1070
     4
1070
   141
1040
150.0
1070
     7
1000
_OPEN
1070
     6
1000
_OPEN
1070
    41
1040
7.0
1002
}
  0
DIMENSION
  5
869
330
1A
100
AcDbEntity
  8
SUNPOU
  6
CONTINUOUS
 48
5.0
100
AcDbDimension
  2
*D11
 10
170.4147607017137
 20
164.1328792131844
 30
0.0
 11
199.6148607017137
 21
169.1328792131844
 31
0.0
 12
20.0
 22
0.0
 32
0.0
 70
    32
  1
φ<>
  3
STANDARD
100
AcDbAlignedDimension
 13
228.8149607017136
 23
189.6610233191194
 33
0.0
 14
170.4147607017137
 24
189.6611233191193
 34
0.0
100
AcDbRotatedDimension
1001
ACAD
1000
DSTYLE
1002
{
1070
   140
1040
6.0
1070
    74
1070
     0
1070
   172
1070
     1
1070
    73
1070
     0
1070
   272
1070
     2
1070
    77
1070
     3
1070
   173
1070
     1
1070
   147
1040
2.0
1070
    42
1040
6.0
1070
    44
1040
3.0
1070
    43
1040
14.0
1070
   271
1070
     0
1070
   178
1070
     4
1070
   177
1070
     4
1070
   176
1070
     4
1070
   141
1040
150.0
1070
     7
1000
_OPEN
1070
     6
1000
_OPEN
1070
    41
1040
7.0
1002
}
  0
MTEXT
  5
92A
330
1A
100
AcDbEntity
  8
SUNPOU
  6
CONTINUOUS
 62
     4
 48
5.0
100
AcDbMText
 10
650.3892733386798
 20
62.37901150161133
 30
0.0
 40
6.0
 41
0.0
 71
     5
 72
     1
  1
\U+203B　たて樋部品の差込寸法を示す
1001
ACAD
1000
MTEXTBEGIN
1070
    73
1070
     1
1070
    44
1040
1.0
1070
    74
1070
     0
1000
MTEXTEND
  0
VIEWPORT
  5
22
330
17
100
AcDbEntity
 67
     1
  8
0
100
AcDbViewport
 10
313.6808219178082
 20
148.5
 30
0.0
 40
627.3616438356165
 41
297.0
 68
     2
 69
     1
1001
ACAD
1000
MVIEW
1002
{
1070
    16
1010
0.0
1020
0.0
1030
0.0
1010
0.0
1020
0.0
1030
1.0
1040
0.0
1040
297.0
1040
313.6808219178082
1040
148.5
1040
50.0
1040
0.0
1040
0.0
1070
     0
1070
   100
1070
     1
1070
     0
1070
     0
1070
     0
1070
     0
1070
     0
1040
0.0
1040
0.0
1040
0.0
1040
1.0
1040
1.0
1040
10.0
1040
10.0
1070
     0
1002
{
1002
}
1002
}
  0
VIEWPORT
  5
64
330
17
100
AcDbEntity
 67
     1
  8
VIEWPORT
100
AcDbViewport
 10
210.0
 20
148.5
 30
0.0
 40
420.0
 41
297.0
 68
     1
 69
     2
1001
ACAD
1000
MVIEW
1002
{
1070
    16
1010
0.0
1020
0.0
1030
0.0
1010
0.0
1020
0.0
1030
1.0
1040
0.0
1040
605.8799999999998
1040
420.0
1040
297.0
1040
50.0
1040
0.0
1040
0.0
1070
     0
1070
   100
1070
     1
1070
     0
1070
     0
1070
     0
1070
     0
1070
     0
1040
0.0
1040
0.0
1040
0.0
1040
10.0
1040
10.0
1040
0.0
1040
0.0
1070
     0
1002
{
1002
}
1002
}
  0
ENDSEC
  0
SECTION
  2
OBJECTS
  0
DICTIONARY
  5
C
330
0
100
AcDbDictionary
  3
ACAD_GROUP
350
D
  3
ACAD_LAYOUT
350
89E
  3
ACAD_MLINESTYLE
350
E
  3
ACAD_PLOTSETTINGS
350
89F
1001
ACAD
1000
TREAT_AS_HARD
1070
     0
  0
DICTIONARY
  5
8CD
330
1A
100
AcDbDictionary
  3
ACAD_LAYOUTSELFREF
350
938
1001
ACAD
1000
TREAT_AS_HARD
1070
     1
  0
DICTIONARY
  5
8CB
330
17
100
AcDbDictionary
  3
ACAD_LAYOUTSELFREF
350
937
1001
ACAD
1000
TREAT_AS_HARD
1070
     1
  0
DICTIONARY
  5
D
102
{ACAD_REACTORS
330
C
102
}
330
C
100
AcDbDictionary
1001
ACAD
1000
TREAT_AS_HARD
1070
     0
  0
DICTIONARY
  5
89E
102
{ACAD_REACTORS
330
C
102
}
330
C
100
AcDbDictionary
1001
ACAD
1000
TREAT_AS_HARD
1070
     0
  0
DICTIONARY
  5
E
102
{ACAD_REACTORS
330
C
102
}
330
C
100
AcDbDictionary
  3
STANDARD
350
13
1001
ACAD
1000
TREAT_AS_HARD
1070
     0
  0
DICTIONARY
  5
89F
102
{ACAD_REACTORS
330
C
102
}
330
C
100
AcDbDictionary
1001
ACAD
1000
TREAT_AS_HARD
1070
     0
  0
XRECORD
  5
938
102
{ACAD_REACTORS
330
8CD
102
}
330
8CD
100
AcDbXrecord
340
1A
  0
XRECORD
  5
937
102
{ACAD_REACTORS
330
8CB
102
}
330
8CB
100
AcDbXrecord
340
17
  0
MLINESTYLE
  5
13
102
{ACAD_REACTORS
330
E
102
}
330
E
100
AcDbMlineStyle
  2
STANDARD
 70
     0
  3

 62
     0
 51
90.0
 52
90.0
 71
     2
 49
0.5
 62
   256
  6
BYLAYER
 49
-0.5
 62
   256
  6
BYLAYER
  0
ENDSEC
  0
EOF
