  0
SECTION
  2
HEADER
  9
$ACADVER
  1
AC1014
  9
$ACADMAINTVER
 70
     9
  9
$DWGCODEPAGE
  3
ANSI_932
  9
$INSBASE
 10
0.0
 20
0.0
 30
0.0
  9
$EXTMIN
 10
-0.0128164049386896
 20
-0.0090633767458712
 30
-0.0015258207003583
  9
$EXTMAX
 10
398.8000497813338
 20
275.8226172192214
 30
0.0000000349246037
  9
$LIMMIN
 10
0.0
 20
0.0
  9
$LIMMAX
 10
420.0
 20
297.0
  9
$ORTHOMODE
 70
     0
  9
$REGENMODE
 70
     1
  9
$FILLMODE
 70
     1
  9
$QTEXTMODE
 70
     0
  9
$MIRRTEXT
 70
     1
  9
$DRAGMODE
 70
     2
  9
$LTSCALE
 40
1.0
  9
$OSMODE
 70
    37
  9
$ATTMODE
 70
     1
  9
$TEXTSIZE
 40
2.5
  9
$TRACEWID
 40
1.0
  9
$TEXTSTYLE
  7
STANDARD
  9
$CLAYER
  8
SEIHIN
  9
$CELTYPE
  6
BYLAYER
  9
$CECOLOR
 62
   256
  9
$CELTSCALE
 40
1.0
  9
$DELOBJ
 70
     1
  9
$DISPSILH
 70
     0
  9
$DIMSCALE
 40
1.0
  9
$DIMASZ
 40
3.0
  9
$DIMEXO
 40
3.0
  9
$DIMDLI
 40
7.0
  9
$DIMRND
 40
0.0
  9
$DIMDLE
 40
0.0
  9
$DIMEXE
 40
1.5
  9
$DIMTP
 40
0.0
  9
$DIMTM
 40
0.0
  9
$DIMTXT
 40
3.0
  9
$DIMCEN
 40
150.0
  9
$DIMTSZ
 40
0.0
  9
$DIMTOL
 70
     0
  9
$DIMLIM
 70
     0
  9
$DIMTIH
 70
     0
  9
$DIMTOH
 70
     0
  9
$DIMSE1
 70
     0
  9
$DIMSE2
 70
     0
  9
$DIMTAD
 70
     3
  9
$DIMZIN
 70
     0
  9
$DIMBLK
  1

  9
$DIMASO
 70
     1
  9
$DIMSHO
 70
     1
  9
$DIMPOST
  1

  9
$DIMAPOST
  1

  9
$DIMALT
 70
     0
  9
$DIMALTD
 70
     2
  9
$DIMALTF
 40
25.4
  9
$DIMLFAC
 40
1.0
  9
$DIMTOFL
 70
     1
  9
$DIMTVP
 40
0.0
  9
$DIMTIX
 70
     0
  9
$DIMSOXD
 70
     0
  9
$DIMSAH
 70
     1
  9
$DIMBLK1
  1
OPEN
  9
$DIMBLK2
  1
OPEN
  9
$DIMSTYLE
  2
STANDARD
  9
$DIMCLRD
 70
   256
  9
$DIMCLRE
 70
   256
  9
$DIMCLRT
 70
   256
  9
$DIMTFAC
 40
1.0
  9
$DIMGAP
 40
1.0
  9
$DIMJUST
 70
     0
  9
$DIMSD1
 70
     0
  9
$DIMSD2
 70
     0
  9
$DIMTOLJ
 70
     1
  9
$DIMTZIN
 70
     0
  9
$DIMALTZ
 70
     0
  9
$DIMALTTZ
 70
     0
  9
$DIMFIT
 70
     3
  9
$DIMUPT
 70
     0
  9
$DIMUNIT
 70
     2
  9
$DIMDEC
 70
     0
  9
$DIMTDEC
 70
     0
  9
$DIMALTU
 70
     2
  9
$DIMALTTD
 70
     2
  9
$DIMTXSTY
  7
STANDARD
  9
$DIMAUNIT
 70
     0
  9
$LUNITS
 70
     2
  9
$LUPREC
 70
     4
  9
$SKETCHINC
 40
1.0
  9
$FILLETRAD
 40
0.5
  9
$AUNITS
 70
     0
  9
$AUPREC
 70
     0
  9
$MENU
  1
.
  9
$ELEVATION
 40
0.0
  9
$PELEVATION
 40
0.0
  9
$THICKNESS
 40
0.0
  9
$LIMCHECK
 70
     0
  9
$BLIPMODE
 70
     0
  9
$CHAMFERA
 40
10.0
  9
$CHAMFERB
 40
10.0
  9
$CHAMFERC
 40
20.0
  9
$CHAMFERD
 40
0.0
  9
$SKPOLY
 70
     0
  9
$TDCREATE
 40
2450994.350997107
  9
$TDUPDATE
 40
2454515.416173101
  9
$TDINDWG
 40
0.0801999306
  9
$TDUSRTIMER
 40
0.0801999306
  9
$USRTIMER
 70
     1
  9
$ANGBASE
 50
0.0
  9
$ANGDIR
 70
     0
  9
$PDMODE
 70
     1
  9
$PDSIZE
 40
0.0
  9
$PLINEWID
 40
0.0
  9
$COORDS
 70
     2
  9
$SPLFRAME
 70
     0
  9
$SPLINETYPE
 70
     6
  9
$SPLINESEGS
 70
     8
  9
$ATTDIA
 70
     0
  9
$ATTREQ
 70
     1
  9
$HANDLING
 70
 10241
  9
$HANDSEED
  5
1208
  9
$SURFTAB1
 70
     6
  9
$SURFTAB2
 70
     6
  9
$SURFTYPE
 70
     6
  9
$SURFU
 70
     6
  9
$SURFV
 70
     6
  9
$UCSNAME
  2

  9
$UCSORG
 10
0.0
 20
0.0
 30
0.0
  9
$UCSXDIR
 10
1.0
 20
0.0
 30
0.0
  9
$UCSYDIR
 10
0.0
 20
1.0
 30
0.0
  9
$PUCSNAME
  2

  9
$PUCSORG
 10
0.0
 20
0.0
 30
0.0
  9
$PUCSXDIR
 10
1.0
 20
0.0
 30
0.0
  9
$PUCSYDIR
 10
0.0
 20
1.0
 30
0.0
  9
$USERI1
 70
     0
  9
$USERI2
 70
     0
  9
$USERI3
 70
     0
  9
$USERI4
 70
     0
  9
$USERI5
 70
     0
  9
$USERR1
 40
0.0
  9
$USERR2
 40
0.0
  9
$USERR3
 40
0.0
  9
$USERR4
 40
0.0
  9
$USERR5
 40
0.0
  9
$WORLDVIEW
 70
     1
  9
$SHADEDGE
 70
     3
  9
$SHADEDIF
 70
    70
  9
$TILEMODE
 70
     1
  9
$MAXACTVP
 70
    16
  9
$PINSBASE
 10
0.0
 20
0.0
 30
0.0
  9
$PLIMCHECK
 70
     0
  9
$PEXTMIN
 10
0.0
 20
0.0
 30
0.0
  9
$PEXTMAX
 10
420.0
 20
297.0
 30
0.0
  9
$PLIMMIN
 10
0.0
 20
0.0
  9
$PLIMMAX
 10
420.0
 20
297.0
  9
$UNITMODE
 70
     0
  9
$VISRETAIN
 70
     0
  9
$PLINEGEN
 70
     0
  9
$PSLTSCALE
 70
     1
  9
$TREEDEPTH
 70
  3020
  9
$PICKSTYLE
 70
     1
  9
$CMLSTYLE
  2
STANDARD
  9
$CMLJUST
 70
     0
  9
$CMLSCALE
 40
1.0
  9
$PROXYGRAPHICS
 70
     1
  9
$MEASUREMENT
 70
     1
  0
ENDSEC
  0
SECTION
  2
CLASSES
  0
CLASS
  1
ACDBDICTIONARYWDFLT
  2
AcDbDictionaryWithDefault
  3
AutoCAD 2000
 90
        0
280
     0
281
     0
  0
CLASS
  1
ACDBPLACEHOLDER
  2
AcDbPlaceHolder
  3
AutoCAD 2000
 90
        0
280
     0
281
     0
  0
CLASS
  1
LAYOUT
  2
AcDbLayout
  3
AutoCAD 2000
 90
        0
280
     0
281
     0
  0
CLASS
  1
LONG_TRANSACTION
  2
AcDbLongTransaction
  3
AutoCAD 2000
 90
        0
280
     0
281
     0
  0
CLASS
  1
LWPOLYLINE
  2
AcDbPolyline
  3
AutoCAD 2000
 90
        0
280
     0
281
     1
  0
CLASS
  1
HATCH
  2
AcDbHatch
  3
AutoCAD 2000
 90
        0
280
     0
281
     1
  0
CLASS
  1
XRECORD
  2
AcDbXrecord
  3
AutoCAD 2000
 90
        0
280
     0
281
     0
  0
CLASS
  1
LONG_TRANSACTION
  2
AcDbLongTransaction
  3
AutoCAD 2000
 90
        0
280
     0
281
     0
  0
CLASS
  1
LWPOLYLINE
  2
AcDbPolyline
  3
AutoCAD 2000
 90
        0
280
     0
281
     1
  0
CLASS
  1
HATCH
  2
AcDbHatch
  3
AutoCAD 2000
 90
        0
280
     0
281
     1
  0
CLASS
  1
XRECORD
  2
AcDbXrecord
  3
AutoCAD 2000
 90
        0
280
     0
281
     0
  0
CLASS
  1
LONG_TRANSACTION
  2
AcDbLongTransaction
  3
AutoCAD 2000
 90
        0
280
     0
281
     0
  0
CLASS
  1
LWPOLYLINE
  2
AcDbPolyline
  3
AutoCAD 2000
 90
        0
280
     0
281
     1
  0
CLASS
  1
HATCH
  2
AcDbHatch
  3
AutoCAD 2000
 90
        0
280
     0
281
     1
  0
CLASS
  1
XRECORD
  2
AcDbXrecord
  3
AutoCAD 2000
 90
        0
280
     0
281
     0
  0
CLASS
  1
LONG_TRANSACTION
  2
AcDbLongTransaction
  3
AutoCAD 2000
 90
        0
280
     0
281
     0
  0
CLASS
  1
LWPOLYLINE
  2
AcDbPolyline
  3
AutoCAD 2000
 90
        0
280
     0
281
     1
  0
CLASS
  1
HATCH
  2
AcDbHatch
  3
AutoCAD 2000
 90
        0
280
     0
281
     1
  0
CLASS
  1
XRECORD
  2
AcDbXrecord
  3
AutoCAD 2000
 90
        0
280
     0
281
     0
  0
ENDSEC
  0
SECTION
  2
TABLES
  0
TABLE
  2
VPORT
  5
8
330
0
100
AcDbSymbolTable
 70
     2
  0
VPORT
  5
11E4
330
8
100
AcDbSymbolTableRecord
100
AcDbViewportTableRecord
  2
*ACTIVE
 70
     0
 10
0.0
 20
0.0
 11
1.0
 21
1.0
 12
177.3088006929517
 22
172.4703317515372
 13
0.0
 23
0.0
 14
5.0
 24
5.0
 15
0.0
 25
0.0
 16
0.0
 26
0.0
 36
1.0
 17
0.0
 27
0.0
 37
0.0
 40
392.4139079718936
 41
1.570153061224489
 42
50.0
 43
0.0
 44
0.0
 50
0.0
 51
0.0
 71
     0
 72
   100
 73
     1
 74
     0
 75
     0
 76
     0
 77
     0
 78
     0
  0
ENDTAB
  0
TABLE
  2
LTYPE
  5
5
330
0
100
AcDbSymbolTable
 70
     3
  0
LTYPE
  5
14
330
5
100
AcDbSymbolTableRecord
100
AcDbLinetypeTableRecord
  2
BYBLOCK
 70
     0
  3

 72
    65
 73
     0
 40
0.0
  0
LTYPE
  5
15
330
5
100
AcDbSymbolTableRecord
100
AcDbLinetypeTableRecord
  2
BYLAYER
 70
     0
  3

 72
    65
 73
     0
 40
0.0
  0
LTYPE
  5
16
330
5
100
AcDbSymbolTableRecord
100
AcDbLinetypeTableRecord
  2
CONTINUOUS
 70
     0
  3
Solid line
 72
    65
 73
     0
 40
0.0
  0
LTYPE
  5
77F
330
5
100
AcDbSymbolTableRecord
100
AcDbLinetypeTableRecord
  2
CENTER
 70
     0
  3
____ _ ____ _ ____ _ ____ _ ____ _ ____ _ ____ 
 72
    65
 73
     4
 40
2.0
 49
1.25
 74
     0
 49
-0.25
 74
     0
 49
0.25
 74
     0
 49
-0.25
 74
     0
  0
LTYPE
  5
921
330
5
100
AcDbSymbolTableRecord
100
AcDbLinetypeTableRecord
  2
PHANTOM
 70
     0
  3
______  __  __  ______  __  __  ______  __  __ 
 72
    65
 73
     6
 40
2.5
 49
1.25
 74
     0
 49
-0.25
 74
     0
 49
0.25
 74
     0
 49
-0.25
 74
     0
 49
0.25
 74
     0
 49
-0.25
 74
     0
  0
ENDTAB
  0
TABLE
  2
LAYER
  5
2
330
0
100
AcDbSymbolTable
 70
     9
  0
LAYER
  5
F
330
2
100
AcDbSymbolTableRecord
100
AcDbLayerTableRecord
  2
0
 70
     0
 62
     7
  6
CONTINUOUS
  0
LAYER
  5
62
330
2
100
AcDbSymbolTableRecord
100
AcDbLayerTableRecord
  2
VIEWPORT
 70
     0
 62
     7
  6
CONTINUOUS
  0
LAYER
  5
6B
330
2
100
AcDbSymbolTableRecord
100
AcDbLayerTableRecord
  2
ZUWAKU
 70
     0
 62
     7
  6
CONTINUOUS
  0
LAYER
  5
14B
330
2
100
AcDbSymbolTableRecord
100
AcDbLayerTableRecord
  2
SEIHIN
 70
     0
 62
     3
  6
CONTINUOUS
  0
LAYER
  5
14C
330
2
100
AcDbSymbolTableRecord
100
AcDbLayerTableRecord
  2
SUNPOU
 70
     0
 62
     4
  6
CONTINUOUS
  0
LAYER
  5
314
330
2
100
AcDbSymbolTableRecord
100
AcDbLayerTableRecord
  2
DEFPOINTS
 70
     0
 62
     7
  6
CONTINUOUS
  0
LAYER
  5
5B0
330
2
100
AcDbSymbolTableRecord
100
AcDbLayerTableRecord
  2
MOJI
 70
     0
 62
     2
  6
CONTINUOUS
  0
LAYER
  5
780
330
2
100
AcDbSymbolTableRecord
100
AcDbLayerTableRecord
  2
CENTER_L
 70
     0
 62
     1
  6
CENTER
  0
LAYER
  5
922
330
2
100
AcDbSymbolTableRecord
100
AcDbLayerTableRecord
  2
NOKITOI
 70
     0
 62
     8
  6
PHANTOM
  0
ENDTAB
  0
TABLE
  2
STYLE
  5
3
330
0
100
AcDbSymbolTable
 70
     2
  0
STYLE
  5
10
330
3
100
AcDbSymbolTableRecord
100
AcDbTextStyleTableRecord
  2
STANDARD
 70
     0
 40
0.0
 41
1.0
 50
0.0
 71
     0
 42
2.5
  3
TXT
  4
bigfont.shx
  0
STYLE
  5
5B1
330
3
100
AcDbSymbolTableRecord
100
AcDbTextStyleTableRecord
  2
ｽﾀｲﾙ1
 70
     0
 40
0.0
 41
1.0
 50
0.0
 71
     0
 42
2.5
  3
MS PGothic.ttf
  4

1001
ACAD
1000
MS PGothic
1071
    32818
  0
ENDTAB
  0
TABLE
  2
VIEW
  5
6
330
0
100
AcDbSymbolTable
 70
     0
  0
ENDTAB
  0
TABLE
  2
UCS
  5
7
330
0
100
AcDbSymbolTable
 70
     0
  0
ENDTAB
  0
TABLE
  2
APPID
  5
9
330
0
100
AcDbSymbolTable
 70
     1
  0
APPID
  5
11
330
9
100
AcDbSymbolTableRecord
100
AcDbRegAppTableRecord
  2
ACAD
 70
     0
  0
ENDTAB
  0
TABLE
  2
DIMSTYLE
  5
A
330
0
100
AcDbSymbolTable
 70
     1
  0
DIMSTYLE
105
1D
102
{ACAD_REACTORS
330
FCB
330
FD9
330
FDA
330
1043
330
1076
330
111B
330
111C
102
}
330
A
100
AcDbSymbolTableRecord
100
AcDbDimStyleTableRecord
  2
STANDARD
 70
     0
  3

  4

  5

  6

  7

 40
1.0
 41
0.18
 42
0.0625
 43
0.38
 44
0.18
 45
0.0
 46
0.0
 47
0.0
 48
0.0
140
0.18
141
0.09
142
0.0
143
25.4
144
1.0
145
0.0
146
1.0
147
0.09
 71
     0
 72
     0
 73
     1
 74
     1
 75
     0
 76
     0
 77
     0
 78
     0
170
     0
171
     2
172
     0
173
     0
174
     0
175
     0
176
     0
177
     0
178
     0
270
     2
271
     4
272
     4
273
     2
274
     2
340
10
275
     0
280
     0
281
     0
282
     0
283
     1
284
     0
285
     0
286
     0
287
     3
288
     0
  0
ENDTAB
  0
TABLE
  2
BLOCK_RECORD
  5
1
330
0
100
AcDbSymbolTable
 70
     8
  0
BLOCK_RECORD
  5
1A
102
{ACAD_XDICTIONARY
360
520
102
}
330
1
100
AcDbSymbolTableRecord
100
AcDbBlockTableRecord
  2
*MODEL_SPACE
  0
BLOCK_RECORD
  5
17
102
{ACAD_XDICTIONARY
360
51E
102
}
330
1
100
AcDbSymbolTableRecord
100
AcDbBlockTableRecord
  2
*PAPER_SPACE
  0
BLOCK_RECORD
  5
B2
330
1
100
AcDbSymbolTableRecord
100
AcDbBlockTableRecord
  2
_OPEN
  0
BLOCK_RECORD
  5
114B
330
1
100
AcDbSymbolTableRecord
100
AcDbBlockTableRecord
  2
*D1
  0
BLOCK_RECORD
  5
1157
330
1
100
AcDbSymbolTableRecord
100
AcDbBlockTableRecord
  2
*D2
  0
BLOCK_RECORD
  5
1163
330
1
100
AcDbSymbolTableRecord
100
AcDbBlockTableRecord
  2
*D3
  0
BLOCK_RECORD
  5
116F
330
1
100
AcDbSymbolTableRecord
100
AcDbBlockTableRecord
  2
*D4
  0
BLOCK_RECORD
  5
117B
330
1
100
AcDbSymbolTableRecord
100
AcDbBlockTableRecord
  2
*D5
  0
BLOCK_RECORD
  5
1187
330
1
100
AcDbSymbolTableRecord
100
AcDbBlockTableRecord
  2
*D6
  0
BLOCK_RECORD
  5
1193
330
1
100
AcDbSymbolTableRecord
100
AcDbBlockTableRecord
  2
*D7
  0
ENDTAB
  0
ENDSEC
  0
SECTION
  2
BLOCKS
  0
BLOCK
  5
1B
330
1A
100
AcDbEntity
  8
0
100
AcDbBlockBegin
  2
*MODEL_SPACE
 70
     0
 10
0.0
 20
0.0
 30
0.0
  3
*MODEL_SPACE
  1

  0
ENDBLK
  5
1C
330
1A
100
AcDbEntity
  8
0
100
AcDbBlockEnd
  0
BLOCK
  5
18
330
17
100
AcDbEntity
 67
     1
  8
0
100
AcDbBlockBegin
  2
*PAPER_SPACE
 70
     0
 10
0.0
 20
0.0
 30
0.0
  3
*PAPER_SPACE
  1

  0
ENDBLK
  5
19
330
17
100
AcDbEntity
 67
     1
  8
0
100
AcDbBlockEnd
  0
BLOCK
  5
B3
330
B2
100
AcDbEntity
  8
0
100
AcDbBlockBegin
  2
_OPEN
 70
     0
 10
0.0
 20
0.0
 30
0.0
  3
_OPEN
  1

  0
LINE
  5
B4
330
B2
100
AcDbEntity
  8
0
  6
BYBLOCK
 62
     0
100
AcDbLine
 10
-1.0
 20
0.1666666666666666
 30
0.0
 11
0.0
 21
0.0
 31
0.0
  0
LINE
  5
B5
330
B2
100
AcDbEntity
  8
0
  6
BYBLOCK
 62
     0
100
AcDbLine
 10
0.0
 20
0.0
 30
0.0
 11
-1.0
 21
-0.1666666666666666
 31
0.0
  0
LINE
  5
B6
330
B2
100
AcDbEntity
  8
0
  6
BYBLOCK
 62
     0
100
AcDbLine
 10
0.0
 20
0.0
 30
0.0
 11
-1.0
 21
0.0
 31
0.0
  0
ENDBLK
  5
B7
330
B2
100
AcDbEntity
  8
0
100
AcDbBlockEnd
  0
BLOCK
  5
1155
330
114B
100
AcDbEntity
  8
0
100
AcDbBlockBegin
  2
*D1
 70
     1
 10
0.0
 20
0.0
 30
0.0
  3
*D1
  1

  0
LINE
  5
119F
330
114B
100
AcDbEntity
  8
SUNPOU
100
AcDbLine
 10
159.1401987102174
 20
147.5292625345322
 30
0.0
 11
181.336092728955
 21
147.5292625345322
 31
0.0
  0
LINE
  5
11A0
330
114B
100
AcDbEntity
  8
SUNPOU
100
AcDbLine
 10
167.6049195327325
 20
112.5284513440224
 30
0.0
 11
181.336092728955
 21
112.5284513440224
 31
0.0
  0
LINE
  5
11A1
330
114B
100
AcDbEntity
  8
SUNPOU
100
AcDbLine
 10
179.836092728955
 20
144.5292625345322
 30
0.0
 11
179.836092728955
 21
115.5284513440224
 31
0.0
  0
INSERT
  5
11A2
330
114B
100
AcDbEntity
  8
SUNPOU
100
AcDbBlockReference
  2
_OPEN
 10
179.836092728955
 20
147.5292625345322
 30
0.0
 41
3.0
 42
3.0
 43
3.0
 50
90.0
  0
INSERT
  5
11A3
330
114B
100
AcDbEntity
  8
SUNPOU
100
AcDbBlockReference
  2
_OPEN
 10
179.836092728955
 20
112.5284513440224
 30
0.0
 41
3.0
 42
3.0
 43
3.0
 50
270.0
  0
MTEXT
  5
11A4
330
114B
100
AcDbEntity
  8
SUNPOU
100
AcDbMText
 10
177.3360927289549
 20
130.0288569392773
 30
0.0
 40
3.0
 41
0.0
 71
     5
 72
     1
  1
\A1;35
 11
0.0000000000000001
 21
1.0
 31
0.0
1001
ACAD
1000
MTEXTBEGIN
1070
    73
1070
     1
1070
    44
1040
1.0
1070
    74
1070
     0
1000
MTEXTEND
  0
POINT
  5
11A5
330
114B
100
AcDbEntity
  8
DEFPOINTS
 62
     0
100
AcDbPoint
 10
156.1401987102174
 20
147.5292625345322
 30
0.0
  0
POINT
  5
11A6
330
114B
100
AcDbEntity
  8
DEFPOINTS
 62
     0
100
AcDbPoint
 10
164.6049195327325
 20
112.5284513440224
 30
0.0
  0
POINT
  5
11A7
330
114B
100
AcDbEntity
  8
DEFPOINTS
 62
     0
100
AcDbPoint
 10
179.836092728955
 20
112.5284513440224
 30
0.0
  0
ENDBLK
  5
1156
330
114B
100
AcDbEntity
  8
0
100
AcDbBlockEnd
  0
BLOCK
  5
1161
330
1157
100
AcDbEntity
  8
0
100
AcDbBlockBegin
  2
*D2
 70
     1
 10
0.0
 20
0.0
 30
0.0
  3
*D2
  1

  0
LINE
  5
11A8
330
1157
100
AcDbEntity
  8
SUNPOU
100
AcDbLine
 10
68.94482358010235
 20
27.49592835773018
 30
0.0
 11
68.94482358010235
 21
18.85744479692951
 31
0.0
  0
LINE
  5
11A9
330
1157
100
AcDbEntity
  8
SUNPOU
100
AcDbLine
 10
143.7655214631663
 20
27.49592835773018
 30
0.0
 11
143.7655214631663
 21
18.85744479692951
 31
0.0
  0
LINE
  5
11AA
330
1157
100
AcDbEntity
  8
SUNPOU
100
AcDbLine
 10
71.94482358010235
 20
20.35744479692951
 30
0.0
 11
140.7655214631663
 21
20.35744479692951
 31
0.0
  0
INSERT
  5
11AB
330
1157
100
AcDbEntity
  8
SUNPOU
100
AcDbBlockReference
  2
_OPEN
 10
68.94482358010235
 20
20.35744479692951
 30
0.0
 41
3.0
 42
3.0
 43
3.0
 50
180.0
  0
INSERT
  5
11AC
330
1157
100
AcDbEntity
  8
SUNPOU
100
AcDbBlockReference
  2
_OPEN
 10
143.7655214631663
 20
20.35744479692951
 30
0.0
 41
3.0
 42
3.0
 43
3.0
  0
MTEXT
  5
11AD
330
1157
100
AcDbEntity
  8
SUNPOU
100
AcDbMText
 10
106.3551725216343
 20
22.85744479692951
 30
0.0
 40
3.0
 41
0.0
 71
     5
 72
     1
  1
\A1;75
1001
ACAD
1000
MTEXTBEGIN
1070
    73
1070
     1
1070
    44
1040
1.0
1070
    74
1070
     0
1000
MTEXTEND
  0
POINT
  5
11AE
330
1157
100
AcDbEntity
  8
DEFPOINTS
 62
     0
100
AcDbPoint
 10
68.94482358010235
 20
30.49592835773017
 30
0.0
  0
POINT
  5
11AF
330
1157
100
AcDbEntity
  8
DEFPOINTS
 62
     0
100
AcDbPoint
 10
143.7655214631663
 20
30.49592835773017
 30
0.0
  0
POINT
  5
11B0
330
1157
100
AcDbEntity
  8
DEFPOINTS
 62
     0
100
AcDbPoint
 10
143.7655214631663
 20
20.35744479692951
 30
0.0
  0
ENDBLK
  5
1162
330
1157
100
AcDbEntity
  8
0
100
AcDbBlockEnd
  0
BLOCK
  5
116D
330
1163
100
AcDbEntity
  8
0
100
AcDbBlockBegin
  2
*D3
 70
     1
 10
0.0
 20
0.0
 30
0.0
  3
*D3
  1

  0
LINE
  5
11B1
330
1163
100
AcDbEntity
  8
SUNPOU
100
AcDbLine
 10
45.07067252163437
 20
87.89602636952173
 30
0.0
 11
45.07067252163437
 21
97.94264163818446
 31
0.0
  0
LINE
  5
11B2
330
1163
100
AcDbEntity
  8
SUNPOU
100
AcDbLine
 10
167.6396725216342
 20
87.89602636952173
 30
0.0
 11
167.6396725216342
 21
97.94264163818446
 31
0.0
  0
LINE
  5
11B3
330
1163
100
AcDbEntity
  8
SUNPOU
100
AcDbLine
 10
48.07067252163438
 20
96.44264163818446
 30
0.0
 11
164.6396725216342
 21
96.44264163818446
 31
0.0
  0
INSERT
  5
11B4
330
1163
100
AcDbEntity
  8
SUNPOU
100
AcDbBlockReference
  2
_OPEN
 10
45.07067252163437
 20
96.44264163818446
 30
0.0
 41
3.0
 42
3.0
 43
3.0
 50
180.0
  0
INSERT
  5
11B5
330
1163
100
AcDbEntity
  8
SUNPOU
100
AcDbBlockReference
  2
_OPEN
 10
167.6396725216342
 20
96.44264163818446
 30
0.0
 41
3.0
 42
3.0
 43
3.0
  0
MTEXT
  5
11B6
330
1163
100
AcDbEntity
  8
SUNPOU
100
AcDbMText
 10
106.3551725216343
 20
98.94264163818446
 30
0.0
 40
3.0
 41
0.0
 71
     5
 72
     1
  1
\A1;123
1001
ACAD
1000
MTEXTBEGIN
1070
    73
1070
     1
1070
    44
1040
1.0
1070
    74
1070
     0
1000
MTEXTEND
  0
POINT
  5
11B7
330
1163
100
AcDbEntity
  8
DEFPOINTS
 62
     0
100
AcDbPoint
 10
45.07067252163437
 20
84.89602636952174
 30
0.0
  0
POINT
  5
11B8
330
1163
100
AcDbEntity
  8
DEFPOINTS
 62
     0
100
AcDbPoint
 10
167.6396725216342
 20
84.89602636952174
 30
0.0
  0
POINT
  5
11B9
330
1163
100
AcDbEntity
  8
DEFPOINTS
 62
     0
100
AcDbPoint
 10
167.6396725216342
 20
96.44264163818446
 30
0.0
  0
ENDBLK
  5
116E
330
1163
100
AcDbEntity
  8
0
100
AcDbBlockEnd
  0
BLOCK
  5
1179
330
116F
100
AcDbEntity
  8
0
100
AcDbBlockBegin
  2
*D4
 70
     1
 10
0.0
 20
0.0
 30
0.0
  3
*D4
  1

  0
LINE
  5
11BA
330
116F
100
AcDbEntity
  8
SUNPOU
100
AcDbLine
 10
169.6396725216665
 20
85.89601833739322
 30
0.0
 11
188.6319311869684
 21
85.89601833739322
 31
0.0
  0
LINE
  5
11BB
330
116F
100
AcDbEntity
  8
SUNPOU
100
AcDbLine
 10
145.1010075803696
 20
30.49592835773018
 30
0.0
 11
188.6319311869684
 21
30.49592835773017
 31
0.0
  0
LINE
  5
11BC
330
116F
100
AcDbEntity
  8
SUNPOU
100
AcDbLine
 10
187.1319311869684
 20
82.89601833739324
 30
0.0
 11
187.1319311869684
 21
33.49592835773017
 31
0.0
  0
INSERT
  5
11BD
330
116F
100
AcDbEntity
  8
SUNPOU
100
AcDbBlockReference
  2
_OPEN
 10
187.1319311869684
 20
85.89601833739322
 30
0.0
 41
3.0
 42
3.0
 43
3.0
 50
90.0
  0
INSERT
  5
11BE
330
116F
100
AcDbEntity
  8
SUNPOU
100
AcDbBlockReference
  2
_OPEN
 10
187.1319311869684
 20
30.49592835773017
 30
0.0
 41
3.0
 42
3.0
 43
3.0
 50
270.0
  0
MTEXT
  5
11BF
330
116F
100
AcDbEntity
  8
SUNPOU
100
AcDbMText
 10
184.6319311869684
 20
58.19597334756173
 30
0.0
 40
3.0
 41
0.0
 71
     5
 72
     1
  1
\A1;55
 11
0.0000000000000001
 21
1.0
 31
0.0
1001
ACAD
1000
MTEXTBEGIN
1070
    73
1070
     1
1070
    44
1040
1.0
1070
    74
1070
     0
1000
MTEXTEND
  0
POINT
  5
11C0
330
116F
100
AcDbEntity
  8
DEFPOINTS
 62
     0
100
AcDbPoint
 10
166.6396725216665
 20
85.89601833739322
 30
0.0
  0
POINT
  5
11C1
330
116F
100
AcDbEntity
  8
DEFPOINTS
 62
     0
100
AcDbPoint
 10
142.1010075803696
 20
30.49592835773018
 30
0.0
  0
POINT
  5
11C2
330
116F
100
AcDbEntity
  8
DEFPOINTS
 62
     0
100
AcDbPoint
 10
187.1319311869684
 20
30.49592835773017
 30
0.0
  0
ENDBLK
  5
117A
330
116F
100
AcDbEntity
  8
0
100
AcDbBlockEnd
  0
BLOCK
  5
1185
330
117B
100
AcDbEntity
  8
0
100
AcDbBlockBegin
  2
*D5
 70
     1
 10
0.0
 20
0.0
 30
0.0
  3
*D5
  1

  0
LINE
  5
11C3
330
117B
100
AcDbEntity
  8
SUNPOU
100
AcDbLine
 10
169.6396725216665
 20
85.89601833739322
 30
0.0
 11
181.336092728955
 21
85.89601833739322
 31
0.0
  0
LINE
  5
11C4
330
117B
100
AcDbEntity
  8
SUNPOU
100
AcDbLine
 10
169.6397885859235
 20
69.44601833739324
 30
0.0
 11
181.336092728955
 21
69.44601833739324
 31
0.0
  0
LINE
  5
11C5
330
117B
100
AcDbEntity
  8
SUNPOU
100
AcDbLine
 10
179.836092728955
 20
82.89601833739324
 30
0.0
 11
179.836092728955
 21
72.44601833739324
 31
0.0
  0
INSERT
  5
11C6
330
117B
100
AcDbEntity
  8
SUNPOU
100
AcDbBlockReference
  2
_OPEN
 10
179.836092728955
 20
85.89601833739322
 30
0.0
 41
3.0
 42
3.0
 43
3.0
 50
90.0
  0
INSERT
  5
11C7
330
117B
100
AcDbEntity
  8
SUNPOU
100
AcDbBlockReference
  2
_OPEN
 10
179.836092728955
 20
69.44601833739324
 30
0.0
 41
3.0
 42
3.0
 43
3.0
 50
270.0
  0
MTEXT
  5
11C8
330
117B
100
AcDbEntity
  8
SUNPOU
100
AcDbMText
 10
177.3360927289549
 20
77.67101833739326
 30
0.0
 40
3.0
 41
0.0
 71
     5
 72
     1
  1
\A1;16
 11
0.0000000000000001
 21
1.0
 31
0.0
1001
ACAD
1000
MTEXTBEGIN
1070
    73
1070
     1
1070
    44
1040
1.0
1070
    74
1070
     0
1000
MTEXTEND
  0
POINT
  5
11C9
330
117B
100
AcDbEntity
  8
DEFPOINTS
 62
     0
100
AcDbPoint
 10
166.6396725216665
 20
85.89601833739322
 30
0.0
  0
POINT
  5
11CA
330
117B
100
AcDbEntity
  8
DEFPOINTS
 62
     0
100
AcDbPoint
 10
166.6397885859234
 20
69.44601833739324
 30
0.0
  0
POINT
  5
11CB
330
117B
100
AcDbEntity
  8
DEFPOINTS
 62
     0
100
AcDbPoint
 10
179.836092728955
 20
69.44601833739324
 30
0.0
  0
ENDBLK
  5
1186
330
117B
100
AcDbEntity
  8
0
100
AcDbBlockEnd
  0
BLOCK
  5
1191
330
1187
100
AcDbEntity
  8
0
100
AcDbBlockBegin
  2
*D6
 70
     1
 10
0.0
 20
0.0
 30
0.0
  3
*D6
  1

  0
LINE
  5
11CC
330
1187
100
AcDbEntity
  8
SUNPOU
100
AcDbLine
 10
345.5631563987051
 20
89.89541833739314
 30
0.0
 11
345.5631563987051
 21
100.6244719806324
 31
0.0
  0
LINE
  5
11CD
330
1187
100
AcDbEntity
  8
SUNPOU
100
AcDbLine
 10
375.5631563987051
 20
89.89541833739304
 30
0.0
 11
375.5631563987051
 21
100.6244719806324
 31
0.0
  0
LINE
  5
11CE
330
1187
100
AcDbEntity
  8
SUNPOU
100
AcDbLine
 10
348.5631563987051
 20
99.12447198063246
 30
0.0
 11
372.5631563987051
 21
99.12447198063246
 31
0.0
  0
INSERT
  5
11CF
330
1187
100
AcDbEntity
  8
SUNPOU
100
AcDbBlockReference
  2
_OPEN
 10
345.5631563987051
 20
99.12447198063246
 30
0.0
 41
3.0
 42
3.0
 43
3.0
 50
180.0
  0
INSERT
  5
11D0
330
1187
100
AcDbEntity
  8
SUNPOU
100
AcDbBlockReference
  2
_OPEN
 10
375.5631563987051
 20
99.12447198063246
 30
0.0
 41
3.0
 42
3.0
 43
3.0
  0
MTEXT
  5
11D1
330
1187
100
AcDbEntity
  8
SUNPOU
100
AcDbMText
 10
360.5631563987051
 20
101.6244719806324
 30
0.0
 40
3.0
 41
0.0
 71
     5
 72
     1
  1
\A1;30
1001
ACAD
1000
MTEXTBEGIN
1070
    73
1070
     1
1070
    44
1040
1.0
1070
    74
1070
     0
1000
MTEXTEND
  0
POINT
  5
11D2
330
1187
100
AcDbEntity
  8
DEFPOINTS
 62
     0
100
AcDbPoint
 10
345.5631563987051
 20
86.89541833739315
 30
0.0
  0
POINT
  5
11D3
330
1187
100
AcDbEntity
  8
DEFPOINTS
 62
     0
100
AcDbPoint
 10
375.5631563987051
 20
86.89541833739303
 30
0.0
  0
POINT
  5
11D4
330
1187
100
AcDbEntity
  8
DEFPOINTS
 62
     0
100
AcDbPoint
 10
375.5631563987051
 20
99.12447198063246
 30
0.0
  0
ENDBLK
  5
1192
330
1187
100
AcDbEntity
  8
0
100
AcDbBlockEnd
  0
BLOCK
  5
119D
330
1193
100
AcDbEntity
  8
0
100
AcDbBlockBegin
  2
*D7
 70
     1
 10
0.0
 20
0.0
 30
0.0
  3
*D7
  1

  0
LINE
  5
11D5
330
1193
100
AcDbEntity
  8
SUNPOU
100
AcDbLine
 10
225.5642499996649
 20
88.89581833739317
 30
0.0
 11
225.5642499996649
 21
111.8376428172532
 31
0.0
  0
LINE
  5
11D6
330
1193
100
AcDbEntity
  8
SUNPOU
100
AcDbLine
 10
360.5639025593966
 20
89.89541833739314
 30
0.0
 11
360.5639025593966
 21
111.8376428172532
 31
0.0
  0
LINE
  5
11D7
330
1193
100
AcDbEntity
  8
SUNPOU
100
AcDbLine
 10
228.564249999665
 20
110.3376428172532
 30
0.0
 11
357.5639025593967
 21
110.3376428172532
 31
0.0
  0
INSERT
  5
11D8
330
1193
100
AcDbEntity
  8
SUNPOU
100
AcDbBlockReference
  2
_OPEN
 10
225.5642499996649
 20
110.3376428172532
 30
0.0
 41
3.0
 42
3.0
 43
3.0
 50
180.0
  0
INSERT
  5
11D9
330
1193
100
AcDbEntity
  8
SUNPOU
100
AcDbBlockReference
  2
_OPEN
 10
360.5639025593966
 20
110.3376428172532
 30
0.0
 41
3.0
 42
3.0
 43
3.0
  0
MTEXT
  5
11DA
330
1193
100
AcDbEntity
  8
SUNPOU
100
AcDbMText
 10
293.0640762795308
 20
112.8376428172532
 30
0.0
 40
3.0
 41
0.0
 71
     5
 72
     1
  1
\A1;135
1001
ACAD
1000
MTEXTBEGIN
1070
    73
1070
     1
1070
    44
1040
1.0
1070
    74
1070
     0
1000
MTEXTEND
  0
POINT
  5
11DB
330
1193
100
AcDbEntity
  8
DEFPOINTS
 62
     0
100
AcDbPoint
 10
225.5642499996649
 20
85.89581833739316
 30
0.0
  0
POINT
  5
11DC
330
1193
100
AcDbEntity
  8
DEFPOINTS
 62
     0
100
AcDbPoint
 10
360.5639025593966
 20
86.89541833739315
 30
0.0
  0
POINT
  5
11DD
330
1193
100
AcDbEntity
  8
DEFPOINTS
 62
     0
100
AcDbPoint
 10
360.5639025593966
 20
110.3376428172532
 30
0.0
  0
ENDBLK
  5
119E
330
1193
100
AcDbEntity
  8
0
100
AcDbBlockEnd
  0
ENDSEC
  0
SECTION
  2
ENTITIES
  0
LINE
  5
66C
330
1A
100
AcDbEntity
  8
ZUWAKU
100
AcDbLine
 10
104.3233009526605
 20
7.599999652471407
 30
0.0
 11
223.7121822931222
 21
7.599999652471403
 31
0.0
  0
LINE
  5
66D
330
1A
100
AcDbEntity
  8
ZUWAKU
100
AcDbLine
 10
104.3233009526605
 20
7.799999652471404
 30
0.0
 11
223.7121822931222
 21
7.799999652471408
 31
0.0
  0
LINE
  5
66E
330
1A
100
AcDbEntity
  8
ZUWAKU
100
AcDbLine
 10
104.3233009526605
 20
7.699999652471404
 30
0.0
 11
223.7121822931222
 21
7.699999652471404
 31
0.0
  0
LINE
  5
66F
330
1A
100
AcDbEntity
  8
ZUWAKU
100
AcDbLine
 10
0.0000003076265784
 20
15.39999965247139
 30
0.0
 11
398.7000003076265
 21
15.39999965247139
 31
0.0
  0
LINE
  5
670
330
1A
100
AcDbEntity
  8
ZUWAKU
100
AcDbLine
 10
0.0000003076265784
 20
15.29999965247139
 30
0.0
 11
398.7000003076265
 21
15.29999965247139
 31
0.0
  0
LINE
  5
671
330
1A
100
AcDbEntity
  8
ZUWAKU
100
AcDbLine
 10
0.0000003076265784
 20
15.19999965247139
 30
0.0
 11
398.7000003076265
 21
15.19999965247139
 31
0.0
  0
LINE
  5
672
330
1A
100
AcDbEntity
  8
ZUWAKU
100
AcDbLine
 10
0.0000003076265784
 20
15.09999965247138
 30
0.0
 11
398.7000003076265
 21
15.09999965247138
 31
0.0
  0
LINE
  5
673
330
1A
100
AcDbEntity
  8
ZUWAKU
100
AcDbLine
 10
0.0000003076265784
 20
14.99999965247138
 30
0.0
 11
398.7000003076265
 21
14.99999965247138
 31
0.0
  0
LWPOLYLINE
  5
674
330
1A
100
AcDbEntity
  8
ZUWAKU
100
AcDbPolyline
 90
        4
 70
     1
 43
0.0
 10
0.1000003076265443
 20
275.6999996524714
 10
0.1000003076265443
 20
0.0999996524714106
 10
398.7000003076265
 20
0.0999996524714222
 10
398.7000003076266
 20
275.6999996524714
  0
LWPOLYLINE
  5
675
330
1A
100
AcDbEntity
  8
ZUWAKU
100
AcDbPolyline
 90
        4
 70
     1
 43
0.0
 10
0.300000307626533
 20
275.4999996524714
 10
0.300000307626533
 20
0.2999996524713992
 10
398.5000003076267
 20
0.2999996524714223
 10
398.5000003076265
 20
275.4999996524714
  0
LWPOLYLINE
  5
676
330
1A
100
AcDbEntity
  8
ZUWAKU
100
AcDbPolyline
 90
        4
 70
     1
 43
0.0
 10
0.0000003076265784
 20
275.7999996524714
 10
0.0000003076265784
 20
-0.0000003475286121
 10
398.8000003076266
 20
-0.0000003475285784
 10
398.8000003076266
 20
275.7999996524714
  0
LWPOLYLINE
  5
677
330
1A
100
AcDbEntity
  8
ZUWAKU
100
AcDbPolyline
 90
        4
 70
     1
 43
0.0
 10
0.2000003076265671
 20
275.5999996524713
 10
0.2000003076265671
 20
0.1999996524714334
 10
398.6000003076266
 20
0.1999996524714218
 10
398.6000003076266
 20
275.5999996524713
  0
LWPOLYLINE
  5
678
330
1A
100
AcDbEntity
  8
ZUWAKU
100
AcDbPolyline
 90
        4
 70
     1
 43
0.0
 10
0.4000003076265557
 20
275.3999996524714
 10
0.4000003076265557
 20
0.399999652471422
 10
398.4000003076265
 20
0.399999652471422
 10
398.4000003076265
 20
275.3999996524714
  0
TEXT
  5
679
330
1A
100
AcDbEntity
  8
MOJI
100
AcDbText
 10
46.47889510171114
 20
6.370588717608768
 30
0.0
 40
3.0
  1
ライナートップ
 41
0.9
  7
ｽﾀｲﾙ1
100
AcDbText
  0
HATCH
  5
67A
330
1A
100
AcDbEntity
  8
ZUWAKU
100
AcDbHatch
 10
0.0
 20
0.0
 30
0.0
210
0.0
220
0.0
230
1.0
  2
ANSI37
 70
     0
 71
     0
 91
        8
 92
        7
 72
     1
 73
     1
 93
       24
 10
7.251131638186507
 20
8.822423892963179
 42
-0.1989123673796348
 10
7.046106385017139
 20
9.317398639793704
 42
0.0
 10
7.046106385017139
 20
9.962499652471393
 42
-0.4142135623730912
 10
7.308606385017128
 20
10.22499965247138
 42
0.0
 10
8.796106385017083
 20
10.22499965247138
 42
0.4142135623731546
 10
9.058606385017128
 20
10.48749965247138
 42
0.0
 10
9.058606385017128
 20
11.36249965247139
 42
0.4142135623731586
 10
8.796106385017083
 20
11.62499965247139
 42
0.0
 10
7.046106385017139
 20
11.62499965247139
 42
0.4142135623730928
 10
5.646106385017162
 20
10.2249996524714
 42
0.0
 10
5.646106385017162
 20
9.317398639793768
 42
0.1989123673796619
 10
6.261182144525378
 20
7.832474399301965
 42
0.0
 10
7.716081131847715
 20
6.377575411979636
 42
-0.1989123673796613
 10
7.921106385017139
 20
5.882600665149043
 42
0.0
 10
7.921106385017139
 20
5.237499652471385
 42
-0.4142135623730911
 10
7.658606385017151
 20
4.974999652471389
 42
0.0
 10
6.171106385017196
 20
4.974999652471389
 42
0.4142135623731526
 10
5.908606385017151
 20
4.712499652471395
 42
0.0
 10
5.908606385017151
 20
3.837499652471384
 42
0.4142135623731526
 10
6.171106385017196
 20
3.57499965247139
 42
0.0
 10
7.921106385017139
 20
3.57499965247139
 42
0.4142135623731044
 10
9.321106385017174
 20
4.974999652471378
 42
0.0
 10
9.321106385017174
 20
5.882600665149015
 42
0.1989123673796604
 10
8.706030625508901
 20
7.367524905640784
 42
0.0
 97
        0
 92
        7
 72
     1
 73
     1
 93
       16
 10
11.77110638501716
 20
9.524999652471393
 42
-0.4142135623730935
 10
12.47110638501715
 20
10.22499965247138
 42
0.0
 10
13.43360638501712
 20
10.22499965247138
 42
0.4142135623731546
 10
13.69610638501717
 20
10.48749965247138
 42
0.0
 10
13.69610638501717
 20
11.36249965247139
 42
0.4142135623730951
 10
13.43360638501718
 20
11.62499965247139
 42
0.0
 10
12.47110638501709
 20
11.62499965247137
 42
0.4142135623730892
 10
10.37110638501712
 20
9.524999652471358
 42
0.0
 10
10.37110638501712
 20
5.674999652471402
 42
0.4142135623730969
 10
12.47110638501715
 20
3.57499965247139
 42
0.0
 10
13.43360638501712
 20
3.57499965247139
 42
0.4142135623731526
 10
13.69610638501717
 20
3.837499652471384
 42
0.0
 10
13.69610638501717
 20
4.712499652471395
 42
0.4142135623730891
 10
13.43360638501718
 20
4.974999652471389
 42
0.0
 10
12.47110638501715
 20
4.974999652471389
 42
-0.4142135623730928
 10
11.77110638501716
 20
5.674999652471383
 42
0.0
 97
        0
 92
        7
 72
     1
 73
     1
 93
        2
 10
12.12110638501712
 20
7.599999652471389
 42
1.0
 10
13.87110638501712
 20
7.599999652471389
 42
1.0
 97
        0
 92
        7
 72
     1
 73
     1
 93
       26
 10
18.65742962610613
 20
9.602523249253103
 42
0.0
 10
19.18824944267504
 20
11.28345266838789
 42
0.5069206636600134
 10
18.93793399307736
 20
11.62499965247139
 42
0.0
 10
18.08848930327275
 20
11.62499965247139
 42
0.3272098845218764
 10
17.83817385367507
 20
11.44154663655487
 42
0.0
 10
16.90403891635918
 20
8.483452668387929
 42
-0.3272098845219541
 10
16.65372346676145
 20
8.299999652471388
 42
0.0
 10
16.58360638501721
 20
8.299999652471388
 42
-0.4142135623731526
 10
16.32110638501717
 20
8.562499652471382
 42
0.0
 10
16.32110638501717
 20
11.36249965247139
 42
0.4142135623730951
 10
16.05860638501718
 20
11.62499965247139
 42
0.0
 10
15.18360638501713
 20
11.62499965247139
 42
0.4142135623730871
 10
14.92110638501713
 20
11.3624996524714
 42
0.0
 10
14.92110638501713
 20
3.837499652471384
 42
0.4142135623730891
 10
15.18360638501713
 20
3.57499965247139
 42
0.0
 10
16.05860638501712
 20
3.57499965247139
 42
0.4142135623731526
 10
16.32110638501717
 20
3.837499652471384
 42
0.0
 10
16.32110638501717
 20
6.637499652471396
 42
-0.4142135623731526
 10
16.58360638501721
 20
6.89999965247139
 42
0.0
 10
16.6537234667615
 20
6.89999965247139
 42
-0.3272098845218915
 10
16.90403891635918
 20
6.716546636554852
 42
0.0
 10
17.83817385367507
 20
3.758452668387926
 42
0.3272098845218902
 10
18.08848930327275
 20
3.57499965247139
 42
0.0
 10
18.93793399307736
 20
3.57499965247139
 42
0.5069206636600335
 10
19.18824944267504
 20
3.916546636554894
 42
0.0
 10
18.02505375343821
 20
7.599999652471458
 42
0.0
 97
        0
 92
        7
 72
     1
 73
     1
 93
        8
 10
21.74610638501712
 20
11.36249965247139
 42
0.4142135623731546
 10
21.48360638501708
 20
11.62499965247139
 42
0.0
 10
20.60860638501719
 20
11.62499965247139
 42
0.4142135623731507
 10
20.34610638501715
 20
11.3624996524714
 42
0.0
 10
20.34610638501715
 20
3.837499652471384
 42
0.4142135623731526
 10
20.60860638501719
 20
3.57499965247139
 42
0.0
 10
21.48360638501708
 20
3.57499965247139
 42
0.4142135623731526
 10
21.74610638501712
 20
3.837499652471384
 42
0.0
 97
        0
 92
        7
 72
     1
 73
     1
 93
       24
 10
24.19610638501717
 20
9.962499652471393
 42
-0.4142135623731546
 10
24.45860638501722
 20
10.22499965247138
 42
0.0
 10
25.94610638501717
 20
10.22499965247138
 42
0.4142135623730911
 10
26.20860638501716
 20
10.48749965247138
 42
0.0
 10
26.20860638501716
 20
11.36249965247139
 42
0.4142135623730952
 10
25.94610638501717
 20
11.62499965247139
 42
0.0
 10
24.19610638501717
 20
11.62499965247139
 42
0.4142135623731048
 10
22.79610638501714
 20
10.2249996524714
 42
0.0
 10
22.79610638501714
 20
9.317398639793768
 42
0.1989123673796613
 10
23.41118214452541
 20
7.832474399301993
 42
0.0
 10
24.86608113184775
 20
6.377575411979659
 42
-0.1989123673796402
 10
25.07110638501717
 20
5.882600665149123
 42
0.0
 10
25.07110638501717
 20
5.237499652471385
 42
-0.4142135623730911
 10
24.80860638501718
 20
4.974999652471389
 42
0.0
 10
23.32110638501717
 20
4.974999652471389
 42
0.4142135623731526
 10
23.05860638501712
 20
4.712499652471395
 42
0.0
 10
23.05860638501712
 20
3.837499652471384
 42
0.4142135623730891
 10
23.32110638501711
 20
3.57499965247139
 42
0.0
 10
25.07110638501717
 20
3.57499965247139
 42
0.4142135623730925
 10
26.47110638501715
 20
4.974999652471378
 42
0.0
 10
26.47110638501715
 20
5.882600665149015
 42
0.1989123673796675
 10
25.85603062550887
 20
7.367524905640841
 42
0.0
 10
24.4011316381866
 20
8.822423892963099
 42
-0.1989123673796652
 10
24.19610638501717
 20
9.317398639793683
 42
0.0
 97
        0
 92
        7
 72
     1
 73
     1
 93
       16
 10
28.92110638501714
 20
11.36249965247138
 42
0.414213562373103
 10
28.65860638501715
 20
11.62499965247139
 42
0.0
 10
27.78360638501715
 20
11.62499965247139
 42
0.4142135623730871
 10
27.52110638501716
 20
11.3624996524714
 42
0.0
 10
27.52110638501716
 20
4.974999652471378
 42
0.4142135623730926
 10
28.92110638501714
 20
3.57499965247139
 42
0.0
 10
30.67110638501714
 20
3.57499965247139
 42
0.4142135623731044
 10
32.07110638501717
 20
4.974999652471378
 42
0.0
 10
32.07110638501717
 20
11.36249965247139
 42
0.4142135623730951
 10
31.80860638501718
 20
11.62499965247139
 42
0.0
 10
30.93360638501712
 20
11.62499965247139
 42
0.4142135623730871
 10
30.67110638501714
 20
11.3624996524714
 42
0.0
 10
30.67110638501714
 20
5.499999652471377
 42
-0.414213562373088
 10
30.14610638501716
 20
4.974999652471389
 42
0.0
 10
29.44610638501717
 20
4.974999652471389
 42
-0.4142135623731197
 10
28.92110638501714
 20
5.499999652471377
 42
0.0
 97
        0
 92
        7
 72
     1
 73
     1
 93
        8
 10
34.52110638501716
 20
11.3624996524714
 42
0.4142135623730871
 10
34.25860638501717
 20
11.62499965247139
 42
0.0
 10
33.38360638501717
 20
11.62499965247139
 42
0.4142135623731507
 10
33.12110638501712
 20
11.3624996524714
 42
0.0
 10
33.12110638501712
 20
3.837499652471384
 42
0.4142135623730891
 10
33.38360638501711
 20
3.57499965247139
 42
0.0
 10
34.25860638501717
 20
3.57499965247139
 42
0.4142135623730891
 10
34.52110638501716
 20
3.837499652471384
 42
0.0
 97
        0
 75
     0
 76
     1
 52
0.0
 41
0.1
 77
     0
 78
     2
 53
45.0
 43
-450.4711518597129
 44
-6.600000347528578
 45
-0.2245064030267288
 46
0.2245064030267288
 79
     0
 53
135.0
 43
-450.4711518597129
 44
-6.600000347528578
 45
-0.2245064030267288
 46
-0.2245064030267288
 79
     0
 47
0.057451373970553
 98
        8
 10
8.039927789138232
 20
7.583586475414165
 10
11.20225781084616
 20
9.422030743696893
 10
12.5821842504564
 20
7.755940475506747
 10
15.45703029844514
 20
8.100648475692139
 10
20.91923631710494
 20
8.330454609462947
 10
23.44910075519135
 20
9.709287810674993
 10
28.27884329382675
 20
9.364578610018895
 10
33.91354011743795
 20
9.594384743789703
  0
LINE
  5
67B
330
1A
100
AcDbEntity
  8
ZUWAKU
100
AcDbLine
 10
12.47110638501715
 20
11.62499965247137
 30
0.0
 11
13.43360638501712
 21
11.62499965247139
 31
0.0
  0
LINE
  5
67C
330
1A
100
AcDbEntity
  8
ZUWAKU
100
AcDbLine
 10
13.43360638501712
 20
10.22499965247138
 30
0.0
 11
12.47110638501715
 21
10.22499965247138
 31
0.0
  0
LINE
  5
67D
330
1A
100
AcDbEntity
  8
ZUWAKU
100
AcDbLine
 10
12.47110638501715
 20
4.974999652471389
 30
0.0
 11
13.43360638501712
 21
4.974999652471389
 31
0.0
  0
LINE
  5
67E
330
1A
100
AcDbEntity
  8
ZUWAKU
100
AcDbLine
 10
13.43360638501712
 20
3.57499965247139
 30
0.0
 11
12.47110638501715
 21
3.57499965247139
 31
0.0
  0
CIRCLE
  5
67F
330
1A
100
AcDbEntity
  8
ZUWAKU
100
AcDbCircle
 10
12.99610638501712
 20
7.599999652471389
 30
0.0
 40
0.875
  0
ARC
  5
680
330
1A
100
AcDbEntity
  8
ZUWAKU
100
AcDbCircle
 10
7.746106385017128
 20
9.31739863979374
 30
0.0
 40
0.7
100
AcDbArc
 50
180.0000000000016
 51
224.9999999999988
  0
LINE
  5
681
330
1A
100
AcDbEntity
  8
ZUWAKU
100
AcDbLine
 10
11.77110638501716
 20
9.52499965247139
 30
0.0
 11
11.77110638501716
 21
5.674999652471392
 31
0.0
  0
LINE
  5
682
330
1A
100
AcDbEntity
  8
ZUWAKU
100
AcDbLine
 10
10.37110638501712
 20
5.674999652471392
 30
0.0
 11
10.37110638501712
 21
9.524999652471368
 31
0.0
  0
ARC
  5
683
330
1A
100
AcDbEntity
  8
ZUWAKU
100
AcDbCircle
 10
7.746106385017128
 20
9.31739863979374
 30
0.0
 40
2.099999999999999
100
AcDbArc
 50
180.0
 51
225.0
  0
ARC
  5
684
330
1A
100
AcDbEntity
  8
ZUWAKU
100
AcDbCircle
 10
7.921106385017139
 20
4.974999652471389
 30
0.0
 40
1.399999999999999
100
AcDbArc
 50
270.0
 51
0.0
  0
ARC
  5
685
330
1A
100
AcDbEntity
  8
ZUWAKU
100
AcDbCircle
 10
12.47110638501715
 20
5.674999652471392
 30
0.0
 40
2.099999999999999
100
AcDbArc
 50
180.0
 51
270.0
  0
ARC
  5
686
330
1A
100
AcDbEntity
  8
ZUWAKU
100
AcDbCircle
 10
7.221106385017151
 20
5.882600665149041
 30
0.0
 40
2.099999999999999
100
AcDbArc
 50
0.0
 51
45.0
  0
LINE
  5
687
330
1A
100
AcDbEntity
  8
ZUWAKU
100
AcDbLine
 10
8.706030625508901
 20
7.367524905640802
 30
0.0
 11
7.251131638186564
 21
8.82242389296314
 31
0.0
  0
LINE
  5
688
330
1A
100
AcDbEntity
  8
ZUWAKU
100
AcDbLine
 10
7.921106385017139
 20
5.237499652471392
 30
0.0
 11
7.921106385017139
 21
5.882600665149062
 31
0.0
  0
ARC
  5
689
330
1A
100
AcDbEntity
  8
ZUWAKU
100
AcDbCircle
 10
7.658606385017151
 20
5.237499652471392
 30
0.0
 40
0.2625
100
AcDbArc
 50
270.0
 51
0.0
  0
ARC
  5
68A
330
1A
100
AcDbEntity
  8
ZUWAKU
100
AcDbCircle
 10
7.221106385017151
 20
5.882600665149062
 30
0.0
 40
0.7
100
AcDbArc
 50
0.0
 51
45.0
  0
LINE
  5
68B
330
1A
100
AcDbEntity
  8
ZUWAKU
100
AcDbLine
 10
5.908606385017151
 20
3.83749965247139
 30
0.0
 11
5.908606385017151
 21
4.71249965247139
 31
0.0
  0
ARC
  5
68C
330
1A
100
AcDbEntity
  8
ZUWAKU
100
AcDbCircle
 10
6.171106385017139
 20
3.83749965247139
 30
0.0
 40
0.2625
100
AcDbArc
 50
180.0
 51
270.0
  0
ARC
  5
68D
330
1A
100
AcDbEntity
  8
ZUWAKU
100
AcDbCircle
 10
6.171106385017139
 20
4.71249965247139
 30
0.0
 40
0.2625
100
AcDbArc
 50
90.0
 51
180.0
  0
LINE
  5
68E
330
1A
100
AcDbEntity
  8
ZUWAKU
100
AcDbLine
 10
6.171106385017139
 20
3.57499965247139
 30
0.0
 11
7.921106385017139
 21
3.57499965247139
 31
0.0
  0
LINE
  5
68F
330
1A
100
AcDbEntity
  8
ZUWAKU
100
AcDbLine
 10
6.171106385017139
 20
4.974999652471389
 30
0.0
 11
7.658606385017151
 21
4.974999652471389
 31
0.0
  0
LINE
  5
690
330
1A
100
AcDbEntity
  8
ZUWAKU
100
AcDbLine
 10
6.261182144525378
 20
7.832474399301979
 30
0.0
 11
7.716081131847715
 21
6.377575411979648
 31
0.0
  0
LINE
  5
691
330
1A
100
AcDbEntity
  8
ZUWAKU
100
AcDbLine
 10
9.321106385017174
 20
4.974999652471389
 30
0.0
 11
9.321106385017174
 21
5.882600665149062
 31
0.0
  0
ARC
  5
692
330
1A
100
AcDbEntity
  8
ZUWAKU
100
AcDbCircle
 10
12.47110638501715
 20
5.674999652471392
 30
0.0
 40
0.7
100
AcDbArc
 50
180.0
 51
270.0
  0
ARC
  5
693
330
1A
100
AcDbEntity
  8
ZUWAKU
100
AcDbCircle
 10
8.796106385017139
 20
11.36249965247138
 30
0.0
 40
0.2625
100
AcDbArc
 50
0.0
 51
90.0
  0
ARC
  5
694
330
1A
100
AcDbEntity
  8
ZUWAKU
100
AcDbCircle
 10
8.796106385017139
 20
10.48749965247138
 30
0.0
 40
0.2625
100
AcDbArc
 50
270.0
 51
0.0
  0
LINE
  5
695
330
1A
100
AcDbEntity
  8
ZUWAKU
100
AcDbLine
 10
7.046106385017139
 20
11.62499965247139
 30
0.0
 11
8.796106385017139
 21
11.62499965247139
 31
0.0
  0
ARC
  5
696
330
1A
100
AcDbEntity
  8
ZUWAKU
100
AcDbCircle
 10
7.308606385017128
 20
9.96249965247139
 30
0.0
 40
0.2625
100
AcDbArc
 50
90.0
 51
180.0
  0
LINE
  5
697
330
1A
100
AcDbEntity
  8
ZUWAKU
100
AcDbLine
 10
7.046106385017139
 20
9.96249965247139
 30
0.0
 11
7.046106385017139
 21
9.317398639793719
 31
0.0
  0
LINE
  5
698
330
1A
100
AcDbEntity
  8
ZUWAKU
100
AcDbLine
 10
8.796106385017139
 20
10.22499965247138
 30
0.0
 11
7.308606385017128
 21
10.22499965247138
 31
0.0
  0
LINE
  5
699
330
1A
100
AcDbEntity
  8
ZUWAKU
100
AcDbLine
 10
5.646106385017162
 20
10.22499965247138
 30
0.0
 11
5.646106385017162
 21
9.317398639793719
 31
0.0
  0
ARC
  5
69A
330
1A
100
AcDbEntity
  8
ZUWAKU
100
AcDbCircle
 10
7.046106385017139
 20
10.22499965247138
 30
0.0
 40
1.399999999999999
100
AcDbArc
 50
90.0
 51
180.0
  0
LINE
  5
69B
330
1A
100
AcDbEntity
  8
ZUWAKU
100
AcDbLine
 10
9.058606385017128
 20
11.36249965247138
 30
0.0
 11
9.058606385017128
 21
10.48749965247138
 31
0.0
  0
ARC
  5
69C
330
1A
100
AcDbEntity
  8
ZUWAKU
100
AcDbCircle
 10
12.47110638501715
 20
9.52499965247139
 30
0.0
 40
0.7
100
AcDbArc
 50
90.0
 51
180.0
  0
ARC
  5
69D
330
1A
100
AcDbEntity
  8
ZUWAKU
100
AcDbCircle
 10
12.47110638501715
 20
9.524999652471368
 30
0.0
 40
2.099999999999999
100
AcDbArc
 50
90.0
 51
180.0
  0
LINE
  5
69E
330
1A
100
AcDbEntity
  8
ZUWAKU
100
AcDbLine
 10
39.66331508162068
 20
14.99999965247138
 30
0.0
 11
39.66331508162079
 21
0.399999652471422
 31
0.0
  0
LINE
  5
69F
330
1A
100
AcDbEntity
  8
ZUWAKU
100
AcDbLine
 10
39.7633150816207
 20
14.99999965247138
 30
0.0
 11
39.76331508162081
 21
0.399999652471422
 31
0.0
  0
LINE
  5
6A0
330
1A
100
AcDbEntity
  8
ZUWAKU
100
AcDbLine
 10
39.56331508162077
 20
14.99999965247138
 30
0.0
 11
39.56331508162077
 21
0.399999652471422
 31
0.0
  0
LINE
  5
6A1
330
1A
100
AcDbEntity
  8
ZUWAKU
100
AcDbLine
 10
32.07110638501717
 20
4.974999652471389
 30
0.0
 11
32.07110638501717
 21
11.36249965247138
 31
0.0
  0
LINE
  5
6A2
330
1A
100
AcDbEntity
  8
ZUWAKU
100
AcDbLine
 10
30.67110638501714
 20
11.36249965247138
 30
0.0
 11
30.67110638501714
 21
5.499999652471387
 31
0.0
  0
LINE
  5
6A3
330
1A
100
AcDbEntity
  8
ZUWAKU
100
AcDbLine
 10
34.52110638501716
 20
3.83749965247139
 30
0.0
 11
34.52110638501716
 21
11.36249965247138
 31
0.0
  0
LINE
  5
6A4
330
1A
100
AcDbEntity
  8
ZUWAKU
100
AcDbLine
 10
33.12110638501712
 20
11.36249965247138
 30
0.0
 11
33.12110638501712
 21
3.83749965247139
 31
0.0
  0
ARC
  5
6A5
330
1A
100
AcDbEntity
  8
ZUWAKU
100
AcDbCircle
 10
24.89610638501716
 20
9.31739863979374
 30
0.0
 40
0.7
100
AcDbArc
 50
180.0000000000016
 51
224.9999999999988
  0
ARC
  5
6A6
330
1A
100
AcDbEntity
  8
ZUWAKU
100
AcDbCircle
 10
24.89610638501716
 20
9.31739863979374
 30
0.0
 40
2.099999999999999
100
AcDbArc
 50
180.0
 51
225.0
  0
LINE
  5
6A7
330
1A
100
AcDbEntity
  8
ZUWAKU
100
AcDbLine
 10
18.65742962610613
 20
9.602523249253103
 30
0.0
 11
18.02505375343821
 21
7.599999652471399
 31
0.0
  0
LINE
  5
6A8
330
1A
100
AcDbEntity
  8
ZUWAKU
100
AcDbLine
 10
20.34610638501715
 20
11.36249965247138
 30
0.0
 11
20.34610638501715
 21
3.83749965247139
 31
0.0
  0
LINE
  5
6A9
330
1A
100
AcDbEntity
  8
ZUWAKU
100
AcDbLine
 10
21.74610638501712
 20
3.83749965247139
 30
0.0
 11
21.74610638501712
 21
11.36249965247138
 31
0.0
  0
LINE
  5
6AA
330
1A
100
AcDbEntity
  8
ZUWAKU
100
AcDbLine
 10
27.52110638501716
 20
11.36249965247138
 30
0.0
 11
27.52110638501716
 21
4.974999652471389
 31
0.0
  0
LINE
  5
6AB
330
1A
100
AcDbEntity
  8
ZUWAKU
100
AcDbLine
 10
28.92110638501714
 20
5.499999652471387
 30
0.0
 11
28.92110638501714
 21
11.36249965247138
 31
0.0
  0
LINE
  5
6AC
330
1A
100
AcDbEntity
  8
ZUWAKU
100
AcDbLine
 10
16.32110638501717
 20
8.562499652471391
 30
0.0
 11
16.32110638501717
 21
11.36249965247138
 31
0.0
  0
LINE
  5
6AD
330
1A
100
AcDbEntity
  8
ZUWAKU
100
AcDbLine
 10
14.92110638501713
 20
11.36249965247138
 30
0.0
 11
14.92110638501713
 21
3.83749965247139
 31
0.0
  0
LINE
  5
6AE
330
1A
100
AcDbEntity
  8
ZUWAKU
100
AcDbLine
 10
17.83817385367507
 20
11.44154663655487
 30
0.0
 11
16.90403891635918
 21
8.483452668387904
 31
0.0
  0
LINE
  5
6AF
330
1A
100
AcDbEntity
  8
ZUWAKU
100
AcDbLine
 10
30.14610638501716
 20
4.974999652471389
 30
0.0
 11
29.44610638501717
 21
4.974999652471389
 31
0.0
  0
LINE
  5
6B0
330
1A
100
AcDbEntity
  8
ZUWAKU
100
AcDbLine
 10
28.92110638501714
 20
3.57499965247139
 30
0.0
 11
30.67110638501714
 21
3.57499965247139
 31
0.0
  0
LINE
  5
6B1
330
1A
100
AcDbEntity
  8
ZUWAKU
100
AcDbLine
 10
20.60860638501714
 20
3.57499965247139
 30
0.0
 11
21.48360638501713
 21
3.57499965247139
 31
0.0
  0
LINE
  5
6B2
330
1A
100
AcDbEntity
  8
ZUWAKU
100
AcDbLine
 10
17.83817385367507
 20
3.758452668387903
 30
0.0
 11
16.90403891635918
 21
6.716546636554873
 31
0.0
  0
ARC
  5
6B3
330
1A
100
AcDbEntity
  8
ZUWAKU
100
AcDbCircle
 10
16.6537234667615
 20
8.562499652471391
 30
0.0
 40
0.2625
100
AcDbArc
 50
270.0
 51
342.4744316262769
  0
LINE
  5
6B4
330
1A
100
AcDbEntity
  8
ZUWAKU
100
AcDbLine
 10
16.6537234667615
 20
8.299999652471388
 30
0.0
 11
16.58360638501716
 21
8.299999652471388
 31
0.0
  0
LINE
  5
6B5
330
1A
100
AcDbEntity
  8
ZUWAKU
100
AcDbLine
 10
16.58360638501716
 20
6.89999965247139
 30
0.0
 11
16.6537234667615
 21
6.89999965247139
 31
0.0
  0
ARC
  5
6B6
330
1A
100
AcDbEntity
  8
ZUWAKU
100
AcDbCircle
 10
16.58360638501716
 20
8.562499652471391
 30
0.0
 40
0.2625
100
AcDbArc
 50
180.0
 51
270.0
  0
LINE
  5
6B7
330
1A
100
AcDbEntity
  8
ZUWAKU
100
AcDbLine
 10
15.18360638501713
 20
3.57499965247139
 30
0.0
 11
16.05860638501712
 21
3.57499965247139
 31
0.0
  0
ARC
  5
6B8
330
1A
100
AcDbEntity
  8
ZUWAKU
100
AcDbCircle
 10
16.05860638501712
 20
3.83749965247139
 30
0.0
 40
0.2625
100
AcDbArc
 50
270.0
 51
0.0
  0
LINE
  5
6B9
330
1A
100
AcDbEntity
  8
ZUWAKU
100
AcDbLine
 10
16.32110638501717
 20
3.83749965247139
 30
0.0
 11
16.32110638501717
 21
6.63749965247139
 31
0.0
  0
LINE
  5
6BA
330
1A
100
AcDbEntity
  8
ZUWAKU
100
AcDbLine
 10
13.69610638501717
 20
4.71249965247139
 30
0.0
 11
13.69610638501717
 21
3.83749965247139
 31
0.0
  0
ARC
  5
6BB
330
1A
100
AcDbEntity
  8
ZUWAKU
100
AcDbCircle
 10
13.43360638501712
 20
3.83749965247139
 30
0.0
 40
0.2625
100
AcDbArc
 50
270.0
 51
0.0
  0
ARC
  5
6BC
330
1A
100
AcDbEntity
  8
ZUWAKU
100
AcDbCircle
 10
13.43360638501712
 20
4.71249965247139
 30
0.0
 40
0.2625
100
AcDbArc
 50
0.0
 51
90.0
  0
ARC
  5
6BD
330
1A
100
AcDbEntity
  8
ZUWAKU
100
AcDbCircle
 10
15.18360638501713
 20
3.83749965247139
 30
0.0
 40
0.2625
100
AcDbArc
 50
180.0
 51
270.0
  0
ARC
  5
6BE
330
1A
100
AcDbEntity
  8
ZUWAKU
100
AcDbCircle
 10
16.6537234667615
 20
6.63749965247139
 30
0.0
 40
0.2625
100
AcDbArc
 50
17.52556837372303
 51
90.0
  0
ARC
  5
6BF
330
1A
100
AcDbEntity
  8
ZUWAKU
100
AcDbCircle
 10
16.58360638501716
 20
6.63749965247139
 30
0.0
 40
0.2625
100
AcDbArc
 50
90.0
 51
180.0
  0
ARC
  5
6C0
330
1A
100
AcDbEntity
  8
ZUWAKU
100
AcDbCircle
 10
20.60860638501714
 20
3.83749965247139
 30
0.0
 40
0.2625
100
AcDbArc
 50
180.0
 51
270.0
  0
LINE
  5
6C1
330
1A
100
AcDbEntity
  8
ZUWAKU
100
AcDbLine
 10
18.08848930327281
 20
3.57499965247139
 30
0.0
 11
18.9379339930773
 21
3.57499965247139
 31
0.0
  0
ARC
  5
6C2
330
1A
100
AcDbEntity
  8
ZUWAKU
100
AcDbCircle
 10
18.9379339930773
 20
3.83749965247139
 30
0.0
 40
0.2625
100
AcDbArc
 50
270.0
 51
17.52556837372303
  0
LINE
  5
6C3
330
1A
100
AcDbEntity
  8
ZUWAKU
100
AcDbLine
 10
19.18824944267504
 20
3.916546636554876
 30
0.0
 11
18.02505375343821
 21
7.599999652471399
 31
0.0
  0
ARC
  5
6C4
330
1A
100
AcDbEntity
  8
ZUWAKU
100
AcDbCircle
 10
18.08848930327281
 20
3.83749965247139
 30
0.0
 40
0.2625
100
AcDbArc
 50
197.525568373723
 51
270.0
  0
ARC
  5
6C5
330
1A
100
AcDbEntity
  8
ZUWAKU
100
AcDbCircle
 10
28.92110638501714
 20
4.974999652471389
 30
0.0
 40
1.399999999999999
100
AcDbArc
 50
180.0
 51
270.0
  0
ARC
  5
6C6
330
1A
100
AcDbEntity
  8
ZUWAKU
100
AcDbCircle
 10
25.07110638501717
 20
4.974999652471389
 30
0.0
 40
1.399999999999999
100
AcDbArc
 50
270.0
 51
0.0
  0
LINE
  5
6C7
330
1A
100
AcDbEntity
  8
ZUWAKU
100
AcDbLine
 10
25.85603062550893
 20
7.367524905640802
 30
0.0
 11
24.40113163818654
 21
8.82242389296314
 31
0.0
  0
LINE
  5
6C8
330
1A
100
AcDbEntity
  8
ZUWAKU
100
AcDbLine
 10
25.07110638501717
 20
5.237499652471392
 30
0.0
 11
25.07110638501717
 21
5.882600665149062
 31
0.0
  0
ARC
  5
6C9
330
1A
100
AcDbEntity
  8
ZUWAKU
100
AcDbCircle
 10
24.37110638501712
 20
5.882600665149062
 30
0.0
 40
0.7
100
AcDbArc
 50
0.0
 51
45.0
  0
ARC
  5
6CA
330
1A
100
AcDbEntity
  8
ZUWAKU
100
AcDbCircle
 10
24.80860638501713
 20
5.237499652471392
 30
0.0
 40
0.2625
100
AcDbArc
 50
270.0
 51
0.0
  0
LINE
  5
6CB
330
1A
100
AcDbEntity
  8
ZUWAKU
100
AcDbLine
 10
23.05860638501712
 20
3.83749965247139
 30
0.0
 11
23.05860638501712
 21
4.71249965247139
 31
0.0
  0
ARC
  5
6CC
330
1A
100
AcDbEntity
  8
ZUWAKU
100
AcDbCircle
 10
23.32110638501717
 20
3.83749965247139
 30
0.0
 40
0.2625
100
AcDbArc
 50
180.0
 51
270.0
  0
ARC
  5
6CD
330
1A
100
AcDbEntity
  8
ZUWAKU
100
AcDbCircle
 10
21.48360638501713
 20
3.83749965247139
 30
0.0
 40
0.2625
100
AcDbArc
 50
270.0
 51
0.0
  0
ARC
  5
6CE
330
1A
100
AcDbEntity
  8
ZUWAKU
100
AcDbCircle
 10
23.32110638501717
 20
4.71249965247139
 30
0.0
 40
0.2625
100
AcDbArc
 50
90.0
 51
180.0
  0
LINE
  5
6CF
330
1A
100
AcDbEntity
  8
ZUWAKU
100
AcDbLine
 10
23.32110638501717
 20
4.974999652471389
 30
0.0
 11
24.80860638501713
 21
4.974999652471389
 31
0.0
  0
LINE
  5
6D0
330
1A
100
AcDbEntity
  8
ZUWAKU
100
AcDbLine
 10
23.32110638501717
 20
3.57499965247139
 30
0.0
 11
25.07110638501717
 21
3.57499965247139
 31
0.0
  0
LINE
  5
6D1
330
1A
100
AcDbEntity
  8
ZUWAKU
100
AcDbLine
 10
23.41118214452541
 20
7.832474399301979
 30
0.0
 11
24.86608113184775
 21
6.377575411979648
 31
0.0
  0
LINE
  5
6D2
330
1A
100
AcDbEntity
  8
ZUWAKU
100
AcDbLine
 10
26.47110638501715
 20
4.974999652471389
 30
0.0
 11
26.47110638501715
 21
5.882600665149062
 31
0.0
  0
ARC
  5
6D3
330
1A
100
AcDbEntity
  8
ZUWAKU
100
AcDbCircle
 10
24.37110638501712
 20
5.882600665149041
 30
0.0
 40
2.099999999999999
100
AcDbArc
 50
0.0
 51
45.0
  0
ARC
  5
6D4
330
1A
100
AcDbEntity
  8
ZUWAKU
100
AcDbCircle
 10
29.44610638501717
 20
5.499999652471387
 30
0.0
 40
0.525
100
AcDbArc
 50
180.0
 51
270.0
  0
ARC
  5
6D5
330
1A
100
AcDbEntity
  8
ZUWAKU
100
AcDbCircle
 10
30.67110638501714
 20
4.974999652471389
 30
0.0
 40
1.399999999999999
100
AcDbArc
 50
270.0
 51
0.0
  0
LINE
  5
6D6
330
1A
100
AcDbEntity
  8
ZUWAKU
100
AcDbLine
 10
33.38360638501717
 20
3.57499965247139
 30
0.0
 11
34.25860638501717
 21
3.57499965247139
 31
0.0
  0
ARC
  5
6D7
330
1A
100
AcDbEntity
  8
ZUWAKU
100
AcDbCircle
 10
33.38360638501717
 20
3.83749965247139
 30
0.0
 40
0.2625
100
AcDbArc
 50
180.0
 51
270.0
  0
ARC
  5
6D8
330
1A
100
AcDbEntity
  8
ZUWAKU
100
AcDbCircle
 10
30.14610638501716
 20
5.499999652471387
 30
0.0
 40
0.525
100
AcDbArc
 50
270.0
 51
0.0
  0
ARC
  5
6D9
330
1A
100
AcDbEntity
  8
ZUWAKU
100
AcDbCircle
 10
34.25860638501717
 20
3.83749965247139
 30
0.0
 40
0.2625
100
AcDbArc
 50
270.0
 51
0.0
  0
LINE
  5
6DA
330
1A
100
AcDbEntity
  8
ZUWAKU
100
AcDbLine
 10
21.48360638501713
 20
11.62499965247139
 30
0.0
 11
20.60860638501714
 21
11.62499965247139
 31
0.0
  0
ARC
  5
6DB
330
1A
100
AcDbEntity
  8
ZUWAKU
100
AcDbCircle
 10
16.05860638501712
 20
11.36249965247138
 30
0.0
 40
0.2625
100
AcDbArc
 50
0.0
 51
90.0
  0
LINE
  5
6DC
330
1A
100
AcDbEntity
  8
ZUWAKU
100
AcDbLine
 10
16.05860638501712
 20
11.62499965247139
 30
0.0
 11
15.18360638501713
 21
11.62499965247139
 31
0.0
  0
ARC
  5
6DD
330
1A
100
AcDbEntity
  8
ZUWAKU
100
AcDbCircle
 10
13.43360638501712
 20
11.36249965247138
 30
0.0
 40
0.2625
100
AcDbArc
 50
0.0
 51
90.0
  0
ARC
  5
6DE
330
1A
100
AcDbEntity
  8
ZUWAKU
100
AcDbCircle
 10
15.18360638501713
 20
11.36249965247138
 30
0.0
 40
0.2625
100
AcDbArc
 50
90.0
 51
180.0
  0
ARC
  5
6DF
330
1A
100
AcDbEntity
  8
ZUWAKU
100
AcDbCircle
 10
13.43360638501712
 20
10.48749965247138
 30
0.0
 40
0.2625
100
AcDbArc
 50
270.0
 51
0.0
  0
LINE
  5
6E0
330
1A
100
AcDbEntity
  8
ZUWAKU
100
AcDbLine
 10
13.69610638501717
 20
11.36249965247138
 30
0.0
 11
13.69610638501717
 21
10.48749965247138
 31
0.0
  0
ARC
  5
6E1
330
1A
100
AcDbEntity
  8
ZUWAKU
100
AcDbCircle
 10
20.60860638501714
 20
11.36249965247138
 30
0.0
 40
0.2625
100
AcDbArc
 50
90.0
 51
180.0
  0
LINE
  5
6E2
330
1A
100
AcDbEntity
  8
ZUWAKU
100
AcDbLine
 10
18.08848930327281
 20
11.62499965247139
 30
0.0
 11
18.9379339930773
 21
11.62499965247139
 31
0.0
  0
ARC
  5
6E3
330
1A
100
AcDbEntity
  8
ZUWAKU
100
AcDbCircle
 10
18.9379339930773
 20
11.36249965247138
 30
0.0
 40
0.2625
100
AcDbArc
 50
342.4744316262769
 51
90.0
  0
LINE
  5
6E4
330
1A
100
AcDbEntity
  8
ZUWAKU
100
AcDbLine
 10
19.18824944267504
 20
11.2834526683879
 30
0.0
 11
18.65742962610613
 21
9.602523249253103
 31
0.0
  0
ARC
  5
6E5
330
1A
100
AcDbEntity
  8
ZUWAKU
100
AcDbCircle
 10
18.08848930327281
 20
11.36249965247138
 30
0.0
 40
0.2625
100
AcDbArc
 50
90.0
 51
162.4744316262769
  0
LINE
  5
6E6
330
1A
100
AcDbEntity
  8
ZUWAKU
100
AcDbLine
 10
24.19610638501717
 20
11.62499965247139
 30
0.0
 11
25.94610638501717
 21
11.62499965247139
 31
0.0
  0
LINE
  5
6E7
330
1A
100
AcDbEntity
  8
ZUWAKU
100
AcDbLine
 10
25.94610638501717
 20
10.22499965247138
 30
0.0
 11
24.45860638501716
 21
10.22499965247138
 31
0.0
  0
ARC
  5
6E8
330
1A
100
AcDbEntity
  8
ZUWAKU
100
AcDbCircle
 10
24.45860638501716
 20
9.96249965247139
 30
0.0
 40
0.2625
100
AcDbArc
 50
90.0
 51
180.0
  0
LINE
  5
6E9
330
1A
100
AcDbEntity
  8
ZUWAKU
100
AcDbLine
 10
24.19610638501717
 20
9.96249965247139
 30
0.0
 11
24.19610638501717
 21
9.317398639793719
 31
0.0
  0
ARC
  5
6EA
330
1A
100
AcDbEntity
  8
ZUWAKU
100
AcDbCircle
 10
21.48360638501713
 20
11.36249965247138
 30
0.0
 40
0.2625
100
AcDbArc
 50
0.0
 51
90.0
  0
LINE
  5
6EB
330
1A
100
AcDbEntity
  8
ZUWAKU
100
AcDbLine
 10
22.79610638501714
 20
10.22499965247138
 30
0.0
 11
22.79610638501714
 21
9.317398639793719
 31
0.0
  0
ARC
  5
6EC
330
1A
100
AcDbEntity
  8
ZUWAKU
100
AcDbCircle
 10
24.19610638501717
 20
10.22499965247138
 30
0.0
 40
1.399999999999999
100
AcDbArc
 50
90.0
 51
180.0
  0
ARC
  5
6ED
330
1A
100
AcDbEntity
  8
ZUWAKU
100
AcDbCircle
 10
28.65860638501715
 20
11.36249965247138
 30
0.0
 40
0.2625
100
AcDbArc
 50
0.0
 51
90.0
  0
ARC
  5
6EE
330
1A
100
AcDbEntity
  8
ZUWAKU
100
AcDbCircle
 10
27.78360638501715
 20
11.36249965247138
 30
0.0
 40
0.2625
100
AcDbArc
 50
90.0
 51
180.0
  0
LINE
  5
6EF
330
1A
100
AcDbEntity
  8
ZUWAKU
100
AcDbLine
 10
28.65860638501715
 20
11.62499965247139
 30
0.0
 11
27.78360638501715
 21
11.62499965247139
 31
0.0
  0
ARC
  5
6F0
330
1A
100
AcDbEntity
  8
ZUWAKU
100
AcDbCircle
 10
25.94610638501717
 20
11.36249965247138
 30
0.0
 40
0.2625
100
AcDbArc
 50
0.0
 51
90.0
  0
ARC
  5
6F1
330
1A
100
AcDbEntity
  8
ZUWAKU
100
AcDbCircle
 10
25.94610638501717
 20
10.48749965247138
 30
0.0
 40
0.2625
100
AcDbArc
 50
270.0
 51
0.0
  0
LINE
  5
6F2
330
1A
100
AcDbEntity
  8
ZUWAKU
100
AcDbLine
 10
26.20860638501716
 20
11.36249965247138
 30
0.0
 11
26.20860638501716
 21
10.48749965247138
 31
0.0
  0
LINE
  5
6F3
330
1A
100
AcDbEntity
  8
ZUWAKU
100
AcDbLine
 10
34.25860638501717
 20
11.62499965247139
 30
0.0
 11
33.38360638501717
 21
11.62499965247139
 31
0.0
  0
ARC
  5
6F4
330
1A
100
AcDbEntity
  8
ZUWAKU
100
AcDbCircle
 10
33.38360638501717
 20
11.36249965247138
 30
0.0
 40
0.2625
100
AcDbArc
 50
90.0
 51
180.0
  0
ARC
  5
6F5
330
1A
100
AcDbEntity
  8
ZUWAKU
100
AcDbCircle
 10
31.80860638501712
 20
11.36249965247138
 30
0.0
 40
0.2625
100
AcDbArc
 50
0.0
 51
90.0
  0
LINE
  5
6F6
330
1A
100
AcDbEntity
  8
ZUWAKU
100
AcDbLine
 10
31.80860638501712
 20
11.62499965247139
 30
0.0
 11
30.93360638501712
 21
11.62499965247139
 31
0.0
  0
ARC
  5
6F7
330
1A
100
AcDbEntity
  8
ZUWAKU
100
AcDbCircle
 10
30.93360638501712
 20
11.36249965247138
 30
0.0
 40
0.2625
100
AcDbArc
 50
90.0
 51
180.0
  0
ARC
  5
6F8
330
1A
100
AcDbEntity
  8
ZUWAKU
100
AcDbCircle
 10
34.25860638501717
 20
11.36249965247138
 30
0.0
 40
0.2625
100
AcDbArc
 50
0.0
 51
90.0
  0
TEXT
  5
6F9
330
1A
100
AcDbEntity
  8
MOJI
100
AcDbText
 10
119.9136016480521
 20
1.602460181175098
 30
0.0
 40
2.799999999999999
  1
Ｘ７０Ｕ
 41
0.9
  7
ｽﾀｲﾙ1
100
AcDbText
  0
TEXT
  5
6FA
330
1A
100
AcDbEntity
  8
MOJI
100
AcDbText
 10
119.9136016480521
 20
9.002460181175081
 30
0.0
 40
2.799999999999999
  1
伸縮ジョイント
 41
0.9
  7
ｽﾀｲﾙ1
100
AcDbText
  0
LINE
  5
6FB
330
1A
100
AcDbEntity
  8
ZUWAKU
100
AcDbLine
 10
104.1233009526605
 20
14.99999965247138
 30
0.0
 11
104.1233009526605
 21
0.399999652471422
 31
0.0
  0
LINE
  5
6FC
330
1A
100
AcDbEntity
  8
ZUWAKU
100
AcDbLine
 10
104.3233009526604
 20
14.99999965247138
 30
0.0
 11
104.3233009526605
 21
0.399999652471422
 31
0.0
  0
LINE
  5
6FD
330
1A
100
AcDbEntity
  8
ZUWAKU
100
AcDbLine
 10
104.2233009526604
 20
14.99999965247138
 30
0.0
 11
104.2233009526605
 21
0.399999652471422
 31
0.0
  0
TEXT
  5
6FE
330
1A
100
AcDbEntity
  8
ZUWAKU
100
AcDbText
 10
104.8620234637653
 20
4.827677921664196
 30
0.0
 40
2.0
  1
サイズ
 41
0.9
  7
ｽﾀｲﾙ1
100
AcDbText
  0
TEXT
  5
6FF
330
1A
100
AcDbEntity
  8
ZUWAKU
100
AcDbText
 10
104.8620234637652
 20
12.02767792166417
 30
0.0
 40
2.0
  1
品名
 41
0.9
  7
ｽﾀｲﾙ1
100
AcDbText
  0
LINE
  5
700
330
1A
100
AcDbEntity
  8
ZUWAKU
100
AcDbLine
 10
324.4086015627286
 20
7.599999652471403
 30
0.0
 11
348.6245055818972
 21
7.599999652471405
 31
0.0
  0
LINE
  5
701
330
1A
100
AcDbEntity
  8
ZUWAKU
100
AcDbLine
 10
324.4086015627288
 20
7.699999652471406
 30
0.0
 11
348.6245055818972
 21
7.699999652471404
 31
0.0
  0
LINE
  5
702
330
1A
100
AcDbEntity
  8
ZUWAKU
100
AcDbLine
 10
324.4086015627286
 20
7.799999652471404
 30
0.0
 11
348.6245055818972
 21
7.799999652471404
 31
0.0
  0
TEXT
  5
703
330
1A
100
AcDbEntity
  8
ZUWAKU
100
AcDbText
 10
329.1019691512778
 20
9.002460181175081
 30
0.0
 40
2.799999999999999
  1
　　．　　．　　
 41
0.9
  7
ｽﾀｲﾙ1
100
AcDbText
  0
LINE
  5
704
330
1A
100
AcDbEntity
  8
ZUWAKU
100
AcDbLine
 10
252.599590056697
 20
7.599999652471407
 30
0.0
 11
276.2634781906827
 21
7.599999652471407
 31
0.0
  0
LINE
  5
705
330
1A
100
AcDbEntity
  8
ZUWAKU
100
AcDbLine
 10
252.599590056697
 20
7.699999652471404
 30
0.0
 11
276.2634781906827
 21
7.699999652471404
 31
0.0
  0
LINE
  5
706
330
1A
100
AcDbEntity
  8
ZUWAKU
100
AcDbLine
 10
252.599590056697
 20
7.799999652471404
 30
0.0
 11
276.2634781906827
 21
7.799999652471404
 31
0.0
  0
TEXT
  5
707
330
1A
100
AcDbEntity
  8
MOJI
100
AcDbText
 10
231.2836394686208
 20
5.97130851330138
 30
0.0
 40
2.799999999999999
  1
ＧＮ８５□
 41
0.9
  7
ｽﾀｲﾙ1
100
AcDbText
  0
LINE
  5
708
330
1A
100
AcDbEntity
  8
ZUWAKU
100
AcDbLine
 10
223.8121822931221
 20
14.99999965247138
 30
0.0
 11
223.8121822931223
 21
0.399999652471422
 31
0.0
  0
LINE
  5
709
330
1A
100
AcDbEntity
  8
ZUWAKU
100
AcDbLine
 10
223.9121822931222
 20
14.99999965247138
 30
0.0
 11
223.9121822931223
 21
0.399999652471422
 31
0.0
  0
LINE
  5
70A
330
1A
100
AcDbEntity
  8
ZUWAKU
100
AcDbLine
 10
223.7121822931222
 20
14.99999965247138
 30
0.0
 11
223.7121822931222
 21
0.399999652471422
 31
0.0
  0
TEXT
  5
70B
330
1A
100
AcDbEntity
  8
MOJI
100
AcDbText
 10
264.020454293783
 20
9.002460181175081
 30
0.0
 40
2.799999999999999
  1
Ａ３
 41
0.9
  7
ｽﾀｲﾙ1
100
AcDbText
  0
LINE
  5
70C
330
1A
100
AcDbEntity
  8
ZUWAKU
100
AcDbLine
 10
252.4995900566969
 20
14.99999965247138
 30
0.0
 11
252.4995900566971
 21
0.399999652471422
 31
0.0
  0
LINE
  5
70D
330
1A
100
AcDbEntity
  8
ZUWAKU
100
AcDbLine
 10
252.599590056697
 20
14.99999965247138
 30
0.0
 11
252.5995900566971
 21
0.399999652471422
 31
0.0
  0
LINE
  5
70E
330
1A
100
AcDbEntity
  8
ZUWAKU
100
AcDbLine
 10
252.399590056697
 20
14.99999965247138
 30
0.0
 11
252.399590056697
 21
0.399999652471422
 31
0.0
  0
TEXT
  5
70F
330
1A
100
AcDbEntity
  8
ZUWAKU
100
AcDbText
 10
231.3468811353801
 20
1.307035108041134
 30
0.0
 40
1.5
  1
□には色品番が入ります
 41
0.9
  7
ｽﾀｲﾙ1
100
AcDbText
  0
TEXT
  5
710
330
1A
100
AcDbEntity
  8
ZUWAKU
100
AcDbText
 10
253.3383125678019
 20
4.827677921664196
 30
0.0
 40
2.0
  1
縮尺
 41
0.9
  7
ｽﾀｲﾙ1
100
AcDbText
  0
TEXT
  5
711
330
1A
100
AcDbEntity
  8
MOJI
100
AcDbText
 10
264.020454293783
 20
1.602460181175098
 30
0.0
 40
2.799999999999999
  1
１/１
 41
0.9
  7
ｽﾀｲﾙ1
100
AcDbText
  0
TEXT
  5
712
330
1A
100
AcDbEntity
  8
ZUWAKU
100
AcDbText
 10
224.650904804227
 20
12.02767792166417
 30
0.0
 40
2.0
  1
品番
 41
0.9
  7
ｽﾀｲﾙ1
100
AcDbText
  0
TEXT
  5
713
330
1A
100
AcDbEntity
  8
ZUWAKU
100
AcDbText
 10
253.3383125678018
 20
12.02767792166417
 30
0.0
 40
2.0
  1
用紙
 41
0.9
  7
ｽﾀｲﾙ1
100
AcDbText
  0
LINE
  5
714
330
1A
100
AcDbEntity
  8
ZUWAKU
100
AcDbLine
 10
324.3086015627287
 20
14.99999965247138
 30
0.0
 11
324.3086015627288
 21
0.399999652471422
 31
0.0
  0
LINE
  5
715
330
1A
100
AcDbEntity
  8
ZUWAKU
100
AcDbLine
 10
324.4086015627288
 20
14.99999965247138
 30
0.0
 11
324.4086015627289
 21
0.399999652471422
 31
0.0
  0
LINE
  5
716
330
1A
100
AcDbEntity
  8
ZUWAKU
100
AcDbLine
 10
324.2086015627288
 20
14.99999965247138
 30
0.0
 11
324.2086015627288
 21
0.399999652471422
 31
0.0
  0
LINE
  5
717
330
1A
100
AcDbEntity
  8
ZUWAKU
100
AcDbLine
 10
276.3634781906826
 20
14.99999965247138
 30
0.0
 11
276.3634781906828
 21
0.399999652471422
 31
0.0
  0
LINE
  5
718
330
1A
100
AcDbEntity
  8
ZUWAKU
100
AcDbLine
 10
276.4634781906827
 20
14.99999965247138
 30
0.0
 11
276.4634781906828
 21
0.399999652471422
 31
0.0
  0
LINE
  5
719
330
1A
100
AcDbEntity
  8
ZUWAKU
100
AcDbLine
 10
276.2634781906827
 20
14.99999965247138
 30
0.0
 11
276.2634781906827
 21
0.399999652471422
 31
0.0
  0
TEXT
  5
71A
330
1A
100
AcDbEntity
  8
ZUWAKU
100
AcDbText
 10
325.1473240738336
 20
12.02767792166417
 30
0.0
 40
2.0
  1
DATE
 41
0.9
  7
ｽﾀｲﾙ1
100
AcDbText
  0
LINE
  5
71B
330
1A
100
AcDbEntity
  8
ZUWAKU
100
AcDbLine
 10
348.6245055818972
 20
14.99999965247138
 30
0.0
 11
348.6245055818972
 21
0.399999652471422
 31
0.0
  0
LINE
  5
71C
330
1A
100
AcDbEntity
  8
ZUWAKU
100
AcDbLine
 10
348.7245055818972
 20
14.99999965247138
 30
0.0
 11
348.7245055818972
 21
0.399999652471422
 31
0.0
  0
LINE
  5
71D
330
1A
100
AcDbEntity
  8
ZUWAKU
100
AcDbLine
 10
348.8245055818971
 20
14.99999965247138
 30
0.0
 11
348.8245055818972
 21
0.399999652471422
 31
0.0
  0
LINE
  5
71E
330
1A
100
AcDbEntity
  8
ZUWAKU
100
AcDbLine
 10
348.9245055818971
 20
14.99999965247138
 30
0.0
 11
348.9245055818972
 21
0.399999652471422
 31
0.0
  0
TEXT
  5
71F
330
1A
100
AcDbEntity
  8
ZUWAKU
100
AcDbText
 10
354.2640424037484
 20
8.776919320314789
 30
0.0
 40
3.0
  1
積水化学工業株式会社
 41
0.9
  7
ｽﾀｲﾙ1
100
AcDbText
  0
TEXT
  5
720
330
1A
100
AcDbEntity
  8
ZUWAKU
100
AcDbText
 10
354.2640424037484
 20
3.32441980939842
 30
0.0
 40
3.0
  1
建材事業部
 41
0.9
  7
ｽﾀｲﾙ1
100
AcDbText
  0
DIMENSION
  5
FCB
330
1A
100
AcDbEntity
  8
SUNPOU
100
AcDbDimension
  2
*D1
 10
179.836092728955
 20
112.5284513440224
 30
0.0
 11
177.3360927289549
 21
130.0288569392773
 31
0.0
 70
    32
  3
STANDARD
100
AcDbAlignedDimension
 13
156.1401987102174
 23
147.5292625345322
 33
0.0
 14
164.6049195327325
 24
112.5284513440224
 34
0.0
 50
90.0
100
AcDbRotatedDimension
1001
ACAD
1000
DSTYLE
1002
{
1070
    41
1040
3.0
1070
    42
1040
3.0
1070
    43
1040
7.0
1070
    44
1040
1.5
1070
    73
1070
     0
1070
    74
1070
     0
1070
    77
1070
     3
1070
   140
1040
3.0
1070
   141
1040
150.0
1070
   147
1040
1.0
1070
   172
1070
     1
1070
   173
1070
     1
1070
   176
1070
   256
1070
   177
1070
   256
1070
   178
1070
   256
1070
   271
1070
     0
1070
   272
1070
     0
1070
   341
1005
B2
1070
     6
1000
OPEN
1070
     7
1000
OPEN
1070
   371
1070
    -1
1070
   372
1070
    -1
1002
}
  0
LINE
  5
FCC
330
1A
100
AcDbEntity
  8
SEIHIN
  6
CONTINUOUS
 62
     3
 48
16.0
100
AcDbLine
 10
156.1401725216342
 20
149.5290334243089
 30
0.0
 11
156.1403296650314
 21
137.5294995402855
 31
0.0
  0
LINE
  5
FCD
330
1A
100
AcDbEntity
  8
SEIHIN
  6
CONTINUOUS
 62
     3
 48
16.0
100
AcDbLine
 10
159.6052582348133
 20
137.5294916455658
 30
0.0
 11
159.6051896627772
 21
145.5295625311905
 31
0.0
  0
LINE
  5
FCE
330
1A
100
AcDbEntity
  8
SEIHIN
  6
CONTINUOUS
 62
     3
 48
16.0
100
AcDbLine
 10
140.1052896616704
 20
147.5292625345322
 30
0.0
 11
140.1055725216342
 21
112.5291625345324
 31
0.0
  0
LINE
  5
FCF
330
1A
100
AcDbEntity
  8
SEIHIN
  6
CONTINUOUS
 62
     3
 48
16.0
100
AcDbLine
 10
150.6052896625276
 20
147.5292625345322
 30
0.0
 11
150.6055725216342
 21
112.5292625345323
 31
0.0
  0
LINE
  5
FD0
330
1A
100
AcDbEntity
  8
SEIHIN
  6
CONTINUOUS
 62
     3
 48
16.0
100
AcDbLine
 10
165.6054296503359
 20
117.5310139955985
 30
0.0
 11
165.6051896627772
 21
145.5295625311905
 31
0.0
  0
LINE
  5
FD1
330
1A
100
AcDbEntity
  8
SEIHIN
  6
CONTINUOUS
 62
     3
 48
16.0
100
AcDbLine
 10
158.1402037751431
 20
163.5292625345322
 30
0.0
 11
158.1403296650314
 21
137.5294995402855
 31
0.0
  0
LINE
  5
FD2
330
1A
100
AcDbEntity
  8
SEIHIN
  6
CONTINUOUS
 62
     3
 48
16.0
100
AcDbLine
 10
54.57014126812556
 20
163.5292625345322
 30
0.0
 11
54.57001537823725
 21
137.5294995402855
 31
0.0
  0
LINE
  5
FD3
330
1A
100
AcDbEntity
  8
SEIHIN
  6
CONTINUOUS
 62
     3
 48
16.0
100
AcDbLine
 10
53.10508680845533
 20
137.5294916455658
 30
0.0
 11
53.10515538049151
 21
145.5295625311905
 31
0.0
  0
LINE
  5
FD4
330
1A
100
AcDbEntity
  8
SEIHIN
  6
CONTINUOUS
 62
     3
 48
16.0
100
AcDbLine
 10
72.60505538159828
 20
147.5292625345322
 30
0.0
 11
72.60477252163446
 21
112.5291625345324
 31
0.0
  0
LINE
  5
FD5
330
1A
100
AcDbEntity
  8
SEIHIN
  6
CONTINUOUS
 62
     3
 48
16.0
100
AcDbLine
 10
56.5701725216345
 20
149.5290334243089
 30
0.0
 11
56.57001537823726
 21
137.5294995402855
 31
0.0
  0
LINE
  5
FD6
330
1A
100
AcDbEntity
  8
SEIHIN
  6
CONTINUOUS
 62
     3
 48
16.0
100
AcDbLine
 10
47.10491539293275
 20
117.5310139955985
 30
0.0
 11
47.10515538049151
 21
145.5295625311905
 31
0.0
  0
LINE
  5
FD7
330
1A
100
AcDbEntity
  8
SEIHIN
  6
CONTINUOUS
 62
     3
 48
16.0
100
AcDbLine
 10
62.10505538074108
 20
147.5292625345322
 30
0.0
 11
62.10477252163446
 21
112.5292625345323
 31
0.0
  0
LINE
  5
FD8
330
1A
100
AcDbEntity
  8
CENTER_L
  6
CENTER
 62
     1
 48
5.0
100
AcDbLine
 10
106.3551725216343
 20
101.4192625345323
 30
0.0
 11
106.3551725216343
 21
274.6476441883552
 31
0.0
  0
DIMENSION
  5
FD9
330
1A
100
AcDbEntity
  8
SUNPOU
100
AcDbDimension
  2
*D2
 10
143.7655214631663
 20
20.35744479692951
 30
0.0
 11
106.3551725216343
 21
22.85744479692951
 31
0.0
 70
    32
  3
STANDARD
100
AcDbAlignedDimension
 13
68.94482358010235
 23
30.49592835773017
 33
0.0
 14
143.7655214631663
 24
30.49592835773017
 34
0.0
100
AcDbRotatedDimension
1001
ACAD
1000
DSTYLE
1002
{
1070
    41
1040
3.0
1070
    42
1040
3.0
1070
    43
1040
7.0
1070
    44
1040
1.5
1070
    73
1070
     0
1070
    74
1070
     0
1070
    77
1070
     3
1070
   140
1040
3.0
1070
   141
1040
150.0
1070
   147
1040
1.0
1070
   172
1070
     1
1070
   173
1070
     1
1070
   176
1070
   256
1070
   177
1070
   256
1070
   178
1070
   256
1070
   271
1070
     0
1070
   272
1070
     0
1070
   341
1005
B2
1070
     6
1000
OPEN
1070
     7
1000
OPEN
1070
   371
1070
    -1
1070
   372
1070
    -1
1002
}
  0
DIMENSION
  5
FDA
330
1A
100
AcDbEntity
  8
SUNPOU
100
AcDbDimension
  2
*D3
 10
167.6396725216342
 20
96.44264163818446
 30
0.0
 11
106.3551725216343
 21
98.94264163818446
 31
0.0
 70
    32
  3
STANDARD
100
AcDbAlignedDimension
 13
45.07067252163437
 23
84.89602636952174
 33
0.0
 14
167.6396725216342
 24
84.89602636952174
 34
0.0
100
AcDbRotatedDimension
1001
ACAD
1000
DSTYLE
1002
{
1070
    41
1040
3.0
1070
    42
1040
3.0
1070
    43
1040
7.0
1070
    44
1040
1.5
1070
    73
1070
     0
1070
    74
1070
     0
1070
    77
1070
     3
1070
   140
1040
3.0
1070
   141
1040
150.0
1070
   147
1040
1.0
1070
   172
1070
     1
1070
   173
1070
     1
1070
   176
1070
   256
1070
   177
1070
   256
1070
   178
1070
   256
1070
   271
1070
     0
1070
   272
1070
     0
1070
   341
1005
B2
1070
     6
1000
OPEN
1070
     7
1000
OPEN
1070
   371
1070
    -1
1070
   372
1070
    -1
1002
}
  0
LINE
  5
FDB
330
1A
100
AcDbEntity
  8
SEIHIN
100
AcDbLine
 10
69.9084424611998
 20
30.49592835773017
 30
0.0
 11
142.8019025820689
 21
30.49592835773017
 31
0.0
  0
LINE
  5
FDC
330
1A
100
AcDbEntity
  8
SEIHIN
100
AcDbLine
 10
75.69950534477675
 20
35.29581147297131
 30
0.0
 11
137.0108396984919
 21
35.29581147297131
 31
0.0
  0
LINE
  5
FDD
330
1A
100
AcDbEntity
  8
SEIHIN
100
AcDbLine
 10
71.64747252163431
 20
32.49591833739305
 30
0.0
 11
141.0628725216344
 21
32.49591833739305
 31
0.0
  0
LINE
  5
FDE
330
1A
100
AcDbEntity
  8
SEIHIN
100
AcDbLine
 10
71.64737252163445
 20
32.9959183373931
 30
0.0
 11
141.0629725216342
 21
32.9959183373931
 31
0.0
  0
LINE
  5
FDF
330
1A
100
AcDbEntity
  8
SEIHIN
100
AcDbLine
 10
73.4400725216343
 20
34.29581833739314
 30
0.0
 11
139.2702725216344
 21
34.29581833739314
 31
0.0
  0
LINE
  5
FE0
330
1A
100
AcDbEntity
  8
SEIHIN
100
AcDbLine
 10
79.63404160142147
 20
37.29579951939001
 30
0.0
 11
133.0763034418472
 21
37.29579951939001
 31
0.0
  0
LINE
  5
FE1
330
1A
100
AcDbEntity
  8
SEIHIN
  6
CONTINUOUS
 62
     3
 48
16.0
100
AcDbLine
 10
164.6048641324513
 20
112.5281743419485
 30
0.0
 11
48.10520563663271
 21
112.5295507161909
 31
0.0
  0
LINE
  5
FE2
330
1A
100
AcDbEntity
  8
NOKITOI
  6
PHANTOM
 62
     8
 48
5.0
100
AcDbLine
 10
73.23987252163437
 20
34.29586833739307
 30
0.0
 11
139.4704725216343
 21
34.29576833739321
 31
0.0
  0
LINE
  5
FE3
330
1A
100
AcDbEntity
  8
NOKITOI
  6
PHANTOM
 62
     8
 48
5.0
100
AcDbLine
 10
139.4704725216343
 20
34.29576833739321
 30
0.0
 11
73.23987252163437
 21
34.29586833739307
 31
0.0
  0
LINE
  5
FE4
330
1A
100
AcDbEntity
  8
NOKITOI
  6
PHANTOM
 62
     8
 48
5.0
100
AcDbLine
 10
78.55557252163436
 20
35.58926833739309
 30
0.0
 11
134.1547725216343
 21
35.589168337393
 31
0.0
  0
LINE
  5
FE5
330
1A
100
AcDbEntity
  8
SEIHIN
  6
CONTINUOUS
 62
     3
 48
16.0
100
AcDbLine
 10
58.78939117171853
 20
43.01544992090237
 30
0.0
 11
53.62206717304946
 21
68.64366718521996
 31
0.0
  0
LINE
  5
FE6
330
1A
100
AcDbEntity
  8
SEIHIN
100
AcDbLine
 10
63.55913439596577
 20
49.06235312600853
 30
0.0
 11
74.55720502402425
 21
37.47650744211949
 31
0.0
  0
ARC
  5
FE7
330
1A
100
AcDbEntity
  8
SEIHIN
  6
CONTINUOUS
 62
     3
 48
16.0
100
AcDbCircle
 10
65.56692898556844
 20
48.86528064708108
 30
0.0
 40
3.0
100
AcDbArc
 50
191.3996070869022
 51
247.7898647621927
  0
LINE
  5
FE8
330
1A
100
AcDbEntity
  8
SEIHIN
100
AcDbLine
 10
65.00966347253541
 20
50.43929371950781
 30
0.0
 11
76.00773410059389
 21
38.85344803561878
 31
0.0
  0
LINE
  5
FE9
330
1A
100
AcDbEntity
  8
SEIHIN
  6
CONTINUOUS
 62
     3
 48
16.0
100
AcDbLine
 10
60.50567252163455
 20
44.62221833739306
 30
0.0
 11
55.25907252163438
 21
70.64361833739315
 31
0.0
  0
LINE
  5
FEA
330
1A
100
AcDbEntity
  8
SEIHIN
  6
CONTINUOUS
 62
     3
 48
16.0
100
AcDbLine
 10
61.98287252163448
 20
46.40311833739315
 30
0.0
 11
56.73237252163449
 21
72.44361833739316
 31
0.0
  0
LINE
  5
FEB
330
1A
100
AcDbEntity
  8
SEIHIN
  6
CONTINUOUS
 62
     3
 48
16.0
100
AcDbLine
 10
60.99587252163451
 20
44.72101833739304
 30
0.0
 11
55.76907252163448
 21
70.64361833739315
 31
0.0
  0
LINE
  5
FEC
330
1A
100
AcDbEntity
  8
NOKITOI
  6
PHANTOM
 62
     8
 48
5.0
100
AcDbLine
 10
63.33827252163422
 20
47.41746833739301
 30
0.0
 11
57.4072725216343
 21
75.58736833739323
 31
0.0
  0
LINE
  5
FED
330
1A
100
AcDbEntity
  8
NOKITOI
  6
PHANTOM
 62
     8
 48
5.0
100
AcDbLine
 10
62.22967252163432
 20
46.40456833739307
 30
0.0
 11
56.39107252163416
 21
74.13586833739322
 31
0.0
  0
ARC
  5
FEE
330
1A
100
AcDbEntity
  8
SEIHIN
  6
CONTINUOUS
 62
     3
 48
16.0
100
AcDbCircle
 10
69.90844822357667
 20
31.49592835771358
 30
0.0
 40
1.0
100
AcDbArc
 50
184.2890554267119
 51
269.999669840126
  0
ARC
  5
FEF
330
1A
100
AcDbEntity
  8
SEIHIN
  6
CONTINUOUS
 62
     3
 48
16.0
100
AcDbCircle
 10
56.94480899480004
 20
30.52367769130563
 30
0.0
 40
12.00004666961683
100
AcDbArc
 50
4.289055426713806
 51
77.449750362832
  0
ARC
  5
FF0
330
1A
100
AcDbEntity
  8
SEIHIN
  6
CONTINUOUS
 62
     3
 48
16.0
100
AcDbCircle
 10
58.76285610842501
 20
32.20083604770792
 30
0.0
 40
14.99997559784568
100
AcDbArc
 50
19.7922228488931
 51
67.78986476219242
  0
ARC
  5
FF1
330
1A
100
AcDbEntity
  8
SEIHIN
  6
CONTINUOUS
 62
     3
 48
16.0
100
AcDbCircle
 10
56.94480899480004
 20
30.52367769130563
 30
0.0
 40
14.00004666961683
100
AcDbArc
 50
11.42851044327771
 51
72.37736768076551
  0
ARC
  5
FF2
330
1A
100
AcDbEntity
  8
SEIHIN
  6
CONTINUOUS
 62
     3
 48
16.0
100
AcDbCircle
 10
56.94477561405574
 20
30.52371489117064
 30
0.0
 40
14.50009083661241
100
AcDbArc
 50
11.42843585830375
 51
72.37717358038229
  0
ARC
  5
FF3
330
1A
100
AcDbEntity
  8
SEIHIN
  6
CONTINUOUS
 62
     3
 48
16.0
100
AcDbCircle
 10
58.76285610842501
 20
32.20083604770792
 30
0.0
 40
13.99997559784568
100
AcDbArc
 50
11.90764865858442
 51
73.73841726207094
  0
ARC
  5
FF4
330
1A
100
AcDbEntity
  8
NOKITOI
  6
PHANTOM
 62
     8
 48
5.0
100
AcDbCircle
 10
59.4695795914211
 20
33.18956036449935
 30
0.0
 40
12.93471022655885
100
AcDbArc
 50
8.676219579621987
 51
74.45245455808986
  0
LINE
  5
FF5
330
1A
100
AcDbEntity
  8
NOKITOI
  6
PHANTOM
 62
     8
 48
5.0
100
AcDbLine
 10
78.35667252163438
 20
44.28556833739316
 30
0.0
 11
68.44597252163436
 21
44.28556833739316
 31
0.0
  0
ARC
  5
FF6
330
1A
100
AcDbEntity
  8
SEIHIN
  6
CONTINUOUS
 62
     3
 48
16.0
100
AcDbCircle
 10
61.4859623161924
 20
44.81982971519619
 30
0.0
 40
0.4999516927796185
100
AcDbArc
 50
191.3990946444561
 51
252.3856371892974
  0
ARC
  5
FF7
330
1A
100
AcDbEntity
  8
SEIHIN
  6
CONTINUOUS
 62
     3
 48
16.0
100
AcDbCircle
 10
59.76966405870086
 20
43.21309876872919
 30
0.0
 40
1.0
100
AcDbArc
 50
191.3995036200277
 51
257.4497503628319
  0
ARC
  5
FF8
330
1A
100
AcDbEntity
  8
SEIHIN
  6
CONTINUOUS
 62
     3
 48
16.0
100
AcDbCircle
 10
61.48595722980871
 20
44.81993538565729
 30
0.0
 40
1.000025069812966
100
AcDbArc
 50
191.4032001705347
 51
252.3815316632285
  0
ARC
  5
FF9
330
1A
100
AcDbEntity
  8
NOKITOI
  6
PHANTOM
 62
     8
 48
5.0
100
AcDbCircle
 10
59.4696463604252
 20
33.18952822790919
 30
0.0
 40
14.22848866365036
100
AcDbArc
 50
51.52529185494265
 51
71.45345265407094
  0
ARC
  5
FFA
330
1A
100
AcDbEntity
  8
SEIHIN
  6
CONTINUOUS
 62
     3
 48
16.0
100
AcDbCircle
 10
62.96312552076995
 20
46.60066063801571
 30
0.0
 40
0.9999594506025221
100
AcDbArc
 50
191.3937443283917
 51
253.7359543136013
  0
ARC
  5
FFB
330
1A
100
AcDbEntity
  8
NOKITOI
  6
PHANTOM
 62
     8
 48
5.0
100
AcDbCircle
 10
63.20331254602177
 20
46.60952567316724
 30
0.0
 40
0.9949785960395137
100
AcDbArc
 50
191.8875585738774
 51
254.4495841050106
  0
ARC
  5
FFC
330
1A
100
AcDbEntity
  8
NOKITOI
  6
PHANTOM
 62
     8
 48
5.0
100
AcDbCircle
 10
64.31189240340569
 20
47.62244600031311
 30
0.0
 40
0.995060928010462
100
AcDbArc
 50
191.8877567214144
 51
251.4524867922934
  0
ARC
  5
FFD
330
1A
100
AcDbEntity
  8
NOKITOI
  6
PHANTOM
 62
     8
 48
5.0
100
AcDbCircle
 10
68.44597583399337
 20
44.4845671816077
 30
0.0
 40
0.1989988442421132
100
AcDbArc
 50
231.528094904241
 51
269.9990463050557
  0
ARC
  5
FFE
330
1A
100
AcDbEntity
  8
SEIHIN
 48
16.0
100
AcDbCircle
 10
79.63405679201787
 20
42.29579951936694
 30
0.0
 40
7.0
100
AcDbArc
 50
223.5091412522387
 51
269.999825928587
  0
ARC
  5
FFF
330
1A
100
AcDbEntity
  8
SEIHIN
  6
CONTINUOUS
 62
     3
 48
16.0
100
AcDbCircle
 10
75.69951445913466
 20
38.29581147295744
 30
0.0
 40
3.0
100
AcDbArc
 50
199.7922228488935
 51
269.9998259285875
  0
ARC
  5
1000
330
1A
100
AcDbEntity
  8
NOKITOI
  6
PHANTOM
 62
     8
 48
5.0
100
AcDbCircle
 10
76.55657252163411
 20
36.09586833739314
 30
0.0
 40
0.5000000000000569
100
AcDbArc
 50
270.0000000000065
 51
0.0000000000065138
  0
ARC
  5
1001
330
1A
100
AcDbEntity
  8
NOKITOI
  6
PHANTOM
 62
     8
 48
5.0
100
AcDbCircle
 10
73.91484948050612
 20
36.09588720168136
 30
0.0
 40
0.5000188648192144
100
AcDbArc
 50
191.386728855441
 51
270.0026402191986
  0
LINE
  5
1002
330
1A
100
AcDbEntity
  8
NOKITOI
  6
PHANTOM
 62
     8
 48
5.0
100
AcDbLine
 10
78.35657252163429
 20
35.78826833739316
 30
0.0
 11
78.35667252163438
 21
44.28556833739316
 31
0.0
  0
ARC
  5
1003
330
1A
100
AcDbEntity
  8
SEIHIN
  6
CONTINUOUS
 62
     3
 48
16.0
100
AcDbCircle
 10
73.44006575967284
 20
35.29582382236299
 30
0.0
 40
1.000005484992705
100
AcDbArc
 50
191.9058653169036
 51
270.0003874297296
  0
ARC
  5
1004
330
1A
100
AcDbEntity
  8
SEIHIN
  6
CONTINUOUS
 62
     3
 48
16.0
100
AcDbCircle
 10
71.64744951570924
 20
33.49593715703884
 30
0.0
 40
1.000018819910407
100
AcDbArc
 50
191.4326016846383
 51
270.0013181176093
  0
ARC
  5
1005
330
1A
100
AcDbEntity
  8
SEIHIN
  6
CONTINUOUS
 62
     3
 48
16.0
100
AcDbCircle
 10
71.64742093001677
 20
33.49587873925713
 30
0.0
 40
0.4999604042075796
100
AcDbArc
 50
191.4280074147075
 51
269.9944523686763
  0
ARC
  5
1006
330
1A
100
AcDbEntity
  8
NOKITOI
  6
PHANTOM
 62
     8
 48
5.0
100
AcDbCircle
 10
73.23988013565196
 20
35.29086179714914
 30
0.0
 40
0.9949934597852239
100
AcDbArc
 50
188.67611256506
 51
269.9995615538234
  0
LINE
  5
1007
330
1A
100
AcDbEntity
  8
NOKITOI
  6
PHANTOM
 62
     8
 48
5.0
100
AcDbLine
 10
73.91477252163423
 20
35.59586833739302
 30
0.0
 11
76.55657252163422
 21
35.59586833739302
 31
0.0
  0
ARC
  5
1008
330
1A
100
AcDbEntity
  8
NOKITOI
  6
PHANTOM
 62
     8
 48
5.0
100
AcDbCircle
 10
78.55557252163436
 20
35.78826833739316
 30
0.0
 40
0.1990000000000691
100
AcDbArc
 50
179.9999999999837
 51
269.9999999999837
  0
ARC
  5
1009
330
1A
100
AcDbEntity
  8
SEIHIN
 48
16.0
100
AcDbCircle
 10
79.63405679201787
 20
42.29579951936694
 30
0.0
 40
5.0
100
AcDbArc
 50
223.5091412522387
 51
269.999825928587
  0
LINE
  5
100A
330
1A
100
AcDbEntity
  8
NOKITOI
  6
PHANTOM
 62
     8
 48
5.0
100
AcDbLine
 10
77.05657252163423
 20
36.09586833739314
 30
0.0
 11
77.05657252163423
 21
42.62316833739322
 31
0.0
  0
ARC
  5
100B
330
1A
100
AcDbEntity
  8
NOKITOI
  6
PHANTOM
 62
     8
 48
5.0
100
AcDbCircle
 10
59.46957771864759
 20
33.18955772162502
 30
0.0
 40
14.23472333170272
100
AcDbArc
 50
11.37541821407358
 51
40.79334907830746
  0
LINE
  5
100C
330
1A
100
AcDbEntity
  8
NOKITOI
  6
PHANTOM
 62
     8
 48
5.0
100
AcDbLine
 10
76.69427252163422
 20
42.9855683373932
 30
0.0
 11
70.4733725216343
 21
42.9855683373932
 31
0.0
  0
ARC
  5
100D
330
1A
100
AcDbEntity
  8
NOKITOI
  6
PHANTOM
 62
     8
 48
5.0
100
AcDbCircle
 10
70.47337618093746
 20
42.68557632927275
 30
0.0
 40
0.2999920081427447
100
AcDbArc
 50
90.00069889403089
 51
220.7967284175802
  0
LINE
  5
100E
330
1A
100
AcDbEntity
  8
NOKITOI
  6
PHANTOM
 62
     8
 48
5.0
100
AcDbLine
 10
77.55157252163423
 20
43.480468337393
 30
0.0
 11
76.69427252163422
 21
42.9855683373932
 31
0.0
  0
LINE
  5
100F
330
1A
100
AcDbEntity
  8
NOKITOI
  6
PHANTOM
 62
     8
 48
5.0
100
AcDbLine
 10
77.55157252163423
 20
43.480468337393
 30
0.0
 11
77.05657252163423
 21
42.62316833739322
 31
0.0
  0
ARC
  5
1010
330
1A
100
AcDbEntity
  8
SEIHIN
  6
CONTINUOUS
 62
     3
 48
16.0
100
AcDbCircle
 10
52.64179428606713
 20
68.44601833739313
 30
0.0
 40
1.0
100
AcDbArc
 50
11.39950362002855
 51
89.99999999999959
  0
LINE
  5
1011
330
1A
100
AcDbEntity
  8
SEIHIN
  6
CONTINUOUS
 62
     3
 48
16.0
100
AcDbLine
 10
48.87057252163436
 20
74.24601833739325
 30
0.0
 11
59.42933121931947
 21
74.24601833739314
 31
0.0
  0
LINE
  5
1012
330
1A
100
AcDbEntity
  8
SEIHIN
  6
CONTINUOUS
 62
     3
 48
16.0
100
AcDbLine
 10
54.53867252163445
 20
85.89601833739322
 30
0.0
 11
46.0706725216022
 21
85.89601833739322
 31
0.0
  0
ARC
  5
1013
330
1A
100
AcDbEntity
  8
NOKITOI
  6
PHANTOM
 62
     8
 48
5.0
100
AcDbCircle
 10
52.78837252163424
 20
81.50746833739317
 30
0.0
 40
1.492399999999918
100
AcDbArc
 50
0.0000000000022391
 51
90.00000000000204
  0
LINE
  5
1014
330
1A
100
AcDbEntity
  8
NOKITOI
  6
PHANTOM
 62
     8
 48
5.0
100
AcDbLine
 10
50.34817252163435
 20
84.29336833739313
 30
0.0
 11
54.57937252163429
 21
84.29336833739313
 31
0.0
  0
LINE
  5
1015
330
1A
100
AcDbEntity
  8
SEIHIN
  6
CONTINUOUS
 62
     3
 48
16.0
100
AcDbLine
 10
56.27067252163442
 20
83.89591833739302
 30
0.0
 11
49.89767252163438
 21
84.06821833739309
 31
0.0
  0
LINE
  5
1016
330
1A
100
AcDbEntity
  8
SEIHIN
  6
CONTINUOUS
 62
     3
 48
16.0
100
AcDbLine
 10
48.07057252163452
 20
71.44601833739319
 30
0.0
 11
54.78887252163452
 21
71.44601833739319
 31
0.0
  0
LINE
  5
1017
330
1A
100
AcDbEntity
  8
SEIHIN
  6
CONTINUOUS
 62
     3
 48
16.0
100
AcDbLine
 10
49.87057252163435
 20
73.24601833739314
 30
0.0
 11
55.75207252163455
 21
73.24601833739314
 31
0.0
  0
LINE
  5
1018
330
1A
100
AcDbEntity
  8
NOKITOI
  6
PHANTOM
 62
     8
 48
5.0
100
AcDbLine
 10
56.19637252163437
 20
74.293868337393
 30
0.0
 11
50.34817252163435
 21
74.293868337393
 31
0.0
  0
LINE
  5
1019
330
1A
100
AcDbEntity
  8
NOKITOI
  6
PHANTOM
 62
     8
 48
5.0
100
AcDbLine
 10
52.63667252163435
 20
75.58736833739323
 30
0.0
 11
57.4072725216343
 21
75.58736833739323
 31
0.0
  0
LINE
  5
101A
330
1A
100
AcDbEntity
  8
SEIHIN
100
AcDbLine
 10
45.71329771007606
 20
70.05082156997992
 30
0.0
 11
47.10759327308051
 21
71.44511713298436
 31
0.0
  0
LINE
  5
101B
330
1A
100
AcDbEntity
  8
SEIHIN
  6
CONTINUOUS
 62
     3
 48
16.0
100
AcDbLine
 10
45.07067252163437
 20
84.89602636952179
 30
0.0
 11
45.0705564573775
 21
70.44602636952174
 31
0.0
  0
ARC
  5
101C
330
1A
100
AcDbEntity
  8
SEIHIN
  6
CONTINUOUS
 62
     3
 48
16.0
100
AcDbCircle
 10
46.07055645734521
 20
70.44601833739324
 30
0.0
 40
1.0
100
AcDbArc
 50
179.9995397929359
 51
270.0
  0
LINE
  5
101D
330
1A
100
AcDbEntity
  8
SEIHIN
  6
CONTINUOUS
 62
     3
 48
16.0
100
AcDbLine
 10
46.07055645734521
 20
69.44601833739324
 30
0.0
 11
52.64179428606713
 21
69.44601833739312
 31
0.0
  0
LINE
  5
101E
330
1A
100
AcDbEntity
  8
SEIHIN
  6
CONTINUOUS
 62
     3
 48
16.0
100
AcDbLine
 10
48.07068055376294
 20
85.89601833739312
 30
0.0
 11
48.07056448950607
 21
71.44601833739324
 31
0.0
  0
ARC
  5
101F
330
1A
100
AcDbEntity
  8
NOKITOI
  6
PHANTOM
 62
     8
 48
5.0
100
AcDbCircle
 10
52.13912252163419
 20
81.50741833739306
 30
0.0
 40
1.49245000083754
100
AcDbArc
 50
89.99808047909004
 51
179.99808047909
  0
LINE
  5
1020
330
1A
100
AcDbEntity
  8
SEIHIN
  6
CONTINUOUS
 62
     3
 48
16.0
100
AcDbLine
 10
47.07067252163438
 20
84.89601833739323
 30
0.0
 11
47.07057252163451
 21
72.44601833739307
 31
0.0
  0
LINE
  5
1021
330
1A
100
AcDbEntity
  8
SEIHIN
  6
CONTINUOUS
 62
     3
 48
16.0
100
AcDbLine
 10
48.87057252163436
 20
74.24601833739314
 30
0.0
 11
48.87057252163436
 21
83.06851833739314
 31
0.0
  0
LINE
  5
1022
330
1A
100
AcDbEntity
  8
NOKITOI
  6
PHANTOM
 62
     8
 48
5.0
100
AcDbLine
 10
49.35317252163435
 20
75.28886833739301
 30
0.0
 11
49.35317252163435
 21
83.29836833739301
 31
0.0
  0
ARC
  5
1023
330
1A
100
AcDbEntity
  8
NOKITOI
  6
PHANTOM
 62
     8
 48
5.0
100
AcDbCircle
 10
52.63662252163425
 20
77.57731833739325
 30
0.0
 40
1.989950000628206
100
AcDbArc
 50
180.0014396286235
 51
270.0014396286233
  0
ARC
  5
1024
330
1A
100
AcDbEntity
  8
SEIHIN
  6
CONTINUOUS
 62
     3
 48
16.0
100
AcDbCircle
 10
49.87057252163435
 20
74.24601833739314
 30
0.0
 40
1.0
100
AcDbArc
 50
180.0
 51
270.0
  0
ARC
  5
1025
330
1A
100
AcDbEntity
  8
SEIHIN
  6
CONTINUOUS
 62
     3
 48
16.0
100
AcDbCircle
 10
48.0705725216344
 20
72.44601833739313
 30
0.0
 40
0.9999999999999715
100
AcDbArc
 50
180.0000000000016
 51
270.0000000000016
  0
ARC
  5
1026
330
1A
100
AcDbEntity
  8
NOKITOI
  6
PHANTOM
 62
     8
 48
5.0
100
AcDbCircle
 10
50.34817252163435
 20
75.28886833739301
 30
0.0
 40
0.9950000000000045
100
AcDbArc
 50
180.0
 51
270.0
  0
LINE
  5
1027
330
1A
100
AcDbEntity
  8
NOKITOI
  6
PHANTOM
 62
     8
 48
5.0
100
AcDbLine
 10
50.64667252163423
 20
81.50746833739317
 30
0.0
 11
50.64667252163423
 21
77.57726833739315
 31
0.0
  0
ARC
  5
1028
330
1A
100
AcDbEntity
  8
SEIHIN
  6
CONTINUOUS
 62
     3
 48
16.0
100
AcDbCircle
 10
46.0706725216022
 20
84.89601833739323
 30
0.0
 40
1.0
100
AcDbArc
 50
90.0
 51
179.9995397929361
  0
ARC
  5
1029
330
1A
100
AcDbEntity
  8
SEIHIN
  6
CONTINUOUS
 62
     3
 48
16.0
100
AcDbCircle
 10
49.87060614550387
 20
83.06855106213424
 30
0.0
 40
1.000033624404824
100
AcDbArc
 50
88.44907363183478
 51
180.0018749265064
  0
ARC
  5
102A
330
1A
100
AcDbEntity
  8
SEIHIN
  6
CONTINUOUS
 62
     3
 48
16.0
100
AcDbCircle
 10
48.07067252163438
 20
84.89601833739312
 30
0.0
 40
1.000000000000028
100
AcDbArc
 50
89.99999999999836
 51
179.9999999999983
  0
LINE
  5
102B
330
1A
100
AcDbEntity
  8
NOKITOI
  6
PHANTOM
 62
     8
 48
5.0
100
AcDbLine
 10
52.78837252163424
 20
82.99986833739302
 30
0.0
 11
52.1391725216343
 21
82.99986833739302
 31
0.0
  0
ARC
  5
102C
330
1A
100
AcDbEntity
  8
NOKITOI
  6
PHANTOM
 62
     8
 48
5.0
100
AcDbCircle
 10
50.34817252163435
 20
83.29836833739312
 30
0.0
 40
0.9950000000000613
100
AcDbArc
 50
90.00000000000325
 51
180.0000000000032
  0
LINE
  5
102D
330
1A
100
AcDbEntity
  8
SEIHIN
100
AcDbLine
 10
53.67826519354014
 20
69.68156099489966
 30
0.0
 11
54.75403090857355
 21
70.75732670993312
 31
0.0
  0
LINE
  5
102E
330
1A
100
AcDbEntity
  8
SEIHIN
  6
CONTINUOUS
 62
     3
 48
16.0
100
AcDbLine
 10
61.77407845354628
 20
52.4980908769748
 30
0.0
 11
57.38908226948968
 21
74.24601833739325
 31
0.0
  0
LINE
  5
102F
330
1A
100
AcDbEntity
  8
SEIHIN
  6
CONTINUOUS
 62
     3
 48
16.0
100
AcDbLine
 10
63.73462351366424
 20
52.89339211305514
 30
0.0
 11
59.42933121931947
 21
74.24601833739314
 31
0.0
  0
ARC
  5
1030
330
1A
100
AcDbEntity
  8
SEIHIN
  6
CONTINUOUS
 62
     3
 48
16.0
100
AcDbCircle
 10
54.27878286004875
 20
70.44600987496483
 30
0.0
 40
1.000008462481795
100
AcDbArc
 50
11.39704541169459
 51
90.00059234248773
  0
ARC
  5
1031
330
1A
100
AcDbEntity
  8
SEIHIN
  6
CONTINUOUS
 62
     3
 48
16.0
100
AcDbCircle
 10
54.78882297933648
 20
70.4460588890376
 30
0.0
 40
0.9999594495828198
100
AcDbArc
 50
11.39474662678251
 51
89.99716132030538
  0
LINE
  5
1032
330
1A
100
AcDbEntity
  8
SEIHIN
  6
CONTINUOUS
 62
     3
 48
16.0
100
AcDbLine
 10
62.62611139539138
 20
48.27232879296054
 30
0.0
 11
58.19559520126893
 21
70.24601833739319
 31
0.0
  0
ARC
  5
1033
330
1A
100
AcDbEntity
  8
SEIHIN
 48
16.0
100
AcDbCircle
 10
68.6359861639595
 20
53.88164520325597
 30
0.0
 40
7.0
100
AcDbArc
 50
191.3996070869016
 51
223.5091412522383
  0
ARC
  5
1034
330
1A
100
AcDbEntity
  8
SEIHIN
 48
16.0
100
AcDbCircle
 10
68.6359861639595
 20
53.88164520325597
 30
0.0
 40
5.0
100
AcDbArc
 50
191.3996070869016
 51
223.5091412522383
  0
LINE
  5
1035
330
1A
100
AcDbEntity
  8
SEIHIN
  6
CONTINUOUS
 62
     3
 48
16.0
100
AcDbLine
 10
57.17547072635409
 20
70.24601833739308
 30
0.0
 11
58.19559520126893
 21
70.24601833739314
 31
0.0
  0
LINE
  5
1036
330
1A
100
AcDbEntity
  8
NOKITOI
  6
PHANTOM
 62
     8
 48
5.0
100
AcDbLine
 10
55.57427252163421
 20
83.29836833739301
 30
0.0
 11
55.57427252163421
 21
79.09356833739315
 31
0.0
  0
ARC
  5
1037
330
1A
100
AcDbEntity
  8
NOKITOI
  6
PHANTOM
 62
     8
 48
5.0
100
AcDbCircle
 10
56.19635407902006
 20
74.09488330082985
 30
0.0
 40
0.1989850374177657
100
AcDbArc
 50
11.8863138280931
 51
89.9946896310657
  0
ARC
  5
1038
330
1A
100
AcDbEntity
  8
SEIHIN
  6
CONTINUOUS
 62
     3
 48
16.0
100
AcDbCircle
 10
55.75208286004863
 20
72.24600987496478
 30
0.0
 40
1.000008462481828
100
AcDbArc
 50
11.39704541169439
 51
90.00059234248896
  0
LINE
  5
1039
330
1A
100
AcDbEntity
  8
NOKITOI
  6
PHANTOM
 62
     8
 48
5.0
100
AcDbLine
 10
55.57427252163421
 20
79.09356833739315
 30
0.0
 11
54.28087252163431
 21
79.09356833739315
 31
0.0
  0
LINE
  5
103A
330
1A
100
AcDbEntity
  8
NOKITOI
  6
PHANTOM
 62
     8
 48
5.0
100
AcDbLine
 10
54.28087252163431
 20
79.09356833739315
 30
0.0
 11
54.28087252163431
 21
81.50746833739317
 31
0.0
  0
ARC
  5
103B
330
1A
100
AcDbEntity
  8
SEIHIN
  6
CONTINUOUS
 62
     3
 48
16.0
100
AcDbCircle
 10
56.27067425362065
 20
84.89592133730207
 30
0.0
 40
2.000003002496294
100
AcDbArc
 50
269.9970855976492
 51
30.00315912183902
  0
ARC
  5
103C
330
1A
100
AcDbEntity
  8
SEIHIN
  6
CONTINUOUS
 62
     3
 48
16.0
100
AcDbCircle
 10
56.27067252163442
 20
84.89591833739314
 30
0.0
 40
2.000006002491007
100
AcDbArc
 50
30.00320873521763
 51
149.9967912647823
  0
LINE
  5
103D
330
1A
100
AcDbEntity
  8
SEIHIN
  6
CONTINUOUS
 62
     3
 48
16.0
100
AcDbLine
 10
56.27067252163442
 20
83.89591833739302
 30
0.0
 11
56.27057252163445
 21
82.89591833739303
 31
0.0
  0
ARC
  5
103E
330
1A
100
AcDbEntity
  8
NOKITOI
  6
PHANTOM
 62
     8
 48
5.0
100
AcDbCircle
 10
54.5793225216342
 20
83.29841833739322
 30
0.0
 40
0.9949500012563332
100
AcDbArc
 50
359.9971206704047
 51
89.99712067040476
  0
LINE
  5
103F
330
1A
100
AcDbEntity
  8
SEIHIN
100
AcDbLine
 10
48.10542551053618
 20
112.5284513440224
 30
0.0
 11
47.10538936810894
 21
117.5286441140024
 31
0.0
  0
LINE
  5
1040
330
1A
100
AcDbEntity
  8
SEIHIN
  6
CONTINUOUS
 62
     3
 48
16.0
100
AcDbLine
 10
58.22751537823728
 20
137.5294995402855
 30
0.0
 11
58.22727252163452
 21
112.5292625345323
 31
0.0
  0
LINE
  5
1041
330
1A
100
AcDbEntity
  8
SEIHIN
  6
CONTINUOUS
 62
     3
 48
16.0
100
AcDbLine
 10
54.5182153782373
 20
137.5294995402855
 30
0.0
 11
54.51797252163442
 21
112.5292625345323
 31
0.0
  0
LINE
  5
1042
330
1A
100
AcDbEntity
  8
SEIHIN
  6
CONTINUOUS
 62
     3
 48
16.0
100
AcDbLine
 10
53.10508680845533
 20
137.5294916455658
 30
0.0
 11
58.22701537823741
 21
137.5293995402856
 31
0.0
  0
DIMENSION
  5
1043
330
1A
100
AcDbEntity
  8
SUNPOU
100
AcDbDimension
  2
*D4
 10
187.1319311869684
 20
30.49592835773017
 30
0.0
 11
184.6319311869684
 21
58.19597334756173
 31
0.0
 70
    32
  3
STANDARD
100
AcDbAlignedDimension
 13
166.6396725216665
 23
85.89601833739322
 33
0.0
 14
142.1010075803696
 24
30.49592835773018
 34
0.0
 50
90.0
100
AcDbRotatedDimension
1001
ACAD
1000
DSTYLE
1002
{
1070
    41
1040
3.0
1070
    42
1040
3.0
1070
    43
1040
7.0
1070
    44
1040
1.5
1070
    73
1070
     0
1070
    74
1070
     0
1070
    77
1070
     3
1070
   140
1040
3.0
1070
   141
1040
150.0
1070
   147
1040
1.0
1070
   172
1070
     1
1070
   173
1070
     1
1070
   176
1070
   256
1070
   177
1070
   256
1070
   178
1070
   256
1070
   271
1070
     0
1070
   272
1070
     0
1070
   341
1005
B2
1070
     6
1000
OPEN
1070
     7
1000
OPEN
1070
   371
1070
    -1
1070
   372
1070
    -1
1002
}
  0
ARC
  5
1044
330
1A
100
AcDbEntity
  8
SEIHIN
  6
CONTINUOUS
 62
     3
 48
16.0
100
AcDbCircle
 10
147.1434160577002
 20
48.86528064708108
 30
0.0
 40
3.0
100
AcDbArc
 50
292.2101352378072
 51
348.6003929130977
  0
LINE
  5
1045
330
1A
100
AcDbEntity
  8
SEIHIN
100
AcDbLine
 10
149.1512106473028
 20
49.06235312600853
 30
0.0
 11
138.1531400192444
 21
37.47650744211949
 31
0.0
  0
LINE
  5
1046
330
1A
100
AcDbEntity
  8
SEIHIN
  6
CONTINUOUS
 62
     3
 48
16.0
100
AcDbLine
 10
152.2046725216341
 20
44.62221833739306
 30
0.0
 11
157.4512725216343
 21
70.64361833739315
 31
0.0
  0
LINE
  5
1047
330
1A
100
AcDbEntity
  8
SEIHIN
  6
CONTINUOUS
 62
     3
 48
16.0
100
AcDbLine
 10
150.7274725216342
 20
46.40311833739315
 30
0.0
 11
155.9779725216342
 21
72.44361833739316
 31
0.0
  0
LINE
  5
1048
330
1A
100
AcDbEntity
  8
SEIHIN
  6
CONTINUOUS
 62
     3
 48
16.0
100
AcDbLine
 10
151.7144725216342
 20
44.72101833739304
 30
0.0
 11
156.9412725216342
 21
70.64361833739315
 31
0.0
  0
LINE
  5
1049
330
1A
100
AcDbEntity
  8
SEIHIN
  6
CONTINUOUS
 62
     3
 48
16.0
100
AcDbLine
 10
153.9209538715501
 20
43.01544992090237
 30
0.0
 11
159.0882778702193
 21
68.64366718521996
 31
0.0
  0
LINE
  5
104A
330
1A
100
AcDbEntity
  8
SEIHIN
100
AcDbLine
 10
147.7006815707333
 20
50.43929371950781
 30
0.0
 11
136.7026109426748
 21
38.85344803561878
 31
0.0
  0
LINE
  5
104B
330
1A
100
AcDbEntity
  8
CENTER_L
  6
CENTER
 62
     1
 48
5.0
100
AcDbLine
 10
106.3551725216343
 20
25.39161833739308
 30
0.0
 11
106.3551725216343
 21
49.5875704182962
 31
0.0
  0
LINE
  5
104C
330
1A
100
AcDbEntity
  8
NOKITOI
  6
PHANTOM
 62
     8
 48
5.0
100
AcDbLine
 10
150.4807725216343
 20
46.404368337393
 30
0.0
 11
156.3194725216341
 21
74.13576833739302
 31
0.0
  0
LINE
  5
104D
330
1A
100
AcDbEntity
  8
NOKITOI
  6
PHANTOM
 62
     8
 48
5.0
100
AcDbLine
 10
149.3720725216343
 20
47.41686833739317
 30
0.0
 11
154.8270725216341
 21
73.32576833739307
 31
0.0
  0
ARC
  5
104E
330
1A
100
AcDbEntity
  8
SEIHIN
  6
CONTINUOUS
 62
     3
 48
16.0
100
AcDbCircle
 10
151.2243827270763
 20
44.81982971519619
 30
0.0
 40
0.4999516927796185
100
AcDbArc
 50
287.6143628107025
 51
348.6009053555438
  0
ARC
  5
104F
330
1A
100
AcDbEntity
  8
SEIHIN
  6
CONTINUOUS
 62
     3
 48
16.0
100
AcDbCircle
 10
155.7655360484686
 20
30.52367769130563
 30
0.0
 40
14.00004666961683
100
AcDbArc
 50
107.6226323192344
 51
168.5714895567222
  0
ARC
  5
1050
330
1A
100
AcDbEntity
  8
SEIHIN
  6
CONTINUOUS
 62
     3
 48
16.0
100
AcDbCircle
 10
155.7655360484686
 20
30.52367769130563
 30
0.0
 40
12.00004666961683
100
AcDbArc
 50
102.5502496371679
 51
175.7109445732861
  0
LINE
  5
1051
330
1A
100
AcDbEntity
  8
NOKITOI
  6
PHANTOM
 62
     8
 48
5.0
100
AcDbLine
 10
130.1547725216343
 20
35.589168337393
 30
0.0
 11
115.4003725216342
 21
35.589168337393
 31
0.0
  0
ARC
  5
1052
330
1A
100
AcDbEntity
  8
SEIHIN
 48
16.0
100
AcDbCircle
 10
133.0762882512508
 20
42.29579951936694
 30
0.0
 40
5.0
100
AcDbArc
 50
270.0001740714124
 51
316.4908587477612
  0
ARC
  5
1053
330
1A
100
AcDbEntity
  8
SEIHIN
 48
16.0
100
AcDbCircle
 10
133.0762882512508
 20
42.29579951936694
 30
0.0
 40
7.0
100
AcDbArc
 50
270.0001740714124
 51
316.4908587477612
  0
LINE
  5
1054
330
1A
100
AcDbEntity
  8
NOKITOI
  6
PHANTOM
 62
     8
 48
5.0
100
AcDbLine
 10
134.3538725216341
 20
44.285268337393
 30
0.0
 11
144.3343725216341
 21
44.28516833739315
 31
0.0
  0
LINE
  5
1055
330
1A
100
AcDbEntity
  8
NOKITOI
  6
PHANTOM
 62
     8
 48
5.0
100
AcDbLine
 10
134.3537725216343
 20
35.78826833739316
 30
0.0
 11
134.3538725216341
 21
44.285268337393
 31
0.0
  0
ARC
  5
1056
330
1A
100
AcDbEntity
  8
NOKITOI
  6
PHANTOM
 62
     8
 48
5.0
100
AcDbCircle
 10
134.1547225216342
 20
35.78821833739311
 30
0.0
 40
0.1990500062799141
100
AcDbArc
 50
270.0143923080609
 51
0.0143923080611197
  0
ARC
  5
1057
330
1A
100
AcDbEntity
  8
SEIHIN
  6
CONTINUOUS
 62
     3
 48
16.0
100
AcDbCircle
 10
137.010830584134
 20
38.29581147295744
 30
0.0
 40
3.0
100
AcDbArc
 50
270.0001740714124
 51
340.2077771511065
  0
ARC
  5
1058
330
1A
100
AcDbEntity
  8
SEIHIN
  6
CONTINUOUS
 62
     3
 48
16.0
100
AcDbCircle
 10
153.9474889348437
 20
32.20083604770792
 30
0.0
 40
13.99997559784568
100
AcDbArc
 50
106.261582737929
 51
168.0923513414156
  0
ARC
  5
1059
330
1A
100
AcDbEntity
  8
SEIHIN
  6
CONTINUOUS
 62
     3
 48
16.0
100
AcDbCircle
 10
155.7655694292129
 20
30.52371489117064
 30
0.0
 40
14.50009083661241
100
AcDbArc
 50
107.6228264196176
 51
168.5715641416962
  0
ARC
  5
105A
330
1A
100
AcDbEntity
  8
NOKITOI
  6
PHANTOM
 62
     8
 48
5.0
100
AcDbCircle
 10
138.7955955627625
 20
36.09578720168139
 30
0.0
 40
0.5000188648190603
100
AcDbArc
 50
269.9973597808037
 51
348.6132711445601
  0
ARC
  5
105B
330
1A
100
AcDbEntity
  8
NOKITOI
  6
PHANTOM
 62
     8
 48
5.0
100
AcDbCircle
 10
153.2406613653134
 20
33.189555755919
 30
0.0
 40
12.93449408578155
100
AcDbArc
 50
105.5473332353544
 51
171.3240617643019
  0
ARC
  5
105C
330
1A
100
AcDbEntity
  8
NOKITOI
  6
PHANTOM
 62
     8
 48
5.0
100
AcDbCircle
 10
153.2407669882224
 20
33.18946209712777
 30
0.0
 40
12.93461262833301
100
AcDbArc
 50
105.5476727870196
 51
171.3237222126366
  0
ARC
  5
105D
330
1A
100
AcDbEntity
  8
NOKITOI
  6
PHANTOM
 62
     8
 48
5.0
100
AcDbCircle
 10
136.1538725216342
 20
36.09576833739316
 30
0.0
 40
0.4999999999999432
100
AcDbArc
 50
180.0000000000065
 51
270.0000000000065
  0
ARC
  5
105E
330
1A
100
AcDbEntity
  8
SEIHIN
  6
CONTINUOUS
 62
     3
 48
16.0
100
AcDbCircle
 10
142.801896819692
 20
31.49592835771358
 30
0.0
 40
1.0
100
AcDbArc
 50
270.0003301598739
 51
355.710944573288
  0
LINE
  5
105F
330
1A
100
AcDbEntity
  8
NOKITOI
  6
PHANTOM
 62
     8
 48
5.0
100
AcDbLine
 10
138.7955725216343
 20
35.59576833739316
 30
0.0
 11
136.1538725216343
 21
35.59576833739316
 31
0.0
  0
ARC
  5
1060
330
1A
100
AcDbEntity
  8
SEIHIN
  6
CONTINUOUS
 62
     3
 48
16.0
100
AcDbCircle
 10
139.2702792835958
 20
35.29582382236299
 30
0.0
 40
1.000005484992705
100
AcDbArc
 50
269.9996125702702
 51
348.0941346830961
  0
ARC
  5
1061
330
1A
100
AcDbEntity
  8
SEIHIN
  6
CONTINUOUS
 62
     3
 48
16.0
100
AcDbCircle
 10
141.0628955275594
 20
33.49593715703884
 30
0.0
 40
1.000018819910407
100
AcDbArc
 50
269.9986818823906
 51
348.5673983153616
  0
ARC
  5
1062
330
1A
100
AcDbEntity
  8
SEIHIN
  6
CONTINUOUS
 62
     3
 48
16.0
100
AcDbCircle
 10
141.0629241132519
 20
33.49587873925713
 30
0.0
 40
0.4999604042075796
100
AcDbArc
 50
270.0055476313236
 51
348.5719925852923
  0
ARC
  5
1063
330
1A
100
AcDbEntity
  8
NOKITOI
  6
PHANTOM
 62
     8
 48
5.0
100
AcDbCircle
 10
139.4705224497302
 20
35.29081122499178
 30
0.0
 40
0.9950428888512103
100
AcDbArc
 50
269.9971250795227
 51
351.3214426795068
  0
ARC
  5
1064
330
1A
100
AcDbEntity
  8
SEIHIN
  6
CONTINUOUS
 62
     3
 48
16.0
100
AcDbCircle
 10
153.9474889348437
 20
32.20083604770792
 30
0.0
 40
14.99997559784568
100
AcDbArc
 50
112.2101352378075
 51
160.2077771511068
  0
ARC
  5
1065
330
1A
100
AcDbEntity
  8
NOKITOI
  6
PHANTOM
 62
     8
 48
5.0
100
AcDbCircle
 10
153.240730976325
 20
33.18938347283682
 30
0.0
 40
14.23462403148678
100
AcDbArc
 50
139.2075062369006
 51
168.6237859483838
  0
LINE
  5
1066
330
1A
100
AcDbEntity
  8
NOKITOI
  6
PHANTOM
 62
     8
 48
5.0
100
AcDbLine
 10
135.6538725216343
 20
42.62286833739307
 30
0.0
 11
135.6538725216343
 21
36.09576833739305
 31
0.0
  0
LINE
  5
1067
330
1A
100
AcDbEntity
  8
NOKITOI
  6
PHANTOM
 62
     8
 48
5.0
100
AcDbLine
 10
142.2367725216341
 20
42.98516833739308
 30
0.0
 11
136.0161725216343
 21
42.98516833739308
 31
0.0
  0
LINE
  5
1068
330
1A
100
AcDbEntity
  8
NOKITOI
  6
PHANTOM
 62
     8
 48
5.0
100
AcDbLine
 10
135.1588725216341
 20
43.48016833739308
 30
0.0
 11
136.0161725216343
 21
42.98516833739308
 31
0.0
  0
LINE
  5
1069
330
1A
100
AcDbEntity
  8
NOKITOI
  6
PHANTOM
 62
     8
 48
5.0
100
AcDbLine
 10
135.1588725216341
 20
43.48016833739308
 30
0.0
 11
135.6538725216343
 21
42.62286833739307
 31
0.0
  0
ARC
  5
106A
330
1A
100
AcDbEntity
  8
NOKITOI
  6
PHANTOM
 62
     8
 48
5.0
100
AcDbCircle
 10
142.2367861994856
 20
42.68513847369923
 30
0.0
 40
0.3000298640056128
100
AcDbArc
 50
319.2190584222776
 51
90.00261201719935
  0
ARC
  5
106B
330
1A
100
AcDbEntity
  8
NOKITOI
  6
PHANTOM
 62
     8
 48
5.0
100
AcDbCircle
 10
153.2407870251828
 20
33.18947626158154
 30
0.0
 40
14.22809199964113
100
AcDbArc
 50
108.5474584936554
 51
128.7537062451646
  0
ARC
  5
106C
330
1A
100
AcDbEntity
  8
SEIHIN
  6
CONTINUOUS
 62
     3
 48
16.0
100
AcDbCircle
 10
149.7472195224987
 20
46.60066063801571
 30
0.0
 40
0.9999594506025221
100
AcDbArc
 50
286.2640456863981
 51
348.6062556716082
  0
ARC
  5
106D
330
1A
100
AcDbEntity
  8
NOKITOI
  6
PHANTOM
 62
     8
 48
5.0
100
AcDbCircle
 10
149.5071468584864
 20
46.60944758878059
 30
0.0
 40
0.9949690575286499
100
AcDbArc
 50
285.5437330810339
 51
348.1110361155302
  0
ARC
  5
106E
330
1A
100
AcDbEntity
  8
NOKITOI
  6
PHANTOM
 62
     8
 48
5.0
100
AcDbCircle
 10
148.3985160911853
 20
47.62191728916201
 30
0.0
 40
0.9950135261271753
100
AcDbArc
 50
288.5445751594485
 51
348.1074736523477
  0
ARC
  5
106F
330
1A
100
AcDbEntity
  8
SEIHIN
  6
CONTINUOUS
 62
     3
 48
16.0
100
AcDbCircle
 10
151.2243878134599
 20
44.81993538565729
 30
0.0
 40
1.000025069812966
100
AcDbArc
 50
287.6184683367714
 51
348.5967998294652
  0
ARC
  5
1070
330
1A
100
AcDbEntity
  8
SEIHIN
  6
CONTINUOUS
 62
     3
 48
16.0
100
AcDbCircle
 10
152.9406809845678
 20
43.21309876872919
 30
0.0
 40
1.0
100
AcDbArc
 50
282.5502496371679
 51
348.6004963799722
  0
LINE
  5
1071
330
1A
100
AcDbEntity
  8
SEIHIN
  6
CONTINUOUS
 62
     3
 48
16.0
100
AcDbLine
 10
150.0842336478774
 20
48.27232879296054
 30
0.0
 11
154.5147498419997
 21
70.24601833739319
 31
0.0
  0
LINE
  5
1072
330
1A
100
AcDbEntity
  8
SEIHIN
  6
CONTINUOUS
 62
     3
 48
16.0
100
AcDbLine
 10
148.9757215296044
 20
52.89339211305514
 30
0.0
 11
153.2810138239492
 21
74.24601833739314
 31
0.0
  0
LINE
  5
1073
330
1A
100
AcDbEntity
  8
SEIHIN
  6
CONTINUOUS
 62
     3
 48
16.0
100
AcDbLine
 10
150.9362665897224
 20
52.4980908769748
 30
0.0
 11
155.321262773779
 21
74.24601833739325
 31
0.0
  0
ARC
  5
1074
330
1A
100
AcDbEntity
  8
SEIHIN
 48
16.0
100
AcDbCircle
 10
144.0743588793092
 20
53.88164520325597
 30
0.0
 40
5.0
100
AcDbArc
 50
316.4908587477617
 51
348.6003929130983
  0
ARC
  5
1075
330
1A
100
AcDbEntity
  8
SEIHIN
 48
16.0
100
AcDbCircle
 10
144.0743588793092
 20
53.88164520325597
 30
0.0
 40
7.0
100
AcDbArc
 50
316.4908587477617
 51
348.6003929130983
  0
DIMENSION
  5
1076
330
1A
100
AcDbEntity
  8
SUNPOU
100
AcDbDimension
  2
*D5
 10
179.836092728955
 20
69.44601833739324
 30
0.0
 11
177.3360927289549
 21
77.67101833739326
 31
0.0
 70
    32
  3
STANDARD
100
AcDbAlignedDimension
 13
166.6396725216665
 23
85.89601833739322
 33
0.0
 14
166.6397885859234
 24
69.44601833739324
 34
0.0
 50
90.0
100
AcDbRotatedDimension
1001
ACAD
1000
DSTYLE
1002
{
1070
    41
1040
3.0
1070
    42
1040
3.0
1070
    43
1040
7.0
1070
    44
1040
1.5
1070
    73
1070
     0
1070
    74
1070
     0
1070
    77
1070
     3
1070
   140
1040
3.0
1070
   141
1040
150.0
1070
   147
1040
1.0
1070
   172
1070
     1
1070
   173
1070
     1
1070
   176
1070
   256
1070
   177
1070
   256
1070
   178
1070
   256
1070
   271
1070
     0
1070
   272
1070
     0
1070
   341
1005
B2
1070
     6
1000
OPEN
1070
     7
1000
OPEN
1070
   371
1070
    -1
1070
   372
1070
    -1
1002
}
  0
LINE
  5
1077
330
1A
100
AcDbEntity
  8
SEIHIN
100
AcDbLine
 10
159.0320798497285
 20
69.68156099489966
 30
0.0
 11
157.9563141346951
 21
70.75732670993312
 31
0.0
  0
ARC
  5
1078
330
1A
100
AcDbEntity
  8
SEIHIN
  6
CONTINUOUS
 62
     3
 48
16.0
100
AcDbCircle
 10
158.4315621832199
 20
70.44600987496483
 30
0.0
 40
1.000008462481795
100
AcDbArc
 50
89.99940765751226
 51
168.6029545883054
  0
ARC
  5
1079
330
1A
100
AcDbEntity
  8
SEIHIN
  6
CONTINUOUS
 62
     3
 48
16.0
100
AcDbCircle
 10
157.9215220639322
 20
70.4460588890376
 30
0.0
 40
0.9999594495828198
100
AcDbArc
 50
90.00283867969463
 51
168.6052533732175
  0
LINE
  5
107A
330
1A
100
AcDbEntity
  8
SEIHIN
  6
CONTINUOUS
 62
     3
 48
16.0
100
AcDbLine
 10
167.6396725216343
 20
84.89602636952179
 30
0.0
 11
167.6397885858912
 21
70.44602636952174
 31
0.0
  0
LINE
  5
107B
330
1A
100
AcDbEntity
  8
SEIHIN
100
AcDbLine
 10
166.9970473331926
 20
70.05082156997992
 30
0.0
 11
165.6027517701882
 21
71.44511713298436
 31
0.0
  0
ARC
  5
107C
330
1A
100
AcDbEntity
  8
SEIHIN
  6
CONTINUOUS
 62
     3
 48
16.0
100
AcDbCircle
 10
160.0685507572015
 20
68.44601833739313
 30
0.0
 40
1.0
100
AcDbArc
 50
90.0000000000004
 51
168.6004963799714
  0
LINE
  5
107D
330
1A
100
AcDbEntity
  8
SEIHIN
  6
CONTINUOUS
 62
     3
 48
16.0
100
AcDbLine
 10
155.5348743169146
 20
70.24601833739308
 30
0.0
 11
154.5147498419997
 21
70.24601833739314
 31
0.0
  0
LINE
  5
107E
330
1A
100
AcDbEntity
  8
SEIHIN
  6
CONTINUOUS
 62
     3
 48
16.0
100
AcDbLine
 10
166.6397885859234
 20
69.44601833739324
 30
0.0
 11
160.0685507572015
 21
69.44601833739312
 31
0.0
  0
ARC
  5
107F
330
1A
100
AcDbEntity
  8
SEIHIN
  6
CONTINUOUS
 62
     3
 48
16.0
100
AcDbCircle
 10
166.6397885859234
 20
70.44601833739324
 30
0.0
 40
1.0
100
AcDbArc
 50
270.0
 51
0.0004602070640758
  0
LINE
  5
1080
330
1A
100
AcDbEntity
  8
SEIHIN
100
AcDbLine
 10
160.6192262678334
 20
84.00891647178355
 30
0.0
 11
161.1052307440619
 21
74.24601833739337
 31
0.0
  0
LINE
  5
1081
330
1A
100
AcDbEntity
  8
SEIHIN
100
AcDbLine
 10
158.5885021311214
 20
83.95401395040346
 30
0.0
 11
158.1052307440619
 21
74.24601833739325
 31
0.0
  0
ARC
  5
1082
330
1A
100
AcDbEntity
  8
SEIHIN
100
AcDbCircle
 10
158.6051725216342
 20
80.24601833739314
 30
0.0
 40
2.0
100
AcDbArc
 50
90.00000000000081
 51
180.0
  0
LINE
  5
1083
330
1A
100
AcDbEntity
  8
SEIHIN
  6
CONTINUOUS
 62
     3
 48
16.0
100
AcDbLine
 10
163.8397725216343
 20
74.24601833739314
 30
0.0
 11
163.8397725216343
 21
83.06851833739314
 31
0.0
  0
LINE
  5
1084
330
1A
100
AcDbEntity
  8
SEIHIN
  6
CONTINUOUS
 62
     3
 48
16.0
100
AcDbLine
 10
165.6396725216343
 20
84.89601833739323
 30
0.0
 11
165.6397725216342
 21
72.44601833739307
 31
0.0
  0
LINE
  5
1085
330
1A
100
AcDbEntity
  8
SEIHIN
  6
CONTINUOUS
 62
     3
 48
16.0
100
AcDbLine
 10
164.6396644895057
 20
85.89601833739312
 30
0.0
 11
164.6397805537626
 21
71.44601833739324
 31
0.0
  0
LINE
  5
1086
330
1A
100
AcDbEntity
  8
NOKITOI
  6
PHANTOM
 62
     8
 48
5.0
100
AcDbLine
 10
154.8270725216341
 20
73.32576833739307
 30
0.0
 11
157.1361725216341
 21
84.29316833739306
 31
0.0
  0
LINE
  5
1087
330
1A
100
AcDbEntity
  8
NOKITOI
  6
PHANTOM
 62
     8
 48
5.0
100
AcDbLine
 10
158.1909725216341
 20
82.99316833739323
 30
0.0
 11
156.6330725216343
 21
75.5937683373931
 31
0.0
  0
LINE
  5
1088
330
1A
100
AcDbEntity
  8
NOKITOI
  6
PHANTOM
 62
     8
 48
5.0
100
AcDbLine
 10
162.0573725216343
 20
75.59366833739301
 30
0.0
 11
162.0573725216343
 21
82.99316833739323
 31
0.0
  0
LINE
  5
1089
330
1A
100
AcDbEntity
  8
NOKITOI
  6
PHANTOM
 62
     8
 48
5.0
100
AcDbLine
 10
163.3573725216343
 20
75.28866833739306
 30
0.0
 11
163.3573725216343
 21
83.29826833739303
 31
0.0
  0
LINE
  5
108A
330
1A
100
AcDbEntity
  8
SEIHIN
  6
CONTINUOUS
 62
     3
 48
16.0
100
AcDbLine
 10
164.6397725216341
 20
71.44601833739319
 30
0.0
 11
157.9214725216341
 21
71.44601833739319
 31
0.0
  0
LINE
  5
108B
330
1A
100
AcDbEntity
  8
SEIHIN
  6
CONTINUOUS
 62
     3
 48
16.0
100
AcDbLine
 10
162.8397725216343
 20
73.24601833739314
 30
0.0
 11
156.9582725216341
 21
73.24601833739314
 31
0.0
  0
LINE
  5
108C
330
1A
100
AcDbEntity
  8
SEIHIN
  6
CONTINUOUS
 62
     3
 48
16.0
100
AcDbLine
 10
163.8397725216343
 20
74.24601833739325
 30
0.0
 11
153.2810138239492
 21
74.24601833739314
 31
0.0
  0
LINE
  5
108D
330
1A
100
AcDbEntity
  8
NOKITOI
  6
PHANTOM
 62
     8
 48
5.0
100
AcDbLine
 10
156.5141725216341
 20
74.29366833739317
 30
0.0
 11
162.3623725216343
 21
74.29366833739317
 31
0.0
  0
LINE
  5
108E
330
1A
100
AcDbEntity
  8
NOKITOI
  6
PHANTOM
 62
     8
 48
5.0
100
AcDbLine
 10
162.0573725216343
 20
75.59366833739301
 30
0.0
 11
156.6330725216343
 21
75.5937683373931
 31
0.0
  0
LINE
  5
108F
330
1A
100
AcDbEntity
  8
SEIHIN
100
AcDbLine
 10
156.6051725216342
 20
80.24601833739314
 30
0.0
 11
156.6051725216342
 21
74.24601833739314
 31
0.0
  0
ARC
  5
1090
330
1A
100
AcDbEntity
  8
SEIHIN
  6
CONTINUOUS
 62
     3
 48
16.0
100
AcDbCircle
 10
156.95826218322
 20
72.24600987496478
 30
0.0
 40
1.000008462481828
100
AcDbArc
 50
89.99940765751103
 51
168.6029545883054
  0
ARC
  5
1091
330
1A
100
AcDbEntity
  8
NOKITOI
  6
PHANTOM
 62
     8
 48
5.0
100
AcDbCircle
 10
156.5141909642484
 20
74.09478330082987
 30
0.0
 40
0.1989850374179911
100
AcDbArc
 50
90.00531036897134
 51
168.1136861719431
  0
ARC
  5
1092
330
1A
100
AcDbEntity
  8
SEIHIN
  6
CONTINUOUS
 62
     3
 48
16.0
100
AcDbCircle
 10
162.8397725216343
 20
74.24601833739314
 30
0.0
 40
1.0
100
AcDbArc
 50
270.0
 51
0.0
  0
ARC
  5
1093
330
1A
100
AcDbEntity
  8
NOKITOI
  6
PHANTOM
 62
     8
 48
5.0
100
AcDbCircle
 10
162.3623725216344
 20
75.28866833739306
 30
0.0
 40
0.9949999999999192
100
AcDbArc
 50
269.9999999999951
 51
359.9999999999951
  0
ARC
  5
1094
330
1A
100
AcDbEntity
  8
SEIHIN
  6
CONTINUOUS
 62
     3
 48
16.0
100
AcDbCircle
 10
164.6397725216343
 20
72.44601833739313
 30
0.0
 40
0.9999999999999715
100
AcDbArc
 50
269.9999999999983
 51
359.9999999999983
  0
LINE
  5
1095
330
1A
100
AcDbEntity
  8
SEIHIN
  6
CONTINUOUS
 62
     3
 48
16.0
100
AcDbLine
 10
163.8397725216343
 20
82.24601833739326
 30
0.0
 11
160.7069846744721
 21
82.24601833739313
 31
0.0
  0
LINE
  5
1096
330
1A
100
AcDbEntity
  8
SEIHIN
  6
CONTINUOUS
 62
     3
 48
16.0
100
AcDbLine
 10
156.4396725216342
 20
83.89591833739302
 30
0.0
 11
162.8126725216343
 21
84.06821833739309
 31
0.0
  0
LINE
  5
1097
330
1A
100
AcDbEntity
  8
SEIHIN
  6
CONTINUOUS
 62
     3
 48
16.0
100
AcDbLine
 10
158.1716725216342
 20
85.89601833739322
 30
0.0
 11
166.6396725216665
 21
85.89601833739322
 31
0.0
  0
LINE
  5
1098
330
1A
100
AcDbEntity
  8
NOKITOI
  6
PHANTOM
 62
     8
 48
5.0
100
AcDbLine
 10
162.0573725216343
 20
82.99316833739323
 30
0.0
 11
158.1909725216341
 21
82.99316833739323
 31
0.0
  0
LINE
  5
1099
330
1A
100
AcDbEntity
  8
NOKITOI
  6
PHANTOM
 62
     8
 48
5.0
100
AcDbLine
 10
162.3623725216343
 20
84.29326833739315
 30
0.0
 11
157.1586725216342
 21
84.29316833739306
 31
0.0
  0
ARC
  5
109A
330
1A
100
AcDbEntity
  8
SEIHIN
  6
CONTINUOUS
 62
     3
 48
16.0
100
AcDbCircle
 10
156.4396725216342
 20
84.89591833739314
 30
0.0
 40
2.000006002491007
100
AcDbArc
 50
30.00320873521763
 51
149.9967912647823
  0
ARC
  5
109B
330
1A
100
AcDbEntity
  8
SEIHIN
  6
CONTINUOUS
 62
     3
 48
16.0
100
AcDbCircle
 10
156.439670789648
 20
84.89592133730207
 30
0.0
 40
2.000003002496294
100
AcDbArc
 50
149.9968408781609
 51
270.0029144023507
  0
LINE
  5
109C
330
1A
100
AcDbEntity
  8
SEIHIN
  6
CONTINUOUS
 62
     3
 48
16.0
100
AcDbLine
 10
156.4396725216342
 20
83.89591833739302
 30
0.0
 11
156.4397725216342
 21
82.89591833739303
 31
0.0
  0
ARC
  5
109D
330
1A
100
AcDbEntity
  8
SEIHIN
  6
CONTINUOUS
 62
     3
 48
16.0
100
AcDbCircle
 10
162.8397388977648
 20
83.06855106213424
 30
0.0
 40
1.000033624404824
100
AcDbArc
 50
359.9981250734935
 51
91.55092636816522
  0
ARC
  5
109E
330
1A
100
AcDbEntity
  8
NOKITOI
  6
PHANTOM
 62
     8
 48
5.0
100
AcDbCircle
 10
162.3623725216343
 20
83.29826833739316
 30
0.0
 40
0.9950000000000613
100
AcDbArc
 50
359.9999999999967
 51
89.99999999999674
  0
ARC
  5
109F
330
1A
100
AcDbEntity
  8
SEIHIN
  6
CONTINUOUS
 62
     3
 48
16.0
100
AcDbCircle
 10
164.6396725216343
 20
84.89601833739312
 30
0.0
 40
1.000000000000028
100
AcDbArc
 50
0.0000000000016284
 51
90.00000000000161
  0
ARC
  5
10A0
330
1A
100
AcDbEntity
  8
SEIHIN
  6
CONTINUOUS
 62
     3
 48
16.0
100
AcDbCircle
 10
166.6396725216665
 20
84.89601833739323
 30
0.0
 40
1.0
100
AcDbArc
 50
0.0004602070638722
 51
90.0
  0
LINE
  5
10A1
330
1A
100
AcDbEntity
  8
SEIHIN
100
AcDbLine
 10
164.6049195327325
 20
112.5284513440224
 30
0.0
 11
165.6049556751597
 21
117.5286441140024
 31
0.0
  0
LINE
  5
10A2
330
1A
100
AcDbEntity
  8
SEIHIN
  6
CONTINUOUS
 62
     3
 48
16.0
100
AcDbLine
 10
158.1921296650314
 20
137.5294995402855
 30
0.0
 11
158.1923725216342
 21
112.5292625345323
 31
0.0
  0
LINE
  5
10A3
330
1A
100
AcDbEntity
  8
SEIHIN
  6
CONTINUOUS
 62
     3
 48
16.0
100
AcDbLine
 10
154.4828296650314
 20
137.5294995402855
 30
0.0
 11
154.4830725216342
 21
112.5292625345323
 31
0.0
  0
LINE
  5
10A4
330
1A
100
AcDbEntity
  8
SEIHIN
  6
CONTINUOUS
 62
     3
 48
16.0
100
AcDbLine
 10
159.6052582348133
 20
137.5294916455658
 30
0.0
 11
154.4833296650313
 21
137.5293995402856
 31
0.0
  0
LINE
  5
10A5
330
1A
100
AcDbEntity
  8
SEIHIN
  6
PHANTOM
 62
     2
 48
5.0
100
AcDbLine
 10
164.6047825245854
 20
232.5306470002975
 30
0.0
 11
48.10556251868331
 21
232.5270780545897
 31
0.0
  0
LINE
  5
10A6
330
1A
100
AcDbEntity
  8
SEIHIN
  6
PHANTOM
 62
     2
 48
5.0
100
AcDbLine
 10
164.6047825245854
 20
263.0122565466622
 30
0.0
 11
48.10556251868331
 21
263.0086876009544
 31
0.0
  0
LINE
  5
10A7
330
1A
100
AcDbEntity
  8
SEIHIN
100
AcDbLine
 10
61.0454300260626
 20
209.589005030104
 30
0.0
 11
151.6649150172061
 21
209.589005030104
 31
0.0
  0
LINE
  5
10A8
330
1A
100
AcDbEntity
  8
SEIHIN
  6
CONTINUOUS
 62
     3
 48
16.0
100
AcDbLine
 10
164.6044256658032
 20
247.5306469922502
 30
0.0
 11
48.10520565990123
 21
247.5270780465424
 31
0.0
  0
LINE
  5
10A9
330
1A
100
AcDbEntity
  8
SEIHIN
100
AcDbLine
 10
56.57083125640383
 20
212.5275255495324
 30
0.0
 11
156.1395400352572
 21
212.5293994850442
 31
0.0
  0
LINE
  5
10AA
330
1A
100
AcDbEntity
  8
SEIHIN
100
AcDbLine
 10
59.10517252163436
 20
211.5292625345322
 30
0.0
 11
156.1395081145681
 21
211.5292625345322
 31
0.0
  0
LINE
  5
10AB
330
1A
100
AcDbEntity
  8
SEIHIN
100
AcDbLine
 10
59.10517252163436
 20
163.5292625345322
 30
0.0
 11
158.1402037751431
 21
163.5292625345323
 31
0.0
  0
LINE
  5
10AC
330
1A
100
AcDbEntity
  8
SEIHIN
100
AcDbLine
 10
61.10517252163436
 20
165.5292625345322
 30
0.0
 11
151.6051725216342
 21
165.5292625345322
 31
0.0
  0
LINE
  5
10AD
330
1A
100
AcDbEntity
  8
SEIHIN
100
AcDbLine
 10
56.5701725216345
 20
149.5292625345322
 30
0.0
 11
156.1401725186339
 21
149.5292625345322
 31
0.0
  0
LINE
  5
10AE
330
1A
100
AcDbEntity
  8
SEIHIN
100
AcDbLine
 10
56.5701725216345
 20
147.5292625345322
 30
0.0
 11
156.1401987102174
 21
147.5292625345322
 31
0.0
  0
LINE
  5
10AF
330
1A
100
AcDbEntity
  8
SEIHIN
  6
PHANTOM
 62
     2
 48
5.0
100
AcDbLine
 10
72.60607097230991
 20
226.0094368888804
 30
0.0
 11
72.60512939204033
 21
263.0095368773579
 31
0.0
  0
LINE
  5
10B0
330
1A
100
AcDbEntity
  8
SEIHIN
  6
PHANTOM
 62
     2
 48
5.0
100
AcDbLine
 10
62.1060709733124
 20
226.0092392733533
 30
0.0
 11
62.105129395782
 21
263.009239261831
 31
0.0
  0
LINE
  5
10B1
330
1A
100
AcDbEntity
  8
SEIHIN
  6
PHANTOM
 62
     2
 48
5.0
100
AcDbLine
 10
47.10536640533223
 20
258.0072054964436
 30
0.0
 11
47.10640719096864
 21
218.0111720750291
 31
0.0
  0
LINE
  5
10B2
330
1A
100
AcDbEntity
  8
SEIHIN
  6
CONTINUOUS
 62
     3
 48
16.0
100
AcDbLine
 10
47.10500954655003
 20
242.5255959420316
 30
0.0
 11
47.10605033218643
 21
204.5295625206171
 31
0.0
  0
LINE
  5
10B3
330
1A
100
AcDbEntity
  8
SEIHIN
  6
CONTINUOUS
 62
     3
 48
16.0
100
AcDbLine
 10
58.22798591190963
 20
222.527319734073
 30
0.0
 11
58.22727253768653
 21
247.5275567308278
 31
0.0
  0
LINE
  5
10B4
330
1A
100
AcDbEntity
  8
SEIHIN
  6
CONTINUOUS
 62
     3
 48
16.0
100
AcDbLine
 10
54.51868591256664
 20
222.5272499230944
 30
0.0
 11
54.51797253834342
 21
247.5274869198493
 31
0.0
  0
LINE
  5
10B5
330
1A
100
AcDbEntity
  8
SEIHIN
  6
CONTINUOUS
 62
     3
 48
16.0
100
AcDbLine
 10
62.1057141145302
 20
212.5276297189413
 30
0.0
 11
62.10477253699991
 21
247.527629707419
 31
0.0
  0
LINE
  5
10B6
330
1A
100
AcDbEntity
  8
SEIHIN
  6
CONTINUOUS
 62
     3
 48
16.0
100
AcDbLine
 10
72.60571411352771
 20
212.5278273344684
 30
0.0
 11
72.60477253325825
 21
247.5279273229459
 31
0.0
  0
LINE
  5
10B7
330
1A
100
AcDbEntity
  8
SEIHIN
100
AcDbLine
 10
63.56859683510413
 20
165.5292625345322
 30
0.0
 11
63.56859683510402
 21
209.589005030104
 31
0.0
  0
LINE
  5
10B8
330
1A
100
AcDbEntity
  8
SEIHIN
100
AcDbLine
 10
72.81010634156223
 20
165.5292625345322
 30
0.0
 11
72.81010634156223
 21
209.589005030104
 31
0.0
  0
LINE
  5
10B9
330
1A
100
AcDbEntity
  8
SEIHIN
  6
CONTINUOUS
 62
     3
 48
16.0
100
AcDbLine
 10
61.10517252163436
 20
209.5292625345322
 30
0.0
 11
61.10517252163436
 21
165.5292625345322
 31
0.0
  0
LINE
  5
10BA
330
1A
100
AcDbEntity
  8
SEIHIN
  6
CONTINUOUS
 62
     3
 48
16.0
100
AcDbLine
 10
51.10508928057379
 20
145.5295152743481
 30
0.0
 11
51.10519471641919
 21
204.5295152731024
 31
0.0
  0
LINE
  5
10BB
330
1A
100
AcDbEntity
  8
SEIHIN
  6
CONTINUOUS
 62
     3
 48
16.0
100
AcDbLine
 10
45.10517252163436
 20
222.5294987110834
 30
0.0
 11
45.10517252163436
 21
150.5295861597995
 31
0.0
  0
LINE
  5
10BC
330
1A
100
AcDbEntity
  8
SEIHIN
  6
CONTINUOUS
 62
     3
 48
16.0
100
AcDbLine
 10
53.10515537988397
 20
145.5294916447555
 30
0.0
 11
51.10508928057379
 21
145.5295152743481
 31
0.0
  0
LINE
  5
10BD
330
1A
100
AcDbEntity
  8
SEIHIN
100
AcDbLine
 10
45.10517252163436
 20
150.5295861597995
 30
0.0
 11
47.10515538049151
 21
145.5295625311904
 31
0.0
  0
LINE
  5
10BE
330
1A
100
AcDbEntity
  8
SEIHIN
  6
CONTINUOUS
 62
     3
 48
16.0
100
AcDbLine
 10
59.86793895813616
 20
163.5292625345322
 30
0.0
 11
59.86782581447392
 21
149.5292625345322
 31
0.0
  0
LINE
  5
10BF
330
1A
100
AcDbEntity
  8
SEIHIN
  6
CONTINUOUS
 62
     3
 48
16.0
100
AcDbLine
 10
76.91915064006002
 20
163.5292625345323
 30
0.0
 11
76.91903749639777
 21
149.5292625345322
 31
0.0
  0
LINE
  5
10C0
330
1A
100
AcDbEntity
  8
SEIHIN
100
AcDbLine
 10
63.56859683510413
 20
147.5292625345322
 30
0.0
 11
63.56859683510413
 21
149.5292625345323
 31
0.0
  0
LINE
  5
10C1
330
1A
100
AcDbEntity
  8
SEIHIN
100
AcDbLine
 10
72.81010634156223
 20
147.5292625345323
 30
0.0
 11
72.81010634156223
 21
149.5292625345322
 31
0.0
  0
LINE
  5
10C2
330
1A
100
AcDbEntity
  8
SEIHIN
100
AcDbLine
 10
54.57014126812556
 20
163.5292625345322
 30
0.0
 11
59.10517252163436
 21
163.5292625345322
 31
0.0
  0
LINE
  5
10C3
330
1A
100
AcDbEntity
  8
SEIHIN
100
AcDbLine
 10
61.10517252163436
 20
165.5292625345322
 30
0.0
 11
59.10517252163436
 21
163.5292625345322
 31
0.0
  0
LINE
  5
10C4
330
1A
100
AcDbEntity
  8
SEIHIN
  6
CONTINUOUS
 62
     3
 48
16.0
100
AcDbLine
 10
53.10555734094475
 20
220.5273021084257
 30
0.0
 11
49.10561212618063
 21
220.5271795703753
 31
0.0
  0
LINE
  5
10C5
330
1A
100
AcDbEntity
  8
SEIHIN
  6
PHANTOM
 62
     2
 48
5.0
100
AcDbLine
 10
47.10536640533212
 20
227.5255959500789
 30
0.0
 11
47.10640719096864
 21
189.5295625286644
 31
0.0
  0
LINE
  5
10C6
330
1A
100
AcDbEntity
  8
SEIHIN
  6
CONTINUOUS
 62
     3
 48
16.0
100
AcDbLine
 10
49.10561212618063
 20
220.5271795703753
 30
0.0
 11
49.10605033283378
 21
204.5295388918055
 31
0.0
  0
LINE
  5
10C7
330
1A
100
AcDbEntity
  8
SEIHIN
  6
CONTINUOUS
 62
     3
 48
16.0
100
AcDbLine
 10
46.60489640124899
 20
204.529568441453
 30
0.0
 11
46.60509354349324
 21
227.5294969445675
 31
0.0
  0
LINE
  5
10C8
330
1A
100
AcDbEntity
  8
SEIHIN
  6
CONTINUOUS
 62
     3
 48
16.0
100
AcDbLine
 10
51.10519471641919
 20
204.5295152731024
 30
0.0
 11
46.60489640124899
 21
204.5295684414529
 31
0.0
  0
LINE
  5
10C9
330
1A
100
AcDbEntity
  8
SEIHIN
100
AcDbLine
 10
46.10533471652252
 20
227.5294978276473
 30
0.0
 11
45.10517252163436
 21
222.5294987110834
 31
0.0
  0
LINE
  5
10CA
330
1A
100
AcDbEntity
  8
SEIHIN
  6
PHANTOM
 62
     2
 48
5.0
100
AcDbLine
 10
48.10578237189599
 20
232.5281774308962
 30
0.0
 11
47.10584033590589
 21
227.5279658405952
 31
0.0
  0
LINE
  5
10CB
330
1A
100
AcDbEntity
  8
SEIHIN
  6
CONTINUOUS
 62
     3
 48
16.0
100
AcDbLine
 10
47.10542031903083
 20
227.5294964917212
 30
0.0
 11
46.10533463035904
 21
227.5294973968997
 31
0.0
  0
LINE
  5
10CC
330
1A
100
AcDbEntity
  8
SEIHIN
  6
PHANTOM
 62
     2
 48
5.0
100
AcDbLine
 10
54.51904277134872
 20
207.5272499311417
 30
0.0
 11
54.51832939712563
 21
232.5274869278966
 31
0.0
  0
LINE
  5
10CD
330
1A
100
AcDbEntity
  8
SEIHIN
  6
PHANTOM
 62
     2
 48
5.0
100
AcDbLine
 10
58.22834277069182
 20
207.5273197421204
 30
0.0
 11
58.22762939646873
 21
232.5275567388751
 31
0.0
  0
LINE
  5
10CE
330
1A
100
AcDbEntity
  8
SEIHIN
  6
PHANTOM
 62
     2
 48
5.0
100
AcDbLine
 10
72.60607097230991
 20
197.5278273425158
 30
0.0
 11
72.60512939204033
 21
232.5279273309933
 31
0.0
  0
LINE
  5
10CF
330
1A
100
AcDbEntity
  8
SEIHIN
  6
PHANTOM
 62
     2
 48
5.0
100
AcDbLine
 10
62.10607097331228
 20
197.5276297269887
 30
0.0
 11
62.105129395782
 21
232.5276297154663
 31
0.0
  0
LINE
  5
10D0
330
1A
100
AcDbEntity
  8
SEIHIN
 48
16.0
100
AcDbLine
 10
59.10517252163436
 20
211.5292625345322
 30
0.0
 11
61.10517252163436
 21
209.5292625345322
 31
0.0
  0
LINE
  5
10D1
330
1A
100
AcDbEntity
  8
SEIHIN
  6
CONTINUOUS
 62
     3
 48
16.0
100
AcDbLine
 10
53.10555734288641
 20
222.5272312219907
 30
0.0
 11
53.10555734288641
 21
220.5272312219907
 31
0.0
  0
LINE
  5
10D2
330
1A
100
AcDbEntity
  8
SEIHIN
  6
CONTINUOUS
 62
     3
 48
16.0
100
AcDbLine
 10
56.5708369287006
 20
211.5292625345322
 30
0.0
 11
56.57048591220325
 21
222.5272885390505
 31
0.0
  0
LINE
  5
10D3
330
1A
100
AcDbEntity
  8
SEIHIN
100
AcDbLine
 10
56.5708369287006
 20
211.5292625345322
 30
0.0
 11
59.10517252163436
 21
211.5292625345322
 31
0.0
  0
LINE
  5
10D4
330
1A
100
AcDbEntity
  8
SEIHIN
  6
CONTINUOUS
 62
     3
 48
16.0
100
AcDbLine
 10
53.10555734288641
 20
222.5272312219907
 30
0.0
 11
58.22748591002778
 21
222.5274197246627
 31
0.0
  0
LINE
  5
10D5
330
1A
100
AcDbEntity
  8
SEIHIN
100
AcDbLine
 10
48.10542551311391
 20
247.5281774228489
 30
0.0
 11
47.1054834771237
 21
242.5279658325479
 31
0.0
  0
LINE
  5
10D6
330
1A
100
AcDbEntity
  8
SEIHIN
  6
PHANTOM
 62
     2
 48
5.0
100
AcDbLine
 10
48.10578237189599
 20
263.0097869772608
 30
0.0
 11
47.10584033590589
 21
258.0095753869599
 31
0.0
  0
LINE
  5
10D7
330
1A
100
AcDbEntity
  8
SEIHIN
  6
PHANTOM
 62
     2
 48
5.0
100
AcDbLine
 10
54.51904277134883
 20
236.0088594775064
 30
0.0
 11
54.51832939712563
 21
263.0090964742613
 31
0.0
  0
LINE
  5
10D8
330
1A
100
AcDbEntity
  8
SEIHIN
  6
PHANTOM
 62
     2
 48
5.0
100
AcDbLine
 10
58.22834277069182
 20
236.008929288485
 30
0.0
 11
58.22762939646873
 21
263.0091662852398
 31
0.0
  0
LINE
  5
10D9
330
1A
100
AcDbEntity
  8
SEIHIN
  6
PHANTOM
 62
     2
 48
5.0
100
AcDbLine
 10
165.6056923555008
 20
258.0072054964436
 30
0.0
 11
165.6046515698643
 21
218.0111720750291
 31
0.0
  0
LINE
  5
10DA
330
1A
100
AcDbEntity
  8
SEIHIN
  6
PHANTOM
 62
     2
 48
5.0
100
AcDbLine
 10
150.6049877875207
 20
226.0092392733533
 30
0.0
 11
150.6059293650509
 21
263.009239261831
 31
0.0
  0
LINE
  5
10DB
330
1A
100
AcDbEntity
  8
SEIHIN
  6
PHANTOM
 62
     2
 48
5.0
100
AcDbLine
 10
140.1049877885232
 20
226.0094368888804
 30
0.0
 11
140.1059293687926
 21
263.0095368773579
 31
0.0
  0
LINE
  5
10DC
330
1A
100
AcDbEntity
  8
SEIHIN
  6
CONTINUOUS
 62
     3
 48
16.0
100
AcDbLine
 10
140.104630929741
 20
212.5278273344684
 30
0.0
 11
140.1055725100104
 21
247.5279273229459
 31
0.0
  0
LINE
  5
10DD
330
1A
100
AcDbEntity
  8
SEIHIN
  6
CONTINUOUS
 62
     3
 48
16.0
100
AcDbLine
 10
150.6046309287385
 20
212.5276297189413
 30
0.0
 11
150.6055725062688
 21
247.527629707419
 31
0.0
  0
LINE
  5
10DE
330
1A
100
AcDbEntity
  8
SEIHIN
  6
CONTINUOUS
 62
     3
 48
16.0
100
AcDbLine
 10
158.191659130702
 20
222.5272499230944
 30
0.0
 11
158.1923725049252
 21
247.5274869198493
 31
0.0
  0
LINE
  5
10DF
330
1A
100
AcDbEntity
  8
SEIHIN
  6
CONTINUOUS
 62
     3
 48
16.0
100
AcDbLine
 10
154.4823591313591
 20
222.527319734073
 30
0.0
 11
154.4830725055821
 21
247.5275567308278
 31
0.0
  0
LINE
  5
10E0
330
1A
100
AcDbEntity
  8
SEIHIN
  6
CONTINUOUS
 62
     3
 48
16.0
100
AcDbLine
 10
165.6053354967186
 20
242.5255959420316
 30
0.0
 11
165.6042947110822
 21
204.5295625206171
 31
0.0
  0
LINE
  5
10E1
330
1A
100
AcDbEntity
  8
SEIHIN
100
AcDbLine
 10
149.1417482081645
 20
165.5292625345322
 30
0.0
 11
149.1417482081646
 21
209.589005030104
 31
0.0
  0
LINE
  5
10E2
330
1A
100
AcDbEntity
  8
SEIHIN
100
AcDbLine
 10
139.9002387017064
 20
165.5292625345322
 30
0.0
 11
139.9002387017064
 21
209.589005030104
 31
0.0
  0
LINE
  5
10E3
330
1A
100
AcDbEntity
  8
SEIHIN
  6
CONTINUOUS
 62
     3
 48
16.0
100
AcDbLine
 10
135.7911944031692
 20
163.5293107150141
 30
0.0
 11
135.7913304618417
 21
149.5293107152179
 31
0.0
  0
LINE
  5
10E4
330
1A
100
AcDbEntity
  8
SEIHIN
100
AcDbLine
 10
139.9002386988684
 20
147.5292625372524
 30
0.0
 11
139.9002386987062
 21
149.5292625372522
 31
0.0
  0
LINE
  5
10E5
330
1A
100
AcDbEntity
  8
SEIHIN
100
AcDbLine
 10
149.1417482053264
 20
147.5292625380017
 30
0.0
 11
149.1417482051642
 21
149.5292625380018
 31
0.0
  0
LINE
  5
10E6
330
1A
100
AcDbEntity
  8
SEIHIN
  6
PHANTOM
 62
     2
 48
5.0
100
AcDbLine
 10
150.6049877875207
 20
197.5276297269887
 30
0.0
 11
150.6059293650509
 21
232.5276297154663
 31
0.0
  0
LINE
  5
10E7
330
1A
100
AcDbEntity
  8
SEIHIN
  6
PHANTOM
 62
     2
 48
5.0
100
AcDbLine
 10
140.1049877885232
 20
197.5278273425158
 30
0.0
 11
140.1059293687926
 21
232.5279273309933
 31
0.0
  0
LINE
  5
10E8
330
1A
100
AcDbEntity
  8
SEIHIN
  6
CONTINUOUS
 62
     3
 48
16.0
100
AcDbLine
 10
163.6051861675712
 20
187.5292625345323
 30
0.0
 11
163.6051861675712
 21
185.5292625345323
 31
0.0
  0
LINE
  5
10E9
330
1A
100
AcDbEntity
  8
SEIHIN
  6
CONTINUOUS
 62
     3
 48
16.0
100
AcDbLine
 10
156.6051725216343
 20
187.5292625345323
 30
0.0
 11
156.6051725216343
 21
185.5292625345323
 31
0.0
  0
LINE
  5
10EA
330
1A
100
AcDbEntity
  8
SEIHIN
  6
CONTINUOUS
 62
     3
 48
16.0
100
AcDbLine
 10
161.6052012577239
 20
177.5295152737043
 30
0.0
 11
161.6051503268495
 21
204.5295152731024
 31
0.0
  0
LINE
  5
10EB
330
1A
100
AcDbEntity
  8
SEIHIN
  6
CONTINUOUS
 62
     3
 48
16.0
100
AcDbLine
 10
151.6051725216343
 20
209.5292625345322
 30
0.0
 11
151.6051725216343
 21
165.5292625345322
 31
0.0
  0
LINE
  5
10EC
330
1A
100
AcDbEntity
  8
SEIHIN
  6
CONTINUOUS
 62
     3
 48
16.0
100
AcDbLine
 10
167.6051725216343
 20
222.5294987110834
 30
0.0
 11
167.6051725216343
 21
150.5295861597995
 31
0.0
  0
LINE
  5
10ED
330
1A
100
AcDbEntity
  8
SEIHIN
  6
CONTINUOUS
 62
     3
 48
16.0
100
AcDbLine
 10
152.8424060850702
 20
163.5293386242062
 30
0.0
 11
152.8425421437428
 21
149.5293386244102
 31
0.0
  0
LINE
  5
10EE
330
1A
100
AcDbEntity
  8
SEIHIN
  6
CONTINUOUS
 62
     3
 48
16.0
100
AcDbLine
 10
161.6052557626949
 20
145.5295152743481
 30
0.0
 11
161.6052146605856
 21
168.5295152738625
 31
0.0
  0
LINE
  5
10EF
330
1A
100
AcDbEntity
  8
SEIHIN
  6
CONTINUOUS
 62
     3
 48
16.0
100
AcDbLine
 10
159.6051896633847
 20
145.5294916447555
 30
0.0
 11
161.6052557626949
 21
145.5295152743481
 31
0.0
  0
LINE
  5
10F0
330
1A
100
AcDbEntity
  8
SEIHIN
100
AcDbLine
 10
167.6051725216343
 20
150.5295861597995
 30
0.0
 11
165.6051896627772
 21
145.5295625311904
 31
0.0
  0
LINE
  5
10F1
330
1A
100
AcDbEntity
  8
SEIHIN
  6
CONTINUOUS
 62
     3
 48
16.0
100
AcDbLine
 10
157.6052057254289
 20
175.0294680161338
 30
0.0
 11
157.6052012578084
 21
177.529468016081
 31
0.0
  0
CIRCLE
  5
10F2
330
1A
100
AcDbEntity
  8
SEIHIN
100
AcDbCircle
 10
159.6052307440619
 20
173.029491645241
 30
0.0
 40
1.545424124259739
  0
LINE
  5
10F3
330
1A
100
AcDbEntity
  8
SEIHIN
  6
CONTINUOUS
 62
     3
 48
16.0
100
AcDbLine
 10
157.6052057254289
 20
175.0294680161338
 30
0.0
 11
161.6052968648041
 21
175.0295152748336
 31
0.0
  0
LINE
  5
10F4
330
1A
100
AcDbEntity
  8
SEIHIN
  6
CONTINUOUS
 62
     3
 48
16.0
100
AcDbLine
 10
157.6052101930495
 20
171.0294680161865
 30
0.0
 11
161.6052557626949
 21
171.0295152743481
 31
0.0
  0
LINE
  5
10F5
330
1A
100
AcDbEntity
  8
SEIHIN
  6
CONTINUOUS
 62
     3
 48
16.0
100
AcDbLine
 10
157.60521466067
 20
168.5294680162393
 30
0.0
 11
161.6052557626949
 21
168.5295152743481
 31
0.0
  0
LINE
  5
10F6
330
1A
100
AcDbEntity
  8
SEIHIN
  6
CONTINUOUS
 62
     3
 48
16.0
100
AcDbLine
 10
157.60521466067
 20
168.5294680162393
 30
0.0
 11
157.6052101930495
 21
171.0294680161865
 31
0.0
  0
LINE
  5
10F7
330
1A
100
AcDbEntity
  8
SEIHIN
100
AcDbLine
 10
158.1402037751431
 20
163.5292625345322
 30
0.0
 11
153.6051725216343
 21
163.5292625345322
 31
0.0
  0
LINE
  5
10F8
330
1A
100
AcDbEntity
  8
SEIHIN
100
AcDbLine
 10
151.6051725216343
 20
165.5292625345322
 30
0.0
 11
153.6051725216343
 21
163.5292625345322
 31
0.0
  0
LINE
  5
10F9
330
1A
100
AcDbEntity
  8
SEIHIN
  6
CONTINUOUS
 62
     3
 48
16.0
100
AcDbLine
 10
161.605210192965
 20
171.0295152738098
 30
0.0
 11
161.6052057253444
 21
175.029515273757
 31
0.0
  0
LINE
  5
10FA
330
1A
100
AcDbEntity
  8
SEIHIN
100
AcDbLine
 10
156.6051725216343
 20
185.5292625345324
 30
0.0
 11
161.6051861675712
 21
185.5292625345323
 31
0.0
  0
LINE
  5
10FB
330
1A
100
AcDbEntity
  8
SEIHIN
  6
CONTINUOUS
 62
     3
 48
16.0
100
AcDbLine
 10
157.6052012578084
 20
177.529468016081
 30
0.0
 11
161.6053835366431
 21
177.5295152758577
 31
0.0
  0
LINE
  5
10FC
330
1A
100
AcDbEntity
  8
SEIHIN
100
AcDbLine
 10
161.6051861675712
 20
185.5292625345324
 30
0.0
 11
163.6051861675712
 21
185.5292625345323
 31
0.0
  0
LINE
  5
10FD
330
1A
100
AcDbEntity
  8
SEIHIN
  6
PHANTOM
 62
     2
 48
5.0
100
AcDbLine
 10
158.1920159894841
 20
207.5272499311417
 30
0.0
 11
158.1927293637073
 21
232.5274869278966
 31
0.0
  0
LINE
  5
10FE
330
1A
100
AcDbEntity
  8
SEIHIN
  6
PHANTOM
 62
     2
 48
5.0
100
AcDbLine
 10
154.4827159901411
 20
207.5273197421204
 30
0.0
 11
154.4834293643642
 21
232.5275567388751
 31
0.0
  0
LINE
  5
10FF
330
1A
100
AcDbEntity
  8
SEIHIN
  6
PHANTOM
 62
     2
 48
5.0
100
AcDbLine
 10
165.6056923555008
 20
227.5255959500789
 30
0.0
 11
165.6046515698643
 21
189.5295625286644
 31
0.0
  0
LINE
  5
1100
330
1A
100
AcDbEntity
  8
SEIHIN
  6
CONTINUOUS
 62
     3
 48
16.0
100
AcDbLine
 10
163.604732917088
 20
220.5271795703753
 30
0.0
 11
163.6042947104349
 21
204.5295388918055
 31
0.0
  0
LINE
  5
1101
330
1A
100
AcDbEntity
  8
SEIHIN
 48
16.0
100
AcDbLine
 10
153.6051725216343
 20
211.5292625345322
 30
0.0
 11
151.6051725216343
 21
209.5292625345322
 31
0.0
  0
LINE
  5
1102
330
1A
100
AcDbEntity
  8
SEIHIN
  6
CONTINUOUS
 62
     3
 48
16.0
100
AcDbLine
 10
166.1054486420197
 20
204.529568441453
 30
0.0
 11
166.1052514997754
 21
227.5294969445675
 31
0.0
  0
LINE
  5
1103
330
1A
100
AcDbEntity
  8
SEIHIN
100
AcDbLine
 10
156.6051725216343
 20
187.5292625345323
 30
0.0
 11
161.6051823949138
 21
187.5292625345324
 31
0.0
  0
LINE
  5
1104
330
1A
100
AcDbEntity
  8
SEIHIN
100
AcDbLine
 10
161.6051861675712
 20
187.5292625345323
 30
0.0
 11
163.6051861675712
 21
187.5292625345323
 31
0.0
  0
LINE
  5
1105
330
1A
100
AcDbEntity
  8
SEIHIN
100
AcDbLine
 10
156.6051366809125
 20
204.5295152731024
 30
0.0
 11
161.605146554192
 21
204.5295152731024
 31
0.0
  0
LINE
  5
1106
330
1A
100
AcDbEntity
  8
SEIHIN
100
AcDbLine
 10
156.6051366809125
 20
202.5295152731024
 30
0.0
 11
161.6051503268495
 21
202.5295152731024
 31
0.0
  0
LINE
  5
1107
330
1A
100
AcDbEntity
  8
SEIHIN
  6
CONTINUOUS
 62
     3
 48
16.0
100
AcDbLine
 10
156.6051366809125
 20
204.5295152731024
 30
0.0
 11
156.6051366809125
 21
202.5295152731024
 31
0.0
  0
LINE
  5
1108
330
1A
100
AcDbEntity
  8
SEIHIN
  6
CONTINUOUS
 62
     3
 48
16.0
100
AcDbLine
 10
163.6051503268495
 20
204.5295152731024
 30
0.0
 11
163.6051503268495
 21
202.5295152731024
 31
0.0
  0
LINE
  5
1109
330
1A
100
AcDbEntity
  8
SEIHIN
100
AcDbLine
 10
161.6051503268495
 20
202.5295152731024
 30
0.0
 11
163.6051503268495
 21
202.5295152731024
 31
0.0
  0
LINE
  5
110A
330
1A
100
AcDbEntity
  8
SEIHIN
  6
CONTINUOUS
 62
     3
 48
16.0
100
AcDbLine
 10
161.6051503268495
 20
204.5295152731024
 30
0.0
 11
166.1054486420197
 21
204.5295684414529
 31
0.0
  0
LINE
  5
110B
330
1A
100
AcDbEntity
  8
SEIHIN
100
AcDbLine
 10
161.6051503268495
 20
204.5295152731024
 30
0.0
 11
163.6051503268495
 21
204.5295152731024
 31
0.0
  0
LINE
  5
110C
330
1A
100
AcDbEntity
  8
SEIHIN
  6
CONTINUOUS
 62
     3
 48
16.0
100
AcDbLine
 10
159.6047877003823
 20
222.5272312219907
 30
0.0
 11
159.6047877003823
 21
220.5272312219907
 31
0.0
  0
LINE
  5
110D
330
1A
100
AcDbEntity
  8
SEIHIN
  6
CONTINUOUS
 62
     3
 48
16.0
100
AcDbLine
 10
156.1395081145681
 20
211.5292625345322
 30
0.0
 11
156.1398591310654
 21
222.5272885390505
 31
0.0
  0
LINE
  5
110E
330
1A
100
AcDbEntity
  8
SEIHIN
100
AcDbLine
 10
156.6051366809125
 20
211.5295152731024
 30
0.0
 11
163.6044864534727
 21
211.5295152731024
 31
0.0
  0
LINE
  5
110F
330
1A
100
AcDbEntity
  8
SEIHIN
100
AcDbLine
 10
156.6051366809125
 20
213.5295152731024
 30
0.0
 11
163.6045412373827
 21
213.5295152731024
 31
0.0
  0
LINE
  5
1110
330
1A
100
AcDbEntity
  8
SEIHIN
  6
CONTINUOUS
 62
     3
 48
16.0
100
AcDbLine
 10
159.6047877023239
 20
220.5273021084257
 30
0.0
 11
163.604732917088
 21
220.5271795703753
 31
0.0
  0
LINE
  5
1111
330
1A
100
AcDbEntity
  8
SEIHIN
100
AcDbLine
 10
156.1395081145681
 20
211.5292625345322
 30
0.0
 11
153.6051725216343
 21
211.5292625345322
 31
0.0
  0
LINE
  5
1112
330
1A
100
AcDbEntity
  8
SEIHIN
  6
CONTINUOUS
 62
     3
 48
16.0
100
AcDbLine
 10
156.6051366809125
 20
213.5295152731024
 30
0.0
 11
156.6051366809125
 21
211.5295152731024
 31
0.0
  0
LINE
  5
1113
330
1A
100
AcDbEntity
  8
SEIHIN
  6
CONTINUOUS
 62
     3
 48
16.0
100
AcDbLine
 10
159.6047877003823
 20
222.5272312219907
 30
0.0
 11
154.4828591332409
 21
222.5274197246627
 31
0.0
  0
LINE
  5
1114
330
1A
100
AcDbEntity
  8
SEIHIN
100
AcDbLine
 10
166.6050103267461
 20
227.5294978276473
 30
0.0
 11
167.6051725216343
 21
222.5294987110834
 31
0.0
  0
LINE
  5
1115
330
1A
100
AcDbEntity
  8
SEIHIN
  6
PHANTOM
 62
     2
 48
5.0
100
AcDbLine
 10
164.605276388937
 20
232.5281774308962
 30
0.0
 11
165.605218424927
 21
227.5279658405952
 31
0.0
  0
LINE
  5
1116
330
1A
100
AcDbEntity
  8
SEIHIN
  6
CONTINUOUS
 62
     3
 48
16.0
100
AcDbLine
 10
165.6049247242378
 20
227.5294964917212
 30
0.0
 11
166.6050104129096
 21
227.5294973968997
 31
0.0
  0
LINE
  5
1117
330
1A
100
AcDbEntity
  8
SEIHIN
  6
PHANTOM
 62
     2
 48
5.0
100
AcDbLine
 10
158.1920159894842
 20
236.0088594775064
 30
0.0
 11
158.1927293637073
 21
263.0090964742613
 31
0.0
  0
LINE
  5
1118
330
1A
100
AcDbEntity
  8
SEIHIN
  6
PHANTOM
 62
     2
 48
5.0
100
AcDbLine
 10
154.4827159901411
 20
236.008929288485
 30
0.0
 11
154.4834293643642
 21
263.0091662852398
 31
0.0
  0
LINE
  5
1119
330
1A
100
AcDbEntity
  8
SEIHIN
100
AcDbLine
 10
164.6049195301548
 20
247.5281774228489
 30
0.0
 11
165.604861566145
 21
242.5279658325479
 31
0.0
  0
LINE
  5
111A
330
1A
100
AcDbEntity
  8
SEIHIN
  6
PHANTOM
 62
     2
 48
5.0
100
AcDbLine
 10
164.605276388937
 20
263.0097869772608
 30
0.0
 11
165.6052184249272
 21
258.0095753869599
 31
0.0
  0
DIMENSION
  5
111B
330
1A
100
AcDbEntity
  8
SUNPOU
100
AcDbDimension
  2
*D6
 10
375.5631563987051
 20
99.12447198063246
 30
0.0
 11
360.5631563987051
 21
101.6244719806324
 31
0.0
 70
    32
  3
STANDARD
100
AcDbAlignedDimension
 13
345.5631563987051
 23
86.89541833739315
 33
0.0
 14
375.5631563987051
 24
86.89541833739303
 34
0.0
100
AcDbRotatedDimension
1001
ACAD
1000
DSTYLE
1002
{
1070
    41
1040
3.0
1070
    42
1040
3.0
1070
    43
1040
7.0
1070
    44
1040
1.5
1070
    73
1070
     0
1070
    74
1070
     0
1070
    77
1070
     3
1070
   140
1040
3.0
1070
   141
1040
150.0
1070
   147
1040
1.0
1070
   172
1070
     1
1070
   173
1070
     1
1070
   176
1070
   256
1070
   177
1070
   256
1070
   178
1070
   256
1070
   271
1070
     0
1070
   272
1070
     0
1070
   341
1005
B2
1070
     6
1000
OPEN
1070
     7
1000
OPEN
1070
   371
1070
    -1
1070
   372
1070
    -1
1002
}
  0
DIMENSION
  5
111C
330
1A
100
AcDbEntity
  8
SUNPOU
100
AcDbDimension
  2
*D7
 10
360.5639025593966
 20
110.3376428172532
 30
0.0
 11
293.0640762795308
 21
112.8376428172532
 31
0.0
 70
    32
  3
STANDARD
100
AcDbAlignedDimension
 13
225.5642499996649
 23
85.89581833739316
 33
0.0
 14
360.5639025593966
 24
86.89541833739315
 34
0.0
100
AcDbRotatedDimension
1001
ACAD
1000
DSTYLE
1002
{
1070
    41
1040
3.0
1070
    42
1040
3.0
1070
    43
1040
7.0
1070
    44
1040
1.5
1070
    73
1070
     0
1070
    74
1070
     0
1070
    77
1070
     3
1070
   140
1040
3.0
1070
   141
1040
150.0
1070
   147
1040
1.0
1070
   172
1070
     1
1070
   173
1070
     1
1070
   176
1070
   256
1070
   177
1070
   256
1070
   178
1070
   256
1070
   271
1070
     0
1070
   272
1070
     0
1070
   341
1005
B2
1070
     6
1000
OPEN
1070
     7
1000
OPEN
1070
   371
1070
    -1
1070
   372
1070
    -1
1002
}
  0
LINE
  5
111D
330
1A
100
AcDbEntity
  8
SEIHIN
  6
CONTINUOUS
 62
     3
 48
16.0
100
AcDbLine
 10
356.5639025593966
 20
32.49571833739315
 30
0.0
 11
340.5651275391048
 21
32.49571833739315
 31
0.0
  0
LINE
  5
111E
330
1A
100
AcDbEntity
  8
SEIHIN
  6
CONTINUOUS
 62
     3
 48
16.0
100
AcDbLine
 10
340.5651275391047
 20
85.89581833739316
 30
0.0
 11
360.5639025593966
 21
85.89581833739316
 31
0.0
  0
LINE
  5
111F
330
1A
100
AcDbEntity
  8
SEIHIN
  6
CONTINUOUS
 62
     3
 48
16.0
100
AcDbLine
 10
360.5639025593966
 20
71.44571833739314
 30
0.0
 11
340.5651275391047
 21
71.44571833739309
 31
0.0
  0
LINE
  5
1120
330
1A
100
AcDbEntity
  8
SEIHIN
  6
CONTINUOUS
 62
     3
 48
16.0
100
AcDbLine
 10
356.5639025593966
 20
43.95711833739312
 30
0.0
 11
340.5651275391048
 21
43.95711833739312
 31
0.0
  0
LINE
  5
1121
330
1A
100
AcDbEntity
  8
SEIHIN
  6
CONTINUOUS
 62
     3
 48
16.0
100
AcDbLine
 10
360.5639025593966
 20
86.89541833739315
 30
0.0
 11
335.5630307712907
 21
86.89541833739315
 31
0.0
  0
LINE
  5
1122
330
1A
100
AcDbEntity
  8
SEIHIN
  6
PHANTOM
 62
     2
 48
5.0
100
AcDbLine
 10
341.5631563987051
 20
32.49571833739304
 30
0.0
 11
341.5630563987049
 21
85.89591833739291
 31
0.0
  0
LINE
  5
1123
330
1A
100
AcDbEntity
  8
SEIHIN
  6
PHANTOM
 62
     2
 48
5.0
100
AcDbLine
 10
345.5631563987051
 20
86.89541833739303
 30
0.0
 11
345.5631563987051
 21
33.49571833739299
 31
0.0
  0
LINE
  5
1124
330
1A
100
AcDbEntity
  8
SEIHIN
100
AcDbLine
 10
335.5651288532885
 20
85.89581833739316
 30
0.0
 11
335.5651288532885
 21
30.4957183373931
 31
0.0
  0
LINE
  5
1125
330
1A
100
AcDbEntity
  8
SEIHIN
100
AcDbLine
 10
340.5651275391047
 20
85.89581833739305
 30
0.0
 11
340.5651275391047
 21
32.49570836032313
 31
0.0
  0
LINE
  5
1126
330
1A
100
AcDbEntity
  8
SEIHIN
100
AcDbLine
 10
258.5651926733955
 20
85.89581833739316
 30
0.0
 11
258.5651926733954
 21
32.49571833739315
 31
0.0
  0
LINE
  5
1127
330
1A
100
AcDbEntity
  8
SEIHIN
100
AcDbLine
 10
263.5652163020047
 20
85.89581833739316
 30
0.0
 11
263.5652163020047
 21
30.4957183373931
 31
0.0
  0
LINE
  5
1128
330
1A
100
AcDbEntity
  8
SEIHIN
  6
CONTINUOUS
 62
     3
 48
16.0
100
AcDbLine
 10
225.5642499996649
 20
86.89541833739315
 30
0.0
 11
225.5642499996649
 21
33.4957183373931
 31
0.0
  0
LINE
  5
1129
330
1A
100
AcDbEntity
  8
SEIHIN
  6
CONTINUOUS
 62
     3
 48
16.0
100
AcDbLine
 10
229.5642499996649
 20
32.49571833739315
 30
0.0
 11
229.5643499996651
 21
85.89591833739303
 31
0.0
  0
LINE
  5
112A
330
1A
100
AcDbEntity
  8
SEIHIN
  6
CONTINUOUS
 62
     3
 48
16.0
100
AcDbLine
 10
263.5652163020047
 20
41.95711833739312
 30
0.0
 11
335.5651288532885
 21
41.95711833739312
 31
0.0
  0
LINE
  5
112B
330
1A
100
AcDbEntity
  8
SEIHIN
  6
CONTINUOUS
 62
     3
 48
16.0
100
AcDbLine
 10
263.5652163020047
 20
30.4957183373931
 30
0.0
 11
335.5651288532885
 21
30.49571833739321
 31
0.0
  0
LINE
  5
112C
330
1A
100
AcDbEntity
  8
SEIHIN
  6
CONTINUOUS
 62
     3
 48
16.0
100
AcDbLine
 10
229.5642499996649
 20
43.95711833739312
 30
0.0
 11
258.5651926733955
 21
43.95711833739307
 31
0.0
  0
LINE
  5
112D
330
1A
100
AcDbEntity
  8
SEIHIN
  6
CONTINUOUS
 62
     3
 48
16.0
100
AcDbLine
 10
229.5642499996649
 20
32.49571833739315
 30
0.0
 11
258.5651926733955
 21
32.49571833739315
 31
0.0
  0
LINE
  5
112E
330
1A
100
AcDbEntity
  8
SEIHIN
  6
CONTINUOUS
 62
     3
 48
16.0
100
AcDbLine
 10
229.5642499996649
 20
32.49571833739315
 30
0.0
 11
225.5643499996651
 21
33.4957183373931
 31
0.0
  0
LINE
  5
112F
330
1A
100
AcDbEntity
  8
SEIHIN
  6
CONTINUOUS
 62
     3
 48
16.0
100
AcDbLine
 10
229.5642499996649
 20
43.95711833739312
 30
0.0
 11
225.5643499996651
 21
44.95711833739313
 31
0.0
  0
LINE
  5
1130
330
1A
100
AcDbEntity
  8
SEIHIN
100
AcDbLine
 10
258.5651926733956
 20
32.4957183373931
 30
0.0
 11
263.5652163020047
 21
30.4957183373931
 31
0.0
  0
LINE
  5
1131
330
1A
100
AcDbEntity
  8
SEIHIN
100
AcDbLine
 10
258.5651926733956
 20
43.95711833739312
 30
0.0
 11
263.5652163020047
 21
41.95711833739312
 31
0.0
  0
LINE
  5
1132
330
1A
100
AcDbEntity
  8
SEIHIN
100
AcDbLine
 10
340.5651524818976
 20
32.49571833739321
 30
0.0
 11
335.5651288532885
 21
30.49571833739321
 31
0.0
  0
LINE
  5
1133
330
1A
100
AcDbEntity
  8
SEIHIN
  6
PHANTOM
 62
     2
 48
5.0
100
AcDbLine
 10
341.5631563987051
 20
32.49571833739304
 30
0.0
 11
345.5630563987049
 21
33.49571833739299
 31
0.0
  0
LINE
  5
1134
330
1A
100
AcDbEntity
  8
SEIHIN
100
AcDbLine
 10
340.5651524818976
 20
43.95711833739324
 30
0.0
 11
335.5651288532885
 21
41.95711833739323
 31
0.0
  0
LINE
  5
1135
330
1A
100
AcDbEntity
  8
SEIHIN
  6
PHANTOM
 62
     2
 48
5.0
100
AcDbLine
 10
341.5631563987051
 20
43.95711833739301
 30
0.0
 11
345.5630563987049
 21
44.95711833739301
 31
0.0
  0
LINE
  5
1136
330
1A
100
AcDbEntity
  8
SEIHIN
  6
CONTINUOUS
 62
     3
 48
16.0
100
AcDbLine
 10
263.5652163020046
 20
69.44571833739309
 30
0.0
 11
335.5651288532885
 21
69.4457183373932
 31
0.0
  0
LINE
  5
1137
330
1A
100
AcDbEntity
  8
SEIHIN
  6
CONTINUOUS
 62
     3
 48
16.0
100
AcDbLine
 10
340.5651275391048
 20
85.89581833739316
 30
0.0
 11
225.5642499996649
 21
85.89581833739316
 31
0.0
  0
LINE
  5
1138
330
1A
100
AcDbEntity
  8
SEIHIN
  6
CONTINUOUS
 62
     3
 48
16.0
100
AcDbLine
 10
225.5642499996649
 20
86.89541833739315
 30
0.0
 11
250.5651217877709
 21
86.89541833739315
 31
0.0
  0
LINE
  5
1139
330
1A
100
AcDbEntity
  8
SEIHIN
  6
CONTINUOUS
 62
     3
 48
16.0
100
AcDbLine
 10
225.5642499996649
 20
71.44571833739314
 30
0.0
 11
258.5651926733955
 21
71.44571833739309
 31
0.0
  0
LINE
  5
113A
330
1A
100
AcDbEntity
  8
SEIHIN
100
AcDbLine
 10
258.5651926733955
 20
71.44571833739309
 30
0.0
 11
263.5652163020046
 21
69.44571833739309
 31
0.0
  0
LINE
  5
113B
330
1A
100
AcDbEntity
  8
SEIHIN
  6
CONTINUOUS
 62
     3
 48
16.0
100
AcDbLine
 10
250.5651217877709
 20
86.89531833739318
 30
0.0
 11
250.5651217877709
 21
85.89581833739316
 31
0.0
  0
LINE
  5
113C
330
1A
100
AcDbEntity
  8
SEIHIN
100
AcDbLine
 10
340.5651524818977
 20
71.4457183373932
 30
0.0
 11
335.5651288532886
 21
69.4457183373932
 31
0.0
  0
LINE
  5
113D
330
1A
100
AcDbEntity
  8
SEIHIN
  6
CONTINUOUS
 62
     3
 48
16.0
100
AcDbLine
 10
335.5630307712907
 20
86.89531833739318
 30
0.0
 11
335.5630307712907
 21
85.89581833739316
 31
0.0
  0
LINE
  5
113E
330
1A
100
AcDbEntity
  8
SEIHIN
  6
PHANTOM
 62
     2
 48
5.0
100
AcDbLine
 10
371.5631563987051
 20
32.49571833739304
 30
0.0
 11
371.5630563987049
 21
85.89591833739291
 31
0.0
  0
LINE
  5
113F
330
1A
100
AcDbEntity
  8
SEIHIN
  6
PHANTOM
 62
     2
 48
5.0
100
AcDbLine
 10
375.5631563987051
 20
86.89541833739303
 30
0.0
 11
375.5631563987051
 21
33.49571833739299
 31
0.0
  0
LINE
  5
1140
330
1A
100
AcDbEntity
  8
SEIHIN
  6
CONTINUOUS
 62
     3
 48
16.0
100
AcDbLine
 10
360.5639025593966
 20
86.89541833739315
 30
0.0
 11
360.5639025593966
 21
33.4957183373931
 31
0.0
  0
LINE
  5
1141
330
1A
100
AcDbEntity
  8
SEIHIN
  6
CONTINUOUS
 62
     3
 48
16.0
100
AcDbLine
 10
356.5639025593966
 20
32.49571833739315
 30
0.0
 11
356.5638025593965
 21
85.89591833739303
 31
0.0
  0
LINE
  5
1142
330
1A
100
AcDbEntity
  8
SEIHIN
  6
PHANTOM
 62
     2
 48
5.0
100
AcDbLine
 10
371.5631563987051
 20
32.49571833739304
 30
0.0
 11
355.5643813784133
 21
32.49571833739304
 31
0.0
  0
LINE
  5
1143
330
1A
100
AcDbEntity
  8
SEIHIN
  6
PHANTOM
 62
     2
 48
5.0
100
AcDbLine
 10
371.5631563987051
 20
43.95711833739301
 30
0.0
 11
355.5643813784133
 21
43.95711833739301
 31
0.0
  0
LINE
  5
1144
330
1A
100
AcDbEntity
  8
SEIHIN
  6
CONTINUOUS
 62
     3
 48
16.0
100
AcDbLine
 10
356.5639025593966
 20
32.49571833739315
 30
0.0
 11
360.5638025593965
 21
33.4957183373931
 31
0.0
  0
LINE
  5
1145
330
1A
100
AcDbEntity
  8
SEIHIN
  6
CONTINUOUS
 62
     3
 48
16.0
100
AcDbLine
 10
356.5639025593966
 20
43.95711833739312
 30
0.0
 11
360.5638025593965
 21
44.95711833739313
 31
0.0
  0
LINE
  5
1146
330
1A
100
AcDbEntity
  8
SEIHIN
  6
PHANTOM
 62
     2
 48
5.0
100
AcDbLine
 10
371.5631563987051
 20
32.49571833739304
 30
0.0
 11
375.5630563987049
 21
33.49571833739299
 31
0.0
  0
LINE
  5
1147
330
1A
100
AcDbEntity
  8
SEIHIN
  6
PHANTOM
 62
     2
 48
5.0
100
AcDbLine
 10
371.5631563987051
 20
43.95711833739301
 30
0.0
 11
375.5630563987049
 21
44.95711833739301
 31
0.0
  0
LINE
  5
1148
330
1A
100
AcDbEntity
  8
SEIHIN
  6
PHANTOM
 62
     2
 48
5.0
100
AcDbLine
 10
375.5631563987051
 20
86.89541833739303
 30
0.0
 11
350.5622846105991
 21
86.89541833739303
 31
0.0
  0
LINE
  5
1149
330
1A
100
AcDbEntity
  8
SEIHIN
  6
PHANTOM
 62
     2
 48
5.0
100
AcDbLine
 10
375.5631563987051
 20
71.44571833739303
 30
0.0
 11
355.5643813784132
 21
71.44571833739298
 31
0.0
  0
LINE
  5
114A
330
1A
100
AcDbEntity
  8
SEIHIN
  6
PHANTOM
 62
     2
 48
5.0
100
AcDbLine
 10
355.5643813784132
 20
85.89581833739305
 30
0.0
 11
375.5631563987051
 21
85.89581833739305
 31
0.0
  0
VIEWPORT
  5
22
330
17
100
AcDbEntity
 67
     1
  8
0
100
AcDbViewport
 10
313.6808219178082
 20
148.5
 30
0.0
 40
627.3616438356165
 41
297.0
 68
     2
 69
     1
1001
ACAD
1000
MVIEW
1002
{
1070
    16
1010
0.0
1020
0.0
1030
0.0
1010
0.0
1020
0.0
1030
1.0
1040
0.0
1040
297.0
1040
313.6808219178082
1040
148.5
1040
50.0
1040
0.0
1040
0.0
1070
     0
1070
   100
1070
     1
1070
     0
1070
     0
1070
     0
1070
     0
1070
     0
1040
0.0
1040
0.0
1040
0.0
1040
1.0
1040
1.0
1040
10.0
1040
10.0
1070
     0
1002
{
1002
}
1002
}
  0
VIEWPORT
  5
64
330
17
100
AcDbEntity
 67
     1
  8
VIEWPORT
100
AcDbViewport
 10
210.0
 20
148.5
 30
0.0
 40
420.0
 41
297.0
 68
     1
 69
     2
1001
ACAD
1000
MVIEW
1002
{
1070
    16
1010
0.0
1020
0.0
1030
0.0
1010
0.0
1020
0.0
1030
1.0
1040
0.0
1040
302.9399999999998
1040
210.0
1040
148.5
1040
50.0
1040
0.0
1040
0.0
1070
     0
1070
   100
1070
     1
1070
     0
1070
     0
1070
     0
1070
     0
1070
     0
1040
0.0
1040
0.0
1040
0.0
1040
5.0
1040
5.0
1040
0.0
1040
0.0
1070
     0
1002
{
1002
}
1002
}
  0
ENDSEC
  0
SECTION
  2
OBJECTS
  0
DICTIONARY
  5
C
330
0
100
AcDbDictionary
  3
ACAD_GROUP
350
D
  3
ACAD_LAYOUT
350
4B1
  3
ACAD_MLINESTYLE
350
E
  3
ACAD_PLOTSETTINGS
350
4B2
  3
ACAD_PLOTSTYLENAME
350
4AF
  3
ACDBHEADERROUNDTRIPXREC
350
11E5
  0
DICTIONARY
  5
520
330
1A
100
AcDbDictionary
280
     1
  3
ACAD_LAYOUTSELFREF
360
1207
  0
DICTIONARY
  5
51E
330
17
100
AcDbDictionary
280
     1
  3
ACAD_LAYOUTSELFREF
360
1206
  0
DICTIONARY
  5
D
102
{ACAD_REACTORS
330
C
102
}
330
C
100
AcDbDictionary
  0
DICTIONARY
  5
4B1
102
{ACAD_REACTORS
330
C
102
}
330
C
100
AcDbDictionary
  0
DICTIONARY
  5
E
102
{ACAD_REACTORS
330
C
102
}
330
C
100
AcDbDictionary
  3
STANDARD
350
13
  0
DICTIONARY
  5
4B2
102
{ACAD_REACTORS
330
C
102
}
330
C
100
AcDbDictionary
  0
ACDBDICTIONARYWDFLT
  5
4AF
102
{ACAD_REACTORS
330
C
102
}
330
C
100
AcDbDictionary
281
     1
  3
Normal
350
4B0
100
AcDbDictionaryWithDefault
340
4B0
1001
ACAD
1000
TREAT_AS_HARD
1070
     0
1000
TREAT_AS_HARD
1070
     0
1000
TREAT_AS_HARD
1070
     0
  0
DICTIONARY
  5
11E5
102
{ACAD_REACTORS
330
C
102
}
330
C
100
AcDbDictionary
  3
TSTACKALIGN
350
11E6
  3
TSTACKSIZE
350
11E7
  3
HYPERLINKBASE
350
11E8
  3
STYLESHEET
350
11E9
  3
LAYOUTDICT
350
11EA
  3
PLOTSETDICT
350
11EB
  3
PLOTSTYLNAMDICT
350
11EC
  3
LWETCUNION
350
11ED
  3
INSUNITS
350
11EE
  3
CEPSNTYPE
350
11EF
  3
FINGERPRINTGUID
350
11F0
  3
VERSIONGUID
350
11F1
  3
PSVPSCALE
350
11F2
  3
DIMSTYLEDATA
350
11F3
  3
PUCSORTHOREF
350
11F4
  3
PUCSORTHOVIEW
350
11F5
  3
PUCSBASE
350
11F6
  3
PUCSORGTOP
350
11F7
  3
PUCSORGBOTTOM
350
11F8
  3
PUCSORGLEFT
350
11F9
  3
PUCSORGRIGHT
350
11FA
  3
PUCSORGFRONT
350
11FB
  3
PUCSORGBACK
350
11FC
  3
UCSORTHOREF
350
11FD
  3
UCSORTHOVIEW
350
11FE
  3
UCSBASE
350
11FF
  3
UCSORGTOP
350
1200
  3
UCSORGBOTTOM
350
1201
  3
UCSORGLEFT
350
1202
  3
UCSORGRIGHT
350
1203
  3
UCSORGFRONT
350
1204
  3
UCSORGBACK
350
1205
  0
XRECORD
  5
1207
102
{ACAD_REACTORS
330
520
102
}
330
520
100
AcDbXrecord
340
1A
  0
XRECORD
  5
1206
102
{ACAD_REACTORS
330
51E
102
}
330
51E
100
AcDbXrecord
340
17
  0
MLINESTYLE
  5
13
102
{ACAD_REACTORS
330
E
102
}
330
E
100
AcDbMlineStyle
  2
STANDARD
 70
     0
  3

 62
     0
 51
90.0
 52
90.0
 71
     2
 49
0.5
 62
   256
  6
BYLAYER
 49
-0.5
 62
   256
  6
BYLAYER
  0
ACDBPLACEHOLDER
  5
4B0
102
{ACAD_REACTORS
330
4AF
102
}
330
4AF
100
AcDbPlaceHolder
280
     0
  0
XRECORD
  5
11E6
102
{ACAD_REACTORS
330
11E5
102
}
330
11E5
100
AcDbXrecord
 90
        1
  0
XRECORD
  5
11E7
102
{ACAD_REACTORS
330
11E5
102
}
330
11E5
100
AcDbXrecord
 90
       70
  0
XRECORD
  5
11E8
102
{ACAD_REACTORS
330
11E5
102
}
330
11E5
100
AcDbXrecord
  1

  0
XRECORD
  5
11E9
102
{ACAD_REACTORS
330
11E5
102
}
330
11E5
100
AcDbXrecord
  1
systemprinter.ctb
  0
XRECORD
  5
11EA
102
{ACAD_REACTORS
330
11E5
102
}
330
11E5
100
AcDbXrecord
340
4B1
  0
XRECORD
  5
11EB
102
{ACAD_REACTORS
330
11E5
102
}
330
11E5
100
AcDbXrecord
340
4B2
  0
XRECORD
  5
11EC
102
{ACAD_REACTORS
330
11E5
102
}
330
11E5
100
AcDbXrecord
340
4AF
  0
XRECORD
  5
11ED
102
{ACAD_REACTORS
330
11E5
102
}
330
11E5
100
AcDbXrecord
 90
    10781
  0
XRECORD
  5
11EE
102
{ACAD_REACTORS
330
11E5
102
}
330
11E5
100
AcDbXrecord
 90
        0
  0
XRECORD
  5
11EF
102
{ACAD_REACTORS
330
11E5
102
}
330
11E5
100
AcDbXrecord
 90
        0
  0
XRECORD
  5
11F0
102
{ACAD_REACTORS
330
11E5
102
}
330
11E5
100
AcDbXrecord
  1
{5A2975E0-A988-11D4-932C-0050DA99388B}
  0
XRECORD
  5
11F1
102
{ACAD_REACTORS
330
11E5
102
}
330
11E5
100
AcDbXrecord
  1
{2BBAA16E-3041-4599-89D8-179EAD40DCB5}
  0
XRECORD
  5
11F2
102
{ACAD_REACTORS
330
11E5
102
}
330
11E5
100
AcDbXrecord
 40
0.0
  0
XRECORD
  5
11F3
102
{ACAD_REACTORS
330
11E5
102
}
330
11E5
100
AcDbXrecord
1000
DSTYLE
1002
{
1070
   341
340
B2
1070
   343
340
B2
1070
   344
340
B2
1070
   371
 70
    -1
1070
   372
 70
    -1
1002
}
  0
XRECORD
  5
11F4
102
{ACAD_REACTORS
330
11E5
102
}
330
11E5
100
AcDbXrecord
340
0
  0
XRECORD
  5
11F5
102
{ACAD_REACTORS
330
11E5
102
}
330
11E5
100
AcDbXrecord
 70
     0
  0
XRECORD
  5
11F6
102
{ACAD_REACTORS
330
11E5
102
}
330
11E5
100
AcDbXrecord
340
0
  0
XRECORD
  5
11F7
102
{ACAD_REACTORS
330
11E5
102
}
330
11E5
100
AcDbXrecord
 10
0.0
 20
0.0
 30
0.0
  0
XRECORD
  5
11F8
102
{ACAD_REACTORS
330
11E5
102
}
330
11E5
100
AcDbXrecord
 10
0.0
 20
0.0
 30
0.0
  0
XRECORD
  5
11F9
102
{ACAD_REACTORS
330
11E5
102
}
330
11E5
100
AcDbXrecord
 10
0.0
 20
0.0
 30
0.0
  0
XRECORD
  5
11FA
102
{ACAD_REACTORS
330
11E5
102
}
330
11E5
100
AcDbXrecord
 10
0.0
 20
0.0
 30
0.0
  0
XRECORD
  5
11FB
102
{ACAD_REACTORS
330
11E5
102
}
330
11E5
100
AcDbXrecord
 10
0.0
 20
0.0
 30
0.0
  0
XRECORD
  5
11FC
102
{ACAD_REACTORS
330
11E5
102
}
330
11E5
100
AcDbXrecord
 10
0.0
 20
0.0
 30
0.0
  0
XRECORD
  5
11FD
102
{ACAD_REACTORS
330
11E5
102
}
330
11E5
100
AcDbXrecord
340
0
  0
XRECORD
  5
11FE
102
{ACAD_REACTORS
330
11E5
102
}
330
11E5
100
AcDbXrecord
 70
     0
  0
XRECORD
  5
11FF
102
{ACAD_REACTORS
330
11E5
102
}
330
11E5
100
AcDbXrecord
340
0
  0
XRECORD
  5
1200
102
{ACAD_REACTORS
330
11E5
102
}
330
11E5
100
AcDbXrecord
 10
0.0
 20
0.0
 30
0.0
  0
XRECORD
  5
1201
102
{ACAD_REACTORS
330
11E5
102
}
330
11E5
100
AcDbXrecord
 10
0.0
 20
0.0
 30
0.0
  0
XRECORD
  5
1202
102
{ACAD_REACTORS
330
11E5
102
}
330
11E5
100
AcDbXrecord
 10
0.0
 20
0.0
 30
0.0
  0
XRECORD
  5
1203
102
{ACAD_REACTORS
330
11E5
102
}
330
11E5
100
AcDbXrecord
 10
0.0
 20
0.0
 30
0.0
  0
XRECORD
  5
1204
102
{ACAD_REACTORS
330
11E5
102
}
330
11E5
100
AcDbXrecord
 10
0.0
 20
0.0
 30
0.0
  0
XRECORD
  5
1205
102
{ACAD_REACTORS
330
11E5
102
}
330
11E5
100
AcDbXrecord
 10
0.0
 20
0.0
 30
0.0
  0
ENDSEC
  0
EOF
