  0
SECTION
  2
HEADER
  9
$ACADVER
  1
AC1014
  9
$ACADMAINTVER
 70
     9
  9
$DWGCODEPAGE
  3
ANSI_932
  9
$INSBASE
 10
0.0
 20
0.0
 30
0.0
  9
$EXTMIN
 10
-0.05126640194635
 20
-0.0362526699479986
 30
-0.0000000000112498
  9
$EXTMAX
 10
797.6628945888771
 20
551.6439420217511
 30
0.0000000000002956
  9
$LIMMIN
 10
0.0
 20
0.0
  9
$LIMMAX
 10
840.0
 20
594.0
  9
$ORTHOMODE
 70
     0
  9
$REGENMODE
 70
     1
  9
$FILLMODE
 70
     1
  9
$QTEXTMODE
 70
     0
  9
$MIRRTEXT
 70
     1
  9
$DRAGMODE
 70
     2
  9
$LTSCALE
 40
2.0
  9
$OSMODE
 70
    35
  9
$ATTMODE
 70
     1
  9
$TEXTSIZE
 40
5.0
  9
$TRACEWID
 40
1.0
  9
$TEXTSTYLE
  7
STANDARD
  9
$CLAYER
  8
ZUWAKU
  9
$CELTYPE
  6
BYLAYER
  9
$CECOLOR
 62
   256
  9
$CELTSCALE
 40
1.0
  9
$DELOBJ
 70
     1
  9
$DISPSILH
 70
     0
  9
$DIMSCALE
 40
1.0
  9
$DIMASZ
 40
7.0
  9
$DIMEXO
 40
6.0
  9
$DIMDLI
 40
14.0
  9
$DIMRND
 40
0.0
  9
$DIMDLE
 40
0.0
  9
$DIMEXE
 40
3.0
  9
$DIMTP
 40
0.0
  9
$DIMTM
 40
0.0
  9
$DIMTXT
 40
6.0
  9
$DIMCEN
 40
150.0
  9
$DIMTSZ
 40
0.0
  9
$DIMTOL
 70
     0
  9
$DIMLIM
 70
     0
  9
$DIMTIH
 70
     0
  9
$DIMTOH
 70
     0
  9
$DIMSE1
 70
     0
  9
$DIMSE2
 70
     0
  9
$DIMTAD
 70
     3
  9
$DIMZIN
 70
     0
  9
$DIMBLK
  1

  9
$DIMASO
 70
     1
  9
$DIMSHO
 70
     1
  9
$DIMPOST
  1

  9
$DIMAPOST
  1

  9
$DIMALT
 70
     0
  9
$DIMALTD
 70
     2
  9
$DIMALTF
 40
25.4
  9
$DIMLFAC
 40
1.0
  9
$DIMTOFL
 70
     1
  9
$DIMTVP
 40
0.0
  9
$DIMTIX
 70
     0
  9
$DIMSOXD
 70
     0
  9
$DIMSAH
 70
     1
  9
$DIMBLK1
  1
OPEN
  9
$DIMBLK2
  1
OPEN
  9
$DIMSTYLE
  2
STANDARD
  9
$DIMCLRD
 70
     4
  9
$DIMCLRE
 70
     4
  9
$DIMCLRT
 70
     4
  9
$DIMTFAC
 40
1.0
  9
$DIMGAP
 40
2.0
  9
$DIMJUST
 70
     0
  9
$DIMSD1
 70
     0
  9
$DIMSD2
 70
     0
  9
$DIMTOLJ
 70
     1
  9
$DIMTZIN
 70
     0
  9
$DIMALTZ
 70
     0
  9
$DIMALTTZ
 70
     0
  9
$DIMFIT
 70
     3
  9
$DIMUPT
 70
     0
  9
$DIMUNIT
 70
     2
  9
$DIMDEC
 70
     0
  9
$DIMTDEC
 70
     2
  9
$DIMALTU
 70
     2
  9
$DIMALTTD
 70
     2
  9
$DIMTXSTY
  7
STANDARD
  9
$DIMAUNIT
 70
     0
  9
$LUNITS
 70
     2
  9
$LUPREC
 70
     4
  9
$SKETCHINC
 40
1.0
  9
$FILLETRAD
 40
20.0
  9
$AUNITS
 70
     0
  9
$AUPREC
 70
     0
  9
$MENU
  1
.
  9
$ELEVATION
 40
0.0
  9
$PELEVATION
 40
0.0
  9
$THICKNESS
 40
0.0
  9
$LIMCHECK
 70
     0
  9
$BLIPMODE
 70
     0
  9
$CHAMFERA
 40
20.0
  9
$CHAMFERB
 40
20.0
  9
$CHAMFERC
 40
40.0
  9
$CHAMFERD
 40
0.0
  9
$SKPOLY
 70
     0
  9
$TDCREATE
 40
2450994.354346065
  9
$TDUPDATE
 40
2453802.424658923
  9
$TDINDWG
 40
0.0082073264
  9
$TDUSRTIMER
 40
0.0082073264
  9
$USRTIMER
 70
     1
  9
$ANGBASE
 50
0.0
  9
$ANGDIR
 70
     0
  9
$PDMODE
 70
     0
  9
$PDSIZE
 40
0.0
  9
$PLINEWID
 40
0.0
  9
$COORDS
 70
     1
  9
$SPLFRAME
 70
     0
  9
$SPLINETYPE
 70
     6
  9
$SPLINESEGS
 70
     8
  9
$ATTDIA
 70
     0
  9
$ATTREQ
 70
     1
  9
$HANDLING
 70
 10241
  9
$HANDSEED
  5
7B3
  9
$SURFTAB1
 70
     6
  9
$SURFTAB2
 70
     6
  9
$SURFTYPE
 70
     6
  9
$SURFU
 70
     6
  9
$SURFV
 70
     6
  9
$UCSNAME
  2

  9
$UCSORG
 10
0.0
 20
0.0
 30
0.0
  9
$UCSXDIR
 10
1.0
 20
0.0
 30
0.0
  9
$UCSYDIR
 10
0.0
 20
1.0
 30
0.0
  9
$PUCSNAME
  2

  9
$PUCSORG
 10
0.0
 20
0.0
 30
0.0
  9
$PUCSXDIR
 10
1.0
 20
0.0
 30
0.0
  9
$PUCSYDIR
 10
0.0
 20
1.0
 30
0.0
  9
$USERI1
 70
     0
  9
$USERI2
 70
     0
  9
$USERI3
 70
     0
  9
$USERI4
 70
     0
  9
$USERI5
 70
     0
  9
$USERR1
 40
0.0
  9
$USERR2
 40
0.0
  9
$USERR3
 40
0.0
  9
$USERR4
 40
0.0
  9
$USERR5
 40
0.0
  9
$WORLDVIEW
 70
     1
  9
$SHADEDGE
 70
     3
  9
$SHADEDIF
 70
    70
  9
$TILEMODE
 70
     1
  9
$MAXACTVP
 70
    16
  9
$PINSBASE
 10
0.0
 20
0.0
 30
0.0
  9
$PLIMCHECK
 70
     0
  9
$PEXTMIN
 10
0.0
 20
0.0
 30
0.0
  9
$PEXTMAX
 10
420.0
 20
297.0
 30
0.0
  9
$PLIMMIN
 10
0.0
 20
0.0
  9
$PLIMMAX
 10
420.0
 20
297.0
  9
$UNITMODE
 70
     0
  9
$VISRETAIN
 70
     0
  9
$PLINEGEN
 70
     0
  9
$PSLTSCALE
 70
     1
  9
$TREEDEPTH
 70
  3020
  9
$PICKSTYLE
 70
     1
  9
$CMLSTYLE
  2
STANDARD
  9
$CMLJUST
 70
     0
  9
$CMLSCALE
 40
1.0
  9
$PROXYGRAPHICS
 70
     1
  9
$MEASUREMENT
 70
     1
  0
ENDSEC
  0
SECTION
  2
CLASSES
  0
CLASS
  1
ACDBDICTIONARYWDFLT
  2
AcDbDictionaryWithDefault
  3
AutoCAD 2000
 90
        0
280
     0
281
     0
  0
CLASS
  1
ACDBPLACEHOLDER
  2
AcDbPlaceHolder
  3
AutoCAD 2000
 90
        0
280
     0
281
     0
  0
CLASS
  1
LAYOUT
  2
AcDbLayout
  3
AutoCAD 2000
 90
        0
280
     0
281
     0
  0
CLASS
  1
LONG_TRANSACTION
  2
AcDbLongTransaction
  3
AutoCAD 2000
 90
        0
280
     0
281
     0
  0
CLASS
  1
LWPOLYLINE
  2
AcDbPolyline
  3
AutoCAD 2000
 90
        0
280
     0
281
     1
  0
CLASS
  1
HATCH
  2
AcDbHatch
  3
AutoCAD 2000
 90
        0
280
     0
281
     1
  0
CLASS
  1
XRECORD
  2
AcDbXrecord
  3
AutoCAD 2000
 90
        0
280
     0
281
     0
  0
CLASS
  1
LONG_TRANSACTION
  2
AcDbLongTransaction
  3
AutoCAD 2000
 90
        0
280
     0
281
     0
  0
CLASS
  1
LWPOLYLINE
  2
AcDbPolyline
  3
AutoCAD 2000
 90
        0
280
     0
281
     1
  0
CLASS
  1
HATCH
  2
AcDbHatch
  3
AutoCAD 2000
 90
        0
280
     0
281
     1
  0
CLASS
  1
XRECORD
  2
AcDbXrecord
  3
AutoCAD 2000
 90
        0
280
     0
281
     0
  0
ENDSEC
  0
SECTION
  2
TABLES
  0
TABLE
  2
VPORT
  5
8
330
0
100
AcDbSymbolTable
 70
     2
  0
VPORT
  5
78F
330
8
100
AcDbSymbolTableRecord
100
AcDbViewportTableRecord
  2
*ACTIVE
 70
     0
 10
0.0
 20
0.0
 11
1.0
 21
1.0
 12
437.0541021724184
 22
269.6838662666037
 13
0.0
 23
0.0
 14
5.0
 24
5.0
 15
0.0
 25
0.0
 16
0.0
 26
0.0
 36
1.0
 17
0.0
 27
0.0
 37
0.0
 40
600.7555713708876
 41
1.795454545454545
 42
50.0
 43
0.0
 44
0.0
 50
0.0
 51
0.0
 71
     0
 72
   100
 73
     1
 74
     0
 75
     0
 76
     0
 77
     0
 78
     0
  0
ENDTAB
  0
TABLE
  2
LTYPE
  5
5
330
0
100
AcDbSymbolTable
 70
     3
  0
LTYPE
  5
14
330
5
100
AcDbSymbolTableRecord
100
AcDbLinetypeTableRecord
  2
BYBLOCK
 70
     0
  3

 72
    65
 73
     0
 40
0.0
  0
LTYPE
  5
15
330
5
100
AcDbSymbolTableRecord
100
AcDbLinetypeTableRecord
  2
BYLAYER
 70
     0
  3

 72
    65
 73
     0
 40
0.0
  0
LTYPE
  5
16
330
5
100
AcDbSymbolTableRecord
100
AcDbLinetypeTableRecord
  2
CONTINUOUS
 70
     0
  3
Solid line
 72
    65
 73
     0
 40
0.0
  0
LTYPE
  5
115
330
5
100
AcDbSymbolTableRecord
100
AcDbLinetypeTableRecord
  2
PHANTOM
 70
     0
  3
______  __  __  ______  __  __  ______  __  __ 
 72
    65
 73
     6
 40
2.5
 49
1.25
 74
     0
 49
-0.25
 74
     0
 49
0.25
 74
     0
 49
-0.25
 74
     0
 49
0.25
 74
     0
 49
-0.25
 74
     0
  0
LTYPE
  5
135
330
5
100
AcDbSymbolTableRecord
100
AcDbLinetypeTableRecord
  2
CENTER
 70
     0
  3
____ _ ____ _ ____ _ ____ _ ____ _ ____ _ ____ 
 72
    65
 73
     4
 40
2.0
 49
1.25
 74
     0
 49
-0.25
 74
     0
 49
0.25
 74
     0
 49
-0.25
 74
     0
  0
ENDTAB
  0
TABLE
  2
LAYER
  5
2
330
0
100
AcDbSymbolTable
 70
     9
  0
LAYER
  5
F
330
2
100
AcDbSymbolTableRecord
100
AcDbLayerTableRecord
  2
0
 70
     0
 62
     7
  6
CONTINUOUS
  0
LAYER
  5
62
330
2
100
AcDbSymbolTableRecord
100
AcDbLayerTableRecord
  2
VIEWPORT
 70
     0
 62
     7
  6
CONTINUOUS
  0
LAYER
  5
65
330
2
100
AcDbSymbolTableRecord
100
AcDbLayerTableRecord
  2
ZUWAKU
 70
     0
 62
     7
  6
CONTINUOUS
  0
LAYER
  5
1EF
330
2
100
AcDbSymbolTableRecord
100
AcDbLayerTableRecord
  2
SEIHIN
 70
     0
 62
     3
  6
CONTINUOUS
  0
LAYER
  5
1F0
330
2
100
AcDbSymbolTableRecord
100
AcDbLayerTableRecord
  2
SUNPOU
 70
     0
 62
     4
  6
CONTINUOUS
  0
LAYER
  5
1F1
330
2
100
AcDbSymbolTableRecord
100
AcDbLayerTableRecord
  2
CENTER_L
 70
     0
 62
     1
  6
CENTER
  0
LAYER
  5
1F2
330
2
100
AcDbSymbolTableRecord
100
AcDbLayerTableRecord
  2
NOKITOI
 70
     0
 62
     8
  6
PHANTOM
  0
LAYER
  5
1F3
330
2
100
AcDbSymbolTableRecord
100
AcDbLayerTableRecord
  2
DEFPOINTS
 70
     0
 62
     7
  6
CONTINUOUS
  0
LAYER
  5
614
330
2
100
AcDbSymbolTableRecord
100
AcDbLayerTableRecord
  2
MOJI
 70
     0
 62
     2
  6
CONTINUOUS
  0
ENDTAB
  0
TABLE
  2
STYLE
  5
3
330
0
100
AcDbSymbolTable
 70
     2
  0
STYLE
  5
10
330
3
100
AcDbSymbolTableRecord
100
AcDbTextStyleTableRecord
  2
STANDARD
 70
     0
 40
0.0
 41
1.0
 50
0.0
 71
     0
 42
5.0
  3
TXT
  4
bigfont.shx
  0
STYLE
  5
615
330
3
100
AcDbSymbolTableRecord
100
AcDbTextStyleTableRecord
  2
ｽﾀｲﾙ1
 70
     0
 40
0.0
 41
1.0
 50
0.0
 71
     0
 42
2.5
  3
MS PGothic.ttf
  4

1001
ACAD
1000
MS PGothic
1071
    32818
  0
ENDTAB
  0
TABLE
  2
VIEW
  5
6
330
0
100
AcDbSymbolTable
 70
     0
  0
ENDTAB
  0
TABLE
  2
UCS
  5
7
330
0
100
AcDbSymbolTable
 70
     0
  0
ENDTAB
  0
TABLE
  2
APPID
  5
9
330
0
100
AcDbSymbolTable
 70
     1
  0
APPID
  5
11
330
9
100
AcDbSymbolTableRecord
100
AcDbRegAppTableRecord
  2
ACAD
 70
     0
  0
ENDTAB
  0
TABLE
  2
DIMSTYLE
  5
A
330
0
100
AcDbSymbolTable
 70
     1
  0
DIMSTYLE
105
1D
102
{ACAD_REACTORS
330
31D
330
31E
330
31F
330
32D
330
35E
330
372
330
39F
330
3A0
330
3BA
330
3BF
330
3C0
330
3C1
102
}
330
A
100
AcDbSymbolTableRecord
100
AcDbDimStyleTableRecord
  2
STANDARD
 70
     0
  3

  4

  5

  6

  7

 40
1.0
 41
0.18
 42
0.0625
 43
0.38
 44
0.18
 45
0.0
 46
0.0
 47
0.0
 48
0.0
140
0.18
141
0.09
142
0.0
143
25.4
144
1.0
145
0.0
146
1.0
147
0.09
 71
     0
 72
     0
 73
     1
 74
     1
 75
     0
 76
     0
 77
     0
 78
     0
170
     0
171
     2
172
     0
173
     0
174
     0
175
     0
176
     0
177
     0
178
     0
270
     2
271
     4
272
     4
273
     2
274
     2
340
10
275
     0
280
     0
281
     0
282
     0
283
     1
284
     0
285
     0
286
     0
287
     3
288
     0
  0
ENDTAB
  0
TABLE
  2
BLOCK_RECORD
  5
1
330
0
100
AcDbSymbolTable
 70
    13
  0
BLOCK_RECORD
  5
1A
102
{ACAD_XDICTIONARY
360
606
102
}
330
1
100
AcDbSymbolTableRecord
100
AcDbBlockTableRecord
  2
*MODEL_SPACE
  0
BLOCK_RECORD
  5
17
102
{ACAD_XDICTIONARY
360
604
102
}
330
1
100
AcDbSymbolTableRecord
100
AcDbBlockTableRecord
  2
*PAPER_SPACE
  0
BLOCK_RECORD
  5
6D
330
1
100
AcDbSymbolTableRecord
100
AcDbBlockTableRecord
  2
_OPEN
  0
BLOCK_RECORD
  5
442
330
1
100
AcDbSymbolTableRecord
100
AcDbBlockTableRecord
  2
*D1
  0
BLOCK_RECORD
  5
44E
330
1
100
AcDbSymbolTableRecord
100
AcDbBlockTableRecord
  2
*D2
  0
BLOCK_RECORD
  5
45A
330
1
100
AcDbSymbolTableRecord
100
AcDbBlockTableRecord
  2
*D3
  0
BLOCK_RECORD
  5
466
330
1
100
AcDbSymbolTableRecord
100
AcDbBlockTableRecord
  2
*D4
  0
BLOCK_RECORD
  5
472
330
1
100
AcDbSymbolTableRecord
100
AcDbBlockTableRecord
  2
*D5
  0
BLOCK_RECORD
  5
47E
330
1
100
AcDbSymbolTableRecord
100
AcDbBlockTableRecord
  2
*D6
  0
BLOCK_RECORD
  5
48A
330
1
100
AcDbSymbolTableRecord
100
AcDbBlockTableRecord
  2
*D7
  0
BLOCK_RECORD
  5
496
330
1
100
AcDbSymbolTableRecord
100
AcDbBlockTableRecord
  2
*D8
  0
BLOCK_RECORD
  5
4A4
330
1
100
AcDbSymbolTableRecord
100
AcDbBlockTableRecord
  2
*D9
  0
BLOCK_RECORD
  5
4B2
330
1
100
AcDbSymbolTableRecord
100
AcDbBlockTableRecord
  2
*D10
  0
BLOCK_RECORD
  5
4BE
330
1
100
AcDbSymbolTableRecord
100
AcDbBlockTableRecord
  2
*D11
  0
BLOCK_RECORD
  5
4CA
330
1
100
AcDbSymbolTableRecord
100
AcDbBlockTableRecord
  2
*D12
  0
ENDTAB
  0
ENDSEC
  0
SECTION
  2
BLOCKS
  0
BLOCK
  5
1B
330
1A
100
AcDbEntity
  8
0
100
AcDbBlockBegin
  2
*MODEL_SPACE
 70
     0
 10
0.0
 20
0.0
 30
0.0
  3
*MODEL_SPACE
  1

  0
ENDBLK
  5
1C
330
1A
100
AcDbEntity
  8
0
100
AcDbBlockEnd
  0
BLOCK
  5
18
330
17
100
AcDbEntity
 67
     1
  8
0
100
AcDbBlockBegin
  2
*PAPER_SPACE
 70
     0
 10
0.0
 20
0.0
 30
0.0
  3
*PAPER_SPACE
  1

  0
ENDBLK
  5
19
330
17
100
AcDbEntity
 67
     1
  8
0
100
AcDbBlockEnd
  0
BLOCK
  5
6E
330
6D
100
AcDbEntity
  8
0
100
AcDbBlockBegin
  2
_OPEN
 70
     0
 10
0.0
 20
0.0
 30
0.0
  3
_OPEN
  1

  0
LINE
  5
6F
330
6D
100
AcDbEntity
  8
0
  6
BYBLOCK
 62
     0
100
AcDbLine
 10
-1.0
 20
0.1666666666666666
 30
0.0
 11
0.0
 21
0.0
 31
0.0
  0
LINE
  5
70
330
6D
100
AcDbEntity
  8
0
  6
BYBLOCK
 62
     0
100
AcDbLine
 10
0.0
 20
0.0
 30
0.0
 11
-1.0
 21
-0.1666666666666666
 31
0.0
  0
LINE
  5
71
330
6D
100
AcDbEntity
  8
0
  6
BYBLOCK
 62
     0
100
AcDbLine
 10
0.0
 20
0.0
 30
0.0
 11
-1.0
 21
0.0
 31
0.0
  0
ENDBLK
  5
72
330
6D
100
AcDbEntity
  8
0
100
AcDbBlockEnd
  0
BLOCK
  5
5B2
330
442
100
AcDbEntity
  8
0
100
AcDbBlockBegin
  2
*D1
 70
     1
 10
0.0
 20
0.0
 30
0.0
  3
*D1
  1

  0
LINE
  5
5B3
330
442
100
AcDbEntity
  8
0
  6
BYBLOCK
 62
     4
100
AcDbLine
 10
451.3571606514818
 20
370.1806784490257
 30
0.0
 11
399.1868331724702
 21
370.1806784490257
 31
0.0
  0
LINE
  5
5B4
330
442
100
AcDbEntity
  8
0
  6
BYBLOCK
 62
     4
100
AcDbLine
 10
519.8568606514816
 20
175.7807184490256
 30
0.0
 11
399.1868331724702
 21
175.7807184490256
 31
0.0
  0
LINE
  5
5B5
330
442
100
AcDbEntity
  8
0
  6
BYBLOCK
 62
     4
100
AcDbLine
 10
402.1868331724702
 20
363.1806784490257
 30
0.0
 11
402.1868331724702
 21
182.7807184490256
 31
0.0
  0
INSERT
  5
5B6
330
442
100
AcDbEntity
  8
0
  6
BYBLOCK
 62
     4
100
AcDbBlockReference
  2
_OPEN
 10
402.1868331724702
 20
370.1806784490257
 30
0.0
 41
7.0
 42
7.0
 43
7.0
 50
90.0
  0
INSERT
  5
5B7
330
442
100
AcDbEntity
  8
0
  6
BYBLOCK
 62
     4
100
AcDbBlockReference
  2
_OPEN
 10
402.1868331724702
 20
175.7807184490256
 30
0.0
 41
7.0
 42
7.0
 43
7.0
 50
270.0
  0
MTEXT
  5
5B8
330
442
100
AcDbEntity
  8
0
  6
BYBLOCK
 62
     4
100
AcDbMText
 10
397.1868331724702
 20
272.9806984490256
 30
0.0
 40
6.0
 41
0.0
 71
     5
 72
     5
  1
\A1;194
 11
0.0
 21
1.0
 31
0.0
1001
ACAD
1000
MTEXTBEGIN
1070
    73
1070
     1
1070
    44
1040
1.0
1070
    74
1070
     0
1000
MTEXTEND
1000
MTEXTBEGIN
1070
    73
1070
     1
1070
    44
1040
1.0
1070
    74
1070
     0
1000
MTEXTEND
  0
POINT
  5
5B9
330
442
100
AcDbEntity
  8
DEFPOINTS
  6
BYBLOCK
 62
     0
100
AcDbPoint
 10
457.3571606514818
 20
370.1806784490257
 30
0.0
  0
POINT
  5
5BA
330
442
100
AcDbEntity
  8
DEFPOINTS
  6
BYBLOCK
 62
     0
100
AcDbPoint
 10
525.8568606514816
 20
175.7807184490256
 30
0.0
  0
POINT
  5
5BB
330
442
100
AcDbEntity
  8
DEFPOINTS
  6
BYBLOCK
 62
     0
100
AcDbPoint
 10
402.1868331724702
 20
175.7807184490256
 30
0.0
  0
ENDBLK
  5
5BC
330
442
100
AcDbEntity
  8
0
100
AcDbBlockEnd
  0
BLOCK
  5
5A7
330
44E
100
AcDbEntity
  8
0
100
AcDbBlockBegin
  2
*D2
 70
     1
 10
0.0
 20
0.0
 30
0.0
  3
*D2
  1

  0
LINE
  5
5A8
330
44E
100
AcDbEntity
  8
0
  6
BYBLOCK
 62
     4
100
AcDbLine
 10
451.3571606514818
 20
370.1806784490257
 30
0.0
 11
416.2641403616251
 21
370.1806784490257
 31
0.0
  0
LINE
  5
5A9
330
44E
100
AcDbEntity
  8
0
  6
BYBLOCK
 62
     4
100
AcDbLine
 10
504.4328606514817
 20
219.1805784490255
 30
0.0
 11
416.2641403616251
 21
219.1805784490255
 31
0.0
  0
LINE
  5
5AA
330
44E
100
AcDbEntity
  8
0
  6
BYBLOCK
 62
     4
100
AcDbLine
 10
419.2641403616251
 20
363.1806784490257
 30
0.0
 11
419.2641403616251
 21
226.1805784490256
 31
0.0
  0
INSERT
  5
5AB
330
44E
100
AcDbEntity
  8
0
  6
BYBLOCK
 62
     4
100
AcDbBlockReference
  2
_OPEN
 10
419.2641403616251
 20
370.1806784490257
 30
0.0
 41
7.0
 42
7.0
 43
7.0
 50
90.0
  0
INSERT
  5
5AC
330
44E
100
AcDbEntity
  8
0
  6
BYBLOCK
 62
     4
100
AcDbBlockReference
  2
_OPEN
 10
419.2641403616251
 20
219.1805784490255
 30
0.0
 41
7.0
 42
7.0
 43
7.0
 50
270.0
  0
MTEXT
  5
5AD
330
44E
100
AcDbEntity
  8
0
  6
BYBLOCK
 62
     4
100
AcDbMText
 10
414.2641403616251
 20
294.6806284490256
 30
0.0
 40
6.0
 41
0.0
 71
     5
 72
     5
  1
\A1;151
 11
0.0
 21
1.0
 31
0.0
1001
ACAD
1000
MTEXTBEGIN
1070
    73
1070
     1
1070
    44
1040
1.0
1070
    74
1070
     0
1000
MTEXTEND
1000
MTEXTBEGIN
1070
    73
1070
     1
1070
    44
1040
1.0
1070
    74
1070
     0
1000
MTEXTEND
  0
POINT
  5
5AE
330
44E
100
AcDbEntity
  8
DEFPOINTS
  6
BYBLOCK
 62
     0
100
AcDbPoint
 10
457.3571606514818
 20
370.1806784490257
 30
0.0
  0
POINT
  5
5AF
330
44E
100
AcDbEntity
  8
DEFPOINTS
  6
BYBLOCK
 62
     0
100
AcDbPoint
 10
510.4328606514816
 20
219.1805784490255
 30
0.0
  0
POINT
  5
5B0
330
44E
100
AcDbEntity
  8
DEFPOINTS
  6
BYBLOCK
 62
     0
100
AcDbPoint
 10
419.2641403616251
 20
219.1805784490255
 30
0.0
  0
ENDBLK
  5
5B1
330
44E
100
AcDbEntity
  8
0
100
AcDbBlockEnd
  0
BLOCK
  5
59C
330
45A
100
AcDbEntity
  8
0
100
AcDbBlockBegin
  2
*D3
 70
     1
 10
0.0
 20
0.0
 30
0.0
  3
*D3
  1

  0
LINE
  5
59D
330
45A
100
AcDbEntity
  8
0
  6
BYBLOCK
 62
     4
100
AcDbLine
 10
451.3571606514818
 20
370.1806784490257
 30
0.0
 11
432.8291278066607
 21
370.1806784490257
 31
0.0
  0
LINE
  5
59E
330
45A
100
AcDbEntity
  8
0
  6
BYBLOCK
 62
     4
100
AcDbLine
 10
503.9139606514819
 20
296.4809784490256
 30
0.0
 11
432.8291278066607
 21
296.4809784490256
 31
0.0
  0
LINE
  5
59F
330
45A
100
AcDbEntity
  8
0
  6
BYBLOCK
 62
     4
100
AcDbLine
 10
435.8291278066606
 20
363.1806784490257
 30
0.0
 11
435.8291278066606
 21
303.4809784490255
 31
0.0
  0
INSERT
  5
5A0
330
45A
100
AcDbEntity
  8
0
  6
BYBLOCK
 62
     4
100
AcDbBlockReference
  2
_OPEN
 10
435.8291278066606
 20
370.1806784490257
 30
0.0
 41
7.0
 42
7.0
 43
7.0
 50
90.0
  0
INSERT
  5
5A1
330
45A
100
AcDbEntity
  8
0
  6
BYBLOCK
 62
     4
100
AcDbBlockReference
  2
_OPEN
 10
435.8291278066606
 20
296.4809784490256
 30
0.0
 41
7.0
 42
7.0
 43
7.0
 50
270.0
  0
MTEXT
  5
5A2
330
45A
100
AcDbEntity
  8
0
  6
BYBLOCK
 62
     4
100
AcDbMText
 10
430.8291278066606
 20
333.3308284490256
 30
0.0
 40
6.0
 41
0.0
 71
     5
 72
     5
  1
\A1;74
 11
0.0
 21
1.0
 31
0.0
1001
ACAD
1000
MTEXTBEGIN
1070
    73
1070
     1
1070
    44
1040
1.0
1070
    74
1070
     0
1000
MTEXTEND
1000
MTEXTBEGIN
1070
    73
1070
     1
1070
    44
1040
1.0
1070
    74
1070
     0
1000
MTEXTEND
  0
POINT
  5
5A3
330
45A
100
AcDbEntity
  8
DEFPOINTS
  6
BYBLOCK
 62
     0
100
AcDbPoint
 10
457.3571606514818
 20
370.1806784490257
 30
0.0
  0
POINT
  5
5A4
330
45A
100
AcDbEntity
  8
DEFPOINTS
  6
BYBLOCK
 62
     0
100
AcDbPoint
 10
509.9139606514818
 20
296.4809784490256
 30
0.0
  0
POINT
  5
5A5
330
45A
100
AcDbEntity
  8
DEFPOINTS
  6
BYBLOCK
 62
     0
100
AcDbPoint
 10
435.8291278066606
 20
296.4809784490256
 30
0.0
  0
ENDBLK
  5
5A6
330
45A
100
AcDbEntity
  8
0
100
AcDbBlockEnd
  0
BLOCK
  5
5BD
330
466
100
AcDbEntity
  8
0
100
AcDbBlockBegin
  2
*D4
 70
     1
 10
0.0
 20
0.0
 30
0.0
  3
*D4
  1

  0
LINE
  5
5BE
330
466
100
AcDbEntity
  8
0
  6
BYBLOCK
 62
     4
100
AcDbLine
 10
193.0570524511539
 20
213.1805784490256
 30
0.0
 11
193.0570524511539
 21
143.9694171947106
 31
0.0
  0
LINE
  5
5BF
330
466
100
AcDbEntity
  8
0
  6
BYBLOCK
 62
     4
100
AcDbLine
 10
285.0569725851081
 20
213.1805784490256
 30
0.0
 11
285.0569725851081
 21
143.9694171947106
 31
0.0
  0
LINE
  5
5C0
330
466
100
AcDbEntity
  8
0
  6
BYBLOCK
 62
     4
100
AcDbLine
 10
200.0570524511539
 20
146.9694171947106
 30
0.0
 11
278.056972585108
 21
146.9694171947106
 31
0.0
  0
INSERT
  5
5C1
330
466
100
AcDbEntity
  8
0
  6
BYBLOCK
 62
     4
100
AcDbBlockReference
  2
_OPEN
 10
193.0570524511539
 20
146.9694171947106
 30
0.0
 41
7.0
 42
7.0
 43
7.0
 50
180.0
  0
INSERT
  5
5C2
330
466
100
AcDbEntity
  8
0
  6
BYBLOCK
 62
     4
100
AcDbBlockReference
  2
_OPEN
 10
285.0569725851081
 20
146.9694171947106
 30
0.0
 41
7.0
 42
7.0
 43
7.0
  0
MTEXT
  5
5C3
330
466
100
AcDbEntity
  8
0
  6
BYBLOCK
 62
     4
100
AcDbMText
 10
239.057012518131
 20
151.9694171947106
 30
0.0
 40
6.0
 41
0.0
 71
     5
 72
     5
  1
\A1;92
1001
ACAD
1000
MTEXTBEGIN
1070
    73
1070
     1
1070
    44
1040
1.0
1070
    74
1070
     0
1000
MTEXTEND
1000
MTEXTBEGIN
1070
    73
1070
     1
1070
    44
1040
1.0
1070
    74
1070
     0
1000
MTEXTEND
  0
POINT
  5
5C4
330
466
100
AcDbEntity
  8
DEFPOINTS
  6
BYBLOCK
 62
     0
100
AcDbPoint
 10
193.0570524511539
 20
219.1805784490256
 30
0.0
  0
POINT
  5
5C5
330
466
100
AcDbEntity
  8
DEFPOINTS
  6
BYBLOCK
 62
     0
100
AcDbPoint
 10
285.0569725851081
 20
219.1805784490255
 30
0.0
  0
POINT
  5
5C6
330
466
100
AcDbEntity
  8
DEFPOINTS
  6
BYBLOCK
 62
     0
100
AcDbPoint
 10
285.0569725851081
 20
146.9694171947106
 30
0.0
  0
ENDBLK
  5
5C7
330
466
100
AcDbEntity
  8
0
100
AcDbBlockEnd
  0
BLOCK
  5
502
330
472
100
AcDbEntity
  8
0
100
AcDbBlockBegin
  2
*D5
 70
     1
 10
0.0
 20
0.0
 30
0.0
  3
*D5
  1

  0
LINE
  5
503
330
472
100
AcDbEntity
  8
0
  6
BYBLOCK
 62
     4
100
AcDbLine
 10
138.5789407458135
 20
399.9829287654245
 30
0.0
 11
138.5789407458135
 21
444.8159013022994
 31
0.0
  0
LINE
  5
504
330
472
100
AcDbEntity
  8
0
  6
BYBLOCK
 62
     4
100
AcDbLine
 10
314.5790407458135
 20
399.9828287654246
 30
0.0
 11
314.5790407458135
 21
444.8159013022994
 31
0.0
  0
LINE
  5
505
330
472
100
AcDbEntity
  8
0
  6
BYBLOCK
 62
     4
100
AcDbLine
 10
145.5789407458135
 20
441.8159013022995
 30
0.0
 11
307.5790407458135
 21
441.8159013022995
 31
0.0
  0
INSERT
  5
506
330
472
100
AcDbEntity
  8
0
  6
BYBLOCK
 62
     4
100
AcDbBlockReference
  2
_OPEN
 10
138.5789407458135
 20
441.8159013022995
 30
0.0
 41
7.0
 42
7.0
 43
7.0
 50
180.0
  0
INSERT
  5
507
330
472
100
AcDbEntity
  8
0
  6
BYBLOCK
 62
     4
100
AcDbBlockReference
  2
_OPEN
 10
314.5790407458135
 20
441.8159013022995
 30
0.0
 41
7.0
 42
7.0
 43
7.0
  0
MTEXT
  5
508
330
472
100
AcDbEntity
  8
0
  6
BYBLOCK
 62
     4
100
AcDbMText
 10
226.5789907458135
 20
446.8159013022995
 30
0.0
 40
6.0
 41
0.0
 71
     5
 72
     5
  1
\A1;176
1001
ACAD
1000
MTEXTBEGIN
1070
    73
1070
     1
1070
    44
1040
1.0
1070
    74
1070
     0
1000
MTEXTEND
1000
MTEXTBEGIN
1070
    73
1070
     1
1070
    44
1040
1.0
1070
    74
1070
     0
1000
MTEXTEND
  0
POINT
  5
509
330
472
100
AcDbEntity
  8
DEFPOINTS
  6
BYBLOCK
 62
     0
100
AcDbPoint
 10
138.5789407458135
 20
393.9829287654245
 30
0.0
  0
POINT
  5
50A
330
472
100
AcDbEntity
  8
DEFPOINTS
  6
BYBLOCK
 62
     0
100
AcDbPoint
 10
314.5790407458135
 20
393.9828287654245
 30
0.0
  0
POINT
  5
50B
330
472
100
AcDbEntity
  8
DEFPOINTS
  6
BYBLOCK
 62
     0
100
AcDbPoint
 10
314.5790407458135
 20
441.8159013022995
 30
0.0
  0
ENDBLK
  5
50C
330
472
100
AcDbEntity
  8
0
100
AcDbBlockEnd
  0
BLOCK
  5
50D
330
47E
100
AcDbEntity
  8
0
100
AcDbBlockBegin
  2
*D6
 70
     1
 10
0.0
 20
0.0
 30
0.0
  3
*D6
  1

  0
LINE
  5
50E
330
47E
100
AcDbEntity
  8
0
  6
BYBLOCK
 62
     4
100
AcDbLine
 10
196.5789370539257
 20
399.9829946744363
 30
0.0
 11
196.5789370539257
 21
428.5010841438133
 31
0.0
  0
LINE
  5
50F
330
47E
100
AcDbEntity
  8
0
  6
BYBLOCK
 62
     4
100
AcDbLine
 10
256.5789370539326
 20
399.9829946745584
 30
0.0
 11
256.5789370539326
 21
428.5010841438133
 31
0.0
  0
LINE
  5
510
330
47E
100
AcDbEntity
  8
0
  6
BYBLOCK
 62
     4
100
AcDbLine
 10
203.5789370539257
 20
425.5010841438132
 30
0.0
 11
249.5789370539327
 21
425.5010841438132
 31
0.0
  0
INSERT
  5
511
330
47E
100
AcDbEntity
  8
0
  6
BYBLOCK
 62
     4
100
AcDbBlockReference
  2
_OPEN
 10
196.5789370539257
 20
425.5010841438132
 30
0.0
 41
7.0
 42
7.0
 43
7.0
 50
180.0
  0
INSERT
  5
512
330
47E
100
AcDbEntity
  8
0
  6
BYBLOCK
 62
     4
100
AcDbBlockReference
  2
_OPEN
 10
256.5789370539326
 20
425.5010841438132
 30
0.0
 41
7.0
 42
7.0
 43
7.0
  0
MTEXT
  5
513
330
47E
100
AcDbEntity
  8
0
  6
BYBLOCK
 62
     4
100
AcDbMText
 10
226.5789370539292
 20
430.5010841438132
 30
0.0
 40
6.0
 41
0.0
 71
     5
 72
     5
  1
\A1;※a60
1001
ACAD
1000
MTEXTBEGIN
1070
    73
1070
     1
1070
    44
1040
1.0
1070
    74
1070
     0
1000
MTEXTEND
1000
MTEXTBEGIN
1070
    73
1070
     1
1070
    44
1040
1.0
1070
    74
1070
     0
1000
MTEXTEND
  0
POINT
  5
514
330
47E
100
AcDbEntity
  8
DEFPOINTS
  6
BYBLOCK
 62
     0
100
AcDbPoint
 10
196.5789370539257
 20
393.9829946744363
 30
0.0
  0
POINT
  5
515
330
47E
100
AcDbEntity
  8
DEFPOINTS
  6
BYBLOCK
 62
     0
100
AcDbPoint
 10
256.5789370539326
 20
393.9829946745584
 30
0.0
  0
POINT
  5
516
330
47E
100
AcDbEntity
  8
DEFPOINTS
  6
BYBLOCK
 62
     0
100
AcDbPoint
 10
256.5789370539326
 20
425.5010841438132
 30
0.0
  0
ENDBLK
  5
517
330
47E
100
AcDbEntity
  8
0
100
AcDbBlockEnd
  0
BLOCK
  5
5C8
330
48A
100
AcDbEntity
  8
0
100
AcDbBlockBegin
  2
*D7
 70
     1
 10
0.0
 20
0.0
 30
0.0
  3
*D7
  1

  0
LINE
  5
5C9
330
48A
100
AcDbEntity
  8
0
  6
BYBLOCK
 62
     4
100
AcDbLine
 10
520.0568606514816
 20
175.7806984490256
 30
0.0
 11
520.0568606514816
 21
143.9694171947106
 31
0.0
  0
LINE
  5
5CA
330
48A
100
AcDbEntity
  8
0
  6
BYBLOCK
 62
     4
100
AcDbLine
 10
590.0571364173585
 20
175.7805830884105
 30
0.0
 11
590.0571364173585
 21
143.9694171947106
 31
0.0
  0
LINE
  5
5CB
330
48A
100
AcDbEntity
  8
0
  6
BYBLOCK
 62
     4
100
AcDbLine
 10
527.0568606514816
 20
146.9694171947106
 30
0.0
 11
583.0571364173586
 21
146.9694171947106
 31
0.0
  0
INSERT
  5
5CC
330
48A
100
AcDbEntity
  8
0
  6
BYBLOCK
 62
     4
100
AcDbBlockReference
  2
_OPEN
 10
520.0568606514816
 20
146.9694171947106
 30
0.0
 41
7.0
 42
7.0
 43
7.0
 50
180.0
  0
INSERT
  5
5CD
330
48A
100
AcDbEntity
  8
0
  6
BYBLOCK
 62
     4
100
AcDbBlockReference
  2
_OPEN
 10
590.0571364173585
 20
146.9694171947106
 30
0.0
 41
7.0
 42
7.0
 43
7.0
  0
MTEXT
  5
5CE
330
48A
100
AcDbEntity
  8
0
  6
BYBLOCK
 62
     4
100
AcDbMText
 10
555.0569985344201
 20
151.9694171947106
 30
0.0
 40
6.0
 41
0.0
 71
     5
 72
     5
  1
\A1;70
1001
ACAD
1000
MTEXTBEGIN
1070
    73
1070
     1
1070
    44
1040
1.0
1070
    74
1070
     0
1000
MTEXTEND
1000
MTEXTBEGIN
1070
    73
1070
     1
1070
    44
1040
1.0
1070
    74
1070
     0
1000
MTEXTEND
  0
POINT
  5
5CF
330
48A
100
AcDbEntity
  8
DEFPOINTS
  6
BYBLOCK
 62
     0
100
AcDbPoint
 10
520.0568606514816
 20
181.7806984490256
 30
0.0
  0
POINT
  5
5D0
330
48A
100
AcDbEntity
  8
DEFPOINTS
  6
BYBLOCK
 62
     0
100
AcDbPoint
 10
590.0571364173585
 20
181.7805830884105
 30
0.0
  0
POINT
  5
5D1
330
48A
100
AcDbEntity
  8
DEFPOINTS
  6
BYBLOCK
 62
     0
100
AcDbPoint
 10
590.0571364173585
 20
146.9694171947106
 30
0.0
  0
ENDBLK
  5
5D2
330
48A
100
AcDbEntity
  8
0
100
AcDbBlockEnd
  0
BLOCK
  5
523
330
496
100
AcDbEntity
  8
0
100
AcDbBlockBegin
  2
*D8
 70
     1
 10
0.0
 20
0.0
 30
0.0
  3
*D8
  1

  0
LINE
  5
524
330
496
100
AcDbEntity
  8
0
  6
BYBLOCK
 62
     4
100
AcDbLine
 10
534.5789407458132
 20
289.0211287654245
 30
0.0
 11
534.5789407458132
 21
284.3073766274928
 31
0.0
  0
LINE
  5
525
330
496
100
AcDbEntity
  8
0
  6
BYBLOCK
 62
     4
100
AcDbLine
 10
542.5789407458132
 20
283.9333287654244
 30
0.0
 11
542.5789407458132
 21
290.3073766274927
 31
0.0
  0
LINE
  5
526
330
496
100
AcDbEntity
  8
0
  6
BYBLOCK
 62
     4
100
AcDbLine
 10
527.5789407458132
 20
287.3073766274927
 30
0.0
 11
520.5789407458133
 21
287.3073766274927
 31
0.0
  0
LINE
  5
527
330
496
100
AcDbEntity
  8
0
  6
BYBLOCK
 62
     4
100
AcDbLine
 10
549.5789407458132
 20
287.3073766274927
 30
0.0
 11
564.5789407458132
 21
287.3073766274927
 31
0.0
  0
LINE
  5
528
330
496
100
AcDbEntity
  8
0
  6
BYBLOCK
 62
     4
100
AcDbLine
 10
534.5789407458132
 20
287.3073766274927
 30
0.0
 11
542.5789407458132
 21
287.3073766274927
 31
0.0
  0
INSERT
  5
529
330
496
100
AcDbEntity
  8
0
  6
BYBLOCK
 62
     4
100
AcDbBlockReference
  2
_OPEN
 10
534.5789407458132
 20
287.3073766274927
 30
0.0
 41
7.0
 42
7.0
 43
7.0
  0
INSERT
  5
52A
330
496
100
AcDbEntity
  8
0
  6
BYBLOCK
 62
     4
100
AcDbBlockReference
  2
_OPEN
 10
542.5789407458132
 20
287.3073766274927
 30
0.0
 41
7.0
 42
7.0
 43
7.0
 50
180.0
  0
MTEXT
  5
52B
330
496
100
AcDbEntity
  8
0
  6
BYBLOCK
 62
     4
100
AcDbMText
 10
560.5789407458132
 20
292.3073766274928
 30
0.0
 40
6.0
 41
0.0
 71
     5
 72
     5
  1
\A1;8
1001
ACAD
1000
MTEXTBEGIN
1070
    73
1070
     1
1070
    44
1040
1.0
1070
    74
1070
     0
1000
MTEXTEND
1000
MTEXTBEGIN
1070
    73
1070
     1
1070
    44
1040
1.0
1070
    74
1070
     0
1000
MTEXTEND
  0
POINT
  5
52C
330
496
100
AcDbEntity
  8
DEFPOINTS
  6
BYBLOCK
 62
     0
100
AcDbPoint
 10
534.5789407458132
 20
295.0211287654245
 30
0.0
  0
POINT
  5
52D
330
496
100
AcDbEntity
  8
DEFPOINTS
  6
BYBLOCK
 62
     0
100
AcDbPoint
 10
542.5789407458132
 20
277.9333287654244
 30
0.0
  0
POINT
  5
52E
330
496
100
AcDbEntity
  8
DEFPOINTS
  6
BYBLOCK
 62
     0
100
AcDbPoint
 10
542.5789407458132
 20
287.3073766274927
 30
0.0
  0
ENDBLK
  5
52F
330
496
100
AcDbEntity
  8
0
100
AcDbBlockEnd
  0
BLOCK
  5
530
330
4A4
100
AcDbEntity
  8
0
100
AcDbBlockBegin
  2
*D9
 70
     1
 10
0.0
 20
0.0
 30
0.0
  3
*D9
  1

  0
LINE
  5
531
330
4A4
100
AcDbEntity
  8
0
  6
BYBLOCK
 62
     4
100
AcDbLine
 10
583.5791064600989
 20
215.5828087652086
 30
0.0
 11
627.4656579572059
 21
215.5828087652086
 31
0.0
  0
LINE
  5
532
330
4A4
100
AcDbEntity
  8
0
  6
BYBLOCK
 62
     4
100
AcDbLine
 10
583.5790407458132
 20
205.5828087654245
 30
0.0
 11
627.4656579572059
 21
205.5828087654245
 31
0.0
  0
LINE
  5
533
330
4A4
100
AcDbEntity
  8
0
  6
BYBLOCK
 62
     4
100
AcDbLine
 10
624.4656579572058
 20
222.5828087652085
 30
0.0
 11
624.4656579572058
 21
229.5828087652086
 31
0.0
  0
LINE
  5
534
330
4A4
100
AcDbEntity
  8
0
  6
BYBLOCK
 62
     4
100
AcDbLine
 10
624.4656579572058
 20
198.5828087654245
 30
0.0
 11
624.4656579572058
 21
167.3828087654245
 31
0.0
  0
LINE
  5
535
330
4A4
100
AcDbEntity
  8
0
  6
BYBLOCK
 62
     4
100
AcDbLine
 10
624.4656579572058
 20
215.5828087652086
 30
0.0
 11
624.4656579572058
 21
205.5828087654245
 31
0.0
  0
INSERT
  5
536
330
4A4
100
AcDbEntity
  8
0
  6
BYBLOCK
 62
     4
100
AcDbBlockReference
  2
_OPEN
 10
624.4656579572058
 20
215.5828087652086
 30
0.0
 41
7.0
 42
7.0
 43
7.0
 50
270.0
  0
INSERT
  5
537
330
4A4
100
AcDbEntity
  8
0
  6
BYBLOCK
 62
     4
100
AcDbBlockReference
  2
_OPEN
 10
624.4656579572058
 20
205.5828087654245
 30
0.0
 41
7.0
 42
7.0
 43
7.0
 50
90.0
  0
MTEXT
  5
538
330
4A4
100
AcDbEntity
  8
0
  6
BYBLOCK
 62
     4
100
AcDbMText
 10
619.4656579572058
 20
179.4828087654245
 30
0.0
 40
6.0
 41
0.0
 71
     5
 72
     5
  1
\A1;※b10
 11
0.0
 21
1.0
 31
0.0
1001
ACAD
1000
MTEXTBEGIN
1070
    73
1070
     1
1070
    44
1040
1.0
1070
    74
1070
     0
1000
MTEXTEND
1000
MTEXTBEGIN
1070
    73
1070
     1
1070
    44
1040
1.0
1070
    74
1070
     0
1000
MTEXTEND
  0
POINT
  5
539
330
4A4
100
AcDbEntity
  8
DEFPOINTS
  6
BYBLOCK
 62
     0
100
AcDbPoint
 10
577.5791064600989
 20
215.5828087652086
 30
0.0
  0
POINT
  5
53A
330
4A4
100
AcDbEntity
  8
DEFPOINTS
  6
BYBLOCK
 62
     0
100
AcDbPoint
 10
577.5790407458132
 20
205.5828087654245
 30
0.0
  0
POINT
  5
53B
330
4A4
100
AcDbEntity
  8
DEFPOINTS
  6
BYBLOCK
 62
     0
100
AcDbPoint
 10
624.4656579572058
 20
205.5828087654245
 30
0.0
  0
ENDBLK
  5
53C
330
4A4
100
AcDbEntity
  8
0
100
AcDbBlockEnd
  0
BLOCK
  5
560
330
4B2
100
AcDbEntity
  8
0
100
AcDbBlockBegin
  2
*D10
 70
     1
 10
0.0
 20
0.0
 30
0.0
  3
*D10
  1

  0
LINE
  5
561
330
4B2
100
AcDbEntity
  8
0
  6
BYBLOCK
 62
     4
100
AcDbLine
 10
619.5570606514816
 20
360.1806784490257
 30
0.0
 11
650.7728376305274
 21
360.1806784490257
 31
0.0
  0
LINE
  5
562
330
4B2
100
AcDbEntity
  8
0
  6
BYBLOCK
 62
     4
100
AcDbLine
 10
561.3486606514818
 20
296.4808784490256
 30
0.0
 11
650.7728376305274
 21
296.4808784490256
 31
0.0
  0
LINE
  5
563
330
4B2
100
AcDbEntity
  8
0
  6
BYBLOCK
 62
     4
100
AcDbLine
 10
647.7728376305273
 20
353.1806784490257
 30
0.0
 11
647.7728376305273
 21
303.4808784490256
 31
0.0
  0
INSERT
  5
564
330
4B2
100
AcDbEntity
  8
0
  6
BYBLOCK
 62
     4
100
AcDbBlockReference
  2
_OPEN
 10
647.7728376305273
 20
360.1806784490257
 30
0.0
 41
7.0
 42
7.0
 43
7.0
 50
90.0
  0
INSERT
  5
565
330
4B2
100
AcDbEntity
  8
0
  6
BYBLOCK
 62
     4
100
AcDbBlockReference
  2
_OPEN
 10
647.7728376305273
 20
296.4808784490256
 30
0.0
 41
7.0
 42
7.0
 43
7.0
 50
270.0
  0
MTEXT
  5
566
330
4B2
100
AcDbEntity
  8
0
  6
BYBLOCK
 62
     4
100
AcDbMText
 10
642.7728376305274
 20
328.3307784490256
 30
0.0
 40
6.0
 41
0.0
 71
     5
 72
     5
  1
\A1;64
 11
0.0
 21
1.0
 31
0.0
1001
ACAD
1000
MTEXTBEGIN
1070
    73
1070
     1
1070
    44
1040
1.0
1070
    74
1070
     0
1000
MTEXTEND
1000
MTEXTBEGIN
1070
    73
1070
     1
1070
    44
1040
1.0
1070
    74
1070
     0
1000
MTEXTEND
  0
POINT
  5
567
330
4B2
100
AcDbEntity
  8
DEFPOINTS
  6
BYBLOCK
 62
     0
100
AcDbPoint
 10
613.5570606514816
 20
360.1806784490257
 30
0.0
  0
POINT
  5
568
330
4B2
100
AcDbEntity
  8
DEFPOINTS
  6
BYBLOCK
 62
     0
100
AcDbPoint
 10
555.3486606514818
 20
296.4808784490256
 30
0.0
  0
POINT
  5
569
330
4B2
100
AcDbEntity
  8
DEFPOINTS
  6
BYBLOCK
 62
     0
100
AcDbPoint
 10
647.7728376305273
 20
296.4808784490256
 30
0.0
  0
ENDBLK
  5
56A
330
4B2
100
AcDbEntity
  8
0
100
AcDbBlockEnd
  0
BLOCK
  5
548
330
4BE
100
AcDbEntity
  8
0
100
AcDbBlockBegin
  2
*D11
 70
     1
 10
0.0
 20
0.0
 30
0.0
  3
*D11
  1

  0
LINE
  5
549
330
4BE
100
AcDbEntity
  8
0
  6
BYBLOCK
 62
     4
100
AcDbLine
 10
601.0789407458132
 20
389.9828287654246
 30
0.0
 11
601.0789407458132
 21
444.8159013022994
 31
0.0
  0
LINE
  5
54A
330
4BE
100
AcDbEntity
  8
0
  6
BYBLOCK
 62
     4
100
AcDbLine
 10
444.8790407458134
 20
399.9828287654246
 30
0.0
 11
444.8790407458134
 21
444.8159013022994
 31
0.0
  0
LINE
  5
54B
330
4BE
100
AcDbEntity
  8
0
  6
BYBLOCK
 62
     4
100
AcDbLine
 10
594.0789407458132
 20
441.8159013022995
 30
0.0
 11
451.8790407458134
 21
441.8159013022995
 31
0.0
  0
INSERT
  5
54C
330
4BE
100
AcDbEntity
  8
0
  6
BYBLOCK
 62
     4
100
AcDbBlockReference
  2
_OPEN
 10
601.0789407458132
 20
441.8159013022995
 30
0.0
 41
7.0
 42
7.0
 43
7.0
  0
INSERT
  5
54D
330
4BE
100
AcDbEntity
  8
0
  6
BYBLOCK
 62
     4
100
AcDbBlockReference
  2
_OPEN
 10
444.8790407458134
 20
441.8159013022995
 30
0.0
 41
7.0
 42
7.0
 43
7.0
 50
180.0
  0
MTEXT
  5
54E
330
4BE
100
AcDbEntity
  8
0
  6
BYBLOCK
 62
     4
100
AcDbMText
 10
522.9789907458133
 20
446.8159013022995
 30
0.0
 40
6.0
 41
0.0
 71
     5
 72
     5
  1
\A1;156
1001
ACAD
1000
MTEXTBEGIN
1070
    73
1070
     1
1070
    44
1040
1.0
1070
    74
1070
     0
1000
MTEXTEND
1000
MTEXTBEGIN
1070
    73
1070
     1
1070
    44
1040
1.0
1070
    74
1070
     0
1000
MTEXTEND
  0
POINT
  5
54F
330
4BE
100
AcDbEntity
  8
DEFPOINTS
  6
BYBLOCK
 62
     0
100
AcDbPoint
 10
601.0789407458132
 20
383.9828287654245
 30
0.0
  0
POINT
  5
550
330
4BE
100
AcDbEntity
  8
DEFPOINTS
  6
BYBLOCK
 62
     0
100
AcDbPoint
 10
444.8790407458134
 20
393.9828287654245
 30
0.0
  0
POINT
  5
551
330
4BE
100
AcDbEntity
  8
DEFPOINTS
  6
BYBLOCK
 62
     0
100
AcDbPoint
 10
444.8790407458134
 20
441.8159013022995
 30
0.0
  0
ENDBLK
  5
552
330
4BE
100
AcDbEntity
  8
0
100
AcDbBlockEnd
  0
BLOCK
  5
553
330
4CA
100
AcDbEntity
  8
0
100
AcDbBlockBegin
  2
*D12
 70
     1
 10
0.0
 20
0.0
 30
0.0
  3
*D12
  1

  0
LINE
  5
554
330
4CA
100
AcDbEntity
  8
0
  6
BYBLOCK
 62
     4
100
AcDbLine
 10
601.0789407458132
 20
389.9828287654246
 30
0.0
 11
601.0789407458132
 21
423.5651777258222
 31
0.0
  0
LINE
  5
555
330
4CA
100
AcDbEntity
  8
0
  6
BYBLOCK
 62
     4
100
AcDbLine
 10
534.5789407458132
 20
354.6273287654244
 30
0.0
 11
534.5789407458132
 21
423.5651777258222
 31
0.0
  0
LINE
  5
556
330
4CA
100
AcDbEntity
  8
0
  6
BYBLOCK
 62
     4
100
AcDbLine
 10
594.0789407458132
 20
420.5651777258223
 30
0.0
 11
541.5789407458133
 21
420.5651777258223
 31
0.0
  0
INSERT
  5
557
330
4CA
100
AcDbEntity
  8
0
  6
BYBLOCK
 62
     4
100
AcDbBlockReference
  2
_OPEN
 10
601.0789407458132
 20
420.5651777258223
 30
0.0
 41
7.0
 42
7.0
 43
7.0
  0
INSERT
  5
558
330
4CA
100
AcDbEntity
  8
0
  6
BYBLOCK
 62
     4
100
AcDbBlockReference
  2
_OPEN
 10
534.5789407458132
 20
420.5651777258223
 30
0.0
 41
7.0
 42
7.0
 43
7.0
 50
180.0
  0
MTEXT
  5
559
330
4CA
100
AcDbEntity
  8
0
  6
BYBLOCK
 62
     4
100
AcDbMText
 10
567.8289407458132
 20
425.5651777258223
 30
0.0
 40
6.0
 41
0.0
 71
     5
 72
     5
  1
\A1;67
1001
ACAD
1000
MTEXTBEGIN
1070
    73
1070
     1
1070
    44
1040
1.0
1070
    74
1070
     0
1000
MTEXTEND
1000
MTEXTBEGIN
1070
    73
1070
     1
1070
    44
1040
1.0
1070
    74
1070
     0
1000
MTEXTEND
  0
POINT
  5
55A
330
4CA
100
AcDbEntity
  8
DEFPOINTS
  6
BYBLOCK
 62
     0
100
AcDbPoint
 10
601.0789407458132
 20
383.9828287654245
 30
0.0
  0
POINT
  5
55B
330
4CA
100
AcDbEntity
  8
DEFPOINTS
  6
BYBLOCK
 62
     0
100
AcDbPoint
 10
534.5789407458132
 20
348.6273287654244
 30
0.0
  0
POINT
  5
55C
330
4CA
100
AcDbEntity
  8
DEFPOINTS
  6
BYBLOCK
 62
     0
100
AcDbPoint
 10
534.5789407458132
 20
420.5651777258223
 30
0.0
  0
ENDBLK
  5
55D
330
4CA
100
AcDbEntity
  8
0
100
AcDbBlockEnd
  0
ENDSEC
  0
SECTION
  2
ENTITIES
  0
DIMENSION
  5
31D
330
1A
100
AcDbEntity
  8
SUNPOU
100
AcDbDimension
  2
*D1
 10
402.1868331724702
 20
175.7807184490256
 30
0.0
 11
397.1868331724702
 21
272.9806984490256
 31
0.0
 70
    32
  3
STANDARD
100
AcDbAlignedDimension
 13
457.3571606514818
 23
370.1806784490257
 33
0.0
 14
525.8568606514816
 24
175.7807184490256
 34
0.0
 50
90.0
100
AcDbRotatedDimension
1001
ACAD
1000
DSTYLE
1002
{
1070
   140
1040
6.0
1070
    74
1070
     0
1070
   172
1070
     1
1070
    73
1070
     0
1070
   272
1070
     2
1070
    77
1070
     3
1070
   173
1070
     1
1070
   147
1040
2.0
1070
    42
1040
6.0
1070
    44
1040
3.0
1070
    43
1040
14.0
1070
   271
1070
     0
1070
   178
1070
     4
1070
   177
1070
     4
1070
   176
1070
     4
1070
   141
1040
150.0
1070
     7
1000
_OPEN
1070
     6
1000
_OPEN
1070
    41
1040
7.0
1002
}
  0
DIMENSION
  5
31E
330
1A
100
AcDbEntity
  8
SUNPOU
100
AcDbDimension
  2
*D2
 10
419.2641403616251
 20
219.1805784490255
 30
0.0
 11
414.2641403616251
 21
294.6806284490256
 31
0.0
 70
    32
  3
STANDARD
100
AcDbAlignedDimension
 13
457.3571606514818
 23
370.1806784490257
 33
0.0
 14
510.4328606514816
 24
219.1805784490255
 34
0.0
 50
90.0
100
AcDbRotatedDimension
1001
ACAD
1000
DSTYLE
1002
{
1070
   140
1040
6.0
1070
    74
1070
     0
1070
   172
1070
     1
1070
    73
1070
     0
1070
   272
1070
     2
1070
    77
1070
     3
1070
   173
1070
     1
1070
   147
1040
2.0
1070
    42
1040
6.0
1070
    44
1040
3.0
1070
    43
1040
14.0
1070
   271
1070
     0
1070
   178
1070
     4
1070
   177
1070
     4
1070
   176
1070
     4
1070
   141
1040
150.0
1070
     7
1000
_OPEN
1070
     6
1000
_OPEN
1070
    41
1040
7.0
1002
}
  0
DIMENSION
  5
31F
330
1A
100
AcDbEntity
  8
SUNPOU
100
AcDbDimension
  2
*D3
 10
435.8291278066606
 20
296.4809784490256
 30
0.0
 11
430.8291278066606
 21
333.3308284490256
 31
0.0
 70
    32
  3
STANDARD
100
AcDbAlignedDimension
 13
457.3571606514818
 23
370.1806784490257
 33
0.0
 14
509.9139606514818
 24
296.4809784490256
 34
0.0
 50
90.0
100
AcDbRotatedDimension
1001
ACAD
1000
DSTYLE
1002
{
1070
   140
1040
6.0
1070
    74
1070
     0
1070
   172
1070
     1
1070
    73
1070
     0
1070
   272
1070
     2
1070
    77
1070
     3
1070
   173
1070
     1
1070
   147
1040
2.0
1070
    42
1040
6.0
1070
    44
1040
3.0
1070
    43
1040
14.0
1070
   271
1070
     0
1070
   178
1070
     4
1070
   177
1070
     4
1070
   176
1070
     4
1070
   141
1040
150.0
1070
     7
1000
_OPEN
1070
     6
1000
_OPEN
1070
    41
1040
7.0
1002
}
  0
LINE
  5
320
330
1A
100
AcDbEntity
  8
SEIHIN
 62
     3
100
AcDbLine
 10
284.0252606514816
 20
314.2357784490256
 30
0.0
 11
280.1514606514818
 21
260.0008784490255
 31
0.0
  0
LINE
  5
321
330
1A
100
AcDbEntity
  8
SEIHIN
 62
     3
100
AcDbLine
 10
299.0408606514818
 20
287.2063784490256
 30
0.0
 11
303.1742606514818
 21
327.0378784490256
 31
0.0
  0
LINE
  5
322
330
1A
100
AcDbEntity
  8
SEIHIN
 62
     3
100
AcDbLine
 10
308.0408606514818
 20
287.2063784490256
 30
0.0
 11
314.0570606514819
 21
345.1806784490257
 31
0.0
  0
LINE
  5
323
330
1A
100
AcDbEntity
  8
SEIHIN
 62
     3
100
AcDbLine
 10
194.0889606514818
 20
314.2357784490256
 30
0.0
 11
197.9626606514817
 21
260.0009784490256
 31
0.0
  0
LINE
  5
324
330
1A
100
AcDbEntity
  8
SEIHIN
 62
     3
100
AcDbLine
 10
170.0732606514816
 20
287.2064784490256
 30
0.0
 11
164.0570606514818
 21
345.1807784490256
 31
0.0
  0
LINE
  5
325
330
1A
100
AcDbEntity
  8
SEIHIN
 62
     3
100
AcDbLine
 10
179.0732606514817
 20
287.2064784490256
 30
0.0
 11
174.9397606514817
 21
327.0379784490256
 31
0.0
  0
LINE
  5
326
330
1A
100
AcDbEntity
  8
CENTER_L
 62
     1
 48
5.0
100
AcDbLine
 10
239.0570606514819
 20
377.8893784490256
 30
0.0
 11
239.0569606514816
 21
169.0926384490255
 31
0.0
  0
LINE
  5
327
330
1A
100
AcDbEntity
  8
SEIHIN
 62
     3
100
AcDbLine
 10
273.2143606514817
 20
247.0960784490256
 30
0.0
 11
277.7025606514817
 21
309.9325784490257
 31
0.0
  0
LINE
  5
328
330
1A
100
AcDbEntity
  8
SEIHIN
 62
     3
100
AcDbLine
 10
275.6083606514817
 20
308.6857784490256
 30
0.0
 11
271.0367606514817
 21
244.6807784490256
 31
0.0
  0
LINE
  5
329
330
1A
100
AcDbEntity
  8
SEIHIN
 62
     3
100
AcDbLine
 10
204.8996606514818
 20
247.0960784490256
 30
0.0
 11
200.4115606514818
 21
309.9325784490257
 31
0.0
  0
LINE
  5
32A
330
1A
100
AcDbEntity
  8
SEIHIN
 62
     3
100
AcDbLine
 10
202.5057606514818
 20
308.6857784490256
 30
0.0
 11
207.0773606514817
 21
244.6808784490256
 31
0.0
  0
ARC
  5
32B
330
1A
100
AcDbEntity
  8
SEIHIN
 62
     3
100
AcDbCircle
 10
468.4708606514816
 20
318.1721784490257
 30
0.0
 40
299.999976
100
AcDbArc
 50
185.924546
 51
191.7659349999999
  0
ARC
  5
32C
330
1A
100
AcDbEntity
  8
SEIHIN
 62
     3
100
AcDbCircle
 10
273.9701606514818
 20
263.1152784490256
 30
0.0
 40
30.000061
100
AcDbArc
 50
307.546269
 51
348.233931
  0
DIMENSION
  5
32D
330
1A
100
AcDbEntity
  8
SUNPOU
100
AcDbDimension
  2
*D4
 10
285.0569725851081
 20
146.9694171947106
 30
0.0
 11
239.057012518131
 21
151.9694171947106
 31
0.0
 70
    32
  3
STANDARD
100
AcDbAlignedDimension
 13
193.0570524511539
 23
219.1805784490256
 33
0.0
 14
285.0569725851081
 24
219.1805784490255
 34
0.0
100
AcDbRotatedDimension
1001
ACAD
1000
DSTYLE
1002
{
1070
   140
1040
6.0
1070
    74
1070
     0
1070
   172
1070
     1
1070
    73
1070
     0
1070
   272
1070
     2
1070
    77
1070
     3
1070
   173
1070
     1
1070
   147
1040
2.0
1070
    42
1040
6.0
1070
    44
1040
3.0
1070
    43
1040
14.0
1070
   271
1070
     0
1070
   178
1070
     4
1070
   177
1070
     4
1070
   176
1070
     4
1070
   141
1040
150.0
1070
     7
1000
_OPEN
1070
     6
1000
_OPEN
1070
    41
1040
7.0
1002
}
  0
LINE
  5
32E
330
1A
100
AcDbEntity
  8
SEIHIN
 62
     3
100
AcDbLine
 10
275.8629606514817
 20
195.7952784490256
 30
0.0
 11
277.2074606514818
 21
219.1806784490256
 31
0.0
  0
LINE
  5
32F
330
1A
100
AcDbEntity
  8
SEIHIN
 62
     3
100
AcDbLine
 10
202.2512606514818
 20
195.7952784490256
 30
0.0
 11
200.9067606514818
 21
219.1806784490256
 31
0.0
  0
LINE
  5
330
330
1A
100
AcDbEntity
  8
SEIHIN
 62
     3
100
AcDbLine
 10
209.8568606514819
 20
175.7807184490256
 30
0.0
 11
239.0568606514817
 21
175.7808384490256
 31
0.0
  0
LINE
  5
331
330
1A
100
AcDbEntity
  8
SEIHIN
 62
     3
100
AcDbLine
 10
239.0568606514817
 20
181.7808884490256
 30
0.0
 11
204.0569606514817
 21
181.7806984490256
 31
0.0
  0
ARC
  5
332
330
1A
100
AcDbEntity
  8
SEIHIN
 62
     3
100
AcDbCircle
 10
302.0863606514818
 20
201.5349784490256
 30
0.0
 40
99.999947
100
AcDbArc
 50
183.2903009999999
 51
191.3932349999999
  0
LINE
  5
333
330
1A
100
AcDbEntity
  8
SEIHIN
 62
     3
100
AcDbLine
 10
209.8570606514818
 20
175.7807184490256
 30
0.0
 11
209.8571606514818
 21
181.7809584490256
 31
0.0
  0
LINE
  5
334
330
1A
100
AcDbEntity
  8
SEIHIN
 62
     3
100
AcDbLine
 10
239.0571606514818
 20
181.7808884490256
 30
0.0
 11
274.0571606514818
 21
181.7806584490256
 31
0.0
  0
LINE
  5
335
330
1A
100
AcDbEntity
  8
SEIHIN
 62
     3
100
AcDbLine
 10
268.2572606514818
 20
175.7807184490256
 30
0.0
 11
239.0571606514818
 21
175.7808684490257
 31
0.0
  0
LINE
  5
336
330
1A
100
AcDbEntity
  8
SEIHIN
 62
     3
100
AcDbLine
 10
268.2570606514817
 20
175.7807184490256
 30
0.0
 11
268.2570606514817
 21
181.7809584490256
 31
0.0
  0
ARC
  5
337
330
1A
100
AcDbEntity
  8
SEIHIN
 62
     3
100
AcDbCircle
 10
176.0277606514817
 20
201.5350784490256
 30
0.0
 40
99.999993
100
AcDbArc
 50
348.606568
 51
356.70947
  0
LINE
  5
338
330
1A
100
AcDbEntity
  8
SEIHIN
 62
     3
100
AcDbLine
 10
239.0571606514818
 20
244.6808784490256
 30
0.0
 11
207.0773606514817
 21
244.6808784490256
 31
0.0
  0
LINE
  5
339
330
1A
100
AcDbEntity
  8
SEIHIN
 62
     3
100
AcDbLine
 10
195.4329606514819
 20
219.1805784490255
 30
0.0
 11
239.0569606514816
 21
219.1805784490255
 31
0.0
  0
LINE
  5
33A
330
1A
100
AcDbEntity
  8
SEIHIN
 62
     3
100
AcDbLine
 10
186.0570606514818
 20
239.1806784490255
 30
0.0
 11
239.0569606514816
 21
239.1805784490255
 31
0.0
  0
LINE
  5
33B
330
1A
100
AcDbEntity
  8
SEIHIN
 62
     3
100
AcDbLine
 10
186.0570606514818
 20
234.1806784490255
 30
0.0
 11
239.0569606514816
 21
234.1805784490255
 31
0.0
  0
ARC
  5
33C
330
1A
100
AcDbEntity
  8
SEIHIN
 62
     3
100
AcDbCircle
 10
204.1438606514816
 20
263.1152784490256
 30
0.0
 40
29.999962
100
AcDbArc
 50
191.765921
 51
232.453614
  0
ARC
  5
33D
330
1A
100
AcDbEntity
  8
SEIHIN
 62
     3
100
AcDbCircle
 10
213.1438606514817
 20
263.1152784490256
 30
0.0
 40
29.999962
100
AcDbArc
 50
191.765921
 51
232.453614
  0
ARC
  5
33E
330
1A
100
AcDbEntity
  8
SEIHIN
 62
     3
100
AcDbCircle
 10
204.4329596514817
 20
222.1805794490256
 30
0.0
 40
3.000000999999999
100
AcDbArc
 50
195.072048
 51
270.0000129999999
  0
ARC
  5
33F
330
1A
100
AcDbEntity
  8
SEIHIN
 62
     3
100
AcDbCircle
 10
195.4329596514817
 20
222.1805794490256
 30
0.0
 40
3.000000999999999
100
AcDbArc
 50
195.072048
 51
270.0000129999999
  0
ARC
  5
340
330
1A
100
AcDbEntity
  8
SEIHIN
 62
     3
100
AcDbCircle
 10
189.0570606514818
 20
235.2097784490256
 30
0.0
 40
3.00002
100
AcDbArc
 50
179.9980899999999
 51
217.077306
  0
ARC
  5
341
330
1A
100
AcDbEntity
  8
SEIHIN
 62
     3
100
AcDbCircle
 10
185.5570606514818
 20
238.9330784490256
 30
0.0
 40
0.499988
100
AcDbArc
 50
0.0
 51
52.45167099999999
  0
LINE
  5
342
330
1A
100
AcDbEntity
  8
SEIHIN
 62
     3
100
AcDbLine
 10
186.0570606514818
 20
238.9330784490256
 30
0.0
 11
186.0570606514818
 21
235.2098784490256
 31
0.0
  0
ARC
  5
343
330
1A
100
AcDbEntity
  8
SEIHIN
 62
     3
100
AcDbCircle
 10
167.7401606514818
 20
212.2994784490256
 30
0.0
 40
34.99998
100
AcDbArc
 50
15.071771
 51
37.078095
  0
ARC
  5
344
330
1A
100
AcDbEntity
  8
SEIHIN
 62
     3
100
AcDbCircle
 10
158.7401606514818
 20
212.2994784490256
 30
0.0
 40
34.99998
100
AcDbArc
 50
15.071771
 51
37.078095
  0
ARC
  5
345
330
1A
100
AcDbEntity
  8
SEIHIN
 62
     3
100
AcDbCircle
 10
194.5570606514819
 20
238.9330784490256
 30
0.0
 40
0.499988
100
AcDbArc
 50
0.0
 51
52.45167099999999
  0
ARC
  5
346
330
1A
100
AcDbEntity
  8
SEIHIN
 62
     3
100
AcDbCircle
 10
198.0570606514818
 20
235.2097784490256
 30
0.0
 40
3.00002
100
AcDbArc
 50
179.9980899999999
 51
217.077306
  0
LINE
  5
347
330
1A
100
AcDbEntity
  8
SEIHIN
 62
     3
100
AcDbLine
 10
195.0570606514818
 20
238.9330784490256
 30
0.0
 11
195.0570606514818
 21
235.2098784490256
 31
0.0
  0
ARC
  5
348
330
1A
100
AcDbEntity
  8
SEIHIN
 62
     3
100
AcDbCircle
 10
227.0554606514818
 20
267.3228784490256
 30
0.0
 40
30.000035
100
AcDbArc
 50
194.126477
 51
222.3940409999999
  0
ARC
  5
349
330
1A
100
AcDbEntity
  8
SEIHIN
 62
     3
100
AcDbCircle
 10
477.4708606514817
 20
318.1720784490256
 30
0.0
 40
299.999966
100
AcDbArc
 50
185.924546
 51
191.765916
  0
LINE
  5
34A
330
1A
100
AcDbEntity
  8
SEIHIN
 62
     3
100
AcDbLine
 10
204.8996606514818
 20
247.0960784490256
 30
0.0
 11
206.9047606514816
 21
247.0960784490256
 31
0.0
  0
ARC
  5
34B
330
1A
100
AcDbEntity
  8
SEIHIN
 62
     3
100
AcDbCircle
 10
264.9701606514818
 20
263.1152784490256
 30
0.0
 40
30.000061
100
AcDbArc
 50
307.546269
 51
348.233931
  0
LINE
  5
34C
330
1A
100
AcDbEntity
  8
SEIHIN
 62
     3
100
AcDbLine
 10
282.6810606514817
 20
219.1805784490255
 30
0.0
 11
239.0570606514819
 21
219.1805784490255
 31
0.0
  0
LINE
  5
34D
330
1A
100
AcDbEntity
  8
SEIHIN
 62
     3
100
AcDbLine
 10
292.0569606514817
 20
234.1805784490255
 30
0.0
 11
239.0570606514819
 21
234.1805784490255
 31
0.0
  0
LINE
  5
34E
330
1A
100
AcDbEntity
  8
SEIHIN
 62
     3
100
AcDbLine
 10
292.0569606514817
 20
239.1805784490255
 30
0.0
 11
239.0570606514819
 21
239.1805784490255
 31
0.0
  0
ARC
  5
34F
330
1A
100
AcDbEntity
  8
SEIHIN
 62
     3
100
AcDbCircle
 10
282.6810616514817
 20
222.1805794490256
 30
0.0
 40
3.000000999999999
100
AcDbArc
 50
269.999987
 51
344.927952
  0
ARC
  5
350
330
1A
100
AcDbEntity
  8
SEIHIN
 62
     3
100
AcDbCircle
 10
273.6810616514818
 20
222.1805794490256
 30
0.0
 40
3.000000999999999
100
AcDbArc
 50
269.999987
 51
344.927952
  0
ARC
  5
351
330
1A
100
AcDbEntity
  8
SEIHIN
 62
     3
100
AcDbCircle
 10
310.3738606514817
 20
212.2993784490256
 30
0.0
 40
34.999996
100
AcDbArc
 50
142.9216759999999
 51
164.927913
  0
ARC
  5
352
330
1A
100
AcDbEntity
  8
SEIHIN
 62
     3
100
AcDbCircle
 10
283.5569606514816
 20
238.9329784490256
 30
0.0
 40
0.499988
100
AcDbArc
 50
127.548329
 51
180.0
  0
ARC
  5
353
330
1A
100
AcDbEntity
  8
SEIHIN
 62
     3
100
AcDbCircle
 10
280.0569606514816
 20
235.2097784490256
 30
0.0
 40
2.999979999999999
100
AcDbArc
 50
322.921542
 51
0.0
  0
LINE
  5
354
330
1A
100
AcDbEntity
  8
SEIHIN
 62
     3
100
AcDbLine
 10
283.0569606514817
 20
238.9329784490256
 30
0.0
 11
283.0569606514817
 21
235.2097784490256
 31
0.0
  0
ARC
  5
355
330
1A
100
AcDbEntity
  8
SEIHIN
 62
     3
100
AcDbCircle
 10
319.3738606514817
 20
212.2993784490256
 30
0.0
 40
34.999996
100
AcDbArc
 50
142.9216759999999
 51
164.927913
  0
ARC
  5
356
330
1A
100
AcDbEntity
  8
SEIHIN
 62
     3
100
AcDbCircle
 10
292.5569606514816
 20
238.9329784490256
 30
0.0
 40
0.499988
100
AcDbArc
 50
127.548329
 51
180.0
  0
ARC
  5
357
330
1A
100
AcDbEntity
  8
SEIHIN
 62
     3
100
AcDbCircle
 10
289.0569606514816
 20
235.2097784490256
 30
0.0
 40
2.999979999999999
100
AcDbArc
 50
322.921542
 51
0.0
  0
LINE
  5
358
330
1A
100
AcDbEntity
  8
SEIHIN
 62
     3
100
AcDbLine
 10
292.0569606514817
 20
238.9329784490256
 30
0.0
 11
292.0569606514817
 21
235.2097784490256
 31
0.0
  0
LINE
  5
359
330
1A
100
AcDbEntity
  8
SEIHIN
 62
     3
100
AcDbLine
 10
239.0568606514817
 20
244.6808784490256
 30
0.0
 11
271.0367606514817
 21
244.6807784490256
 31
0.0
  0
ARC
  5
35A
330
1A
100
AcDbEntity
  8
SEIHIN
 62
     3
100
AcDbCircle
 10
0.6432906514818342
 20
318.1723784490256
 30
0.0
 40
300.000007
100
AcDbArc
 50
348.233873
 51
354.075242
  0
ARC
  5
35B
330
1A
100
AcDbEntity
  8
SEIHIN
 62
     3
100
AcDbCircle
 10
251.0586606514817
 20
267.3228784490256
 30
0.0
 40
30.000031
100
AcDbArc
 50
317.6056899999999
 51
345.8735229999999
  0
LINE
  5
35C
330
1A
100
AcDbEntity
  8
SEIHIN
 62
     3
100
AcDbLine
 10
273.2143606514817
 20
247.0960784490256
 30
0.0
 11
271.2092606514818
 21
247.0960784490256
 31
0.0
  0
ARC
  5
35D
330
1A
100
AcDbEntity
  8
SEIHIN
 62
     3
100
AcDbCircle
 10
9.643290651481834
 20
318.1723784490256
 30
0.0
 40
300.000007
100
AcDbArc
 50
348.233873
 51
354.075242
  0
DIMENSION
  5
35E
330
1A
100
AcDbEntity
  8
SUNPOU
100
AcDbDimension
  2
*D5
 10
327.0571606514818
 20
418.0137509859006
 30
0.0
 11
239.0571106514818
 21
423.0137509859006
 31
0.0
 12
12.47811990566833
 22
-23.80215031639886
 32
0.0
 70
    32
  3
STANDARD
100
AcDbAlignedDimension
 13
151.0570606514819
 23
370.1807784490256
 33
0.0
 14
327.0571606514818
 24
370.1806784490257
 34
0.0
100
AcDbRotatedDimension
1001
ACAD
1000
DSTYLE
1002
{
1070
   140
1040
6.0
1070
    74
1070
     0
1070
   172
1070
     1
1070
    73
1070
     0
1070
   272
1070
     2
1070
    77
1070
     3
1070
   173
1070
     1
1070
   147
1040
2.0
1070
    42
1040
6.0
1070
    44
1040
3.0
1070
    43
1040
14.0
1070
   271
1070
     0
1070
   178
1070
     4
1070
   177
1070
     4
1070
   176
1070
     4
1070
   141
1040
150.0
1070
     7
1000
_OPEN
1070
     6
1000
_OPEN
1070
    41
1040
7.0
1002
}
  0
LINE
  5
35F
330
1A
100
AcDbEntity
  8
SEIHIN
 62
     3
100
AcDbLine
 10
152.0094606514818
 20
365.1807784490257
 30
0.0
 11
239.0570606514819
 21
365.1807784490257
 31
0.0
  0
LINE
  5
360
330
1A
100
AcDbEntity
  8
SEIHIN
 62
     3
100
AcDbLine
 10
151.0570606514819
 20
370.1807784490256
 30
0.0
 11
239.0571606514818
 21
370.1808784490256
 31
0.0
  0
ARC
  5
361
330
1A
100
AcDbEntity
  8
SEIHIN
 62
     3
100
AcDbCircle
 10
150.0733606514818
 20
324.4574784490257
 30
0.0
 40
25.000008
100
AcDbArc
 50
5.924614
 51
55.98925000000001
  0
LINE
  5
362
330
1A
100
AcDbEntity
  8
SEIHIN
 62
     3
100
AcDbLine
 10
155.0571606514818
 20
348.1808784490256
 30
0.0
 11
239.0571606514818
 21
348.1808784490256
 31
0.0
  0
LINE
  5
363
330
1A
100
AcDbEntity
  8
SEIHIN
 62
     3
100
AcDbLine
 10
164.0567606514817
 20
345.1808784490256
 30
0.0
 11
239.0571606514818
 21
345.1808784490256
 31
0.0
  0
LINE
  5
364
330
1A
100
AcDbEntity
  8
SEIHIN
 62
     3
100
AcDbLine
 10
162.4937606514818
 20
331.1809784490256
 30
0.0
 11
160.9328606514816
 21
346.2221784490256
 31
0.0
  0
LINE
  5
365
330
1A
100
AcDbEntity
  8
SEIHIN
 62
     3
100
AcDbLine
 10
162.4937606514818
 20
331.1809784490256
 30
0.0
 11
165.5098606514816
 21
331.1809784490256
 31
0.0
  0
LINE
  5
366
330
1A
100
AcDbEntity
  8
SEIHIN
 62
     3
100
AcDbLine
 10
162.1512606514818
 20
334.4809784490256
 30
0.0
 11
165.1673606514817
 21
334.4809784490256
 31
0.0
  0
LINE
  5
367
330
1A
100
AcDbEntity
  8
SEIHIN
 62
     3
100
AcDbLine
 10
153.1089606514818
 20
364.7392784490256
 30
0.0
 11
155.0199606514818
 21
348.4962784490256
 31
0.0
  0
LINE
  5
368
330
1A
100
AcDbEntity
  8
SEIHIN
 62
     3
100
AcDbLine
 10
155.3584606514817
 20
348.0803784490256
 30
0.0
 11
164.0570606514818
 21
345.1807784490256
 31
0.0
  0
ARC
  5
369
330
1A
100
AcDbEntity
  8
SEIHIN
 62
     3
100
AcDbCircle
 10
155.5165606514818
 20
348.5547784490257
 30
0.0
 40
0.5000580000000001
100
AcDbArc
 50
186.7185389999999
 51
251.5578049999999
  0
LINE
  5
36A
330
1A
100
AcDbEntity
  8
SEIHIN
 62
     3
100
AcDbLine
 10
151.0570606514819
 20
370.1807784490256
 30
0.0
 11
151.5119606514818
 21
365.6310784490256
 31
0.0
  0
ARC
  5
36B
330
1A
100
AcDbEntity
  8
SEIHIN
 62
     3
100
AcDbCircle
 10
152.6124606514818
 20
364.6807784490257
 30
0.0
 40
0.499967
100
AcDbArc
 50
6.719879999999999
 51
90.0
  0
ARC
  5
36C
330
1A
100
AcDbEntity
  8
SEIHIN
 62
     3
100
AcDbCircle
 10
152.0094606514818
 20
365.6807784490256
 30
0.0
 40
0.499988
100
AcDbArc
 50
185.704892
 51
270.0
  0
ARC
  5
36D
330
1A
100
AcDbEntity
  8
SEIHIN
 62
     3
100
AcDbCircle
 10
328.0407606514816
 20
324.4573784490256
 30
0.0
 40
24.999931
100
AcDbArc
 50
124.01056
 51
174.075362
  0
LINE
  5
36E
330
1A
100
AcDbEntity
  8
SEIHIN
 62
     3
100
AcDbLine
 10
326.1046606514817
 20
365.1807784490257
 30
0.0
 11
239.0570606514819
 21
365.1807784490257
 31
0.0
  0
LINE
  5
36F
330
1A
100
AcDbEntity
  8
SEIHIN
 62
     3
100
AcDbLine
 10
314.0573606514818
 20
345.1807784490256
 30
0.0
 11
239.0570606514819
 21
345.1808784490256
 31
0.0
  0
LINE
  5
370
330
1A
100
AcDbEntity
  8
SEIHIN
 62
     3
100
AcDbLine
 10
323.0570606514818
 20
348.1807784490257
 30
0.0
 11
239.0570606514819
 21
348.1808784490256
 31
0.0
  0
LINE
  5
371
330
1A
100
AcDbEntity
  8
SEIHIN
 62
     3
100
AcDbLine
 10
327.0571606514818
 20
370.1807784490256
 30
0.0
 11
239.0570606514819
 21
370.1808784490256
 31
0.0
  0
DIMENSION
  5
372
330
1A
100
AcDbEntity
  8
SUNPOU
100
AcDbDimension
  2
*D6
 10
269.057056959601
 20
401.6989338274144
 30
0.0
 11
239.0570569595975
 21
406.6989338274144
 31
0.0
 12
12.47811990566833
 22
-23.80215031639886
 32
0.0
 70
    32
  1
※a<>
  3
STANDARD
100
AcDbAlignedDimension
 13
209.0570569595941
 23
370.1808443580374
 33
0.0
 14
269.057056959601
 24
370.1808443581595
 34
0.0
100
AcDbRotatedDimension
1001
ACAD
1000
DSTYLE
1002
{
1070
   140
1040
6.0
1070
    74
1070
     0
1070
   172
1070
     1
1070
    73
1070
     0
1070
   272
1070
     2
1070
    77
1070
     3
1070
   173
1070
     1
1070
   147
1040
2.0
1070
    42
1040
6.0
1070
    44
1040
3.0
1070
    43
1040
14.0
1070
   271
1070
     0
1070
   178
1070
     4
1070
   177
1070
     4
1070
   176
1070
     4
1070
   141
1040
150.0
1070
     7
1000
_OPEN
1070
     6
1000
_OPEN
1070
    41
1040
7.0
1002
}
  0
ARC
  5
373
330
1A
100
AcDbEntity
  8
SEIHIN
 62
     3
100
AcDbCircle
 10
239.0570606514819
 20
178.1808684490256
 30
0.0
 40
151.499986
100
AcDbArc
 50
90.00003799999999
 51
101.3213539999999
  0
ARC
  5
374
330
1A
100
AcDbEntity
  8
SEIHIN
 62
     3
100
AcDbCircle
 10
239.0570606514819
 20
178.1808684490256
 30
0.0
 40
145.499999
100
AcDbArc
 50
90.00003900000001
 51
100.1876259999999
  0
ARC
  5
375
330
1A
100
AcDbEntity
  8
SEIHIN
 62
     3
100
AcDbCircle
 10
239.0570606514819
 20
178.1808684490256
 30
0.0
 40
143.500005
100
AcDbArc
 50
90.00004000000002
 51
99.830973
  0
ARC
  5
376
330
1A
100
AcDbEntity
  8
SEIHIN
 62
     3
100
AcDbCircle
 10
203.0044606514816
 20
308.7214784490257
 30
0.0
 40
0.499958
100
AcDbArc
 50
115.8013579999999
 51
184.0945979999999
  0
ARC
  5
377
330
1A
100
AcDbEntity
  8
SEIHIN
 62
     3
100
AcDbCircle
 10
190.5980606514818
 20
334.3794784490256
 30
0.0
 40
19.99999899999999
100
AcDbArc
 50
281.222231
 51
336.6145299999999
  0
ARC
  5
378
330
1A
100
AcDbEntity
  8
SEIHIN
 62
     3
100
AcDbCircle
 10
190.5980606514818
 20
334.3794784490256
 30
0.0
 40
26.000028
100
AcDbArc
 50
292.9008689999999
 51
329.4125119999999
  0
LINE
  5
379
330
1A
100
AcDbEntity
  8
SEIHIN
 62
     3
100
AcDbLine
 10
200.3858606514818
 20
310.2920784490255
 30
0.0
 11
194.0571606514818
 21
314.6808784490256
 31
0.0
  0
ARC
  5
37A
330
1A
100
AcDbEntity
  8
SEIHIN
 62
     3
100
AcDbCircle
 10
200.9103606514818
 20
309.9681784490256
 30
0.0
 40
0.500045
100
AcDbArc
 50
112.9036879999999
 51
184.082352
  0
ARC
  5
37B
330
1A
100
AcDbEntity
  8
SEIHIN
 62
     3
100
AcDbCircle
 10
194.5876606514817
 20
314.2713784490256
 30
0.0
 40
0.4999640000000001
100
AcDbArc
 50
101.2222799999999
 51
184.083167
  0
ARC
  5
37C
330
1A
100
AcDbEntity
  8
SEIHIN
 62
     3
100
AcDbCircle
 10
190.5980606514818
 20
334.3794784490256
 30
0.0
 40
28.00002199999999
100
AcDbArc
 50
295.80502
 51
327.536357
  0
LINE
  5
37D
330
1A
100
AcDbEntity
  8
SEIHIN
 62
     3
100
AcDbLine
 10
213.0954606514817
 20
321.3459784490256
 30
0.0
 11
209.0570606514818
 21
326.6809784490256
 31
0.0
  0
ARC
  5
37E
330
1A
100
AcDbEntity
  8
SEIHIN
 62
     3
100
AcDbCircle
 10
213.4107606514817
 20
320.8948784490256
 30
0.0
 40
0.5000220000000001
100
AcDbArc
 50
100.195177
 51
149.419428
  0
ARC
  5
37F
330
1A
100
AcDbEntity
  8
SEIHIN
 62
     3
100
AcDbCircle
 10
214.6444606514817
 20
319.0816784490256
 30
0.0
 40
0.499942
100
AcDbArc
 50
99.824078
 51
147.530566
  0
ARC
  5
380
330
1A
100
AcDbEntity
  8
SEIHIN
 62
     3
100
AcDbCircle
 10
209.4141606514818
 20
326.2427784490256
 30
0.0
 40
0.4999950000000001
100
AcDbArc
 50
101.325663
 51
156.619328
  0
LINE
  5
381
330
1A
100
AcDbEntity
  8
SEIHIN
 62
     3
100
AcDbLine
 10
265.0186606514817
 20
321.3459784490256
 30
0.0
 11
269.0570606514818
 21
326.6808784490256
 31
0.0
  0
ARC
  5
382
330
1A
100
AcDbEntity
  8
SEIHIN
 62
     3
100
AcDbCircle
 10
287.5159606514817
 20
334.3793784490256
 30
0.0
 40
19.99997
100
AcDbArc
 50
203.385207
 51
258.77805
  0
ARC
  5
383
330
1A
100
AcDbEntity
  8
SEIHIN
 62
     3
100
AcDbCircle
 10
287.5159606514817
 20
334.3793784490256
 30
0.0
 40
25.999957
100
AcDbArc
 50
210.5872989999999
 51
247.099045
  0
ARC
  5
384
330
1A
100
AcDbEntity
  8
SEIHIN
 62
     3
100
AcDbCircle
 10
287.5159606514817
 20
334.3793784490256
 30
0.0
 40
27.99995
100
AcDbArc
 50
212.463471
 51
244.194891
  0
ARC
  5
385
330
1A
100
AcDbEntity
  8
SEIHIN
 62
     3
100
AcDbCircle
 10
239.0569606514816
 20
178.1808684490256
 30
0.0
 40
151.499986
100
AcDbArc
 50
78.678646
 51
89.999924
  0
ARC
  5
386
330
1A
100
AcDbEntity
  8
SEIHIN
 62
     3
100
AcDbCircle
 10
239.0569606514816
 20
178.1808684490256
 30
0.0
 40
145.500008
100
AcDbArc
 50
79.812335
 51
89.999921
  0
ARC
  5
387
330
1A
100
AcDbEntity
  8
SEIHIN
 62
     3
100
AcDbCircle
 10
239.0569606514816
 20
178.1808684490256
 30
0.0
 40
143.500011
100
AcDbArc
 50
80.17040599999999
 51
89.99991999999998
  0
ARC
  5
388
330
1A
100
AcDbEntity
  8
SEIHIN
 62
     3
100
AcDbCircle
 10
264.7033606514817
 20
320.8948784490256
 30
0.0
 40
0.499979
100
AcDbArc
 50
30.586402
 51
79.804823
  0
ARC
  5
389
330
1A
100
AcDbEntity
  8
SEIHIN
 62
     3
100
AcDbCircle
 10
263.4696606514817
 20
319.0816784490256
 30
0.0
 40
0.499942
100
AcDbArc
 50
32.469434
 51
80.17592200000001
  0
LINE
  5
38A
330
1A
100
AcDbEntity
  8
SEIHIN
 62
     3
100
AcDbLine
 10
277.7282606514818
 20
310.2920784490255
 30
0.0
 11
284.0569606514817
 21
314.6807784490257
 31
0.0
  0
ARC
  5
38B
330
1A
100
AcDbEntity
  8
SEIHIN
 62
     3
100
AcDbCircle
 10
275.1096606514818
 20
308.7213784490256
 30
0.0
 40
0.5000210000000001
100
AcDbArc
 50
355.9168329999999
 51
64.193314
  0
ARC
  5
38C
330
1A
100
AcDbEntity
  8
SEIHIN
 62
     3
100
AcDbCircle
 10
277.2038606514818
 20
309.9681784490256
 30
0.0
 40
0.4999760000000001
100
AcDbArc
 50
355.9168329999999
 51
67.10686800000001
  0
ARC
  5
38D
330
1A
100
AcDbEntity
  8
SEIHIN
 62
     3
100
AcDbCircle
 10
283.5264606514818
 20
314.2713784490256
 30
0.0
 40
0.4999640000000001
100
AcDbArc
 50
355.9168329999999
 51
78.77772
  0
ARC
  5
38E
330
1A
100
AcDbEntity
  8
SEIHIN
 62
     3
100
AcDbCircle
 10
268.6999606514817
 20
326.2426784490256
 30
0.0
 40
0.5000140000000001
100
AcDbArc
 50
23.391191
 51
78.67433699999999
  0
LINE
  5
38F
330
1A
100
AcDbEntity
  8
SEIHIN
 62
     3
100
AcDbLine
 10
315.6203606514817
 20
331.1809784490256
 30
0.0
 11
317.1812606514818
 21
346.2221784490256
 31
0.0
  0
LINE
  5
390
330
1A
100
AcDbEntity
  8
SEIHIN
 62
     3
100
AcDbLine
 10
315.9628606514816
 20
334.4808784490256
 30
0.0
 11
312.9467606514818
 21
334.4808784490256
 31
0.0
  0
LINE
  5
391
330
1A
100
AcDbEntity
  8
SEIHIN
 62
     3
100
AcDbLine
 10
315.6203606514817
 20
331.1809784490256
 30
0.0
 11
312.6042606514818
 21
331.1809784490256
 31
0.0
  0
LINE
  5
392
330
1A
100
AcDbEntity
  8
SEIHIN
 62
     3
100
AcDbLine
 10
325.0051606514817
 20
364.7391784490256
 30
0.0
 11
323.0941606514816
 21
348.4962784490256
 31
0.0
  0
LINE
  5
393
330
1A
100
AcDbEntity
  8
SEIHIN
 62
     3
100
AcDbLine
 10
322.7557606514817
 20
348.0802784490256
 30
0.0
 11
314.0570606514819
 21
345.1806784490257
 31
0.0
  0
ARC
  5
394
330
1A
100
AcDbEntity
  8
SEIHIN
 62
     3
100
AcDbCircle
 10
322.5975606514817
 20
348.5546784490256
 30
0.0
 40
0.4999890000000001
100
AcDbArc
 50
288.434949
 51
353.292841
  0
ARC
  5
395
330
1A
100
AcDbEntity
  8
SEIHIN
 62
     3
100
AcDbCircle
 10
325.5016606514816
 20
364.6807784490257
 30
0.0
 40
0.499961
100
AcDbArc
 50
90.0
 51
173.291502
  0
LINE
  5
396
330
1A
100
AcDbEntity
  8
SEIHIN
 62
     3
100
AcDbLine
 10
327.0571606514818
 20
370.1806784490257
 30
0.0
 11
326.6021606514817
 21
365.6309784490257
 31
0.0
  0
ARC
  5
397
330
1A
100
AcDbEntity
  8
SEIHIN
 62
     3
100
AcDbCircle
 10
326.1046606514817
 20
365.6807784490256
 30
0.0
 40
0.499993
100
AcDbArc
 50
270.0
 51
354.283706
  0
LINE
  5
398
330
1A
100
AcDbEntity
  8
CENTER_L
 62
     1
 48
5.0
100
AcDbLine
 10
547.0570606514816
 20
271.2189784490256
 30
0.0
 11
547.0570606514816
 21
324.8251784490256
 31
0.0
  0
ARC
  5
399
330
1A
100
AcDbEntity
  8
SEIHIN
 62
     3
100
AcDbCircle
 10
555.3486606514818
 20
339.4809784490257
 30
0.0
 40
43.00001599999999
100
AcDbArc
 50
270.0
 51
352.161903
  0
ARC
  5
39A
330
1A
100
AcDbEntity
  8
NOKITOI
  6
PHANTOM
 62
     8
 48
3.5
100
AcDbCircle
 10
555.4434606514822
 20
339.4808784490255
 30
0.0
 40
43.00002
100
AcDbArc
 50
270.0
 51
353.474979
  0
ARC
  5
39B
330
1A
100
AcDbEntity
  8
NOKITOI
  6
PHANTOM
 62
     8
 48
3.5
100
AcDbCircle
 10
555.4434606514822
 20
339.4808784490255
 30
0.0
 40
41.800002
100
AcDbArc
 50
270.0
 51
355.525423
  0
LINE
  5
39C
330
1A
100
AcDbEntity
  8
SEIHIN
 62
     3
100
AcDbLine
 10
487.5141606514817
 20
286.7585784490255
 30
0.0
 11
481.8312606514817
 21
327.4599784490256
 31
0.0
  0
LINE
  5
39D
330
1A
100
AcDbEntity
  8
SEIHIN
 62
     3
100
AcDbLine
 10
478.5141606514817
 20
286.7586784490256
 30
0.0
 11
470.3999606514817
 21
344.8734784490256
 31
0.0
  0
LINE
  5
39E
330
1A
100
AcDbEntity
  8
SEIHIN
 62
     3
100
AcDbLine
 10
610.6031606514816
 20
329.4526784490256
 30
0.0
 11
602.2715606514816
 21
221.9487784490255
 31
0.0
  0
DIMENSION
  5
39F
330
1A
100
AcDbEntity
  8
SUNPOU
100
AcDbDimension
  2
*D7
 10
590.0571364173585
 20
146.9694171947106
 30
0.0
 11
555.0569985344201
 21
151.9694171947106
 31
0.0
 70
    32
  3
STANDARD
100
AcDbAlignedDimension
 13
520.0568606514816
 23
181.7806984490256
 33
0.0
 14
590.0571364173585
 24
181.7805830884105
 34
0.0
100
AcDbRotatedDimension
1001
ACAD
1000
DSTYLE
1002
{
1070
   140
1040
6.0
1070
    74
1070
     0
1070
   172
1070
     1
1070
    73
1070
     0
1070
   272
1070
     2
1070
    77
1070
     3
1070
   173
1070
     1
1070
   147
1040
2.0
1070
    42
1040
6.0
1070
    44
1040
3.0
1070
    43
1040
14.0
1070
   271
1070
     0
1070
   178
1070
     4
1070
   177
1070
     4
1070
   176
1070
     4
1070
   141
1040
150.0
1070
     7
1000
_OPEN
1070
     6
1000
_OPEN
1070
    41
1040
7.0
1002
}
  0
DIMENSION
  5
3A0
330
1A
100
AcDbEntity
  8
SUNPOU
100
AcDbDimension
  2
*D8
 10
555.0570606514816
 20
263.5052263110939
 30
0.0
 11
573.0570606514816
 21
268.5052263110939
 31
0.0
 12
12.47811990566833
 22
-23.80215031639886
 32
0.0
 70
    32
  3
STANDARD
100
AcDbAlignedDimension
 13
547.0570606514816
 23
271.2189784490256
 33
0.0
 14
555.0570606514816
 24
254.1311784490255
 34
0.0
100
AcDbRotatedDimension
1001
ACAD
1000
DSTYLE
1002
{
1070
   140
1040
6.0
1070
    74
1070
     0
1070
   172
1070
     1
1070
    73
1070
     0
1070
   272
1070
     2
1070
    77
1070
     3
1070
   173
1070
     1
1070
   147
1040
2.0
1070
    42
1040
6.0
1070
    44
1040
3.0
1070
    43
1040
14.0
1070
   271
1070
     0
1070
   178
1070
     4
1070
   177
1070
     4
1070
   176
1070
     4
1070
   141
1040
150.0
1070
     7
1000
_OPEN
1070
     6
1000
_OPEN
1070
    41
1040
7.0
1002
}
  0
LINE
  5
3A1
330
1A
100
AcDbEntity
  8
SEIHIN
 62
     3
100
AcDbLine
 10
584.2571606514818
 20
175.7807184490256
 30
0.0
 11
555.0571606514818
 21
175.7808684490257
 31
0.0
  0
LINE
  5
3A2
330
1A
100
AcDbEntity
  8
SEIHIN
 62
     3
100
AcDbLine
 10
555.0571606514818
 20
181.7808884490256
 30
0.0
 11
590.0571606514815
 21
181.7806584490256
 31
0.0
  0
LINE
  5
3A3
330
1A
100
AcDbEntity
  8
SEIHIN
 62
     3
100
AcDbLine
 10
599.2805606514816
 20
219.1805784490255
 30
0.0
 11
510.4328606514816
 21
219.1805784490255
 31
0.0
  0
LINE
  5
3A4
330
1A
100
AcDbEntity
  8
SEIHIN
 62
     3
100
AcDbLine
 10
603.6070606514818
 20
239.1805784490255
 30
0.0
 11
501.0569606514817
 21
239.1805784490255
 31
0.0
  0
LINE
  5
3A5
330
1A
100
AcDbEntity
  8
SEIHIN
 62
     3
100
AcDbLine
 10
603.2195606514817
 20
234.1805784490255
 30
0.0
 11
501.0569606514817
 21
234.1805784490255
 31
0.0
  0
LINE
  5
3A6
330
1A
100
AcDbEntity
  8
CENTER_L
 62
     1
 48
5.0
100
AcDbLine
 10
555.0570606514816
 20
254.1311784490255
 30
0.0
 11
555.0569606514819
 21
169.0926384490255
 31
0.0
  0
LINE
  5
3A7
330
1A
100
AcDbEntity
  8
SEIHIN
 62
     3
100
AcDbLine
 10
518.2511606514817
 20
195.7952784490256
 30
0.0
 11
516.9066606514816
 21
219.1806784490256
 31
0.0
  0
LINE
  5
3A8
330
1A
100
AcDbEntity
  8
SEIHIN
 62
     3
100
AcDbLine
 10
525.8568606514816
 20
175.7807184490256
 30
0.0
 11
555.0568606514816
 21
175.7808384490256
 31
0.0
  0
LINE
  5
3A9
330
1A
100
AcDbEntity
  8
SEIHIN
 62
     3
100
AcDbLine
 10
555.0568606514816
 20
181.7808884490256
 30
0.0
 11
520.0568606514816
 21
181.7806984490256
 31
0.0
  0
ARC
  5
3AA
330
1A
100
AcDbEntity
  8
SEIHIN
 62
     3
100
AcDbCircle
 10
618.0863606514817
 20
201.5349784490256
 30
0.0
 40
99.999997
100
AcDbArc
 50
183.290298
 51
191.3932349999999
  0
LINE
  5
3AB
330
1A
100
AcDbEntity
  8
SEIHIN
 62
     3
100
AcDbLine
 10
525.8569606514818
 20
175.7807184490256
 30
0.0
 11
525.8570606514817
 21
181.7809584490256
 31
0.0
  0
ARC
  5
3AC
330
1A
100
AcDbEntity
  8
SEIHIN
 62
     3
100
AcDbCircle
 10
512.7103606514817
 20
266.8247784490257
 30
0.0
 40
29.999987
100
AcDbArc
 50
193.1483749999999
 51
246.517228
  0
ARC
  5
3AD
330
1A
100
AcDbEntity
  8
SEIHIN
 62
     3
100
AcDbCircle
 10
521.7103606514817
 20
266.8247784490257
 30
0.0
 40
29.999987
100
AcDbArc
 50
193.1483749999999
 51
246.517228
  0
ARC
  5
3AE
330
1A
100
AcDbEntity
  8
SEIHIN
 62
     3
100
AcDbCircle
 10
775.6319606514816
 20
328.2430784490256
 30
0.0
 40
299.999974
100
AcDbArc
 50
187.94835
 51
193.153717
  0
ARC
  5
3AF
330
1A
100
AcDbEntity
  8
SEIHIN
 62
     3
100
AcDbCircle
 10
784.6319606514817
 20
328.2430784490256
 30
0.0
 40
299.999947
100
AcDbArc
 50
187.94835
 51
193.148384
  0
ARC
  5
3B0
330
1A
100
AcDbEntity
  8
SEIHIN
 62
     3
100
AcDbCircle
 10
510.4328606514816
 20
222.1805784490256
 30
0.0
 40
2.999952
100
AcDbArc
 50
195.072531
 51
270.0
  0
ARC
  5
3B1
330
1A
100
AcDbEntity
  8
SEIHIN
 62
     3
100
AcDbCircle
 10
519.4328606514816
 20
222.1805784490256
 30
0.0
 40
2.999952
100
AcDbArc
 50
195.072531
 51
270.0
  0
ARC
  5
3B2
330
1A
100
AcDbEntity
  8
SEIHIN
 62
     3
100
AcDbCircle
 10
482.7400606514818
 20
212.2993784490256
 30
0.0
 40
35.000023
100
AcDbArc
 50
15.071929
 51
37.07822500000001
  0
ARC
  5
3B3
330
1A
100
AcDbEntity
  8
SEIHIN
 62
     3
100
AcDbCircle
 10
473.7400606514818
 20
212.2993784490256
 30
0.0
 40
35.000023
100
AcDbArc
 50
15.071929
 51
37.07822500000001
  0
ARC
  5
3B4
330
1A
100
AcDbEntity
  8
SEIHIN
 62
     3
100
AcDbCircle
 10
500.5569606514817
 20
238.8506784490256
 30
0.0
 40
0.5000170000000001
100
AcDbArc
 50
0.0
 51
66.51102900000001
  0
ARC
  5
3B5
330
1A
100
AcDbEntity
  8
SEIHIN
 62
     3
100
AcDbCircle
 10
504.0569606514816
 20
235.2097784490256
 30
0.0
 40
2.999979999999999
100
AcDbArc
 50
180.0
 51
217.078458
  0
LINE
  5
3B6
330
1A
100
AcDbEntity
  8
SEIHIN
 62
     3
100
AcDbLine
 10
501.0569606514817
 20
238.8506784490256
 30
0.0
 11
501.0569606514817
 21
235.2097784490256
 31
0.0
  0
ARC
  5
3B7
330
1A
100
AcDbEntity
  8
SEIHIN
 62
     3
100
AcDbCircle
 10
509.5569606514817
 20
238.8506784490256
 30
0.0
 40
0.5000170000000001
100
AcDbArc
 50
0.0
 51
66.51102900000001
  0
ARC
  5
3B8
330
1A
100
AcDbEntity
  8
SEIHIN
 62
     3
100
AcDbCircle
 10
513.0569606514816
 20
235.2097784490256
 30
0.0
 40
2.999979999999999
100
AcDbArc
 50
180.0
 51
217.078458
  0
LINE
  5
3B9
330
1A
100
AcDbEntity
  8
SEIHIN
 62
     3
100
AcDbLine
 10
510.0569606514817
 20
238.8506784490256
 30
0.0
 11
510.0569606514817
 21
235.2097784490256
 31
0.0
  0
DIMENSION
  5
3BA
330
1A
100
AcDbEntity
  8
SUNPOU
100
AcDbDimension
  2
*D9
 10
636.9437778628742
 20
181.7806584490256
 30
0.0
 11
631.9437778628741
 21
155.6806584490256
 31
0.0
 12
12.47811990566833
 22
-23.80215031639886
 32
0.0
 70
    32
  1
※b<>
  3
STANDARD
100
AcDbAlignedDimension
 13
590.0572263657672
 23
191.7806584488097
 33
0.0
 14
590.0571606514815
 24
181.7806584490256
 34
0.0
 50
90.0
100
AcDbRotatedDimension
1001
ACAD
1000
DSTYLE
1002
{
1070
   140
1040
6.0
1070
    74
1070
     0
1070
   172
1070
     1
1070
    73
1070
     0
1070
   272
1070
     2
1070
    77
1070
     3
1070
   173
1070
     1
1070
   147
1040
2.0
1070
    42
1040
6.0
1070
    44
1040
3.0
1070
    43
1040
14.0
1070
   271
1070
     0
1070
   178
1070
     4
1070
   177
1070
     4
1070
   176
1070
     4
1070
   141
1040
150.0
1070
     7
1000
_OPEN
1070
     6
1000
_OPEN
1070
    41
1040
7.0
1002
}
  0
LINE
  5
3BB
330
1A
100
AcDbEntity
  8
SEIHIN
 62
     3
100
AcDbLine
 10
591.8628606514817
 20
195.7952784490256
 30
0.0
 11
593.2073606514818
 21
219.1806784490256
 31
0.0
  0
ARC
  5
3BC
330
1A
100
AcDbEntity
  8
SEIHIN
 62
     3
100
AcDbCircle
 10
492.0277606514817
 20
201.5350784490256
 30
0.0
 40
99.999993
100
AcDbArc
 50
348.606568
 51
356.70947
  0
LINE
  5
3BD
330
1A
100
AcDbEntity
  8
SEIHIN
 62
     3
100
AcDbLine
 10
584.2569606514817
 20
175.7807184490256
 30
0.0
 11
584.2569606514817
 21
181.7809584490256
 31
0.0
  0
ARC
  5
3BE
330
1A
100
AcDbEntity
  8
SEIHIN
 62
     3
100
AcDbCircle
 10
599.2805606514816
 20
222.1805784490256
 30
0.0
 40
2.999983999999999
100
AcDbArc
 50
270.0
 51
355.568483
  0
DIMENSION
  5
3BF
330
1A
100
AcDbEntity
  8
SUNPOU
100
AcDbDimension
  2
*D10
 10
647.7728376305273
 20
296.4808784490256
 30
0.0
 11
642.7728376305274
 21
328.3307784490256
 31
0.0
 70
    32
  3
STANDARD
100
AcDbAlignedDimension
 13
613.5570606514816
 23
360.1806784490257
 33
0.0
 14
555.3486606514818
 24
296.4808784490256
 34
0.0
 50
90.0
100
AcDbRotatedDimension
1001
ACAD
1000
DSTYLE
1002
{
1070
   140
1040
6.0
1070
    74
1070
     0
1070
   172
1070
     1
1070
    73
1070
     0
1070
   272
1070
     2
1070
    77
1070
     3
1070
   173
1070
     1
1070
   147
1040
2.0
1070
    42
1040
6.0
1070
    44
1040
3.0
1070
    43
1040
14.0
1070
   271
1070
     0
1070
   178
1070
     4
1070
   177
1070
     4
1070
   176
1070
     4
1070
   141
1040
150.0
1070
     7
1000
_OPEN
1070
     6
1000
_OPEN
1070
    41
1040
7.0
1002
}
  0
DIMENSION
  5
3C0
330
1A
100
AcDbEntity
  8
SUNPOU
100
AcDbDimension
  2
*D11
 10
457.3571606514818
 20
418.0137509859006
 30
0.0
 11
535.4571106514817
 21
423.0137509859006
 31
0.0
 12
12.47811990566833
 22
-23.80215031639886
 32
0.0
 70
    32
  3
STANDARD
100
AcDbAlignedDimension
 13
613.5570606514816
 23
360.1806784490257
 33
0.0
 14
457.3571606514818
 24
370.1806784490257
 34
0.0
100
AcDbRotatedDimension
1001
ACAD
1000
DSTYLE
1002
{
1070
   140
1040
6.0
1070
    74
1070
     0
1070
   172
1070
     1
1070
    73
1070
     0
1070
   272
1070
     2
1070
    77
1070
     3
1070
   173
1070
     1
1070
   147
1040
2.0
1070
    42
1040
6.0
1070
    44
1040
3.0
1070
    43
1040
14.0
1070
   271
1070
     0
1070
   178
1070
     4
1070
   177
1070
     4
1070
   176
1070
     4
1070
   141
1040
150.0
1070
     7
1000
_OPEN
1070
     6
1000
_OPEN
1070
    41
1040
7.0
1002
}
  0
DIMENSION
  5
3C1
330
1A
100
AcDbEntity
  8
SUNPOU
100
AcDbDimension
  2
*D12
 10
547.0570606514816
 20
396.7630274094234
 30
0.0
 11
580.3070606514816
 21
401.7630274094234
 31
0.0
 12
12.47811990566833
 22
-23.80215031639886
 32
0.0
 70
    32
  3
STANDARD
100
AcDbAlignedDimension
 13
613.5570606514816
 23
360.1806784490257
 33
0.0
 14
547.0570606514816
 24
324.8251784490256
 34
0.0
100
AcDbRotatedDimension
1001
ACAD
1000
DSTYLE
1002
{
1070
   140
1040
6.0
1070
    74
1070
     0
1070
   172
1070
     1
1070
    73
1070
     0
1070
   272
1070
     2
1070
    77
1070
     3
1070
   173
1070
     1
1070
   147
1040
2.0
1070
    42
1040
6.0
1070
    44
1040
3.0
1070
    43
1040
14.0
1070
   271
1070
     0
1070
   178
1070
     4
1070
   177
1070
     4
1070
   176
1070
     4
1070
   141
1040
150.0
1070
     7
1000
_OPEN
1070
     6
1000
_OPEN
1070
    41
1040
7.0
1002
}
  0
ARC
  5
3C4
330
1A
100
AcDbEntity
  8
SEIHIN
 62
     3
100
AcDbCircle
 10
497.2561606514816
 20
365.1806784490257
 30
0.0
 40
5.000002999999999
100
AcDbArc
 50
26.38619899999999
 51
90.0
  0
LINE
  5
3C5
330
1A
100
AcDbEntity
  8
CENTER_L
 62
     1
 48
5.0
100
AcDbLine
 10
501.3570606514819
 20
358.6806784490257
 30
0.0
 11
489.3570606514819
 21
358.6806784490257
 31
0.0
  0
LINE
  5
3C6
330
1A
100
AcDbEntity
  8
SEIHIN
 62
     3
100
AcDbLine
 10
502.8376606514817
 20
365.1806784490257
 30
0.0
 11
458.3095606514817
 21
365.1806784490257
 31
0.0
  0
LINE
  5
3C7
330
1A
100
AcDbEntity
  8
SEIHIN
 62
     3
100
AcDbLine
 10
498.5157606514817
 20
305.8931784490257
 30
0.0
 11
495.7473606514819
 21
333.5804784490256
 31
0.0
  0
LINE
  5
3C8
330
1A
100
AcDbEntity
  8
NOKITOI
  6
PHANTOM
 62
     8
 48
3.5
100
AcDbLine
 10
496.347160651482
 20
334.5805784490254
 30
0.0
 11
499.2157606514821
 21
305.8930784490255
 31
0.0
  0
LINE
  5
3C9
330
1A
100
AcDbEntity
  8
NOKITOI
  6
PHANTOM
 62
     8
 48
3.5
100
AcDbLine
 10
497.388060651482
 20
336.2308784490255
 30
0.0
 11
500.380960651482
 21
306.3010784490255
 31
0.0
  0
ARC
  5
3CA
330
1A
100
AcDbEntity
  8
SEIHIN
 62
     3
100
AcDbCircle
 10
495.3570606514818
 20
360.1021784490256
 30
0.0
 40
9.999972999999998
100
AcDbArc
 50
262.818627
 51
0.0
  0
ARC
  5
3CB
330
1A
100
AcDbEntity
  8
NOKITOI
  6
PHANTOM
 62
     8
 48
3.5
100
AcDbCircle
 10
490.8586606514821
 20
338.6810784490255
 30
0.0
 40
1.999988
100
AcDbArc
 50
181.790805
 51
270.0
  0
LINE
  5
3CC
330
1A
100
AcDbEntity
  8
SEIHIN
 62
     3
100
AcDbLine
 10
487.5020606514818
 20
336.4241784490256
 30
0.0
 11
487.1151606514819
 21
350.1241784490257
 31
0.0
  0
ARC
  5
3CD
330
1A
100
AcDbEntity
  8
SEIHIN
 62
     3
100
AcDbCircle
 10
457.0714606514816
 20
324.0029784490256
 30
0.0
 40
25.000007
100
AcDbArc
 50
7.948339
 51
57.89834200000001
  0
LINE
  5
3CE
330
1A
100
AcDbEntity
  8
NOKITOI
  6
PHANTOM
 62
     8
 48
3.5
100
AcDbLine
 10
487.3215606514821
 20
349.4186784490255
 30
0.0
 11
487.7117606514819
 21
336.9342784490256
 31
0.0
  0
LINE
  5
3CF
330
1A
100
AcDbEntity
  8
SEIHIN
 62
     3
100
AcDbLine
 10
495.1763606514817
 20
334.4805784490257
 30
0.0
 11
489.5012606514818
 21
334.4805784490257
 31
0.0
  0
LINE
  5
3D0
330
1A
100
AcDbEntity
  8
NOKITOI
  6
PHANTOM
 62
     8
 48
3.5
100
AcDbLine
 10
489.2109606514821
 20
335.4809784490254
 30
0.0
 11
495.3520606514819
 21
335.4810784490255
 31
0.0
  0
ARC
  5
3D1
330
1A
100
AcDbEntity
  8
SEIHIN
 62
     3
100
AcDbCircle
 10
489.5012606514818
 20
336.4805784490257
 30
0.0
 40
1.999997999999999
100
AcDbArc
 50
181.615959
 51
270.0
  0
ARC
  5
3D2
330
1A
100
AcDbEntity
  8
NOKITOI
  6
PHANTOM
 62
     8
 48
3.5
100
AcDbCircle
 10
489.2109606514821
 20
336.9809784490255
 30
0.0
 40
1.499964999999999
100
AcDbArc
 50
181.788002
 51
270.0
  0
ARC
  5
3D3
330
1A
100
AcDbEntity
  8
NOKITOI
  6
PHANTOM
 62
     8
 48
3.5
100
AcDbCircle
 10
496.890560651482
 20
336.1810784490255
 30
0.0
 40
0.499988
100
AcDbArc
 50
5.704892
 51
90.0
  0
ARC
  5
3D4
330
1A
100
AcDbEntity
  8
NOKITOI
  6
PHANTOM
 62
     8
 48
3.5
100
AcDbCircle
 10
495.3520606514819
 20
334.4810784490255
 30
0.0
 40
1.000030999999999
100
AcDbArc
 50
5.710023
 51
90.0
  0
LINE
  5
3D5
330
1A
100
AcDbEntity
  8
NOKITOI
  6
PHANTOM
 62
     8
 48
3.5
100
AcDbLine
 10
496.890560651482
 20
336.6810784490255
 30
0.0
 11
490.8586606514821
 21
336.6810784490255
 31
0.0
  0
LINE
  5
3D6
330
1A
100
AcDbEntity
  8
SEIHIN
 62
     3
100
AcDbLine
 10
497.2561606514816
 20
370.1806784490257
 30
0.0
 11
457.3571606514818
 21
370.1806784490257
 31
0.0
  0
LINE
  5
3D7
330
1A
100
AcDbEntity
  8
SEIHIN
 62
     3
100
AcDbLine
 10
461.6584606514816
 20
348.0801784490257
 30
0.0
 11
470.0628606514817
 21
345.2786784490256
 31
0.0
  0
LINE
  5
3D8
330
1A
100
AcDbEntity
  8
SEIHIN
 62
     3
100
AcDbLine
 10
487.1699606514817
 20
348.1806784490257
 30
0.0
 11
461.3570606514818
 21
348.1806784490257
 31
0.0
  0
LINE
  5
3D9
330
1A
100
AcDbEntity
  8
SEIHIN
 62
     3
100
AcDbLine
 10
459.4089606514818
 20
364.7390784490255
 30
0.0
 11
461.3199606514818
 21
348.4960784490256
 31
0.0
  0
ARC
  5
3DA
330
1A
100
AcDbEntity
  8
SEIHIN
 62
     3
100
AcDbCircle
 10
461.8165606514818
 20
348.5545784490256
 30
0.0
 40
0.500042
100
AcDbArc
 50
186.7185389999999
 51
251.5686749999999
  0
ARC
  5
3DB
330
1A
100
AcDbEntity
  8
SEIHIN
 62
     3
100
AcDbCircle
 10
461.8165606514818
 20
348.5544784490256
 30
0.0
 40
0.4999890000000001
100
AcDbArc
 50
186.707159
 51
251.5650509999999
  0
LINE
  5
3DC
330
1A
100
AcDbEntity
  8
SEIHIN
 62
     3
100
AcDbLine
 10
457.3571606514818
 20
370.1806784490257
 30
0.0
 11
457.8120606514818
 21
365.6308784490257
 31
0.0
  0
ARC
  5
3DD
330
1A
100
AcDbEntity
  8
SEIHIN
 62
     3
100
AcDbCircle
 10
458.9124606514817
 20
364.6806784490257
 30
0.0
 40
0.500011
100
AcDbArc
 50
6.707159
 51
90.0
  0
ARC
  5
3DE
330
1A
100
AcDbEntity
  8
SEIHIN
 62
     3
100
AcDbCircle
 10
458.3095606514817
 20
365.6806784490257
 30
0.0
 40
0.499993
100
AcDbArc
 50
185.716294
 51
270.0
  0
LINE
  5
3DF
330
1A
100
AcDbEntity
  8
CENTER_L
 62
     1
 48
5.0
100
AcDbLine
 10
495.3570606514818
 20
364.6806784490257
 30
0.0
 11
495.3570606514818
 21
352.6806784490257
 31
0.0
  0
LINE
  5
3E0
330
1A
100
AcDbEntity
  8
SEIHIN
 62
     3
100
AcDbLine
 10
487.2547606514818
 20
345.1806784490257
 30
0.0
 11
470.3570606514818
 21
345.1806784490257
 31
0.0
  0
ARC
  5
3E1
330
1A
100
AcDbEntity
  8
SEIHIN
 62
     3
100
AcDbCircle
 10
469.9047606514817
 20
344.8043784490256
 30
0.0
 40
0.4999770000000001
100
AcDbArc
 50
7.943736
 51
71.565051
  0
LINE
  5
3E2
330
1A
100
AcDbEntity
  8
NOKITOI
  6
PHANTOM
 62
     8
 48
3.5
100
AcDbLine
 10
488.5209606514821
 20
349.4560784490256
 30
0.0
 11
488.6703606514821
 21
344.6771784490255
 31
0.0
  0
LINE
  5
3E3
330
1A
100
AcDbEntity
  8
NOKITOI
  6
PHANTOM
 62
     8
 48
3.5
100
AcDbLine
 10
491.7933606514819
 20
350.2810784490256
 30
0.0
 11
491.2933606514819
 21
347.7810784490256
 31
0.0
  0
ARC
  5
3E4
330
1A
100
AcDbEntity
  8
NOKITOI
  6
PHANTOM
 62
     8
 48
3.5
100
AcDbCircle
 10
495.5985606514821
 20
348.4810784490255
 30
0.0
 40
0.499993
100
AcDbArc
 50
356.996247
 51
90.0
  0
ARC
  5
3E5
330
1A
100
AcDbEntity
  8
NOKITOI
  6
PHANTOM
 62
     8
 48
3.5
100
AcDbCircle
 10
492.772160651482
 20
341.4810784490255
 30
0.0
 40
5.199961
100
AcDbArc
 50
90.0
 51
142.075344
  0
ARC
  5
3E6
330
1A
100
AcDbEntity
  8
NOKITOI
  6
PHANTOM
 62
     8
 48
3.5
100
AcDbCircle
 10
492.772160651482
 20
341.4810784490255
 30
0.0
 40
3.999983999999999
100
AcDbArc
 50
96.475278
 51
181.789374
  0
LINE
  5
3E7
330
1A
100
AcDbEntity
  8
NOKITOI
  6
PHANTOM
 62
     8
 48
3.5
100
AcDbLine
 10
488.8596606514821
 20
338.6185784490255
 30
0.0
 11
488.7741606514819
 21
341.3561784490255
 31
0.0
  0
LINE
  5
3E8
330
1A
100
AcDbEntity
  8
NOKITOI
  6
PHANTOM
 62
     8
 48
3.5
100
AcDbLine
 10
494.6186606514818
 20
343.1810784490255
 30
0.0
 11
494.7997606514821
 21
346.6225784490256
 31
0.0
  0
LINE
  5
3E9
330
1A
100
AcDbEntity
  8
NOKITOI
  6
PHANTOM
 62
     8
 48
3.5
100
AcDbLine
 10
494.2447606514821
 20
346.0095784490255
 30
0.0
 11
494.7997606514821
 21
346.6225784490256
 31
0.0
  0
LINE
  5
3EA
330
1A
100
AcDbEntity
  8
NOKITOI
  6
PHANTOM
 62
     8
 48
3.5
100
AcDbLine
 10
495.782060651482
 20
342.4547784490255
 30
0.0
 11
496.0978606514821
 21
348.4548784490255
 31
0.0
  0
LINE
  5
3EB
330
1A
100
AcDbEntity
  8
NOKITOI
  6
PHANTOM
 62
     8
 48
3.5
100
AcDbLine
 10
493.8407606514821
 20
343.1810784490255
 30
0.0
 11
494.2447606514821
 21
346.0094784490256
 31
0.0
  0
ARC
  5
3EC
330
1A
100
AcDbEntity
  8
NOKITOI
  6
PHANTOM
 62
     8
 48
3.5
100
AcDbCircle
 10
492.3774606514819
 20
344.9587784490256
 30
0.0
 40
0.499958
100
AcDbArc
 50
351.8698979999999
 51
96.47686300000001
  0
LINE
  5
3ED
330
1A
100
AcDbEntity
  8
NOKITOI
  6
PHANTOM
 62
     8
 48
3.5
100
AcDbLine
 10
494.6186606514818
 20
343.1810784490255
 30
0.0
 11
493.8407606514821
 21
343.1810784490255
 31
0.0
  0
ARC
  5
3EE
330
1A
100
AcDbEntity
  8
NOKITOI
  6
PHANTOM
 62
     8
 48
3.5
100
AcDbCircle
 10
495.282760651482
 20
342.4810784490255
 30
0.0
 40
0.499993
100
AcDbArc
 50
270.0
 51
356.996247
  0
ARC
  5
3EF
330
1A
100
AcDbEntity
  8
NOKITOI
  6
PHANTOM
 62
     8
 48
3.5
100
AcDbCircle
 10
493.0336606514821
 20
342.4810784490255
 30
0.0
 40
0.500012
100
AcDbArc
 50
171.8715179999999
 51
270.0
  0
LINE
  5
3F0
330
1A
100
AcDbEntity
  8
NOKITOI
  6
PHANTOM
 62
     8
 48
3.5
100
AcDbLine
 10
495.282760651482
 20
341.9809784490254
 30
0.0
 11
493.0336606514821
 21
341.9809784490254
 31
0.0
  0
LINE
  5
3F1
330
1A
100
AcDbEntity
  8
NOKITOI
  6
PHANTOM
 62
     8
 48
3.5
100
AcDbLine
 10
492.5386606514819
 20
342.5517784490255
 30
0.0
 11
492.872460651482
 21
344.8879784490256
 31
0.0
  0
LINE
  5
3F2
330
1A
100
AcDbEntity
  8
NOKITOI
  6
PHANTOM
 62
     8
 48
3.5
100
AcDbLine
 10
491.2933606514819
 20
347.7810784490256
 30
0.0
 11
494.2298606514821
 21
347.7810784490256
 31
0.0
  0
LINE
  5
3F3
330
1A
100
AcDbEntity
  8
NOKITOI
  6
PHANTOM
 62
     8
 48
3.5
100
AcDbLine
 10
493.2341606514819
 20
346.6810784490255
 30
0.0
 11
492.772160651482
 21
346.6810784490255
 31
0.0
  0
LINE
  5
3F4
330
1A
100
AcDbEntity
  8
NOKITOI
  6
PHANTOM
 62
     8
 48
3.5
100
AcDbLine
 10
493.2341606514819
 20
346.6810784490255
 30
0.0
 11
494.2298606514821
 21
347.7810784490256
 31
0.0
  0
LINE
  5
3F5
330
1A
100
AcDbEntity
  8
SEIHIN
 62
     3
100
AcDbLine
 10
494.1069606514818
 20
352.1806784490257
 30
0.0
 11
489.1142606514818
 21
352.1806784490257
 31
0.0
  0
LINE
  5
3F6
330
1A
100
AcDbEntity
  8
NOKITOI
  6
PHANTOM
 62
     8
 48
3.5
100
AcDbLine
 10
489.3206606514821
 20
350.2810784490256
 30
0.0
 11
491.7933606514819
 21
350.2810784490256
 31
0.0
  0
LINE
  5
3F7
330
1A
100
AcDbEntity
  8
NOKITOI
  6
PHANTOM
 62
     8
 48
3.5
100
AcDbLine
 10
489.3206606514821
 20
351.4810784490255
 30
0.0
 11
492.647260651482
 21
351.4810784490255
 31
0.0
  0
ARC
  5
3F8
330
1A
100
AcDbEntity
  8
NOKITOI
  6
PHANTOM
 62
     8
 48
3.5
100
AcDbCircle
 10
489.3206606514821
 20
349.4809784490255
 30
0.0
 40
0.800045
100
AcDbArc
 50
90.0
 51
181.790582
  0
ARC
  5
3F9
330
1A
100
AcDbEntity
  8
SEIHIN
 62
     3
100
AcDbCircle
 10
489.1142606514818
 20
350.1806784490257
 30
0.0
 40
1.999999
100
AcDbArc
 50
90.0
 51
181.6188229999999
  0
ARC
  5
3FA
330
1A
100
AcDbEntity
  8
NOKITOI
  6
PHANTOM
 62
     8
 48
3.5
100
AcDbCircle
 10
489.3206606514821
 20
349.4809784490255
 30
0.0
 40
2.000036999999999
100
AcDbArc
 50
90.0
 51
181.787853
  0
CIRCLE
  5
3FB
330
1A
100
AcDbEntity
  8
SEIHIN
 62
     3
100
AcDbCircle
 10
495.3570606514818
 20
358.6806784490257
 30
0.0
 40
1.0
  0
ARC
  5
3FC
330
1A
100
AcDbEntity
  8
NOKITOI
  6
PHANTOM
 62
     8
 48
3.5
100
AcDbCircle
 10
492.647260651482
 20
350.9810784490255
 30
0.0
 40
0.499999
100
AcDbArc
 50
348.69681
 51
90.0
  0
ARC
  5
3FD
330
1A
100
AcDbEntity
  8
NOKITOI
  6
PHANTOM
 62
     8
 48
3.5
100
AcDbCircle
 10
493.367060651482
 20
349.4810784490255
 30
0.0
 40
0.5000090000000001
100
AcDbArc
 50
168.6855729999999
 51
270.0
  0
LINE
  5
3FE
330
1A
100
AcDbEntity
  8
NOKITOI
  6
PHANTOM
 62
     8
 48
3.5
100
AcDbLine
 10
492.8767606514819
 20
349.5791784490256
 30
0.0
 11
493.1375606514818
 21
350.8830784490255
 31
0.0
  0
LINE
  5
3FF
330
1A
100
AcDbEntity
  8
NOKITOI
  6
PHANTOM
 62
     8
 48
3.5
100
AcDbLine
 10
495.5985606514821
 20
348.9809784490255
 30
0.0
 11
493.367060651482
 21
348.9809784490255
 31
0.0
  0
LINE
  5
400
330
1A
100
AcDbEntity
  8
SEIHIN
 62
     3
100
AcDbLine
 10
494.1069606514818
 20
352.1806784490257
 30
0.0
 11
494.1069606514818
 21
350.1806784490257
 31
0.0
  0
LINE
  5
401
330
1A
100
AcDbEntity
  8
SEIHIN
 62
     3
100
AcDbLine
 10
555.3486606514818
 20
296.4808784490256
 30
0.0
 11
509.9139606514818
 21
296.4809784490256
 31
0.0
  0
LINE
  5
402
330
1A
100
AcDbEntity
  8
NOKITOI
  6
PHANTOM
 62
     8
 48
3.5
100
AcDbLine
 10
510.6139606514819
 20
296.4809784490256
 30
0.0
 11
555.4434606514822
 21
296.4808784490255
 31
0.0
  0
LINE
  5
403
330
1A
100
AcDbEntity
  8
NOKITOI
  6
PHANTOM
 62
     8
 48
3.5
100
AcDbLine
 10
555.4434606514822
 20
297.6808784490255
 30
0.0
 11
510.8638606514819
 21
297.6809784490255
 31
0.0
  0
LINE
  5
404
330
1A
100
AcDbEntity
  8
SEIHIN
 62
     3
100
AcDbLine
 10
509.2807606514816
 20
296.7069784490255
 30
0.0
 11
498.8775606514817
 21
305.2186784490256
 31
0.0
  0
LINE
  5
405
330
1A
100
AcDbEntity
  8
NOKITOI
  6
PHANTOM
 62
     8
 48
3.5
100
AcDbLine
 10
499.5776606514819
 20
305.2186784490255
 30
0.0
 11
509.9807606514819
 21
296.7069784490255
 31
0.0
  0
LINE
  5
406
330
1A
100
AcDbEntity
  8
NOKITOI
  6
PHANTOM
 62
     8
 48
3.5
100
AcDbLine
 10
500.561860651482
 20
305.9637784490254
 30
0.0
 11
510.5472606514821
 21
297.7939784490255
 31
0.0
  0
ARC
  5
407
330
1A
100
AcDbEntity
  8
SEIHIN
 62
     3
100
AcDbCircle
 10
509.9139606514818
 20
297.4809784490255
 30
0.0
 40
1.000005
100
AcDbArc
 50
230.7138179999999
 51
270.0
  0
ARC
  5
408
330
1A
100
AcDbEntity
  8
NOKITOI
  6
PHANTOM
 62
     8
 48
3.5
100
AcDbCircle
 10
510.6139606514819
 20
297.4809784490255
 30
0.0
 40
1.000005
100
AcDbArc
 50
230.7138179999999
 51
270.0
  0
ARC
  5
409
330
1A
100
AcDbEntity
  8
NOKITOI
  6
PHANTOM
 62
     8
 48
3.5
100
AcDbCircle
 10
510.8638606514819
 20
298.1809784490255
 30
0.0
 40
0.5000020000000001
100
AcDbArc
 50
230.7138179999999
 51
270.0
  0
ARC
  5
40A
330
1A
100
AcDbEntity
  8
NOKITOI
  6
PHANTOM
 62
     8
 48
3.5
100
AcDbCircle
 10
500.8785606514819
 20
306.3507784490255
 30
0.0
 40
0.5000770000000001
100
AcDbArc
 50
185.715153
 51
230.7049499999999
  0
ARC
  5
40B
330
1A
100
AcDbEntity
  8
SEIHIN
 62
     3
100
AcDbCircle
 10
499.5108606514817
 20
305.9925784490256
 30
0.0
 40
0.999942
100
AcDbArc
 50
185.704892
 51
230.7101899999999
  0
ARC
  5
40C
330
1A
100
AcDbEntity
  8
NOKITOI
  6
PHANTOM
 62
     8
 48
3.5
100
AcDbCircle
 10
500.2108606514819
 20
305.9925784490255
 30
0.0
 40
0.9999469999999998
100
AcDbArc
 50
185.710593
 51
230.7101899999999
  0
LINE
  5
40D
330
1A
100
AcDbEntity
  8
SEIHIN
 62
     3
100
AcDbLine
 10
505.3570606514818
 20
360.1021784490256
 30
0.0
 11
501.7352606514817
 21
367.4027784490256
 31
0.0
  0
LINE
  5
40E
330
1A
100
AcDbEntity
  8
SEIHIN
 62
     3
100
AcDbLine
 10
607.3986606514818
 20
350.1241784490257
 30
0.0
 11
607.0116606514816
 21
336.4241784490256
 31
0.0
  0
ARC
  5
40F
330
1A
100
AcDbEntity
  8
NOKITOI
  6
PHANTOM
 62
     8
 48
3.5
100
AcDbCircle
 10
603.6554606514816
 20
338.6807784490255
 30
0.0
 40
1.999988
100
AcDbArc
 50
270.0
 51
358.209195
  0
LINE
  5
410
330
1A
100
AcDbEntity
  8
NOKITOI
  6
PHANTOM
 62
     8
 48
3.5
100
AcDbLine
 10
607.1926606514819
 20
349.4182784490255
 30
0.0
 11
606.802460651482
 21
336.9339784490255
 31
0.0
  0
LINE
  5
411
330
1A
100
AcDbEntity
  8
SEIHIN
 62
     3
100
AcDbLine
 10
613.5570606514816
 20
360.1806784490257
 30
0.0
 11
612.7653606514818
 21
332.1523784490256
 31
0.0
  0
ARC
  5
412
330
1A
100
AcDbEntity
  8
SEIHIN
 62
     3
100
AcDbCircle
 10
611.7657606514817
 20
332.1806784490256
 30
0.0
 40
0.9999499999999999
100
AcDbArc
 50
270.0
 51
358.378152
  0
LINE
  5
413
330
1A
100
AcDbEntity
  8
SEIHIN
 62
     3
100
AcDbLine
 10
611.7657606514817
 20
331.1806784490256
 30
0.0
 11
597.5399606514815
 21
331.1806784490256
 31
0.0
  0
LINE
  5
414
330
1A
100
AcDbEntity
  8
SEIHIN
 62
     3
100
AcDbLine
 10
605.0124606514816
 20
334.4805784490257
 30
0.0
 11
598.9375606514818
 21
334.4805784490257
 31
0.0
  0
LINE
  5
415
330
1A
100
AcDbEntity
  8
NOKITOI
  6
PHANTOM
 62
     8
 48
3.5
100
AcDbLine
 10
605.3031606514816
 20
335.4807784490255
 30
0.0
 11
599.1584606514818
 21
335.4808784490255
 31
0.0
  0
ARC
  5
416
330
1A
100
AcDbEntity
  8
SEIHIN
 62
     3
100
AcDbCircle
 10
598.9375606514818
 20
333.4805784490256
 30
0.0
 40
0.9999729999999999
100
AcDbArc
 50
90.0
 51
172.1599959999999
  0
ARC
  5
417
330
1A
100
AcDbEntity
  8
NOKITOI
  6
PHANTOM
 62
     8
 48
3.5
100
AcDbCircle
 10
597.6145606514817
 20
336.1808784490255
 30
0.0
 40
0.500012
100
AcDbArc
 50
90.0
 51
175.5265939999999
  0
ARC
  5
418
330
1A
100
AcDbEntity
  8
NOKITOI
  6
PHANTOM
 62
     8
 48
3.5
100
AcDbCircle
 10
599.1584606514818
 20
334.4808784490254
 30
0.0
 40
0.9999870000000001
100
AcDbArc
 50
90.0
 51
173.4769449999999
  0
LINE
  5
419
330
1A
100
AcDbEntity
  8
NOKITOI
  6
PHANTOM
 62
     8
 48
3.5
100
AcDbLine
 10
597.6145606514817
 20
336.6807784490255
 30
0.0
 11
603.6554606514816
 21
336.6807784490255
 31
0.0
  0
ARC
  5
41A
330
1A
100
AcDbEntity
  8
SEIHIN
 62
     3
100
AcDbCircle
 10
605.0124606514816
 20
336.4805784490257
 30
0.0
 40
1.999997999999999
100
AcDbArc
 50
270.0
 51
358.384041
  0
ARC
  5
41B
330
1A
100
AcDbEntity
  8
SEIHIN
 62
     3
100
AcDbCircle
 10
612.5972606514815
 20
329.2981784490256
 30
0.0
 40
2.000025999999999
100
AcDbArc
 50
106.093357
 51
175.569656
  0
ARC
  5
41C
330
1A
100
AcDbEntity
  8
NOKITOI
  6
PHANTOM
 62
     8
 48
3.5
100
AcDbCircle
 10
605.3031606514816
 20
336.9807784490255
 30
0.0
 40
1.500014999999999
100
AcDbArc
 50
270.0
 51
358.212118
  0
ARC
  5
41D
330
1A
100
AcDbEntity
  8
SEIHIN
 62
     3
100
AcDbCircle
 10
600.4067606514817
 20
355.1806784490257
 30
0.0
 40
5.0
100
AcDbArc
 50
90.0
 51
270.0
  0
LINE
  5
41E
330
1A
100
AcDbEntity
  8
SEIHIN
 62
     3
100
AcDbLine
 10
613.5570606514816
 20
360.1806784490257
 30
0.0
 11
600.4067606514817
 21
360.1806784490257
 31
0.0
  0
LINE
  5
41F
330
1A
100
AcDbEntity
  8
NOKITOI
  6
PHANTOM
 62
     8
 48
3.5
100
AcDbLine
 10
605.9932606514819
 20
349.4557784490255
 30
0.0
 11
605.8438606514816
 21
344.6768784490255
 31
0.0
  0
LINE
  5
420
330
1A
100
AcDbEntity
  8
NOKITOI
  6
PHANTOM
 62
     8
 48
3.5
100
AcDbLine
 10
602.7208606514821
 20
350.2807784490254
 30
0.0
 11
603.2208606514821
 21
347.7807784490254
 31
0.0
  0
ARC
  5
421
330
1A
100
AcDbEntity
  8
NOKITOI
  6
PHANTOM
 62
     8
 48
3.5
100
AcDbCircle
 10
598.9157606514821
 20
348.4808784490255
 30
0.0
 40
0.499996
100
AcDbArc
 50
90.0
 51
183.015197
  0
ARC
  5
422
330
1A
100
AcDbEntity
  8
NOKITOI
  6
PHANTOM
 62
     8
 48
3.5
100
AcDbCircle
 10
601.7420606514818
 20
341.4807784490255
 30
0.0
 40
5.199991
100
AcDbArc
 50
37.925525
 51
90.0
  0
ARC
  5
423
330
1A
100
AcDbEntity
  8
NOKITOI
  6
PHANTOM
 62
     8
 48
3.5
100
AcDbCircle
 10
601.7420606514818
 20
341.4807784490255
 30
0.0
 40
3.99999
100
AcDbArc
 50
358.2106259999999
 51
83.52329799999999
  0
LINE
  5
424
330
1A
100
AcDbEntity
  8
NOKITOI
  6
PHANTOM
 62
     8
 48
3.5
100
AcDbLine
 10
599.8956606514818
 20
343.1807784490255
 30
0.0
 11
599.7144606514819
 21
346.6221784490254
 31
0.0
  0
LINE
  5
425
330
1A
100
AcDbEntity
  8
NOKITOI
  6
PHANTOM
 62
     8
 48
3.5
100
AcDbLine
 10
600.2694606514817
 20
346.0091784490255
 30
0.0
 11
599.7144606514819
 21
346.6221784490254
 31
0.0
  0
LINE
  5
426
330
1A
100
AcDbEntity
  8
NOKITOI
  6
PHANTOM
 62
     8
 48
3.5
100
AcDbLine
 10
598.7321606514817
 20
342.4545784490255
 30
0.0
 11
598.4163606514819
 21
348.4544784490255
 31
0.0
  0
LINE
  5
427
330
1A
100
AcDbEntity
  8
NOKITOI
  6
PHANTOM
 62
     8
 48
3.5
100
AcDbLine
 10
600.6734606514817
 20
343.1807784490255
 30
0.0
 11
600.2694606514817
 21
346.0091784490255
 31
0.0
  0
LINE
  5
428
330
1A
100
AcDbEntity
  8
NOKITOI
  6
PHANTOM
 62
     8
 48
3.5
100
AcDbLine
 10
599.8956606514818
 20
343.1807784490255
 30
0.0
 11
600.6734606514817
 21
343.1807784490255
 31
0.0
  0
ARC
  5
429
330
1A
100
AcDbEntity
  8
NOKITOI
  6
PHANTOM
 62
     8
 48
3.5
100
AcDbCircle
 10
602.1368606514818
 20
344.9584784490255
 30
0.0
 40
0.500007
100
AcDbArc
 50
83.52313700000001
 51
188.128482
  0
LINE
  5
42A
330
1A
100
AcDbEntity
  8
NOKITOI
  6
PHANTOM
 62
     8
 48
3.5
100
AcDbLine
 10
599.2315606514819
 20
341.9806784490255
 30
0.0
 11
601.4806606514818
 21
341.9806784490255
 31
0.0
  0
ARC
  5
42B
330
1A
100
AcDbEntity
  8
NOKITOI
  6
PHANTOM
 62
     8
 48
3.5
100
AcDbCircle
 10
599.2315606514819
 20
342.4807784490255
 30
0.0
 40
0.499993
100
AcDbArc
 50
183.003753
 51
270.0
  0
ARC
  5
42C
330
1A
100
AcDbEntity
  8
NOKITOI
  6
PHANTOM
 62
     8
 48
3.5
100
AcDbCircle
 10
601.4806606514818
 20
342.4807784490255
 30
0.0
 40
0.499962
100
AcDbArc
 50
270.0
 51
8.130102
  0
LINE
  5
42D
330
1A
100
AcDbEntity
  8
NOKITOI
  6
PHANTOM
 62
     8
 48
3.5
100
AcDbLine
 10
601.975560651482
 20
342.5514784490255
 30
0.0
 11
601.6418606514819
 21
344.8876784490254
 31
0.0
  0
LINE
  5
42E
330
1A
100
AcDbEntity
  8
NOKITOI
  6
PHANTOM
 62
     8
 48
3.5
100
AcDbLine
 10
601.280160651482
 20
346.6807784490256
 30
0.0
 11
601.7420606514818
 21
346.6807784490256
 31
0.0
  0
LINE
  5
42F
330
1A
100
AcDbEntity
  8
NOKITOI
  6
PHANTOM
 62
     8
 48
3.5
100
AcDbLine
 10
601.280160651482
 20
346.6807784490256
 30
0.0
 11
600.2843606514818
 21
347.7807784490254
 31
0.0
  0
LINE
  5
430
330
1A
100
AcDbEntity
  8
NOKITOI
  6
PHANTOM
 62
     8
 48
3.5
100
AcDbLine
 10
603.2208606514821
 20
347.7807784490254
 30
0.0
 11
600.2843606514818
 21
347.7807784490254
 31
0.0
  0
LINE
  5
431
330
1A
100
AcDbEntity
  8
NOKITOI
  6
PHANTOM
 62
     8
 48
3.5
100
AcDbLine
 10
605.6544606514819
 20
338.6182784490255
 30
0.0
 11
605.7400606514818
 21
341.3558784490255
 31
0.0
  0
LINE
  5
432
330
1A
100
AcDbEntity
  8
SEIHIN
 62
     3
100
AcDbLine
 10
605.3994606514816
 20
352.1806784490257
 30
0.0
 11
600.4067606514817
 21
352.1806784490257
 31
0.0
  0
LINE
  5
433
330
1A
100
AcDbEntity
  8
NOKITOI
  6
PHANTOM
 62
     8
 48
3.5
100
AcDbLine
 10
605.1936606514821
 20
350.2807784490254
 30
0.0
 11
602.7208606514821
 21
350.2807784490254
 31
0.0
  0
LINE
  5
434
330
1A
100
AcDbEntity
  8
NOKITOI
  6
PHANTOM
 62
     8
 48
3.5
100
AcDbLine
 10
605.1936606514821
 20
351.4807784490255
 30
0.0
 11
601.8670606514818
 21
351.4807784490255
 31
0.0
  0
LINE
  5
435
330
1A
100
AcDbEntity
  8
NOKITOI
  6
PHANTOM
 62
     8
 48
3.5
100
AcDbLine
 10
598.9157606514821
 20
348.9808784490255
 30
0.0
 11
601.1472606514819
 21
348.9806784490255
 31
0.0
  0
LINE
  5
436
330
1A
100
AcDbEntity
  8
NOKITOI
  6
PHANTOM
 62
     8
 48
3.5
100
AcDbLine
 10
601.6375606514818
 20
349.5788784490255
 30
0.0
 11
601.3767606514818
 21
350.8826784490256
 31
0.0
  0
ARC
  5
437
330
1A
100
AcDbEntity
  8
NOKITOI
  6
PHANTOM
 62
     8
 48
3.5
100
AcDbCircle
 10
601.1472606514819
 20
349.4807784490255
 30
0.0
 40
0.5000090000000001
100
AcDbArc
 50
270.0
 51
11.314427
  0
ARC
  5
438
330
1A
100
AcDbEntity
  8
NOKITOI
  6
PHANTOM
 62
     8
 48
3.5
100
AcDbCircle
 10
601.8670606514818
 20
350.9807784490255
 30
0.0
 40
0.499999
100
AcDbArc
 50
90.0
 51
191.30319
  0
LINE
  5
439
330
1A
100
AcDbEntity
  8
SEIHIN
 62
     3
100
AcDbLine
 10
600.4067606514817
 20
352.1806784490257
 30
0.0
 11
600.4067606514817
 21
350.1806784490257
 31
0.0
  0
ARC
  5
43A
330
1A
100
AcDbEntity
  8
NOKITOI
  6
PHANTOM
 62
     8
 48
3.5
100
AcDbCircle
 10
605.1936606514821
 20
349.4807784490255
 30
0.0
 40
0.7999950000000001
100
AcDbArc
 50
358.209195
 51
90.0
  0
ARC
  5
43B
330
1A
100
AcDbEntity
  8
SEIHIN
 62
     3
100
AcDbCircle
 10
605.3994606514816
 20
350.1806784490257
 30
0.0
 40
1.999999
100
AcDbArc
 50
358.381177
 51
90.0
  0
ARC
  5
43C
330
1A
100
AcDbEntity
  8
NOKITOI
  6
PHANTOM
 62
     8
 48
3.5
100
AcDbCircle
 10
605.1936606514821
 20
349.4807784490255
 30
0.0
 40
1.999986999999999
100
AcDbArc
 50
358.212058
 51
90.0
  0
LEADER
  5
55E
330
1A
100
AcDbEntity
  8
SUNPOU
  6
CONTINUOUS
 62
     4
100
AcDbLeader
  3
STANDARD
 73
     0
 74
     0
 40
6.0
 41
30.19999999999999
 76
     3
 10
495.8381068827335
 20
359.5573736773682
 30
0.0
 10
507.9389812045719
 20
379.3023087419439
 30
0.0
 10
509.6280418398173
 20
379.3023087419439
 30
0.0
1001
ACAD
1000
DSTYLE
1002
{
1070
     6
1000
OPEN
1070
    41
1040
7.0
1070
    42
1040
6.0
1070
    43
1040
14.0
1070
    44
1040
3.0
1070
    73
1070
     0
1070
    74
1070
     0
1070
    77
1070
     3
1070
   140
1040
6.0
1070
   141
1040
150.0
1070
   147
1040
2.0
1070
   172
1070
     1
1070
   173
1070
     1
1070
   176
1070
     4
1070
   177
1070
     4
1070
   178
1070
     4
1070
   271
1070
     0
1070
   272
1070
     2
1070
   341
1005
6D
1070
   343
1005
6D
1070
   344
1005
6D
1002
}
  0
MTEXT
  5
55F
330
1A
100
AcDbEntity
  8
SUNPOU
  6
CONTINUOUS
 62
     4
100
AcDbMText
 10
511.6280418398173
 20
381.3023087419439
 30
0.0
 40
6.0
 41
0.0
 71
     7
 72
     5
  1
2-φ2.0
1001
ACAD
1000
MTEXTBEGIN
1070
    73
1070
     1
1070
    44
1040
1.0
1070
    74
1070
     0
1000
MTEXTEND
1000
MTEXTBEGIN
1070
    73
1070
     1
1070
    44
1040
1.0
1070
    74
1070
     0
1000
MTEXTEND
  0
LWPOLYLINE
  5
6D2
330
1A
100
AcDbEntity
  8
ZUWAKU
100
AcDbPolyline
 90
        4
 70
     1
 43
0.0
 10
0.800000031437321
 20
550.7999994005872
 10
0.800000031437321
 20
0.7999994005872395
 10
796.8000000314373
 20
0.7999994005872395
 10
796.8000000314373
 20
550.7999994005872
  0
LWPOLYLINE
  5
6D3
330
1A
100
AcDbEntity
  8
ZUWAKU
100
AcDbPolyline
 90
        4
 70
     1
 43
0.0
 10
0.4000000314373438
 20
551.1999994005872
 10
0.4000000314373438
 20
0.3999994005872622
 10
797.2000000314374
 20
0.3999994005872391
 10
797.2000000314374
 20
551.1999994005872
  0
LWPOLYLINE
  5
6D4
330
1A
100
AcDbEntity
  8
ZUWAKU
100
AcDbPolyline
 90
        4
 70
     1
 43
0.0
 10
0.0000000314373665
 20
551.5999994005872
 10
0.0000000314373665
 20
-0.0000005994128287
 10
797.6000000314375
 20
-0.0000005994127612
 10
797.6000000314375
 20
551.5999994005873
  0
LWPOLYLINE
  5
6D5
330
1A
100
AcDbEntity
  8
ZUWAKU
100
AcDbPolyline
 90
        4
 70
     1
 43
0.0
 10
0.6000000314372756
 20
550.9999994005872
 10
0.6000000314372756
 20
0.5999994005871941
 10
797.0000000314375
 20
0.5999994005872403
 10
797.0000000314374
 20
550.9999994005872
  0
LWPOLYLINE
  5
6D6
330
1A
100
AcDbEntity
  8
ZUWAKU
100
AcDbPolyline
 90
        4
 70
     1
 43
0.0
 10
0.2000000314372983
 20
551.3999994005872
 10
0.2000000314372983
 20
0.1999994005872168
 10
797.4000000314372
 20
0.1999994005872398
 10
797.4000000314374
 20
551.3999994005872
  0
LINE
  5
6D7
330
1A
100
AcDbEntity
  8
ZUWAKU
100
AcDbLine
 10
0.0000000314373665
 20
29.99999940058717
 30
0.0
 11
797.4000000314372
 21
29.99999940058717
 31
0.0
  0
LINE
  5
6D8
330
1A
100
AcDbEntity
  8
ZUWAKU
100
AcDbLine
 10
0.0000000314373665
 20
30.19999940058717
 30
0.0
 11
797.4000000314372
 21
30.19999940058717
 31
0.0
  0
LINE
  5
6D9
330
1A
100
AcDbEntity
  8
ZUWAKU
100
AcDbLine
 10
0.0000000314373665
 20
30.39999940058717
 30
0.0
 11
797.4000000314372
 21
30.39999940058717
 31
0.0
  0
LINE
  5
6DA
330
1A
100
AcDbEntity
  8
ZUWAKU
100
AcDbLine
 10
0.0000000314373665
 20
30.59999940058718
 30
0.0
 11
797.4000000314372
 21
30.59999940058718
 31
0.0
  0
LINE
  5
6DB
330
1A
100
AcDbEntity
  8
ZUWAKU
100
AcDbLine
 10
0.0000000314373665
 20
30.79999940058718
 30
0.0
 11
797.4000000314372
 21
30.79999940058718
 31
0.0
  0
LINE
  5
6DC
330
1A
100
AcDbEntity
  8
ZUWAKU
100
AcDbLine
 10
208.6466013215054
 20
15.3999994005872
 30
0.0
 11
447.4243640024288
 21
15.3999994005872
 31
0.0
  0
LINE
  5
6DD
330
1A
100
AcDbEntity
  8
ZUWAKU
100
AcDbLine
 10
208.6466013215054
 20
15.5999994005872
 30
0.0
 11
447.4243640024288
 21
15.59999940058721
 31
0.0
  0
LINE
  5
6DE
330
1A
100
AcDbEntity
  8
ZUWAKU
100
AcDbLine
 10
208.6466013215054
 20
15.1999994005872
 30
0.0
 11
447.4243640024288
 21
15.1999994005872
 31
0.0
  0
TEXT
  5
6DF
330
1A
100
AcDbEntity
  8
MOJI
100
AcDbText
 10
92.9577896196065
 20
12.74117753086193
 30
0.0
 40
6.0
  1
新・丸トップＲＶ１０５
 41
0.9
  7
ｽﾀｲﾙ1
100
AcDbText
  0
CIRCLE
  5
6E0
330
1A
100
AcDbEntity
  8
ZUWAKU
100
AcDbCircle
 10
25.99221218621846
 20
15.19999940058717
 30
0.0
 40
1.75
  0
LINE
  5
6E1
330
1A
100
AcDbEntity
  8
ZUWAKU
100
AcDbLine
 10
26.86721218621846
 20
7.149999400587176
 30
0.0
 11
24.94221218621851
 21
7.149999400587176
 31
0.0
  0
LINE
  5
6E2
330
1A
100
AcDbEntity
  8
ZUWAKU
100
AcDbLine
 10
24.94221218621851
 20
9.949999400587174
 30
0.0
 11
26.86721218621846
 21
9.949999400587174
 31
0.0
  0
LINE
  5
6E3
330
1A
100
AcDbEntity
  8
ZUWAKU
100
AcDbLine
 10
26.86721218621846
 20
20.44999940058717
 30
0.0
 11
24.94221218621851
 21
20.44999940058717
 31
0.0
  0
LINE
  5
6E4
330
1A
100
AcDbEntity
  8
ZUWAKU
100
AcDbLine
 10
24.94221218621851
 20
23.24999940058713
 30
0.0
 11
26.86721218621846
 21
23.24999940058718
 31
0.0
  0
HATCH
  5
6E5
330
1A
100
AcDbEntity
  8
ZUWAKU
100
AcDbHatch
 10
0.0
 20
0.0
 30
0.0
210
0.0
220
0.0
230
1.0
  2
ANSI37
 70
     0
 71
     0
 91
        8
 92
        7
 72
     1
 73
     1
 93
       24
 10
14.50226269255722
 20
17.64484788157075
 42
-0.1989123673796348
 10
14.09221218621849
 20
18.6347973752318
 42
0.0
 10
14.09221218621849
 20
19.92499940058718
 42
-0.4142135623730912
 10
14.61721218621846
 20
20.44999940058717
 42
0.0
 10
17.59221218621837
 20
20.44999940058717
 42
0.4142135623731546
 10
18.11721218621846
 20
20.97499940058716
 42
0.0
 10
18.11721218621846
 20
22.72499940058718
 42
0.4142135623731586
 10
17.59221218621837
 20
23.24999940058718
 42
0.0
 10
14.09221218621849
 20
23.24999940058718
 42
0.4142135623730928
 10
11.29221218621853
 20
20.4499994005872
 42
0.0
 10
11.29221218621853
 20
18.63479737523193
 42
0.1989123673796619
 10
12.52236370523496
 20
15.66494889424832
 42
0.0
 10
15.43216167987964
 20
12.75515091960366
 42
-0.1989123673796613
 10
15.84221218621848
 20
11.76520142594248
 42
0.0
 10
15.84221218621848
 20
10.47499940058716
 42
-0.4142135623730911
 10
15.31721218621851
 20
9.949999400587174
 42
0.0
 10
12.3422121862186
 20
9.949999400587174
 42
0.4142135623731526
 10
11.81721218621851
 20
9.424999400587186
 42
0.0
 10
11.81721218621851
 20
7.674999400587164
 42
0.4142135623731526
 10
12.3422121862186
 20
7.149999400587176
 42
0.0
 10
15.84221218621848
 20
7.149999400587176
 42
0.4142135623731044
 10
18.64221218621855
 20
9.949999400587152
 42
0.0
 10
18.64221218621855
 20
11.76520142594242
 42
0.1989123673796604
 10
17.41206066720201
 20
14.73504990692596
 42
0.0
 97
        0
 92
        7
 72
     1
 73
     1
 93
       16
 10
23.54221218621853
 20
19.04999940058718
 42
-0.4142135623730935
 10
24.94221218621851
 20
20.44999940058717
 42
0.0
 10
26.86721218621846
 20
20.44999940058717
 42
0.4142135623731546
 10
27.39221218621855
 20
20.97499940058716
 42
0.0
 10
27.39221218621855
 20
22.72499940058718
 42
0.4142135623730951
 10
26.86721218621858
 20
23.24999940058718
 42
0.0
 10
24.9422121862184
 20
23.24999940058713
 42
0.4142135623730892
 10
20.74221218621846
 20
19.04999940058711
 42
0.0
 10
20.74221218621846
 20
11.3499994005872
 42
0.4142135623730969
 10
24.94221218621851
 20
7.149999400587176
 42
0.0
 10
26.86721218621846
 20
7.149999400587176
 42
0.4142135623731526
 10
27.39221218621855
 20
7.674999400587164
 42
0.0
 10
27.39221218621855
 20
9.424999400587186
 42
0.4142135623730891
 10
26.86721218621858
 20
9.949999400587174
 42
0.0
 10
24.94221218621851
 20
9.949999400587174
 42
-0.4142135623730928
 10
23.54221218621853
 20
11.34999940058716
 42
0.0
 97
        0
 92
        7
 72
     1
 73
     1
 93
        2
 10
24.24221218621847
 20
15.19999940058717
 42
1.0
 10
27.74221218621846
 20
15.19999940058717
 42
1.0
 97
        0
 92
        7
 72
     1
 73
     1
 93
       26
 10
37.31485866839648
 20
19.2050465941506
 42
0.0
 10
38.37649830153429
 20
22.56690543242019
 42
0.5069206636600134
 10
37.87586740233894
 20
23.24999940058718
 42
0.0
 10
36.17697802272971
 20
23.24999940058718
 42
0.3272098845218764
 10
35.67634712353435
 20
22.88309336875414
 42
0.0
 10
33.80807724890257
 20
16.96690543242025
 42
-0.3272098845219541
 10
33.3074463497071
 20
16.59999940058717
 42
0.0
 10
33.16721218621864
 20
16.59999940058717
 42
-0.4142135623731526
 10
32.64221218621855
 20
17.12499940058716
 42
0.0
 10
32.64221218621855
 20
22.72499940058718
 42
0.4142135623730951
 10
32.11721218621858
 20
23.24999940058718
 42
0.0
 10
30.36721218621846
 20
23.24999940058718
 42
0.4142135623730871
 10
29.84221218621849
 20
22.72499940058719
 42
0.0
 10
29.84221218621849
 20
7.674999400587164
 42
0.4142135623730891
 10
30.36721218621846
 20
7.149999400587176
 42
0.0
 10
32.11721218621846
 20
7.149999400587176
 42
0.4142135623731526
 10
32.64221218621855
 20
7.674999400587164
 42
0.0
 10
32.64221218621855
 20
13.27499940058718
 42
-0.4142135623731526
 10
33.16721218621864
 20
13.79999940058717
 42
0.0
 10
33.30744634970722
 20
13.79999940058717
 42
-0.3272098845218915
 10
33.80807724890257
 20
13.4330933687541
 42
0.0
 10
35.67634712353435
 20
7.516905432420248
 42
0.3272098845218902
 10
36.17697802272971
 20
7.149999400587176
 42
0.0
 10
37.87586740233894
 20
7.149999400587176
 42
0.5069206636600335
 10
38.37649830153429
 20
7.833093368754184
 42
0.0
 10
36.05010692306064
 20
15.19999940058731
 42
0.0
 97
        0
 92
        7
 72
     1
 73
     1
 93
        8
 10
43.49221218621846
 20
22.72499940058718
 42
0.4142135623731546
 10
42.96721218621837
 20
23.24999940058718
 42
0.0
 10
41.2172121862186
 20
23.24999940058718
 42
0.4142135623731507
 10
40.69221218621851
 20
22.72499940058719
 42
0.0
 10
40.69221218621851
 20
7.674999400587164
 42
0.4142135623731526
 10
41.2172121862186
 20
7.149999400587176
 42
0.0
 10
42.96721218621837
 20
7.149999400587176
 42
0.4142135623731526
 10
43.49221218621846
 20
7.674999400587164
 42
0.0
 97
        0
 92
        7
 72
     1
 73
     1
 93
       24
 10
48.39221218621855
 20
19.92499940058718
 42
-0.4142135623731546
 10
48.91721218621865
 20
20.44999940058717
 42
0.0
 10
51.89221218621856
 20
20.44999940058717
 42
0.4142135623730911
 10
52.41721218621854
 20
20.97499940058716
 42
0.0
 10
52.41721218621854
 20
22.72499940058718
 42
0.4142135623730952
 10
51.89221218621856
 20
23.24999940058718
 42
0.0
 10
48.39221218621855
 20
23.24999940058718
 42
0.4142135623731048
 10
45.59221218621849
 20
20.4499994005872
 42
0.0
 10
45.59221218621849
 20
18.63479737523193
 42
0.1989123673796613
 10
46.82236370523503
 20
15.66494889424838
 42
0.0
 10
49.7321616798797
 20
12.75515091960371
 42
-0.1989123673796402
 10
50.14221218621855
 20
11.76520142594264
 42
0.0
 10
50.14221218621855
 20
10.47499940058716
 42
-0.4142135623730911
 10
49.61721218621858
 20
9.949999400587174
 42
0.0
 10
46.64221218621856
 20
9.949999400587174
 42
0.4142135623731526
 10
46.11721218621847
 20
9.424999400587186
 42
0.0
 10
46.11721218621847
 20
7.674999400587164
 42
0.4142135623730891
 10
46.64221218621844
 20
7.149999400587176
 42
0.0
 10
50.14221218621855
 20
7.149999400587176
 42
0.4142135623730925
 10
52.94221218621851
 20
9.949999400587152
 42
0.0
 10
52.94221218621851
 20
11.76520142594242
 42
0.1989123673796675
 10
51.71206066720197
 20
14.73504990692608
 42
0.0
 10
48.8022626925574
 20
17.64484788157059
 42
-0.1989123673796652
 10
48.39221218621855
 20
18.63479737523176
 42
0.0
 97
        0
 92
        7
 72
     1
 73
     1
 93
       16
 10
57.84221218621849
 20
22.72499940058716
 42
0.414213562373103
 10
57.31721218621851
 20
23.24999940058718
 42
0.0
 10
55.56721218621851
 20
23.24999940058718
 42
0.4142135623730871
 10
55.04221218621854
 20
22.72499940058719
 42
0.0
 10
55.04221218621854
 20
9.949999400587152
 42
0.4142135623730926
 10
57.84221218621849
 20
7.149999400587176
 42
0.0
 10
61.34221218621849
 20
7.149999400587176
 42
0.4142135623731044
 10
64.14221218621856
 20
9.949999400587152
 42
0.0
 10
64.14221218621856
 20
22.72499940058718
 42
0.4142135623730951
 10
63.61721218621858
 20
23.24999940058718
 42
0.0
 10
61.86721218621847
 20
23.24999940058718
 42
0.4142135623730871
 10
61.34221218621849
 20
22.72499940058719
 42
0.0
 10
61.34221218621849
 20
10.99999940058715
 42
-0.414213562373088
 10
60.29221218621853
 20
9.949999400587174
 42
0.0
 10
58.89221218621855
 20
9.949999400587174
 42
-0.4142135623731197
 10
57.84221218621849
 20
10.99999940058715
 42
0.0
 97
        0
 92
        7
 72
     1
 73
     1
 93
        8
 10
69.04221218621853
 20
22.72499940058719
 42
0.4142135623730871
 10
68.51721218621856
 20
23.24999940058718
 42
0.0
 10
66.76721218621856
 20
23.24999940058718
 42
0.4142135623731507
 10
66.24221218621847
 20
22.72499940058719
 42
0.0
 10
66.24221218621847
 20
7.674999400587164
 42
0.4142135623730891
 10
66.76721218621844
 20
7.149999400587176
 42
0.0
 10
68.51721218621856
 20
7.149999400587176
 42
0.4142135623730891
 10
69.04221218621853
 20
7.674999400587164
 42
0.0
 97
        0
 75
     0
 76
     1
 52
0.0
 41
0.2
 77
     0
 78
     2
 53
45.0
 43
-900.9423043032416
 44
-13.20000059941276
 45
-0.4490128060534576
 46
0.4490128060534577
 79
     0
 53
135.0
 43
-900.9423043032416
 44
-13.20000059941276
 45
-0.4490128060534577
 46
-0.4490128060534576
 79
     0
 47
0.057451373970553
 98
        8
 10
16.07985499446067
 20
15.16717304647272
 10
22.40451503787653
 20
18.84406158303818
 10
25.16436791709702
 20
15.51188104665789
 10
30.9140600130745
 20
16.20129704702867
 10
41.8384720503941
 20
16.66090931457029
 10
46.89820092656691
 20
19.41857571699438
 10
56.55768600383772
 20
18.72915731568218
 10
67.8270796510601
 20
19.1887695832238
  0
ARC
  5
6E6
330
1A
100
AcDbEntity
  8
ZUWAKU
100
AcDbCircle
 10
15.49221218621846
 20
18.63479737523187
 30
0.0
 40
4.199999999999999
100
AcDbArc
 50
180.0
 51
225.0
  0
LINE
  5
6E7
330
1A
100
AcDbEntity
  8
ZUWAKU
100
AcDbLine
 10
20.74221218621846
 20
11.34999940058718
 30
0.0
 11
20.74221218621846
 21
19.04999940058713
 31
0.0
  0
LINE
  5
6E8
330
1A
100
AcDbEntity
  8
ZUWAKU
100
AcDbLine
 10
23.54221218621853
 20
19.04999940058717
 30
0.0
 11
23.54221218621853
 21
11.34999940058718
 31
0.0
  0
ARC
  5
6E9
330
1A
100
AcDbEntity
  8
ZUWAKU
100
AcDbCircle
 10
15.49221218621846
 20
18.63479737523187
 30
0.0
 40
1.399999999999999
100
AcDbArc
 50
180.0000000000016
 51
224.9999999999988
  0
ARC
  5
6EA
330
1A
100
AcDbEntity
  8
ZUWAKU
100
AcDbCircle
 10
24.94221218621851
 20
11.34999940058718
 30
0.0
 40
4.199999999999999
100
AcDbArc
 50
180.0
 51
270.0
  0
ARC
  5
6EB
330
1A
100
AcDbEntity
  8
ZUWAKU
100
AcDbCircle
 10
15.84221218621848
 20
9.949999400587174
 30
0.0
 40
2.799999999999999
100
AcDbArc
 50
270.0
 51
0.0
  0
ARC
  5
6EC
330
1A
100
AcDbEntity
  8
ZUWAKU
100
AcDbCircle
 10
14.44221218621851
 20
11.76520142594247
 30
0.0
 40
4.199999999999999
100
AcDbArc
 50
0.0
 51
45.0
  0
LINE
  5
6ED
330
1A
100
AcDbEntity
  8
ZUWAKU
100
AcDbLine
 10
12.52236370523496
 20
15.66494889424835
 30
0.0
 11
15.43216167987964
 21
12.75515091960369
 31
0.0
  0
LINE
  5
6EE
330
1A
100
AcDbEntity
  8
ZUWAKU
100
AcDbLine
 10
12.34221218621849
 20
9.949999400587174
 30
0.0
 11
15.31721218621851
 21
9.949999400587174
 31
0.0
  0
LINE
  5
6EF
330
1A
100
AcDbEntity
  8
ZUWAKU
100
AcDbLine
 10
12.34221218621849
 20
7.149999400587176
 30
0.0
 11
15.84221218621848
 21
7.149999400587176
 31
0.0
  0
ARC
  5
6F0
330
1A
100
AcDbEntity
  8
ZUWAKU
100
AcDbCircle
 10
12.34221218621849
 20
9.424999400587175
 30
0.0
 40
0.525
100
AcDbArc
 50
90.0
 51
180.0
  0
ARC
  5
6F1
330
1A
100
AcDbEntity
  8
ZUWAKU
100
AcDbCircle
 10
12.34221218621849
 20
7.674999400587175
 30
0.0
 40
0.525
100
AcDbArc
 50
180.0
 51
270.0
  0
LINE
  5
6F2
330
1A
100
AcDbEntity
  8
ZUWAKU
100
AcDbLine
 10
11.81721218621851
 20
7.674999400587175
 30
0.0
 11
11.81721218621851
 21
9.424999400587175
 31
0.0
  0
ARC
  5
6F3
330
1A
100
AcDbEntity
  8
ZUWAKU
100
AcDbCircle
 10
14.44221218621851
 20
11.76520142594252
 30
0.0
 40
1.399999999999999
100
AcDbArc
 50
0.0
 51
45.0
  0
ARC
  5
6F4
330
1A
100
AcDbEntity
  8
ZUWAKU
100
AcDbCircle
 10
15.31721218621851
 20
10.47499940058717
 30
0.0
 40
0.525
100
AcDbArc
 50
270.0
 51
0.0
  0
LINE
  5
6F5
330
1A
100
AcDbEntity
  8
ZUWAKU
100
AcDbLine
 10
15.84221218621848
 20
10.47499940058717
 30
0.0
 11
15.84221218621848
 21
11.76520142594252
 31
0.0
  0
LINE
  5
6F6
330
1A
100
AcDbEntity
  8
ZUWAKU
100
AcDbLine
 10
17.41206066720201
 20
14.735049906926
 30
0.0
 11
14.50226269255733
 21
17.64484788157067
 31
0.0
  0
ARC
  5
6F7
330
1A
100
AcDbEntity
  8
ZUWAKU
100
AcDbCircle
 10
24.94221218621851
 20
11.34999940058718
 30
0.0
 40
1.399999999999999
100
AcDbArc
 50
180.0
 51
270.0
  0
LINE
  5
6F8
330
1A
100
AcDbEntity
  8
ZUWAKU
100
AcDbLine
 10
18.64221218621855
 20
9.949999400587174
 30
0.0
 11
18.64221218621855
 21
11.76520142594252
 31
0.0
  0
ARC
  5
6F9
330
1A
100
AcDbEntity
  8
ZUWAKU
100
AcDbCircle
 10
17.59221218621848
 20
20.97499940058717
 30
0.0
 40
0.525
100
AcDbArc
 50
270.0
 51
0.0
  0
ARC
  5
6FA
330
1A
100
AcDbEntity
  8
ZUWAKU
100
AcDbCircle
 10
17.59221218621848
 20
22.72499940058717
 30
0.0
 40
0.525
100
AcDbArc
 50
0.0
 51
90.0
  0
ARC
  5
6FB
330
1A
100
AcDbEntity
  8
ZUWAKU
100
AcDbCircle
 10
14.09221218621849
 20
20.44999940058717
 30
0.0
 40
2.799999999999999
100
AcDbArc
 50
90.0
 51
180.0
  0
LINE
  5
6FC
330
1A
100
AcDbEntity
  8
ZUWAKU
100
AcDbLine
 10
11.29221218621853
 20
20.44999940058717
 30
0.0
 11
11.29221218621853
 21
18.63479737523183
 31
0.0
  0
LINE
  5
6FD
330
1A
100
AcDbEntity
  8
ZUWAKU
100
AcDbLine
 10
17.59221218621848
 20
20.44999940058717
 30
0.0
 11
14.61721218621846
 21
20.44999940058717
 31
0.0
  0
LINE
  5
6FE
330
1A
100
AcDbEntity
  8
ZUWAKU
100
AcDbLine
 10
14.09221218621849
 20
19.92499940058717
 30
0.0
 11
14.09221218621849
 21
18.63479737523183
 31
0.0
  0
ARC
  5
6FF
330
1A
100
AcDbEntity
  8
ZUWAKU
100
AcDbCircle
 10
14.61721218621846
 20
19.92499940058717
 30
0.0
 40
0.525
100
AcDbArc
 50
90.0
 51
180.0
  0
LINE
  5
700
330
1A
100
AcDbEntity
  8
ZUWAKU
100
AcDbLine
 10
14.09221218621849
 20
23.24999940058718
 30
0.0
 11
17.59221218621848
 21
23.24999940058718
 31
0.0
  0
ARC
  5
701
330
1A
100
AcDbEntity
  8
ZUWAKU
100
AcDbCircle
 10
24.94221218621851
 20
19.04999940058713
 30
0.0
 40
4.199999999999999
100
AcDbArc
 50
90.0
 51
180.0
  0
ARC
  5
702
330
1A
100
AcDbEntity
  8
ZUWAKU
100
AcDbCircle
 10
24.94221218621851
 20
19.04999940058717
 30
0.0
 40
1.399999999999999
100
AcDbArc
 50
90.0
 51
180.0
  0
LINE
  5
703
330
1A
100
AcDbEntity
  8
ZUWAKU
100
AcDbLine
 10
18.11721218621846
 20
22.72499940058717
 30
0.0
 11
18.11721218621846
 21
20.97499940058717
 31
0.0
  0
LINE
  5
704
330
1A
100
AcDbEntity
  8
ZUWAKU
100
AcDbLine
 10
35.67634712353435
 20
22.88309336875414
 30
0.0
 11
33.80807724890257
 21
16.9669054324202
 31
0.0
  0
LINE
  5
705
330
1A
100
AcDbEntity
  8
ZUWAKU
100
AcDbLine
 10
29.84221218621849
 20
22.72499940058717
 30
0.0
 11
29.84221218621849
 21
7.674999400587175
 31
0.0
  0
LINE
  5
706
330
1A
100
AcDbEntity
  8
ZUWAKU
100
AcDbLine
 10
32.64221218621855
 20
17.12499940058718
 30
0.0
 11
32.64221218621855
 21
22.72499940058717
 31
0.0
  0
LINE
  5
707
330
1A
100
AcDbEntity
  8
ZUWAKU
100
AcDbLine
 10
57.84221218621849
 20
10.99999940058717
 30
0.0
 11
57.84221218621849
 21
22.72499940058717
 31
0.0
  0
LINE
  5
708
330
1A
100
AcDbEntity
  8
ZUWAKU
100
AcDbLine
 10
55.04221218621854
 20
22.72499940058717
 30
0.0
 11
55.04221218621854
 21
9.949999400587174
 31
0.0
  0
LINE
  5
709
330
1A
100
AcDbEntity
  8
ZUWAKU
100
AcDbLine
 10
43.49221218621846
 20
7.674999400587175
 30
0.0
 11
43.49221218621846
 21
22.72499940058717
 31
0.0
  0
LINE
  5
70A
330
1A
100
AcDbEntity
  8
ZUWAKU
100
AcDbLine
 10
40.69221218621851
 20
22.72499940058717
 30
0.0
 11
40.69221218621851
 21
7.674999400587175
 31
0.0
  0
LINE
  5
70B
330
1A
100
AcDbEntity
  8
ZUWAKU
100
AcDbLine
 10
37.31485866839648
 20
19.2050465941506
 30
0.0
 11
36.05010692306064
 21
15.19999940058719
 31
0.0
  0
ARC
  5
70C
330
1A
100
AcDbEntity
  8
ZUWAKU
100
AcDbCircle
 10
49.79221218621853
 20
18.63479737523187
 30
0.0
 40
4.199999999999999
100
AcDbArc
 50
180.0
 51
225.0
  0
ARC
  5
70D
330
1A
100
AcDbEntity
  8
ZUWAKU
100
AcDbCircle
 10
49.79221218621853
 20
18.63479737523187
 30
0.0
 40
1.399999999999999
100
AcDbArc
 50
180.0000000000016
 51
224.9999999999988
  0
LINE
  5
70E
330
1A
100
AcDbEntity
  8
ZUWAKU
100
AcDbLine
 10
66.24221218621847
 20
22.72499940058717
 30
0.0
 11
66.24221218621847
 21
7.674999400587175
 31
0.0
  0
LINE
  5
70F
330
1A
100
AcDbEntity
  8
ZUWAKU
100
AcDbLine
 10
69.04221218621853
 20
7.674999400587175
 30
0.0
 11
69.04221218621853
 21
22.72499940058717
 31
0.0
  0
LINE
  5
710
330
1A
100
AcDbEntity
  8
ZUWAKU
100
AcDbLine
 10
61.34221218621849
 20
22.72499940058717
 30
0.0
 11
61.34221218621849
 21
10.99999940058717
 31
0.0
  0
LINE
  5
711
330
1A
100
AcDbEntity
  8
ZUWAKU
100
AcDbLine
 10
64.14221218621856
 20
9.949999400587174
 30
0.0
 11
64.14221218621856
 21
22.72499940058717
 31
0.0
  0
LINE
  5
712
330
1A
100
AcDbEntity
  8
ZUWAKU
100
AcDbLine
 10
79.12662957942576
 20
29.99999940058717
 30
0.0
 11
79.12662957942576
 21
0.7999994005872395
 31
0.0
  0
LINE
  5
713
330
1A
100
AcDbEntity
  8
ZUWAKU
100
AcDbLine
 10
79.52662957942561
 20
29.99999940058717
 30
0.0
 11
79.52662957942584
 21
0.7999994005872395
 31
0.0
  0
LINE
  5
714
330
1A
100
AcDbEntity
  8
ZUWAKU
100
AcDbLine
 10
79.32662957942557
 20
29.99999940058717
 30
0.0
 11
79.3266295794258
 21
0.7999994005872395
 31
0.0
  0
LINE
  5
715
330
1A
100
AcDbEntity
  8
ZUWAKU
100
AcDbLine
 10
57.84221218621849
 20
7.149999400587176
 30
0.0
 11
61.34221218621849
 21
7.149999400587176
 31
0.0
  0
LINE
  5
716
330
1A
100
AcDbEntity
  8
ZUWAKU
100
AcDbLine
 10
60.29221218621853
 20
9.949999400587174
 30
0.0
 11
58.89221218621855
 21
9.949999400587174
 31
0.0
  0
LINE
  5
717
330
1A
100
AcDbEntity
  8
ZUWAKU
100
AcDbLine
 10
41.21721218621849
 20
7.149999400587176
 30
0.0
 11
42.96721218621849
 21
7.149999400587176
 31
0.0
  0
LINE
  5
718
330
1A
100
AcDbEntity
  8
ZUWAKU
100
AcDbLine
 10
35.67634712353435
 20
7.516905432420202
 30
0.0
 11
33.80807724890257
 21
13.43309336875414
 31
0.0
  0
ARC
  5
719
330
1A
100
AcDbEntity
  8
ZUWAKU
100
AcDbCircle
 10
33.16721218621853
 20
13.27499940058717
 30
0.0
 40
0.525
100
AcDbArc
 50
90.0
 51
180.0
  0
ARC
  5
71A
330
1A
100
AcDbEntity
  8
ZUWAKU
100
AcDbCircle
 10
33.30744634970722
 20
13.27499940058717
 30
0.0
 40
0.525
100
AcDbArc
 50
17.52556837372303
 51
90.0
  0
ARC
  5
71B
330
1A
100
AcDbEntity
  8
ZUWAKU
100
AcDbCircle
 10
30.36721218621846
 20
7.674999400587175
 30
0.0
 40
0.525
100
AcDbArc
 50
180.0
 51
270.0
  0
ARC
  5
71C
330
1A
100
AcDbEntity
  8
ZUWAKU
100
AcDbCircle
 10
26.86721218621846
 20
9.424999400587175
 30
0.0
 40
0.525
100
AcDbArc
 50
0.0
 51
90.0
  0
ARC
  5
71D
330
1A
100
AcDbEntity
  8
ZUWAKU
100
AcDbCircle
 10
26.86721218621846
 20
7.674999400587175
 30
0.0
 40
0.525
100
AcDbArc
 50
270.0
 51
0.0
  0
LINE
  5
71E
330
1A
100
AcDbEntity
  8
ZUWAKU
100
AcDbLine
 10
27.39221218621855
 20
9.424999400587175
 30
0.0
 11
27.39221218621855
 21
7.674999400587175
 31
0.0
  0
LINE
  5
71F
330
1A
100
AcDbEntity
  8
ZUWAKU
100
AcDbLine
 10
32.64221218621855
 20
7.674999400587175
 30
0.0
 11
32.64221218621855
 21
13.27499940058717
 31
0.0
  0
ARC
  5
720
330
1A
100
AcDbEntity
  8
ZUWAKU
100
AcDbCircle
 10
32.11721218621846
 20
7.674999400587175
 30
0.0
 40
0.525
100
AcDbArc
 50
270.0
 51
0.0
  0
LINE
  5
721
330
1A
100
AcDbEntity
  8
ZUWAKU
100
AcDbLine
 10
30.36721218621846
 20
7.149999400587176
 30
0.0
 11
32.11721218621846
 21
7.149999400587176
 31
0.0
  0
ARC
  5
722
330
1A
100
AcDbEntity
  8
ZUWAKU
100
AcDbCircle
 10
33.16721218621853
 20
17.12499940058718
 30
0.0
 40
0.525
100
AcDbArc
 50
180.0
 51
270.0
  0
LINE
  5
723
330
1A
100
AcDbEntity
  8
ZUWAKU
100
AcDbLine
 10
33.16721218621853
 20
13.79999940058717
 30
0.0
 11
33.30744634970722
 21
13.79999940058717
 31
0.0
  0
LINE
  5
724
330
1A
100
AcDbEntity
  8
ZUWAKU
100
AcDbLine
 10
33.30744634970722
 20
16.59999940058717
 30
0.0
 11
33.16721218621853
 21
16.59999940058717
 31
0.0
  0
ARC
  5
725
330
1A
100
AcDbEntity
  8
ZUWAKU
100
AcDbCircle
 10
33.30744634970722
 20
17.12499940058718
 30
0.0
 40
0.525
100
AcDbArc
 50
270.0
 51
342.4744316262769
  0
ARC
  5
726
330
1A
100
AcDbEntity
  8
ZUWAKU
100
AcDbCircle
 10
36.17697802272982
 20
7.674999400587175
 30
0.0
 40
0.525
100
AcDbArc
 50
197.525568373723
 51
270.0
  0
LINE
  5
727
330
1A
100
AcDbEntity
  8
ZUWAKU
100
AcDbLine
 10
38.37649830153429
 20
7.833093368754148
 30
0.0
 11
36.05010692306064
 21
15.19999940058719
 31
0.0
  0
ARC
  5
728
330
1A
100
AcDbEntity
  8
ZUWAKU
100
AcDbCircle
 10
37.87586740233882
 20
7.674999400587175
 30
0.0
 40
0.525
100
AcDbArc
 50
270.0
 51
17.52556837372303
  0
LINE
  5
729
330
1A
100
AcDbEntity
  8
ZUWAKU
100
AcDbLine
 10
36.17697802272982
 20
7.149999400587176
 30
0.0
 11
37.87586740233882
 21
7.149999400587176
 31
0.0
  0
ARC
  5
72A
330
1A
100
AcDbEntity
  8
ZUWAKU
100
AcDbCircle
 10
41.21721218621849
 20
7.674999400587175
 30
0.0
 40
0.525
100
AcDbArc
 50
180.0
 51
270.0
  0
ARC
  5
72B
330
1A
100
AcDbEntity
  8
ZUWAKU
100
AcDbCircle
 10
50.14221218621855
 20
9.949999400587174
 30
0.0
 40
2.799999999999999
100
AcDbArc
 50
270.0
 51
0.0
  0
ARC
  5
72C
330
1A
100
AcDbEntity
  8
ZUWAKU
100
AcDbCircle
 10
57.84221218621849
 20
9.949999400587174
 30
0.0
 40
2.799999999999999
100
AcDbArc
 50
180.0
 51
270.0
  0
LINE
  5
72D
330
1A
100
AcDbEntity
  8
ZUWAKU
100
AcDbLine
 10
51.71206066720208
 20
14.735049906926
 30
0.0
 11
48.80226269255729
 21
17.64484788157067
 31
0.0
  0
LINE
  5
72E
330
1A
100
AcDbEntity
  8
ZUWAKU
100
AcDbLine
 10
46.82236370523503
 20
15.66494889424835
 30
0.0
 11
49.7321616798797
 21
12.75515091960369
 31
0.0
  0
LINE
  5
72F
330
1A
100
AcDbEntity
  8
ZUWAKU
100
AcDbLine
 10
46.64221218621856
 20
7.149999400587176
 30
0.0
 11
50.14221218621855
 21
7.149999400587176
 31
0.0
  0
LINE
  5
730
330
1A
100
AcDbEntity
  8
ZUWAKU
100
AcDbLine
 10
46.64221218621856
 20
9.949999400587174
 30
0.0
 11
49.61721218621846
 21
9.949999400587174
 31
0.0
  0
ARC
  5
731
330
1A
100
AcDbEntity
  8
ZUWAKU
100
AcDbCircle
 10
46.64221218621856
 20
9.424999400587175
 30
0.0
 40
0.525
100
AcDbArc
 50
90.0
 51
180.0
  0
ARC
  5
732
330
1A
100
AcDbEntity
  8
ZUWAKU
100
AcDbCircle
 10
42.96721218621849
 20
7.674999400587175
 30
0.0
 40
0.525
100
AcDbArc
 50
270.0
 51
0.0
  0
ARC
  5
733
330
1A
100
AcDbEntity
  8
ZUWAKU
100
AcDbCircle
 10
46.64221218621856
 20
7.674999400587175
 30
0.0
 40
0.525
100
AcDbArc
 50
180.0
 51
270.0
  0
LINE
  5
734
330
1A
100
AcDbEntity
  8
ZUWAKU
100
AcDbLine
 10
46.11721218621847
 20
7.674999400587175
 30
0.0
 11
46.11721218621847
 21
9.424999400587175
 31
0.0
  0
ARC
  5
735
330
1A
100
AcDbEntity
  8
ZUWAKU
100
AcDbCircle
 10
49.61721218621846
 20
10.47499940058717
 30
0.0
 40
0.525
100
AcDbArc
 50
270.0
 51
0.0
  0
ARC
  5
736
330
1A
100
AcDbEntity
  8
ZUWAKU
100
AcDbCircle
 10
48.74221218621847
 20
11.76520142594252
 30
0.0
 40
1.399999999999999
100
AcDbArc
 50
0.0
 51
45.0
  0
LINE
  5
737
330
1A
100
AcDbEntity
  8
ZUWAKU
100
AcDbLine
 10
50.14221218621855
 20
10.47499940058717
 30
0.0
 11
50.14221218621855
 21
11.76520142594252
 31
0.0
  0
ARC
  5
738
330
1A
100
AcDbEntity
  8
ZUWAKU
100
AcDbCircle
 10
58.89221218621855
 20
10.99999940058717
 30
0.0
 40
1.049999999999999
100
AcDbArc
 50
180.0
 51
270.0
  0
ARC
  5
739
330
1A
100
AcDbEntity
  8
ZUWAKU
100
AcDbCircle
 10
48.74221218621847
 20
11.76520142594247
 30
0.0
 40
4.199999999999999
100
AcDbArc
 50
0.0
 51
45.0
  0
LINE
  5
73A
330
1A
100
AcDbEntity
  8
ZUWAKU
100
AcDbLine
 10
52.94221218621851
 20
9.949999400587174
 30
0.0
 11
52.94221218621851
 21
11.76520142594252
 31
0.0
  0
ARC
  5
73B
330
1A
100
AcDbEntity
  8
ZUWAKU
100
AcDbCircle
 10
61.34221218621849
 20
9.949999400587174
 30
0.0
 40
2.799999999999999
100
AcDbArc
 50
270.0
 51
0.0
  0
LINE
  5
73C
330
1A
100
AcDbEntity
  8
ZUWAKU
100
AcDbLine
 10
66.76721218621856
 20
7.149999400587176
 30
0.0
 11
68.51721218621856
 21
7.149999400587176
 31
0.0
  0
ARC
  5
73D
330
1A
100
AcDbEntity
  8
ZUWAKU
100
AcDbCircle
 10
60.29221218621853
 20
10.99999940058717
 30
0.0
 40
1.049999999999999
100
AcDbArc
 50
270.0
 51
0.0
  0
ARC
  5
73E
330
1A
100
AcDbEntity
  8
ZUWAKU
100
AcDbCircle
 10
66.76721218621856
 20
7.674999400587175
 30
0.0
 40
0.525
100
AcDbArc
 50
180.0
 51
270.0
  0
ARC
  5
73F
330
1A
100
AcDbEntity
  8
ZUWAKU
100
AcDbCircle
 10
68.51721218621856
 20
7.674999400587175
 30
0.0
 40
0.525
100
AcDbArc
 50
270.0
 51
0.0
  0
LINE
  5
740
330
1A
100
AcDbEntity
  8
ZUWAKU
100
AcDbLine
 10
42.96721218621849
 20
23.24999940058718
 30
0.0
 11
41.21721218621849
 21
23.24999940058718
 31
0.0
  0
LINE
  5
741
330
1A
100
AcDbEntity
  8
ZUWAKU
100
AcDbLine
 10
27.39221218621855
 20
22.72499940058717
 30
0.0
 11
27.39221218621855
 21
20.97499940058717
 31
0.0
  0
ARC
  5
742
330
1A
100
AcDbEntity
  8
ZUWAKU
100
AcDbCircle
 10
26.86721218621846
 20
20.97499940058717
 30
0.0
 40
0.525
100
AcDbArc
 50
270.0
 51
0.0
  0
ARC
  5
743
330
1A
100
AcDbEntity
  8
ZUWAKU
100
AcDbCircle
 10
30.36721218621846
 20
22.72499940058717
 30
0.0
 40
0.525
100
AcDbArc
 50
90.0
 51
180.0
  0
ARC
  5
744
330
1A
100
AcDbEntity
  8
ZUWAKU
100
AcDbCircle
 10
26.86721218621846
 20
22.72499940058717
 30
0.0
 40
0.525
100
AcDbArc
 50
0.0
 51
90.0
  0
LINE
  5
745
330
1A
100
AcDbEntity
  8
ZUWAKU
100
AcDbLine
 10
32.11721218621846
 20
23.24999940058718
 30
0.0
 11
30.36721218621846
 21
23.24999940058718
 31
0.0
  0
ARC
  5
746
330
1A
100
AcDbEntity
  8
ZUWAKU
100
AcDbCircle
 10
32.11721218621846
 20
22.72499940058717
 30
0.0
 40
0.525
100
AcDbArc
 50
0.0
 51
90.0
  0
ARC
  5
747
330
1A
100
AcDbEntity
  8
ZUWAKU
100
AcDbCircle
 10
36.17697802272982
 20
22.72499940058717
 30
0.0
 40
0.525
100
AcDbArc
 50
90.0
 51
162.4744316262769
  0
LINE
  5
748
330
1A
100
AcDbEntity
  8
ZUWAKU
100
AcDbLine
 10
38.37649830153429
 20
22.5669054324202
 30
0.0
 11
37.31485866839648
 21
19.2050465941506
 31
0.0
  0
ARC
  5
749
330
1A
100
AcDbEntity
  8
ZUWAKU
100
AcDbCircle
 10
37.87586740233882
 20
22.72499940058717
 30
0.0
 40
0.525
100
AcDbArc
 50
342.4744316262769
 51
90.0
  0
LINE
  5
74A
330
1A
100
AcDbEntity
  8
ZUWAKU
100
AcDbLine
 10
36.17697802272982
 20
23.24999940058718
 30
0.0
 11
37.87586740233882
 21
23.24999940058718
 31
0.0
  0
ARC
  5
74B
330
1A
100
AcDbEntity
  8
ZUWAKU
100
AcDbCircle
 10
41.21721218621849
 20
22.72499940058717
 30
0.0
 40
0.525
100
AcDbArc
 50
90.0
 51
180.0
  0
LINE
  5
74C
330
1A
100
AcDbEntity
  8
ZUWAKU
100
AcDbLine
 10
51.89221218621856
 20
20.44999940058717
 30
0.0
 11
48.91721218621853
 21
20.44999940058717
 31
0.0
  0
LINE
  5
74D
330
1A
100
AcDbEntity
  8
ZUWAKU
100
AcDbLine
 10
48.39221218621855
 20
23.24999940058718
 30
0.0
 11
51.89221218621856
 21
23.24999940058718
 31
0.0
  0
ARC
  5
74E
330
1A
100
AcDbEntity
  8
ZUWAKU
100
AcDbCircle
 10
48.39221218621855
 20
20.44999940058717
 30
0.0
 40
2.799999999999999
100
AcDbArc
 50
90.0
 51
180.0
  0
LINE
  5
74F
330
1A
100
AcDbEntity
  8
ZUWAKU
100
AcDbLine
 10
45.59221218621849
 20
20.44999940058717
 30
0.0
 11
45.59221218621849
 21
18.63479737523183
 31
0.0
  0
ARC
  5
750
330
1A
100
AcDbEntity
  8
ZUWAKU
100
AcDbCircle
 10
42.96721218621849
 20
22.72499940058717
 30
0.0
 40
0.525
100
AcDbArc
 50
0.0
 51
90.0
  0
LINE
  5
751
330
1A
100
AcDbEntity
  8
ZUWAKU
100
AcDbLine
 10
48.39221218621855
 20
19.92499940058717
 30
0.0
 11
48.39221218621855
 21
18.63479737523183
 31
0.0
  0
ARC
  5
752
330
1A
100
AcDbEntity
  8
ZUWAKU
100
AcDbCircle
 10
48.91721218621853
 20
19.92499940058717
 30
0.0
 40
0.525
100
AcDbArc
 50
90.0
 51
180.0
  0
LINE
  5
753
330
1A
100
AcDbEntity
  8
ZUWAKU
100
AcDbLine
 10
52.41721218621854
 20
22.72499940058717
 30
0.0
 11
52.41721218621854
 21
20.97499940058717
 31
0.0
  0
ARC
  5
754
330
1A
100
AcDbEntity
  8
ZUWAKU
100
AcDbCircle
 10
51.89221218621856
 20
20.97499940058717
 30
0.0
 40
0.525
100
AcDbArc
 50
270.0
 51
0.0
  0
ARC
  5
755
330
1A
100
AcDbEntity
  8
ZUWAKU
100
AcDbCircle
 10
51.89221218621856
 20
22.72499940058717
 30
0.0
 40
0.525
100
AcDbArc
 50
0.0
 51
90.0
  0
LINE
  5
756
330
1A
100
AcDbEntity
  8
ZUWAKU
100
AcDbLine
 10
57.31721218621851
 20
23.24999940058718
 30
0.0
 11
55.56721218621851
 21
23.24999940058718
 31
0.0
  0
ARC
  5
757
330
1A
100
AcDbEntity
  8
ZUWAKU
100
AcDbCircle
 10
55.56721218621851
 20
22.72499940058717
 30
0.0
 40
0.525
100
AcDbArc
 50
90.0
 51
180.0
  0
ARC
  5
758
330
1A
100
AcDbEntity
  8
ZUWAKU
100
AcDbCircle
 10
57.31721218621851
 20
22.72499940058717
 30
0.0
 40
0.525
100
AcDbArc
 50
0.0
 51
90.0
  0
LINE
  5
759
330
1A
100
AcDbEntity
  8
ZUWAKU
100
AcDbLine
 10
68.51721218621856
 20
23.24999940058718
 30
0.0
 11
66.76721218621856
 21
23.24999940058718
 31
0.0
  0
ARC
  5
75A
330
1A
100
AcDbEntity
  8
ZUWAKU
100
AcDbCircle
 10
61.86721218621847
 20
22.72499940058717
 30
0.0
 40
0.525
100
AcDbArc
 50
90.0
 51
180.0
  0
LINE
  5
75B
330
1A
100
AcDbEntity
  8
ZUWAKU
100
AcDbLine
 10
63.61721218621847
 20
23.24999940058718
 30
0.0
 11
61.86721218621847
 21
23.24999940058718
 31
0.0
  0
ARC
  5
75C
330
1A
100
AcDbEntity
  8
ZUWAKU
100
AcDbCircle
 10
63.61721218621847
 20
22.72499940058717
 30
0.0
 40
0.525
100
AcDbArc
 50
0.0
 51
90.0
  0
ARC
  5
75D
330
1A
100
AcDbEntity
  8
ZUWAKU
100
AcDbCircle
 10
66.76721218621856
 20
22.72499940058717
 30
0.0
 40
0.525
100
AcDbArc
 50
90.0
 51
180.0
  0
ARC
  5
75E
330
1A
100
AcDbEntity
  8
ZUWAKU
100
AcDbCircle
 10
68.51721218621856
 20
22.72499940058717
 30
0.0
 40
0.525
100
AcDbArc
 50
0.0
 51
90.0
  0
TEXT
  5
75F
330
1A
100
AcDbEntity
  8
MOJI
100
AcDbText
 10
239.8272027122884
 20
3.204920457994592
 30
0.0
 40
5.599999999999999
  1
ＲＶ１０５－ＵＴ６０
 41
0.9
  7
ｽﾀｲﾙ1
100
AcDbText
  0
TEXT
  5
760
330
1A
100
AcDbEntity
  8
MOJI
100
AcDbText
 10
239.8272027122884
 20
18.00492045799455
 30
0.0
 40
5.599999999999999
  1
じょうご（角）
 41
0.9
  7
ｽﾀｲﾙ1
100
AcDbText
  0
LINE
  5
761
330
1A
100
AcDbEntity
  8
ZUWAKU
100
AcDbLine
 10
208.4466013215051
 20
29.99999940058717
 30
0.0
 11
208.4466013215053
 21
0.7999994005872395
 31
0.0
  0
LINE
  5
762
330
1A
100
AcDbEntity
  8
ZUWAKU
100
AcDbLine
 10
208.6466013215051
 20
29.99999940058717
 30
0.0
 11
208.6466013215054
 21
0.7999994005872395
 31
0.0
  0
LINE
  5
763
330
1A
100
AcDbEntity
  8
ZUWAKU
100
AcDbLine
 10
208.2466013215053
 20
29.99999940058717
 30
0.0
 11
208.2466013215053
 21
0.7999994005872395
 31
0.0
  0
TEXT
  5
764
330
1A
100
AcDbEntity
  8
ZUWAKU
100
AcDbText
 10
209.7240463437149
 20
9.655355938972789
 30
0.0
 40
4.0
  1
サイズ
 41
0.9
  7
ｽﾀｲﾙ1
100
AcDbText
  0
TEXT
  5
765
330
1A
100
AcDbEntity
  8
ZUWAKU
100
AcDbText
 10
209.7240463437147
 20
24.05535593897275
 30
0.0
 40
4.0
  1
品名
 41
0.9
  7
ｽﾀｲﾙ1
100
AcDbText
  0
TEXT
  5
766
330
1A
100
AcDbEntity
  8
SUNPOU
100
AcDbText
 10
661.9071645163821
 20
46.25388893332069
 30
0.0
 40
6.0
  1
※a　のきといの縁切り間隔寸法を示す
100
AcDbText
  0
TEXT
  5
767
330
1A
100
AcDbEntity
  8
SUNPOU
100
AcDbText
 10
661.9071645163821
 20
36.65388893332067
 30
0.0
 40
6.0
  1
※b　エルボの差込み寸法を示す
100
AcDbText
  0
TEXT
  5
768
330
1A
100
AcDbEntity
  8
ZUWAKU
100
AcDbText
 10
658.2039377187397
 20
18.00492045799455
 30
0.0
 40
5.599999999999999
  1
　　．　　．　　
 41
0.9
  7
ｽﾀｲﾙ1
100
AcDbText
  0
LINE
  5
769
330
1A
100
AcDbEntity
  8
ZUWAKU
100
AcDbLine
 10
648.8172025416416
 20
15.5999994005872
 30
0.0
 11
697.2490105799786
 21
15.5999994005872
 31
0.0
  0
LINE
  5
76A
330
1A
100
AcDbEntity
  8
ZUWAKU
100
AcDbLine
 10
648.8172025416417
 20
15.3999994005872
 30
0.0
 11
697.2490105799786
 21
15.3999994005872
 31
0.0
  0
LINE
  5
76B
330
1A
100
AcDbEntity
  8
ZUWAKU
100
AcDbLine
 10
648.8172025416416
 20
15.1999994005872
 30
0.0
 11
697.2490105799786
 21
15.1999994005872
 31
0.0
  0
LINE
  5
76C
330
1A
100
AcDbEntity
  8
ZUWAKU
100
AcDbLine
 10
505.1991795295783
 20
15.5999994005872
 30
0.0
 11
552.5269557975498
 21
15.5999994005872
 31
0.0
  0
LINE
  5
76D
330
1A
100
AcDbEntity
  8
ZUWAKU
100
AcDbLine
 10
505.1991795295783
 20
15.3999994005872
 30
0.0
 11
552.5269557975498
 21
15.3999994005872
 31
0.0
  0
LINE
  5
76E
330
1A
100
AcDbEntity
  8
ZUWAKU
100
AcDbLine
 10
505.1991795295783
 20
15.1999994005872
 30
0.0
 11
552.5269557975498
 21
15.1999994005872
 31
0.0
  0
LINE
  5
76F
330
1A
100
AcDbEntity
  8
ZUWAKU
100
AcDbLine
 10
504.7991795295784
 20
29.99999940058717
 30
0.0
 11
504.7991795295784
 21
0.7999994005872395
 31
0.0
  0
LINE
  5
770
330
1A
100
AcDbEntity
  8
ZUWAKU
100
AcDbLine
 10
505.1991795295783
 20
29.99999940058717
 30
0.0
 11
505.1991795295784
 21
0.7999994005872395
 31
0.0
  0
LINE
  5
771
330
1A
100
AcDbEntity
  8
ZUWAKU
100
AcDbLine
 10
504.9991795295782
 20
29.99999940058717
 30
0.0
 11
504.9991795295784
 21
0.7999994005872395
 31
0.0
  0
TEXT
  5
772
330
1A
100
AcDbEntity
  8
MOJI
100
AcDbText
 10
528.0409080037502
 20
18.00492045799455
 30
0.0
 40
5.599999999999999
  1
Ａ３
 41
0.9
  7
ｽﾀｲﾙ1
100
AcDbText
  0
LINE
  5
773
330
1A
100
AcDbEntity
  8
ZUWAKU
100
AcDbLine
 10
447.4243640024288
 20
29.99999940058717
 30
0.0
 11
447.4243640024288
 21
0.7999994005872395
 31
0.0
  0
LINE
  5
774
330
1A
100
AcDbEntity
  8
ZUWAKU
100
AcDbLine
 10
447.8243640024286
 20
29.99999940058717
 30
0.0
 11
447.8243640024288
 21
0.7999994005872395
 31
0.0
  0
LINE
  5
775
330
1A
100
AcDbEntity
  8
ZUWAKU
100
AcDbLine
 10
447.6243640024286
 20
29.99999940058717
 30
0.0
 11
447.6243640024287
 21
0.7999994005872395
 31
0.0
  0
TEXT
  5
776
330
1A
100
AcDbEntity
  8
MOJI
100
AcDbText
 10
464.5946260346764
 20
11.94261712224715
 30
0.0
 40
5.599999999999999
  1
ＧＲ２９□
 41
0.9
  7
ｽﾀｲﾙ1
100
AcDbText
  0
TEXT
  5
777
330
1A
100
AcDbEntity
  8
ZUWAKU
100
AcDbText
 10
462.6937616869445
 20
2.614070311726663
 30
0.0
 40
3.0
  1
□には色品番が入ります
 41
0.9
  7
ｽﾀｲﾙ1
100
AcDbText
  0
TEXT
  5
778
330
1A
100
AcDbEntity
  8
ZUWAKU
100
AcDbText
 10
506.6766245517881
 20
9.655355938972789
 30
0.0
 40
4.0
  1
縮尺
 41
0.9
  7
ｽﾀｲﾙ1
100
AcDbText
  0
TEXT
  5
779
330
1A
100
AcDbEntity
  8
MOJI
100
AcDbText
 10
528.0409080037502
 20
3.204920457994592
 30
0.0
 40
5.599999999999999
  1
１/２
 41
0.9
  7
ｽﾀｲﾙ1
100
AcDbText
  0
TEXT
  5
77A
330
1A
100
AcDbEntity
  8
ZUWAKU
100
AcDbText
 10
449.3018090246382
 20
24.05535593897275
 30
0.0
 40
4.0
  1
品番
 41
0.9
  7
ｽﾀｲﾙ1
100
AcDbText
  0
TEXT
  5
77B
330
1A
100
AcDbEntity
  8
ZUWAKU
100
AcDbText
 10
506.6766245517879
 20
24.05535593897275
 30
0.0
 40
4.0
  1
用紙
 41
0.9
  7
ｽﾀｲﾙ1
100
AcDbText
  0
LINE
  5
77C
330
1A
100
AcDbEntity
  8
ZUWAKU
100
AcDbLine
 10
552.5269557975498
 20
29.99999940058717
 30
0.0
 11
552.5269557975498
 21
0.7999994005872395
 31
0.0
  0
LINE
  5
77D
330
1A
100
AcDbEntity
  8
ZUWAKU
100
AcDbLine
 10
552.9269557975497
 20
29.99999940058717
 30
0.0
 11
552.9269557975498
 21
0.7999994005872395
 31
0.0
  0
LINE
  5
77E
330
1A
100
AcDbEntity
  8
ZUWAKU
100
AcDbLine
 10
552.7269557975496
 20
29.99999940058717
 30
0.0
 11
552.7269557975499
 21
0.7999994005872395
 31
0.0
  0
LINE
  5
77F
330
1A
100
AcDbEntity
  8
ZUWAKU
100
AcDbLine
 10
648.4172025416419
 20
29.99999940058717
 30
0.0
 11
648.4172025416419
 21
0.7999994005872395
 31
0.0
  0
LINE
  5
780
330
1A
100
AcDbEntity
  8
ZUWAKU
100
AcDbLine
 10
648.8172025416417
 20
29.99999940058717
 30
0.0
 11
648.817202541642
 21
0.7999994005872395
 31
0.0
  0
LINE
  5
781
330
1A
100
AcDbEntity
  8
ZUWAKU
100
AcDbLine
 10
648.6172025416417
 20
29.99999940058717
 30
0.0
 11
648.6172025416419
 21
0.7999994005872395
 31
0.0
  0
TEXT
  5
782
330
1A
100
AcDbEntity
  8
ZUWAKU
100
AcDbText
 10
650.2946475638514
 20
24.05535593897275
 30
0.0
 40
4.0
  1
DATE
 41
0.9
  7
ｽﾀｲﾙ1
100
AcDbText
  0
TEXT
  5
783
330
1A
100
AcDbEntity
  8
ZUWAKU
100
AcDbText
 10
708.5280842236811
 20
17.55383873627397
 30
0.0
 40
6.0
  1
積水化学工業株式会社
 41
0.9
  7
ｽﾀｲﾙ1
100
AcDbText
  0
LINE
  5
784
330
1A
100
AcDbEntity
  8
ZUWAKU
100
AcDbLine
 10
697.8490105799785
 20
29.99999940058717
 30
0.0
 11
697.8490105799787
 21
0.7999994005872395
 31
0.0
  0
LINE
  5
785
330
1A
100
AcDbEntity
  8
ZUWAKU
100
AcDbLine
 10
697.6490105799785
 20
29.99999940058717
 30
0.0
 11
697.6490105799787
 21
0.7999994005872395
 31
0.0
  0
LINE
  5
786
330
1A
100
AcDbEntity
  8
ZUWAKU
100
AcDbLine
 10
697.4490105799787
 20
29.99999940058717
 30
0.0
 11
697.4490105799787
 21
0.7999994005872395
 31
0.0
  0
LINE
  5
787
330
1A
100
AcDbEntity
  8
ZUWAKU
100
AcDbLine
 10
697.2490105799786
 20
29.99999940058717
 30
0.0
 11
697.2490105799786
 21
0.7999994005872395
 31
0.0
  0
TEXT
  5
788
330
1A
100
AcDbEntity
  8
ZUWAKU
100
AcDbText
 10
708.5280842236811
 20
6.648839714441237
 30
0.0
 40
6.0
  1
建材事業部
 41
0.9
  7
ｽﾀｲﾙ1
100
AcDbText
  0
VIEWPORT
  5
22
330
17
100
AcDbEntity
 67
     1
  8
0
100
AcDbViewport
 10
313.6808219178082
 20
148.5
 30
0.0
 40
627.3616438356165
 41
297.0
 68
     2
 69
     1
1001
ACAD
1000
MVIEW
1002
{
1070
    16
1010
0.0
1020
0.0
1030
0.0
1010
0.0
1020
0.0
1030
1.0
1040
0.0
1040
297.0
1040
313.6808219178082
1040
148.5
1040
50.0
1040
0.0
1040
0.0
1070
     0
1070
   100
1070
     1
1070
     0
1070
     0
1070
     0
1070
     0
1070
     0
1040
0.0
1040
0.0
1040
0.0
1040
1.0
1040
1.0
1040
10.0
1040
10.0
1070
     0
1002
{
1002
}
1002
}
  0
VIEWPORT
  5
64
330
17
100
AcDbEntity
 67
     1
  8
VIEWPORT
100
AcDbViewport
 10
210.0
 20
148.5
 30
0.0
 40
420.0
 41
297.0
 68
     1
 69
     2
1001
ACAD
1000
MVIEW
1002
{
1070
    16
1010
0.0
1020
0.0
1030
0.0
1010
0.0
1020
0.0
1030
1.0
1040
0.0
1040
605.8799999999998
1040
420.0
1040
297.0
1040
50.0
1040
0.0
1040
0.0
1070
     0
1070
   100
1070
     1
1070
     0
1070
     0
1070
     0
1070
     0
1070
     0
1040
0.0
1040
0.0
1040
0.0
1040
10.0
1040
10.0
1040
0.0
1040
0.0
1070
     0
1002
{
1002
}
1002
}
  0
ENDSEC
  0
SECTION
  2
OBJECTS
  0
DICTIONARY
  5
C
330
0
100
AcDbDictionary
  3
ACAD_GROUP
350
D
  3
ACAD_LAYOUT
350
5D7
  3
ACAD_MLINESTYLE
350
E
  3
ACAD_PLOTSETTINGS
350
5D8
  3
ACAD_PLOTSTYLENAME
350
5D5
  3
ACDBHEADERROUNDTRIPXREC
350
790
  0
DICTIONARY
  5
606
330
1A
100
AcDbDictionary
280
     1
  3
ACAD_LAYOUTSELFREF
360
7B2
  0
DICTIONARY
  5
604
330
17
100
AcDbDictionary
280
     1
  3
ACAD_LAYOUTSELFREF
360
7B1
  0
DICTIONARY
  5
D
102
{ACAD_REACTORS
330
C
102
}
330
C
100
AcDbDictionary
  0
DICTIONARY
  5
5D7
102
{ACAD_REACTORS
330
C
102
}
330
C
100
AcDbDictionary
  0
DICTIONARY
  5
E
102
{ACAD_REACTORS
330
C
102
}
330
C
100
AcDbDictionary
  3
STANDARD
350
13
  0
DICTIONARY
  5
5D8
102
{ACAD_REACTORS
330
C
102
}
330
C
100
AcDbDictionary
  0
ACDBDICTIONARYWDFLT
  5
5D5
102
{ACAD_REACTORS
330
C
102
}
330
C
100
AcDbDictionary
281
     1
  3
Normal
350
5D6
100
AcDbDictionaryWithDefault
340
5D6
1001
ACAD
1000
TREAT_AS_HARD
1070
     0
  0
DICTIONARY
  5
790
102
{ACAD_REACTORS
330
C
102
}
330
C
100
AcDbDictionary
  3
TSTACKALIGN
350
791
  3
TSTACKSIZE
350
792
  3
HYPERLINKBASE
350
793
  3
STYLESHEET
350
794
  3
LAYOUTDICT
350
795
  3
PLOTSETDICT
350
796
  3
PLOTSTYLNAMDICT
350
797
  3
LWETCUNION
350
798
  3
INSUNITS
350
799
  3
CEPSNTYPE
350
79A
  3
FINGERPRINTGUID
350
79B
  3
VERSIONGUID
350
79C
  3
PSVPSCALE
350
79D
  3
DIMSTYLEDATA
350
79E
  3
PUCSORTHOREF
350
79F
  3
PUCSORTHOVIEW
350
7A0
  3
PUCSBASE
350
7A1
  3
PUCSORGTOP
350
7A2
  3
PUCSORGBOTTOM
350
7A3
  3
PUCSORGLEFT
350
7A4
  3
PUCSORGRIGHT
350
7A5
  3
PUCSORGFRONT
350
7A6
  3
PUCSORGBACK
350
7A7
  3
UCSORTHOREF
350
7A8
  3
UCSORTHOVIEW
350
7A9
  3
UCSBASE
350
7AA
  3
UCSORGTOP
350
7AB
  3
UCSORGBOTTOM
350
7AC
  3
UCSORGLEFT
350
7AD
  3
UCSORGRIGHT
350
7AE
  3
UCSORGFRONT
350
7AF
  3
UCSORGBACK
350
7B0
  0
XRECORD
  5
7B2
102
{ACAD_REACTORS
330
606
102
}
330
606
100
AcDbXrecord
340
1A
  0
XRECORD
  5
7B1
102
{ACAD_REACTORS
330
604
102
}
330
604
100
AcDbXrecord
340
17
  0
MLINESTYLE
  5
13
102
{ACAD_REACTORS
330
E
102
}
330
E
100
AcDbMlineStyle
  2
STANDARD
 70
     0
  3

 62
     0
 51
90.0
 52
90.0
 71
     2
 49
0.5
 62
   256
  6
BYLAYER
 49
-0.5
 62
   256
  6
BYLAYER
  0
ACDBPLACEHOLDER
  5
5D6
102
{ACAD_REACTORS
330
5D5
102
}
330
5D5
100
AcDbPlaceHolder
280
     0
  0
XRECORD
  5
791
102
{ACAD_REACTORS
330
790
102
}
330
790
100
AcDbXrecord
 90
        1
  0
XRECORD
  5
792
102
{ACAD_REACTORS
330
790
102
}
330
790
100
AcDbXrecord
 90
       70
  0
XRECORD
  5
793
102
{ACAD_REACTORS
330
790
102
}
330
790
100
AcDbXrecord
  1

  0
XRECORD
  5
794
102
{ACAD_REACTORS
330
790
102
}
330
790
100
AcDbXrecord
  1
systemprinter.ctb
  0
XRECORD
  5
795
102
{ACAD_REACTORS
330
790
102
}
330
790
100
AcDbXrecord
340
5D7
  0
XRECORD
  5
796
102
{ACAD_REACTORS
330
790
102
}
330
790
100
AcDbXrecord
340
5D8
  0
XRECORD
  5
797
102
{ACAD_REACTORS
330
790
102
}
330
790
100
AcDbXrecord
340
5D5
  0
XRECORD
  5
798
102
{ACAD_REACTORS
330
790
102
}
330
790
100
AcDbXrecord
 90
    10781
  0
XRECORD
  5
799
102
{ACAD_REACTORS
330
790
102
}
330
790
100
AcDbXrecord
 90
        0
  0
XRECORD
  5
79A
102
{ACAD_REACTORS
330
790
102
}
330
790
100
AcDbXrecord
 90
        0
  0
XRECORD
  5
79B
102
{ACAD_REACTORS
330
790
102
}
330
790
100
AcDbXrecord
  1
{805B4C13-44A2-438E-8376-F824233FFC69}
  0
XRECORD
  5
79C
102
{ACAD_REACTORS
330
790
102
}
330
790
100
AcDbXrecord
  1
{DF300890-ADA2-4DFF-99DF-67E203D82CE4}
  0
XRECORD
  5
79D
102
{ACAD_REACTORS
330
790
102
}
330
790
100
AcDbXrecord
 40
0.0
  0
XRECORD
  5
79E
102
{ACAD_REACTORS
330
790
102
}
330
790
100
AcDbXrecord
1000
DSTYLE
1002
{
1070
   341
340
6D
1070
   343
340
6D
1070
   344
340
6D
1002
}
  0
XRECORD
  5
79F
102
{ACAD_REACTORS
330
790
102
}
330
790
100
AcDbXrecord
340
0
  0
XRECORD
  5
7A0
102
{ACAD_REACTORS
330
790
102
}
330
790
100
AcDbXrecord
 70
     0
  0
XRECORD
  5
7A1
102
{ACAD_REACTORS
330
790
102
}
330
790
100
AcDbXrecord
340
0
  0
XRECORD
  5
7A2
102
{ACAD_REACTORS
330
790
102
}
330
790
100
AcDbXrecord
 10
0.0
 20
0.0
 30
0.0
  0
XRECORD
  5
7A3
102
{ACAD_REACTORS
330
790
102
}
330
790
100
AcDbXrecord
 10
0.0
 20
0.0
 30
0.0
  0
XRECORD
  5
7A4
102
{ACAD_REACTORS
330
790
102
}
330
790
100
AcDbXrecord
 10
0.0
 20
0.0
 30
0.0
  0
XRECORD
  5
7A5
102
{ACAD_REACTORS
330
790
102
}
330
790
100
AcDbXrecord
 10
0.0
 20
0.0
 30
0.0
  0
XRECORD
  5
7A6
102
{ACAD_REACTORS
330
790
102
}
330
790
100
AcDbXrecord
 10
0.0
 20
0.0
 30
0.0
  0
XRECORD
  5
7A7
102
{ACAD_REACTORS
330
790
102
}
330
790
100
AcDbXrecord
 10
0.0
 20
0.0
 30
0.0
  0
XRECORD
  5
7A8
102
{ACAD_REACTORS
330
790
102
}
330
790
100
AcDbXrecord
340
0
  0
XRECORD
  5
7A9
102
{ACAD_REACTORS
330
790
102
}
330
790
100
AcDbXrecord
 70
     0
  0
XRECORD
  5
7AA
102
{ACAD_REACTORS
330
790
102
}
330
790
100
AcDbXrecord
340
0
  0
XRECORD
  5
7AB
102
{ACAD_REACTORS
330
790
102
}
330
790
100
AcDbXrecord
 10
0.0
 20
0.0
 30
0.0
  0
XRECORD
  5
7AC
102
{ACAD_REACTORS
330
790
102
}
330
790
100
AcDbXrecord
 10
0.0
 20
0.0
 30
0.0
  0
XRECORD
  5
7AD
102
{ACAD_REACTORS
330
790
102
}
330
790
100
AcDbXrecord
 10
0.0
 20
0.0
 30
0.0
  0
XRECORD
  5
7AE
102
{ACAD_REACTORS
330
790
102
}
330
790
100
AcDbXrecord
 10
0.0
 20
0.0
 30
0.0
  0
XRECORD
  5
7AF
102
{ACAD_REACTORS
330
790
102
}
330
790
100
AcDbXrecord
 10
0.0
 20
0.0
 30
0.0
  0
XRECORD
  5
7B0
102
{ACAD_REACTORS
330
790
102
}
330
790
100
AcDbXrecord
 10
0.0
 20
0.0
 30
0.0
  0
ENDSEC
  0
EOF
