  0
SECTION
  2
HEADER
  9
$ACADVER
  1
AC1014
  9
$ACADMAINTVER
 70
     9
  9
$DWGCODEPAGE
  3
ANSI_932
  9
$INSBASE
 10
0.0
 20
0.0
 30
0.0
  9
$EXTMIN
 10
-0.05126640194635
 20
-0.0362526699479986
 30
-0.0000000000112498
  9
$EXTMAX
 10
797.6628945888771
 20
551.6439420217511
 30
0.0000000000002956
  9
$LIMMIN
 10
0.0
 20
0.0
  9
$LIMMAX
 10
840.0
 20
594.0
  9
$ORTHOMODE
 70
     0
  9
$REGENMODE
 70
     1
  9
$FILLMODE
 70
     1
  9
$QTEXTMODE
 70
     0
  9
$MIRRTEXT
 70
     1
  9
$DRAGMODE
 70
     2
  9
$LTSCALE
 40
2.0
  9
$OSMODE
 70
    35
  9
$ATTMODE
 70
     1
  9
$TEXTSIZE
 40
6.0
  9
$TRACEWID
 40
1.0
  9
$TEXTSTYLE
  7
STANDARD
  9
$CLAYER
  8
SEIHIN
  9
$CELTYPE
  6
BYLAYER
  9
$CECOLOR
 62
   256
  9
$CELTSCALE
 40
1.0
  9
$DELOBJ
 70
     1
  9
$DISPSILH
 70
     0
  9
$DIMSCALE
 40
1.0
  9
$DIMASZ
 40
7.0
  9
$DIMEXO
 40
6.0
  9
$DIMDLI
 40
14.0
  9
$DIMRND
 40
0.0
  9
$DIMDLE
 40
0.0
  9
$DIMEXE
 40
3.0
  9
$DIMTP
 40
0.0
  9
$DIMTM
 40
0.0
  9
$DIMTXT
 40
6.0
  9
$DIMCEN
 40
150.0
  9
$DIMTSZ
 40
0.0
  9
$DIMTOL
 70
     0
  9
$DIMLIM
 70
     0
  9
$DIMTIH
 70
     0
  9
$DIMTOH
 70
     0
  9
$DIMSE1
 70
     0
  9
$DIMSE2
 70
     0
  9
$DIMTAD
 70
     3
  9
$DIMZIN
 70
     0
  9
$DIMBLK
  1

  9
$DIMASO
 70
     1
  9
$DIMSHO
 70
     1
  9
$DIMPOST
  1

  9
$DIMAPOST
  1

  9
$DIMALT
 70
     0
  9
$DIMALTD
 70
     2
  9
$DIMALTF
 40
25.4
  9
$DIMLFAC
 40
1.0
  9
$DIMTOFL
 70
     1
  9
$DIMTVP
 40
0.0
  9
$DIMTIX
 70
     0
  9
$DIMSOXD
 70
     0
  9
$DIMSAH
 70
     1
  9
$DIMBLK1
  1
OPEN
  9
$DIMBLK2
  1
OPEN
  9
$DIMSTYLE
  2
STANDARD
  9
$DIMCLRD
 70
   256
  9
$DIMCLRE
 70
   256
  9
$DIMCLRT
 70
   256
  9
$DIMTFAC
 40
1.0
  9
$DIMGAP
 40
2.0
  9
$DIMJUST
 70
     0
  9
$DIMSD1
 70
     0
  9
$DIMSD2
 70
     0
  9
$DIMTOLJ
 70
     1
  9
$DIMTZIN
 70
     0
  9
$DIMALTZ
 70
     0
  9
$DIMALTTZ
 70
     0
  9
$DIMFIT
 70
     3
  9
$DIMUPT
 70
     0
  9
$DIMUNIT
 70
     2
  9
$DIMDEC
 70
     0
  9
$DIMTDEC
 70
     0
  9
$DIMALTU
 70
     2
  9
$DIMALTTD
 70
     2
  9
$DIMTXSTY
  7
STANDARD
  9
$DIMAUNIT
 70
     0
  9
$LUNITS
 70
     2
  9
$LUPREC
 70
     4
  9
$SKETCHINC
 40
1.0
  9
$FILLETRAD
 40
20.0
  9
$AUNITS
 70
     0
  9
$AUPREC
 70
     0
  9
$MENU
  1
.
  9
$ELEVATION
 40
0.0
  9
$PELEVATION
 40
0.0
  9
$THICKNESS
 40
0.0
  9
$LIMCHECK
 70
     0
  9
$BLIPMODE
 70
     0
  9
$CHAMFERA
 40
20.0
  9
$CHAMFERB
 40
20.0
  9
$CHAMFERC
 40
40.0
  9
$CHAMFERD
 40
0.0
  9
$SKPOLY
 70
     0
  9
$TDCREATE
 40
2451201.421056829
  9
$TDUPDATE
 40
2453805.621540254
  9
$TDINDWG
 40
0.0147887500
  9
$TDUSRTIMER
 40
0.0147887500
  9
$USRTIMER
 70
     1
  9
$ANGBASE
 50
0.0
  9
$ANGDIR
 70
     0
  9
$PDMODE
 70
     0
  9
$PDSIZE
 40
0.0
  9
$PLINEWID
 40
0.0
  9
$COORDS
 70
     1
  9
$SPLFRAME
 70
     0
  9
$SPLINETYPE
 70
     6
  9
$SPLINESEGS
 70
     8
  9
$ATTDIA
 70
     0
  9
$ATTREQ
 70
     1
  9
$HANDLING
 70
 10241
  9
$HANDSEED
  5
93E
  9
$SURFTAB1
 70
     6
  9
$SURFTAB2
 70
     6
  9
$SURFTYPE
 70
     6
  9
$SURFU
 70
     6
  9
$SURFV
 70
     6
  9
$UCSNAME
  2

  9
$UCSORG
 10
0.0
 20
0.0
 30
0.0
  9
$UCSXDIR
 10
1.0
 20
0.0
 30
0.0
  9
$UCSYDIR
 10
0.0
 20
1.0
 30
0.0
  9
$PUCSNAME
  2

  9
$PUCSORG
 10
0.0
 20
0.0
 30
0.0
  9
$PUCSXDIR
 10
1.0
 20
0.0
 30
0.0
  9
$PUCSYDIR
 10
0.0
 20
1.0
 30
0.0
  9
$USERI1
 70
     0
  9
$USERI2
 70
     0
  9
$USERI3
 70
     0
  9
$USERI4
 70
     0
  9
$USERI5
 70
     0
  9
$USERR1
 40
0.0
  9
$USERR2
 40
0.0
  9
$USERR3
 40
0.0
  9
$USERR4
 40
0.0
  9
$USERR5
 40
0.0
  9
$WORLDVIEW
 70
     1
  9
$SHADEDGE
 70
     3
  9
$SHADEDIF
 70
    70
  9
$TILEMODE
 70
     1
  9
$MAXACTVP
 70
    16
  9
$PINSBASE
 10
0.0
 20
0.0
 30
0.0
  9
$PLIMCHECK
 70
     0
  9
$PEXTMIN
 10
0.0
 20
0.0
 30
0.0
  9
$PEXTMAX
 10
420.0
 20
297.0
 30
0.0
  9
$PLIMMIN
 10
0.0
 20
0.0
  9
$PLIMMAX
 10
420.0
 20
297.0
  9
$UNITMODE
 70
     0
  9
$VISRETAIN
 70
     0
  9
$PLINEGEN
 70
     0
  9
$PSLTSCALE
 70
     1
  9
$TREEDEPTH
 70
  3020
  9
$PICKSTYLE
 70
     1
  9
$CMLSTYLE
  2
STANDARD
  9
$CMLJUST
 70
     0
  9
$CMLSCALE
 40
1.0
  9
$PROXYGRAPHICS
 70
     1
  9
$MEASUREMENT
 70
     1
  0
ENDSEC
  0
SECTION
  2
CLASSES
  0
CLASS
  1
ACDBDICTIONARYWDFLT
  2
AcDbDictionaryWithDefault
  3
AutoCAD 2000
 90
        0
280
     0
281
     0
  0
CLASS
  1
ACDBPLACEHOLDER
  2
AcDbPlaceHolder
  3
AutoCAD 2000
 90
        0
280
     0
281
     0
  0
CLASS
  1
LAYOUT
  2
AcDbLayout
  3
AutoCAD 2000
 90
        0
280
     0
281
     0
  0
CLASS
  1
LONG_TRANSACTION
  2
AcDbLongTransaction
  3
AutoCAD 2000
 90
        0
280
     0
281
     0
  0
CLASS
  1
LWPOLYLINE
  2
AcDbPolyline
  3
AutoCAD 2000
 90
        0
280
     0
281
     1
  0
CLASS
  1
HATCH
  2
AcDbHatch
  3
AutoCAD 2000
 90
        0
280
     0
281
     1
  0
CLASS
  1
XRECORD
  2
AcDbXrecord
  3
AutoCAD 2000
 90
        0
280
     0
281
     0
  0
CLASS
  1
LONG_TRANSACTION
  2
AcDbLongTransaction
  3
AutoCAD 2000
 90
        0
280
     0
281
     0
  0
CLASS
  1
LWPOLYLINE
  2
AcDbPolyline
  3
AutoCAD 2000
 90
        0
280
     0
281
     1
  0
CLASS
  1
HATCH
  2
AcDbHatch
  3
AutoCAD 2000
 90
        0
280
     0
281
     1
  0
CLASS
  1
XRECORD
  2
AcDbXrecord
  3
AutoCAD 2000
 90
        0
280
     0
281
     0
  0
ENDSEC
  0
SECTION
  2
TABLES
  0
TABLE
  2
VPORT
  5
8
330
0
100
AcDbSymbolTable
 70
     2
  0
VPORT
  5
91A
330
8
100
AcDbSymbolTableRecord
100
AcDbViewportTableRecord
  2
*ACTIVE
 70
     0
 10
0.0
 20
0.0
 11
1.0
 21
1.0
 12
430.6594084072399
 22
277.5764157935197
 13
0.0
 23
0.0
 14
5.0
 24
5.0
 15
0.0
 25
0.0
 16
0.0
 26
0.0
 36
1.0
 17
0.0
 27
0.0
 37
0.0
 40
660.3241606693625
 41
1.795454545454545
 42
50.0
 43
0.0
 44
0.0
 50
0.0
 51
0.0
 71
     0
 72
   100
 73
     1
 74
     0
 75
     0
 76
     0
 77
     0
 78
     0
  0
ENDTAB
  0
TABLE
  2
LTYPE
  5
5
330
0
100
AcDbSymbolTable
 70
     4
  0
LTYPE
  5
14
330
5
100
AcDbSymbolTableRecord
100
AcDbLinetypeTableRecord
  2
BYBLOCK
 70
     0
  3

 72
    65
 73
     0
 40
0.0
  0
LTYPE
  5
15
330
5
100
AcDbSymbolTableRecord
100
AcDbLinetypeTableRecord
  2
BYLAYER
 70
     0
  3

 72
    65
 73
     0
 40
0.0
  0
LTYPE
  5
16
330
5
100
AcDbSymbolTableRecord
100
AcDbLinetypeTableRecord
  2
CONTINUOUS
 70
     0
  3
Solid line
 72
    65
 73
     0
 40
0.0
  0
LTYPE
  5
115
330
5
100
AcDbSymbolTableRecord
100
AcDbLinetypeTableRecord
  2
PHANTOM
 70
     0
  3
______  __  __  ______  __  __  ______  __  __ 
 72
    65
 73
     6
 40
2.5
 49
1.25
 74
     0
 49
-0.25
 74
     0
 49
0.25
 74
     0
 49
-0.25
 74
     0
 49
0.25
 74
     0
 49
-0.25
 74
     0
  0
LTYPE
  5
135
330
5
100
AcDbSymbolTableRecord
100
AcDbLinetypeTableRecord
  2
CENTER
 70
     0
  3
____ _ ____ _ ____ _ ____ _ ____ _ ____ _ ____ 
 72
    65
 73
     4
 40
2.0
 49
1.25
 74
     0
 49
-0.25
 74
     0
 49
0.25
 74
     0
 49
-0.25
 74
     0
  0
LTYPE
  5
136
330
5
100
AcDbSymbolTableRecord
100
AcDbLinetypeTableRecord
  2
DASHED
 70
     0
  3
__ __ __ __ __ __ __ __ __ __ __ __ __ __ __ __
 72
    65
 73
     2
 40
0.75
 49
0.5
 74
     0
 49
-0.25
 74
     0
  0
ENDTAB
  0
TABLE
  2
LAYER
  5
2
330
0
100
AcDbSymbolTable
 70
     9
  0
LAYER
  5
F
330
2
100
AcDbSymbolTableRecord
100
AcDbLayerTableRecord
  2
0
 70
     0
 62
     7
  6
CONTINUOUS
  0
LAYER
  5
62
330
2
100
AcDbSymbolTableRecord
100
AcDbLayerTableRecord
  2
VIEWPORT
 70
     0
 62
     7
  6
CONTINUOUS
  0
LAYER
  5
65
330
2
100
AcDbSymbolTableRecord
100
AcDbLayerTableRecord
  2
ZUWAKU
 70
     0
 62
     7
  6
CONTINUOUS
  0
LAYER
  5
1DA
330
2
100
AcDbSymbolTableRecord
100
AcDbLayerTableRecord
  2
SEIHIN
 70
     0
 62
     3
  6
CONTINUOUS
  0
LAYER
  5
1DB
330
2
100
AcDbSymbolTableRecord
100
AcDbLayerTableRecord
  2
SUNPOU
 70
     0
 62
     4
  6
CONTINUOUS
  0
LAYER
  5
1DC
330
2
100
AcDbSymbolTableRecord
100
AcDbLayerTableRecord
  2
CENTER_L
 70
     0
 62
     1
  6
CENTER
  0
LAYER
  5
1DD
330
2
100
AcDbSymbolTableRecord
100
AcDbLayerTableRecord
  2
DEFPOINTS
 70
     0
 62
     7
  6
CONTINUOUS
  0
LAYER
  5
1DE
330
2
100
AcDbSymbolTableRecord
100
AcDbLayerTableRecord
  2
NOKITOI
 70
     0
 62
     8
  6
PHANTOM
  0
LAYER
  5
7A3
330
2
100
AcDbSymbolTableRecord
100
AcDbLayerTableRecord
  2
MOJI
 70
     0
 62
     2
  6
CONTINUOUS
  0
ENDTAB
  0
TABLE
  2
STYLE
  5
3
330
0
100
AcDbSymbolTable
 70
     2
  0
STYLE
  5
10
330
3
100
AcDbSymbolTableRecord
100
AcDbTextStyleTableRecord
  2
STANDARD
 70
     0
 40
0.0
 41
1.0
 50
0.0
 71
     0
 42
6.0
  3
TXT
  4
bigfont.shx
  0
STYLE
  5
7A4
330
3
100
AcDbSymbolTableRecord
100
AcDbTextStyleTableRecord
  2
ｽﾀｲﾙ1
 70
     0
 40
0.0
 41
1.0
 50
0.0
 71
     0
 42
2.5
  3
MS PGothic.ttf
  4

1001
ACAD
1000
MS PGothic
1071
    32818
  0
ENDTAB
  0
TABLE
  2
VIEW
  5
6
330
0
100
AcDbSymbolTable
 70
     0
  0
ENDTAB
  0
TABLE
  2
UCS
  5
7
330
0
100
AcDbSymbolTable
 70
     0
  0
ENDTAB
  0
TABLE
  2
APPID
  5
9
330
0
100
AcDbSymbolTable
 70
     1
  0
APPID
  5
11
330
9
100
AcDbSymbolTableRecord
100
AcDbRegAppTableRecord
  2
ACAD
 70
     0
  0
ENDTAB
  0
TABLE
  2
DIMSTYLE
  5
A
330
0
100
AcDbSymbolTable
 70
     1
  0
DIMSTYLE
105
1D
102
{ACAD_REACTORS
330
67D
330
68A
330
697
330
6A4
330
6BE
102
}
330
A
100
AcDbSymbolTableRecord
100
AcDbDimStyleTableRecord
  2
STANDARD
 70
     0
  3

  4

  5

  6

  7

 40
1.0
 41
0.18
 42
0.0625
 43
0.38
 44
0.18
 45
0.0
 46
0.0
 47
0.0
 48
0.0
140
0.18
141
0.09
142
0.0
143
25.4
144
1.0
145
0.0
146
1.0
147
0.09
 71
     0
 72
     0
 73
     1
 74
     1
 75
     0
 76
     0
 77
     0
 78
     0
170
     0
171
     2
172
     0
173
     0
174
     0
175
     0
176
     0
177
     0
178
     0
270
     2
271
     4
272
     4
273
     2
274
     2
340
10
275
     0
280
     0
281
     0
282
     0
283
     1
284
     0
285
     0
286
     0
287
     3
288
     0
  0
ENDTAB
  0
TABLE
  2
BLOCK_RECORD
  5
1
330
0
100
AcDbSymbolTable
 70
     6
  0
BLOCK_RECORD
  5
1A
102
{ACAD_XDICTIONARY
360
795
102
}
330
1
100
AcDbSymbolTableRecord
100
AcDbBlockTableRecord
  2
*MODEL_SPACE
  0
BLOCK_RECORD
  5
17
102
{ACAD_XDICTIONARY
360
793
102
}
330
1
100
AcDbSymbolTableRecord
100
AcDbBlockTableRecord
  2
*PAPER_SPACE
  0
BLOCK_RECORD
  5
6D
330
1
100
AcDbSymbolTableRecord
100
AcDbBlockTableRecord
  2
_OPEN
  0
BLOCK_RECORD
  5
671
330
1
100
AcDbSymbolTableRecord
100
AcDbBlockTableRecord
  2
*D1
  0
BLOCK_RECORD
  5
67E
330
1
100
AcDbSymbolTableRecord
100
AcDbBlockTableRecord
  2
*D2
  0
BLOCK_RECORD
  5
68B
330
1
100
AcDbSymbolTableRecord
100
AcDbBlockTableRecord
  2
*D3
  0
BLOCK_RECORD
  5
698
330
1
100
AcDbSymbolTableRecord
100
AcDbBlockTableRecord
  2
*D4
  0
BLOCK_RECORD
  5
6B2
330
1
100
AcDbSymbolTableRecord
100
AcDbBlockTableRecord
  2
*D5
  0
ENDTAB
  0
ENDSEC
  0
SECTION
  2
BLOCKS
  0
BLOCK
  5
1B
330
1A
100
AcDbEntity
  8
0
100
AcDbBlockBegin
  2
*MODEL_SPACE
 70
     0
 10
0.0
 20
0.0
 30
0.0
  3
*MODEL_SPACE
  1

  0
ENDBLK
  5
1C
330
1A
100
AcDbEntity
  8
0
100
AcDbBlockEnd
  0
BLOCK
  5
18
330
17
100
AcDbEntity
 67
     1
  8
0
100
AcDbBlockBegin
  2
*PAPER_SPACE
 70
     0
 10
0.0
 20
0.0
 30
0.0
  3
*PAPER_SPACE
  1

  0
ENDBLK
  5
19
330
17
100
AcDbEntity
 67
     1
  8
0
100
AcDbBlockEnd
  0
BLOCK
  5
6E
330
6D
100
AcDbEntity
  8
0
100
AcDbBlockBegin
  2
_OPEN
 70
     0
 10
0.0
 20
0.0
 30
0.0
  3
_OPEN
  1

  0
LINE
  5
6F
330
6D
100
AcDbEntity
  8
0
  6
BYBLOCK
 62
     0
100
AcDbLine
 10
-1.0
 20
0.1666666666666666
 30
0.0
 11
0.0
 21
0.0
 31
0.0
  0
LINE
  5
70
330
6D
100
AcDbEntity
  8
0
  6
BYBLOCK
 62
     0
100
AcDbLine
 10
0.0
 20
0.0
 30
0.0
 11
-1.0
 21
-0.1666666666666666
 31
0.0
  0
LINE
  5
71
330
6D
100
AcDbEntity
  8
0
  6
BYBLOCK
 62
     0
100
AcDbLine
 10
0.0
 20
0.0
 30
0.0
 11
-1.0
 21
0.0
 31
0.0
  0
ENDBLK
  5
72
330
6D
100
AcDbEntity
  8
0
100
AcDbBlockEnd
  0
BLOCK
  5
726
330
671
100
AcDbEntity
  8
0
100
AcDbBlockBegin
  2
*D1
 70
     1
 10
0.0
 20
0.0
 30
0.0
  3
*D1
  1

  0
LINE
  5
727
330
671
100
AcDbEntity
  8
0
  6
BYBLOCK
 62
     4
100
AcDbLine
 10
403.669116813802
 20
217.9154450749808
 30
0.0
 11
403.669116813802
 21
263.1950369257331
 31
0.0
  0
LINE
  5
728
330
671
100
AcDbEntity
  8
0
  6
BYBLOCK
 62
     4
100
AcDbLine
 10
551.6693938138021
 20
217.9154590749808
 30
0.0
 11
551.6693938138021
 21
263.1950369257331
 31
0.0
  0
LINE
  5
729
330
671
100
AcDbEntity
  8
0
  6
BYBLOCK
 62
     4
100
AcDbLine
 10
410.669116813802
 20
260.1950369257331
 30
0.0
 11
544.6693938138021
 21
260.1950369257331
 31
0.0
  0
INSERT
  5
72A
330
671
100
AcDbEntity
  8
0
  6
BYBLOCK
 62
     4
100
AcDbBlockReference
  2
_OPEN
 10
403.669116813802
 20
260.1950369257331
 30
0.0
 41
7.0
 42
7.0
 43
7.0
 50
180.0
  0
INSERT
  5
72B
330
671
100
AcDbEntity
  8
0
  6
BYBLOCK
 62
     4
100
AcDbBlockReference
  2
_OPEN
 10
551.6693938138021
 20
260.1950369257331
 30
0.0
 41
7.0
 42
7.0
 43
7.0
  0
MTEXT
  5
72C
330
671
100
AcDbEntity
  8
0
  6
BYBLOCK
 62
     4
100
AcDbMText
 10
477.669255313802
 20
265.1950369257331
 30
0.0
 40
6.0
 41
0.0
 71
     5
 72
     5
  1
\A1;148
1001
ACAD
1000
MTEXTBEGIN
1070
    73
1070
     1
1070
    44
1040
1.0
1070
    74
1070
     0
1000
MTEXTEND
1000
MTEXTBEGIN
1070
    73
1070
     1
1070
    44
1040
1.0
1070
    74
1070
     0
1000
MTEXTEND
  0
POINT
  5
72D
330
671
100
AcDbEntity
  8
DEFPOINTS
  6
BYBLOCK
 62
     0
100
AcDbPoint
 10
403.669116813802
 20
211.9154450749808
 30
0.0
  0
POINT
  5
72E
330
671
100
AcDbEntity
  8
DEFPOINTS
  6
BYBLOCK
 62
     0
100
AcDbPoint
 10
551.6693938138021
 20
211.9154590749808
 30
0.0
  0
POINT
  5
72F
330
671
100
AcDbEntity
  8
DEFPOINTS
  6
BYBLOCK
 62
     0
100
AcDbPoint
 10
551.6693938138021
 20
260.1950369257331
 30
0.0
  0
ENDBLK
  5
730
330
671
100
AcDbEntity
  8
0
100
AcDbBlockEnd
  0
BLOCK
  5
731
330
67E
100
AcDbEntity
  8
0
100
AcDbBlockBegin
  2
*D2
 70
     1
 10
0.0
 20
0.0
 30
0.0
  3
*D2
  1

  0
LINE
  5
732
330
67E
100
AcDbEntity
  8
0
  6
BYBLOCK
 62
     4
100
AcDbLine
 10
541.6693938138021
 20
217.9154590749808
 30
0.0
 11
541.6693938138021
 21
246.6982841037154
 31
0.0
  0
LINE
  5
733
330
67E
100
AcDbEntity
  8
0
  6
BYBLOCK
 62
     4
100
AcDbLine
 10
571.669393813802
 20
217.9154590749808
 30
0.0
 11
571.669393813802
 21
246.6982841037154
 31
0.0
  0
LINE
  5
734
330
67E
100
AcDbEntity
  8
0
  6
BYBLOCK
 62
     4
100
AcDbLine
 10
548.6693938138021
 20
243.6982841037154
 30
0.0
 11
564.6693938138021
 21
243.6982841037154
 31
0.0
  0
INSERT
  5
735
330
67E
100
AcDbEntity
  8
0
  6
BYBLOCK
 62
     4
100
AcDbBlockReference
  2
_OPEN
 10
541.6693938138021
 20
243.6982841037154
 30
0.0
 41
7.0
 42
7.0
 43
7.0
 50
180.0
  0
INSERT
  5
736
330
67E
100
AcDbEntity
  8
0
  6
BYBLOCK
 62
     4
100
AcDbBlockReference
  2
_OPEN
 10
571.669393813802
 20
243.6982841037154
 30
0.0
 41
7.0
 42
7.0
 43
7.0
  0
MTEXT
  5
737
330
67E
100
AcDbEntity
  8
0
  6
BYBLOCK
 62
     4
100
AcDbMText
 10
556.6693938138021
 20
248.6982841037154
 30
0.0
 40
6.0
 41
0.0
 71
     5
 72
     5
  1
\A1;30
1001
ACAD
1000
MTEXTBEGIN
1070
    73
1070
     1
1070
    44
1040
1.0
1070
    74
1070
     0
1000
MTEXTEND
1000
MTEXTBEGIN
1070
    73
1070
     1
1070
    44
1040
1.0
1070
    74
1070
     0
1000
MTEXTEND
  0
POINT
  5
738
330
67E
100
AcDbEntity
  8
DEFPOINTS
  6
BYBLOCK
 62
     0
100
AcDbPoint
 10
541.6693938138021
 20
211.9154590749808
 30
0.0
  0
POINT
  5
739
330
67E
100
AcDbEntity
  8
DEFPOINTS
  6
BYBLOCK
 62
     0
100
AcDbPoint
 10
571.669393813802
 20
211.9154590749808
 30
0.0
  0
POINT
  5
73A
330
67E
100
AcDbEntity
  8
DEFPOINTS
  6
BYBLOCK
 62
     0
100
AcDbPoint
 10
571.669393813802
 20
243.6982841037154
 30
0.0
  0
ENDBLK
  5
73B
330
67E
100
AcDbEntity
  8
0
100
AcDbBlockEnd
  0
BLOCK
  5
73C
330
68B
100
AcDbEntity
  8
0
100
AcDbBlockBegin
  2
*D3
 70
     1
 10
0.0
 20
0.0
 30
0.0
  3
*D3
  1

  0
LINE
  5
73D
330
68B
100
AcDbEntity
  8
0
  6
BYBLOCK
 62
     4
100
AcDbLine
 10
403.6688242487697
 20
348.2325378975851
 30
0.0
 11
403.6688242487697
 21
323.6286256842388
 31
0.0
  0
LINE
  5
73E
330
68B
100
AcDbEntity
  8
0
  6
BYBLOCK
 62
     4
100
AcDbLine
 10
438.6688242487696
 20
349.7337378975851
 30
0.0
 11
438.6688242487696
 21
323.6286256842388
 31
0.0
  0
LINE
  5
73F
330
68B
100
AcDbEntity
  8
0
  6
BYBLOCK
 62
     4
100
AcDbLine
 10
396.6688242487697
 20
326.6286256842388
 30
0.0
 11
389.6688242487696
 21
326.6286256842388
 31
0.0
  0
LINE
  5
740
330
68B
100
AcDbEntity
  8
0
  6
BYBLOCK
 62
     4
100
AcDbLine
 10
445.6688242487697
 20
326.6286256842388
 30
0.0
 11
452.6688242487696
 21
326.6286256842388
 31
0.0
  0
LINE
  5
741
330
68B
100
AcDbEntity
  8
0
  6
BYBLOCK
 62
     4
100
AcDbLine
 10
403.6688242487697
 20
326.6286256842388
 30
0.0
 11
438.6688242487696
 21
326.6286256842388
 31
0.0
  0
INSERT
  5
742
330
68B
100
AcDbEntity
  8
0
  6
BYBLOCK
 62
     4
100
AcDbBlockReference
  2
_OPEN
 10
403.6688242487697
 20
326.6286256842388
 30
0.0
 41
7.0
 42
7.0
 43
7.0
  0
INSERT
  5
743
330
68B
100
AcDbEntity
  8
0
  6
BYBLOCK
 62
     4
100
AcDbBlockReference
  2
_OPEN
 10
438.6688242487696
 20
326.6286256842388
 30
0.0
 41
7.0
 42
7.0
 43
7.0
 50
180.0
  0
MTEXT
  5
744
330
68B
100
AcDbEntity
  8
0
  6
BYBLOCK
 62
     4
100
AcDbMText
 10
421.1688242487697
 20
331.6286256842388
 30
0.0
 40
6.0
 41
0.0
 71
     5
 72
     5
  1
\A1;※35
1001
ACAD
1000
MTEXTBEGIN
1070
    73
1070
     1
1070
    44
1040
1.0
1070
    74
1070
     0
1000
MTEXTEND
1000
MTEXTBEGIN
1070
    73
1070
     1
1070
    44
1040
1.0
1070
    74
1070
     0
1000
MTEXTEND
  0
POINT
  5
745
330
68B
100
AcDbEntity
  8
DEFPOINTS
  6
BYBLOCK
 62
     0
100
AcDbPoint
 10
403.6688242487697
 20
354.2325378975851
 30
0.0
  0
POINT
  5
746
330
68B
100
AcDbEntity
  8
DEFPOINTS
  6
BYBLOCK
 62
     0
100
AcDbPoint
 10
438.6688242487696
 20
355.7337378975852
 30
0.0
  0
POINT
  5
747
330
68B
100
AcDbEntity
  8
DEFPOINTS
  6
BYBLOCK
 62
     0
100
AcDbPoint
 10
438.6688242487696
 20
326.6286256842388
 30
0.0
  0
ENDBLK
  5
748
330
68B
100
AcDbEntity
  8
0
100
AcDbBlockEnd
  0
BLOCK
  5
749
330
698
100
AcDbEntity
  8
0
100
AcDbBlockBegin
  2
*D4
 70
     1
 10
0.0
 20
0.0
 30
0.0
  3
*D4
  1

  0
LINE
  5
74A
330
698
100
AcDbEntity
  8
0
  6
BYBLOCK
 62
     4
100
AcDbLine
 10
551.6687742487695
 20
348.7478978975851
 30
0.0
 11
551.6687742487695
 21
323.6286256842388
 31
0.0
  0
LINE
  5
74B
330
698
100
AcDbEntity
  8
0
  6
BYBLOCK
 62
     4
100
AcDbLine
 10
517.1687892487695
 20
358.8097648975851
 30
0.0
 11
517.1687892487695
 21
323.6286256842388
 31
0.0
  0
LINE
  5
74C
330
698
100
AcDbEntity
  8
0
  6
BYBLOCK
 62
     4
100
AcDbLine
 10
558.6687742487695
 20
326.6286256842388
 30
0.0
 11
565.6687742487695
 21
326.6286256842388
 31
0.0
  0
LINE
  5
74D
330
698
100
AcDbEntity
  8
0
  6
BYBLOCK
 62
     4
100
AcDbLine
 10
510.1687892487696
 20
326.6286256842388
 30
0.0
 11
503.1687892487695
 21
326.6286256842388
 31
0.0
  0
LINE
  5
74E
330
698
100
AcDbEntity
  8
0
  6
BYBLOCK
 62
     4
100
AcDbLine
 10
551.6687742487695
 20
326.6286256842388
 30
0.0
 11
517.1687892487695
 21
326.6286256842388
 31
0.0
  0
INSERT
  5
74F
330
698
100
AcDbEntity
  8
0
  6
BYBLOCK
 62
     4
100
AcDbBlockReference
  2
_OPEN
 10
551.6687742487695
 20
326.6286256842388
 30
0.0
 41
7.0
 42
7.0
 43
7.0
 50
180.0
  0
INSERT
  5
750
330
698
100
AcDbEntity
  8
0
  6
BYBLOCK
 62
     4
100
AcDbBlockReference
  2
_OPEN
 10
517.1687892487695
 20
326.6286256842388
 30
0.0
 41
7.0
 42
7.0
 43
7.0
  0
MTEXT
  5
751
330
698
100
AcDbEntity
  8
0
  6
BYBLOCK
 62
     4
100
AcDbMText
 10
534.4187817487696
 20
331.6286256842388
 30
0.0
 40
6.0
 41
0.0
 71
     5
 72
     5
  1
\A1;※34
1001
ACAD
1000
MTEXTBEGIN
1070
    73
1070
     1
1070
    44
1040
1.0
1070
    74
1070
     0
1000
MTEXTEND
1000
MTEXTBEGIN
1070
    73
1070
     1
1070
    44
1040
1.0
1070
    74
1070
     0
1000
MTEXTEND
  0
POINT
  5
752
330
698
100
AcDbEntity
  8
DEFPOINTS
  6
BYBLOCK
 62
     0
100
AcDbPoint
 10
551.6687742487695
 20
354.7478978975851
 30
0.0
  0
POINT
  5
753
330
698
100
AcDbEntity
  8
DEFPOINTS
  6
BYBLOCK
 62
     0
100
AcDbPoint
 10
517.1687892487695
 20
364.8097648975851
 30
0.0
  0
POINT
  5
754
330
698
100
AcDbEntity
  8
DEFPOINTS
  6
BYBLOCK
 62
     0
100
AcDbPoint
 10
517.1687892487695
 20
326.6286256842388
 30
0.0
  0
ENDBLK
  5
755
330
698
100
AcDbEntity
  8
0
100
AcDbBlockEnd
  0
BLOCK
  5
756
330
6B2
100
AcDbEntity
  8
0
100
AcDbBlockBegin
  2
*D5
 70
     1
 10
0.0
 20
0.0
 30
0.0
  3
*D5
  1

  0
LINE
  5
757
330
6B2
100
AcDbEntity
  8
0
  6
BYBLOCK
 62
     4
100
AcDbLine
 10
397.6691188138021
 20
210.9152520749808
 30
0.0
 11
374.0041934060532
 21
210.9152520749808
 31
0.0
  0
LINE
  5
758
330
6B2
100
AcDbEntity
  8
0
  6
BYBLOCK
 62
     4
100
AcDbLine
 10
443.341342813802
 20
148.6157150749808
 30
0.0
 11
374.0041934060532
 21
148.6157150749808
 31
0.0
  0
LINE
  5
759
330
6B2
100
AcDbEntity
  8
0
  6
BYBLOCK
 62
     4
100
AcDbLine
 10
377.0041934060532
 20
203.9152520749808
 30
0.0
 11
377.0041934060532
 21
155.6157150749808
 31
0.0
  0
INSERT
  5
75A
330
6B2
100
AcDbEntity
  8
0
  6
BYBLOCK
 62
     4
100
AcDbBlockReference
  2
_OPEN
 10
377.0041934060532
 20
210.9152520749808
 30
0.0
 41
7.0
 42
7.0
 43
7.0
 50
90.0
  0
INSERT
  5
75B
330
6B2
100
AcDbEntity
  8
0
  6
BYBLOCK
 62
     4
100
AcDbBlockReference
  2
_OPEN
 10
377.0041934060532
 20
148.6157150749808
 30
0.0
 41
7.0
 42
7.0
 43
7.0
 50
270.0
  0
MTEXT
  5
75C
330
6B2
100
AcDbEntity
  8
0
  6
BYBLOCK
 62
     4
100
AcDbMText
 10
372.0041934060532
 20
179.7654835749808
 30
0.0
 40
6.0
 41
0.0
 71
     5
 72
     5
  1
\A1;62
 11
0.0
 21
1.0
 31
0.0
1001
ACAD
1000
MTEXTBEGIN
1070
    73
1070
     1
1070
    44
1040
1.0
1070
    74
1070
     0
1000
MTEXTEND
1000
MTEXTBEGIN
1070
    73
1070
     1
1070
    44
1040
1.0
1070
    74
1070
     0
1000
MTEXTEND
  0
POINT
  5
75D
330
6B2
100
AcDbEntity
  8
DEFPOINTS
  6
BYBLOCK
 62
     0
100
AcDbPoint
 10
403.669118813802
 20
210.9152520749808
 30
0.0
  0
POINT
  5
75E
330
6B2
100
AcDbEntity
  8
DEFPOINTS
  6
BYBLOCK
 62
     0
100
AcDbPoint
 10
449.341342813802
 20
148.6157150749808
 30
0.0
  0
POINT
  5
75F
330
6B2
100
AcDbEntity
  8
DEFPOINTS
  6
BYBLOCK
 62
     0
100
AcDbPoint
 10
377.0041934060532
 20
148.6157150749808
 30
0.0
  0
ENDBLK
  5
760
330
6B2
100
AcDbEntity
  8
0
100
AcDbBlockEnd
  0
ENDSEC
  0
SECTION
  2
ENTITIES
  0
LINE
  5
391
330
1A
100
AcDbEntity
  8
CENTER_L
  6
CENTER
 62
     1
 48
5.0
100
AcDbLine
 10
395.4302912199512
 20
403.7418127187942
 30
0.0
 11
565.5597442199511
 21
403.7421457187942
 31
0.0
  0
ARC
  5
392
330
1A
100
AcDbEntity
  8
SEIHIN
  6
CONTINUOUS
 62
     3
 48
16.0
100
AcDbCircle
 10
431.7667432199512
 20
345.6660617187943
 30
0.0
 40
2.0
100
AcDbArc
 50
180.0
 51
270.0
  0
LINE
  5
393
330
1A
100
AcDbEntity
  8
SEIHIN
  6
CONTINUOUS
 62
     3
 48
16.0
100
AcDbLine
 10
429.7667432199512
 20
352.7418617187942
 30
0.0
 11
439.7667432199512
 21
352.7418617187942
 31
0.0
  0
LINE
  5
394
330
1A
100
AcDbEntity
  8
SEIHIN
  6
CONTINUOUS
 62
     3
 48
16.0
100
AcDbLine
 10
409.7666432199511
 20
341.1648617187942
 30
0.0
 11
434.0655432199511
 21
341.1647617187942
 31
0.0
  0
LINE
  5
395
330
1A
100
AcDbEntity
  8
SEIHIN
  6
CONTINUOUS
 62
     3
 48
16.0
100
AcDbLine
 10
429.7667432199512
 20
454.6415617187943
 30
0.0
 11
439.7667432199512
 21
454.6415617187943
 31
0.0
  0
LINE
  5
396
330
1A
100
AcDbEntity
  8
SEIHIN
  6
CONTINUOUS
 62
     3
 48
16.0
100
AcDbLine
 10
404.7667432199512
 20
440.7419617187942
 30
0.0
 11
439.7667432199512
 21
440.7419617187942
 31
0.0
  0
LINE
  5
397
330
1A
100
AcDbEntity
  8
SEIHIN
  6
CONTINUOUS
 62
     3
 48
16.0
100
AcDbLine
 10
404.7667432199512
 20
451.7419617187942
 30
0.0
 11
439.7667432199512
 21
451.7419617187942
 31
0.0
  0
ARC
  5
398
330
1A
100
AcDbEntity
  8
SEIHIN
  6
CONTINUOUS
 62
     3
 48
16.0
100
AcDbCircle
 10
431.7667432199512
 20
461.7173617187942
 30
0.0
 40
2.0
100
AcDbArc
 50
90.0
 51
180.0
  0
LINE
  5
399
330
1A
100
AcDbEntity
  8
SEIHIN
  6
CONTINUOUS
 62
     3
 48
16.0
100
AcDbLine
 10
409.7667432199513
 20
466.2184617187942
 30
0.0
 11
434.0657432199512
 21
466.2184617187942
 31
0.0
  0
LINE
  5
3A1
330
1A
100
AcDbEntity
  8
NOKITOI
  6
PHANTOM
 62
     8
 48
3.5
100
AcDbLine
 10
221.8295767849834
 20
142.3474788961899
 30
0.0
 11
241.9874767849831
 21
142.3474788961899
 31
0.0
  0
LINE
  5
3A2
330
1A
100
AcDbEntity
  8
NOKITOI
  6
PHANTOM
 62
     8
 48
3.5
100
AcDbLine
 10
222.0793767849835
 20
143.54747889619
 30
0.0
 11
241.9874767849831
 21
143.54747889619
 31
0.0
  0
LINE
  5
3A3
330
1A
100
AcDbEntity
  8
NOKITOI
  6
PHANTOM
 62
     8
 48
3.5
100
AcDbLine
 10
217.8295767849835
 20
142.3474788961899
 30
0.0
 11
262.6589767849835
 21
142.3475788961899
 31
0.0
  0
LINE
  5
3A4
330
1A
100
AcDbEntity
  8
NOKITOI
  6
PHANTOM
 62
     8
 48
3.5
100
AcDbLine
 10
262.6589767849835
 20
143.54757889619
 30
0.0
 11
218.0793767849835
 21
143.54747889619
 31
0.0
  0
LINE
  5
3A5
330
1A
100
AcDbEntity
  8
SEIHIN
  6
CONTINUOUS
 62
     3
 48
16.0
100
AcDbLine
 10
404.7667432199512
 20
465.2184617187942
 30
0.0
 11
404.7667432199512
 21
342.1648617187942
 31
0.0
  0
ARC
  5
3A6
330
1A
100
AcDbEntity
  8
SEIHIN
  6
CONTINUOUS
 62
     3
 48
16.0
100
AcDbCircle
 10
251.7921767849836
 20
189.5469478961899
 30
0.0
 40
50.30001099999999
100
AcDbArc
 50
203.8504349999999
 51
246.134637
  0
LINE
  5
3A7
330
1A
100
AcDbEntity
  8
SEIHIN
  6
CONTINUOUS
 62
     3
 48
16.0
100
AcDbLine
 10
217.0103767849835
 20
140.3476788961899
 30
0.0
 11
262.6589767849835
 21
140.3475788961899
 31
0.0
  0
LINE
  5
3A8
330
1A
100
AcDbEntity
  8
SEIHIN
  6
CONTINUOUS
 62
     3
 48
16.0
100
AcDbLine
 10
225.5814767849835
 20
143.5476688961899
 30
0.0
 11
262.6589767849835
 21
143.5475688961899
 31
0.0
  0
LINE
  5
3A9
330
1A
100
AcDbEntity
  8
SEIHIN
  6
CONTINUOUS
 62
     3
 48
16.0
100
AcDbLine
 10
218.4964767849836
 20
136.5476788961899
 30
0.0
 11
262.6589767849835
 21
136.5475688961899
 31
0.0
  0
LINE
  5
3AA
330
1A
100
AcDbEntity
  8
SEIHIN
  6
CONTINUOUS
 62
     3
 48
16.0
100
AcDbLine
 10
262.6589767849835
 20
142.3475788961899
 30
0.0
 11
217.7188587849836
 21
142.3476788961899
 31
0.0
  0
ARC
  5
3AB
330
1A
100
AcDbEntity
  8
SEIHIN
  6
CONTINUOUS
 62
     3
 48
16.0
100
AcDbCircle
 10
251.7921767849836
 20
189.5469478961899
 30
0.0
 40
45.999989
100
AcDbArc
 50
193.492982
 51
346.5062629999999
  0
LINE
  5
3AE
330
1A
100
AcDbEntity
  8
NOKITOI
  6
PHANTOM
 62
     8
 48
3.5
100
AcDbLine
 10
203.5625767849832
 20
180.44707889619
 30
0.0
 11
206.4313767849834
 21
151.7596788961899
 31
0.0
  0
LINE
  5
3AF
330
1A
100
AcDbEntity
  8
NOKITOI
  6
PHANTOM
 62
     8
 48
3.5
100
AcDbLine
 10
204.6035767849833
 20
182.09737889619
 30
0.0
 11
207.5965767849837
 21
152.1675788961899
 31
0.0
  0
LINE
  5
3B0
330
1A
100
AcDbEntity
  8
SEIHIN
  6
CONTINUOUS
 62
     3
 48
16.0
100
AcDbLine
 10
204.5538767849836
 20
181.5467688961899
 30
0.0
 11
206.7712767849836
 21
159.3698688961899
 31
0.0
  0
LINE
  5
3B1
330
1A
100
AcDbEntity
  8
SEIHIN
  6
CONTINUOUS
 62
     3
 48
16.0
100
AcDbLine
 10
201.7477767849836
 20
177.4472688961899
 30
0.0
 11
204.4185767849836
 21
150.7365888961899
 31
0.0
  0
LINE
  5
3B2
330
1A
100
AcDbEntity
  8
SEIHIN
  6
CONTINUOUS
 62
     3
 48
16.0
100
AcDbLine
 10
202.5108767849836
 20
149.7132788961899
 30
0.0
 11
200.0377767849836
 21
174.4472688961899
 31
0.0
  0
LINE
  5
3B3
330
1A
100
AcDbEntity
  8
SEIHIN
  6
CONTINUOUS
 62
     3
 48
16.0
100
AcDbLine
 10
206.3261767849836
 20
151.7598888961899
 30
0.0
 11
203.6477767849836
 21
178.5467688961899
 31
0.0
  0
LINE
  5
3B4
330
1A
100
AcDbEntity
  8
NOKITOI
  6
PHANTOM
 62
     8
 48
3.5
100
AcDbLine
 10
206.7931767849835
 20
151.0851788961901
 30
0.0
 11
217.1962767849835
 21
142.57347889619
 31
0.0
  0
LINE
  5
3B5
330
1A
100
AcDbEntity
  8
NOKITOI
  6
PHANTOM
 62
     8
 48
3.5
100
AcDbLine
 10
207.7774767849831
 20
151.8302788961899
 30
0.0
 11
217.7627767849834
 21
143.6604788961898
 31
0.0
  0
LINE
  5
3B6
330
1A
100
AcDbEntity
  8
SEIHIN
  6
CONTINUOUS
 62
     3
 48
16.0
100
AcDbLine
 10
202.8726767849835
 20
149.0388188961899
 30
0.0
 11
217.8632767849836
 21
136.7737288961899
 31
0.0
  0
LINE
  5
3B7
330
1A
100
AcDbEntity
  8
SEIHIN
  6
CONTINUOUS
 62
     3
 48
16.0
100
AcDbLine
 10
222.4152767849835
 20
144.6778888961899
 30
0.0
 11
208.5802767849836
 21
155.9974688961899
 31
0.0
  0
LINE
  5
3B8
330
1A
100
AcDbEntity
  8
SEIHIN
  6
CONTINUOUS
 62
     3
 48
16.0
100
AcDbLine
 10
204.7803767849836
 20
150.0621188961899
 30
0.0
 11
216.3771767849835
 21
140.5737288961899
 31
0.0
  0
LINE
  5
3B9
330
1A
100
AcDbEntity
  8
SEIHIN
  6
CONTINUOUS
 62
     3
 48
16.0
100
AcDbLine
 10
206.6880767849836
 20
151.0854188961899
 30
0.0
 11
217.0963537849836
 21
142.5694728961899
 31
0.0
  0
ARC
  5
3BA
330
1A
100
AcDbEntity
  8
NOKITOI
  6
PHANTOM
 62
     8
 48
3.5
100
AcDbCircle
 10
217.8295837175609
 20
143.3474764211838
 30
0.0
 40
0.9999975250179316
100
AcDbArc
 50
230.7053583247701
 51
269.9996027915957
  0
ARC
  5
3BB
330
1A
100
AcDbEntity
  8
NOKITOI
  6
PHANTOM
 62
     8
 48
3.5
100
AcDbCircle
 10
218.0793703972347
 20
144.0474811761795
 30
0.0
 40
0.5000022800304047
100
AcDbArc
 50
230.7145501403941
 51
270.0007319787213
  0
ARC
  5
3BC
330
1A
100
AcDbEntity
  8
SEIHIN
  6
CONTINUOUS
 62
     3
 48
16.0
100
AcDbCircle
 10
218.4964767849836
 20
137.5476788961899
 30
0.0
 40
0.999985
100
AcDbArc
 50
230.712003
 51
270.0
  0
ARC
  5
3BD
330
1A
100
AcDbEntity
  8
SEIHIN
  6
CONTINUOUS
 62
     3
 48
16.0
100
AcDbCircle
 10
217.0103767849835
 20
141.3476788961899
 30
0.0
 40
0.999985
100
AcDbArc
 50
230.712003
 51
270.0
  0
ARC
  5
3BE
330
1A
100
AcDbEntity
  8
SEIHIN
  6
CONTINUOUS
 62
     3
 48
16.0
100
AcDbCircle
 10
217.7243767849836
 20
143.3476488961899
 30
0.0
 40
0.999985
100
AcDbArc
 50
231.094926
 51
269.6838529999999
  0
ARC
  5
3BF
330
1A
100
AcDbEntity
  8
SEIHIN
  6
CONTINUOUS
 62
     3
 48
16.0
100
AcDbCircle
 10
225.5814767849835
 20
148.5476688961899
 30
0.0
 40
4.999997
100
AcDbArc
 50
230.7103759999999
 51
270.0
  0
ARC
  5
3C0
330
1A
100
AcDbEntity
  8
SEIHIN
  6
CONTINUOUS
 62
     3
 48
16.0
100
AcDbCircle
 10
251.7921767849836
 20
189.5469478961899
 30
0.0
 40
54.000002
100
AcDbArc
 50
213.435832
 51
221.670699
  0
ARC
  5
3C1
330
1A
100
AcDbEntity
  8
SEIHIN
  6
CONTINUOUS
 62
     3
 48
16.0
100
AcDbCircle
 10
211.7464767849836
 20
159.8672688961899
 30
0.0
 40
4.999970999999999
100
AcDbArc
 50
185.7092249999999
 51
230.709867
  0
ARC
  5
3C2
330
1A
100
AcDbEntity
  8
SEIHIN
  6
CONTINUOUS
 62
     3
 48
16.0
100
AcDbCircle
 10
203.5059767849836
 20
149.8127688961899
 30
0.0
 40
1.000046999999999
100
AcDbArc
 50
185.7094529999999
 51
230.707569
  0
ARC
  5
3C3
330
1A
100
AcDbEntity
  8
SEIHIN
  6
CONTINUOUS
 62
     3
 48
16.0
100
AcDbCircle
 10
205.4135767849836
 20
150.8360788961899
 30
0.0
 40
0.99997
100
AcDbArc
 50
185.710023
 51
230.7123649999999
  0
ARC
  5
3C4
330
1A
100
AcDbEntity
  8
NOKITOI
  6
PHANTOM
 62
     8
 48
3.5
100
AcDbCircle
 10
207.4263993578523
 20
151.8591368245173
 30
0.0
 40
0.9999908507640039
100
AcDbArc
 50
185.7137670522468
 51
230.7112907769303
  0
ARC
  5
3C5
330
1A
100
AcDbEntity
  8
NOKITOI
  6
PHANTOM
 62
     8
 48
3.5
100
AcDbCircle
 10
208.0940942108617
 20
152.217246409802
 30
0.0
 40
0.4999904508696396
100
AcDbArc
 50
185.7009889250754
 51
230.7099153622041
  0
ARC
  5
3C6
330
1A
100
AcDbEntity
  8
SEIHIN
  6
CONTINUOUS
 62
     3
 48
16.0
100
AcDbCircle
 10
207.3212767849836
 20
151.8593988961899
 30
0.0
 40
0.999966
100
AcDbArc
 50
185.710023
 51
230.7120049999999
  0
ARC
  5
3C7
330
1A
100
AcDbEntity
  8
NOKITOI
  6
PHANTOM
 62
     8
 48
3.5
100
AcDbCircle
 10
198.0741387971592
 20
184.5475157167621
 30
0.0
 40
2.000036820932882
100
AcDbArc
 50
181.7889408725803
 51
270.001088250966
  0
ARC
  5
3C8
330
1A
100
AcDbEntity
  8
NOKITOI
  6
PHANTOM
 62
     8
 48
3.5
100
AcDbCircle
 10
199.9876077119196
 20
187.3476146408537
 30
0.0
 40
3.99998565374706
100
AcDbArc
 50
96.47577619531674
 51
181.7913033408985
  0
LINE
  5
3C9
330
1A
100
AcDbEntity
  8
NOKITOI
  6
PHANTOM
 62
     8
 48
3.5
100
AcDbLine
 10
196.4264767849835
 20
181.3475788961899
 30
0.0
 11
202.5675767849833
 21
181.3475788961899
 31
0.0
  0
LINE
  5
3CA
330
1A
100
AcDbEntity
  8
NOKITOI
  6
PHANTOM
 62
     8
 48
3.5
100
AcDbLine
 10
196.5360767849833
 20
197.3474788961899
 30
0.0
 11
199.8626767849835
 21
197.3475788961899
 31
0.0
  0
LINE
  5
3CB
330
1A
100
AcDbEntity
  8
NOKITOI
  6
PHANTOM
 62
     8
 48
3.5
100
AcDbLine
 10
196.5360767849833
 20
196.1474788961899
 30
0.0
 11
199.0087767849835
 21
196.1475788961901
 31
0.0
  0
ARC
  5
3CC
330
1A
100
AcDbEntity
  8
NOKITOI
  6
PHANTOM
 62
     8
 48
3.5
100
AcDbCircle
 10
199.9875946513346
 20
187.3475876245699
 30
0.0
 40
5.199991271650611
100
AcDbArc
 50
90.00019685927453
 51
142.074671395269
  0
LINE
  5
3CD
330
1A
100
AcDbEntity
  8
SEIHIN
  6
CONTINUOUS
 62
     3
 48
16.0
100
AcDbLine
 10
194.6343767849836
 20
191.3472478961899
 30
0.0
 11
197.2264767849836
 21
191.3471478961899
 31
0.0
  0
LINE
  5
3CE
330
1A
100
AcDbEntity
  8
SEIHIN
  6
CONTINUOUS
 62
     3
 48
16.0
100
AcDbLine
 10
199.0426767849836
 20
175.3477688961899
 30
0.0
 11
192.3224767849836
 21
175.3477688961899
 31
0.0
  0
LINE
  5
3CF
330
1A
100
AcDbEntity
  8
SEIHIN
  6
CONTINUOUS
 62
     3
 48
16.0
100
AcDbLine
 10
194.4825767849836
 20
178.3477688961899
 30
0.0
 11
200.7527767849836
 21
178.3477688961899
 31
0.0
  0
LINE
  5
3D0
330
1A
100
AcDbEntity
  8
SEIHIN
  6
CONTINUOUS
 62
     3
 48
16.0
100
AcDbLine
 10
194.4824767849836
 20
178.3472478961899
 30
0.0
 11
200.7525767849835
 21
178.3472478961899
 31
0.0
  0
LINE
  5
3D1
330
1A
100
AcDbEntity
  8
SEIHIN
  6
CONTINUOUS
 62
     3
 48
16.0
100
AcDbLine
 10
196.4228767849836
 20
180.3477688961899
 30
0.0
 11
201.6577767849836
 21
180.3477688961899
 31
0.0
  0
LINE
  5
3D2
330
1A
100
AcDbEntity
  8
SEIHIN
  6
CONTINUOUS
 62
     3
 48
16.0
100
AcDbLine
 10
202.5637767849835
 20
183.34776889619
 30
0.0
 11
195.8469987849836
 21
183.34776889619
 31
0.0
  0
LINE
  5
3D3
330
1A
100
AcDbEntity
  8
SEIHIN
  6
CONTINUOUS
 62
     3
 48
16.0
100
AcDbLine
 10
200.9353767849836
 20
198.8476688961899
 30
0.0
 11
190.1552437849836
 21
198.8479158961899
 31
0.0
  0
LINE
  5
3D4
330
1A
100
AcDbEntity
  8
SEIHIN
  6
CONTINUOUS
 62
     3
 48
16.0
100
AcDbLine
 10
196.5292767849836
 20
196.84776889619
 30
0.0
 11
201.1674767849835
 21
196.8476688961899
 31
0.0
  0
LINE
  5
3D5
330
1A
100
AcDbEntity
  8
NOKITOI
  6
PHANTOM
 62
     8
 48
3.5
100
AcDbLine
 10
195.7364767849839
 20
195.3225788961898
 30
0.0
 11
195.8857767849835
 21
190.54357889619
 31
0.0
  0
LINE
  5
3D6
330
1A
100
AcDbEntity
  8
NOKITOI
  6
PHANTOM
 62
     8
 48
3.5
100
AcDbLine
 10
194.5370767849835
 20
195.2850788961899
 30
0.0
 11
194.9271767849835
 21
182.8006788961899
 31
0.0
  0
LINE
  5
3D7
330
1A
100
AcDbEntity
  8
SEIHIN
  6
CONTINUOUS
 62
     3
 48
16.0
100
AcDbLine
 10
192.9832767849836
 20
179.8023688961899
 30
0.0
 11
192.4686767849836
 21
196.7872688961899
 31
0.0
  0
LINE
  5
3D8
330
1A
100
AcDbEntity
  8
SEIHIN
  6
CONTINUOUS
 62
     3
 48
16.0
100
AcDbLine
 10
190.1552437849836
 20
198.8479158961899
 30
0.0
 11
190.8231767849836
 21
176.8023688961899
 31
0.0
  0
LINE
  5
3D9
330
1A
100
AcDbEntity
  8
SEIHIN
  6
CONTINUOUS
 62
     3
 48
16.0
100
AcDbLine
 10
194.5301767849836
 20
194.7871688961899
 30
0.0
 11
194.9242187849836
 21
181.7844828961899
 31
0.0
  0
ARC
  5
3DA
330
1A
100
AcDbEntity
  8
NOKITOI
  6
PHANTOM
 62
     8
 48
3.5
100
AcDbCircle
 10
196.4264595718054
 20
182.8475955793377
 30
0.0
 40
1.500016683246579
100
AcDbArc
 50
181.7923576755889
 51
270.0006574876651
  0
ARC
  5
3DB
330
1A
100
AcDbEntity
  8
SEIHIN
  6
CONTINUOUS
 62
     3
 48
16.0
100
AcDbCircle
 10
196.4228767849836
 20
181.8477688961899
 30
0.0
 40
1.499994
100
AcDbArc
 50
182.4180679999999
 51
270.0
  0
ARC
  5
3DC
330
1A
100
AcDbEntity
  8
SEIHIN
  6
CONTINUOUS
 62
     3
 48
16.0
100
AcDbCircle
 10
192.3224767849836
 20
176.8477688961899
 30
0.0
 40
1.499994
100
AcDbArc
 50
181.734432
 51
270.0
  0
ARC
  5
3DD
330
1A
100
AcDbEntity
  8
SEIHIN
  6
CONTINUOUS
 62
     3
 48
16.0
100
AcDbCircle
 10
194.4824767849836
 20
179.8472478961899
 30
0.0
 40
1.499943999999999
100
AcDbArc
 50
181.734547
 51
270.0
  0
ARC
  5
3DE
330
1A
100
AcDbEntity
  8
SEIHIN
  6
CONTINUOUS
 62
     3
 48
16.0
100
AcDbCircle
 10
194.4825767849836
 20
179.8477688961899
 30
0.0
 40
1.499994
100
AcDbArc
 50
181.734432
 51
270.0
  0
LINE
  5
3DF
330
1A
100
AcDbEntity
  8
NOKITOI
  6
PHANTOM
 62
     8
 48
3.5
100
AcDbLine
 10
196.0750767849835
 20
184.48497889619
 30
0.0
 11
195.9895767849838
 21
187.2225788961899
 31
0.0
  0
ARC
  5
3E0
330
1A
100
AcDbEntity
  8
SEIHIN
  6
CONTINUOUS
 62
     3
 48
16.0
100
AcDbCircle
 10
195.8469987849836
 20
184.34776889619
 30
0.0
 40
1.0
100
AcDbArc
 50
181.735801
 51
270.0
  0
ARC
  5
3E1
330
1A
100
AcDbEntity
  8
NOKITOI
  6
PHANTOM
 62
     8
 48
3.5
100
AcDbCircle
 10
196.5360328186306
 20
195.3475335337169
 30
0.0
 40
0.7999453636812564
100
AcDbArc
 50
89.99685092684627
 51
181.7876563552118
  0
ARC
  5
3E2
330
1A
100
AcDbEntity
  8
NOKITOI
  6
PHANTOM
 62
     8
 48
3.5
100
AcDbCircle
 10
196.5360880219776
 20
195.347590490007
 30
0.0
 40
1.999988406214315
100
AcDbArc
 50
90.0003219180439
 51
181.791127346407
  0
ARC
  5
3E3
330
1A
100
AcDbEntity
  8
SEIHIN
  6
CONTINUOUS
 62
     3
 48
16.0
100
AcDbCircle
 10
196.5292767849836
 20
194.8477688961899
 30
0.0
 40
2.000008999999999
100
AcDbArc
 50
90.0
 51
181.736311
  0
ARC
  5
3E4
330
1A
100
AcDbEntity
  8
SEIHIN
  6
CONTINUOUS
 62
     3
 48
16.0
100
AcDbCircle
 10
192.2167767849836
 20
196.8478688961899
 30
0.0
 40
2.000008999999999
100
AcDbArc
 50
90.0
 51
181.736311
  0
ARC
  5
3E5
330
1A
100
AcDbEntity
  8
SEIHIN
  6
CONTINUOUS
 62
     3
 48
16.0
100
AcDbCircle
 10
194.4677767849836
 20
196.84776889619
 30
0.0
 40
2.000008
100
AcDbArc
 50
90.0
 51
181.733449
  0
LINE
  5
3E6
330
1A
100
AcDbEntity
  8
NOKITOI
  6
PHANTOM
 62
     8
 48
3.5
100
AcDbLine
 10
200.4495767849833
 20
192.54757889619
 30
0.0
 11
201.4453767849835
 21
193.6475788961901
 31
0.0
  0
LINE
  5
3E7
330
1A
100
AcDbEntity
  8
NOKITOI
  6
PHANTOM
 62
     8
 48
3.5
100
AcDbLine
 10
202.9974767849834
 20
188.3212788961899
 30
0.0
 11
203.3132767849837
 21
194.3212788961899
 31
0.0
  0
ARC
  5
3E8
330
1A
100
AcDbEntity
  8
NOKITOI
  6
PHANTOM
 62
     8
 48
3.5
100
AcDbCircle
 10
202.5675561351425
 20
180.3475975840391
 30
0.0
 40
0.9999813123640345
100
AcDbArc
 50
5.709409966648967
 51
89.99881682915043
  0
LINE
  5
3E9
330
1A
100
AcDbEntity
  8
SEIHIN
  6
CONTINUOUS
 62
     3
 48
16.0
100
AcDbLine
 10
204.6738127849836
 20
180.3472478961899
 30
0.0
 11
205.1169767849836
 21
180.3472478961899
 31
0.0
  0
ARC
  5
3EA
330
1A
100
AcDbEntity
  8
SEIHIN
  6
CONTINUOUS
 62
     3
 48
16.0
100
AcDbCircle
 10
201.6577767849836
 20
178.3477688961899
 30
0.0
 40
2.000011999999999
100
AcDbArc
 50
5.710308999999998
 51
90.0
  0
LINE
  5
3EB
330
1A
100
AcDbEntity
  8
SEIHIN
  6
CONTINUOUS
 62
     3
 48
16.0
100
AcDbLine
 10
201.7476767849835
 20
177.4467478961899
 30
0.0
 11
202.4344767849836
 21
170.57804789619
 31
0.0
  0
ARC
  5
3EC
330
1A
100
AcDbEntity
  8
SEIHIN
  6
CONTINUOUS
 62
     3
 48
16.0
100
AcDbCircle
 10
200.7527767849836
 20
177.3477688961899
 30
0.0
 40
0.9999809999999998
100
AcDbArc
 50
5.710594999999999
 51
90.0
  0
ARC
  5
3ED
330
1A
100
AcDbEntity
  8
SEIHIN
  6
CONTINUOUS
 62
     3
 48
16.0
100
AcDbCircle
 10
200.7525767849835
 20
177.3472478961899
 30
0.0
 40
1.000030999999999
100
AcDbArc
 50
5.710022
 51
90.0
  0
ARC
  5
3EE
330
1A
100
AcDbEntity
  8
SEIHIN
  6
CONTINUOUS
 62
     3
 48
16.0
100
AcDbCircle
 10
199.0426767849836
 20
174.3477688961899
 30
0.0
 40
1.000030999999999
100
AcDbArc
 50
5.710022
 51
90.0
  0
ARC
  5
3EF
330
1A
100
AcDbEntity
  8
SEIHIN
  6
CONTINUOUS
 62
     3
 48
16.0
100
AcDbCircle
 10
205.1169767849836
 20
178.3472478961899
 30
0.0
 40
1.999995
100
AcDbArc
 50
13.49149999999999
 51
90.0
  0
ARC
  5
3F0
330
1A
100
AcDbEntity
  8
SEIHIN
  6
CONTINUOUS
 62
     3
 48
16.0
100
AcDbCircle
 10
203.6741767849836
 20
172.6462688961899
 30
0.0
 40
1.999922
100
AcDbArc
 50
19.354539
 51
34.015848
  0
LINE
  5
3F1
330
1A
100
AcDbEntity
  8
NOKITOI
  6
PHANTOM
 62
     8
 48
3.5
100
AcDbLine
 10
201.0561767849838
 20
189.04757889619
 30
0.0
 11
201.4601767849834
 21
191.8759788961898
 31
0.0
  0
LINE
  5
3F2
330
1A
100
AcDbEntity
  8
NOKITOI
  6
PHANTOM
 62
     8
 48
3.5
100
AcDbLine
 10
201.8340767849835
 20
189.04757889619
 30
0.0
 11
202.0151767849837
 21
192.4889788961899
 31
0.0
  0
LINE
  5
3F3
330
1A
100
AcDbEntity
  8
NOKITOI
  6
PHANTOM
 62
     8
 48
3.5
100
AcDbLine
 10
201.8340767849835
 20
189.04757889619
 30
0.0
 11
201.0561767849838
 21
189.04757889619
 31
0.0
  0
LINE
  5
3F4
330
1A
100
AcDbEntity
  8
NOKITOI
  6
PHANTOM
 62
     8
 48
3.5
100
AcDbLine
 10
201.4601767849834
 20
191.8759788961898
 30
0.0
 11
202.0151767849837
 21
192.4889788961899
 31
0.0
  0
LINE
  5
3F5
330
1A
100
AcDbEntity
  8
NOKITOI
  6
PHANTOM
 62
     8
 48
3.5
100
AcDbLine
 10
200.4495767849833
 20
192.54757889619
 30
0.0
 11
199.9875767849833
 21
192.54757889619
 31
0.0
  0
ARC
  5
3F6
330
1A
100
AcDbEntity
  8
NOKITOI
  6
PHANTOM
 62
     8
 48
3.5
100
AcDbCircle
 10
199.5928474124838
 20
190.8252091286848
 30
0.0
 40
0.4999578477751074
100
AcDbArc
 50
351.8669438287075
 51
96.47390928779223
  0
LINE
  5
3F7
330
1A
100
AcDbEntity
  8
NOKITOI
  6
PHANTOM
 62
     8
 48
3.5
100
AcDbLine
 10
202.4981767849834
 20
187.8475788961899
 30
0.0
 11
200.2490767849839
 21
187.8475788961899
 31
0.0
  0
ARC
  5
3F8
330
1A
100
AcDbEntity
  8
NOKITOI
  6
PHANTOM
 62
     8
 48
3.5
100
AcDbCircle
 10
202.4981726635768
 20
188.3475749861594
 30
0.0
 40
0.4999960899864752
100
AcDbArc
 50
270.0004722821405
 51
356.9852756208263
  0
ARC
  5
3F9
330
1A
100
AcDbEntity
  8
NOKITOI
  6
PHANTOM
 62
     8
 48
3.5
100
AcDbCircle
 10
204.1060637139788
 20
182.0475907264698
 30
0.0
 40
0.499988169890889
100
AcDbArc
 50
5.703393862284335
 51
89.99850213773372
  0
ARC
  5
3FA
330
1A
100
AcDbEntity
  8
NOKITOI
  6
PHANTOM
 62
     8
 48
3.5
100
AcDbCircle
 10
200.2490665985472
 20
188.347590640914
 30
0.0
 40
0.5000117448278309
100
AcDbArc
 50
171.8726853912841
 51
270.0011672521981
  0
LINE
  5
3FB
330
1A
100
AcDbEntity
  8
NOKITOI
  6
PHANTOM
 62
     8
 48
3.5
100
AcDbLine
 10
199.7540767849835
 20
188.4182788961899
 30
0.0
 11
200.0878767849834
 21
190.7544788961901
 31
0.0
  0
LINE
  5
3FC
330
1A
100
AcDbEntity
  8
NOKITOI
  6
PHANTOM
 62
     8
 48
3.5
100
AcDbLine
 10
204.1060767849838
 20
182.54757889619
 30
0.0
 11
198.0741767849834
 21
182.54757889619
 31
0.0
  0
ARC
  5
3FD
330
1A
100
AcDbEntity
  8
SEIHIN
  6
CONTINUOUS
 62
     3
 48
16.0
100
AcDbCircle
 10
202.5637767849835
 20
181.3477688961899
 30
0.0
 40
2.000011999999999
100
AcDbArc
 50
5.710308999999998
 51
90.0
  0
LINE
  5
3FE
330
1A
100
AcDbEntity
  8
SEIHIN
  6
CONTINUOUS
 62
     3
 48
16.0
100
AcDbLine
 10
200.3792367849836
 20
183.34776889619
 30
0.0
 11
200.2249767849836
 21
188.4380478961899
 31
0.0
  0
ARC
  5
3FF
330
1A
100
AcDbEntity
  8
SEIHIN
  6
CONTINUOUS
 62
     3
 48
16.0
100
AcDbCircle
 10
197.2263767849835
 20
188.3471478961899
 30
0.0
 40
2.999988999999999
100
AcDbArc
 50
1.73634
 51
89.99809
  0
LINE
  5
400
330
1A
100
AcDbEntity
  8
NOKITOI
  6
PHANTOM
 62
     8
 48
3.5
100
AcDbLine
 10
202.8139767849832
 20
194.8475788961899
 30
0.0
 11
200.5824767849834
 21
194.8475788961899
 31
0.0
  0
ARC
  5
401
330
1A
100
AcDbEntity
  8
NOKITOI
  6
PHANTOM
 62
     8
 48
3.5
100
AcDbCircle
 10
202.8139730754882
 20
194.3475828062206
 30
0.0
 40
0.4999960899831856
100
AcDbArc
 50
356.9843782585345
 51
89.99957491984867
  0
ARC
  5
402
330
1A
100
AcDbEntity
  8
NOKITOI
  6
PHANTOM
 62
     8
 48
3.5
100
AcDbCircle
 10
199.8626840395389
 20
196.8475700463465
 30
0.0
 40
0.500008849895925
100
AcDbArc
 50
348.6864043304882
 51
90.00083129614507
  0
ARC
  5
403
330
1A
100
AcDbEntity
  8
NOKITOI
  6
PHANTOM
 62
     8
 48
3.5
100
AcDbCircle
 10
200.5824775679919
 20
195.3475779411882
 30
0.0
 40
0.4999990449987399
100
AcDbArc
 50
168.6967198015449
 51
269.9999102736945
  0
LINE
  5
404
330
1A
100
AcDbEntity
  8
NOKITOI
  6
PHANTOM
 62
     8
 48
3.5
100
AcDbLine
 10
200.0921767849835
 20
195.4455788961901
 30
0.0
 11
200.3529767849835
 21
196.7495788961899
 31
0.0
  0
LINE
  5
405
330
1A
100
AcDbEntity
  8
NOKITOI
  6
PHANTOM
 62
     8
 48
3.5
100
AcDbLine
 10
198.5087767849835
 20
193.6475788961901
 30
0.0
 11
201.4453767849835
 21
193.6475788961901
 31
0.0
  0
LINE
  5
406
330
1A
100
AcDbEntity
  8
NOKITOI
  6
PHANTOM
 62
     8
 48
3.5
100
AcDbLine
 10
199.0087767849835
 20
196.1475788961901
 30
0.0
 11
198.5087767849835
 21
193.6475788961901
 31
0.0
  0
ARC
  5
407
330
1A
100
AcDbEntity
  8
SEIHIN
  6
CONTINUOUS
 62
     3
 48
16.0
100
AcDbCircle
 10
199.4658767849836
 20
200.0492688961899
 30
0.0
 40
5.000030999999999
100
AcDbArc
 50
289.89617
 51
340.1049069999999
  0
ARC
  5
408
330
1A
100
AcDbEntity
  8
SEIHIN
  6
CONTINUOUS
 62
     3
 48
16.0
100
AcDbCircle
 10
202.6674767849836
 20
198.3476688961899
 30
0.0
 40
1.5
100
AcDbArc
 50
0.0
 51
90.0
  0
LINE
  5
409
330
1A
100
AcDbEntity
  8
SEIHIN
  6
CONTINUOUS
 62
     3
 48
16.0
100
AcDbLine
 10
201.1674767849835
 20
196.8476688961899
 30
0.0
 11
201.1674767849835
 21
195.3476688961899
 31
0.0
  0
ARC
  5
40A
330
1A
100
AcDbEntity
  8
SEIHIN
  6
CONTINUOUS
 62
     3
 48
16.0
100
AcDbCircle
 10
200.9354767849836
 20
200.8476688961899
 30
0.0
 40
1.999977999999999
100
AcDbArc
 50
270.0
 51
329.999273
  0
LINE
  5
40B
330
1A
100
AcDbEntity
  8
SEIHIN
  6
CONTINUOUS
 62
     3
 48
16.0
100
AcDbLine
 10
429.7667432199512
 20
461.7173617187942
 30
0.0
 11
429.7667432199512
 21
453.9418617187942
 31
0.0
  0
LINE
  5
40C
330
1A
100
AcDbEntity
  8
SEIHIN
  6
CONTINUOUS
 62
     3
 48
16.0
100
AcDbLine
 10
409.7667432199513
 20
466.2184617187942
 30
0.0
 11
404.7667432199512
 21
465.2184617187942
 31
0.0
  0
LINE
  5
40D
330
1A
100
AcDbEntity
  8
SEIHIN
  6
CONTINUOUS
 62
     3
 48
16.0
100
AcDbLine
 10
404.7667432199512
 20
455.4418617187943
 30
0.0
 11
429.7667432199512
 21
455.4418617187943
 31
0.0
  0
LINE
  5
40E
330
1A
100
AcDbEntity
  8
SEIHIN
  6
CONTINUOUS
 62
     3
 48
16.0
100
AcDbLine
 10
404.7667432199512
 20
453.9418617187942
 30
0.0
 11
429.7667432199512
 21
453.9418617187942
 31
0.0
  0
ARC
  5
410
330
1A
100
AcDbEntity
  8
NOKITOI
  6
PHANTOM
 62
     8
 48
3.5
100
AcDbCircle
 10
262.6589930114409
 20
185.34759337256
 30
0.0
 40
43.00001447645168
100
AcDbArc
 50
270.0001116248559
 51
353.4750892928819
  0
ARC
  5
411
330
1A
100
AcDbEntity
  8
NOKITOI
  6
PHANTOM
 62
     8
 48
3.5
100
AcDbCircle
 10
262.6589707030155
 20
185.3475732715336
 30
0.0
 40
41.79999437547816
100
AcDbArc
 50
270.0001454078912
 51
355.525704787475
  0
ARC
  5
412
330
1A
100
AcDbEntity
  8
SEIHIN
  6
CONTINUOUS
 62
     3
 48
16.0
100
AcDbCircle
 10
251.7921767849836
 20
189.5469478961899
 30
0.0
 40
50.300055
100
AcDbArc
 50
300.4789769999999
 51
347.634057
  0
ARC
  5
413
330
1A
100
AcDbEntity
  8
SEIHIN
  6
CONTINUOUS
 62
     3
 48
16.0
100
AcDbCircle
 10
262.6590767849836
 20
185.34756889619
 30
0.0
 40
43.00002
100
AcDbArc
 50
269.9998669999999
 51
351.050843
  0
ARC
  5
414
330
1A
100
AcDbEntity
  8
SEIHIN
  6
CONTINUOUS
 62
     3
 48
16.0
100
AcDbCircle
 10
262.6590767849836
 20
185.34756889619
 30
0.0
 40
41.799977
100
AcDbArc
 50
269.999863
 51
353.591858
  0
ARC
  5
415
330
1A
100
AcDbEntity
  8
SEIHIN
  6
CONTINUOUS
 62
     3
 48
16.0
100
AcDbCircle
 10
262.6590767849836
 20
185.34756889619
 30
0.0
 40
48.799991
100
AcDbArc
 50
269.999883
 51
347.238845
  0
ARC
  5
416
330
1A
100
AcDbEntity
  8
SEIHIN
  6
CONTINUOUS
 62
     3
 48
16.0
100
AcDbCircle
 10
262.6590767849836
 20
185.34756889619
 30
0.0
 40
44.999982
100
AcDbArc
 50
269.9998729999999
 51
349.984438
  0
LINE
  5
417
330
1A
100
AcDbEntity
  8
CENTER_L
  6
CENTER
 62
     1
 48
5.0
100
AcDbLine
 10
254.3674017849836
 20
128.9421238961899
 30
0.0
 11
254.3675197849836
 21
181.9138788961899
 31
0.0
  0
ARC
  5
419
330
1A
100
AcDbEntity
  8
SEIHIN
  6
DASHED
 62
     2
 48
5.0
100
AcDbCircle
 10
326.5836137849836
 20
174.8472688961899
 30
0.0
 40
15.999999
100
AcDbArc
 50
193.341588
 51
230.054633
  0
ARC
  5
41A
330
1A
100
AcDbEntity
  8
SEIHIN
  6
DASHED
 62
     2
 48
5.0
100
AcDbCircle
 10
326.5836137849836
 20
174.8472688961899
 30
0.0
 40
14.000031
100
AcDbArc
 50
193.3416129999999
 51
230.0685649999999
  0
ARC
  5
41B
330
1A
100
AcDbEntity
  8
SEIHIN
  6
DASHED
 62
     2
 48
5.0
100
AcDbCircle
 10
316.9528137849836
 20
163.3473688961899
 30
0.0
 40
0.999995
100
AcDbArc
 50
230.0506399999999
 51
50.24577899999999
  0
LINE
  5
41C
330
1A
100
AcDbEntity
  8
NOKITOI
  6
PHANTOM
 62
     8
 48
3.5
100
AcDbLine
 10
313.2086767849831
 20
195.3225788961898
 30
0.0
 11
313.0592767849837
 21
190.54367889619
 31
0.0
  0
LINE
  5
41D
330
1A
100
AcDbEntity
  8
NOKITOI
  6
PHANTOM
 62
     8
 48
3.5
100
AcDbLine
 10
308.4955767849832
 20
192.54757889619
 30
0.0
 11
307.4997767849835
 21
193.6475788961901
 31
0.0
  0
LINE
  5
41E
330
1A
100
AcDbEntity
  8
NOKITOI
  6
PHANTOM
 62
     8
 48
3.5
100
AcDbLine
 10
305.9475767849834
 20
188.3213788961899
 30
0.0
 11
305.6317767849835
 21
194.3212788961899
 31
0.0
  0
LINE
  5
41F
330
1A
100
AcDbEntity
  8
NOKITOI
  6
PHANTOM
 62
     8
 48
3.5
100
AcDbLine
 10
314.4080767849835
 20
195.2850788961899
 30
0.0
 11
314.0178767849837
 21
182.8007788961898
 31
0.0
  0
LINE
  5
420
330
1A
100
AcDbEntity
  8
SEIHIN
  6
DASHED
 62
     2
 48
5.0
100
AcDbLine
 10
309.5750137849836
 20
191.0940688961899
 30
0.0
 11
309.5750137849836
 21
196.8474688961899
 31
0.0
  0
LINE
  5
421
330
1A
100
AcDbEntity
  8
SEIHIN
  6
DASHED
 62
     2
 48
5.0
100
AcDbLine
 10
311.5750137849836
 20
196.8474688961899
 30
0.0
 11
311.5750137849836
 21
191.3464468961899
 31
0.0
  0
LINE
  5
422
330
1A
100
AcDbEntity
  8
SEIHIN
  6
CONTINUOUS
 62
     3
 48
16.0
100
AcDbLine
 10
316.3665767849836
 20
196.7869688961899
 30
0.0
 11
315.8517767849835
 21
179.8020688961899
 31
0.0
  0
LINE
  5
423
330
1A
100
AcDbEntity
  8
SEIHIN
  6
DASHED
 62
     2
 48
5.0
100
AcDbLine
 10
320.6476657849835
 20
197.7483918961899
 30
0.0
 11
319.9813137849836
 21
175.7565688961899
 31
0.0
  0
LINE
  5
424
330
1A
100
AcDbEntity
  8
SEIHIN
  6
DASHED
 62
     2
 48
5.0
100
AcDbLine
 10
318.6801367849836
 20
198.8474688961899
 30
0.0
 11
317.9822137849836
 21
175.8170688961899
 31
0.0
  0
LINE
  5
425
330
1A
100
AcDbEntity
  8
SEIHIN
  6
CONTINUOUS
 62
     3
 48
16.0
100
AcDbLine
 10
314.3050767849836
 20
194.7869688961899
 30
0.0
 11
313.9114787849836
 21
181.8021218961899
 31
0.0
  0
ARC
  5
426
330
1A
100
AcDbEntity
  8
NOKITOI
  6
PHANTOM
 62
     8
 48
3.5
100
AcDbCircle
 10
308.9573565723143
 20
187.3476376245699
 30
0.0
 40
5.2000412730095
100
AcDbArc
 50
37.92420092094385
 51
89.99867545693838
  0
ARC
  5
427
330
1A
100
AcDbEntity
  8
NOKITOI
  6
PHANTOM
 62
     8
 48
3.5
100
AcDbCircle
 10
310.8709632128451
 20
184.5475657411035
 30
0.0
 40
1.999986844959662
100
AcDbArc
 50
270.0003888156776
 51
358.2124468147636
  0
LINE
  5
428
330
1A
100
AcDbEntity
  8
NOKITOI
  6
PHANTOM
 62
     8
 48
3.5
100
AcDbLine
 10
312.5186767849835
 20
181.3475788961899
 30
0.0
 11
306.3739767849837
 21
181.3475788961899
 31
0.0
  0
ARC
  5
429
330
1A
100
AcDbEntity
  8
NOKITOI
  6
PHANTOM
 62
     8
 48
3.5
100
AcDbCircle
 10
308.9574389035368
 20
187.3476226787153
 30
0.0
 40
3.999989731271038
100
AcDbArc
 50
358.2100163932691
 51
83.52268857986855
  0
LINE
  5
42A
330
1A
100
AcDbEntity
  8
SEIHIN
  6
CONTINUOUS
 62
     3
 48
16.0
100
AcDbLine
 10
316.5125767849835
 20
175.3475688961899
 30
0.0
 11
311.2289767849836
 21
175.3475688961899
 31
0.0
  0
ARC
  5
42B
330
1A
100
AcDbEntity
  8
SEIHIN
  6
DASHED
 62
     2
 48
5.0
100
AcDbCircle
 10
313.9344137849836
 20
171.8474688961899
 30
0.0
 40
2.999986999999999
100
AcDbArc
 50
90.0
 51
193.342334
  0
LINE
  5
42C
330
1A
100
AcDbEntity
  8
SEIHIN
  6
CONTINUOUS
 62
     3
 48
16.0
100
AcDbLine
 10
307.1112767849836
 20
180.3475688961899
 30
0.0
 11
312.4121767849836
 21
180.3475688961899
 31
0.0
  0
LINE
  5
42D
330
1A
100
AcDbEntity
  8
SEIHIN
  6
CONTINUOUS
 62
     3
 48
16.0
100
AcDbLine
 10
307.9580767849836
 20
178.3475688961899
 30
0.0
 11
314.3524767849836
 21
178.3475688961899
 31
0.0
  0
LINE
  5
42E
330
1A
100
AcDbEntity
  8
SEIHIN
  6
CONTINUOUS
 62
     3
 48
16.0
100
AcDbLine
 10
312.9881767849835
 20
183.3475688961899
 30
0.0
 11
307.1791767849836
 21
183.3475688961899
 31
0.0
  0
ARC
  5
42F
330
1A
100
AcDbEntity
  8
SEIHIN
  6
CONTINUOUS
 62
     3
 48
16.0
100
AcDbCircle
 10
311.6087767849836
 20
188.3466478961899
 30
0.0
 40
2.999988999999999
100
AcDbArc
 50
90.0
 51
178.26366
  0
ARC
  5
430
330
1A
100
AcDbEntity
  8
NOKITOI
  6
PHANTOM
 62
     8
 48
3.5
100
AcDbCircle
 10
306.373985209146
 20
180.3475864112464
 30
0.0
 40
0.9999924849789756
100
AcDbArc
 50
90.00048267259112
 51
173.4717353933255
  0
ARC
  5
431
330
1A
100
AcDbEntity
  8
SEIHIN
  6
CONTINUOUS
 62
     3
 48
16.0
100
AcDbCircle
 10
307.1791767849836
 20
180.3475688961899
 30
0.0
 40
3.00002
100
AcDbArc
 50
90.0
 51
173.592529
  0
LINE
  5
432
330
1A
100
AcDbEntity
  8
SEIHIN
  6
CONTINUOUS
 62
     3
 48
16.0
100
AcDbLine
 10
298.4672767849835
 20
180.3467478961899
 30
0.0
 11
304.1588337849836
 21
180.3467478961899
 31
0.0
  0
ARC
  5
433
330
1A
100
AcDbEntity
  8
SEIHIN
  6
CONTINUOUS
 62
     3
 48
16.0
100
AcDbCircle
 10
298.4672767849835
 20
178.3467478961899
 30
0.0
 40
2.000007
100
AcDbArc
 50
90.0
 51
166.505717
  0
ARC
  5
434
330
1A
100
AcDbEntity
  8
SEIHIN
  6
CONTINUOUS
 62
     3
 48
16.0
100
AcDbCircle
 10
302.8788767849836
 20
178.3467478961899
 30
0.0
 40
2.00001
100
AcDbArc
 50
90.0
 51
167.6315299999999
  0
ARC
  5
435
330
1A
100
AcDbEntity
  8
SEIHIN
  6
CONTINUOUS
 62
     3
 48
16.0
100
AcDbCircle
 10
311.2289767849836
 20
174.3475688961899
 30
0.0
 40
1.000002
100
AcDbArc
 50
90.0
 51
167.2381459999999
  0
ARC
  5
436
330
1A
100
AcDbEntity
  8
SEIHIN
  6
CONTINUOUS
 62
     3
 48
16.0
100
AcDbCircle
 10
307.1112767849836
 20
178.3475688961899
 30
0.0
 40
1.999971999999999
100
AcDbArc
 50
90.0
 51
171.051054
  0
ARC
  5
437
330
1A
100
AcDbEntity
  8
SEIHIN
  6
CONTINUOUS
 62
     3
 48
16.0
100
AcDbCircle
 10
307.9580767849836
 20
177.3475688961899
 30
0.0
 40
1.000018
100
AcDbArc
 50
90.0
 51
169.985712
  0
LINE
  5
438
330
1A
100
AcDbEntity
  8
NOKITOI
  6
PHANTOM
 62
     8
 48
3.5
100
AcDbLine
 10
307.1110767849835
 20
189.04757889619
 30
0.0
 11
306.9298767849835
 21
192.4890788961901
 31
0.0
  0
LINE
  5
439
330
1A
100
AcDbEntity
  8
NOKITOI
  6
PHANTOM
 62
     8
 48
3.5
100
AcDbLine
 10
308.4955767849832
 20
192.54757889619
 30
0.0
 11
308.9574767849834
 21
192.54757889619
 31
0.0
  0
ARC
  5
43A
330
1A
100
AcDbEntity
  8
NOKITOI
  6
PHANTOM
 62
     8
 48
3.5
100
AcDbCircle
 10
309.3522625665681
 20
190.8252642618889
 30
0.0
 40
0.5000073448410256
100
AcDbArc
 50
83.5217071700316
 51
188.1270521358757
  0
LINE
  5
43B
330
1A
100
AcDbEntity
  8
NOKITOI
  6
PHANTOM
 62
     8
 48
3.5
100
AcDbLine
 10
307.8889767849831
 20
189.04757889619
 30
0.0
 11
307.4848767849833
 21
191.8759788961898
 31
0.0
  0
LINE
  5
43C
330
1A
100
AcDbEntity
  8
NOKITOI
  6
PHANTOM
 62
     8
 48
3.5
100
AcDbLine
 10
307.4848767849833
 20
191.8759788961898
 30
0.0
 11
306.9298767849835
 21
192.4890788961901
 31
0.0
  0
LINE
  5
43D
330
1A
100
AcDbEntity
  8
NOKITOI
  6
PHANTOM
 62
     8
 48
3.5
100
AcDbLine
 10
307.1110767849835
 20
189.04757889619
 30
0.0
 11
307.8889767849831
 21
189.04757889619
 31
0.0
  0
ARC
  5
43E
330
1A
100
AcDbEntity
  8
NOKITOI
  6
PHANTOM
 62
     8
 48
3.5
100
AcDbCircle
 10
306.4469836719784
 20
188.3475723611044
 30
0.0
 40
0.499993464961963
100
AcDbArc
 50
183.0029638682573
 51
269.9992107982126
  0
ARC
  5
43F
330
1A
100
AcDbEntity
  8
NOKITOI
  6
PHANTOM
 62
     8
 48
3.5
100
AcDbCircle
 10
304.8300642152752
 20
182.0475672714602
 30
0.0
 40
0.5000116248877111
100
AcDbArc
 50
89.99855965101662
 51
175.5251531916571
  0
ARC
  5
440
330
1A
100
AcDbEntity
  8
NOKITOI
  6
PHANTOM
 62
     8
 48
3.5
100
AcDbCircle
 10
308.6960501843858
 20
188.3475482193079
 30
0.0
 40
0.4999693238254178
100
AcDbArc
 50
270.0030483909652
 51
8.144496122946778
  0
LINE
  5
441
330
1A
100
AcDbEntity
  8
NOKITOI
  6
PHANTOM
 62
     8
 48
3.5
100
AcDbLine
 10
306.4469767849836
 20
187.8475788961899
 30
0.0
 11
308.6960767849835
 21
187.8475788961899
 31
0.0
  0
LINE
  5
442
330
1A
100
AcDbEntity
  8
NOKITOI
  6
PHANTOM
 62
     8
 48
3.5
100
AcDbLine
 10
304.8300767849831
 20
182.54757889619
 30
0.0
 11
310.8709767849835
 21
182.54757889619
 31
0.0
  0
LINE
  5
443
330
1A
100
AcDbEntity
  8
NOKITOI
  6
PHANTOM
 62
     8
 48
3.5
100
AcDbLine
 10
309.1909767849837
 20
188.4183788961901
 30
0.0
 11
308.8572767849835
 21
190.7545788961901
 31
0.0
  0
ARC
  5
444
330
1A
100
AcDbEntity
  8
SEIHIN
  6
DASHED
 62
     2
 48
5.0
100
AcDbCircle
 10
313.5750137849836
 20
191.0940688961899
 30
0.0
 40
3.999976999999999
100
AcDbArc
 50
180.0
 51
187.355585
  0
LINE
  5
445
330
1A
100
AcDbEntity
  8
SEIHIN
  6
CONTINUOUS
 62
     3
 48
16.0
100
AcDbLine
 10
308.4558197849836
 20
183.3475688961899
 30
0.0
 11
308.6100767849836
 21
188.4375478961899
 31
0.0
  0
ARC
  5
446
330
1A
100
AcDbEntity
  8
NOKITOI
  6
PHANTOM
 62
     8
 48
3.5
100
AcDbCircle
 10
312.5186408258326
 20
182.8475440420467
 30
0.0
 40
1.499965146287778
100
AcDbArc
 50
270.0013735703023
 51
358.2133719782232
  0
ARC
  5
447
330
1A
100
AcDbEntity
  8
SEIHIN
  6
CONTINUOUS
 62
     3
 48
16.0
100
AcDbCircle
 10
312.4121767849836
 20
181.8475688961899
 30
0.0
 40
1.499995
100
AcDbArc
 50
270.0
 51
358.263774
  0
ARC
  5
448
330
1A
100
AcDbEntity
  8
SEIHIN
  6
DASHED
 62
     2
 48
5.0
100
AcDbCircle
 10
316.9827137849836
 20
175.8473688961899
 30
0.0
 40
2.999986999999999
100
AcDbArc
 50
270.0
 51
358.265568
  0
LINE
  5
449
330
1A
100
AcDbEntity
  8
SEIHIN
  6
CONTINUOUS
 62
     3
 48
16.0
100
AcDbLine
 10
318.0117627849836
 20
176.7982968961899
 30
0.0
 11
318.0118767849836
 21
176.8020688961899
 31
0.0
  0
LINE
  5
44A
330
1A
100
AcDbEntity
  8
SEIHIN
  6
DASHED
 62
     2
 48
5.0
100
AcDbLine
 10
316.9827137849836
 20
172.8473688961899
 30
0.0
 11
313.9344137849836
 21
172.8473688961899
 31
0.0
  0
LINE
  5
44B
330
1A
100
AcDbEntity
  8
SEIHIN
  6
DASHED
 62
     2
 48
5.0
100
AcDbLine
 10
316.9827137849836
 20
174.8473688961899
 30
0.0
 11
313.9345137849836
 21
174.8474688961899
 31
0.0
  0
ARC
  5
44C
330
1A
100
AcDbEntity
  8
SEIHIN
  6
DASHED
 62
     2
 48
5.0
100
AcDbCircle
 10
313.9344137849836
 20
171.8473688961899
 30
0.0
 40
0.9999879999999999
100
AcDbArc
 50
90.0
 51
193.338617
  0
ARC
  5
44D
330
1A
100
AcDbEntity
  8
SEIHIN
  6
DASHED
 62
     2
 48
5.0
100
AcDbCircle
 10
316.9827137849836
 20
175.8473688961899
 30
0.0
 40
0.9999780000000001
100
AcDbArc
 50
270.0
 51
358.2693259999999
  0
ARC
  5
44E
330
1A
100
AcDbEntity
  8
SEIHIN
  6
CONTINUOUS
 62
     3
 48
16.0
100
AcDbCircle
 10
316.5125767849835
 20
176.8475688961899
 30
0.0
 40
1.499995
100
AcDbArc
 50
270.0
 51
358.2617519999999
  0
ARC
  5
44F
330
1A
100
AcDbEntity
  8
SEIHIN
  6
CONTINUOUS
 62
     3
 48
16.0
100
AcDbCircle
 10
314.3524767849836
 20
179.8475688961899
 30
0.0
 40
1.499995
100
AcDbArc
 50
270.0
 51
358.2617519999999
  0
LINE
  5
450
330
1A
100
AcDbEntity
  8
NOKITOI
  6
PHANTOM
 62
     8
 48
3.5
100
AcDbLine
 10
312.8699767849838
 20
184.4851788961899
 30
0.0
 11
312.9554767849834
 21
187.2226788961899
 31
0.0
  0
LINE
  5
451
330
1A
100
AcDbEntity
  8
SEIHIN
  6
CONTINUOUS
 62
     3
 48
16.0
100
AcDbLine
 10
314.2008767849836
 20
191.3466478961899
 30
0.0
 11
311.6087767849836
 21
191.3466478961899
 31
0.0
  0
ARC
  5
452
330
1A
100
AcDbEntity
  8
SEIHIN
  6
CONTINUOUS
 62
     3
 48
16.0
100
AcDbCircle
 10
312.9881767849835
 20
184.3475688961899
 30
0.0
 40
1.0
100
AcDbArc
 50
270.0
 51
358.2637749999999
  0
LINE
  5
453
330
1A
100
AcDbEntity
  8
NOKITOI
  6
PHANTOM
 62
     8
 48
3.5
100
AcDbLine
 10
312.4090767849837
 20
197.3475788961899
 30
0.0
 11
309.0824767849834
 21
197.3475788961899
 31
0.0
  0
LINE
  5
454
330
1A
100
AcDbEntity
  8
NOKITOI
  6
PHANTOM
 62
     8
 48
3.5
100
AcDbLine
 10
312.4090767849837
 20
196.1475788961901
 30
0.0
 11
309.9362767849833
 21
196.1475788961901
 31
0.0
  0
ARC
  5
455
330
1A
100
AcDbEntity
  8
SEIHIN
  6
DASHED
 62
     2
 48
5.0
100
AcDbCircle
 10
312.5750137849836
 20
197.8474688961899
 30
0.0
 40
3.0
100
AcDbArc
 50
90.0
 51
160.52878
  0
LINE
  5
456
330
1A
100
AcDbEntity
  8
SEIHIN
  6
DASHED
 62
     2
 48
5.0
100
AcDbLine
 10
318.6801367849836
 20
198.8474688961899
 30
0.0
 11
307.7995767849836
 21
198.8474688961899
 31
0.0
  0
LINE
  5
457
330
1A
100
AcDbEntity
  8
SEIHIN
  6
CONTINUOUS
 62
     3
 48
16.0
100
AcDbLine
 10
307.5674767849836
 20
196.8474688961899
 30
0.0
 11
312.3059767849836
 21
196.8474688961899
 31
0.0
  0
ARC
  5
458
330
1A
100
AcDbEntity
  8
NOKITOI
  6
PHANTOM
 62
     8
 48
3.5
100
AcDbCircle
 10
306.1311829861414
 20
194.3475854312752
 30
0.0
 40
0.4999934649531607
100
AcDbArc
 50
90.00071060961996
 51
183.0044636796616
  0
ARC
  5
459
330
1A
100
AcDbEntity
  8
NOKITOI
  6
PHANTOM
 62
     8
 48
3.5
100
AcDbCircle
 10
309.0824775679919
 20
196.8475798511916
 30
0.0
 40
0.4999990449987349
100
AcDbArc
 50
90.00008972630549
 51
191.3032801984551
  0
LINE
  5
45A
330
1A
100
AcDbEntity
  8
NOKITOI
  6
PHANTOM
 62
     8
 48
3.5
100
AcDbLine
 10
309.9362767849833
 20
196.1475788961901
 30
0.0
 11
310.4362767849833
 21
193.6475788961901
 31
0.0
  0
LINE
  5
45B
330
1A
100
AcDbEntity
  8
NOKITOI
  6
PHANTOM
 62
     8
 48
3.5
100
AcDbLine
 10
310.4362767849833
 20
193.6475788961901
 30
0.0
 11
307.4997767849835
 21
193.6475788961901
 31
0.0
  0
ARC
  5
45C
330
1A
100
AcDbEntity
  8
NOKITOI
  6
PHANTOM
 62
     8
 48
3.5
100
AcDbCircle
 10
308.3626840395389
 20
195.3475877460333
 30
0.0
 40
0.5000088498959383
100
AcDbArc
 50
269.9991687038565
 51
11.31359566951149
  0
LINE
  5
45D
330
1A
100
AcDbEntity
  8
NOKITOI
  6
PHANTOM
 62
     8
 48
3.5
100
AcDbLine
 10
308.8529767849835
 20
195.4456788961898
 30
0.0
 11
308.5921767849835
 21
196.7495788961899
 31
0.0
  0
LINE
  5
45E
330
1A
100
AcDbEntity
  8
NOKITOI
  6
PHANTOM
 62
     8
 48
3.5
100
AcDbLine
 10
306.1311767849837
 20
194.8475788961899
 30
0.0
 11
308.3626767849835
 21
194.8475788961899
 31
0.0
  0
LINE
  5
45F
330
1A
100
AcDbEntity
  8
SEIHIN
  6
CONTINUOUS
 62
     3
 48
16.0
100
AcDbLine
 10
307.5674767849836
 20
196.8475688961899
 30
0.0
 11
307.5674767849836
 21
195.3474688961899
 31
0.0
  0
ARC
  5
460
330
1A
100
AcDbEntity
  8
SEIHIN
  6
CONTINUOUS
 62
     3
 48
16.0
100
AcDbCircle
 10
309.2690767849836
 20
200.04906889619
 30
0.0
 40
5.000048999999999
100
AcDbArc
 50
199.8961699999999
 51
250.1038299999999
  0
ARC
  5
461
330
1A
100
AcDbEntity
  8
SEIHIN
  6
CONTINUOUS
 62
     3
 48
16.0
100
AcDbCircle
 10
306.0674767849836
 20
198.3474688961899
 30
0.0
 40
1.5
100
AcDbArc
 50
90.0
 51
180.0
  0
ARC
  5
462
330
1A
100
AcDbEntity
  8
SEIHIN
  6
CONTINUOUS
 62
     3
 48
16.0
100
AcDbCircle
 10
307.7995767849836
 20
200.8474688961899
 30
0.0
 40
2.000020999999999
100
AcDbArc
 50
209.999296
 51
270.0
  0
ARC
  5
463
330
1A
100
AcDbEntity
  8
SEIHIN
  6
DASHED
 62
     2
 48
5.0
100
AcDbCircle
 10
317.6493137849836
 20
197.8474688961899
 30
0.0
 40
2.999988999999999
100
AcDbArc
 50
358.107421
 51
89.87201400000001
  0
ARC
  5
464
330
1A
100
AcDbEntity
  8
NOKITOI
  6
PHANTOM
 62
     8
 48
3.5
100
AcDbCircle
 10
312.4090722901854
 20
195.3475835337168
 30
0.0
 40
0.7999953624857498
100
AcDbArc
 50
358.20887265358
 51
89.99967808194661
  0
ARC
  5
465
330
1A
100
AcDbEntity
  8
NOKITOI
  6
PHANTOM
 62
     8
 48
3.5
100
AcDbCircle
 10
312.4090640341336
 20
195.3475920512764
 30
0.0
 40
1.999986844954076
100
AcDbArc
 50
358.21169271173
 51
89.99963471264475
  0
LINE
  5
466
330
1A
100
AcDbEntity
  8
SEIHIN
  6
DASHED
 62
     2
 48
5.0
100
AcDbLine
 10
312.5750137849836
 20
200.8474688961899
 30
0.0
 11
317.6560147849836
 21
200.8474688961899
 31
0.0
  0
ARC
  5
467
330
1A
100
AcDbEntity
  8
SEIHIN
  6
CONTINUOUS
 62
     3
 48
16.0
100
AcDbCircle
 10
317.6493137849836
 20
197.8474688961899
 30
0.0
 40
1.000029999999999
100
AcDbArc
 50
356.8680459999999
 51
90.440556
  0
ARC
  5
468
330
1A
100
AcDbEntity
  8
SEIHIN
  6
CONTINUOUS
 62
     3
 48
16.0
100
AcDbCircle
 10
312.3059767849836
 20
194.8474688961899
 30
0.0
 40
2.000008
100
AcDbArc
 50
358.2665509999999
 51
90.0
  0
ARC
  5
469
330
1A
100
AcDbEntity
  8
SEIHIN
  6
CONTINUOUS
 62
     3
 48
16.0
100
AcDbCircle
 10
314.3675767849836
 20
196.8474688961899
 30
0.0
 40
1.999959
100
AcDbArc
 50
358.2636019999999
 51
90.0
  0
ARC
  5
46A
330
1A
100
AcDbEntity
  8
SEIHIN
  6
CONTINUOUS
 62
     3
 48
16.0
100
AcDbCircle
 10
316.6185767849835
 20
196.8474688961899
 30
0.0
 40
2.000008
100
AcDbArc
 50
358.2665509999999
 51
90.0
  0
LINE
  5
46B
330
1A
100
AcDbEntity
  8
SEIHIN
  6
CONTINUOUS
 62
     3
 48
16.0
100
AcDbLine
 10
409.7667432199513
 20
341.1648617187942
 30
0.0
 11
404.7667432199512
 21
342.1648617187942
 31
0.0
  0
LINE
  5
46C
330
1A
100
AcDbEntity
  8
SEIHIN
  6
CONTINUOUS
 62
     3
 48
16.0
100
AcDbLine
 10
404.7667432199512
 20
352.0417617187942
 30
0.0
 11
429.7666432199512
 21
352.0417617187942
 31
0.0
  0
LINE
  5
46D
330
1A
100
AcDbEntity
  8
SEIHIN
  6
CONTINUOUS
 62
     3
 48
16.0
100
AcDbLine
 10
404.7667432199512
 20
353.5417617187942
 30
0.0
 11
429.7666432199512
 21
353.5417617187942
 31
0.0
  0
LINE
  5
46E
330
1A
100
AcDbEntity
  8
SEIHIN
  6
CONTINUOUS
 62
     3
 48
16.0
100
AcDbLine
 10
429.7667432199512
 20
353.5417617187942
 30
0.0
 11
429.7667432199512
 21
345.6660617187943
 31
0.0
  0
LINE
  5
46F
330
1A
100
AcDbEntity
  8
SEIHIN
  6
CONTINUOUS
 62
     3
 48
16.0
100
AcDbLine
 10
457.7667932199513
 20
458.5069617187942
 30
0.0
 11
457.7667932199513
 21
413.7421017187942
 31
0.0
  0
LINE
  5
470
330
1A
100
AcDbEntity
  8
SEIHIN
  6
CONTINUOUS
 62
     3
 48
16.0
100
AcDbLine
 10
447.1367432199512
 20
461.5069617187942
 30
0.0
 11
447.1367432199512
 21
352.6270617187943
 31
0.0
  0
LINE
  5
471
330
1A
100
AcDbEntity
  8
SEIHIN
  6
CONTINUOUS
 62
     3
 48
16.0
100
AcDbLine
 10
439.7667432199512
 20
463.7173617187942
 30
0.0
 11
439.7667432199512
 21
343.6660617187943
 31
0.0
  0
LINE
  5
472
330
1A
100
AcDbEntity
  8
SEIHIN
  6
CONTINUOUS
 62
     3
 48
16.0
100
AcDbLine
 10
441.7667432199512
 20
463.7173617187942
 30
0.0
 11
441.7667432199512
 21
343.6660617187943
 31
0.0
  0
LINE
  5
473
330
1A
100
AcDbEntity
  8
SEIHIN
  6
CONTINUOUS
 62
     3
 48
16.0
100
AcDbLine
 10
460.7666932199511
 20
361.2465017187942
 30
0.0
 11
460.7667932199513
 21
451.3878017187942
 31
0.0
  0
LINE
  5
474
330
1A
100
AcDbEntity
  8
SEIHIN
  6
CONTINUOUS
 62
     3
 48
16.0
100
AcDbLine
 10
517.7668932199512
 20
463.7030017187941
 30
0.0
 11
517.766693219951
 21
343.6801717187942
 31
0.0
  0
LINE
  5
475
330
1A
100
AcDbEntity
  8
SEIHIN
  6
CONTINUOUS
 62
     3
 48
16.0
100
AcDbLine
 10
552.7667932199513
 20
464.7030017187942
 30
0.0
 11
552.7666932199511
 21
342.6802217187942
 31
0.0
  0
LINE
  5
476
330
1A
100
AcDbEntity
  8
SEIHIN
  6
CONTINUOUS
 62
     3
 48
16.0
100
AcDbLine
 10
518.2668782199511
 20
454.6417967187942
 30
0.0
 11
518.2667082199511
 21
352.7420887187942
 31
0.0
  0
LINE
  5
477
330
1A
100
AcDbEntity
  8
SEIHIN
  6
CONTINUOUS
 62
     3
 48
16.0
100
AcDbLine
 10
527.7668932199512
 20
454.6417017187943
 30
0.0
 11
518.2668782199511
 21
454.6417967187942
 31
0.0
  0
LINE
  5
478
330
1A
100
AcDbEntity
  8
SEIHIN
  6
CONTINUOUS
 62
     3
 48
16.0
100
AcDbLine
 10
552.7667932199513
 20
451.7421017187942
 30
0.0
 11
517.7667932199512
 21
451.7422017187943
 31
0.0
  0
LINE
  5
479
330
1A
100
AcDbEntity
  8
SEIHIN
  6
CONTINUOUS
 62
     3
 48
16.0
100
AcDbLine
 10
552.7667932199513
 20
440.7421017187941
 30
0.0
 11
517.7667932199512
 21
440.7422017187943
 31
0.0
  0
LINE
  5
47A
330
1A
100
AcDbEntity
  8
SEIHIN
  6
CONTINUOUS
 62
     3
 48
16.0
100
AcDbLine
 10
525.7668932199512
 20
463.7030017187941
 30
0.0
 11
512.7667432199512
 21
463.7030017187941
 31
0.0
  0
LINE
  5
47B
330
1A
100
AcDbEntity
  8
SEIHIN
  6
CONTINUOUS
 62
     3
 48
16.0
100
AcDbLine
 10
547.7667932199513
 20
465.7030017187942
 30
0.0
 11
513.1923002199512
 21
465.7030017187942
 31
0.0
  0
LINE
  5
47C
330
1A
100
AcDbEntity
  8
SEIHIN
  6
CONTINUOUS
 62
     3
 48
16.0
100
AcDbLine
 10
537.7668432199511
 20
466.4696617187942
 30
0.0
 11
514.7667432199511
 21
466.4696617187942
 31
0.0
  0
LINE
  5
47D
330
1A
100
AcDbEntity
  8
SEIHIN
  6
CONTINUOUS
 62
     3
 48
16.0
100
AcDbLine
 10
449.4678432199513
 20
468.9696617187943
 30
0.0
 11
532.7668432199511
 21
468.9696617187943
 31
0.0
  0
LINE
  5
47E
330
1A
100
AcDbEntity
  8
SEIHIN
  6
CONTINUOUS
 62
     3
 48
16.0
100
AcDbLine
 10
478.0668432199511
 20
458.5069617187942
 30
0.0
 11
475.066843219951
 21
458.5069617187942
 31
0.0
  0
LINE
  5
47F
330
1A
100
AcDbEntity
  8
SEIHIN
  6
CONTINUOUS
 62
     3
 48
16.0
100
AcDbLine
 10
517.7668932199512
 20
451.3878017187942
 30
0.0
 11
462.8534932199511
 21
451.3878017187942
 31
0.0
  0
ARC
  5
480
330
1A
100
AcDbEntity
  8
SEIHIN
  6
CONTINUOUS
 62
     3
 48
16.0
100
AcDbCircle
 10
474.0668432199511
 20
460.5069617187942
 30
0.0
 40
1.0
100
AcDbArc
 50
0.0
 51
90.0
  0
LINE
  5
481
330
1A
100
AcDbEntity
  8
SEIHIN
  6
CONTINUOUS
 62
     3
 48
16.0
100
AcDbLine
 10
475.066843219951
 20
462.5069617187942
 30
0.0
 11
475.066843219951
 21
458.5069617187942
 31
0.0
  0
ARC
  5
482
330
1A
100
AcDbEntity
  8
SEIHIN
  6
CONTINUOUS
 62
     3
 48
16.0
100
AcDbCircle
 10
460.7668432199512
 20
460.5069617187942
 30
0.0
 40
1.0
100
AcDbArc
 50
90.0
 51
180.0
  0
LINE
  5
483
330
1A
100
AcDbEntity
  8
SEIHIN
  6
CONTINUOUS
 62
     3
 48
16.0
100
AcDbLine
 10
459.7668432199511
 20
462.5069617187942
 30
0.0
 11
459.7668432199511
 21
458.5069617187942
 31
0.0
  0
ARC
  5
484
330
1A
100
AcDbEntity
  8
SEIHIN
  6
CONTINUOUS
 62
     3
 48
16.0
100
AcDbCircle
 10
455.7668432199512
 20
460.5069617187942
 30
0.0
 40
1.0
100
AcDbArc
 50
0.0
 51
90.0
  0
LINE
  5
485
330
1A
100
AcDbEntity
  8
SEIHIN
  6
CONTINUOUS
 62
     3
 48
16.0
100
AcDbLine
 10
456.7668432199512
 20
462.5069617187942
 30
0.0
 11
456.7668432199512
 21
458.5069617187942
 31
0.0
  0
LINE
  5
486
330
1A
100
AcDbEntity
  8
SEIHIN
  6
CONTINUOUS
 62
     3
 48
16.0
100
AcDbLine
 10
441.7667432199512
 20
461.5069617187942
 30
0.0
 11
455.7668432199512
 21
461.5069617187942
 31
0.0
  0
LINE
  5
487
330
1A
100
AcDbEntity
  8
SEIHIN
  6
CONTINUOUS
 62
     3
 48
16.0
100
AcDbLine
 10
431.7667432199512
 20
463.7173617187942
 30
0.0
 11
441.7667432199512
 21
463.7173617187942
 31
0.0
  0
LINE
  5
488
330
1A
100
AcDbEntity
  8
SEIHIN
  6
CONTINUOUS
 62
     3
 48
16.0
100
AcDbLine
 10
444.1624432199511
 20
468.2531617187942
 30
0.0
 11
439.3710432199512
 21
466.9349617187942
 31
0.0
  0
ARC
  5
489
330
1A
100
AcDbEntity
  8
SEIHIN
  6
CONTINUOUS
 62
     3
 48
16.0
100
AcDbCircle
 10
434.0657432199512
 20
486.2184617187942
 30
0.0
 40
19.999995
100
AcDbArc
 50
270.0
 51
285.3827079999999
  0
ARC
  5
48A
330
1A
100
AcDbEntity
  8
SEIHIN
  6
CONTINUOUS
 62
     3
 48
16.0
100
AcDbCircle
 10
449.4678432199513
 20
448.9696617187942
 30
0.0
 40
20.000008
100
AcDbArc
 50
90.0
 51
105.3829839999999
  0
LINE
  5
48B
330
1A
100
AcDbEntity
  8
SEIHIN
  6
CONTINUOUS
 62
     3
 48
16.0
100
AcDbLine
 10
460.7668432199512
 20
461.5069617187942
 30
0.0
 11
474.0668432199511
 21
461.5069617187942
 31
0.0
  0
ARC
  5
48C
330
1A
100
AcDbEntity
  8
SEIHIN
  6
CONTINUOUS
 62
     3
 48
16.0
100
AcDbCircle
 10
460.7668432199512
 20
462.5069617187942
 30
0.0
 40
1.0
100
AcDbArc
 50
90.0
 51
180.0
  0
ARC
  5
48D
330
1A
100
AcDbEntity
  8
SEIHIN
  6
CONTINUOUS
 62
     3
 48
16.0
100
AcDbCircle
 10
455.7668432199512
 20
462.5069617187942
 30
0.0
 40
1.0
100
AcDbArc
 50
0.0
 51
90.0
  0
ARC
  5
48E
330
1A
100
AcDbEntity
  8
SEIHIN
  6
CONTINUOUS
 62
     3
 48
16.0
100
AcDbCircle
 10
474.0668432199511
 20
462.5069617187942
 30
0.0
 40
1.0
100
AcDbArc
 50
0.0
 51
90.0
  0
LINE
  5
48F
330
1A
100
AcDbEntity
  8
SEIHIN
  6
CONTINUOUS
 62
     3
 48
16.0
100
AcDbLine
 10
450.4405432199511
 20
439.2557617187943
 30
0.0
 11
457.7667932199513
 21
439.2557617187943
 31
0.0
  0
LINE
  5
490
330
1A
100
AcDbEntity
  8
SEIHIN
  6
CONTINUOUS
 62
     3
 48
16.0
100
AcDbLine
 10
450.4405432199511
 20
456.3515617187942
 30
0.0
 11
457.7667932199513
 21
456.3515537187942
 31
0.0
  0
LINE
  5
491
330
1A
100
AcDbEntity
  8
SEIHIN
  6
CONTINUOUS
 62
     3
 48
16.0
100
AcDbLine
 10
450.4405432199511
 20
453.6494617187942
 30
0.0
 11
457.7667932199513
 21
453.6494617187942
 31
0.0
  0
ARC
  5
492
330
1A
100
AcDbEntity
  8
SEIHIN
  6
CONTINUOUS
 62
     3
 48
16.0
100
AcDbCircle
 10
442.7667432199512
 20
450.9196617187943
 30
0.0
 40
0.9999870000000001
100
AcDbArc
 50
110.8001489999999
 51
180.0
  0
ARC
  5
493
330
1A
100
AcDbEntity
  8
SEIHIN
  6
CONTINUOUS
 62
     3
 48
16.0
100
AcDbCircle
 10
442.7667432199512
 20
453.6217617187943
 30
0.0
 40
0.9999870000000001
100
AcDbArc
 50
110.8001489999999
 51
180.0
  0
LINE
  5
494
330
1A
100
AcDbEntity
  8
SEIHIN
  6
CONTINUOUS
 62
     3
 48
16.0
100
AcDbLine
 10
439.7667432199512
 20
451.1318617187942
 30
0.0
 11
441.7667432199512
 21
451.1318617187942
 31
0.0
  0
ARC
  5
495
330
1A
100
AcDbEntity
  8
SEIHIN
  6
CONTINUOUS
 62
     3
 48
16.0
100
AcDbCircle
 10
450.4405432199511
 20
435.6494617187943
 30
0.0
 40
18.00003699999999
100
AcDbArc
 50
90.0
 51
110.801185
  0
LINE
  5
496
330
1A
100
AcDbEntity
  8
SEIHIN
  6
CONTINUOUS
 62
     3
 48
16.0
100
AcDbLine
 10
444.0482432199511
 20
455.1782617187943
 30
0.0
 11
442.4116432199512
 21
454.5565617187943
 31
0.0
  0
ARC
  5
497
330
1A
100
AcDbEntity
  8
SEIHIN
  6
CONTINUOUS
 62
     3
 48
16.0
100
AcDbCircle
 10
450.4405432199511
 20
438.3515617187942
 30
0.0
 40
17.999991
100
AcDbArc
 50
90.0
 51
110.8012979999999
  0
LINE
  5
498
330
1A
100
AcDbEntity
  8
SEIHIN
  6
CONTINUOUS
 62
     3
 48
16.0
100
AcDbLine
 10
444.0482432199511
 20
452.4761617187942
 30
0.0
 11
442.4116432199512
 21
451.8544617187942
 31
0.0
  0
ARC
  5
499
330
1A
100
AcDbEntity
  8
SEIHIN
  6
CONTINUOUS
 62
     3
 48
16.0
100
AcDbCircle
 10
442.7667432199512
 20
436.5259617187942
 30
0.0
 40
0.9999870000000001
100
AcDbArc
 50
110.8001489999999
 51
180.0
  0
LINE
  5
49A
330
1A
100
AcDbEntity
  8
SEIHIN
  6
CONTINUOUS
 62
     3
 48
16.0
100
AcDbLine
 10
439.7667432199512
 20
434.3125617187943
 30
0.0
 11
441.7667432199512
 21
434.3125617187943
 31
0.0
  0
ARC
  5
49B
330
1A
100
AcDbEntity
  8
SEIHIN
  6
CONTINUOUS
 62
     3
 48
16.0
100
AcDbCircle
 10
450.4405432199511
 20
421.2557617187942
 30
0.0
 40
18.00003699999999
100
AcDbArc
 50
90.0
 51
110.801185
  0
LINE
  5
49C
330
1A
100
AcDbEntity
  8
SEIHIN
  6
CONTINUOUS
 62
     3
 48
16.0
100
AcDbLine
 10
444.0482432199511
 20
438.0824617187943
 30
0.0
 11
442.4116432199512
 21
437.4607617187942
 31
0.0
  0
LINE
  5
49D
330
1A
100
AcDbEntity
  8
SEIHIN
  6
CONTINUOUS
 62
     3
 48
16.0
100
AcDbLine
 10
457.7667932199513
 20
455.6879017187942
 30
0.0
 11
459.572893219951
 21
453.0991017187942
 31
0.0
  0
LINE
  5
49E
330
1A
100
AcDbEntity
  8
SEIHIN
  6
CONTINUOUS
 62
     3
 48
16.0
100
AcDbLine
 10
459.7668432199511
 20
458.5069617187942
 30
0.0
 11
456.7668432199512
 21
458.5069617187942
 31
0.0
  0
ARC
  5
49F
330
1A
100
AcDbEntity
  8
SEIHIN
  6
CONTINUOUS
 62
     3
 48
16.0
100
AcDbCircle
 10
462.8534932199511
 20
455.3878017187942
 30
0.0
 40
4.00003
100
AcDbArc
 50
214.90143
 51
270.0
  0
LINE
  5
4A0
330
1A
100
AcDbEntity
  8
SEIHIN
  6
CONTINUOUS
 62
     3
 48
16.0
100
AcDbLine
 10
507.7667432199511
 20
463.3459617187942
 30
0.0
 11
507.7667432199511
 21
461.3459617187942
 31
0.0
  0
LINE
  5
4A1
330
1A
100
AcDbEntity
  8
SEIHIN
  6
CONTINUOUS
 62
     3
 48
16.0
100
AcDbLine
 10
516.2668932199513
 20
463.7176037187942
 30
0.0
 11
516.2668862199511
 21
459.2030017187942
 31
0.0
  0
LINE
  5
4A2
330
1A
100
AcDbEntity
  8
SEIHIN
  6
CONTINUOUS
 62
     3
 48
16.0
100
AcDbLine
 10
515.7668932199512
 20
463.7030017187941
 30
0.0
 11
516.2668862199511
 21
459.2030017187942
 31
0.0
  0
ARC
  5
4A3
330
1A
100
AcDbEntity
  8
SEIHIN
  6
CONTINUOUS
 62
     3
 48
16.0
100
AcDbCircle
 10
479.066843219951
 20
460.5069617187942
 30
0.0
 40
1.0
100
AcDbArc
 50
90.0
 51
180.0
  0
LINE
  5
4A4
330
1A
100
AcDbEntity
  8
SEIHIN
  6
CONTINUOUS
 62
     3
 48
16.0
100
AcDbLine
 10
478.0668432199511
 20
462.5069617187942
 30
0.0
 11
478.0668432199511
 21
458.5069617187942
 31
0.0
  0
LINE
  5
4A5
330
1A
100
AcDbEntity
  8
SEIHIN
  6
CONTINUOUS
 62
     3
 48
16.0
100
AcDbLine
 10
479.066843219951
 20
461.5069617187942
 30
0.0
 11
507.7669432199511
 21
461.5069617187942
 31
0.0
  0
ARC
  5
4A6
330
1A
100
AcDbEntity
  8
SEIHIN
  6
CONTINUOUS
 62
     3
 48
16.0
100
AcDbCircle
 10
479.066843219951
 20
462.5069617187942
 30
0.0
 40
1.0
100
AcDbArc
 50
90.0
 51
180.0
  0
LINE
  5
4A7
330
1A
100
AcDbEntity
  8
SEIHIN
  6
CONTINUOUS
 62
     3
 48
16.0
100
AcDbLine
 10
507.7667432199511
 20
463.3459617187942
 30
0.0
 11
512.7667432199512
 21
463.3459617187942
 31
0.0
  0
LINE
  5
4A8
330
1A
100
AcDbEntity
  8
SEIHIN
  6
CONTINUOUS
 62
     3
 48
16.0
100
AcDbLine
 10
512.7667432199512
 20
463.3459617187942
 30
0.0
 11
512.7667432199512
 21
464.4696617187943
 31
0.0
  0
ARC
  5
4A9
330
1A
100
AcDbEntity
  8
SEIHIN
  6
CONTINUOUS
 62
     3
 48
16.0
100
AcDbCircle
 10
514.7667432199511
 20
464.4696617187943
 30
0.0
 40
2.0
100
AcDbArc
 50
90.0
 51
180.0
  0
LINE
  5
4AA
330
1A
100
AcDbEntity
  8
SEIHIN
  6
CONTINUOUS
 62
     3
 48
16.0
100
AcDbLine
 10
517.7668772199511
 20
454.1418017187942
 30
0.0
 11
518.2668782199511
 21
454.6417967187942
 31
0.0
  0
LINE
  5
4AB
330
1A
100
AcDbEntity
  8
SEIHIN
  6
CONTINUOUS
 62
     3
 48
16.0
100
AcDbLine
 10
517.7668862199511
 20
459.2030017187942
 30
0.0
 11
516.2668862199511
 21
459.2030017187942
 31
0.0
  0
LINE
  5
4AC
330
1A
100
AcDbEntity
  8
SEIHIN
  6
CONTINUOUS
 62
     3
 48
16.0
100
AcDbLine
 10
527.7668932199512
 20
461.7030017187942
 30
0.0
 11
527.7668932199512
 21
453.9420017187943
 31
0.0
  0
LINE
  5
4AD
330
1A
100
AcDbEntity
  8
SEIHIN
  6
CONTINUOUS
 62
     3
 48
16.0
100
AcDbLine
 10
537.7667432199512
 20
467.4696617187942
 30
0.0
 11
532.7668432199511
 21
468.9696617187943
 31
0.0
  0
LINE
  5
4AE
330
1A
100
AcDbEntity
  8
SEIHIN
  6
CONTINUOUS
 62
     3
 48
16.0
100
AcDbLine
 10
524.7668932199513
 20
463.7030017187941
 30
0.0
 11
524.7668932199513
 21
465.7030017187942
 31
0.0
  0
ARC
  5
4AF
330
1A
100
AcDbEntity
  8
SEIHIN
  6
CONTINUOUS
 62
     3
 48
16.0
100
AcDbCircle
 10
525.7668932199512
 20
461.7030017187942
 30
0.0
 40
2.0
100
AcDbArc
 50
0.0
 51
90.0
  0
LINE
  5
4B0
330
1A
100
AcDbEntity
  8
SEIHIN
  6
CONTINUOUS
 62
     3
 48
16.0
100
AcDbLine
 10
537.7667432199512
 20
465.7030017187942
 30
0.0
 11
537.7667432199512
 21
467.4696617187942
 31
0.0
  0
LINE
  5
4B1
330
1A
100
AcDbEntity
  8
SEIHIN
  6
CONTINUOUS
 62
     3
 48
16.0
100
AcDbLine
 10
547.7667932199513
 20
465.7030017187942
 30
0.0
 11
552.7667932199513
 21
464.7030017187942
 31
0.0
  0
LINE
  5
4B2
330
1A
100
AcDbEntity
  8
SEIHIN
  6
CONTINUOUS
 62
     3
 48
16.0
100
AcDbLine
 10
552.7667932199513
 20
455.4420017187942
 30
0.0
 11
527.7667932199513
 21
455.4420017187942
 31
0.0
  0
LINE
  5
4B3
330
1A
100
AcDbEntity
  8
SEIHIN
  6
CONTINUOUS
 62
     3
 48
16.0
100
AcDbLine
 10
552.7667932199513
 20
453.9420017187943
 30
0.0
 11
527.7667932199513
 21
453.9420017187943
 31
0.0
  0
LINE
  5
4B5
330
1A
100
AcDbEntity
  8
SEIHIN
  6
CONTINUOUS
 62
     3
 48
16.0
100
AcDbLine
 10
525.766693219951
 20
343.6801717187942
 30
0.0
 11
512.7667432199512
 21
343.6801717187942
 31
0.0
  0
LINE
  5
4B6
330
1A
100
AcDbEntity
  8
SEIHIN
  6
CONTINUOUS
 62
     3
 48
16.0
100
AcDbLine
 10
527.7667932199513
 20
352.7420317187942
 30
0.0
 11
518.2667082199511
 21
352.7420887187942
 31
0.0
  0
LINE
  5
4B7
330
1A
100
AcDbEntity
  8
SEIHIN
  6
CONTINUOUS
 62
     3
 48
16.0
100
AcDbLine
 10
547.7667932199513
 20
341.6801817187942
 30
0.0
 11
513.1923672199511
 21
341.6801357187942
 31
0.0
  0
LINE
  5
4B8
330
1A
100
AcDbEntity
  8
SEIHIN
  6
CONTINUOUS
 62
     3
 48
16.0
100
AcDbLine
 10
537.7667432199512
 20
340.9135617187942
 30
0.0
 11
514.7667432199511
 21
340.9135617187942
 31
0.0
  0
LINE
  5
4B9
330
1A
100
AcDbEntity
  8
SEIHIN
  6
CONTINUOUS
 62
     3
 48
16.0
100
AcDbLine
 10
449.4677432199511
 20
338.4135617187942
 30
0.0
 11
532.7666432199512
 21
338.4135617187942
 31
0.0
  0
LINE
  5
4BA
330
1A
100
AcDbEntity
  8
SEIHIN
  6
CONTINUOUS
 62
     3
 48
16.0
100
AcDbLine
 10
457.7667932199513
 20
393.7421017187942
 30
0.0
 11
457.7667072199512
 21
348.9766617187943
 31
0.0
  0
LINE
  5
4BB
330
1A
100
AcDbEntity
  8
SEIHIN
  6
CONTINUOUS
 62
     3
 48
16.0
100
AcDbLine
 10
459.2667932199512
 20
413.7421017187942
 30
0.0
 11
459.2667932199512
 21
393.7421017187942
 31
0.0
  0
LINE
  5
4BC
330
1A
100
AcDbEntity
  8
SEIHIN
  6
CONTINUOUS
 62
     3
 48
16.0
100
AcDbLine
 10
457.7667932199513
 20
413.7421017187942
 30
0.0
 11
459.2667932199512
 21
413.7421017187942
 31
0.0
  0
LINE
  5
4BD
330
1A
100
AcDbEntity
  8
SEIHIN
  6
CONTINUOUS
 62
     3
 48
16.0
100
AcDbLine
 10
457.7667932199513
 20
393.7421017187942
 30
0.0
 11
459.2667932199512
 21
393.7421017187942
 31
0.0
  0
LINE
  5
4BE
330
1A
100
AcDbEntity
  8
SEIHIN
  6
CONTINUOUS
 62
     3
 48
16.0
100
AcDbLine
 10
478.0667432199511
 20
348.9766617187943
 30
0.0
 11
475.0667432199511
 21
348.9766617187943
 31
0.0
  0
LINE
  5
4BF
330
1A
100
AcDbEntity
  8
SEIHIN
  6
CONTINUOUS
 62
     3
 48
16.0
100
AcDbLine
 10
517.7667932199512
 20
361.2464417187942
 30
0.0
 11
462.8532932199512
 21
361.2464717187943
 31
0.0
  0
LINE
  5
4C1
330
1A
100
AcDbEntity
  8
SEIHIN
  6
CONTINUOUS
 62
     3
 48
16.0
100
AcDbLine
 10
441.7667432199512
 20
345.9766617187943
 30
0.0
 11
455.7667432199512
 21
345.9766617187943
 31
0.0
  0
LINE
  5
4C2
330
1A
100
AcDbEntity
  8
SEIHIN
  6
CONTINUOUS
 62
     3
 48
16.0
100
AcDbLine
 10
450.4405432199511
 20
351.1670617187943
 30
0.0
 11
457.7667112199512
 21
351.1670387187942
 31
0.0
  0
ARC
  5
4C3
330
1A
100
AcDbEntity
  8
SEIHIN
  6
CONTINUOUS
 62
     3
 48
16.0
100
AcDbCircle
 10
442.7667432199512
 20
353.8968617187942
 30
0.0
 40
0.9999870000000001
100
AcDbArc
 50
180.0
 51
249.1998509999999
  0
ARC
  5
4C4
330
1A
100
AcDbEntity
  8
SEIHIN
  6
CONTINUOUS
 62
     3
 48
16.0
100
AcDbCircle
 10
450.4406432199512
 20
369.1670617187942
 30
0.0
 40
18.00000899999999
100
AcDbArc
 50
249.1984039999999
 51
269.9996819999999
  0
LINE
  5
4C5
330
1A
100
AcDbEntity
  8
SEIHIN
  6
CONTINUOUS
 62
     3
 48
16.0
100
AcDbLine
 10
444.0483432199512
 20
352.3403617187943
 30
0.0
 11
442.4116432199512
 21
352.9620617187942
 31
0.0
  0
LINE
  5
4C6
330
1A
100
AcDbEntity
  8
SEIHIN
  6
CONTINUOUS
 62
     3
 48
16.0
100
AcDbLine
 10
431.7667432199512
 20
343.6660617187943
 30
0.0
 11
441.7667432199512
 21
343.6660617187943
 31
0.0
  0
LINE
  5
4C7
330
1A
100
AcDbEntity
  8
SEIHIN
  6
CONTINUOUS
 62
     3
 48
16.0
100
AcDbLine
 10
444.1625432199512
 20
339.1300617187942
 30
0.0
 11
439.3707432199511
 21
340.4483617187942
 31
0.0
  0
ARC
  5
4C8
330
1A
100
AcDbEntity
  8
SEIHIN
  6
CONTINUOUS
 62
     3
 48
16.0
100
AcDbCircle
 10
434.0655432199511
 20
321.1647617187943
 30
0.0
 40
20.00002999999999
100
AcDbArc
 50
74.61764399999998
 51
90.0
  0
ARC
  5
4C9
330
1A
100
AcDbEntity
  8
SEIHIN
  6
CONTINUOUS
 62
     3
 48
16.0
100
AcDbCircle
 10
449.4677432199511
 20
358.4135617187942
 30
0.0
 40
19.999995
100
AcDbArc
 50
254.617292
 51
270.0
  0
ARC
  5
4CA
330
1A
100
AcDbEntity
  8
SEIHIN
  6
CONTINUOUS
 62
     3
 48
16.0
100
AcDbCircle
 10
474.0667432199511
 20
346.9766617187943
 30
0.0
 40
1.0
100
AcDbArc
 50
328.2116689999999
 51
0.0
  0
LINE
  5
4CB
330
1A
100
AcDbEntity
  8
SEIHIN
  6
DASHED
 62
     2
 48
5.0
100
AcDbLine
 10
474.9167432199512
 20
348.5343247187942
 30
0.0
 11
474.9167432199512
 21
337.3677707187942
 31
0.0
  0
LINE
  5
4CC
330
1A
100
AcDbEntity
  8
SEIHIN
  6
CONTINUOUS
 62
     3
 48
16.0
100
AcDbLine
 10
475.0667432199511
 20
344.9766617187943
 30
0.0
 11
475.0667432199511
 21
348.9766617187943
 31
0.0
  0
ARC
  5
4CD
330
1A
100
AcDbEntity
  8
SEIHIN
  6
CONTINUOUS
 62
     3
 48
16.0
100
AcDbCircle
 10
460.7667432199511
 20
346.9766617187943
 30
0.0
 40
1.0
100
AcDbArc
 50
180.0
 51
211.788331
  0
ARC
  5
4CE
330
1A
100
AcDbEntity
  8
SEIHIN
  6
CONTINUOUS
 62
     3
 48
16.0
100
AcDbCircle
 10
455.7667432199512
 20
346.9766617187943
 30
0.0
 40
1.0
100
AcDbArc
 50
270.0
 51
0.0
  0
LINE
  5
4CF
330
1A
100
AcDbEntity
  8
SEIHIN
  6
DASHED
 62
     2
 48
5.0
100
AcDbLine
 10
459.9167432199513
 20
348.5343247187942
 30
0.0
 11
459.9167432199513
 21
337.3677707187942
 31
0.0
  0
LINE
  5
4D0
330
1A
100
AcDbEntity
  8
SEIHIN
  6
CONTINUOUS
 62
     3
 48
16.0
100
AcDbLine
 10
456.7667432199511
 20
344.9766617187943
 30
0.0
 11
456.7667432199511
 21
348.9766617187943
 31
0.0
  0
LINE
  5
4D1
330
1A
100
AcDbEntity
  8
SEIHIN
  6
CONTINUOUS
 62
     3
 48
16.0
100
AcDbLine
 10
459.7667432199512
 20
344.9766617187943
 30
0.0
 11
459.7667432199512
 21
348.9766617187943
 31
0.0
  0
LINE
  5
4D2
330
1A
100
AcDbEntity
  8
SEIHIN
  6
DASHED
 62
     2
 48
5.0
100
AcDbLine
 10
459.9167432199513
 20
348.5343247187942
 30
0.0
 11
474.9167432199512
 21
348.5343247187942
 31
0.0
  0
LINE
  5
4D3
330
1A
100
AcDbEntity
  8
SEIHIN
  6
CONTINUOUS
 62
     3
 48
16.0
100
AcDbLine
 10
457.7666932199511
 20
356.9465117187943
 30
0.0
 11
459.5727932199511
 21
359.5352017187942
 31
0.0
  0
ARC
  5
4D4
330
1A
100
AcDbEntity
  8
SEIHIN
  6
CONTINUOUS
 62
     3
 48
16.0
100
AcDbCircle
 10
462.8532932199512
 20
357.2464717187943
 30
0.0
 40
3.999998
100
AcDbArc
 50
90.0
 51
145.097398
  0
LINE
  5
4D5
330
1A
100
AcDbEntity
  8
SEIHIN
  6
CONTINUOUS
 62
     3
 48
16.0
100
AcDbLine
 10
459.7667432199512
 20
348.9766617187943
 30
0.0
 11
456.7667432199511
 21
348.9766617187943
 31
0.0
  0
LINE
  5
4D6
330
1A
100
AcDbEntity
  8
SEIHIN
  6
DASHED
 62
     2
 48
5.0
100
AcDbLine
 10
459.9167432199513
 20
337.3677707187942
 30
0.0
 11
474.9167432199512
 21
337.3677707187942
 31
0.0
  0
ARC
  5
4D7
330
1A
100
AcDbEntity
  8
SEIHIN
  6
CONTINUOUS
 62
     3
 48
16.0
100
AcDbCircle
 10
460.7667432199511
 20
344.9766617187943
 30
0.0
 40
1.0
100
AcDbArc
 50
180.0
 51
211.788331
  0
ARC
  5
4D8
330
1A
100
AcDbEntity
  8
SEIHIN
  6
CONTINUOUS
 62
     3
 48
16.0
100
AcDbCircle
 10
455.7667432199512
 20
344.9766617187943
 30
0.0
 40
1.0
100
AcDbArc
 50
270.0
 51
0.0
  0
ARC
  5
4D9
330
1A
100
AcDbEntity
  8
SEIHIN
  6
CONTINUOUS
 62
     3
 48
16.0
100
AcDbCircle
 10
474.0667432199511
 20
344.9766617187943
 30
0.0
 40
1.0
100
AcDbArc
 50
328.2116689999999
 51
0.0
  0
LINE
  5
4DA
330
1A
100
AcDbEntity
  8
SEIHIN
  6
CONTINUOUS
 62
     3
 48
16.0
100
AcDbLine
 10
479.0667432199511
 20
345.9766617187943
 30
0.0
 11
507.7667432199511
 21
345.9766617187943
 31
0.0
  0
ARC
  5
4DB
330
1A
100
AcDbEntity
  8
SEIHIN
  6
CONTINUOUS
 62
     3
 48
16.0
100
AcDbCircle
 10
479.0667432199511
 20
346.9766617187943
 30
0.0
 40
1.0
100
AcDbArc
 50
180.0
 51
270.0
  0
LINE
  5
4DC
330
1A
100
AcDbEntity
  8
SEIHIN
  6
CONTINUOUS
 62
     3
 48
16.0
100
AcDbLine
 10
478.0667432199511
 20
344.9766617187943
 30
0.0
 11
478.0667432199511
 21
348.9766617187943
 31
0.0
  0
ARC
  5
4DD
330
1A
100
AcDbEntity
  8
SEIHIN
  6
CONTINUOUS
 62
     3
 48
16.0
100
AcDbCircle
 10
479.0667432199511
 20
344.9766617187943
 30
0.0
 40
1.0
100
AcDbArc
 50
180.0
 51
270.0
  0
LINE
  5
4DE
330
1A
100
AcDbEntity
  8
SEIHIN
  6
CONTINUOUS
 62
     3
 48
16.0
100
AcDbLine
 10
516.2667902199512
 20
343.7664807187942
 30
0.0
 11
516.2667902199512
 21
348.2810827187942
 31
0.0
  0
LINE
  5
4DF
330
1A
100
AcDbEntity
  8
SEIHIN
  6
CONTINUOUS
 62
     3
 48
16.0
100
AcDbLine
 10
515.7667902199512
 20
343.7810837187942
 30
0.0
 11
516.2667902199512
 21
348.2810827187942
 31
0.0
  0
LINE
  5
4E0
330
1A
100
AcDbEntity
  8
SEIHIN
  6
CONTINUOUS
 62
     3
 48
16.0
100
AcDbLine
 10
517.7667902199512
 20
348.2810807187942
 30
0.0
 11
516.2667902199512
 21
348.2810827187942
 31
0.0
  0
LINE
  5
4E1
330
1A
100
AcDbEntity
  8
SEIHIN
  6
CONTINUOUS
 62
     3
 48
16.0
100
AcDbLine
 10
518.2667082199511
 20
352.7420887187942
 30
0.0
 11
517.7667092199512
 21
353.2420917187942
 31
0.0
  0
LINE
  5
4E2
330
1A
100
AcDbEntity
  8
SEIHIN
  6
CONTINUOUS
 62
     3
 48
16.0
100
AcDbLine
 10
507.7667432199511
 20
343.9766617187943
 30
0.0
 11
512.7667432199512
 21
343.9766617187943
 31
0.0
  0
LINE
  5
4E3
330
1A
100
AcDbEntity
  8
SEIHIN
  6
CONTINUOUS
 62
     3
 48
16.0
100
AcDbLine
 10
507.7667432199511
 20
343.9766617187943
 30
0.0
 11
507.7667432199511
 21
345.9766617187943
 31
0.0
  0
LINE
  5
4E4
330
1A
100
AcDbEntity
  8
SEIHIN
  6
CONTINUOUS
 62
     3
 48
16.0
100
AcDbLine
 10
512.7667432199512
 20
342.9135617187942
 30
0.0
 11
512.7667432199512
 21
343.9766617187943
 31
0.0
  0
ARC
  5
4E5
330
1A
100
AcDbEntity
  8
SEIHIN
  6
CONTINUOUS
 62
     3
 48
16.0
100
AcDbCircle
 10
514.7667432199511
 20
342.9135617187942
 30
0.0
 40
2.0
100
AcDbArc
 50
180.0
 51
270.0
  0
LINE
  5
4E6
330
1A
100
AcDbEntity
  8
SEIHIN
  6
CONTINUOUS
 62
     3
 48
16.0
100
AcDbLine
 10
552.7667932199513
 20
353.5419917187942
 30
0.0
 11
527.7667932199513
 21
353.5419917187942
 31
0.0
  0
LINE
  5
4E7
330
1A
100
AcDbEntity
  8
SEIHIN
  6
CONTINUOUS
 62
     3
 48
16.0
100
AcDbLine
 10
552.7667932199513
 20
352.0419917187942
 30
0.0
 11
527.7667932199513
 21
352.0419917187942
 31
0.0
  0
LINE
  5
4E8
330
1A
100
AcDbEntity
  8
SEIHIN
  6
CONTINUOUS
 62
     3
 48
16.0
100
AcDbLine
 10
527.7666932199511
 20
353.5419917187942
 30
0.0
 11
527.7666932199511
 21
345.6801717187942
 31
0.0
  0
LINE
  5
4E9
330
1A
100
AcDbEntity
  8
SEIHIN
  6
CONTINUOUS
 62
     3
 48
16.0
100
AcDbLine
 10
537.7667432199512
 20
339.9135617187942
 30
0.0
 11
532.7667432199511
 21
338.4135617187942
 31
0.0
  0
LINE
  5
4EA
330
1A
100
AcDbEntity
  8
SEIHIN
  6
CONTINUOUS
 62
     3
 48
16.0
100
AcDbLine
 10
524.7668932199513
 20
341.6801517187943
 30
0.0
 11
524.7668932199513
 21
343.6801817187942
 31
0.0
  0
ARC
  5
4EB
330
1A
100
AcDbEntity
  8
SEIHIN
  6
CONTINUOUS
 62
     3
 48
16.0
100
AcDbCircle
 10
525.766693219951
 20
345.6801717187942
 30
0.0
 40
2.0
100
AcDbArc
 50
270.0
 51
0.0
  0
LINE
  5
4EC
330
1A
100
AcDbEntity
  8
SEIHIN
  6
CONTINUOUS
 62
     3
 48
16.0
100
AcDbLine
 10
537.7667432199512
 20
339.9135617187942
 30
0.0
 11
537.7667432199512
 21
341.6801687187942
 31
0.0
  0
LINE
  5
4ED
330
1A
100
AcDbEntity
  8
SEIHIN
  6
CONTINUOUS
 62
     3
 48
16.0
100
AcDbLine
 10
547.766693219951
 20
341.6802217187942
 30
0.0
 11
552.7666932199511
 21
342.6802217187942
 31
0.0
  0
ARC
  5
4F3
330
1A
100
AcDbEntity
  8
SEIHIN
  6
CONTINUOUS
 62
     3
 48
16.0
100
AcDbCircle
 10
489.6577257849836
 20
166.5481688961899
 30
0.0
 40
30.000009
100
AcDbArc
 50
270.0002669999999
 51
280.202981
  0
LINE
  5
4F4
330
1A
100
AcDbEntity
  8
SEIHIN
  6
CONTINUOUS
 62
     3
 48
16.0
100
AcDbLine
 10
450.3701877849837
 20
175.3475738961899
 30
0.0
 11
532.7672157849836
 21
175.3475738961899
 31
0.0
  0
LINE
  5
4F5
330
1A
100
AcDbEntity
  8
SEIHIN
  6
CONTINUOUS
 62
     3
 48
16.0
100
AcDbLine
 10
404.7670374802257
 20
198.8475758332241
 30
0.0
 11
537.7670057849837
 21
198.8480688961899
 31
0.0
  0
LINE
  5
4F6
330
1A
100
AcDbEntity
  8
SEIHIN
  6
CONTINUOUS
 62
     3
 48
16.0
100
AcDbLine
 10
409.7670717849836
 20
178.3475818961899
 30
0.0
 11
435.1077907849836
 21
178.3476248961899
 31
0.0
  0
LINE
  5
4F7
330
1A
100
AcDbEntity
  8
SEIHIN
  6
CONTINUOUS
 62
     3
 48
16.0
100
AcDbLine
 10
404.7671357849835
 20
199.8476688961899
 30
0.0
 11
429.7671357849835
 21
199.8476688961899
 31
0.0
  0
LINE
  5
4F9
330
1A
100
AcDbEntity
  8
SEIHIN
  6
CONTINUOUS
 62
     3
 48
16.0
100
AcDbLine
 10
409.7670357849835
 20
140.3478388961899
 30
0.0
 11
433.2217827849835
 21
140.3479188961899
 31
0.0
  0
LINE
  5
4FA
330
1A
100
AcDbEntity
  8
SEIHIN
  6
CONTINUOUS
 62
     3
 48
16.0
100
AcDbLine
 10
409.7671357849836
 20
140.3478188961899
 30
0.0
 11
409.7670367849835
 21
198.8475948961899
 31
0.0
  0
LINE
  5
4FB
330
1A
100
AcDbEntity
  8
SEIHIN
  6
CONTINUOUS
 62
     3
 48
16.0
100
AcDbLine
 10
404.7671357849835
 20
140.8477588961899
 30
0.0
 11
404.7670357849836
 21
199.84776889619
 31
0.0
  0
LINE
  5
4FC
330
1A
100
AcDbEntity
  8
SEIHIN
  6
CONTINUOUS
 62
     3
 48
16.0
100
AcDbLine
 10
409.7671357849836
 20
140.3478188961899
 30
0.0
 11
404.7671357849835
 21
140.8477588961899
 31
0.0
  0
LINE
  5
4FD
330
1A
100
AcDbEntity
  8
SEIHIN
  6
CONTINUOUS
 62
     3
 48
16.0
100
AcDbLine
 10
409.7670717849836
 20
178.3475818961899
 30
0.0
 11
404.7670717849836
 21
178.84752189619
 31
0.0
  0
LINE
  5
4FE
330
1A
100
AcDbEntity
  8
SEIHIN
  6
DASHED
 62
     2
 48
5.0
100
AcDbLine
 10
459.9170357849836
 20
200.8477968961899
 30
0.0
 11
459.9170357849836
 21
162.3475968961899
 31
0.0
  0
LINE
  5
4FF
330
1A
100
AcDbEntity
  8
SEIHIN
  6
DASHED
 62
     2
 48
5.0
100
AcDbLine
 10
474.9170357849837
 20
200.8476968961899
 30
0.0
 11
474.9170357849837
 21
162.3475968961899
 31
0.0
  0
LINE
  5
500
330
1A
100
AcDbEntity
  8
SEIHIN
  6
CONTINUOUS
 62
     3
 48
16.0
100
AcDbLine
 10
437.3237357849835
 20
141.5770688961899
 30
0.0
 11
437.3236297849835
 21
176.3518258961899
 31
0.0
  0
LINE
  5
501
330
1A
100
AcDbEntity
  8
SEIHIN
  6
CONTINUOUS
 62
     3
 48
16.0
100
AcDbLine
 10
446.8278077849836
 20
137.8522758961899
 30
0.0
 11
446.8278077849836
 21
174.0204268961899
 31
0.0
  0
LINE
  5
502
330
1A
100
AcDbEntity
  8
SEIHIN
  6
CONTINUOUS
 62
     3
 48
16.0
100
AcDbLine
 10
489.6578157849837
 20
136.5481588961899
 30
0.0
 11
450.4392617849836
 21
136.5480388961899
 31
0.0
  0
LINE
  5
503
330
1A
100
AcDbEntity
  8
SEIHIN
  6
CONTINUOUS
 62
     3
 48
16.0
100
AcDbLine
 10
443.3350847849836
 20
137.8522758961899
 30
0.0
 11
440.1995357849836
 21
139.0437388961899
 31
0.0
  0
ARC
  5
504
330
1A
100
AcDbEntity
  8
SEIHIN
  6
CONTINUOUS
 62
     3
 48
16.0
100
AcDbCircle
 10
433.0955357849837
 20
120.3479188961899
 30
0.0
 40
19.999989
100
AcDbArc
 50
69.19457900000001
 51
89.638334
  0
ARC
  5
505
330
1A
100
AcDbEntity
  8
SEIHIN
  6
CONTINUOUS
 62
     3
 48
16.0
100
AcDbCircle
 10
450.4392007849836
 20
156.5480388961899
 30
0.0
 40
20.0
100
AcDbArc
 50
249.1939439999999
 51
270.000175
  0
LINE
  5
506
330
1A
100
AcDbEntity
  8
SEIHIN
  6
DASHED
 62
     2
 48
5.0
100
AcDbLine
 10
459.9170357849836
 20
162.3475968961899
 30
0.0
 11
474.9170357849837
 21
162.3475968961899
 31
0.0
  0
LINE
  5
508
330
1A
100
AcDbEntity
  8
SEIHIN
  6
CONTINUOUS
 62
     3
 48
16.0
100
AcDbLine
 10
446.8278077849836
 20
177.3334698961899
 30
0.0
 11
446.8278077849836
 21
198.8477318961899
 31
0.0
  0
LINE
  5
509
330
1A
100
AcDbEntity
  8
SEIHIN
  6
CONTINUOUS
 62
     3
 48
16.0
100
AcDbLine
 10
437.3237407849835
 20
179.5857978961899
 30
0.0
 11
437.3236817849836
 21
198.8476968961899
 31
0.0
  0
LINE
  5
50A
330
1A
100
AcDbEntity
  8
SEIHIN
  6
CONTINUOUS
 62
     3
 48
16.0
100
AcDbLine
 10
442.0870517849835
 20
177.0903678961899
 30
0.0
 11
443.3909617849836
 21
176.6048308961899
 31
0.0
  0
ARC
  5
50B
330
1A
100
AcDbEntity
  8
SEIHIN
  6
CONTINUOUS
 62
     3
 48
16.0
100
AcDbCircle
 10
435.1078247849836
 20
158.3476248961899
 30
0.0
 40
20.0
100
AcDbArc
 50
69.57620099999999
 51
90.00009699999997
  0
ARC
  5
50C
330
1A
100
AcDbEntity
  8
SEIHIN
  6
CONTINUOUS
 62
     3
 48
16.0
100
AcDbCircle
 10
450.3701877849837
 20
195.3475738961899
 30
0.0
 40
20.0
100
AcDbArc
 50
249.5762009999999
 51
270.0
  0
LINE
  5
50D
330
1A
100
AcDbEntity
  8
SEIHIN
  6
CONTINUOUS
 62
     3
 48
16.0
100
AcDbLine
 10
429.7670577849835
 20
198.8476688961899
 30
0.0
 11
429.7670357849836
 21
199.8487688961899
 31
0.0
  0
LINE
  5
50E
330
1A
100
AcDbEntity
  8
SEIHIN
  6
DASHED
 62
     2
 48
5.0
100
AcDbLine
 10
459.9170357849836
 20
172.8475968961899
 30
0.0
 11
474.9170357849837
 21
172.8475968961899
 31
0.0
  0
LINE
  5
50F
330
1A
100
AcDbEntity
  8
SEIHIN
  6
DASHED
 62
     2
 48
5.0
100
AcDbLine
 10
459.9170357849836
 20
200.8477968961899
 30
0.0
 11
474.9170357849837
 21
200.8477968961899
 31
0.0
  0
LINE
  5
513
330
1A
100
AcDbEntity
  8
SEIHIN
  6
PHANTOM
 62
     6
 48
5.0
100
AcDbLine
 10
572.7673107849836
 20
198.8478828961899
 30
0.0
 11
544.7673107849836
 21
198.8479288961899
 31
0.0
  0
LINE
  5
514
330
1A
100
AcDbEntity
  8
SEIHIN
  6
PHANTOM
 62
     6
 48
5.0
100
AcDbLine
 10
572.7673127849836
 20
199.84788289619
 30
0.0
 11
547.7673127849836
 21
199.8479238961899
 31
0.0
  0
LINE
  5
515
330
1A
100
AcDbEntity
  8
SEIHIN
  6
CONTINUOUS
 62
     3
100
AcDbLine
 10
547.7673147849836
 20
140.3479308961899
 30
0.0
 11
547.7674107849836
 21
198.8478908961899
 31
0.0
  0
LINE
  5
516
330
1A
100
AcDbEntity
  8
SEIHIN
  6
CONTINUOUS
 62
     3
100
AcDbLine
 10
552.7672157849836
 20
140.8479028961899
 30
0.0
 11
552.7673127849836
 21
199.8477828961899
 31
0.0
  0
LINE
  5
517
330
1A
100
AcDbEntity
  8
SEIHIN
  6
PHANTOM
 62
     6
 48
5.0
100
AcDbLine
 10
542.7672157849835
 20
140.8479028961899
 30
0.0
 11
542.7673127849836
 21
199.8477828961899
 31
0.0
  0
LINE
  5
518
330
1A
100
AcDbEntity
  8
SEIHIN
  6
CONTINUOUS
 62
     3
 48
16.0
100
AcDbLine
 10
537.7673147849836
 20
140.3479308961899
 30
0.0
 11
537.7674107849836
 21
198.8478908961899
 31
0.0
  0
LINE
  5
519
330
1A
100
AcDbEntity
  8
SEIHIN
  6
CONTINUOUS
 62
     3
 48
16.0
100
AcDbLine
 10
532.7672157849836
 20
138.3479988961899
 30
0.0
 11
532.7672157849836
 21
198.3478488961899
 31
0.0
  0
LINE
  5
51A
330
1A
100
AcDbEntity
  8
SEIHIN
  6
CONTINUOUS
 62
     3
 48
16.0
100
AcDbLine
 10
537.7672157849835
 20
138.8478188961899
 30
0.0
 11
537.7672157849835
 21
198.8476688961899
 31
0.0
  0
LINE
  5
51B
330
1A
100
AcDbEntity
  8
SEIHIN
  6
CONTINUOUS
 62
     3
 48
16.0
100
AcDbLine
 10
502.3466137849836
 20
139.9172518961899
 30
0.0
 11
502.3466137849836
 21
175.3475738961899
 31
0.0
  0
LINE
  5
51C
330
1A
100
AcDbEntity
  8
SEIHIN
  6
CONTINUOUS
 62
     3
 48
16.0
100
AcDbLine
 10
493.2099857849835
 20
137.8522758961899
 30
0.0
 11
493.2099857849835
 21
175.3475738961899
 31
0.0
  0
LINE
  5
51D
330
1A
100
AcDbEntity
  8
SEIHIN
  6
CONTINUOUS
 62
     3
 48
16.0
100
AcDbLine
 10
505.0142557849836
 20
138.3479688961899
 30
0.0
 11
532.7672157849836
 21
138.3478988961899
 31
0.0
  0
ARC
  5
51E
330
1A
100
AcDbEntity
  8
SEIHIN
  6
CONTINUOUS
 62
     3
 48
16.0
100
AcDbCircle
 10
505.0141657849836
 20
108.3479688961899
 30
0.0
 40
30.000001
100
AcDbArc
 50
89.99986599999999
 51
100.202906
  0
LINE
  5
51F
330
1A
100
AcDbEntity
  8
SEIHIN
  6
CONTINUOUS
 62
     3
 48
16.0
100
AcDbLine
 10
499.7001357849836
 20
137.8735788961899
 30
0.0
 11
494.9717757849837
 21
137.0225688961899
 31
0.0
  0
LINE
  5
520
330
1A
100
AcDbEntity
  8
SEIHIN
  6
CONTINUOUS
 62
     3
100
AcDbLine
 10
547.7673147849836
 20
140.3479308961899
 30
0.0
 11
537.7672157849835
 21
140.3479808961899
 31
0.0
  0
LINE
  5
521
330
1A
100
AcDbEntity
  8
SEIHIN
  6
PHANTOM
 62
     6
 48
5.0
100
AcDbLine
 10
542.7672157849835
 20
140.8479028961899
 30
0.0
 11
537.7672147849835
 21
140.3479108961899
 31
0.0
  0
LINE
  5
522
330
1A
100
AcDbEntity
  8
SEIHIN
  6
CONTINUOUS
 62
     3
 48
16.0
100
AcDbLine
 10
537.7672757849836
 20
138.8478188961899
 30
0.0
 11
532.7672157849836
 21
138.3479988961899
 31
0.0
  0
LINE
  5
523
330
1A
100
AcDbEntity
  8
SEIHIN
  6
PHANTOM
 62
     6
 48
5.0
100
AcDbLine
 10
537.7673147849836
 20
140.3479308961899
 30
0.0
 11
527.7672157849836
 21
140.3479808961899
 31
0.0
  0
LINE
  5
524
330
1A
100
AcDbEntity
  8
SEIHIN
  6
CONTINUOUS
 62
     3
100
AcDbLine
 10
552.7672157849836
 20
140.8479028961899
 30
0.0
 11
547.7672147849836
 21
140.3479108961899
 31
0.0
  0
LINE
  5
525
330
1A
100
AcDbEntity
  8
SEIHIN
  6
PHANTOM
 62
     6
 48
5.0
100
AcDbLine
 10
552.7673107849836
 20
198.8478828961899
 30
0.0
 11
524.7673107849837
 21
198.8479288961899
 31
0.0
  0
LINE
  5
526
330
1A
100
AcDbEntity
  8
SEIHIN
  6
PHANTOM
 62
     6
 48
5.0
100
AcDbLine
 10
542.7673127849836
 20
199.84788289619
 30
0.0
 11
517.7673127849836
 21
199.8479238961899
 31
0.0
  0
LINE
  5
527
330
1A
100
AcDbEntity
  8
SEIHIN
  6
CONTINUOUS
 62
     3
 48
16.0
100
AcDbLine
 10
542.7673107849837
 20
198.8478828961899
 30
0.0
 11
514.7673107849836
 21
198.8479288961899
 31
0.0
  0
LINE
  5
528
330
1A
100
AcDbEntity
  8
SEIHIN
  6
PHANTOM
 62
     6
 48
5.0
100
AcDbLine
 10
517.7673127849836
 20
199.8478238961899
 30
0.0
 11
517.7673107849837
 21
198.8479238961899
 31
0.0
  0
LINE
  5
529
330
1A
100
AcDbEntity
  8
SEIHIN
  6
CONTINUOUS
 62
     3
100
AcDbLine
 10
547.7673777849836
 20
178.3476638961899
 30
0.0
 11
537.7672157849835
 21
178.3476638961899
 31
0.0
  0
LINE
  5
52A
330
1A
100
AcDbEntity
  8
SEIHIN
  6
PHANTOM
 62
     6
 48
5.0
100
AcDbLine
 10
542.7672777849836
 20
178.8476358961899
 30
0.0
 11
537.7672777849836
 21
178.3476438961899
 31
0.0
  0
LINE
  5
52B
330
1A
100
AcDbEntity
  8
SEIHIN
  6
CONTINUOUS
 62
     3
 48
16.0
100
AcDbLine
 10
537.7672757849836
 20
175.8473938961899
 30
0.0
 11
532.7672157849836
 21
175.3475738961899
 31
0.0
  0
LINE
  5
52C
330
1A
100
AcDbEntity
  8
SEIHIN
  6
PHANTOM
 62
     6
 48
5.0
100
AcDbLine
 10
537.7673777849836
 20
178.3476638961899
 30
0.0
 11
527.7672157849836
 21
178.3476638961899
 31
0.0
  0
LINE
  5
52D
330
1A
100
AcDbEntity
  8
SEIHIN
  6
CONTINUOUS
 62
     3
100
AcDbLine
 10
552.7672777849836
 20
178.8476358961899
 30
0.0
 11
547.7672777849837
 21
178.3476438961899
 31
0.0
  0
LINE
  5
52E
330
1A
100
AcDbEntity
  8
SEIHIN
  6
CONTINUOUS
 62
     3
100
AcDbLine
 10
552.7673127849836
 20
199.84788289619
 30
0.0
 11
527.7673127849836
 21
199.8479238961899
 31
0.0
  0
LINE
  5
52F
330
1A
100
AcDbEntity
  8
SEIHIN
  6
PHANTOM
 62
     6
 48
5.0
100
AcDbLine
 10
527.7673127849836
 20
199.8478238961899
 30
0.0
 11
527.7673107849836
 21
198.8479238961899
 31
0.0
  0
LINE
  5
530
330
1A
100
AcDbEntity
  8
SEIHIN
  6
PHANTOM
 62
     6
 48
5.0
100
AcDbLine
 10
547.7673127849836
 20
199.8478238961899
 30
0.0
 11
547.7673107849836
 21
198.8479238961899
 31
0.0
  0
LINE
  5
531
330
1A
100
AcDbEntity
  8
SEIHIN
  6
PHANTOM
 62
     6
 48
5.0
100
AcDbLine
 10
567.7673147849836
 20
140.3479308961899
 30
0.0
 11
567.7674107849837
 21
198.8478908961899
 31
0.0
  0
LINE
  5
532
330
1A
100
AcDbEntity
  8
SEIHIN
  6
PHANTOM
 62
     6
 48
5.0
100
AcDbLine
 10
572.7672157849836
 20
140.8479028961899
 30
0.0
 11
572.7673127849836
 21
199.8477828961899
 31
0.0
  0
LINE
  5
533
330
1A
100
AcDbEntity
  8
SEIHIN
  6
PHANTOM
 62
     6
 48
5.0
100
AcDbLine
 10
567.7673147849836
 20
140.3479308961899
 30
0.0
 11
557.7672157849836
 21
140.3479808961899
 31
0.0
  0
LINE
  5
534
330
1A
100
AcDbEntity
  8
SEIHIN
  6
PHANTOM
 62
     6
 48
5.0
100
AcDbLine
 10
572.7672157849836
 20
140.8479028961899
 30
0.0
 11
567.7672147849835
 21
140.3479108961899
 31
0.0
  0
LINE
  5
535
330
1A
100
AcDbEntity
  8
SEIHIN
  6
PHANTOM
 62
     6
 48
5.0
100
AcDbLine
 10
567.7673777849836
 20
178.3476638961899
 30
0.0
 11
557.7672157849836
 21
178.3476638961899
 31
0.0
  0
LINE
  5
536
330
1A
100
AcDbEntity
  8
SEIHIN
  6
PHANTOM
 62
     6
 48
5.0
100
AcDbLine
 10
572.7672777849837
 20
178.8476358961899
 30
0.0
 11
567.7672777849836
 21
178.3476438961899
 31
0.0
  0
DIMENSION
  5
67D
330
1A
100
AcDbEntity
  8
SUNPOU
100
AcDbDimension
  2
*D1
 10
552.7673127849836
 20
248.1273607469422
 30
0.0
 11
478.7671742849836
 21
253.1273607469422
 31
0.0
 12
1.09791897118157
 22
-12.06767617879086
 32
0.0
 70
    32
  3
STANDARD
100
AcDbAlignedDimension
 13
404.7670357849836
 23
199.84776889619
 33
0.0
 14
552.7673127849836
 24
199.8477828961899
 34
0.0
100
AcDbRotatedDimension
1001
ACAD
1000
DSTYLE
1002
{
1070
   140
1040
6.0
1070
    74
1070
     0
1070
   172
1070
     1
1070
    73
1070
     0
1070
   272
1070
     2
1070
    77
1070
     3
1070
   173
1070
     1
1070
   147
1040
2.0
1070
    42
1040
6.0
1070
    44
1040
3.0
1070
    43
1040
14.0
1070
   271
1070
     0
1070
   178
1070
     4
1070
   177
1070
     4
1070
   176
1070
     4
1070
   141
1040
150.0
1070
     7
1000
_OPEN
1070
     6
1000
_OPEN
1070
    41
1040
7.0
1002
}
  0
DIMENSION
  5
68A
330
1A
100
AcDbEntity
  8
SUNPOU
100
AcDbDimension
  2
*D2
 10
572.7673127849836
 20
231.6306079249245
 30
0.0
 11
557.7673127849837
 21
236.6306079249245
 31
0.0
 12
1.09791897118157
 22
-12.06767617879086
 32
0.0
 70
    32
  3
STANDARD
100
AcDbAlignedDimension
 13
542.7673127849836
 23
199.8477828961899
 33
0.0
 14
572.7673127849836
 24
199.8477828961899
 34
0.0
100
AcDbRotatedDimension
1001
ACAD
1000
DSTYLE
1002
{
1070
   140
1040
6.0
1070
    74
1070
     0
1070
   172
1070
     1
1070
    73
1070
     0
1070
   272
1070
     2
1070
    77
1070
     3
1070
   173
1070
     1
1070
   147
1040
2.0
1070
    42
1040
6.0
1070
    44
1040
3.0
1070
    43
1040
14.0
1070
   271
1070
     0
1070
   178
1070
     4
1070
   177
1070
     4
1070
   176
1070
     4
1070
   141
1040
150.0
1070
     7
1000
_OPEN
1070
     6
1000
_OPEN
1070
    41
1040
7.0
1002
}
  0
DIMENSION
  5
697
330
1A
100
AcDbEntity
  8
SUNPOU
100
AcDbDimension
  2
*D3
 10
439.7667432199512
 20
314.5609495054479
 30
0.0
 11
422.2667432199513
 21
319.5609495054479
 31
0.0
 12
1.09791897118157
 22
-12.06767617879086
 32
0.0
 70
    32
  1
※<>
  3
STANDARD
100
AcDbAlignedDimension
 13
404.7667432199512
 23
342.1648617187942
 33
0.0
 14
439.7667432199512
 24
343.6660617187943
 34
0.0
100
AcDbRotatedDimension
1001
ACAD
1000
DSTYLE
1002
{
1070
   140
1040
6.0
1070
    74
1070
     0
1070
   172
1070
     1
1070
    73
1070
     0
1070
   272
1070
     2
1070
    77
1070
     3
1070
   173
1070
     1
1070
   147
1040
2.0
1070
    42
1040
6.0
1070
    44
1040
3.0
1070
    43
1040
14.0
1070
   271
1070
     0
1070
   178
1070
     4
1070
   177
1070
     4
1070
   176
1070
     4
1070
   141
1040
150.0
1070
     7
1000
_OPEN
1070
     6
1000
_OPEN
1070
    41
1040
7.0
1002
}
  0
DIMENSION
  5
6A4
330
1A
100
AcDbEntity
  8
SUNPOU
100
AcDbDimension
  2
*D4
 10
518.2667082199511
 20
314.5609495054479
 30
0.0
 11
535.516700719951
 21
319.5609495054479
 31
0.0
 12
1.09791897118157
 22
-12.06767617879086
 32
0.0
 70
    32
  1
※<>
  3
STANDARD
100
AcDbAlignedDimension
 13
552.7666932199511
 23
342.6802217187942
 33
0.0
 14
518.2667082199511
 24
352.7420887187942
 34
0.0
100
AcDbRotatedDimension
1001
ACAD
1000
DSTYLE
1002
{
1070
   140
1040
6.0
1070
    74
1070
     0
1070
   172
1070
     1
1070
    73
1070
     0
1070
   272
1070
     2
1070
    77
1070
     3
1070
   173
1070
     1
1070
   147
1040
2.0
1070
    42
1040
6.0
1070
    44
1040
3.0
1070
    43
1040
14.0
1070
   271
1070
     0
1070
   178
1070
     4
1070
   177
1070
     4
1070
   176
1070
     4
1070
   141
1040
150.0
1070
     7
1000
_OPEN
1070
     6
1000
_OPEN
1070
    41
1040
7.0
1002
}
  0
DIMENSION
  5
6BE
330
1A
100
AcDbEntity
  8
SUNPOU
100
AcDbDimension
  2
*D5
 10
378.1021123772347
 20
136.5480388961899
 30
0.0
 11
373.1021123772348
 21
167.6978073961899
 31
0.0
 12
1.09791897118157
 22
-12.06767617879086
 32
0.0
 70
    32
  3
STANDARD
100
AcDbAlignedDimension
 13
404.7670377849836
 23
198.8475758961899
 33
0.0
 14
450.4392617849836
 24
136.5480388961899
 34
0.0
 50
90.0
100
AcDbRotatedDimension
1001
ACAD
1000
DSTYLE
1002
{
1070
   140
1040
6.0
1070
    74
1070
     0
1070
   172
1070
     1
1070
    73
1070
     0
1070
   272
1070
     2
1070
    77
1070
     3
1070
   173
1070
     1
1070
   147
1040
2.0
1070
    42
1040
6.0
1070
    44
1040
3.0
1070
    43
1040
14.0
1070
   271
1070
     0
1070
   178
1070
     4
1070
   177
1070
     4
1070
   176
1070
     4
1070
   141
1040
150.0
1070
     7
1000
_OPEN
1070
     6
1000
_OPEN
1070
    41
1040
7.0
1002
}
  0
TEXT
  5
6BF
330
1A
100
AcDbEntity
  8
SUNPOU
100
AcDbText
 10
569.296161745212
 20
238.959513629723
 30
0.0
 40
6.0
  1
スライド巾
100
AcDbText
  0
LINE
  5
6C0
330
1A
100
AcDbEntity
  8
SEIHIN
100
AcDbLine
 10
474.9167432199512
 20
345.9766617187943
 30
0.0
 11
459.9167432199513
 21
345.9766617187943
 31
0.0
  0
TEXT
  5
70E
330
1A
100
AcDbEntity
  8
SUNPOU
  6
CONTINUOUS
 62
     4
100
AcDbText
 10
620.3363288383084
 20
58.00288682131249
 30
0.0
 40
8.0
  1
※　のきといの差込み寸法を示す
100
AcDbText
  0
LEADER
  5
710
330
1A
100
AcDbEntity
  8
SEIHIN
 62
     4
100
AcDbLeader
  3
STANDARD
 73
     0
 40
6.0
 41
33.99999999999999
 76
     3
 10
474.435376247819
 20
200.84779689619
 30
0.0
 10
468.0315338948371
 20
215.2309998082833
 30
0.0
 10
464.6771391987872
 20
215.2309998082833
 30
0.0
1001
ACAD
1000
DSTYLE
1002
{
1070
     6
1000
OPEN
1070
    41
1040
7.0
1070
    42
1040
6.0
1070
    43
1040
14.0
1070
    44
1040
3.0
1070
    73
1070
     0
1070
    74
1070
     0
1070
    77
1070
     3
1070
   140
1040
6.0
1070
   141
1040
150.0
1070
   147
1040
2.0
1070
   172
1070
     1
1070
   173
1070
     1
1070
   176
1070
     4
1070
   177
1070
     4
1070
   178
1070
     4
1070
   271
1070
     0
1070
   272
1070
     2
1070
   341
1005
6D
1070
   343
1005
6D
1070
   344
1005
6D
1002
}
  0
MTEXT
  5
711
330
1A
100
AcDbEntity
  8
SEIHIN
 62
     4
100
AcDbMText
 10
462.6771391987872
 20
217.2309998082833
 30
0.0
 40
6.0
 41
0.0
 71
     9
 72
     5
  1
ストッパー
1001
ACAD
1000
MTEXTBEGIN
1070
    73
1070
     1
1070
    44
1040
1.0
1070
    74
1070
     0
1000
MTEXTEND
1000
MTEXTBEGIN
1070
    73
1070
     1
1070
    44
1040
1.0
1070
    74
1070
     0
1000
MTEXTEND
  0
LINE
  5
85F
330
1A
100
AcDbEntity
  8
ZUWAKU
100
AcDbLine
 10
208.6466015947312
 20
15.20000012033744
 30
0.0
 11
447.4243642756546
 21
15.20000012033743
 31
0.0
  0
LINE
  5
860
330
1A
100
AcDbEntity
  8
ZUWAKU
100
AcDbLine
 10
208.6466015947312
 20
15.60000012033743
 30
0.0
 11
447.4243642756546
 21
15.60000012033744
 31
0.0
  0
LINE
  5
861
330
1A
100
AcDbEntity
  8
ZUWAKU
100
AcDbLine
 10
208.6466015947312
 20
15.40000012033743
 30
0.0
 11
447.4243642756546
 21
15.40000012033743
 31
0.0
  0
LINE
  5
862
330
1A
100
AcDbEntity
  8
ZUWAKU
100
AcDbLine
 10
0.0000003046632173
 20
30.80000012033741
 30
0.0
 11
797.400000304663
 21
30.80000012033741
 31
0.0
  0
LINE
  5
863
330
1A
100
AcDbEntity
  8
ZUWAKU
100
AcDbLine
 10
0.0000003046632173
 20
30.60000012033741
 30
0.0
 11
797.400000304663
 21
30.60000012033741
 31
0.0
  0
LINE
  5
864
330
1A
100
AcDbEntity
  8
ZUWAKU
100
AcDbLine
 10
0.0000003046632173
 20
30.40000012033741
 30
0.0
 11
797.400000304663
 21
30.40000012033741
 31
0.0
  0
LINE
  5
865
330
1A
100
AcDbEntity
  8
ZUWAKU
100
AcDbLine
 10
0.0000003046632173
 20
30.2000001203374
 30
0.0
 11
797.400000304663
 21
30.2000001203374
 31
0.0
  0
LINE
  5
866
330
1A
100
AcDbEntity
  8
ZUWAKU
100
AcDbLine
 10
0.0000003046632173
 20
30.0000001203374
 30
0.0
 11
797.400000304663
 21
30.0000001203374
 31
0.0
  0
LWPOLYLINE
  5
867
330
1A
100
AcDbEntity
  8
ZUWAKU
100
AcDbPolyline
 90
        4
 70
     1
 43
0.0
 10
0.2000003046631491
 20
551.4000001203375
 10
0.2000003046631491
 20
0.2000001203374495
 10
797.400000304663
 20
0.2000001203374726
 10
797.4000003046633
 20
551.4000001203375
  0
LWPOLYLINE
  5
868
330
1A
100
AcDbEntity
  8
ZUWAKU
100
AcDbPolyline
 90
        4
 70
     1
 43
0.0
 10
0.6000003046631264
 20
551.0000001203374
 10
0.6000003046631264
 20
0.6000001203374268
 10
797.0000003046634
 20
0.600000120337473
 10
797.0000003046632
 20
551.0000001203374
  0
LWPOLYLINE
  5
869
330
1A
100
AcDbEntity
  8
ZUWAKU
100
AcDbPolyline
 90
        4
 70
     1
 43
0.0
 10
0.0000003046632173
 20
551.6000001203374
 10
0.0000003046632173
 20
0.000000120337404
 10
797.6000003046634
 20
0.0000001203374715
 10
797.6000003046634
 20
551.6000001203375
  0
LWPOLYLINE
  5
86A
330
1A
100
AcDbEntity
  8
ZUWAKU
100
AcDbPolyline
 90
        4
 70
     1
 43
0.0
 10
0.4000003046631946
 20
551.2000001203374
 10
0.4000003046631946
 20
0.400000120337495
 10
797.2000003046632
 20
0.4000001203374719
 10
797.2000003046632
 20
551.2000001203374
  0
LWPOLYLINE
  5
86B
330
1A
100
AcDbEntity
  8
ZUWAKU
100
AcDbPolyline
 90
        4
 70
     1
 43
0.0
 10
0.8000003046631718
 20
550.8000001203375
 10
0.8000003046631718
 20
0.8000001203374722
 10
796.8000003046632
 20
0.8000001203374722
 10
796.8000003046632
 20
550.8000001203375
  0
TEXT
  5
86C
330
1A
100
AcDbEntity
  8
MOJI
100
AcDbText
 10
92.95778989283235
 20
12.74117825061216
 30
0.0
 40
6.0
  1
新・丸トップＲＶ１０５
 41
0.9
  7
ｽﾀｲﾙ1
100
AcDbText
  0
HATCH
  5
86D
330
1A
100
AcDbEntity
  8
ZUWAKU
100
AcDbHatch
 10
0.0
 20
0.0
 30
0.0
210
0.0
220
0.0
230
1.0
  2
ANSI37
 70
     0
 71
     0
 91
        8
 92
        7
 72
     1
 73
     1
 93
       24
 10
14.50226296578307
 20
17.64484860132098
 42
-0.1989123673796348
 10
14.09221245944434
 20
18.63479809498203
 42
0.0
 10
14.09221245944434
 20
19.92500012033741
 42
-0.4142135623730912
 10
14.61721245944431
 20
20.4500001203374
 42
0.0
 10
17.59221245944422
 20
20.4500001203374
 42
0.4142135623731546
 10
18.11721245944431
 20
20.97500012033739
 42
0.0
 10
18.11721245944431
 20
22.72500012033741
 42
0.4142135623731586
 10
17.59221245944422
 20
23.25000012033741
 42
0.0
 10
14.09221245944434
 20
23.25000012033741
 42
0.4142135623730928
 10
11.29221245944438
 20
20.45000012033743
 42
0.0
 10
11.29221245944438
 20
18.63479809498216
 42
0.1989123673796619
 10
12.52236397846081
 20
15.66494961399856
 42
0.0
 10
15.43216195310549
 20
12.7551516393539
 42
-0.1989123673796613
 10
15.84221245944434
 20
11.76520214569271
 42
0.0
 10
15.84221245944434
 20
10.47500012033739
 42
-0.4142135623730911
 10
15.31721245944436
 20
9.950000120337406
 42
0.0
 10
12.34221245944445
 20
9.950000120337406
 42
0.4142135623731526
 10
11.81721245944436
 20
9.425000120337418
 42
0.0
 10
11.81721245944436
 20
7.675000120337397
 42
0.4142135623731526
 10
12.34221245944445
 20
7.150000120337409
 42
0.0
 10
15.84221245944434
 20
7.150000120337409
 42
0.4142135623731044
 10
18.6422124594444
 20
9.950000120337385
 42
0.0
 10
18.6422124594444
 20
11.76520214569265
 42
0.1989123673796604
 10
17.41206094042786
 20
14.73505062667619
 42
0.0
 97
        0
 92
        7
 72
     1
 73
     1
 93
       16
 10
23.54221245944438
 20
19.05000012033741
 42
-0.4142135623730935
 10
24.94221245944436
 20
20.4500001203374
 42
0.0
 10
26.86721245944431
 20
20.4500001203374
 42
0.4142135623731546
 10
27.3922124594444
 20
20.97500012033739
 42
0.0
 10
27.3922124594444
 20
22.72500012033741
 42
0.4142135623730951
 10
26.86721245944443
 20
23.25000012033741
 42
0.0
 10
24.94221245944425
 20
23.25000012033736
 42
0.4142135623730892
 10
20.74221245944432
 20
19.05000012033734
 42
0.0
 10
20.74221245944432
 20
11.35000012033743
 42
0.4142135623730969
 10
24.94221245944436
 20
7.150000120337409
 42
0.0
 10
26.86721245944431
 20
7.150000120337409
 42
0.4142135623731526
 10
27.3922124594444
 20
7.675000120337397
 42
0.0
 10
27.3922124594444
 20
9.425000120337418
 42
0.4142135623730891
 10
26.86721245944443
 20
9.950000120337406
 42
0.0
 10
24.94221245944436
 20
9.950000120337406
 42
-0.4142135623730928
 10
23.54221245944438
 20
11.35000012033739
 42
0.0
 97
        0
 92
        7
 72
     1
 73
     1
 93
        2
 10
24.24221245944432
 20
15.2000001203374
 42
1.0
 10
27.74221245944431
 20
15.2000001203374
 42
1.0
 97
        0
 92
        7
 72
     1
 73
     1
 93
       26
 10
37.31485894162233
 20
19.20504731390083
 42
0.0
 10
38.37649857476014
 20
22.56690615217042
 42
0.5069206636600134
 10
37.87586767556479
 20
23.25000012033741
 42
0.0
 10
36.17697829595556
 20
23.25000012033741
 42
0.3272098845218764
 10
35.6763473967602
 20
22.88309408850437
 42
0.0
 10
33.80807752212843
 20
16.96690615217048
 42
-0.3272098845219541
 10
33.30744662293295
 20
16.6000001203374
 42
0.0
 10
33.16721245944449
 20
16.6000001203374
 42
-0.4142135623731526
 10
32.6422124594444
 20
17.12500012033739
 42
0.0
 10
32.6422124594444
 20
22.72500012033741
 42
0.4142135623730951
 10
32.11721245944443
 20
23.25000012033741
 42
0.0
 10
30.36721245944431
 20
23.25000012033741
 42
0.4142135623730871
 10
29.84221245944434
 20
22.72500012033742
 42
0.0
 10
29.84221245944434
 20
7.675000120337397
 42
0.4142135623730891
 10
30.36721245944431
 20
7.150000120337409
 42
0.0
 10
32.11721245944431
 20
7.150000120337409
 42
0.4142135623731526
 10
32.6422124594444
 20
7.675000120337397
 42
0.0
 10
32.6422124594444
 20
13.27500012033742
 42
-0.4142135623731526
 10
33.16721245944449
 20
13.80000012033741
 42
0.0
 10
33.30744662293307
 20
13.80000012033741
 42
-0.3272098845218915
 10
33.80807752212843
 20
13.43309408850433
 42
0.0
 10
35.6763473967602
 20
7.516906152170481
 42
0.3272098845218902
 10
36.17697829595556
 20
7.150000120337409
 42
0.0
 10
37.87586767556479
 20
7.150000120337409
 42
0.5069206636600335
 10
38.37649857476014
 20
7.833094088504417
 42
0.0
 10
36.05010719628649
 20
15.20000012033754
 42
0.0
 97
        0
 92
        7
 72
     1
 73
     1
 93
        8
 10
43.49221245944431
 20
22.72500012033741
 42
0.4142135623731546
 10
42.96721245944422
 20
23.25000012033741
 42
0.0
 10
41.21721245944445
 20
23.25000012033741
 42
0.4142135623731507
 10
40.69221245944436
 20
22.72500012033742
 42
0.0
 10
40.69221245944436
 20
7.675000120337397
 42
0.4142135623731526
 10
41.21721245944445
 20
7.150000120337409
 42
0.0
 10
42.96721245944422
 20
7.150000120337409
 42
0.4142135623731526
 10
43.49221245944431
 20
7.675000120337397
 42
0.0
 97
        0
 92
        7
 72
     1
 73
     1
 93
       24
 10
48.39221245944441
 20
19.92500012033741
 42
-0.4142135623731546
 10
48.9172124594445
 20
20.4500001203374
 42
0.0
 10
51.89221245944441
 20
20.4500001203374
 42
0.4142135623730911
 10
52.41721245944439
 20
20.97500012033739
 42
0.0
 10
52.41721245944439
 20
22.72500012033741
 42
0.4142135623730952
 10
51.89221245944441
 20
23.25000012033741
 42
0.0
 10
48.39221245944441
 20
23.25000012033741
 42
0.4142135623731048
 10
45.59221245944434
 20
20.45000012033743
 42
0.0
 10
45.59221245944434
 20
18.63479809498216
 42
0.1989123673796613
 10
46.82236397846089
 20
15.66494961399861
 42
0.0
 10
49.73216195310556
 20
12.75515163935394
 42
-0.1989123673796402
 10
50.1422124594444
 20
11.76520214569287
 42
0.0
 10
50.1422124594444
 20
10.47500012033739
 42
-0.4142135623730911
 10
49.61721245944443
 20
9.950000120337406
 42
0.0
 10
46.64221245944441
 20
9.950000120337406
 42
0.4142135623731526
 10
46.11721245944432
 20
9.425000120337418
 42
0.0
 10
46.11721245944432
 20
7.675000120337397
 42
0.4142135623730891
 10
46.64221245944429
 20
7.150000120337409
 42
0.0
 10
50.1422124594444
 20
7.150000120337409
 42
0.4142135623730925
 10
52.94221245944436
 20
9.950000120337385
 42
0.0
 10
52.94221245944436
 20
11.76520214569265
 42
0.1989123673796675
 10
51.71206094042782
 20
14.73505062667631
 42
0.0
 10
48.80226296578325
 20
17.64484860132082
 42
-0.1989123673796652
 10
48.39221245944441
 20
18.63479809498199
 42
0.0
 97
        0
 92
        7
 72
     1
 73
     1
 93
       16
 10
57.84221245944434
 20
22.72500012033739
 42
0.414213562373103
 10
57.31721245944436
 20
23.25000012033741
 42
0.0
 10
55.56721245944436
 20
23.25000012033741
 42
0.4142135623730871
 10
55.04221245944439
 20
22.72500012033742
 42
0.0
 10
55.04221245944439
 20
9.950000120337385
 42
0.4142135623730926
 10
57.84221245944434
 20
7.150000120337409
 42
0.0
 10
61.34221245944434
 20
7.150000120337409
 42
0.4142135623731044
 10
64.14221245944441
 20
9.950000120337385
 42
0.0
 10
64.14221245944441
 20
22.72500012033741
 42
0.4142135623730951
 10
63.61721245944443
 20
23.25000012033741
 42
0.0
 10
61.86721245944432
 20
23.25000012033741
 42
0.4142135623730871
 10
61.34221245944434
 20
22.72500012033742
 42
0.0
 10
61.34221245944434
 20
11.00000012033738
 42
-0.414213562373088
 10
60.29221245944438
 20
9.950000120337406
 42
0.0
 10
58.8922124594444
 20
9.950000120337406
 42
-0.4142135623731197
 10
57.84221245944434
 20
11.00000012033738
 42
0.0
 97
        0
 92
        7
 72
     1
 73
     1
 93
        8
 10
69.04221245944438
 20
22.72500012033742
 42
0.4142135623730871
 10
68.51721245944441
 20
23.25000012033741
 42
0.0
 10
66.76721245944441
 20
23.25000012033741
 42
0.4142135623731507
 10
66.24221245944432
 20
22.72500012033742
 42
0.0
 10
66.24221245944432
 20
7.675000120337397
 42
0.4142135623730891
 10
66.76721245944429
 20
7.150000120337409
 42
0.0
 10
68.51721245944441
 20
7.150000120337409
 42
0.4142135623730891
 10
69.04221245944438
 20
7.675000120337397
 42
0.0
 97
        0
 75
     0
 76
     1
 52
0.0
 41
0.2
 77
     0
 78
     2
 53
45.0
 43
-900.9423040300157
 44
-13.19999987966252
 45
-0.4490128060534576
 46
0.4490128060534577
 79
     0
 53
135.0
 43
-900.9423040300157
 44
-13.19999987966252
 45
-0.4490128060534577
 46
-0.4490128060534576
 79
     0
 47
0.057451373970553
 98
        8
 10
16.07985526768652
 20
15.16717376622295
 10
22.40451531110238
 20
18.84406230278841
 10
25.16436819032287
 20
15.51188176640812
 10
30.91406028630035
 20
16.2012977667789
 10
41.83847232361995
 20
16.66091003432052
 10
46.89820119979276
 20
19.41857643674461
 10
56.55768627706357
 20
18.72915803543241
 10
67.82707992428595
 20
19.18877030297403
  0
LINE
  5
86E
330
1A
100
AcDbEntity
  8
ZUWAKU
100
AcDbLine
 10
24.94221245944436
 20
23.25000012033736
 30
0.0
 11
26.86721245944431
 21
23.25000012033741
 31
0.0
  0
LINE
  5
86F
330
1A
100
AcDbEntity
  8
ZUWAKU
100
AcDbLine
 10
26.86721245944431
 20
20.4500001203374
 30
0.0
 11
24.94221245944436
 21
20.4500001203374
 31
0.0
  0
LINE
  5
870
330
1A
100
AcDbEntity
  8
ZUWAKU
100
AcDbLine
 10
24.94221245944436
 20
9.950000120337406
 30
0.0
 11
26.86721245944431
 21
9.950000120337406
 31
0.0
  0
LINE
  5
871
330
1A
100
AcDbEntity
  8
ZUWAKU
100
AcDbLine
 10
26.86721245944431
 20
7.150000120337409
 30
0.0
 11
24.94221245944436
 21
7.150000120337409
 31
0.0
  0
CIRCLE
  5
872
330
1A
100
AcDbEntity
  8
ZUWAKU
100
AcDbCircle
 10
25.99221245944431
 20
15.2000001203374
 30
0.0
 40
1.75
  0
ARC
  5
873
330
1A
100
AcDbEntity
  8
ZUWAKU
100
AcDbCircle
 10
15.49221245944431
 20
18.6347980949821
 30
0.0
 40
1.399999999999999
100
AcDbArc
 50
180.0000000000016
 51
224.9999999999988
  0
LINE
  5
874
330
1A
100
AcDbEntity
  8
ZUWAKU
100
AcDbLine
 10
23.54221245944438
 20
19.0500001203374
 30
0.0
 11
23.54221245944438
 21
11.35000012033741
 31
0.0
  0
LINE
  5
875
330
1A
100
AcDbEntity
  8
ZUWAKU
100
AcDbLine
 10
20.74221245944432
 20
11.35000012033741
 30
0.0
 11
20.74221245944432
 21
19.05000012033736
 31
0.0
  0
ARC
  5
876
330
1A
100
AcDbEntity
  8
ZUWAKU
100
AcDbCircle
 10
15.49221245944431
 20
18.6347980949821
 30
0.0
 40
4.199999999999999
100
AcDbArc
 50
180.0
 51
225.0
  0
ARC
  5
877
330
1A
100
AcDbEntity
  8
ZUWAKU
100
AcDbCircle
 10
15.84221245944434
 20
9.950000120337406
 30
0.0
 40
2.799999999999999
100
AcDbArc
 50
270.0
 51
0.0
  0
ARC
  5
878
330
1A
100
AcDbEntity
  8
ZUWAKU
100
AcDbCircle
 10
24.94221245944436
 20
11.35000012033741
 30
0.0
 40
4.199999999999999
100
AcDbArc
 50
180.0
 51
270.0
  0
ARC
  5
879
330
1A
100
AcDbEntity
  8
ZUWAKU
100
AcDbCircle
 10
14.44221245944436
 20
11.76520214569271
 30
0.0
 40
4.199999999999999
100
AcDbArc
 50
0.0
 51
45.0
  0
LINE
  5
87A
330
1A
100
AcDbEntity
  8
ZUWAKU
100
AcDbLine
 10
17.41206094042786
 20
14.73505062667623
 30
0.0
 11
14.50226296578319
 21
17.64484860132091
 31
0.0
  0
LINE
  5
87B
330
1A
100
AcDbEntity
  8
ZUWAKU
100
AcDbLine
 10
15.84221245944434
 20
10.47500012033741
 30
0.0
 11
15.84221245944434
 21
11.76520214569275
 31
0.0
  0
ARC
  5
87C
330
1A
100
AcDbEntity
  8
ZUWAKU
100
AcDbCircle
 10
15.31721245944436
 20
10.47500012033741
 30
0.0
 40
0.525
100
AcDbArc
 50
270.0
 51
0.0
  0
ARC
  5
87D
330
1A
100
AcDbEntity
  8
ZUWAKU
100
AcDbCircle
 10
14.44221245944436
 20
11.76520214569275
 30
0.0
 40
1.399999999999999
100
AcDbArc
 50
0.0
 51
45.0
  0
LINE
  5
87E
330
1A
100
AcDbEntity
  8
ZUWAKU
100
AcDbLine
 10
11.81721245944436
 20
7.675000120337408
 30
0.0
 11
11.81721245944436
 21
9.425000120337408
 31
0.0
  0
ARC
  5
87F
330
1A
100
AcDbEntity
  8
ZUWAKU
100
AcDbCircle
 10
12.34221245944434
 20
7.675000120337408
 30
0.0
 40
0.525
100
AcDbArc
 50
180.0
 51
270.0
  0
ARC
  5
880
330
1A
100
AcDbEntity
  8
ZUWAKU
100
AcDbCircle
 10
12.34221245944434
 20
9.425000120337408
 30
0.0
 40
0.525
100
AcDbArc
 50
90.0
 51
180.0
  0
LINE
  5
881
330
1A
100
AcDbEntity
  8
ZUWAKU
100
AcDbLine
 10
12.34221245944434
 20
7.150000120337409
 30
0.0
 11
15.84221245944434
 21
7.150000120337409
 31
0.0
  0
LINE
  5
882
330
1A
100
AcDbEntity
  8
ZUWAKU
100
AcDbLine
 10
12.34221245944434
 20
9.950000120337406
 30
0.0
 11
15.31721245944436
 21
9.950000120337406
 31
0.0
  0
LINE
  5
883
330
1A
100
AcDbEntity
  8
ZUWAKU
100
AcDbLine
 10
12.52236397846081
 20
15.66494961399858
 30
0.0
 11
15.43216195310549
 21
12.75515163935392
 31
0.0
  0
LINE
  5
884
330
1A
100
AcDbEntity
  8
ZUWAKU
100
AcDbLine
 10
18.6422124594444
 20
9.950000120337406
 30
0.0
 11
18.6422124594444
 21
11.76520214569275
 31
0.0
  0
ARC
  5
885
330
1A
100
AcDbEntity
  8
ZUWAKU
100
AcDbCircle
 10
24.94221245944436
 20
11.35000012033741
 30
0.0
 40
1.399999999999999
100
AcDbArc
 50
180.0
 51
270.0
  0
ARC
  5
886
330
1A
100
AcDbEntity
  8
ZUWAKU
100
AcDbCircle
 10
17.59221245944434
 20
22.7250001203374
 30
0.0
 40
0.525
100
AcDbArc
 50
0.0
 51
90.0
  0
ARC
  5
887
330
1A
100
AcDbEntity
  8
ZUWAKU
100
AcDbCircle
 10
17.59221245944434
 20
20.9750001203374
 30
0.0
 40
0.525
100
AcDbArc
 50
270.0
 51
0.0
  0
LINE
  5
888
330
1A
100
AcDbEntity
  8
ZUWAKU
100
AcDbLine
 10
14.09221245944434
 20
23.25000012033741
 30
0.0
 11
17.59221245944434
 21
23.25000012033741
 31
0.0
  0
ARC
  5
889
330
1A
100
AcDbEntity
  8
ZUWAKU
100
AcDbCircle
 10
14.61721245944431
 20
19.9250001203374
 30
0.0
 40
0.525
100
AcDbArc
 50
90.0
 51
180.0
  0
LINE
  5
88A
330
1A
100
AcDbEntity
  8
ZUWAKU
100
AcDbLine
 10
14.09221245944434
 20
19.9250001203374
 30
0.0
 11
14.09221245944434
 21
18.63479809498206
 31
0.0
  0
LINE
  5
88B
330
1A
100
AcDbEntity
  8
ZUWAKU
100
AcDbLine
 10
17.59221245944434
 20
20.4500001203374
 30
0.0
 11
14.61721245944431
 21
20.4500001203374
 31
0.0
  0
LINE
  5
88C
330
1A
100
AcDbEntity
  8
ZUWAKU
100
AcDbLine
 10
11.29221245944438
 20
20.4500001203374
 30
0.0
 11
11.29221245944438
 21
18.63479809498206
 31
0.0
  0
ARC
  5
88D
330
1A
100
AcDbEntity
  8
ZUWAKU
100
AcDbCircle
 10
14.09221245944434
 20
20.4500001203374
 30
0.0
 40
2.799999999999999
100
AcDbArc
 50
90.0
 51
180.0
  0
LINE
  5
88E
330
1A
100
AcDbEntity
  8
ZUWAKU
100
AcDbLine
 10
18.11721245944431
 20
22.7250001203374
 30
0.0
 11
18.11721245944431
 21
20.9750001203374
 31
0.0
  0
ARC
  5
88F
330
1A
100
AcDbEntity
  8
ZUWAKU
100
AcDbCircle
 10
24.94221245944436
 20
19.0500001203374
 30
0.0
 40
1.399999999999999
100
AcDbArc
 50
90.0
 51
180.0
  0
ARC
  5
890
330
1A
100
AcDbEntity
  8
ZUWAKU
100
AcDbCircle
 10
24.94221245944436
 20
19.05000012033736
 30
0.0
 40
4.199999999999999
100
AcDbArc
 50
90.0
 51
180.0
  0
LINE
  5
891
330
1A
100
AcDbEntity
  8
ZUWAKU
100
AcDbLine
 10
79.32662985265142
 20
30.0000001203374
 30
0.0
 11
79.32662985265165
 21
0.8000001203374722
 31
0.0
  0
LINE
  5
892
330
1A
100
AcDbEntity
  8
ZUWAKU
100
AcDbLine
 10
79.52662985265146
 20
30.0000001203374
 30
0.0
 11
79.5266298526517
 21
0.8000001203374722
 31
0.0
  0
LINE
  5
893
330
1A
100
AcDbEntity
  8
ZUWAKU
100
AcDbLine
 10
79.12662985265161
 20
30.0000001203374
 30
0.0
 11
79.12662985265161
 21
0.8000001203374722
 31
0.0
  0
LINE
  5
894
330
1A
100
AcDbEntity
  8
ZUWAKU
100
AcDbLine
 10
64.14221245944441
 20
9.950000120337406
 30
0.0
 11
64.14221245944441
 21
22.7250001203374
 31
0.0
  0
LINE
  5
895
330
1A
100
AcDbEntity
  8
ZUWAKU
100
AcDbLine
 10
61.34221245944434
 20
22.7250001203374
 30
0.0
 11
61.34221245944434
 21
11.0000001203374
 31
0.0
  0
LINE
  5
896
330
1A
100
AcDbEntity
  8
ZUWAKU
100
AcDbLine
 10
69.04221245944438
 20
7.675000120337408
 30
0.0
 11
69.04221245944438
 21
22.7250001203374
 31
0.0
  0
LINE
  5
897
330
1A
100
AcDbEntity
  8
ZUWAKU
100
AcDbLine
 10
66.24221245944432
 20
22.7250001203374
 30
0.0
 11
66.24221245944432
 21
7.675000120337408
 31
0.0
  0
ARC
  5
898
330
1A
100
AcDbEntity
  8
ZUWAKU
100
AcDbCircle
 10
49.79221245944438
 20
18.6347980949821
 30
0.0
 40
1.399999999999999
100
AcDbArc
 50
180.0000000000016
 51
224.9999999999988
  0
ARC
  5
899
330
1A
100
AcDbEntity
  8
ZUWAKU
100
AcDbCircle
 10
49.79221245944438
 20
18.6347980949821
 30
0.0
 40
4.199999999999999
100
AcDbArc
 50
180.0
 51
225.0
  0
LINE
  5
89A
330
1A
100
AcDbEntity
  8
ZUWAKU
100
AcDbLine
 10
37.31485894162233
 20
19.20504731390083
 30
0.0
 11
36.05010719628649
 21
15.20000012033742
 31
0.0
  0
LINE
  5
89B
330
1A
100
AcDbEntity
  8
ZUWAKU
100
AcDbLine
 10
40.69221245944436
 20
22.7250001203374
 30
0.0
 11
40.69221245944436
 21
7.675000120337408
 31
0.0
  0
LINE
  5
89C
330
1A
100
AcDbEntity
  8
ZUWAKU
100
AcDbLine
 10
43.49221245944431
 20
7.675000120337408
 30
0.0
 11
43.49221245944431
 21
22.7250001203374
 31
0.0
  0
LINE
  5
89D
330
1A
100
AcDbEntity
  8
ZUWAKU
100
AcDbLine
 10
55.04221245944439
 20
22.7250001203374
 30
0.0
 11
55.04221245944439
 21
9.950000120337406
 31
0.0
  0
LINE
  5
89E
330
1A
100
AcDbEntity
  8
ZUWAKU
100
AcDbLine
 10
57.84221245944434
 20
11.0000001203374
 30
0.0
 11
57.84221245944434
 21
22.7250001203374
 31
0.0
  0
LINE
  5
89F
330
1A
100
AcDbEntity
  8
ZUWAKU
100
AcDbLine
 10
32.6422124594444
 20
17.12500012033741
 30
0.0
 11
32.6422124594444
 21
22.7250001203374
 31
0.0
  0
LINE
  5
8A0
330
1A
100
AcDbEntity
  8
ZUWAKU
100
AcDbLine
 10
29.84221245944434
 20
22.7250001203374
 30
0.0
 11
29.84221245944434
 21
7.675000120337408
 31
0.0
  0
LINE
  5
8A1
330
1A
100
AcDbEntity
  8
ZUWAKU
100
AcDbLine
 10
35.6763473967602
 20
22.88309408850437
 30
0.0
 11
33.80807752212843
 21
16.96690615217043
 31
0.0
  0
LINE
  5
8A2
330
1A
100
AcDbEntity
  8
ZUWAKU
100
AcDbLine
 10
60.29221245944438
 20
9.950000120337406
 30
0.0
 11
58.8922124594444
 21
9.950000120337406
 31
0.0
  0
LINE
  5
8A3
330
1A
100
AcDbEntity
  8
ZUWAKU
100
AcDbLine
 10
57.84221245944434
 20
7.150000120337409
 30
0.0
 11
61.34221245944434
 21
7.150000120337409
 31
0.0
  0
LINE
  5
8A4
330
1A
100
AcDbEntity
  8
ZUWAKU
100
AcDbLine
 10
41.21721245944434
 20
7.150000120337409
 30
0.0
 11
42.96721245944434
 21
7.150000120337409
 31
0.0
  0
LINE
  5
8A5
330
1A
100
AcDbEntity
  8
ZUWAKU
100
AcDbLine
 10
35.6763473967602
 20
7.516906152170435
 30
0.0
 11
33.80807752212843
 21
13.43309408850437
 31
0.0
  0
ARC
  5
8A6
330
1A
100
AcDbEntity
  8
ZUWAKU
100
AcDbCircle
 10
33.30744662293307
 20
17.12500012033741
 30
0.0
 40
0.525
100
AcDbArc
 50
270.0
 51
342.4744316262769
  0
LINE
  5
8A7
330
1A
100
AcDbEntity
  8
ZUWAKU
100
AcDbLine
 10
33.30744662293307
 20
16.6000001203374
 30
0.0
 11
33.16721245944438
 21
16.6000001203374
 31
0.0
  0
LINE
  5
8A8
330
1A
100
AcDbEntity
  8
ZUWAKU
100
AcDbLine
 10
33.16721245944438
 20
13.80000012033741
 30
0.0
 11
33.30744662293307
 21
13.80000012033741
 31
0.0
  0
ARC
  5
8A9
330
1A
100
AcDbEntity
  8
ZUWAKU
100
AcDbCircle
 10
33.16721245944438
 20
17.12500012033741
 30
0.0
 40
0.525
100
AcDbArc
 50
180.0
 51
270.0
  0
LINE
  5
8AA
330
1A
100
AcDbEntity
  8
ZUWAKU
100
AcDbLine
 10
30.36721245944431
 20
7.150000120337409
 30
0.0
 11
32.11721245944431
 21
7.150000120337409
 31
0.0
  0
ARC
  5
8AB
330
1A
100
AcDbEntity
  8
ZUWAKU
100
AcDbCircle
 10
32.11721245944431
 20
7.675000120337408
 30
0.0
 40
0.525
100
AcDbArc
 50
270.0
 51
0.0
  0
LINE
  5
8AC
330
1A
100
AcDbEntity
  8
ZUWAKU
100
AcDbLine
 10
32.6422124594444
 20
7.675000120337408
 30
0.0
 11
32.6422124594444
 21
13.27500012033741
 31
0.0
  0
LINE
  5
8AD
330
1A
100
AcDbEntity
  8
ZUWAKU
100
AcDbLine
 10
27.3922124594444
 20
9.425000120337408
 30
0.0
 11
27.3922124594444
 21
7.675000120337408
 31
0.0
  0
ARC
  5
8AE
330
1A
100
AcDbEntity
  8
ZUWAKU
100
AcDbCircle
 10
26.86721245944431
 20
7.675000120337408
 30
0.0
 40
0.525
100
AcDbArc
 50
270.0
 51
0.0
  0
ARC
  5
8AF
330
1A
100
AcDbEntity
  8
ZUWAKU
100
AcDbCircle
 10
26.86721245944431
 20
9.425000120337408
 30
0.0
 40
0.525
100
AcDbArc
 50
0.0
 51
90.0
  0
ARC
  5
8B0
330
1A
100
AcDbEntity
  8
ZUWAKU
100
AcDbCircle
 10
30.36721245944431
 20
7.675000120337408
 30
0.0
 40
0.525
100
AcDbArc
 50
180.0
 51
270.0
  0
ARC
  5
8B1
330
1A
100
AcDbEntity
  8
ZUWAKU
100
AcDbCircle
 10
33.30744662293307
 20
13.27500012033741
 30
0.0
 40
0.525
100
AcDbArc
 50
17.52556837372303
 51
90.0
  0
ARC
  5
8B2
330
1A
100
AcDbEntity
  8
ZUWAKU
100
AcDbCircle
 10
33.16721245944438
 20
13.27500012033741
 30
0.0
 40
0.525
100
AcDbArc
 50
90.0
 51
180.0
  0
ARC
  5
8B3
330
1A
100
AcDbEntity
  8
ZUWAKU
100
AcDbCircle
 10
41.21721245944434
 20
7.675000120337408
 30
0.0
 40
0.525
100
AcDbArc
 50
180.0
 51
270.0
  0
LINE
  5
8B4
330
1A
100
AcDbEntity
  8
ZUWAKU
100
AcDbLine
 10
36.17697829595567
 20
7.150000120337409
 30
0.0
 11
37.87586767556467
 21
7.150000120337409
 31
0.0
  0
ARC
  5
8B5
330
1A
100
AcDbEntity
  8
ZUWAKU
100
AcDbCircle
 10
37.87586767556467
 20
7.675000120337408
 30
0.0
 40
0.525
100
AcDbArc
 50
270.0
 51
17.52556837372303
  0
LINE
  5
8B6
330
1A
100
AcDbEntity
  8
ZUWAKU
100
AcDbLine
 10
38.37649857476014
 20
7.833094088504381
 30
0.0
 11
36.05010719628649
 21
15.20000012033742
 31
0.0
  0
ARC
  5
8B7
330
1A
100
AcDbEntity
  8
ZUWAKU
100
AcDbCircle
 10
36.17697829595567
 20
7.675000120337408
 30
0.0
 40
0.525
100
AcDbArc
 50
197.525568373723
 51
270.0
  0
ARC
  5
8B8
330
1A
100
AcDbEntity
  8
ZUWAKU
100
AcDbCircle
 10
57.84221245944434
 20
9.950000120337406
 30
0.0
 40
2.799999999999999
100
AcDbArc
 50
180.0
 51
270.0
  0
ARC
  5
8B9
330
1A
100
AcDbEntity
  8
ZUWAKU
100
AcDbCircle
 10
50.1422124594444
 20
9.950000120337406
 30
0.0
 40
2.799999999999999
100
AcDbArc
 50
270.0
 51
0.0
  0
LINE
  5
8BA
330
1A
100
AcDbEntity
  8
ZUWAKU
100
AcDbLine
 10
51.71206094042793
 20
14.73505062667623
 30
0.0
 11
48.80226296578314
 21
17.64484860132091
 31
0.0
  0
LINE
  5
8BB
330
1A
100
AcDbEntity
  8
ZUWAKU
100
AcDbLine
 10
50.1422124594444
 20
10.47500012033741
 30
0.0
 11
50.1422124594444
 21
11.76520214569275
 31
0.0
  0
ARC
  5
8BC
330
1A
100
AcDbEntity
  8
ZUWAKU
100
AcDbCircle
 10
48.74221245944432
 20
11.76520214569275
 30
0.0
 40
1.399999999999999
100
AcDbArc
 50
0.0
 51
45.0
  0
ARC
  5
8BD
330
1A
100
AcDbEntity
  8
ZUWAKU
100
AcDbCircle
 10
49.61721245944431
 20
10.47500012033741
 30
0.0
 40
0.525
100
AcDbArc
 50
270.0
 51
0.0
  0
LINE
  5
8BE
330
1A
100
AcDbEntity
  8
ZUWAKU
100
AcDbLine
 10
46.11721245944432
 20
7.675000120337408
 30
0.0
 11
46.11721245944432
 21
9.425000120337408
 31
0.0
  0
ARC
  5
8BF
330
1A
100
AcDbEntity
  8
ZUWAKU
100
AcDbCircle
 10
46.64221245944441
 20
7.675000120337408
 30
0.0
 40
0.525
100
AcDbArc
 50
180.0
 51
270.0
  0
ARC
  5
8C0
330
1A
100
AcDbEntity
  8
ZUWAKU
100
AcDbCircle
 10
42.96721245944434
 20
7.675000120337408
 30
0.0
 40
0.525
100
AcDbArc
 50
270.0
 51
0.0
  0
ARC
  5
8C1
330
1A
100
AcDbEntity
  8
ZUWAKU
100
AcDbCircle
 10
46.64221245944441
 20
9.425000120337408
 30
0.0
 40
0.525
100
AcDbArc
 50
90.0
 51
180.0
  0
LINE
  5
8C2
330
1A
100
AcDbEntity
  8
ZUWAKU
100
AcDbLine
 10
46.64221245944441
 20
9.950000120337406
 30
0.0
 11
49.61721245944431
 21
9.950000120337406
 31
0.0
  0
LINE
  5
8C3
330
1A
100
AcDbEntity
  8
ZUWAKU
100
AcDbLine
 10
46.64221245944441
 20
7.150000120337409
 30
0.0
 11
50.1422124594444
 21
7.150000120337409
 31
0.0
  0
LINE
  5
8C4
330
1A
100
AcDbEntity
  8
ZUWAKU
100
AcDbLine
 10
46.82236397846089
 20
15.66494961399858
 30
0.0
 11
49.73216195310556
 21
12.75515163935392
 31
0.0
  0
LINE
  5
8C5
330
1A
100
AcDbEntity
  8
ZUWAKU
100
AcDbLine
 10
52.94221245944436
 20
9.950000120337406
 30
0.0
 11
52.94221245944436
 21
11.76520214569275
 31
0.0
  0
ARC
  5
8C6
330
1A
100
AcDbEntity
  8
ZUWAKU
100
AcDbCircle
 10
48.74221245944432
 20
11.76520214569271
 30
0.0
 40
4.199999999999999
100
AcDbArc
 50
0.0
 51
45.0
  0
ARC
  5
8C7
330
1A
100
AcDbEntity
  8
ZUWAKU
100
AcDbCircle
 10
58.8922124594444
 20
11.0000001203374
 30
0.0
 40
1.049999999999999
100
AcDbArc
 50
180.0
 51
270.0
  0
ARC
  5
8C8
330
1A
100
AcDbEntity
  8
ZUWAKU
100
AcDbCircle
 10
61.34221245944434
 20
9.950000120337406
 30
0.0
 40
2.799999999999999
100
AcDbArc
 50
270.0
 51
0.0
  0
LINE
  5
8C9
330
1A
100
AcDbEntity
  8
ZUWAKU
100
AcDbLine
 10
66.76721245944441
 20
7.150000120337409
 30
0.0
 11
68.51721245944441
 21
7.150000120337409
 31
0.0
  0
ARC
  5
8CA
330
1A
100
AcDbEntity
  8
ZUWAKU
100
AcDbCircle
 10
66.76721245944441
 20
7.675000120337408
 30
0.0
 40
0.525
100
AcDbArc
 50
180.0
 51
270.0
  0
ARC
  5
8CB
330
1A
100
AcDbEntity
  8
ZUWAKU
100
AcDbCircle
 10
60.29221245944438
 20
11.0000001203374
 30
0.0
 40
1.049999999999999
100
AcDbArc
 50
270.0
 51
0.0
  0
ARC
  5
8CC
330
1A
100
AcDbEntity
  8
ZUWAKU
100
AcDbCircle
 10
68.51721245944441
 20
7.675000120337408
 30
0.0
 40
0.525
100
AcDbArc
 50
270.0
 51
0.0
  0
LINE
  5
8CD
330
1A
100
AcDbEntity
  8
ZUWAKU
100
AcDbLine
 10
42.96721245944434
 20
23.25000012033741
 30
0.0
 11
41.21721245944434
 21
23.25000012033741
 31
0.0
  0
ARC
  5
8CE
330
1A
100
AcDbEntity
  8
ZUWAKU
100
AcDbCircle
 10
32.11721245944431
 20
22.7250001203374
 30
0.0
 40
0.525
100
AcDbArc
 50
0.0
 51
90.0
  0
LINE
  5
8CF
330
1A
100
AcDbEntity
  8
ZUWAKU
100
AcDbLine
 10
32.11721245944431
 20
23.25000012033741
 30
0.0
 11
30.36721245944431
 21
23.25000012033741
 31
0.0
  0
ARC
  5
8D0
330
1A
100
AcDbEntity
  8
ZUWAKU
100
AcDbCircle
 10
26.86721245944431
 20
22.7250001203374
 30
0.0
 40
0.525
100
AcDbArc
 50
0.0
 51
90.0
  0
ARC
  5
8D1
330
1A
100
AcDbEntity
  8
ZUWAKU
100
AcDbCircle
 10
30.36721245944431
 20
22.7250001203374
 30
0.0
 40
0.525
100
AcDbArc
 50
90.0
 51
180.0
  0
ARC
  5
8D2
330
1A
100
AcDbEntity
  8
ZUWAKU
100
AcDbCircle
 10
26.86721245944431
 20
20.9750001203374
 30
0.0
 40
0.525
100
AcDbArc
 50
270.0
 51
0.0
  0
LINE
  5
8D3
330
1A
100
AcDbEntity
  8
ZUWAKU
100
AcDbLine
 10
27.3922124594444
 20
22.7250001203374
 30
0.0
 11
27.3922124594444
 21
20.9750001203374
 31
0.0
  0
ARC
  5
8D4
330
1A
100
AcDbEntity
  8
ZUWAKU
100
AcDbCircle
 10
41.21721245944434
 20
22.7250001203374
 30
0.0
 40
0.525
100
AcDbArc
 50
90.0
 51
180.0
  0
LINE
  5
8D5
330
1A
100
AcDbEntity
  8
ZUWAKU
100
AcDbLine
 10
36.17697829595567
 20
23.25000012033741
 30
0.0
 11
37.87586767556467
 21
23.25000012033741
 31
0.0
  0
ARC
  5
8D6
330
1A
100
AcDbEntity
  8
ZUWAKU
100
AcDbCircle
 10
37.87586767556467
 20
22.7250001203374
 30
0.0
 40
0.525
100
AcDbArc
 50
342.4744316262769
 51
90.0
  0
LINE
  5
8D7
330
1A
100
AcDbEntity
  8
ZUWAKU
100
AcDbLine
 10
38.37649857476014
 20
22.56690615217043
 30
0.0
 11
37.31485894162233
 21
19.20504731390083
 31
0.0
  0
ARC
  5
8D8
330
1A
100
AcDbEntity
  8
ZUWAKU
100
AcDbCircle
 10
36.17697829595567
 20
22.7250001203374
 30
0.0
 40
0.525
100
AcDbArc
 50
90.0
 51
162.4744316262769
  0
LINE
  5
8D9
330
1A
100
AcDbEntity
  8
ZUWAKU
100
AcDbLine
 10
48.39221245944441
 20
23.25000012033741
 30
0.0
 11
51.89221245944441
 21
23.25000012033741
 31
0.0
  0
LINE
  5
8DA
330
1A
100
AcDbEntity
  8
ZUWAKU
100
AcDbLine
 10
51.89221245944441
 20
20.4500001203374
 30
0.0
 11
48.91721245944438
 21
20.4500001203374
 31
0.0
  0
ARC
  5
8DB
330
1A
100
AcDbEntity
  8
ZUWAKU
100
AcDbCircle
 10
48.91721245944438
 20
19.9250001203374
 30
0.0
 40
0.525
100
AcDbArc
 50
90.0
 51
180.0
  0
LINE
  5
8DC
330
1A
100
AcDbEntity
  8
ZUWAKU
100
AcDbLine
 10
48.39221245944441
 20
19.9250001203374
 30
0.0
 11
48.39221245944441
 21
18.63479809498206
 31
0.0
  0
ARC
  5
8DD
330
1A
100
AcDbEntity
  8
ZUWAKU
100
AcDbCircle
 10
42.96721245944434
 20
22.7250001203374
 30
0.0
 40
0.525
100
AcDbArc
 50
0.0
 51
90.0
  0
LINE
  5
8DE
330
1A
100
AcDbEntity
  8
ZUWAKU
100
AcDbLine
 10
45.59221245944434
 20
20.4500001203374
 30
0.0
 11
45.59221245944434
 21
18.63479809498206
 31
0.0
  0
ARC
  5
8DF
330
1A
100
AcDbEntity
  8
ZUWAKU
100
AcDbCircle
 10
48.39221245944441
 20
20.4500001203374
 30
0.0
 40
2.799999999999999
100
AcDbArc
 50
90.0
 51
180.0
  0
ARC
  5
8E0
330
1A
100
AcDbEntity
  8
ZUWAKU
100
AcDbCircle
 10
57.31721245944436
 20
22.7250001203374
 30
0.0
 40
0.525
100
AcDbArc
 50
0.0
 51
90.0
  0
ARC
  5
8E1
330
1A
100
AcDbEntity
  8
ZUWAKU
100
AcDbCircle
 10
55.56721245944436
 20
22.7250001203374
 30
0.0
 40
0.525
100
AcDbArc
 50
90.0
 51
180.0
  0
LINE
  5
8E2
330
1A
100
AcDbEntity
  8
ZUWAKU
100
AcDbLine
 10
57.31721245944436
 20
23.25000012033741
 30
0.0
 11
55.56721245944436
 21
23.25000012033741
 31
0.0
  0
ARC
  5
8E3
330
1A
100
AcDbEntity
  8
ZUWAKU
100
AcDbCircle
 10
51.89221245944441
 20
22.7250001203374
 30
0.0
 40
0.525
100
AcDbArc
 50
0.0
 51
90.0
  0
ARC
  5
8E4
330
1A
100
AcDbEntity
  8
ZUWAKU
100
AcDbCircle
 10
51.89221245944441
 20
20.9750001203374
 30
0.0
 40
0.525
100
AcDbArc
 50
270.0
 51
0.0
  0
LINE
  5
8E5
330
1A
100
AcDbEntity
  8
ZUWAKU
100
AcDbLine
 10
52.41721245944439
 20
22.7250001203374
 30
0.0
 11
52.41721245944439
 21
20.9750001203374
 31
0.0
  0
LINE
  5
8E6
330
1A
100
AcDbEntity
  8
ZUWAKU
100
AcDbLine
 10
68.51721245944441
 20
23.25000012033741
 30
0.0
 11
66.76721245944441
 21
23.25000012033741
 31
0.0
  0
ARC
  5
8E7
330
1A
100
AcDbEntity
  8
ZUWAKU
100
AcDbCircle
 10
66.76721245944441
 20
22.7250001203374
 30
0.0
 40
0.525
100
AcDbArc
 50
90.0
 51
180.0
  0
ARC
  5
8E8
330
1A
100
AcDbEntity
  8
ZUWAKU
100
AcDbCircle
 10
63.61721245944432
 20
22.7250001203374
 30
0.0
 40
0.525
100
AcDbArc
 50
0.0
 51
90.0
  0
LINE
  5
8E9
330
1A
100
AcDbEntity
  8
ZUWAKU
100
AcDbLine
 10
63.61721245944432
 20
23.25000012033741
 30
0.0
 11
61.86721245944432
 21
23.25000012033741
 31
0.0
  0
ARC
  5
8EA
330
1A
100
AcDbEntity
  8
ZUWAKU
100
AcDbCircle
 10
61.86721245944432
 20
22.7250001203374
 30
0.0
 40
0.525
100
AcDbArc
 50
90.0
 51
180.0
  0
ARC
  5
8EB
330
1A
100
AcDbEntity
  8
ZUWAKU
100
AcDbCircle
 10
68.51721245944441
 20
22.7250001203374
 30
0.0
 40
0.525
100
AcDbArc
 50
0.0
 51
90.0
  0
TEXT
  5
8EC
330
1A
100
AcDbEntity
  8
MOJI
100
AcDbText
 10
239.8272029855143
 20
3.204921177744825
 30
0.0
 40
5.599999999999999
  1
ＲＶ１０５
 41
0.9
  7
ｽﾀｲﾙ1
100
AcDbText
  0
LINE
  5
8ED
330
1A
100
AcDbEntity
  8
ZUWAKU
100
AcDbLine
 10
208.2466015947311
 20
30.0000001203374
 30
0.0
 11
208.2466015947311
 21
0.8000001203374722
 31
0.0
  0
LINE
  5
8EE
330
1A
100
AcDbEntity
  8
ZUWAKU
100
AcDbLine
 10
208.646601594731
 20
30.0000001203374
 30
0.0
 11
208.6466015947312
 21
0.8000001203374722
 31
0.0
  0
LINE
  5
8EF
330
1A
100
AcDbEntity
  8
ZUWAKU
100
AcDbLine
 10
208.4466015947309
 20
30.0000001203374
 30
0.0
 11
208.4466015947311
 21
0.8000001203374722
 31
0.0
  0
TEXT
  5
8F0
330
1A
100
AcDbEntity
  8
MOJI
100
AcDbText
 10
239.8272029855143
 20
18.00492117774479
 30
0.0
 40
5.599999999999999
  1
伸縮ジョイント
 41
0.9
  7
ｽﾀｲﾙ1
100
AcDbText
  0
TEXT
  5
8F1
330
1A
100
AcDbEntity
  8
ZUWAKU
100
AcDbText
 10
209.7240466169407
 20
9.655356658723022
 30
0.0
 40
4.0
  1
サイズ
 41
0.9
  7
ｽﾀｲﾙ1
100
AcDbText
  0
TEXT
  5
8F2
330
1A
100
AcDbEntity
  8
ZUWAKU
100
AcDbText
 10
209.7240466169405
 20
24.05535665872298
 30
0.0
 40
4.0
  1
品名
 41
0.9
  7
ｽﾀｲﾙ1
100
AcDbText
  0
LINE
  5
8F3
330
1A
100
AcDbEntity
  8
ZUWAKU
100
AcDbLine
 10
648.8172028148674
 20
15.20000012033743
 30
0.0
 11
697.2490108532045
 21
15.20000012033744
 31
0.0
  0
LINE
  5
8F4
330
1A
100
AcDbEntity
  8
ZUWAKU
100
AcDbLine
 10
648.8172028148676
 20
15.40000012033744
 30
0.0
 11
697.2490108532045
 21
15.40000012033743
 31
0.0
  0
LINE
  5
8F5
330
1A
100
AcDbEntity
  8
ZUWAKU
100
AcDbLine
 10
648.8172028148674
 20
15.60000012033743
 30
0.0
 11
697.2490108532045
 21
15.60000012033743
 31
0.0
  0
TEXT
  5
8F6
330
1A
100
AcDbEntity
  8
ZUWAKU
100
AcDbText
 10
658.2039379919656
 20
18.00492117774479
 30
0.0
 40
5.599999999999999
  1
　　．　　．　　
 41
0.9
  7
ｽﾀｲﾙ1
100
AcDbText
  0
LINE
  5
8F7
330
1A
100
AcDbEntity
  8
ZUWAKU
100
AcDbLine
 10
505.1991798028041
 20
15.20000012033744
 30
0.0
 11
552.5269560707756
 21
15.20000012033744
 31
0.0
  0
LINE
  5
8F8
330
1A
100
AcDbEntity
  8
ZUWAKU
100
AcDbLine
 10
505.1991798028041
 20
15.40000012033743
 30
0.0
 11
552.5269560707756
 21
15.40000012033743
 31
0.0
  0
LINE
  5
8F9
330
1A
100
AcDbEntity
  8
ZUWAKU
100
AcDbLine
 10
505.1991798028041
 20
15.60000012033743
 30
0.0
 11
552.5269560707756
 21
15.60000012033743
 31
0.0
  0
TEXT
  5
8FA
330
1A
100
AcDbEntity
  8
MOJI
100
AcDbText
 10
464.5946263079022
 20
11.94261784199738
 30
0.0
 40
5.599999999999999
  1
ＧＲ７９□
 41
0.9
  7
ｽﾀｲﾙ1
100
AcDbText
  0
LINE
  5
8FB
330
1A
100
AcDbEntity
  8
ZUWAKU
100
AcDbLine
 10
447.6243642756544
 20
30.0000001203374
 30
0.0
 11
447.6243642756546
 21
0.8000001203374722
 31
0.0
  0
LINE
  5
8FC
330
1A
100
AcDbEntity
  8
ZUWAKU
100
AcDbLine
 10
447.8243642756544
 20
30.0000001203374
 30
0.0
 11
447.8243642756547
 21
0.8000001203374722
 31
0.0
  0
LINE
  5
8FD
330
1A
100
AcDbEntity
  8
ZUWAKU
100
AcDbLine
 10
447.4243642756546
 20
30.0000001203374
 30
0.0
 11
447.4243642756546
 21
0.8000001203374722
 31
0.0
  0
TEXT
  5
8FE
330
1A
100
AcDbEntity
  8
MOJI
100
AcDbText
 10
528.0409082769761
 20
18.00492117774479
 30
0.0
 40
5.599999999999999
  1
Ａ３
 41
0.9
  7
ｽﾀｲﾙ1
100
AcDbText
  0
LINE
  5
8FF
330
1A
100
AcDbEntity
  8
ZUWAKU
100
AcDbLine
 10
504.999179802804
 20
30.0000001203374
 30
0.0
 11
504.9991798028043
 21
0.8000001203374722
 31
0.0
  0
LINE
  5
900
330
1A
100
AcDbEntity
  8
ZUWAKU
100
AcDbLine
 10
505.1991798028041
 20
30.0000001203374
 30
0.0
 11
505.1991798028043
 21
0.8000001203374722
 31
0.0
  0
LINE
  5
901
330
1A
100
AcDbEntity
  8
ZUWAKU
100
AcDbLine
 10
504.7991798028042
 20
30.0000001203374
 30
0.0
 11
504.7991798028042
 21
0.8000001203374722
 31
0.0
  0
TEXT
  5
902
330
1A
100
AcDbEntity
  8
ZUWAKU
100
AcDbText
 10
462.6937619601704
 20
2.614071031476896
 30
0.0
 40
3.0
  1
□には色品番が入ります
 41
0.9
  7
ｽﾀｲﾙ1
100
AcDbText
  0
TEXT
  5
903
330
1A
100
AcDbEntity
  8
ZUWAKU
100
AcDbText
 10
506.6766248250139
 20
9.655356658723022
 30
0.0
 40
4.0
  1
縮尺
 41
0.9
  7
ｽﾀｲﾙ1
100
AcDbText
  0
TEXT
  5
904
330
1A
100
AcDbEntity
  8
MOJI
100
AcDbText
 10
528.0409082769761
 20
3.204921177744825
 30
0.0
 40
5.599999999999999
  1
１/２
 41
0.9
  7
ｽﾀｲﾙ1
100
AcDbText
  0
TEXT
  5
905
330
1A
100
AcDbEntity
  8
ZUWAKU
100
AcDbText
 10
449.301809297864
 20
24.05535665872298
 30
0.0
 40
4.0
  1
品番
 41
0.9
  7
ｽﾀｲﾙ1
100
AcDbText
  0
TEXT
  5
906
330
1A
100
AcDbEntity
  8
ZUWAKU
100
AcDbText
 10
506.6766248250137
 20
24.05535665872298
 30
0.0
 40
4.0
  1
用紙
 41
0.9
  7
ｽﾀｲﾙ1
100
AcDbText
  0
LINE
  5
907
330
1A
100
AcDbEntity
  8
ZUWAKU
100
AcDbLine
 10
648.6172028148676
 20
30.0000001203374
 30
0.0
 11
648.6172028148678
 21
0.8000001203374722
 31
0.0
  0
LINE
  5
908
330
1A
100
AcDbEntity
  8
ZUWAKU
100
AcDbLine
 10
648.8172028148676
 20
30.0000001203374
 30
0.0
 11
648.8172028148678
 21
0.8000001203374722
 31
0.0
  0
LINE
  5
909
330
1A
100
AcDbEntity
  8
ZUWAKU
100
AcDbLine
 10
648.4172028148678
 20
30.0000001203374
 30
0.0
 11
648.4172028148678
 21
0.8000001203374722
 31
0.0
  0
LINE
  5
90A
330
1A
100
AcDbEntity
  8
ZUWAKU
100
AcDbLine
 10
552.7269560707755
 20
30.0000001203374
 30
0.0
 11
552.7269560707757
 21
0.8000001203374722
 31
0.0
  0
LINE
  5
90B
330
1A
100
AcDbEntity
  8
ZUWAKU
100
AcDbLine
 10
552.9269560707755
 20
30.0000001203374
 30
0.0
 11
552.9269560707757
 21
0.8000001203374722
 31
0.0
  0
LINE
  5
90C
330
1A
100
AcDbEntity
  8
ZUWAKU
100
AcDbLine
 10
552.5269560707756
 20
30.0000001203374
 30
0.0
 11
552.5269560707756
 21
0.8000001203374722
 31
0.0
  0
TEXT
  5
90D
330
1A
100
AcDbEntity
  8
ZUWAKU
100
AcDbText
 10
650.2946478370772
 20
24.05535665872298
 30
0.0
 40
4.0
  1
DATE
 41
0.9
  7
ｽﾀｲﾙ1
100
AcDbText
  0
LINE
  5
90E
330
1A
100
AcDbEntity
  8
ZUWAKU
100
AcDbLine
 10
697.2490108532045
 20
30.0000001203374
 30
0.0
 11
697.2490108532045
 21
0.8000001203374722
 31
0.0
  0
LINE
  5
90F
330
1A
100
AcDbEntity
  8
ZUWAKU
100
AcDbLine
 10
697.4490108532044
 20
30.0000001203374
 30
0.0
 11
697.4490108532044
 21
0.8000001203374722
 31
0.0
  0
LINE
  5
910
330
1A
100
AcDbEntity
  8
ZUWAKU
100
AcDbLine
 10
697.6490108532043
 20
30.0000001203374
 30
0.0
 11
697.6490108532045
 21
0.8000001203374722
 31
0.0
  0
LINE
  5
911
330
1A
100
AcDbEntity
  8
ZUWAKU
100
AcDbLine
 10
697.8490108532043
 20
30.0000001203374
 30
0.0
 11
697.8490108532046
 21
0.8000001203374722
 31
0.0
  0
TEXT
  5
912
330
1A
100
AcDbEntity
  8
ZUWAKU
100
AcDbText
 10
708.5280844969069
 20
17.5538394560242
 30
0.0
 40
6.0
  1
積水化学工業株式会社
 41
0.9
  7
ｽﾀｲﾙ1
100
AcDbText
  0
TEXT
  5
913
330
1A
100
AcDbEntity
  8
ZUWAKU
100
AcDbText
 10
708.5280844969069
 20
6.64884043419147
 30
0.0
 40
6.0
  1
建材事業部
 41
0.9
  7
ｽﾀｲﾙ1
100
AcDbText
  0
VIEWPORT
  5
22
330
17
100
AcDbEntity
 67
     1
  8
0
100
AcDbViewport
 10
313.6808219178082
 20
148.5
 30
0.0
 40
627.3616438356165
 41
297.0
 68
     2
 69
     1
1001
ACAD
1000
MVIEW
1002
{
1070
    16
1010
0.0
1020
0.0
1030
0.0
1010
0.0
1020
0.0
1030
1.0
1040
0.0
1040
297.0
1040
313.6808219178082
1040
148.5
1040
50.0
1040
0.0
1040
0.0
1070
     0
1070
   100
1070
     1
1070
     0
1070
     0
1070
     0
1070
     0
1070
     0
1040
0.0
1040
0.0
1040
0.0
1040
1.0
1040
1.0
1040
10.0
1040
10.0
1070
     0
1002
{
1002
}
1002
}
  0
VIEWPORT
  5
64
330
17
100
AcDbEntity
 67
     1
  8
VIEWPORT
100
AcDbViewport
 10
210.0
 20
148.5
 30
0.0
 40
420.0
 41
297.0
 68
     1
 69
     2
1001
ACAD
1000
MVIEW
1002
{
1070
    16
1010
0.0
1020
0.0
1030
0.0
1010
0.0
1020
0.0
1030
1.0
1040
0.0
1040
605.8799999999998
1040
420.0
1040
297.0
1040
50.0
1040
0.0
1040
0.0
1070
     0
1070
   100
1070
     1
1070
     0
1070
     0
1070
     0
1070
     0
1070
     0
1040
0.0
1040
0.0
1040
0.0
1040
10.0
1040
10.0
1040
0.0
1040
0.0
1070
     0
1002
{
1002
}
1002
}
  0
ENDSEC
  0
SECTION
  2
OBJECTS
  0
DICTIONARY
  5
C
330
0
100
AcDbDictionary
  3
ACAD_GROUP
350
D
  3
ACAD_LAYOUT
350
766
  3
ACAD_MLINESTYLE
350
E
  3
ACAD_PLOTSETTINGS
350
767
  3
ACAD_PLOTSTYLENAME
350
764
  3
ACDBHEADERROUNDTRIPXREC
350
91B
  0
DICTIONARY
  5
795
330
1A
100
AcDbDictionary
280
     1
  3
ACAD_LAYOUTSELFREF
360
93D
  0
DICTIONARY
  5
793
330
17
100
AcDbDictionary
280
     1
  3
ACAD_LAYOUTSELFREF
360
93C
  0
DICTIONARY
  5
D
102
{ACAD_REACTORS
330
C
102
}
330
C
100
AcDbDictionary
  0
DICTIONARY
  5
766
102
{ACAD_REACTORS
330
C
102
}
330
C
100
AcDbDictionary
  0
DICTIONARY
  5
E
102
{ACAD_REACTORS
330
C
102
}
330
C
100
AcDbDictionary
  3
STANDARD
350
13
  0
DICTIONARY
  5
767
102
{ACAD_REACTORS
330
C
102
}
330
C
100
AcDbDictionary
  0
ACDBDICTIONARYWDFLT
  5
764
102
{ACAD_REACTORS
330
C
102
}
330
C
100
AcDbDictionary
281
     1
  3
Normal
350
765
100
AcDbDictionaryWithDefault
340
765
1001
ACAD
1000
TREAT_AS_HARD
1070
     0
  0
DICTIONARY
  5
91B
102
{ACAD_REACTORS
330
C
102
}
330
C
100
AcDbDictionary
  3
TSTACKALIGN
350
91C
  3
TSTACKSIZE
350
91D
  3
HYPERLINKBASE
350
91E
  3
STYLESHEET
350
91F
  3
LAYOUTDICT
350
920
  3
PLOTSETDICT
350
921
  3
PLOTSTYLNAMDICT
350
922
  3
LWETCUNION
350
923
  3
INSUNITS
350
924
  3
CEPSNTYPE
350
925
  3
FINGERPRINTGUID
350
926
  3
VERSIONGUID
350
927
  3
PSVPSCALE
350
928
  3
DIMSTYLEDATA
350
929
  3
PUCSORTHOREF
350
92A
  3
PUCSORTHOVIEW
350
92B
  3
PUCSBASE
350
92C
  3
PUCSORGTOP
350
92D
  3
PUCSORGBOTTOM
350
92E
  3
PUCSORGLEFT
350
92F
  3
PUCSORGRIGHT
350
930
  3
PUCSORGFRONT
350
931
  3
PUCSORGBACK
350
932
  3
UCSORTHOREF
350
933
  3
UCSORTHOVIEW
350
934
  3
UCSBASE
350
935
  3
UCSORGTOP
350
936
  3
UCSORGBOTTOM
350
937
  3
UCSORGLEFT
350
938
  3
UCSORGRIGHT
350
939
  3
UCSORGFRONT
350
93A
  3
UCSORGBACK
350
93B
  0
XRECORD
  5
93D
102
{ACAD_REACTORS
330
795
102
}
330
795
100
AcDbXrecord
340
1A
  0
XRECORD
  5
93C
102
{ACAD_REACTORS
330
793
102
}
330
793
100
AcDbXrecord
340
17
  0
MLINESTYLE
  5
13
102
{ACAD_REACTORS
330
E
102
}
330
E
100
AcDbMlineStyle
  2
STANDARD
 70
     0
  3

 62
     0
 51
90.0
 52
90.0
 71
     2
 49
0.5
 62
   256
  6
BYLAYER
 49
-0.5
 62
   256
  6
BYLAYER
  0
ACDBPLACEHOLDER
  5
765
102
{ACAD_REACTORS
330
764
102
}
330
764
100
AcDbPlaceHolder
280
     0
  0
XRECORD
  5
91C
102
{ACAD_REACTORS
330
91B
102
}
330
91B
100
AcDbXrecord
 90
        1
  0
XRECORD
  5
91D
102
{ACAD_REACTORS
330
91B
102
}
330
91B
100
AcDbXrecord
 90
       70
  0
XRECORD
  5
91E
102
{ACAD_REACTORS
330
91B
102
}
330
91B
100
AcDbXrecord
  1

  0
XRECORD
  5
91F
102
{ACAD_REACTORS
330
91B
102
}
330
91B
100
AcDbXrecord
  1
systemprinter.ctb
  0
XRECORD
  5
920
102
{ACAD_REACTORS
330
91B
102
}
330
91B
100
AcDbXrecord
340
766
  0
XRECORD
  5
921
102
{ACAD_REACTORS
330
91B
102
}
330
91B
100
AcDbXrecord
340
767
  0
XRECORD
  5
922
102
{ACAD_REACTORS
330
91B
102
}
330
91B
100
AcDbXrecord
340
764
  0
XRECORD
  5
923
102
{ACAD_REACTORS
330
91B
102
}
330
91B
100
AcDbXrecord
 90
    10781
  0
XRECORD
  5
924
102
{ACAD_REACTORS
330
91B
102
}
330
91B
100
AcDbXrecord
 90
        0
  0
XRECORD
  5
925
102
{ACAD_REACTORS
330
91B
102
}
330
91B
100
AcDbXrecord
 90
        0
  0
XRECORD
  5
926
102
{ACAD_REACTORS
330
91B
102
}
330
91B
100
AcDbXrecord
  1
{9524FAB7-2C06-4C02-B85E-06228C987DA5}
  0
XRECORD
  5
927
102
{ACAD_REACTORS
330
91B
102
}
330
91B
100
AcDbXrecord
  1
{FC8DD22A-06AC-41C7-A473-90944FF5BC73}
  0
XRECORD
  5
928
102
{ACAD_REACTORS
330
91B
102
}
330
91B
100
AcDbXrecord
 40
0.0
  0
XRECORD
  5
929
102
{ACAD_REACTORS
330
91B
102
}
330
91B
100
AcDbXrecord
1000
DSTYLE
1002
{
1070
   341
340
6D
1070
   343
340
6D
1070
   344
340
6D
1070
   371
 70
    -1
1070
   372
 70
    -1
1002
}
  0
XRECORD
  5
92A
102
{ACAD_REACTORS
330
91B
102
}
330
91B
100
AcDbXrecord
340
0
  0
XRECORD
  5
92B
102
{ACAD_REACTORS
330
91B
102
}
330
91B
100
AcDbXrecord
 70
     0
  0
XRECORD
  5
92C
102
{ACAD_REACTORS
330
91B
102
}
330
91B
100
AcDbXrecord
340
0
  0
XRECORD
  5
92D
102
{ACAD_REACTORS
330
91B
102
}
330
91B
100
AcDbXrecord
 10
0.0
 20
0.0
 30
0.0
  0
XRECORD
  5
92E
102
{ACAD_REACTORS
330
91B
102
}
330
91B
100
AcDbXrecord
 10
0.0
 20
0.0
 30
0.0
  0
XRECORD
  5
92F
102
{ACAD_REACTORS
330
91B
102
}
330
91B
100
AcDbXrecord
 10
0.0
 20
0.0
 30
0.0
  0
XRECORD
  5
930
102
{ACAD_REACTORS
330
91B
102
}
330
91B
100
AcDbXrecord
 10
0.0
 20
0.0
 30
0.0
  0
XRECORD
  5
931
102
{ACAD_REACTORS
330
91B
102
}
330
91B
100
AcDbXrecord
 10
0.0
 20
0.0
 30
0.0
  0
XRECORD
  5
932
102
{ACAD_REACTORS
330
91B
102
}
330
91B
100
AcDbXrecord
 10
0.0
 20
0.0
 30
0.0
  0
XRECORD
  5
933
102
{ACAD_REACTORS
330
91B
102
}
330
91B
100
AcDbXrecord
340
0
  0
XRECORD
  5
934
102
{ACAD_REACTORS
330
91B
102
}
330
91B
100
AcDbXrecord
 70
     0
  0
XRECORD
  5
935
102
{ACAD_REACTORS
330
91B
102
}
330
91B
100
AcDbXrecord
340
0
  0
XRECORD
  5
936
102
{ACAD_REACTORS
330
91B
102
}
330
91B
100
AcDbXrecord
 10
0.0
 20
0.0
 30
0.0
  0
XRECORD
  5
937
102
{ACAD_REACTORS
330
91B
102
}
330
91B
100
AcDbXrecord
 10
0.0
 20
0.0
 30
0.0
  0
XRECORD
  5
938
102
{ACAD_REACTORS
330
91B
102
}
330
91B
100
AcDbXrecord
 10
0.0
 20
0.0
 30
0.0
  0
XRECORD
  5
939
102
{ACAD_REACTORS
330
91B
102
}
330
91B
100
AcDbXrecord
 10
0.0
 20
0.0
 30
0.0
  0
XRECORD
  5
93A
102
{ACAD_REACTORS
330
91B
102
}
330
91B
100
AcDbXrecord
 10
0.0
 20
0.0
 30
0.0
  0
XRECORD
  5
93B
102
{ACAD_REACTORS
330
91B
102
}
330
91B
100
AcDbXrecord
 10
0.0
 20
0.0
 30
0.0
  0
ENDSEC
  0
EOF
