  0
SECTION
  2
HEADER
  9
$ACADVER
  1
AC1014
  9
$ACADMAINTVER
 70
     9
  9
$DWGCODEPAGE
  3
ANSI_932
  9
$INSBASE
 10
0.0
 20
0.0
 30
0.0
  9
$EXTMIN
 10
-0.05126640194635
 20
-0.0362526699479986
 30
-0.0000000349181948
  9
$EXTMAX
 10
797.6628945888771
 20
551.6439420217511
 30
0.0000000814935746
  9
$LIMMIN
 10
0.0
 20
0.0
  9
$LIMMAX
 10
840.0
 20
594.0
  9
$ORTHOMODE
 70
     0
  9
$REGENMODE
 70
     1
  9
$FILLMODE
 70
     1
  9
$QTEXTMODE
 70
     0
  9
$MIRRTEXT
 70
     1
  9
$DRAGMODE
 70
     2
  9
$LTSCALE
 40
2.0
  9
$OSMODE
 70
    35
  9
$ATTMODE
 70
     1
  9
$TEXTSIZE
 40
5.0
  9
$TRACEWID
 40
1.0
  9
$TEXTSTYLE
  7
STANDARD
  9
$CLAYER
  8
SUNPOU
  9
$CELTYPE
  6
BYLAYER
  9
$CECOLOR
 62
   256
  9
$CELTSCALE
 40
1.0
  9
$DELOBJ
 70
     1
  9
$DISPSILH
 70
     0
  9
$DIMSCALE
 40
1.0
  9
$DIMASZ
 40
7.0
  9
$DIMEXO
 40
6.0
  9
$DIMDLI
 40
14.0
  9
$DIMRND
 40
0.0
  9
$DIMDLE
 40
0.0
  9
$DIMEXE
 40
3.0
  9
$DIMTP
 40
0.0
  9
$DIMTM
 40
0.0
  9
$DIMTXT
 40
6.0
  9
$DIMCEN
 40
150.0
  9
$DIMTSZ
 40
0.0
  9
$DIMTOL
 70
     0
  9
$DIMLIM
 70
     0
  9
$DIMTIH
 70
     0
  9
$DIMTOH
 70
     0
  9
$DIMSE1
 70
     0
  9
$DIMSE2
 70
     0
  9
$DIMTAD
 70
     3
  9
$DIMZIN
 70
     0
  9
$DIMBLK
  1

  9
$DIMASO
 70
     1
  9
$DIMSHO
 70
     1
  9
$DIMPOST
  1

  9
$DIMAPOST
  1

  9
$DIMALT
 70
     0
  9
$DIMALTD
 70
     2
  9
$DIMALTF
 40
25.4
  9
$DIMLFAC
 40
1.0
  9
$DIMTOFL
 70
     1
  9
$DIMTVP
 40
0.0
  9
$DIMTIX
 70
     0
  9
$DIMSOXD
 70
     0
  9
$DIMSAH
 70
     1
  9
$DIMBLK1
  1
OPEN
  9
$DIMBLK2
  1
OPEN
  9
$DIMSTYLE
  2
STANDARD
  9
$DIMCLRD
 70
   256
  9
$DIMCLRE
 70
   256
  9
$DIMCLRT
 70
   256
  9
$DIMTFAC
 40
1.0
  9
$DIMGAP
 40
2.0
  9
$DIMJUST
 70
     0
  9
$DIMSD1
 70
     0
  9
$DIMSD2
 70
     0
  9
$DIMTOLJ
 70
     1
  9
$DIMTZIN
 70
     0
  9
$DIMALTZ
 70
     0
  9
$DIMALTTZ
 70
     0
  9
$DIMFIT
 70
     3
  9
$DIMUPT
 70
     0
  9
$DIMUNIT
 70
     2
  9
$DIMDEC
 70
     0
  9
$DIMTDEC
 70
     0
  9
$DIMALTU
 70
     2
  9
$DIMALTTD
 70
     2
  9
$DIMTXSTY
  7
STANDARD
  9
$DIMAUNIT
 70
     0
  9
$LUNITS
 70
     2
  9
$LUPREC
 70
     4
  9
$SKETCHINC
 40
1.0
  9
$FILLETRAD
 40
1.0
  9
$AUNITS
 70
     0
  9
$AUPREC
 70
     0
  9
$MENU
  1
.
  9
$ELEVATION
 40
0.0
  9
$PELEVATION
 40
0.0
  9
$THICKNESS
 40
0.0
  9
$LIMCHECK
 70
     0
  9
$BLIPMODE
 70
     0
  9
$CHAMFERA
 40
20.0
  9
$CHAMFERB
 40
20.0
  9
$CHAMFERC
 40
40.0
  9
$CHAMFERD
 40
0.0
  9
$SKPOLY
 70
     0
  9
$TDCREATE
 40
2450994.354346065
  9
$TDUPDATE
 40
2453802.450630602
  9
$TDINDWG
 40
0.0364874653
  9
$TDUSRTIMER
 40
0.0364874653
  9
$USRTIMER
 70
     1
  9
$ANGBASE
 50
0.0
  9
$ANGDIR
 70
     0
  9
$PDMODE
 70
     0
  9
$PDSIZE
 40
0.0
  9
$PLINEWID
 40
0.0
  9
$COORDS
 70
     1
  9
$SPLFRAME
 70
     0
  9
$SPLINETYPE
 70
     6
  9
$SPLINESEGS
 70
     8
  9
$ATTDIA
 70
     0
  9
$ATTREQ
 70
     1
  9
$HANDLING
 70
 10241
  9
$HANDSEED
  5
10CA
  9
$SURFTAB1
 70
     6
  9
$SURFTAB2
 70
     6
  9
$SURFTYPE
 70
     6
  9
$SURFU
 70
     6
  9
$SURFV
 70
     6
  9
$UCSNAME
  2

  9
$UCSORG
 10
0.0
 20
0.0
 30
0.0
  9
$UCSXDIR
 10
1.0
 20
0.0
 30
0.0
  9
$UCSYDIR
 10
0.0
 20
1.0
 30
0.0
  9
$PUCSNAME
  2

  9
$PUCSORG
 10
0.0
 20
0.0
 30
0.0
  9
$PUCSXDIR
 10
1.0
 20
0.0
 30
0.0
  9
$PUCSYDIR
 10
0.0
 20
1.0
 30
0.0
  9
$USERI1
 70
     0
  9
$USERI2
 70
     0
  9
$USERI3
 70
     0
  9
$USERI4
 70
     0
  9
$USERI5
 70
     0
  9
$USERR1
 40
0.0
  9
$USERR2
 40
0.0
  9
$USERR3
 40
0.0
  9
$USERR4
 40
0.0
  9
$USERR5
 40
0.0
  9
$WORLDVIEW
 70
     1
  9
$SHADEDGE
 70
     3
  9
$SHADEDIF
 70
    70
  9
$TILEMODE
 70
     1
  9
$MAXACTVP
 70
    16
  9
$PINSBASE
 10
0.0
 20
0.0
 30
0.0
  9
$PLIMCHECK
 70
     0
  9
$PEXTMIN
 10
0.0
 20
0.0
 30
0.0
  9
$PEXTMAX
 10
420.0
 20
297.0
 30
0.0
  9
$PLIMMIN
 10
0.0
 20
0.0
  9
$PLIMMAX
 10
420.0
 20
297.0
  9
$UNITMODE
 70
     0
  9
$VISRETAIN
 70
     0
  9
$PLINEGEN
 70
     0
  9
$PSLTSCALE
 70
     1
  9
$TREEDEPTH
 70
  3020
  9
$PICKSTYLE
 70
     1
  9
$CMLSTYLE
  2
STANDARD
  9
$CMLJUST
 70
     0
  9
$CMLSCALE
 40
1.0
  9
$PROXYGRAPHICS
 70
     1
  9
$MEASUREMENT
 70
     0
  0
ENDSEC
  0
SECTION
  2
CLASSES
  0
CLASS
  1
ACDBDICTIONARYWDFLT
  2
AcDbDictionaryWithDefault
  3
AutoCAD 2000
 90
        0
280
     0
281
     0
  0
CLASS
  1
ACDBPLACEHOLDER
  2
AcDbPlaceHolder
  3
AutoCAD 2000
 90
        0
280
     0
281
     0
  0
CLASS
  1
LAYOUT
  2
AcDbLayout
  3
AutoCAD 2000
 90
        0
280
     0
281
     0
  0
CLASS
  1
LONG_TRANSACTION
  2
AcDbLongTransaction
  3
AutoCAD 2000
 90
        0
280
     0
281
     0
  0
CLASS
  1
LWPOLYLINE
  2
AcDbPolyline
  3
AutoCAD 2000
 90
        0
280
     0
281
     1
  0
CLASS
  1
HATCH
  2
AcDbHatch
  3
AutoCAD 2000
 90
        0
280
     0
281
     1
  0
CLASS
  1
XRECORD
  2
AcDbXrecord
  3
AutoCAD 2000
 90
        0
280
     0
281
     0
  0
CLASS
  1
LONG_TRANSACTION
  2
AcDbLongTransaction
  3
AutoCAD 2000
 90
        0
280
     0
281
     0
  0
CLASS
  1
LWPOLYLINE
  2
AcDbPolyline
  3
AutoCAD 2000
 90
        0
280
     0
281
     1
  0
CLASS
  1
HATCH
  2
AcDbHatch
  3
AutoCAD 2000
 90
        0
280
     0
281
     1
  0
CLASS
  1
XRECORD
  2
AcDbXrecord
  3
AutoCAD 2000
 90
        0
280
     0
281
     0
  0
CLASS
  1
LONG_TRANSACTION
  2
AcDbLongTransaction
  3
AutoCAD 2000
 90
        0
280
     0
281
     0
  0
CLASS
  1
LWPOLYLINE
  2
AcDbPolyline
  3
AutoCAD 2000
 90
        0
280
     0
281
     1
  0
CLASS
  1
HATCH
  2
AcDbHatch
  3
AutoCAD 2000
 90
        0
280
     0
281
     1
  0
CLASS
  1
XRECORD
  2
AcDbXrecord
  3
AutoCAD 2000
 90
        0
280
     0
281
     0
  0
CLASS
  1
LONG_TRANSACTION
  2
AcDbLongTransaction
  3
AutoCAD 2000
 90
        0
280
     0
281
     0
  0
CLASS
  1
LWPOLYLINE
  2
AcDbPolyline
  3
AutoCAD 2000
 90
        0
280
     0
281
     1
  0
CLASS
  1
HATCH
  2
AcDbHatch
  3
AutoCAD 2000
 90
        0
280
     0
281
     1
  0
CLASS
  1
XRECORD
  2
AcDbXrecord
  3
AutoCAD 2000
 90
        0
280
     0
281
     0
  0
CLASS
  1
LONG_TRANSACTION
  2
AcDbLongTransaction
  3
AutoCAD 2000
 90
        0
280
     0
281
     0
  0
CLASS
  1
LWPOLYLINE
  2
AcDbPolyline
  3
AutoCAD 2000
 90
        0
280
     0
281
     1
  0
CLASS
  1
HATCH
  2
AcDbHatch
  3
AutoCAD 2000
 90
        0
280
     0
281
     1
  0
CLASS
  1
XRECORD
  2
AcDbXrecord
  3
AutoCAD 2000
 90
        0
280
     0
281
     0
  0
ENDSEC
  0
SECTION
  2
TABLES
  0
TABLE
  2
VPORT
  5
8
330
0
100
AcDbSymbolTable
 70
     2
  0
VPORT
  5
10A6
330
8
100
AcDbSymbolTableRecord
100
AcDbViewportTableRecord
  2
*ACTIVE
 70
     0
 10
0.0
 20
0.0
 11
1.0
 21
1.0
 12
426.8139512528003
 22
270.8216590220371
 13
0.0
 23
0.0
 14
5.0
 24
5.0
 15
0.0
 25
0.0
 16
0.0
 26
0.0
 36
1.0
 17
0.0
 27
0.0
 37
0.0
 40
600.7555721735887
 41
1.795454545454545
 42
50.0
 43
0.0
 44
0.0
 50
0.0
 51
0.0
 71
     0
 72
   100
 73
     1
 74
     0
 75
     0
 76
     0
 77
     0
 78
     0
  0
ENDTAB
  0
TABLE
  2
LTYPE
  5
5
330
0
100
AcDbSymbolTable
 70
     3
  0
LTYPE
  5
14
330
5
100
AcDbSymbolTableRecord
100
AcDbLinetypeTableRecord
  2
BYBLOCK
 70
     0
  3

 72
    65
 73
     0
 40
0.0
  0
LTYPE
  5
15
330
5
100
AcDbSymbolTableRecord
100
AcDbLinetypeTableRecord
  2
BYLAYER
 70
     0
  3

 72
    65
 73
     0
 40
0.0
  0
LTYPE
  5
16
330
5
100
AcDbSymbolTableRecord
100
AcDbLinetypeTableRecord
  2
CONTINUOUS
 70
     0
  3
Solid line
 72
    65
 73
     0
 40
0.0
  0
LTYPE
  5
115
330
5
100
AcDbSymbolTableRecord
100
AcDbLinetypeTableRecord
  2
PHANTOM
 70
     0
  3
______  __  __  ______  __  __  ______  __  __ 
 72
    65
 73
     6
 40
2.5
 49
1.25
 74
     0
 49
-0.25
 74
     0
 49
0.25
 74
     0
 49
-0.25
 74
     0
 49
0.25
 74
     0
 49
-0.25
 74
     0
  0
LTYPE
  5
135
330
5
100
AcDbSymbolTableRecord
100
AcDbLinetypeTableRecord
  2
CENTER
 70
     0
  3
____ _ ____ _ ____ _ ____ _ ____ _ ____ _ ____ 
 72
    65
 73
     4
 40
2.0
 49
1.25
 74
     0
 49
-0.25
 74
     0
 49
0.25
 74
     0
 49
-0.25
 74
     0
  0
ENDTAB
  0
TABLE
  2
LAYER
  5
2
330
0
100
AcDbSymbolTable
 70
     9
  0
LAYER
  5
F
330
2
100
AcDbSymbolTableRecord
100
AcDbLayerTableRecord
  2
0
 70
     0
 62
     7
  6
CONTINUOUS
  0
LAYER
  5
62
330
2
100
AcDbSymbolTableRecord
100
AcDbLayerTableRecord
  2
VIEWPORT
 70
     0
 62
     7
  6
CONTINUOUS
  0
LAYER
  5
65
330
2
100
AcDbSymbolTableRecord
100
AcDbLayerTableRecord
  2
ZUWAKU
 70
     0
 62
     7
  6
CONTINUOUS
  0
LAYER
  5
18B
330
2
100
AcDbSymbolTableRecord
100
AcDbLayerTableRecord
  2
SEIHIN
 70
     0
 62
     3
  6
CONTINUOUS
  0
LAYER
  5
18C
330
2
100
AcDbSymbolTableRecord
100
AcDbLayerTableRecord
  2
NOKITOI
 70
     0
 62
     8
  6
PHANTOM
  0
LAYER
  5
18D
330
2
100
AcDbSymbolTableRecord
100
AcDbLayerTableRecord
  2
SUNPOU
 70
     0
 62
     4
  6
CONTINUOUS
  0
LAYER
  5
18E
330
2
100
AcDbSymbolTableRecord
100
AcDbLayerTableRecord
  2
DEFPOINTS
 70
     0
 62
     7
  6
CONTINUOUS
  0
LAYER
  5
667
330
2
100
AcDbSymbolTableRecord
100
AcDbLayerTableRecord
  2
CENTER_L
 70
     0
 62
     1
  6
CENTER
  0
LAYER
  5
F2F
330
2
100
AcDbSymbolTableRecord
100
AcDbLayerTableRecord
  2
MOJI
 70
     0
 62
     2
  6
CONTINUOUS
  0
ENDTAB
  0
TABLE
  2
STYLE
  5
3
330
0
100
AcDbSymbolTable
 70
     2
  0
STYLE
  5
10
330
3
100
AcDbSymbolTableRecord
100
AcDbTextStyleTableRecord
  2
STANDARD
 70
     0
 40
0.0
 41
1.0
 50
0.0
 71
     0
 42
5.0
  3
TXT
  4
bigfont.shx
  0
STYLE
  5
F30
330
3
100
AcDbSymbolTableRecord
100
AcDbTextStyleTableRecord
  2
ｽﾀｲﾙ1
 70
     0
 40
0.0
 41
1.0
 50
0.0
 71
     0
 42
2.5
  3
MS PGothic.ttf
  4

1001
ACAD
1000
MS PGothic
1071
    32818
  0
ENDTAB
  0
TABLE
  2
VIEW
  5
6
330
0
100
AcDbSymbolTable
 70
     0
  0
ENDTAB
  0
TABLE
  2
UCS
  5
7
330
0
100
AcDbSymbolTable
 70
     0
  0
ENDTAB
  0
TABLE
  2
APPID
  5
9
330
0
100
AcDbSymbolTable
 70
     1
  0
APPID
  5
11
330
9
100
AcDbSymbolTableRecord
100
AcDbRegAppTableRecord
  2
ACAD
 70
     0
  0
ENDTAB
  0
TABLE
  2
DIMSTYLE
  5
A
330
0
100
AcDbSymbolTable
 70
     1
  0
DIMSTYLE
105
1D
102
{ACAD_REACTORS
330
B7E
330
B8B
330
B98
330
BA5
330
C1D
330
C42
330
C3A
330
C49
330
C33
330
CDB
102
}
330
A
100
AcDbSymbolTableRecord
100
AcDbDimStyleTableRecord
  2
STANDARD
 70
     0
  3

  4

  5

  6

  7

 40
1.0
 41
0.18
 42
0.0625
 43
0.38
 44
0.18
 45
0.0
 46
0.0
 47
0.0
 48
0.0
140
0.18
141
0.09
142
0.0
143
25.4
144
1.0
145
0.0
146
1.0
147
0.09
 71
     0
 72
     0
 73
     1
 74
     1
 75
     0
 76
     0
 77
     0
 78
     0
170
     0
171
     2
172
     0
173
     0
174
     0
175
     0
176
     0
177
     0
178
     0
270
     2
271
     4
272
     4
273
     2
274
     2
340
10
275
     0
280
     0
281
     0
282
     0
283
     1
284
     0
285
     0
286
     0
287
     3
288
     0
  0
ENDTAB
  0
TABLE
  2
BLOCK_RECORD
  5
1
330
0
100
AcDbSymbolTable
 70
    11
  0
BLOCK_RECORD
  5
1A
102
{ACAD_XDICTIONARY
360
DCD
102
}
330
1
100
AcDbSymbolTableRecord
100
AcDbBlockTableRecord
  2
*MODEL_SPACE
  0
BLOCK_RECORD
  5
17
102
{ACAD_XDICTIONARY
360
DCB
102
}
330
1
100
AcDbSymbolTableRecord
100
AcDbBlockTableRecord
  2
*PAPER_SPACE
  0
BLOCK_RECORD
  5
6D
330
1
100
AcDbSymbolTableRecord
100
AcDbBlockTableRecord
  2
_OPEN
  0
BLOCK_RECORD
  5
B7F
330
1
100
AcDbSymbolTableRecord
100
AcDbBlockTableRecord
  2
*D1
  0
BLOCK_RECORD
  5
B8C
330
1
100
AcDbSymbolTableRecord
100
AcDbBlockTableRecord
  2
*D2
  0
BLOCK_RECORD
  5
B99
330
1
100
AcDbSymbolTableRecord
100
AcDbBlockTableRecord
  2
*D3
  0
BLOCK_RECORD
  5
BA6
330
1
100
AcDbSymbolTableRecord
100
AcDbBlockTableRecord
  2
*D4
  0
BLOCK_RECORD
  5
C1E
330
1
100
AcDbSymbolTableRecord
100
AcDbBlockTableRecord
  2
*D5
  0
BLOCK_RECORD
  5
CF6
330
1
100
AcDbSymbolTableRecord
100
AcDbBlockTableRecord
  2
*D6
  0
BLOCK_RECORD
  5
D02
330
1
100
AcDbSymbolTableRecord
100
AcDbBlockTableRecord
  2
*D7
  0
BLOCK_RECORD
  5
D0E
330
1
100
AcDbSymbolTableRecord
100
AcDbBlockTableRecord
  2
*D8
  0
BLOCK_RECORD
  5
D1A
330
1
100
AcDbSymbolTableRecord
100
AcDbBlockTableRecord
  2
*D9
  0
BLOCK_RECORD
  5
D26
330
1
100
AcDbSymbolTableRecord
100
AcDbBlockTableRecord
  2
*D10
  0
ENDTAB
  0
ENDSEC
  0
SECTION
  2
BLOCKS
  0
BLOCK
  5
1B
330
1A
100
AcDbEntity
  8
0
100
AcDbBlockBegin
  2
*MODEL_SPACE
 70
     0
 10
0.0
 20
0.0
 30
0.0
  3
*MODEL_SPACE
  1

  0
ENDBLK
  5
1C
330
1A
100
AcDbEntity
  8
0
100
AcDbBlockEnd
  0
BLOCK
  5
18
330
17
100
AcDbEntity
 67
     1
  8
0
100
AcDbBlockBegin
  2
*PAPER_SPACE
 70
     0
 10
0.0
 20
0.0
 30
0.0
  3
*PAPER_SPACE
  1

  0
ENDBLK
  5
19
330
17
100
AcDbEntity
 67
     1
  8
0
100
AcDbBlockEnd
  0
BLOCK
  5
6E
330
6D
100
AcDbEntity
  8
0
100
AcDbBlockBegin
  2
_OPEN
 70
     0
 10
0.0
 20
0.0
 30
0.0
  3
_OPEN
  1

  0
LINE
  5
6F
330
6D
100
AcDbEntity
  8
0
  6
BYBLOCK
 62
     0
100
AcDbLine
 10
-1.0
 20
0.1666666666666666
 30
0.0
 11
0.0
 21
0.0
 31
0.0
  0
LINE
  5
70
330
6D
100
AcDbEntity
  8
0
  6
BYBLOCK
 62
     0
100
AcDbLine
 10
0.0
 20
0.0
 30
0.0
 11
-1.0
 21
-0.1666666666666666
 31
0.0
  0
LINE
  5
71
330
6D
100
AcDbEntity
  8
0
  6
BYBLOCK
 62
     0
100
AcDbLine
 10
0.0
 20
0.0
 30
0.0
 11
-1.0
 21
0.0
 31
0.0
  0
ENDBLK
  5
72
330
6D
100
AcDbEntity
  8
0
100
AcDbBlockEnd
  0
BLOCK
  5
B89
330
B7F
100
AcDbEntity
  8
0
100
AcDbBlockBegin
  2
*D1
 70
     1
 10
0.0
 20
0.0
 30
0.0
  3
*D1
  1

  0
LINE
  5
EA1
330
B7F
100
AcDbEntity
  8
SUNPOU
  6
CONTINUOUS
 62
     4
100
AcDbLine
 10
266.3137376495732
 20
236.1507282201759
 30
0.0
 11
266.3137376495732
 21
278.5594231486973
 31
0.0
  0
LINE
  5
EA2
330
B7F
100
AcDbEntity
  8
SUNPOU
  6
CONTINUOUS
 62
     4
100
AcDbLine
 10
390.2125376495631
 20
236.0901270195087
 30
0.0
 11
390.2125376495631
 21
278.5594231486973
 31
0.0
  0
LINE
  5
EA3
330
B7F
100
AcDbEntity
  8
SUNPOU
  6
CONTINUOUS
 62
     4
100
AcDbLine
 10
273.3137376495732
 20
275.5594231486973
 30
0.0
 11
383.2125376495631
 21
275.5594231486973
 31
0.0
  0
INSERT
  5
EA4
330
B7F
100
AcDbEntity
  8
SUNPOU
  6
CONTINUOUS
 62
     4
100
AcDbBlockReference
  2
_OPEN
 10
266.3137376495732
 20
275.5594231486973
 30
0.0
 41
7.0
 42
7.0
 43
7.0
 50
180.0
  0
INSERT
  5
EA5
330
B7F
100
AcDbEntity
  8
SUNPOU
  6
CONTINUOUS
 62
     4
100
AcDbBlockReference
  2
_OPEN
 10
390.2125376495631
 20
275.5594231486973
 30
0.0
 41
7.0
 42
7.0
 43
7.0
  0
MTEXT
  5
EA6
330
B7F
100
AcDbEntity
  8
SUNPOU
  6
CONTINUOUS
 62
     4
100
AcDbMText
 10
328.2631376495682
 20
280.5594231486973
 30
0.0
 40
6.0
 41
0.0
 71
     5
 72
     5
  1
\A1;124
1001
ACAD
1000
MTEXTBEGIN
1070
    73
1070
     1
1070
    44
1040
1.0
1070
    74
1070
     0
1000
MTEXTEND
1000
MTEXTBEGIN
1070
    73
1070
     1
1070
    44
1040
1.0
1070
    74
1070
     0
1000
MTEXTEND
  0
POINT
  5
EA7
330
B7F
100
AcDbEntity
  8
DEFPOINTS
  6
CONTINUOUS
 62
     0
100
AcDbPoint
 10
266.3137376495732
 20
230.1507282201759
 30
0.0
  0
POINT
  5
EA8
330
B7F
100
AcDbEntity
  8
DEFPOINTS
  6
CONTINUOUS
 62
     0
100
AcDbPoint
 10
390.2125376495631
 20
230.0901270195087
 30
0.0
  0
POINT
  5
EA9
330
B7F
100
AcDbEntity
  8
DEFPOINTS
  6
CONTINUOUS
 62
     0
100
AcDbPoint
 10
390.2125376495631
 20
275.5594231486973
 30
0.0
  0
ENDBLK
  5
B8A
330
B7F
100
AcDbEntity
  8
0
100
AcDbBlockEnd
  0
BLOCK
  5
B96
330
B8C
100
AcDbEntity
  8
0
100
AcDbBlockBegin
  2
*D2
 70
     1
 10
0.0
 20
0.0
 30
0.0
  3
*D2
  1

  0
LINE
  5
EAA
330
B8C
100
AcDbEntity
  8
SUNPOU
  6
CONTINUOUS
 62
     4
100
AcDbLine
 10
263.314196827553
 20
232.1507373639282
 30
0.0
 11
215.6878418642161
 21
232.1507373639282
 31
0.0
  0
LINE
  5
EAB
330
B8C
100
AcDbEntity
  8
SUNPOU
  6
CONTINUOUS
 62
     4
100
AcDbLine
 10
314.0219968275518
 20
173.6507107110554
 30
0.0
 11
215.6878418642161
 21
173.6507107110554
 31
0.0
  0
LINE
  5
EAC
330
B8C
100
AcDbEntity
  8
SUNPOU
  6
CONTINUOUS
 62
     4
100
AcDbLine
 10
218.6878418642161
 20
225.1507373639282
 30
0.0
 11
218.6878418642161
 21
180.6507107110554
 31
0.0
  0
INSERT
  5
EAD
330
B8C
100
AcDbEntity
  8
SUNPOU
  6
CONTINUOUS
 62
     4
100
AcDbBlockReference
  2
_OPEN
 10
218.6878418642161
 20
232.1507373639282
 30
0.0
 41
7.0
 42
7.0
 43
7.0
 50
90.0
  0
INSERT
  5
EAE
330
B8C
100
AcDbEntity
  8
SUNPOU
  6
CONTINUOUS
 62
     4
100
AcDbBlockReference
  2
_OPEN
 10
218.6878418642161
 20
173.6507107110554
 30
0.0
 41
7.0
 42
7.0
 43
7.0
 50
270.0
  0
MTEXT
  5
EAF
330
B8C
100
AcDbEntity
  8
SUNPOU
  6
CONTINUOUS
 62
     4
100
AcDbMText
 10
213.6878418642161
 20
202.9007240374919
 30
0.0
 40
6.0
 41
0.0
 71
     5
 72
     5
  1
\A1;59
 11
0.0000000000000001
 21
1.0
 31
0.0
1001
ACAD
1000
MTEXTBEGIN
1070
    73
1070
     1
1070
    44
1040
1.0
1070
    74
1070
     0
1000
MTEXTEND
1000
MTEXTBEGIN
1070
    73
1070
     1
1070
    44
1040
1.0
1070
    74
1070
     0
1000
MTEXTEND
  0
POINT
  5
EB0
330
B8C
100
AcDbEntity
  8
DEFPOINTS
  6
CONTINUOUS
 62
     0
100
AcDbPoint
 10
269.314196827553
 20
232.1507373639282
 30
0.0
  0
POINT
  5
EB1
330
B8C
100
AcDbEntity
  8
DEFPOINTS
  6
CONTINUOUS
 62
     0
100
AcDbPoint
 10
320.0219968275518
 20
173.6507107110554
 30
0.0
  0
POINT
  5
EB2
330
B8C
100
AcDbEntity
  8
DEFPOINTS
  6
CONTINUOUS
 62
     0
100
AcDbPoint
 10
218.6878418642161
 20
173.6507107110554
 30
0.0
  0
ENDBLK
  5
B97
330
B8C
100
AcDbEntity
  8
0
100
AcDbBlockEnd
  0
BLOCK
  5
BA3
330
B99
100
AcDbEntity
  8
0
100
AcDbBlockBegin
  2
*D3
 70
     1
 10
0.0
 20
0.0
 30
0.0
  3
*D3
  1

  0
LINE
  5
EB3
330
B99
100
AcDbEntity
  8
SUNPOU
  6
CONTINUOUS
 62
     4
100
AcDbLine
 10
263.314196827553
 20
232.1507373639282
 30
0.0
 11
232.1381862470218
 21
232.1507373639282
 31
0.0
  0
LINE
  5
EB4
330
B99
100
AcDbEntity
  8
SUNPOU
  6
CONTINUOUS
 62
     4
100
AcDbLine
 10
262.328696827553
 20
211.6507282201759
 30
0.0
 11
232.1381862470218
 21
211.6507282201759
 31
0.0
  0
LINE
  5
EB5
330
B99
100
AcDbEntity
  8
SUNPOU
  6
CONTINUOUS
 62
     4
100
AcDbLine
 10
235.1381862470218
 20
225.1507373639282
 30
0.0
 11
235.1381862470218
 21
218.6507282201759
 31
0.0
  0
INSERT
  5
EB6
330
B99
100
AcDbEntity
  8
SUNPOU
  6
CONTINUOUS
 62
     4
100
AcDbBlockReference
  2
_OPEN
 10
235.1381862470218
 20
232.1507373639282
 30
0.0
 41
7.0
 42
7.0
 43
7.0
 50
90.0
  0
INSERT
  5
EB7
330
B99
100
AcDbEntity
  8
SUNPOU
  6
CONTINUOUS
 62
     4
100
AcDbBlockReference
  2
_OPEN
 10
235.1381862470218
 20
211.6507282201759
 30
0.0
 41
7.0
 42
7.0
 43
7.0
 50
270.0
  0
MTEXT
  5
EB8
330
B99
100
AcDbEntity
  8
SUNPOU
  6
CONTINUOUS
 62
     4
100
AcDbMText
 10
230.1381862470218
 20
221.9007327920521
 30
0.0
 40
6.0
 41
0.0
 71
     5
 72
     5
  1
\A1;21
 11
0.0000000000000001
 21
1.0
 31
0.0
1001
ACAD
1000
MTEXTBEGIN
1070
    73
1070
     1
1070
    44
1040
1.0
1070
    74
1070
     0
1000
MTEXTEND
1000
MTEXTBEGIN
1070
    73
1070
     1
1070
    44
1040
1.0
1070
    74
1070
     0
1000
MTEXTEND
  0
POINT
  5
EB9
330
B99
100
AcDbEntity
  8
DEFPOINTS
  6
CONTINUOUS
 62
     0
100
AcDbPoint
 10
269.314196827553
 20
232.1507373639282
 30
0.0
  0
POINT
  5
EBA
330
B99
100
AcDbEntity
  8
DEFPOINTS
  6
CONTINUOUS
 62
     0
100
AcDbPoint
 10
268.328696827553
 20
211.6507282201759
 30
0.0
  0
POINT
  5
EBB
330
B99
100
AcDbEntity
  8
DEFPOINTS
  6
CONTINUOUS
 62
     0
100
AcDbPoint
 10
235.1381862470218
 20
211.6507282201759
 30
0.0
  0
ENDBLK
  5
BA4
330
B99
100
AcDbEntity
  8
0
100
AcDbBlockEnd
  0
BLOCK
  5
BB0
330
BA6
100
AcDbEntity
  8
0
100
AcDbBlockBegin
  2
*D4
 70
     1
 10
0.0
 20
0.0
 30
0.0
  3
*D4
  1

  0
LINE
  5
EBC
330
BA6
100
AcDbEntity
  8
SUNPOU
  6
CONTINUOUS
 62
     4
100
AcDbLine
 10
36.18267945457273
 20
238.1507373639282
 30
0.0
 11
36.18267945457273
 21
278.5594231486973
 31
0.0
  0
LINE
  5
EBD
330
BA6
100
AcDbEntity
  8
SUNPOU
  6
CONTINUOUS
 62
     4
100
AcDbLine
 10
192.7901794422836
 20
239.1507388153199
 30
0.0
 11
192.7901794422836
 21
278.5594231486973
 31
0.0
  0
LINE
  5
EBE
330
BA6
100
AcDbEntity
  8
SUNPOU
  6
CONTINUOUS
 62
     4
100
AcDbLine
 10
43.18267945457273
 20
275.5594231486973
 30
0.0
 11
185.7901794422835
 21
275.5594231486973
 31
0.0
  0
INSERT
  5
EBF
330
BA6
100
AcDbEntity
  8
SUNPOU
  6
CONTINUOUS
 62
     4
100
AcDbBlockReference
  2
_OPEN
 10
36.18267945457273
 20
275.5594231486973
 30
0.0
 41
7.0
 42
7.0
 43
7.0
 50
180.0
  0
INSERT
  5
EC0
330
BA6
100
AcDbEntity
  8
SUNPOU
  6
CONTINUOUS
 62
     4
100
AcDbBlockReference
  2
_OPEN
 10
192.7901794422836
 20
275.5594231486973
 30
0.0
 41
7.0
 42
7.0
 43
7.0
  0
MTEXT
  5
EC1
330
BA6
100
AcDbEntity
  8
SUNPOU
  6
CONTINUOUS
 62
     4
100
AcDbMText
 10
114.4864294484281
 20
280.5594231486973
 30
0.0
 40
6.0
 41
0.0
 71
     5
 72
     5
  1
\A1;157
1001
ACAD
1000
MTEXTBEGIN
1070
    73
1070
     1
1070
    44
1040
1.0
1070
    74
1070
     0
1000
MTEXTEND
1000
MTEXTBEGIN
1070
    73
1070
     1
1070
    44
1040
1.0
1070
    74
1070
     0
1000
MTEXTEND
  0
POINT
  5
EC2
330
BA6
100
AcDbEntity
  8
DEFPOINTS
  6
CONTINUOUS
 62
     0
100
AcDbPoint
 10
36.18267945457273
 20
232.1507373639282
 30
0.0
  0
POINT
  5
EC3
330
BA6
100
AcDbEntity
  8
DEFPOINTS
  6
CONTINUOUS
 62
     0
100
AcDbPoint
 10
192.7901794422836
 20
233.1507388153199
 30
0.0
  0
POINT
  5
EC4
330
BA6
100
AcDbEntity
  8
DEFPOINTS
  6
CONTINUOUS
 62
     0
100
AcDbPoint
 10
192.7901794422836
 20
275.5594231486973
 30
0.0
  0
ENDBLK
  5
BB1
330
BA6
100
AcDbEntity
  8
0
100
AcDbBlockEnd
  0
BLOCK
  5
C28
330
C1E
100
AcDbEntity
  8
0
100
AcDbBlockBegin
  2
*D5
 70
     1
 10
0.0
 20
0.0
 30
0.0
  3
*D5
  1

  0
LINE
  5
EC5
330
C1E
100
AcDbEntity
  8
SUNPOU
 62
     4
100
AcDbLine
 10
261.352496827553
 20
343.4190111061053
 30
0.0
 11
242.9153407743833
 21
343.4190111061053
 31
0.0
  0
LINE
  5
EC6
330
C1E
100
AcDbEntity
  8
SUNPOU
 62
     4
100
AcDbLine
 10
261.352496827553
 20
308.4190111061053
 30
0.0
 11
242.9153407743833
 21
308.4190111061053
 31
0.0
  0
LINE
  5
EC7
330
C1E
100
AcDbEntity
  8
SUNPOU
 62
     4
100
AcDbLine
 10
245.9153407743833
 20
336.4190111061053
 30
0.0
 11
245.9153407743833
 21
315.4190111061053
 31
0.0
  0
INSERT
  5
EC8
330
C1E
100
AcDbEntity
  8
SUNPOU
 62
     4
100
AcDbBlockReference
  2
_OPEN
 10
245.9153407743833
 20
343.4190111061053
 30
0.0
 41
7.0
 42
7.0
 43
7.0
 50
90.0
  0
INSERT
  5
EC9
330
C1E
100
AcDbEntity
  8
SUNPOU
 62
     4
100
AcDbBlockReference
  2
_OPEN
 10
245.9153407743833
 20
308.4190111061053
 30
0.0
 41
7.0
 42
7.0
 43
7.0
 50
270.0
  0
MTEXT
  5
ECA
330
C1E
100
AcDbEntity
  8
SUNPOU
 62
     4
100
AcDbMText
 10
240.9153407743833
 20
325.9190111061054
 30
0.0
 40
6.0
 41
0.0
 71
     5
 72
     5
  1
\A1;\U+203B35
 11
0.0000000000000001
 21
1.0
 31
0.0
1001
ACAD
1000
MTEXTBEGIN
1070
    73
1070
     1
1070
    44
1040
1.0
1070
    74
1070
     0
1000
MTEXTEND
1000
MTEXTBEGIN
1070
    73
1070
     1
1070
    44
1040
1.0
1070
    74
1070
     0
1000
MTEXTEND
  0
POINT
  5
ECB
330
C1E
100
AcDbEntity
  8
DEFPOINTS
 62
     0
100
AcDbPoint
 10
267.3524968275529
 20
343.4190111061053
 30
0.0
  0
POINT
  5
ECC
330
C1E
100
AcDbEntity
  8
DEFPOINTS
 62
     0
100
AcDbPoint
 10
267.3524968275529
 20
308.4190111061053
 30
0.0
  0
POINT
  5
ECD
330
C1E
100
AcDbEntity
  8
DEFPOINTS
 62
     0
100
AcDbPoint
 10
245.9153407743833
 20
308.4190111061053
 30
0.0
  0
ENDBLK
  5
C29
330
C1E
100
AcDbEntity
  8
0
100
AcDbBlockEnd
  0
BLOCK
  5
D00
330
CF6
100
AcDbEntity
  8
0
100
AcDbBlockBegin
  2
*D6
 70
     1
 10
0.0
 20
0.0
 30
0.0
  3
*D6
  1

  0
LINE
  5
EE0
330
CF6
100
AcDbEntity
  8
SUNPOU
  6
CONTINUOUS
 62
     4
100
AcDbLine
 10
549.7872185217484
 20
236.1507282201759
 30
0.0
 11
549.7872185217484
 21
278.5594231486973
 31
0.0
  0
LINE
  5
EE1
330
CF6
100
AcDbEntity
  8
SUNPOU
  6
CONTINUOUS
 62
     4
100
AcDbLine
 10
425.8884185217586
 20
236.0901270195087
 30
0.0
 11
425.8884185217586
 21
278.5594231486973
 31
0.0
  0
LINE
  5
EE2
330
CF6
100
AcDbEntity
  8
SUNPOU
  6
CONTINUOUS
 62
     4
100
AcDbLine
 10
542.7872185217483
 20
275.5594231486973
 30
0.0
 11
432.8884185217585
 21
275.5594231486973
 31
0.0
  0
INSERT
  5
EE3
330
CF6
100
AcDbEntity
  8
SUNPOU
  6
CONTINUOUS
 62
     4
100
AcDbBlockReference
  2
_OPEN
 10
549.7872185217484
 20
275.5594231486973
 30
0.0
 41
7.0
 42
7.0
 43
7.0
  0
INSERT
  5
EE4
330
CF6
100
AcDbEntity
  8
SUNPOU
  6
CONTINUOUS
 62
     4
100
AcDbBlockReference
  2
_OPEN
 10
425.8884185217586
 20
275.5594231486973
 30
0.0
 41
7.0
 42
7.0
 43
7.0
 50
180.0
  0
MTEXT
  5
EE5
330
CF6
100
AcDbEntity
  8
SUNPOU
  6
CONTINUOUS
 62
     4
100
AcDbMText
 10
487.8378185217535
 20
280.5594231486973
 30
0.0
 40
6.0
 41
0.0
 71
     5
 72
     5
  1
\A1;124
1001
ACAD
1000
MTEXTBEGIN
1070
    73
1070
     1
1070
    44
1040
1.0
1070
    74
1070
     0
1000
MTEXTEND
1000
MTEXTBEGIN
1070
    73
1070
     1
1070
    44
1040
1.0
1070
    74
1070
     0
1000
MTEXTEND
  0
POINT
  5
EE6
330
CF6
100
AcDbEntity
  8
DEFPOINTS
  6
CONTINUOUS
 62
     0
100
AcDbPoint
 10
549.7872185217484
 20
230.1507282201759
 30
0.0
  0
POINT
  5
EE7
330
CF6
100
AcDbEntity
  8
DEFPOINTS
  6
CONTINUOUS
 62
     0
100
AcDbPoint
 10
425.8884185217586
 20
230.0901270195087
 30
0.0
  0
POINT
  5
EE8
330
CF6
100
AcDbEntity
  8
DEFPOINTS
  6
CONTINUOUS
 62
     0
100
AcDbPoint
 10
425.8884185217586
 20
275.5594231486973
 30
0.0
  0
ENDBLK
  5
D01
330
CF6
100
AcDbEntity
  8
0
100
AcDbBlockEnd
  0
BLOCK
  5
D0C
330
D02
100
AcDbEntity
  8
0
100
AcDbBlockBegin
  2
*D7
 70
     1
 10
0.0
 20
0.0
 30
0.0
  3
*D7
  1

  0
LINE
  5
ED7
330
D02
100
AcDbEntity
  8
SUNPOU
  6
CONTINUOUS
 62
     4
100
AcDbLine
 10
552.7867593437687
 20
232.1507373639282
 30
0.0
 11
600.4131143071056
 21
232.1507373639282
 31
0.0
  0
LINE
  5
ED8
330
D02
100
AcDbEntity
  8
SUNPOU
  6
CONTINUOUS
 62
     4
100
AcDbLine
 10
502.0789593437698
 20
173.6507107110554
 30
0.0
 11
600.4131143071056
 21
173.6507107110553
 31
0.0
  0
LINE
  5
ED9
330
D02
100
AcDbEntity
  8
SUNPOU
  6
CONTINUOUS
 62
     4
100
AcDbLine
 10
597.4131143071056
 20
225.1507373639282
 30
0.0
 11
597.4131143071056
 21
180.6507107110553
 31
0.0
  0
INSERT
  5
EDA
330
D02
100
AcDbEntity
  8
SUNPOU
  6
CONTINUOUS
 62
     4
100
AcDbBlockReference
  2
_OPEN
 10
597.4131143071056
 20
232.1507373639282
 30
0.0
 41
7.0
 42
7.0
 43
7.0
 50
90.0
  0
INSERT
  5
EDB
330
D02
100
AcDbEntity
  8
SUNPOU
  6
CONTINUOUS
 62
     4
100
AcDbBlockReference
  2
_OPEN
 10
597.4131143071056
 20
173.6507107110553
 30
0.0
 41
7.0
 42
7.0
 43
7.0
 50
270.0
  0
MTEXT
  5
EDC
330
D02
100
AcDbEntity
  8
SUNPOU
  6
CONTINUOUS
 62
     4
100
AcDbMText
 10
592.4131143071056
 20
202.9007240374919
 30
0.0
 40
6.0
 41
0.0
 71
     5
 72
     5
  1
\A1;59
 11
0.0000000000000001
 21
1.0
 31
0.0
1001
ACAD
1000
MTEXTBEGIN
1070
    73
1070
     1
1070
    44
1040
1.0
1070
    74
1070
     0
1000
MTEXTEND
1000
MTEXTBEGIN
1070
    73
1070
     1
1070
    44
1040
1.0
1070
    74
1070
     0
1000
MTEXTEND
  0
POINT
  5
EDD
330
D02
100
AcDbEntity
  8
DEFPOINTS
  6
CONTINUOUS
 62
     0
100
AcDbPoint
 10
546.7867593437687
 20
232.1507373639282
 30
0.0
  0
POINT
  5
EDE
330
D02
100
AcDbEntity
  8
DEFPOINTS
  6
CONTINUOUS
 62
     0
100
AcDbPoint
 10
496.0789593437699
 20
173.6507107110554
 30
0.0
  0
POINT
  5
EDF
330
D02
100
AcDbEntity
  8
DEFPOINTS
  6
CONTINUOUS
 62
     0
100
AcDbPoint
 10
597.4131143071056
 20
173.6507107110553
 30
0.0
  0
ENDBLK
  5
D0D
330
D02
100
AcDbEntity
  8
0
100
AcDbBlockEnd
  0
BLOCK
  5
D18
330
D0E
100
AcDbEntity
  8
0
100
AcDbBlockBegin
  2
*D8
 70
     1
 10
0.0
 20
0.0
 30
0.0
  3
*D8
  1

  0
LINE
  5
EE9
330
D0E
100
AcDbEntity
  8
SUNPOU
  6
CONTINUOUS
 62
     4
100
AcDbLine
 10
552.7867593437687
 20
232.1507373639282
 30
0.0
 11
583.9627699242998
 21
232.1507373639282
 31
0.0
  0
LINE
  5
EEA
330
D0E
100
AcDbEntity
  8
SUNPOU
  6
CONTINUOUS
 62
     4
100
AcDbLine
 10
553.7722593437687
 20
211.6507282201759
 30
0.0
 11
583.9627699242998
 21
211.6507282201759
 31
0.0
  0
LINE
  5
EEB
330
D0E
100
AcDbEntity
  8
SUNPOU
  6
CONTINUOUS
 62
     4
100
AcDbLine
 10
580.9627699242999
 20
225.1507373639282
 30
0.0
 11
580.9627699242999
 21
218.6507282201759
 31
0.0
  0
INSERT
  5
EEC
330
D0E
100
AcDbEntity
  8
SUNPOU
  6
CONTINUOUS
 62
     4
100
AcDbBlockReference
  2
_OPEN
 10
580.9627699242999
 20
232.1507373639282
 30
0.0
 41
7.0
 42
7.0
 43
7.0
 50
90.0
  0
INSERT
  5
EED
330
D0E
100
AcDbEntity
  8
SUNPOU
  6
CONTINUOUS
 62
     4
100
AcDbBlockReference
  2
_OPEN
 10
580.9627699242999
 20
211.6507282201759
 30
0.0
 41
7.0
 42
7.0
 43
7.0
 50
270.0
  0
MTEXT
  5
EEE
330
D0E
100
AcDbEntity
  8
SUNPOU
  6
CONTINUOUS
 62
     4
100
AcDbMText
 10
575.9627699242998
 20
221.9007327920521
 30
0.0
 40
6.0
 41
0.0
 71
     5
 72
     5
  1
\A1;21
 11
0.0000000000000001
 21
1.0
 31
0.0
1001
ACAD
1000
MTEXTBEGIN
1070
    73
1070
     1
1070
    44
1040
1.0
1070
    74
1070
     0
1000
MTEXTEND
1000
MTEXTBEGIN
1070
    73
1070
     1
1070
    44
1040
1.0
1070
    74
1070
     0
1000
MTEXTEND
  0
POINT
  5
EEF
330
D0E
100
AcDbEntity
  8
DEFPOINTS
  6
CONTINUOUS
 62
     0
100
AcDbPoint
 10
546.7867593437687
 20
232.1507373639282
 30
0.0
  0
POINT
  5
EF0
330
D0E
100
AcDbEntity
  8
DEFPOINTS
  6
CONTINUOUS
 62
     0
100
AcDbPoint
 10
547.7722593437687
 20
211.6507282201759
 30
0.0
  0
POINT
  5
EF1
330
D0E
100
AcDbEntity
  8
DEFPOINTS
  6
CONTINUOUS
 62
     0
100
AcDbPoint
 10
580.9627699242999
 20
211.6507282201759
 30
0.0
  0
ENDBLK
  5
D19
330
D0E
100
AcDbEntity
  8
0
100
AcDbBlockEnd
  0
BLOCK
  5
D24
330
D1A
100
AcDbEntity
  8
0
100
AcDbBlockBegin
  2
*D9
 70
     1
 10
0.0
 20
0.0
 30
0.0
  3
*D9
  1

  0
LINE
  5
ECE
330
D1A
100
AcDbEntity
  8
SUNPOU
  6
CONTINUOUS
 62
     4
100
AcDbLine
 10
779.918276716749
 20
238.1507373639282
 30
0.0
 11
779.918276716749
 21
278.5594231486973
 31
0.0
  0
LINE
  5
ECF
330
D1A
100
AcDbEntity
  8
SUNPOU
  6
CONTINUOUS
 62
     4
100
AcDbLine
 10
623.3107767290381
 20
239.1507388153199
 30
0.0
 11
623.3107767290381
 21
278.5594231486973
 31
0.0
  0
LINE
  5
ED0
330
D1A
100
AcDbEntity
  8
SUNPOU
  6
CONTINUOUS
 62
     4
100
AcDbLine
 10
772.918276716749
 20
275.5594231486973
 30
0.0
 11
630.3107767290381
 21
275.5594231486973
 31
0.0
  0
INSERT
  5
ED1
330
D1A
100
AcDbEntity
  8
SUNPOU
  6
CONTINUOUS
 62
     4
100
AcDbBlockReference
  2
_OPEN
 10
779.918276716749
 20
275.5594231486973
 30
0.0
 41
7.0
 42
7.0
 43
7.0
  0
INSERT
  5
ED2
330
D1A
100
AcDbEntity
  8
SUNPOU
  6
CONTINUOUS
 62
     4
100
AcDbBlockReference
  2
_OPEN
 10
623.3107767290381
 20
275.5594231486973
 30
0.0
 41
7.0
 42
7.0
 43
7.0
 50
180.0
  0
MTEXT
  5
ED3
330
D1A
100
AcDbEntity
  8
SUNPOU
  6
CONTINUOUS
 62
     4
100
AcDbMText
 10
701.6145267228935
 20
280.5594231486973
 30
0.0
 40
6.0
 41
0.0
 71
     5
 72
     5
  1
\A1;157
1001
ACAD
1000
MTEXTBEGIN
1070
    73
1070
     1
1070
    44
1040
1.0
1070
    74
1070
     0
1000
MTEXTEND
1000
MTEXTBEGIN
1070
    73
1070
     1
1070
    44
1040
1.0
1070
    74
1070
     0
1000
MTEXTEND
  0
POINT
  5
ED4
330
D1A
100
AcDbEntity
  8
DEFPOINTS
  6
CONTINUOUS
 62
     0
100
AcDbPoint
 10
779.918276716749
 20
232.1507373639282
 30
0.0
  0
POINT
  5
ED5
330
D1A
100
AcDbEntity
  8
DEFPOINTS
  6
CONTINUOUS
 62
     0
100
AcDbPoint
 10
623.3107767290381
 20
233.1507388153199
 30
0.0
  0
POINT
  5
ED6
330
D1A
100
AcDbEntity
  8
DEFPOINTS
  6
CONTINUOUS
 62
     0
100
AcDbPoint
 10
623.3107767290381
 20
275.5594231486973
 30
0.0
  0
ENDBLK
  5
D25
330
D1A
100
AcDbEntity
  8
0
100
AcDbBlockEnd
  0
BLOCK
  5
D30
330
D26
100
AcDbEntity
  8
0
100
AcDbBlockBegin
  2
*D10
 70
     1
 10
0.0
 20
0.0
 30
0.0
  3
*D10
  1

  0
LINE
  5
EF2
330
D26
100
AcDbEntity
  8
SUNPOU
 62
     4
100
AcDbLine
 10
554.7484593437686
 20
343.4190111061053
 30
0.0
 11
573.1856153969383
 21
343.4190111061053
 31
0.0
  0
LINE
  5
EF3
330
D26
100
AcDbEntity
  8
SUNPOU
 62
     4
100
AcDbLine
 10
554.7484593437686
 20
308.4190111061053
 30
0.0
 11
573.1856153969383
 21
308.4190111061053
 31
0.0
  0
LINE
  5
EF4
330
D26
100
AcDbEntity
  8
SUNPOU
 62
     4
100
AcDbLine
 10
570.1856153969384
 20
336.4190111061053
 30
0.0
 11
570.1856153969384
 21
315.4190111061053
 31
0.0
  0
INSERT
  5
EF5
330
D26
100
AcDbEntity
  8
SUNPOU
 62
     4
100
AcDbBlockReference
  2
_OPEN
 10
570.1856153969384
 20
343.4190111061053
 30
0.0
 41
7.0
 42
7.0
 43
7.0
 50
90.0
  0
INSERT
  5
EF6
330
D26
100
AcDbEntity
  8
SUNPOU
 62
     4
100
AcDbBlockReference
  2
_OPEN
 10
570.1856153969384
 20
308.4190111061053
 30
0.0
 41
7.0
 42
7.0
 43
7.0
 50
270.0
  0
MTEXT
  5
EF7
330
D26
100
AcDbEntity
  8
SUNPOU
 62
     4
100
AcDbMText
 10
565.1856153969382
 20
325.9190111061054
 30
0.0
 40
6.0
 41
0.0
 71
     5
 72
     5
  1
\A1;\U+203B35
 11
0.0000000000000001
 21
1.0
 31
0.0
1001
ACAD
1000
MTEXTBEGIN
1070
    73
1070
     1
1070
    44
1040
1.0
1070
    74
1070
     0
1000
MTEXTEND
1000
MTEXTBEGIN
1070
    73
1070
     1
1070
    44
1040
1.0
1070
    74
1070
     0
1000
MTEXTEND
  0
POINT
  5
EF8
330
D26
100
AcDbEntity
  8
DEFPOINTS
 62
     0
100
AcDbPoint
 10
548.7484593437686
 20
343.4190111061053
 30
0.0
  0
POINT
  5
EF9
330
D26
100
AcDbEntity
  8
DEFPOINTS
 62
     0
100
AcDbPoint
 10
548.7484593437686
 20
308.4190111061053
 30
0.0
  0
POINT
  5
EFA
330
D26
100
AcDbEntity
  8
DEFPOINTS
 62
     0
100
AcDbPoint
 10
570.1856153969384
 20
308.4190111061053
 30
0.0
  0
ENDBLK
  5
D31
330
D26
100
AcDbEntity
  8
0
100
AcDbBlockEnd
  0
ENDSEC
  0
SECTION
  2
ENTITIES
  0
TEXT
  5
402
330
1A
100
AcDbEntity
  8
SUNPOU
 62
     4
100
AcDbText
 10
634.5615855549013
 20
46.54899986890053
 30
0.0
 40
8.0
  1
※　のきといの差込み寸法を示す
100
AcDbText
  0
TEXT
  5
4F7
330
1A
100
AcDbEntity
  8
ZUWAKU
 62
     4
 48
5.0
100
AcDbText
 10
587.2672605012062
 20
130.1259121302157
 30
0.0
 40
8.0
  1
右
100
AcDbText
  0
TEXT
  5
5A4
330
1A
100
AcDbEntity
  8
ZUWAKU
 62
     4
 48
5.0
100
AcDbText
 10
215.1104035292805
 20
130.0708743363375
 30
0.0
 40
8.0
  1
左
100
AcDbText
  0
LINE
  5
7E0
330
1A
100
AcDbEntity
  8
CENTER_L
 48
5.0
100
AcDbLine
 10
328.313696827553
 20
301.0669111061052
 30
0.0
 11
328.3137968275529
 21
413.9034111061053
 31
0.0
  0
LINE
  5
7E3
330
1A
100
AcDbEntity
  8
SEIHIN
100
AcDbLine
 10
376.946896827553
 20
183.8767582201759
 30
0.0
 11
365.946896827553
 21
174.8767582201759
 31
0.0
  0
LINE
  5
7E4
330
1A
100
AcDbEntity
  8
SEIHIN
100
AcDbLine
 10
377.900696827553
 20
183.365098220176
 30
0.0
 11
366.3038968275529
 21
173.8767582201759
 31
0.0
  0
LINE
  5
7E5
330
1A
100
AcDbEntity
  8
SEIHIN
100
AcDbLine
 10
375.9965786275529
 20
184.3912569201759
 30
0.0
 11
365.594650627553
 21
175.8805658201759
 31
0.0
  0
LINE
  5
7EF
330
1A
100
AcDbEntity
  8
SEIHIN
100
AcDbLine
 10
278.0280104275529
 20
232.1507282201759
 30
0.0
 11
378.599596827553
 21
232.1507282201759
 31
0.0
  0
ARC
  5
7F5
330
1A
100
AcDbEntity
  8
SEIHIN
100
AcDbCircle
 10
320.022096827553
 20
218.6507282201759
 30
0.0
 40
43.9999815127682
100
AcDbArc
 50
189.4876047240497
 51
269.9998697822639
  0
ARC
  5
7F6
330
1A
100
AcDbEntity
  8
SEIHIN
100
AcDbCircle
 10
320.022096827553
 20
218.6507282201759
 30
0.0
 40
45.00001750923163
100
AcDbArc
 50
189.4875451318144
 51
269.9998726760936
  0
ARC
  5
7F7
330
1A
100
AcDbEntity
  8
SEIHIN
100
AcDbCircle
 10
320.022096827553
 20
218.6507282201759
 30
0.0
 40
42.999986575483
100
AcDbArc
 50
189.4890198391071
 51
269.9998667539574
  0
ARC
  5
7F8
330
1A
100
AcDbEntity
  8
SEIHIN
100
AcDbCircle
 10
275.1444968275529
 20
211.1507282201759
 30
0.0
 40
0.5000179738418847
100
AcDbArc
 50
9.48492411307113
 51
90.0
  0
ARC
  5
7F9
330
1A
100
AcDbEntity
  8
SEIHIN
100
AcDbCircle
 10
275.1444968275529
 20
211.1507282201759
 30
0.0
 40
1.50001288769041
100
AcDbArc
 50
9.489325421793404
 51
90.0
  0
ARC
  5
7FD
330
1A
100
AcDbEntity
  8
SEIHIN
100
AcDbCircle
 10
268.328696827553
 20
213.1507282201759
 30
0.0
 40
1.499993609866717
100
AcDbArc
 50
181.7344321595511
 51
270.0
  0
LINE
  5
802
330
1A
100
AcDbEntity
  8
SEIHIN
100
AcDbLine
 10
266.314696827553
 20
230.0901282201759
 30
0.0
 11
266.829396827553
 21
213.1053282201759
 31
0.0
  0
LINE
  5
803
330
1A
100
AcDbEntity
  8
SEIHIN
100
AcDbLine
 10
267.799496827553
 20
214.1053282201759
 30
0.0
 11
267.315096827553
 21
230.0901282201759
 31
0.0
  0
LINE
  5
804
330
1A
100
AcDbEntity
  8
SEIHIN
100
AcDbLine
 10
268.376124327553
 20
228.0925188201759
 30
0.0
 11
268.769565227553
 21
215.1096695201759
 31
0.0
  0
LINE
  5
805
330
1A
100
AcDbEntity
  8
SEIHIN
100
AcDbLine
 10
268.328696827553
 20
211.6507282201759
 30
0.0
 11
275.1444968275529
 21
211.6507282201759
 31
0.0
  0
LINE
  5
806
330
1A
100
AcDbEntity
  8
SEIHIN
100
AcDbLine
 10
275.1444968275529
 20
212.6507282201759
 30
0.0
 11
269.298796827553
 21
212.6507282201759
 31
0.0
  0
LINE
  5
807
330
1A
100
AcDbEntity
  8
SEIHIN
100
AcDbLine
 10
270.271413427553
 20
213.6507282201759
 30
0.0
 11
328.313696827553
 21
213.6507282201759
 31
0.0
  0
ARC
  5
808
330
1A
100
AcDbEntity
  8
SEIHIN
100
AcDbCircle
 10
269.298796827553
 20
214.1507282201759
 30
0.0
 40
1.499993609866717
100
AcDbArc
 50
181.7344321595511
 51
270.0
  0
ARC
  5
809
330
1A
100
AcDbEntity
  8
SEIHIN
100
AcDbCircle
 10
270.2689968275529
 20
215.1507282201759
 30
0.0
 40
1.499993646644641
100
AcDbArc
 50
181.5685293715319
 51
270.0923077514191
  0
ARC
  5
80A
330
1A
100
AcDbEntity
  8
SEIHIN
100
AcDbCircle
 10
275.1444968275529
 20
211.1507282201759
 30
0.0
 40
2.499999617785555
100
AcDbArc
 50
9.464294623999334
 51
90.0
  0
LINE
  5
80C
330
1A
100
AcDbEntity
  8
SEIHIN
100
AcDbLine
 10
275.113796827553
 20
230.1507282201759
 30
0.0
 11
270.3692482275529
 21
230.1507282201759
 31
0.0
  0
LINE
  5
80D
330
1A
100
AcDbEntity
  8
SEIHIN
100
AcDbLine
 10
268.313696827553
 20
232.1507282201759
 30
0.0
 11
274.881696827553
 21
232.1507282201759
 31
0.0
  0
ARC
  5
80E
330
1A
100
AcDbEntity
  8
SEIHIN
100
AcDbCircle
 10
269.314196827553
 20
230.1507282201759
 30
0.0
 40
2.000009143752309
100
AcDbArc
 50
90.0
 51
181.7363112956577
  0
ARC
  5
80F
330
1A
100
AcDbEntity
  8
SEIHIN
100
AcDbCircle
 10
270.375296827553
 20
228.1507282201759
 30
0.0
 40
2.000009148391147
100
AcDbArc
 50
90.17327909768898
 51
181.6677957625452
  0
ARC
  5
810
330
1A
100
AcDbEntity
  8
SEIHIN
100
AcDbCircle
 10
268.313696827553
 20
230.1507282201759
 30
0.0
 40
1.999959177979756
100
AcDbArc
 50
90.0
 51
181.7363977374687
  0
ARC
  5
811
330
1A
100
AcDbEntity
  8
SEIHIN
100
AcDbCircle
 10
273.807496827553
 20
232.9569282201759
 30
0.0
 40
4.499994166964098
100
AcDbArc
 50
286.8741290491998
 51
343.1262407170155
  0
ARC
  5
812
330
1A
100
AcDbEntity
  8
SEIHIN
100
AcDbCircle
 10
276.613796827553
 20
231.6507282201759
 30
0.0
 40
1.5
100
AcDbArc
 50
0.0
 51
90.0
  0
ARC
  5
813
330
1A
100
AcDbEntity
  8
SEIHIN
100
AcDbCircle
 10
274.881696827553
 20
234.1507282201759
 30
0.0
 40
2.000021290287709
100
AcDbArc
 50
270.0
 51
330.0007026130983
  0
LINE
  5
814
330
1A
100
AcDbEntity
  8
SEIHIN
100
AcDbLine
 10
275.113796827553
 20
230.1508282201759
 30
0.0
 11
275.113796827553
 21
228.6507282201759
 31
0.0
  0
LINE
  5
816
330
1A
100
AcDbEntity
  8
SEIHIN
100
AcDbLine
 10
365.313696827553
 20
174.6507082201759
 30
0.0
 11
320.022096827553
 21
174.6507082201759
 31
0.0
  0
LINE
  5
817
330
1A
100
AcDbEntity
  8
SEIHIN
100
AcDbLine
 10
365.670596827553
 20
173.6507082201759
 30
0.0
 11
320.022096827553
 21
173.6507082201759
 31
0.0
  0
LINE
  5
818
330
1A
100
AcDbEntity
  8
SEIHIN
100
AcDbLine
 10
320.022096827553
 20
175.6507082201759
 30
0.0
 11
364.962505927553
 21
175.6507082201759
 31
0.0
  0
LINE
  5
819
330
1A
100
AcDbEntity
  8
CENTER_L
 48
5.0
100
AcDbLine
 10
328.313696827553
 20
168.2173882201759
 30
0.0
 11
328.313696827553
 21
210.6092282201759
 31
0.0
  0
ARC
  5
81B
330
1A
100
AcDbEntity
  8
SEIHIN
100
AcDbCircle
 10
365.313696827553
 20
175.6507082201759
 30
0.0
 40
0.9999852368784347
100
AcDbArc
 50
270.0
 51
309.2879954776404
  0
ARC
  5
81C
330
1A
100
AcDbEntity
  8
SEIHIN
100
AcDbCircle
 10
365.670596827553
 20
174.6507082201759
 30
0.0
 40
1.000016904294394
100
AcDbArc
 50
270.0
 51
309.2924274772393
  0
ARC
  5
81D
330
1A
100
AcDbEntity
  8
SEIHIN
100
AcDbCircle
 10
364.956696827553
 20
176.6507082201759
 30
0.0
 40
1.000016877465954
100
AcDbArc
 50
270.3328331689127
 51
309.6369328848775
  0
ARC
  5
81F
330
1A
100
AcDbEntity
  8
SEIHIN
100
AcDbCircle
 10
388.198496827553
 20
213.1507282201759
 30
0.0
 40
1.499993609866689
100
AcDbArc
 50
270.0
 51
358.2655678404472
  0
ARC
  5
820
330
1A
100
AcDbEntity
  8
SEIHIN
100
AcDbCircle
 10
381.4758962275529
 20
211.1507276201759
 30
0.0
 40
2.50000057633207
100
AcDbArc
 50
90.0000160428147
 51
174.2907600855379
  0
ARC
  5
821
330
1A
100
AcDbEntity
  8
SEIHIN
100
AcDbCircle
 10
381.475896827553
 20
211.1507282201759
 30
0.0
 40
1.500019235952838
100
AcDbArc
 50
90.0
 51
174.2916869103896
  0
ARC
  5
822
330
1A
100
AcDbEntity
  8
SEIHIN
100
AcDbCircle
 10
381.475896827553
 20
211.1507282201759
 30
0.0
 40
0.4999931128597423
100
AcDbArc
 50
90.0
 51
174.2837033604717
  0
LINE
  5
828
330
1A
100
AcDbEntity
  8
SEIHIN
100
AcDbLine
 10
379.9832968275529
 20
211.3000282201759
 30
0.0
 11
377.3086968275529
 21
184.5512182201759
 31
0.0
  0
LINE
  5
829
330
1A
100
AcDbEntity
  8
SEIHIN
100
AcDbLine
 10
380.978396827553
 20
211.2004282201759
 30
0.0
 11
378.2624968275529
 21
184.0395682201759
 31
0.0
  0
LINE
  5
82A
330
1A
100
AcDbEntity
  8
SEIHIN
100
AcDbLine
 10
376.354927127553
 20
185.0631812201759
 30
0.0
 11
378.988296827553
 21
211.3994282201759
 31
0.0
  0
ARC
  5
82B
330
1A
100
AcDbEntity
  8
SEIHIN
100
AcDbCircle
 10
376.313696827553
 20
184.6507082201759
 30
0.0
 40
0.9999660317857907
100
AcDbArc
 50
309.2879950473155
 51
354.2899792767071
  0
ARC
  5
82C
330
1A
100
AcDbEntity
  8
SEIHIN
100
AcDbCircle
 10
377.267496827553
 20
184.1390482201759
 30
0.0
 40
0.9999660317857914
100
AcDbArc
 50
309.2879950473155
 51
354.2899792767071
  0
ARC
  5
82D
330
1A
100
AcDbEntity
  8
SEIHIN
100
AcDbCircle
 10
375.359796827553
 20
185.1623682201759
 30
0.0
 40
1.000051839915284
100
AcDbArc
 50
309.5498096751102
 51
354.3079973270384
  0
LINE
  5
830
330
1A
100
AcDbEntity
  8
SEIHIN
100
AcDbLine
 10
388.727696827553
 20
214.1053282201759
 30
0.0
 11
389.212096827553
 21
230.0901282201759
 31
0.0
  0
LINE
  5
831
330
1A
100
AcDbEntity
  8
SEIHIN
100
AcDbLine
 10
389.697896827553
 20
213.1053282201759
 30
0.0
 11
390.212496827553
 21
230.0901282201759
 31
0.0
  0
LINE
  5
832
330
1A
100
AcDbEntity
  8
SEIHIN
100
AcDbLine
 10
388.150855827553
 20
228.0854747201759
 30
0.0
 11
387.7573631275529
 21
215.1009154201759
 31
0.0
  0
LINE
  5
833
330
1A
100
AcDbEntity
  8
SEIHIN
100
AcDbLine
 10
388.198496827553
 20
211.6507282201759
 30
0.0
 11
381.475896827553
 21
211.6507282201759
 31
0.0
  0
LINE
  5
834
330
1A
100
AcDbEntity
  8
SEIHIN
100
AcDbLine
 10
386.257862527553
 20
213.6507282201759
 30
0.0
 11
328.313696827553
 21
213.6507282201759
 31
0.0
  0
LINE
  5
835
330
1A
100
AcDbEntity
  8
SEIHIN
100
AcDbLine
 10
381.475896827553
 20
212.6507282201759
 30
0.0
 11
387.228396827553
 21
212.6507282201759
 31
0.0
  0
ARC
  5
836
330
1A
100
AcDbEntity
  8
SEIHIN
100
AcDbCircle
 10
386.2581968275529
 20
215.1507282201759
 30
0.0
 40
1.499993636969331
100
AcDbArc
 50
269.9872306263384
 51
358.0969332263381
  0
ARC
  5
837
330
1A
100
AcDbEntity
  8
SEIHIN
100
AcDbCircle
 10
387.228396827553
 20
214.1507282201759
 30
0.0
 40
1.499993609866689
100
AcDbArc
 50
270.0
 51
358.2655678404472
  0
LINE
  5
838
330
1A
100
AcDbEntity
  8
SEIHIN
100
AcDbLine
 10
386.145848227553
 20
230.1507282201759
 30
0.0
 11
381.5137968275529
 21
230.1507282201759
 31
0.0
  0
LINE
  5
839
330
1A
100
AcDbEntity
  8
SEIHIN
100
AcDbLine
 10
388.213496827553
 20
232.1507282201759
 30
0.0
 11
381.745796827553
 21
232.1506282201759
 31
0.0
  0
ARC
  5
83B
330
1A
100
AcDbEntity
  8
SEIHIN
100
AcDbCircle
 10
381.745796827553
 20
234.1506282201759
 30
0.0
 40
1.999978020300449
100
AcDbArc
 50
210.0007270932557
 51
270.0
  0
ARC
  5
83C
330
1A
100
AcDbEntity
  8
SEIHIN
100
AcDbCircle
 10
382.819996827553
 20
232.9569282201759
 30
0.0
 40
4.499960833695206
100
AcDbArc
 50
196.8741287595762
 51
253.1246524130023
  0
ARC
  5
83D
330
1A
100
AcDbEntity
  8
SEIHIN
100
AcDbCircle
 10
380.0137968275529
 20
231.6506282201759
 30
0.0
 40
1.5
100
AcDbArc
 50
90.0
 51
180.0
  0
LINE
  5
83E
330
1A
100
AcDbEntity
  8
SEIHIN
100
AcDbLine
 10
381.5137968275529
 20
230.1507282201759
 30
0.0
 11
381.5137968275529
 21
228.6506282201759
 31
0.0
  0
ARC
  5
83F
330
1A
100
AcDbEntity
  8
SEIHIN
100
AcDbCircle
 10
388.213496827553
 20
230.1507282201759
 30
0.0
 40
1.999959177979727
100
AcDbArc
 50
358.2636022625312
 51
90.0
  0
ARC
  5
840
330
1A
100
AcDbEntity
  8
SEIHIN
100
AcDbCircle
 10
386.151896827553
 20
228.1507282201759
 30
0.0
 40
2.00000915834316
100
AcDbArc
 50
358.1303131481178
 51
90.17327909768898
  0
ARC
  5
841
330
1A
100
AcDbEntity
  8
SEIHIN
100
AcDbCircle
 10
387.212996827553
 20
230.1507282201759
 30
0.0
 40
2.000009143752309
100
AcDbArc
 50
358.2636887043422
 51
90.0
  0
LINE
  5
843
330
1A
100
AcDbEntity
  8
SEIHIN
100
AcDbLine
 10
389.396396827553
 20
346.1251111061053
 30
0.0
 11
271.385812527553
 21
464.1356954061053
 31
0.0
  0
LINE
  5
844
330
1A
100
AcDbEntity
  8
SEIHIN
100
AcDbLine
 10
378.920596827553
 20
349.5298111061053
 30
0.0
 11
279.0209968275529
 21
449.4295111061053
 31
0.0
  0
LINE
  5
845
330
1A
100
AcDbEntity
  8
SEIHIN
100
AcDbLine
 10
387.981196827553
 20
344.7118111061052
 30
0.0
 11
269.960296827553
 21
462.7329111061053
 31
0.0
  0
LINE
  5
846
330
1A
100
AcDbEntity
  8
SEIHIN
100
AcDbLine
 10
267.3524968275529
 20
308.4190111061053
 30
0.0
 11
389.274996827553
 21
308.4190111061053
 31
0.0
  0
LINE
  5
847
330
1A
100
AcDbEntity
  8
SEIHIN
100
AcDbLine
 10
266.252196827553
 20
313.4191111061053
 30
0.0
 11
266.252296827553
 21
462.0378303061053
 31
0.0
  0
LINE
  5
848
330
1A
100
AcDbEntity
  8
SEIHIN
100
AcDbLine
 10
277.313796827553
 20
333.4190111061053
 30
0.0
 11
277.3138968275529
 21
448.7224111061053
 31
0.0
  0
LINE
  5
849
330
1A
100
AcDbEntity
  8
SEIHIN
100
AcDbLine
 10
268.2531968275529
 20
335.4190111061053
 30
0.0
 11
268.2531968275529
 21
462.0258111061053
 31
0.0
  0
LINE
  5
84B
330
1A
100
AcDbEntity
  8
SEIHIN
100
AcDbLine
 10
278.113796827553
 20
308.4190111061053
 30
0.0
 11
278.113796827553
 21
333.4191111061053
 31
0.0
  0
LINE
  5
84C
330
1A
100
AcDbEntity
  8
SEIHIN
100
AcDbLine
 10
276.613796827553
 20
308.4190111061053
 30
0.0
 11
276.613796827553
 21
333.4191111061053
 31
0.0
  0
LINE
  5
84D
330
1A
100
AcDbEntity
  8
SEIHIN
100
AcDbLine
 10
274.881696827553
 20
308.4190111061053
 30
0.0
 11
274.881696827553
 21
333.4191111061053
 31
0.0
  0
LINE
  5
84E
330
1A
100
AcDbEntity
  8
SEIHIN
100
AcDbLine
 10
266.352496827553
 20
313.4191111061053
 30
0.0
 11
267.3523968275529
 21
308.4191111061053
 31
0.0
  0
LINE
  5
84F
330
1A
100
AcDbEntity
  8
SEIHIN
100
AcDbLine
 10
278.113796827553
 20
333.4190111061053
 30
0.0
 11
270.2531968275529
 21
333.4190111061053
 31
0.0
  0
ARC
  5
850
330
1A
100
AcDbEntity
  8
SEIHIN
100
AcDbCircle
 10
270.2531968275529
 20
335.4190111061053
 30
0.0
 40
2.0
100
AcDbArc
 50
180.0
 51
270.0
  0
LINE
  5
851
330
1A
100
AcDbEntity
  8
SEIHIN
100
AcDbLine
 10
365.313696827553
 20
308.4190111061053
 30
0.0
 11
365.313696827553
 21
362.7225111061053
 31
0.0
  0
ARC
  5
852
330
1A
100
AcDbEntity
  8
SEIHIN
100
AcDbCircle
 10
364.313696827553
 20
362.7225111061053
 30
0.0
 40
0.9999952091400599
100
AcDbArc
 50
0.0
 51
45.0
  0
ARC
  5
855
330
1A
100
AcDbEntity
  8
SEIHIN
100
AcDbCircle
 10
278.3138968275529
 20
448.7224111061053
 30
0.0
 40
0.99999520914008
100
AcDbArc
 50
44.99999999999885
 51
180.0
  0
ARC
  5
856
330
1A
100
AcDbEntity
  8
SEIHIN
100
AcDbCircle
 10
269.2522968275529
 20
462.0266111061053
 30
0.0
 40
3.000020974685158
100
AcDbArc
 50
44.67006066218058
 51
179.7857300623909
  0
ARC
  5
857
330
1A
100
AcDbEntity
  8
SEIHIN
100
AcDbCircle
 10
269.2531968275529
 20
462.0258111061053
 30
0.0
 40
0.9999952091400599
100
AcDbArc
 50
45.0
 51
180.0
  0
LINE
  5
859
330
1A
100
AcDbEntity
  8
SEIHIN
100
AcDbLine
 10
376.313696827553
 20
308.4190111061053
 30
0.0
 11
376.313696827553
 21
351.7225111061053
 31
0.0
  0
LINE
  5
85A
330
1A
100
AcDbEntity
  8
SEIHIN
100
AcDbLine
 10
390.274996827553
 20
313.4190111061053
 30
0.0
 11
390.274996827553
 21
344.0038111061053
 31
0.0
  0
LINE
  5
85B
330
1A
100
AcDbEntity
  8
SEIHIN
100
AcDbLine
 10
379.2134968275529
 20
333.4190111061053
 30
0.0
 11
379.2134968275529
 21
348.8227111061053
 31
0.0
  0
LINE
  5
85C
330
1A
100
AcDbEntity
  8
SEIHIN
100
AcDbLine
 10
388.274096827553
 20
335.4190111061053
 30
0.0
 11
388.274096827553
 21
344.0047111061053
 31
0.0
  0
LINE
  5
85D
330
1A
100
AcDbEntity
  8
SEIHIN
100
AcDbLine
 10
381.745596827553
 20
308.4189111061053
 30
0.0
 11
381.7456968275529
 21
333.4190111061053
 31
0.0
  0
LINE
  5
85E
330
1A
100
AcDbEntity
  8
SEIHIN
100
AcDbLine
 10
380.0137968275529
 20
308.4189111061053
 30
0.0
 11
380.0137968275529
 21
333.4190111061053
 31
0.0
  0
LINE
  5
85F
330
1A
100
AcDbEntity
  8
SEIHIN
100
AcDbLine
 10
378.513796827553
 20
308.4189111061053
 30
0.0
 11
378.513796827553
 21
333.4190111061053
 31
0.0
  0
LINE
  5
860
330
1A
100
AcDbEntity
  8
SEIHIN
100
AcDbLine
 10
390.274996827553
 20
313.4190111061053
 30
0.0
 11
389.274996827553
 21
308.4190111061053
 31
0.0
  0
LINE
  5
861
330
1A
100
AcDbEntity
  8
SEIHIN
100
AcDbLine
 10
386.274096827553
 20
333.4190111061053
 30
0.0
 11
378.513796827553
 21
333.4190111061053
 31
0.0
  0
ARC
  5
862
330
1A
100
AcDbEntity
  8
SEIHIN
100
AcDbCircle
 10
386.274096827553
 20
335.4190111061053
 30
0.0
 40
2.0
100
AcDbArc
 50
270.0
 51
0.0
  0
ARC
  5
863
330
1A
100
AcDbEntity
  8
SEIHIN
100
AcDbCircle
 10
375.313696827553
 20
351.7225111061053
 30
0.0
 40
0.9999952091400599
100
AcDbArc
 50
0.0
 51
45.0
  0
ARC
  5
864
330
1A
100
AcDbEntity
  8
SEIHIN
100
AcDbCircle
 10
378.213496827553
 20
348.8227111061053
 30
0.0
 40
0.9999952091400599
100
AcDbArc
 50
0.0
 51
45.0
  0
ARC
  5
865
330
1A
100
AcDbEntity
  8
SEIHIN
100
AcDbCircle
 10
387.274096827553
 20
344.0047111061053
 30
0.0
 40
0.9999952091400599
100
AcDbArc
 50
0.0
 51
45.0
  0
ARC
  5
866
330
1A
100
AcDbEntity
  8
SEIHIN
100
AcDbCircle
 10
387.274996827553
 20
344.0038111061053
 30
0.0
 40
2.999985628253527
100
AcDbArc
 50
359.9980901315159
 51
45.0
  0
LINE
  5
A75
330
1A
100
AcDbEntity
  8
SEIHIN
  6
CONTINUOUS
100
AcDbLine
 10
192.7901794545727
 20
232.1507373639282
 30
0.0
 11
36.18267945457285
 21
232.1507373639282
 31
0.0
  0
LINE
  5
A76
330
1A
100
AcDbEntity
  8
SEIHIN
  6
CONTINUOUS
100
AcDbLine
 10
192.7901794422835
 20
233.1507388153199
 30
0.0
 11
167.7901794422836
 21
233.15073881532
 31
0.0
  0
LINE
  5
A77
330
1A
100
AcDbEntity
  8
SEIHIN
  6
CONTINUOUS
100
AcDbLine
 10
187.7902147520909
 20
211.6507437540611
 30
0.0
 11
37.18267969421197
 21
211.6507437540615
 31
0.0
  0
LINE
  5
A78
330
1A
100
AcDbEntity
  8
SEIHIN
  6
CONTINUOUS
100
AcDbLine
 10
187.7902801817166
 20
173.6507082201759
 30
0.0
 11
91.72952882780373
 21
173.6507082201759
 31
0.0
  0
LINE
  5
A7A
330
1A
100
AcDbEntity
  8
SEIHIN
  6
CONTINUOUS
 62
     3
 48
16.0
100
AcDbLine
 10
192.7901801648872
 20
174.3508087009292
 30
0.0
 11
192.7901794422836
 21
233.1507388153199
 31
0.0
  0
LINE
  5
A7B
330
1A
100
AcDbEntity
  8
SEIHIN
  6
CONTINUOUS
 62
     3
 48
16.0
100
AcDbLine
 10
187.790280181716
 20
173.6507085807426
 30
0.0
 11
187.7901794545728
 21
232.1507377239662
 31
0.0
  0
LINE
  5
A7D
330
1A
100
AcDbEntity
  8
SEIHIN
  6
CONTINUOUS
 62
     3
 48
16.0
100
AcDbLine
 10
192.7902801648873
 20
174.3508087009316
 30
0.0
 11
187.790280181716
 21
173.6507085807426
 31
0.0
  0
LINE
  5
A81
330
1A
100
AcDbEntity
  8
SEIHIN
  6
CONTINUOUS
 62
     3
 48
16.0
100
AcDbLine
 10
192.790214735262
 20
212.3508438742504
 30
0.0
 11
187.7902147520907
 21
211.6507437540615
 31
0.0
  0
LINE
  5
A84
330
1A
100
AcDbEntity
  8
SEIHIN
  6
CONTINUOUS
 62
     3
 48
16.0
100
AcDbLine
 10
167.7901794545728
 20
232.1507373639282
 30
0.0
 11
167.7901794422836
 21
233.1507388153199
 31
0.0
  0
LINE
  5
A85
330
1A
100
AcDbEntity
  8
SEIHIN
  6
CONTINUOUS
 62
     3
 48
16.0
100
AcDbLine
 10
36.18267969421196
 20
212.6507437417723
 30
0.0
 11
36.18267945457273
 21
232.1507373639282
 31
0.0
  0
ARC
  5
AAA
330
1A
100
AcDbEntity
  8
SEIHIN
  6
CONTINUOUS
100
AcDbCircle
 10
96.34081813322223
 20
220.8964366846783
 30
0.0
 40
47.47023116859396
100
AcDbArc
 50
192.2033031136983
 51
264.4254597686111
  0
ARC
  5
AAB
330
1A
100
AcDbEntity
  8
SEIHIN
  6
CONTINUOUS
100
AcDbCircle
 10
37.18267969421197
 20
212.6507437540615
 30
0.0
 40
1.0
100
AcDbArc
 50
180.0000007041187
 51
270.0
  0
ARC
  5
AAC
330
1A
100
AcDbEntity
  8
SEIHIN
  6
CONTINUOUS
100
AcDbCircle
 10
48.96583437693528
 20
210.6507437540615
 30
0.0
 40
1.0
100
AcDbArc
 50
12.20330311369801
 51
90.0
  0
ARC
  5
B2C
330
1A
100
AcDbEntity
  8
NOKITOI
  6
PHANTOM
 62
     8
 48
3.5
100
AcDbCircle
 10
320.1272412289787
 20
218.6508033920485
 30
0.0
 40
41.79999437547816
100
AcDbArc
 50
184.474295212525
 51
269.9998545921086
  0
ARC
  5
B2D
330
1A
100
AcDbEntity
  8
NOKITOI
  6
PHANTOM
 62
     8
 48
3.5
100
AcDbCircle
 10
320.1272189205535
 20
218.6508234930749
 30
0.0
 40
43.00001447645168
100
AcDbArc
 50
186.524910707118
 51
269.999888375144
  0
ARC
  5
B2E
330
1A
100
AcDbEntity
  8
NOKITOI
  6
PHANTOM
 62
     8
 48
3.5
100
AcDbCircle
 10
273.82885535968
 20
220.6508677450849
 30
0.0
 40
5.2000412730095
100
AcDbArc
 50
90.00132454306161
 51
142.0757990790561
  0
LINE
  5
B2F
330
1A
100
AcDbEntity
  8
NOKITOI
  6
PHANTOM
 62
     8
 48
3.5
100
AcDbLine
 10
270.3771351470106
 20
230.6508090167048
 30
0.0
 11
273.7037351470109
 21
230.6508090167048
 31
0.0
  0
LINE
  5
B30
330
1A
100
AcDbEntity
  8
NOKITOI
  6
PHANTOM
 62
     8
 48
3.5
100
AcDbLine
 10
270.3771351470106
 20
229.450809016705
 30
0.0
 11
272.8499351470111
 21
229.450809016705
 31
0.0
  0
LINE
  5
B31
330
1A
100
AcDbEntity
  8
NOKITOI
  6
PHANTOM
 62
     8
 48
3.5
100
AcDbLine
 10
270.2675351470108
 20
214.6508090167049
 30
0.0
 11
276.4122351470106
 21
214.6508090167049
 31
0.0
  0
ARC
  5
B32
330
1A
100
AcDbEntity
  8
NOKITOI
  6
PHANTOM
 62
     8
 48
3.5
100
AcDbCircle
 10
271.9152487191492
 20
217.8507958616185
 30
0.0
 40
1.999986844959662
100
AcDbArc
 50
181.7875531852363
 51
269.9996111843223
  0
ARC
  5
B33
330
1A
100
AcDbEntity
  8
NOKITOI
  6
PHANTOM
 62
     8
 48
3.5
100
AcDbCircle
 10
273.8287730284575
 20
220.6508527992302
 30
0.0
 40
3.999989731271038
100
AcDbArc
 50
96.47731142013148
 51
181.7899836067308
  0
LINE
  5
B34
330
1A
100
AcDbEntity
  8
NOKITOI
  6
PHANTOM
 62
     8
 48
3.5
100
AcDbLine
 10
269.5775351470112
 20
228.6258090167048
 30
0.0
 11
269.7269351470105
 21
223.846909016705
 31
0.0
  0
ARC
  5
B35
330
1A
100
AcDbEntity
  8
NOKITOI
  6
PHANTOM
 62
     8
 48
3.5
100
AcDbCircle
 10
270.3771478978607
 20
228.6508221717913
 30
0.0
 40
1.999986844954076
100
AcDbArc
 50
90.00036528735526
 51
181.7883072882699
  0
ARC
  5
B36
330
1A
100
AcDbEntity
  8
NOKITOI
  6
PHANTOM
 62
     8
 48
3.5
100
AcDbCircle
 10
270.3771396418089
 20
228.6508136542317
 30
0.0
 40
0.7999953624857498
100
AcDbArc
 50
90.00032191805338
 51
181.7911273464199
  0
LINE
  5
B37
330
1A
100
AcDbEntity
  8
NOKITOI
  6
PHANTOM
 62
     8
 48
3.5
100
AcDbLine
 10
269.9162351470105
 20
217.7884090167049
 30
0.0
 11
269.8307351470109
 21
220.5259090167048
 31
0.0
  0
ARC
  5
B38
330
1A
100
AcDbEntity
  8
NOKITOI
  6
PHANTOM
 62
     8
 48
3.5
100
AcDbCircle
 10
270.2675711061617
 20
216.1507741625616
 30
0.0
 40
1.499965146287778
100
AcDbArc
 50
181.7866280217767
 51
269.9986264296976
  0
LINE
  5
B39
330
1A
100
AcDbEntity
  8
NOKITOI
  6
PHANTOM
 62
     8
 48
3.5
100
AcDbLine
 10
268.3781351470108
 20
228.5883090167049
 30
0.0
 11
268.7683351470106
 21
216.1040090167048
 31
0.0
  0
LINE
  5
B3A
330
1A
100
AcDbEntity
  8
NOKITOI
  6
PHANTOM
 62
     8
 48
3.5
100
AcDbLine
 10
320.1272351470108
 20
176.8508090167049
 30
0.0
 11
364.7068351470108
 21
176.8507090167049
 31
0.0
  0
LINE
  5
B3B
330
1A
100
AcDbEntity
  8
NOKITOI
  6
PHANTOM
 62
     8
 48
3.5
100
AcDbLine
 10
364.9566351470109
 20
175.6507090167049
 30
0.0
 11
320.1272351470108
 21
175.6508090167049
 31
0.0
  0
ARC
  5
B3C
330
1A
100
AcDbEntity
  8
NOKITOI
  6
PHANTOM
 62
     8
 48
3.5
100
AcDbCircle
 10
276.4122267228482
 20
213.6508165317613
 30
0.0
 40
0.9999924849789756
100
AcDbArc
 50
6.528264606674433
 51
89.99951732740889
  0
LINE
  5
B3D
330
1A
100
AcDbEntity
  8
NOKITOI
  6
PHANTOM
 62
     8
 48
3.5
100
AcDbLine
 10
272.349935147011
 20
226.950809016705
 30
0.0
 11
275.2864351470108
 21
226.950809016705
 31
0.0
  0
LINE
  5
B3E
330
1A
100
AcDbEntity
  8
NOKITOI
  6
PHANTOM
 62
     8
 48
3.5
100
AcDbLine
 10
273.9332351470108
 20
228.7489090167048
 30
0.0
 11
274.1940351470109
 21
230.0528090167049
 31
0.0
  0
ARC
  5
B3F
330
1A
100
AcDbEntity
  8
NOKITOI
  6
PHANTOM
 62
     8
 48
3.5
100
AcDbCircle
 10
273.7037343640023
 20
230.1508099717066
 30
0.0
 40
0.4999990449987349
100
AcDbArc
 50
348.6967198015448
 51
89.99991027369452
  0
LINE
  5
B40
330
1A
100
AcDbEntity
  8
NOKITOI
  6
PHANTOM
 62
     8
 48
3.5
100
AcDbLine
 10
274.2906351470111
 20
225.8508090167049
 30
0.0
 11
273.8287351470109
 21
225.8508090167049
 31
0.0
  0
ARC
  5
B41
330
1A
100
AcDbEntity
  8
NOKITOI
  6
PHANTOM
 62
     8
 48
3.5
100
AcDbCircle
 10
274.4235278924554
 20
228.6508178665483
 30
0.0
 40
0.5000088498959383
100
AcDbArc
 50
168.6864043304884
 51
270.0008312961434
  0
ARC
  5
B42
330
1A
100
AcDbEntity
  8
NOKITOI
  6
PHANTOM
 62
     8
 48
3.5
100
AcDbCircle
 10
273.4339493654262
 20
224.1284943824039
 30
0.0
 40
0.5000073448410256
100
AcDbArc
 50
351.8729478641243
 51
96.47829282996841
  0
LINE
  5
B43
330
1A
100
AcDbEntity
  8
NOKITOI
  6
PHANTOM
 62
     8
 48
3.5
100
AcDbLine
 10
274.2906351470111
 20
225.8508090167049
 30
0.0
 11
275.2864351470108
 21
226.950809016705
 31
0.0
  0
LINE
  5
B44
330
1A
100
AcDbEntity
  8
NOKITOI
  6
PHANTOM
 62
     8
 48
3.5
100
AcDbLine
 10
275.301335147011
 20
225.1792090167048
 30
0.0
 11
275.8563351470108
 21
225.792309016705
 31
0.0
  0
LINE
  5
B45
330
1A
100
AcDbEntity
  8
NOKITOI
  6
PHANTOM
 62
     8
 48
3.5
100
AcDbLine
 10
276.6550351470106
 20
228.1508090167049
 30
0.0
 11
274.4235351470107
 21
228.1508090167049
 31
0.0
  0
ARC
  5
B46
330
1A
100
AcDbEntity
  8
NOKITOI
  6
PHANTOM
 62
     8
 48
3.5
100
AcDbCircle
 10
276.6550289458529
 20
227.6508155517901
 30
0.0
 40
0.4999934649531607
100
AcDbArc
 50
356.9955363203384
 51
89.99928939038005
  0
LINE
  5
B47
330
1A
100
AcDbEntity
  8
NOKITOI
  6
PHANTOM
 62
     8
 48
3.5
100
AcDbLine
 10
272.8499351470111
 20
229.450809016705
 30
0.0
 11
272.349935147011
 21
226.950809016705
 31
0.0
  0
LINE
  5
B48
330
1A
100
AcDbEntity
  8
NOKITOI
  6
PHANTOM
 62
     8
 48
3.5
100
AcDbLine
 10
275.6751351470108
 20
222.3508090167049
 30
0.0
 11
274.8972351470112
 21
222.3508090167049
 31
0.0
  0
LINE
  5
B49
330
1A
100
AcDbEntity
  8
NOKITOI
  6
PHANTOM
 62
     8
 48
3.5
100
AcDbLine
 10
276.8386351470109
 20
221.6246090167048
 30
0.0
 11
277.1544351470108
 21
227.6245090167049
 31
0.0
  0
LINE
  5
B4A
330
1A
100
AcDbEntity
  8
NOKITOI
  6
PHANTOM
 62
     8
 48
3.5
100
AcDbLine
 10
274.8972351470112
 20
222.3508090167049
 30
0.0
 11
275.301335147011
 21
225.1792090167048
 31
0.0
  0
LINE
  5
B4B
330
1A
100
AcDbEntity
  8
NOKITOI
  6
PHANTOM
 62
     8
 48
3.5
100
AcDbLine
 10
275.6751351470108
 20
222.3508090167049
 30
0.0
 11
275.8563351470108
 21
225.792309016705
 31
0.0
  0
LINE
  5
B4C
330
1A
100
AcDbEntity
  8
NOKITOI
  6
PHANTOM
 62
     8
 48
3.5
100
AcDbLine
 10
273.5952351470106
 20
221.721609016705
 30
0.0
 11
273.9289351470107
 21
224.057809016705
 31
0.0
  0
ARC
  5
B4D
330
1A
100
AcDbEntity
  8
NOKITOI
  6
PHANTOM
 62
     8
 48
3.5
100
AcDbCircle
 10
277.9561477167191
 20
215.3507973919752
 30
0.0
 40
0.5000116248877111
100
AcDbArc
 50
4.474846808342893
 51
90.00144034898339
  0
LINE
  5
B4E
330
1A
100
AcDbEntity
  8
NOKITOI
  6
PHANTOM
 62
     8
 48
3.5
100
AcDbLine
 10
276.3392351470108
 20
221.1508090167049
 30
0.0
 11
274.0901351470108
 21
221.1508090167049
 31
0.0
  0
LINE
  5
B4F
330
1A
100
AcDbEntity
  8
NOKITOI
  6
PHANTOM
 62
     8
 48
3.5
100
AcDbLine
 10
277.9561351470112
 20
215.8508090167049
 30
0.0
 11
271.9152351470108
 21
215.8508090167049
 31
0.0
  0
ARC
  5
B50
330
1A
100
AcDbEntity
  8
NOKITOI
  6
PHANTOM
 62
     8
 48
3.5
100
AcDbCircle
 10
274.0901617476085
 20
221.6507783398228
 30
0.0
 40
0.4999693238254178
100
AcDbArc
 50
171.8555038770532
 51
269.9969516090348
  0
ARC
  5
B51
330
1A
100
AcDbEntity
  8
NOKITOI
  6
PHANTOM
 62
     8
 48
3.5
100
AcDbCircle
 10
276.3392282600158
 20
221.6508024816194
 30
0.0
 40
0.499993464961963
100
AcDbArc
 50
270.0007892017873
 51
356.9970361317427
  0
ARC
  5
B52
330
1A
100
AcDbEntity
  8
NOKITOI
  6
PHANTOM
 62
     8
 48
3.5
100
AcDbCircle
 10
380.2186557968518
 20
213.6508277045541
 30
0.0
 40
0.9999813123640345
100
AcDbArc
 50
90.00118317084957
 51
174.290590033351
  0
LINE
  5
B53
330
1A
100
AcDbEntity
  8
NOKITOI
  6
PHANTOM
 62
     8
 48
3.5
100
AcDbLine
 10
378.182635147011
 20
215.4006090167049
 30
0.0
 11
375.1896351470106
 21
185.4708090167048
 31
0.0
  0
LINE
  5
B54
330
1A
100
AcDbEntity
  8
NOKITOI
  6
PHANTOM
 62
     8
 48
3.5
100
AcDbLine
 10
360.7068351470108
 20
176.8507090167049
 30
0.0
 11
340.7987351470112
 21
176.8507090167049
 31
0.0
  0
LINE
  5
B55
330
1A
100
AcDbEntity
  8
NOKITOI
  6
PHANTOM
 62
     8
 48
3.5
100
AcDbLine
 10
360.9566351470109
 20
175.6507090167049
 30
0.0
 11
340.7987351470112
 21
175.6507090167049
 31
0.0
  0
LINE
  5
B56
330
1A
100
AcDbEntity
  8
NOKITOI
  6
PHANTOM
 62
     8
 48
3.5
100
AcDbLine
 10
379.2236351470112
 20
213.7503090167049
 30
0.0
 11
376.354835147011
 21
185.0629090167048
 31
0.0
  0
ARC
  5
B57
330
1A
100
AcDbEntity
  8
NOKITOI
  6
PHANTOM
 62
     8
 48
3.5
100
AcDbCircle
 10
375.359812574142
 20
185.1623669450323
 30
0.0
 40
0.9999908507640039
100
AcDbArc
 50
309.2887092230696
 51
354.2862329477531
  0
ARC
  5
B58
330
1A
100
AcDbEntity
  8
NOKITOI
  6
PHANTOM
 62
     8
 48
3.5
100
AcDbCircle
 10
374.6921177211326
 20
185.5204765303169
 30
0.0
 40
0.4999904508696396
100
AcDbArc
 50
309.2900846377958
 51
354.2990110749245
  0
ARC
  5
B59
330
1A
100
AcDbEntity
  8
NOKITOI
  6
PHANTOM
 62
     8
 48
3.5
100
AcDbCircle
 10
364.7068415347595
 20
177.3507112966945
 30
0.0
 40
0.5000022800304047
100
AcDbArc
 50
269.9992680212786
 51
309.2854498596058
  0
LINE
  5
B5A
330
1A
100
AcDbEntity
  8
NOKITOI
  6
PHANTOM
 62
     8
 48
3.5
100
AcDbLine
 10
375.0087351470112
 20
185.1335090167049
 30
0.0
 11
365.0234351470109
 21
176.9637090167047
 31
0.0
  0
ARC
  5
B5B
330
1A
100
AcDbEntity
  8
NOKITOI
  6
PHANTOM
 62
     8
 48
3.5
100
AcDbCircle
 10
364.9566282144334
 20
176.6507065416988
 30
0.0
 40
0.9999975250179316
100
AcDbArc
 50
270.0003972084043
 51
309.2946416752298
  0
LINE
  5
B5C
330
1A
100
AcDbEntity
  8
NOKITOI
  6
PHANTOM
 62
     8
 48
3.5
100
AcDbLine
 10
375.9930351470108
 20
184.388409016705
 30
0.0
 11
365.5899351470108
 21
175.876709016705
 31
0.0
  0
LINE
  5
B5D
330
1A
100
AcDbEntity
  8
NOKITOI
  6
PHANTOM
 62
     8
 48
3.5
100
AcDbLine
 10
387.0497351470104
 20
228.6258090167048
 30
0.0
 11
386.9004351470109
 21
223.846809016705
 31
0.0
  0
ARC
  5
B5E
330
1A
100
AcDbEntity
  8
NOKITOI
  6
PHANTOM
 62
     8
 48
3.5
100
AcDbCircle
 10
386.2501239100167
 20
228.650820610522
 30
0.0
 40
1.999988406214315
100
AcDbArc
 50
358.2088726535929
 51
89.99967808195611
  0
ARC
  5
B5F
330
1A
100
AcDbEntity
  8
NOKITOI
  6
PHANTOM
 62
     8
 48
3.5
100
AcDbCircle
 10
386.2501791133638
 20
228.6507636542319
 30
0.0
 40
0.7999453636812564
100
AcDbArc
 50
358.2123436447881
 51
90.00314907315376
  0
LINE
  5
B60
330
1A
100
AcDbEntity
  8
NOKITOI
  6
PHANTOM
 62
     8
 48
3.5
100
AcDbLine
 10
386.7111351470109
 20
217.7882090167049
 30
0.0
 11
386.7966351470105
 21
220.5258090167049
 31
0.0
  0
ARC
  5
B61
330
1A
100
AcDbEntity
  8
NOKITOI
  6
PHANTOM
 62
     8
 48
3.5
100
AcDbCircle
 10
384.7120731348351
 20
217.8507458372771
 30
0.0
 40
2.000036820932882
100
AcDbArc
 50
269.9989117490339
 51
358.2110591274196
  0
ARC
  5
B62
330
1A
100
AcDbEntity
  8
NOKITOI
  6
PHANTOM
 62
     8
 48
3.5
100
AcDbCircle
 10
386.359752360189
 20
216.1508256998526
 30
0.0
 40
1.500016683246579
100
AcDbArc
 50
269.9993425123348
 51
358.207642324411
  0
LINE
  5
B63
330
1A
100
AcDbEntity
  8
NOKITOI
  6
PHANTOM
 62
     8
 48
3.5
100
AcDbLine
 10
388.2491351470109
 20
228.5883090167049
 30
0.0
 11
387.8590351470108
 21
216.1039090167048
 31
0.0
  0
LINE
  5
B64
330
1A
100
AcDbEntity
  8
NOKITOI
  6
PHANTOM
 62
     8
 48
3.5
100
AcDbLine
 10
379.972235147011
 20
228.1508090167049
 30
0.0
 11
382.2037351470109
 21
228.1508090167049
 31
0.0
  0
LINE
  5
B65
330
1A
100
AcDbEntity
  8
NOKITOI
  6
PHANTOM
 62
     8
 48
3.5
100
AcDbLine
 10
382.3366351470109
 20
225.8508090167049
 30
0.0
 11
381.3408351470108
 21
226.950809016705
 31
0.0
  0
LINE
  5
B66
330
1A
100
AcDbEntity
  8
NOKITOI
  6
PHANTOM
 62
     8
 48
3.5
100
AcDbLine
 10
382.3366351470109
 20
225.8508090167049
 30
0.0
 11
382.798635147011
 21
225.8508090167049
 31
0.0
  0
ARC
  5
B67
330
1A
100
AcDbEntity
  8
NOKITOI
  6
PHANTOM
 62
     8
 48
3.5
100
AcDbCircle
 10
383.1933645195105
 20
224.1284392491997
 30
0.0
 40
0.4999578477751074
100
AcDbArc
 50
83.52609071220779
 51
188.1330561712925
  0
ARC
  5
B68
330
1A
100
AcDbEntity
  8
NOKITOI
  6
PHANTOM
 62
     8
 48
3.5
100
AcDbCircle
 10
382.9235278924554
 20
230.1508001668614
 30
0.0
 40
0.500008849895925
100
AcDbArc
 50
89.99916870385495
 51
191.3135956695117
  0
ARC
  5
B69
330
1A
100
AcDbEntity
  8
NOKITOI
  6
PHANTOM
 62
     8
 48
3.5
100
AcDbCircle
 10
382.2037343640023
 20
228.6508080617031
 30
0.0
 40
0.4999990449987399
100
AcDbArc
 50
270.0000897263054
 51
11.30328019845509
  0
LINE
  5
B6A
330
1A
100
AcDbEntity
  8
NOKITOI
  6
PHANTOM
 62
     8
 48
3.5
100
AcDbLine
 10
382.6940351470108
 20
228.748809016705
 30
0.0
 11
382.4332351470108
 21
230.0528090167049
 31
0.0
  0
LINE
  5
B6B
330
1A
100
AcDbEntity
  8
NOKITOI
  6
PHANTOM
 62
     8
 48
3.5
100
AcDbLine
 10
384.2774351470108
 20
226.950809016705
 30
0.0
 11
381.3408351470108
 21
226.950809016705
 31
0.0
  0
LINE
  5
B6C
330
1A
100
AcDbEntity
  8
NOKITOI
  6
PHANTOM
 62
     8
 48
3.5
100
AcDbLine
 10
383.7774351470108
 20
229.450809016705
 30
0.0
 11
384.2774351470108
 21
226.950809016705
 31
0.0
  0
LINE
  5
B6D
330
1A
100
AcDbEntity
  8
NOKITOI
  6
PHANTOM
 62
     8
 48
3.5
100
AcDbLine
 10
381.3260351470109
 20
225.1792090167048
 30
0.0
 11
380.7710351470106
 21
225.7922090167048
 31
0.0
  0
ARC
  5
B6E
330
1A
100
AcDbEntity
  8
NOKITOI
  6
PHANTOM
 62
     8
 48
3.5
100
AcDbCircle
 10
379.9722388565061
 20
227.6508129267356
 30
0.0
 40
0.4999960899831856
100
AcDbArc
 50
90.00042508015132
 51
183.0156217414655
  0
LINE
  5
B6F
330
1A
100
AcDbEntity
  8
NOKITOI
  6
PHANTOM
 62
     8
 48
3.5
100
AcDbLine
 10
380.9521351470109
 20
222.3508090167049
 30
0.0
 11
381.7300351470104
 21
222.3508090167049
 31
0.0
  0
LINE
  5
B70
330
1A
100
AcDbEntity
  8
NOKITOI
  6
PHANTOM
 62
     8
 48
3.5
100
AcDbLine
 10
381.7300351470104
 20
222.3508090167049
 30
0.0
 11
381.3260351470109
 21
225.1792090167048
 31
0.0
  0
LINE
  5
B71
330
1A
100
AcDbEntity
  8
NOKITOI
  6
PHANTOM
 62
     8
 48
3.5
100
AcDbLine
 10
383.0321351470108
 20
221.7215090167048
 30
0.0
 11
382.6983351470109
 21
224.057709016705
 31
0.0
  0
LINE
  5
B72
330
1A
100
AcDbEntity
  8
NOKITOI
  6
PHANTOM
 62
     8
 48
3.5
100
AcDbLine
 10
380.9521351470109
 20
222.3508090167049
 30
0.0
 11
380.7710351470106
 21
225.7922090167048
 31
0.0
  0
LINE
  5
B73
330
1A
100
AcDbEntity
  8
NOKITOI
  6
PHANTOM
 62
     8
 48
3.5
100
AcDbLine
 10
379.7887351470109
 20
221.6245090167049
 30
0.0
 11
379.4729351470106
 21
227.6245090167049
 31
0.0
  0
LINE
  5
B74
330
1A
100
AcDbEntity
  8
NOKITOI
  6
PHANTOM
 62
     8
 48
3.5
100
AcDbLine
 10
380.2880351470109
 20
221.1508090167049
 30
0.0
 11
382.5371351470104
 21
221.1508090167049
 31
0.0
  0
ARC
  5
B75
330
1A
100
AcDbEntity
  8
NOKITOI
  6
PHANTOM
 62
     8
 48
3.5
100
AcDbCircle
 10
378.6801482180155
 20
215.3508208469848
 30
0.0
 40
0.499988169890889
100
AcDbArc
 50
90.00149786226627
 51
174.2966061377156
  0
ARC
  5
B76
330
1A
100
AcDbEntity
  8
NOKITOI
  6
PHANTOM
 62
     8
 48
3.5
100
AcDbCircle
 10
382.537145333447
 20
221.650820761429
 30
0.0
 40
0.5000117448278309
100
AcDbArc
 50
269.9988327478018
 51
8.127314608715799
  0
ARC
  5
B77
330
1A
100
AcDbEntity
  8
NOKITOI
  6
PHANTOM
 62
     8
 48
3.5
100
AcDbCircle
 10
380.2880392684175
 20
221.6508051066743
 30
0.0
 40
0.4999960899864752
100
AcDbArc
 50
183.0147243791737
 51
269.9995277178594
  0
ARC
  5
B78
330
1A
100
AcDbEntity
  8
NOKITOI
  6
PHANTOM
 62
     8
 48
3.5
100
AcDbCircle
 10
382.7986172806597
 20
220.6508177450848
 30
0.0
 40
5.199991271650611
100
AcDbArc
 50
37.92532860473095
 51
89.99980314072548
  0
LINE
  5
B79
330
1A
100
AcDbEntity
  8
NOKITOI
  6
PHANTOM
 62
     8
 48
3.5
100
AcDbLine
 10
386.2501351470111
 20
229.4507090167048
 30
0.0
 11
383.7774351470108
 21
229.450809016705
 31
0.0
  0
LINE
  5
B7A
330
1A
100
AcDbEntity
  8
NOKITOI
  6
PHANTOM
 62
     8
 48
3.5
100
AcDbLine
 10
386.2501351470111
 20
230.6507090167049
 30
0.0
 11
382.9235351470107
 21
230.6508090167048
 31
0.0
  0
LINE
  5
B7B
330
1A
100
AcDbEntity
  8
NOKITOI
  6
PHANTOM
 62
     8
 48
3.5
100
AcDbLine
 10
386.3597351470108
 20
214.6508090167049
 30
0.0
 11
380.218635147011
 21
214.6508090167049
 31
0.0
  0
LINE
  5
B7C
330
1A
100
AcDbEntity
  8
NOKITOI
  6
PHANTOM
 62
     8
 48
3.5
100
AcDbLine
 10
378.6801351470105
 20
215.8508090167049
 30
0.0
 11
384.7120351470109
 21
215.8508090167049
 31
0.0
  0
ARC
  5
B7D
330
1A
100
AcDbEntity
  8
NOKITOI
  6
PHANTOM
 62
     8
 48
3.5
100
AcDbCircle
 10
382.7986042200747
 20
220.6508447613687
 30
0.0
 40
3.99998565374706
100
AcDbArc
 50
358.2086966591014
 51
83.52422380468327
  0
DIMENSION
  5
B7E
330
1A
100
AcDbEntity
  8
SUNPOU
  6
CONTINUOUS
100
AcDbDimension
  2
*D1
 10
390.2125376495631
 20
275.5594231486973
 30
0.0
 11
328.2631376495682
 21
280.5594231486973
 31
0.0
 70
    32
  3
STANDARD
100
AcDbAlignedDimension
 13
266.3137376495732
 23
230.1507282201759
 33
0.0
 14
390.2125376495631
 24
230.0901270195087
 34
0.0
100
AcDbRotatedDimension
1001
ACAD
1000
DSTYLE
1002
{
1070
    41
1040
7.0
1070
    42
1040
6.0
1070
    43
1040
14.0
1070
    44
1040
3.0
1070
    73
1070
     0
1070
    74
1070
     0
1070
    77
1070
     3
1070
   140
1040
6.0
1070
   141
1040
150.0
1070
   147
1040
2.0
1070
   172
1070
     1
1070
   173
1070
     1
1070
   176
1070
     4
1070
   177
1070
     4
1070
   178
1070
     4
1070
   271
1070
     0
1070
   272
1070
     2
1070
   341
1005
6D
1070
     6
1000
OPEN
1070
     7
1000
OPEN
1002
}
  0
DIMENSION
  5
B8B
330
1A
100
AcDbEntity
  8
SUNPOU
  6
CONTINUOUS
100
AcDbDimension
  2
*D2
 10
218.6878418642161
 20
173.6507107110554
 30
0.0
 11
213.6878418642161
 21
202.9007240374919
 31
0.0
 70
    32
  3
STANDARD
100
AcDbAlignedDimension
 13
269.314196827553
 23
232.1507373639282
 33
0.0
 14
320.0219968275518
 24
173.6507107110554
 34
0.0
 50
90.0
100
AcDbRotatedDimension
1001
ACAD
1000
DSTYLE
1002
{
1070
    41
1040
7.0
1070
    42
1040
6.0
1070
    43
1040
14.0
1070
    44
1040
3.0
1070
    73
1070
     0
1070
    74
1070
     0
1070
    77
1070
     3
1070
   140
1040
6.0
1070
   141
1040
150.0
1070
   147
1040
2.0
1070
   172
1070
     1
1070
   173
1070
     1
1070
   176
1070
     4
1070
   177
1070
     4
1070
   178
1070
     4
1070
   271
1070
     0
1070
   272
1070
     2
1070
   341
1005
6D
1070
     6
1000
OPEN
1070
     7
1000
OPEN
1002
}
  0
DIMENSION
  5
B98
330
1A
100
AcDbEntity
  8
SUNPOU
  6
CONTINUOUS
100
AcDbDimension
  2
*D3
 10
235.1381862470218
 20
211.6507282201759
 30
0.0
 11
230.1381862470218
 21
221.9007327920521
 31
0.0
 70
    32
  3
STANDARD
100
AcDbAlignedDimension
 13
269.314196827553
 23
232.1507373639282
 33
0.0
 14
268.328696827553
 24
211.6507282201759
 34
0.0
 50
90.0
100
AcDbRotatedDimension
1001
ACAD
1000
DSTYLE
1002
{
1070
    41
1040
7.0
1070
    42
1040
6.0
1070
    43
1040
14.0
1070
    44
1040
3.0
1070
    73
1070
     0
1070
    74
1070
     0
1070
    77
1070
     3
1070
   140
1040
6.0
1070
   141
1040
150.0
1070
   147
1040
2.0
1070
   172
1070
     1
1070
   173
1070
     1
1070
   176
1070
     4
1070
   177
1070
     4
1070
   178
1070
     4
1070
   271
1070
     0
1070
   272
1070
     2
1070
   341
1005
6D
1070
     6
1000
OPEN
1070
     7
1000
OPEN
1002
}
  0
DIMENSION
  5
BA5
330
1A
100
AcDbEntity
  8
SUNPOU
  6
CONTINUOUS
100
AcDbDimension
  2
*D4
 10
192.7901794422836
 20
275.5594231486973
 30
0.0
 11
114.4864294484281
 21
280.5594231486973
 31
0.0
 70
    32
  3
STANDARD
100
AcDbAlignedDimension
 13
36.18267945457273
 23
232.1507373639282
 33
0.0
 14
192.7901794422836
 24
233.1507388153199
 34
0.0
100
AcDbRotatedDimension
1001
ACAD
1000
DSTYLE
1002
{
1070
    41
1040
7.0
1070
    42
1040
6.0
1070
    43
1040
14.0
1070
    44
1040
3.0
1070
    73
1070
     0
1070
    74
1070
     0
1070
    77
1070
     3
1070
   140
1040
6.0
1070
   141
1040
150.0
1070
   147
1040
2.0
1070
   172
1070
     1
1070
   173
1070
     1
1070
   176
1070
     4
1070
   177
1070
     4
1070
   178
1070
     4
1070
   271
1070
     0
1070
   272
1070
     2
1070
   341
1005
6D
1070
     6
1000
OPEN
1070
     7
1000
OPEN
1002
}
  0
DIMENSION
  5
C1D
330
1A
100
AcDbEntity
  8
SUNPOU
100
AcDbDimension
  2
*D5
 10
245.9153407743833
 20
308.4190111061053
 30
0.0
 11
240.9153407743833
 21
325.9190111061054
 31
0.0
 70
    32
  1
\U+203B<>
  3
STANDARD
100
AcDbAlignedDimension
 13
267.3524968275529
 23
343.4190111061053
 33
0.0
 14
267.3524968275529
 24
308.4190111061053
 34
0.0
 50
90.0
100
AcDbRotatedDimension
1001
ACAD
1000
DSTYLE
1002
{
1070
    41
1040
7.0
1070
    42
1040
6.0
1070
    43
1040
14.0
1070
    44
1040
3.0
1070
    73
1070
     0
1070
    74
1070
     0
1070
    77
1070
     3
1070
   140
1040
6.0
1070
   141
1040
150.0
1070
   147
1040
2.0
1070
   172
1070
     1
1070
   173
1070
     1
1070
   176
1070
     4
1070
   177
1070
     4
1070
   178
1070
     4
1070
   271
1070
     0
1070
   272
1070
     2
1070
   341
1005
6D
1070
     6
1000
OPEN
1070
     7
1000
OPEN
1002
}
  0
DIMENSION
  5
C33
330
1A
100
AcDbEntity
  8
SUNPOU
  6
CONTINUOUS
100
AcDbDimension
  2
*D9
 10
623.3107767290381
 20
275.5594231486973
 30
0.0
 11
701.6145267228935
 21
280.5594231486973
 31
0.0
 70
    32
  3
STANDARD
100
AcDbAlignedDimension
 13
779.918276716749
 23
232.1507373639282
 33
0.0
 14
623.3107767290381
 24
233.1507388153199
 34
0.0
 50
180.0
100
AcDbRotatedDimension
1001
ACAD
1000
DSTYLE
1002
{
1070
    41
1040
7.0
1070
    42
1040
6.0
1070
    43
1040
14.0
1070
    44
1040
3.0
1070
    73
1070
     0
1070
    74
1070
     0
1070
    77
1070
     3
1070
   140
1040
6.0
1070
   141
1040
150.0
1070
   147
1040
2.0
1070
   172
1070
     1
1070
   173
1070
     1
1070
   176
1070
     4
1070
   177
1070
     4
1070
   178
1070
     4
1070
   271
1070
     0
1070
   272
1070
     2
1070
   341
1005
6D
1070
     6
1000
OPEN
1070
     7
1000
OPEN
1002
}
  0
LINE
  5
C34
330
1A
100
AcDbEntity
  8
SEIHIN
  6
CONTINUOUS
100
AcDbLine
 10
623.3107767167489
 20
232.1507373639282
 30
0.0
 11
779.9182767167488
 21
232.1507373639282
 31
0.0
  0
LINE
  5
C35
330
1A
100
AcDbEntity
  8
SEIHIN
  6
CONTINUOUS
100
AcDbLine
 10
628.3107414192309
 20
211.6507437540611
 30
0.0
 11
778.9182764771098
 21
211.6507437540615
 31
0.0
  0
ARC
  5
C36
330
1A
100
AcDbEntity
  8
SEIHIN
  6
CONTINUOUS
100
AcDbCircle
 10
719.7601380380994
 20
220.8964366846783
 30
0.0
 40
47.47023116859396
100
AcDbArc
 50
275.5745402313888
 51
347.7966968863016
  0
LINE
  5
C37
330
1A
100
AcDbEntity
  8
SEIHIN
  6
CONTINUOUS
 62
     3
 48
16.0
100
AcDbLine
 10
779.9182764771098
 20
212.6507437417723
 30
0.0
 11
779.918276716749
 21
232.1507373639282
 31
0.0
  0
ARC
  5
C38
330
1A
100
AcDbEntity
  8
SEIHIN
  6
CONTINUOUS
100
AcDbCircle
 10
778.9182764771098
 20
212.6507437540615
 30
0.0
 40
1.0
100
AcDbArc
 50
270.0
 51
359.9999992958812
  0
ARC
  5
C39
330
1A
100
AcDbEntity
  8
SEIHIN
  6
CONTINUOUS
100
AcDbCircle
 10
767.1351217943865
 20
210.6507437540615
 30
0.0
 40
1.0
100
AcDbArc
 50
90.0
 51
167.7966968863019
  0
DIMENSION
  5
C3A
330
1A
100
AcDbEntity
  8
SUNPOU
  6
CONTINUOUS
100
AcDbDimension
  2
*D7
 10
597.4131143071056
 20
173.6507107110553
 30
0.0
 11
592.4131143071056
 21
202.9007240374919
 31
0.0
 70
    32
  3
STANDARD
100
AcDbAlignedDimension
 13
546.7867593437687
 23
232.1507373639282
 33
0.0
 14
496.0789593437699
 24
173.6507107110554
 34
0.0
 50
90.0
100
AcDbRotatedDimension
1001
ACAD
1000
DSTYLE
1002
{
1070
    41
1040
7.0
1070
    42
1040
6.0
1070
    43
1040
14.0
1070
    44
1040
3.0
1070
    73
1070
     0
1070
    74
1070
     0
1070
    77
1070
     3
1070
   140
1040
6.0
1070
   141
1040
150.0
1070
   147
1040
2.0
1070
   172
1070
     1
1070
   173
1070
     1
1070
   176
1070
     4
1070
   177
1070
     4
1070
   178
1070
     4
1070
   271
1070
     0
1070
   272
1070
     2
1070
   341
1005
6D
1070
     6
1000
OPEN
1070
     7
1000
OPEN
1002
}
  0
ARC
  5
C3B
330
1A
100
AcDbEntity
  8
NOKITOI
  6
PHANTOM
 62
     8
 48
3.5
100
AcDbCircle
 10
495.9737372507682
 20
218.6508234930749
 30
0.0
 40
43.00001447645168
100
AcDbArc
 50
270.0001116248559
 51
353.4750892928819
  0
ARC
  5
C3C
330
1A
100
AcDbEntity
  8
NOKITOI
  6
PHANTOM
 62
     8
 48
3.5
100
AcDbCircle
 10
495.9737149423429
 20
218.6508033920485
 30
0.0
 40
41.79999437547816
100
AcDbArc
 50
270.0001454078912
 51
355.525704787475
  0
LINE
  5
C3D
330
1A
100
AcDbEntity
  8
SEIHIN
100
AcDbLine
 10
545.8295427437688
 20
213.6507282201759
 30
0.0
 11
487.7872593437687
 21
213.6507282201759
 31
0.0
  0
ARC
  5
C3E
330
1A
100
AcDbEntity
  8
SEIHIN
100
AcDbCircle
 10
496.0788593437687
 20
218.6507282201759
 30
0.0
 40
42.999986575483
100
AcDbArc
 50
270.0001332460426
 51
350.5109801608928
  0
ARC
  5
C3F
330
1A
100
AcDbEntity
  8
SEIHIN
100
AcDbCircle
 10
496.0788593437687
 20
218.6507282201759
 30
0.0
 40
45.00001750923163
100
AcDbArc
 50
270.0001273239063
 51
350.5124548681855
  0
ARC
  5
C40
330
1A
100
AcDbEntity
  8
SEIHIN
100
AcDbCircle
 10
496.0788593437687
 20
218.6507282201759
 30
0.0
 40
43.9999815127682
100
AcDbArc
 50
270.000130217736
 51
350.5123952759502
  0
LINE
  5
C41
330
1A
100
AcDbEntity
  8
SEIHIN
100
AcDbLine
 10
538.0729457437687
 20
232.1507282201759
 30
0.0
 11
437.5013593437687
 21
232.1507282201759
 31
0.0
  0
DIMENSION
  5
C42
330
1A
100
AcDbEntity
  8
SUNPOU
  6
CONTINUOUS
100
AcDbDimension
  2
*D6
 10
425.8884185217586
 20
275.5594231486973
 30
0.0
 11
487.8378185217535
 21
280.5594231486973
 31
0.0
 70
    32
  3
STANDARD
100
AcDbAlignedDimension
 13
549.7872185217484
 23
230.1507282201759
 33
0.0
 14
425.8884185217586
 24
230.0901270195087
 34
0.0
 50
180.0
100
AcDbRotatedDimension
1001
ACAD
1000
DSTYLE
1002
{
1070
    41
1040
7.0
1070
    42
1040
6.0
1070
    43
1040
14.0
1070
    44
1040
3.0
1070
    73
1070
     0
1070
    74
1070
     0
1070
    77
1070
     3
1070
   140
1040
6.0
1070
   141
1040
150.0
1070
   147
1040
2.0
1070
   172
1070
     1
1070
   173
1070
     1
1070
   176
1070
     4
1070
   177
1070
     4
1070
   178
1070
     4
1070
   271
1070
     0
1070
   272
1070
     2
1070
   341
1005
6D
1070
     6
1000
OPEN
1070
     7
1000
OPEN
1002
}
  0
LINE
  5
C43
330
1A
100
AcDbEntity
  8
SEIHIN
  6
CONTINUOUS
100
AcDbLine
 10
628.3106759896051
 20
173.6507082201759
 30
0.0
 11
724.371427343518
 21
173.6507082201759
 31
0.0
  0
LINE
  5
C44
330
1A
100
AcDbEntity
  8
SEIHIN
  6
CONTINUOUS
100
AcDbLine
 10
623.3107767290382
 20
233.1507388153199
 30
0.0
 11
648.3107767290381
 21
233.15073881532
 31
0.0
  0
LINE
  5
C45
330
1A
100
AcDbEntity
  8
SEIHIN
  6
CONTINUOUS
 62
     3
 48
16.0
100
AcDbLine
 10
648.3107767167489
 20
232.1507373639282
 30
0.0
 11
648.3107767290381
 21
233.1507388153199
 31
0.0
  0
LINE
  5
C46
330
1A
100
AcDbEntity
  8
SEIHIN
  6
CONTINUOUS
 62
     3
 48
16.0
100
AcDbLine
 10
623.3107760064345
 20
174.3508087009292
 30
0.0
 11
623.3107767290381
 21
233.1507388153199
 31
0.0
  0
LINE
  5
C47
330
1A
100
AcDbEntity
  8
SEIHIN
  6
CONTINUOUS
 62
     3
 48
16.0
100
AcDbLine
 10
628.3106759896057
 20
173.6507085807426
 30
0.0
 11
628.3107767167489
 21
232.1507377239662
 31
0.0
  0
LINE
  5
C48
330
1A
100
AcDbEntity
  8
SEIHIN
  6
CONTINUOUS
 62
     3
 48
16.0
100
AcDbLine
 10
623.3106760064345
 20
174.3508087009316
 30
0.0
 11
628.3106759896057
 21
173.6507085807426
 31
0.0
  0
DIMENSION
  5
C49
330
1A
100
AcDbEntity
  8
SUNPOU
  6
CONTINUOUS
100
AcDbDimension
  2
*D8
 10
580.9627699242999
 20
211.6507282201759
 30
0.0
 11
575.9627699242998
 21
221.9007327920521
 31
0.0
 70
    32
  3
STANDARD
100
AcDbAlignedDimension
 13
546.7867593437687
 23
232.1507373639282
 33
0.0
 14
547.7722593437687
 24
211.6507282201759
 34
0.0
 50
90.0
100
AcDbRotatedDimension
1001
ACAD
1000
DSTYLE
1002
{
1070
    41
1040
7.0
1070
    42
1040
6.0
1070
    43
1040
14.0
1070
    44
1040
3.0
1070
    73
1070
     0
1070
    74
1070
     0
1070
    77
1070
     3
1070
   140
1040
6.0
1070
   141
1040
150.0
1070
   147
1040
2.0
1070
   172
1070
     1
1070
   173
1070
     1
1070
   176
1070
     4
1070
   177
1070
     4
1070
   178
1070
     4
1070
   271
1070
     0
1070
   272
1070
     2
1070
   341
1005
6D
1070
     6
1000
OPEN
1070
     7
1000
OPEN
1002
}
  0
LINE
  5
C4A
330
1A
100
AcDbEntity
  8
SEIHIN
  6
CONTINUOUS
 62
     3
 48
16.0
100
AcDbLine
 10
623.3107414360597
 20
212.3508438742504
 30
0.0
 11
628.310741419231
 21
211.6507437540615
 31
0.0
  0
LINE
  5
C4B
330
1A
100
AcDbEntity
  8
NOKITOI
  6
PHANTOM
 62
     8
 48
3.5
100
AcDbLine
 10
547.7228210243108
 20
228.5883090167049
 30
0.0
 11
547.332621024311
 21
216.1040090167048
 31
0.0
  0
LINE
  5
C4C
330
1A
100
AcDbEntity
  8
NOKITOI
  6
PHANTOM
 62
     8
 48
3.5
100
AcDbLine
 10
546.1847210243111
 20
217.7884090167049
 30
0.0
 11
546.2702210243107
 21
220.5259090167048
 31
0.0
  0
LINE
  5
C4D
330
1A
100
AcDbEntity
  8
SEIHIN
100
AcDbLine
 10
547.7248318437687
 20
228.0925188201759
 30
0.0
 11
547.3313909437687
 21
215.1096695201759
 31
0.0
  0
LINE
  5
C4E
330
1A
100
AcDbEntity
  8
SEIHIN
100
AcDbLine
 10
548.3014593437688
 20
214.1053282201759
 30
0.0
 11
548.7858593437687
 21
230.0901282201759
 31
0.0
  0
LINE
  5
C4F
330
1A
100
AcDbEntity
  8
SEIHIN
100
AcDbLine
 10
549.7862593437687
 20
230.0901282201759
 30
0.0
 11
549.2715593437687
 21
213.1053282201759
 31
0.0
  0
LINE
  5
C50
330
1A
100
AcDbEntity
  8
NOKITOI
  6
PHANTOM
 62
     8
 48
3.5
100
AcDbLine
 10
538.1448210243104
 20
215.8508090167049
 30
0.0
 11
544.1857210243108
 21
215.8508090167049
 31
0.0
  0
ARC
  5
C51
330
1A
100
AcDbEntity
  8
SEIHIN
100
AcDbCircle
 10
540.9564593437687
 20
211.1507282201759
 30
0.0
 40
2.499999617785555
100
AcDbArc
 50
90.0
 51
170.5357053760006
  0
LINE
  5
C52
330
1A
100
AcDbEntity
  8
NOKITOI
  6
PHANTOM
 62
     8
 48
3.5
100
AcDbLine
 10
545.8334210243108
 20
214.6508090167049
 30
0.0
 11
539.688721024311
 21
214.6508090167049
 31
0.0
  0
LINE
  5
C53
330
1A
100
AcDbEntity
  8
SEIHIN
100
AcDbLine
 10
540.9564593437687
 20
212.6507282201759
 30
0.0
 11
546.8021593437687
 21
212.6507282201759
 31
0.0
  0
LINE
  5
C54
330
1A
100
AcDbEntity
  8
SEIHIN
100
AcDbLine
 10
547.7722593437687
 20
211.6507282201759
 30
0.0
 11
540.9564593437687
 21
211.6507282201759
 31
0.0
  0
ARC
  5
C55
330
1A
100
AcDbEntity
  8
NOKITOI
  6
PHANTOM
 62
     8
 48
3.5
100
AcDbCircle
 10
545.8333850651599
 20
216.1507741625616
 30
0.0
 40
1.499965146287778
100
AcDbArc
 50
270.0013735703023
 51
358.2133719782232
  0
ARC
  5
C56
330
1A
100
AcDbEntity
  8
NOKITOI
  6
PHANTOM
 62
     8
 48
3.5
100
AcDbCircle
 10
544.1857074521724
 20
217.8507958616185
 30
0.0
 40
1.999986844959662
100
AcDbArc
 50
270.0003888156776
 51
358.2124468147636
  0
ARC
  5
C57
330
1A
100
AcDbEntity
  8
SEIHIN
100
AcDbCircle
 10
546.8021593437687
 20
214.1507282201759
 30
0.0
 40
1.499993609866717
100
AcDbArc
 50
270.0
 51
358.2655678404488
  0
ARC
  5
C58
330
1A
100
AcDbEntity
  8
SEIHIN
100
AcDbCircle
 10
547.7722593437687
 20
213.1507282201759
 30
0.0
 40
1.499993609866717
100
AcDbArc
 50
270.0
 51
358.2655678404488
  0
ARC
  5
C59
330
1A
100
AcDbEntity
  8
SEIHIN
100
AcDbCircle
 10
545.8319593437687
 20
215.1507282201759
 30
0.0
 40
1.499993646644641
100
AcDbArc
 50
269.9076922485808
 51
358.431470628468
  0
ARC
  5
C5A
330
1A
100
AcDbEntity
  8
NOKITOI
  6
PHANTOM
 62
     8
 48
3.5
100
AcDbCircle
 10
539.6887294484733
 20
213.6508165317613
 30
0.0
 40
0.9999924849789756
100
AcDbArc
 50
90.00048267259112
 51
173.4717353933255
  0
ARC
  5
C5B
330
1A
100
AcDbEntity
  8
SEIHIN
100
AcDbCircle
 10
540.9564593437687
 20
211.1507282201759
 30
0.0
 40
1.50001288769041
100
AcDbArc
 50
90.0
 51
170.5106745782065
  0
ARC
  5
C5C
330
1A
100
AcDbEntity
  8
SEIHIN
100
AcDbCircle
 10
540.9564593437687
 20
211.1507282201759
 30
0.0
 40
0.5000179738418847
100
AcDbArc
 50
90.0
 51
170.5150758869288
  0
ARC
  5
C5D
330
1A
100
AcDbEntity
  8
NOKITOI
  6
PHANTOM
 62
     8
 48
3.5
100
AcDbCircle
 10
538.1448084546025
 20
215.3507973919752
 30
0.0
 40
0.5000116248877111
100
AcDbArc
 50
89.99855965101664
 51
175.5251531916571
  0
ARC
  5
C5E
330
1A
100
AcDbEntity
  8
SEIHIN
100
AcDbCircle
 10
539.4871593437687
 20
231.6507282201759
 30
0.0
 40
1.5
100
AcDbArc
 50
90.0
 51
180.0
  0
ARC
  5
C5F
330
1A
100
AcDbEntity
  8
SEIHIN
100
AcDbCircle
 10
542.2934593437687
 20
232.9569282201759
 30
0.0
 40
4.499994166964098
100
AcDbArc
 50
196.8737592829845
 51
253.1258709508001
  0
LINE
  5
C60
330
1A
100
AcDbEntity
  8
NOKITOI
  6
PHANTOM
 62
     8
 48
3.5
100
AcDbLine
 10
545.7238210243111
 20
229.450809016705
 30
0.0
 11
543.2510210243106
 21
229.450809016705
 31
0.0
  0
LINE
  5
C61
330
1A
100
AcDbEntity
  8
NOKITOI
  6
PHANTOM
 62
     8
 48
3.5
100
AcDbLine
 10
545.7238210243111
 20
230.6508090167048
 30
0.0
 11
542.3972210243107
 21
230.6508090167048
 31
0.0
  0
LINE
  5
C62
330
1A
100
AcDbEntity
  8
SEIHIN
100
AcDbLine
 10
540.9871593437688
 20
230.1507282201759
 30
0.0
 11
545.7317079437687
 21
230.1507282201759
 31
0.0
  0
LINE
  5
C63
330
1A
100
AcDbEntity
  8
SEIHIN
100
AcDbLine
 10
547.7872593437687
 20
232.1507282201759
 30
0.0
 11
541.2192593437687
 21
232.1507282201759
 31
0.0
  0
ARC
  5
C64
330
1A
100
AcDbEntity
  8
SEIHIN
100
AcDbCircle
 10
547.7872593437687
 20
230.1507282201759
 30
0.0
 40
1.999959177979756
100
AcDbArc
 50
358.2636022625313
 51
90.0
  0
ARC
  5
C65
330
1A
100
AcDbEntity
  8
SEIHIN
100
AcDbCircle
 10
546.7867593437687
 20
230.1507282201759
 30
0.0
 40
2.000009143752309
100
AcDbArc
 50
358.2636887043422
 51
90.0
  0
ARC
  5
C66
330
1A
100
AcDbEntity
  8
NOKITOI
  6
PHANTOM
 62
     8
 48
3.5
100
AcDbCircle
 10
542.3972218073193
 20
230.1508099717066
 30
0.0
 40
0.4999990449987349
100
AcDbArc
 50
90.00008972630547
 51
191.3032801984551
  0
ARC
  5
C67
330
1A
100
AcDbEntity
  8
SEIHIN
100
AcDbCircle
 10
541.2192593437687
 20
234.1507282201759
 30
0.0
 40
2.000021290287709
100
AcDbArc
 50
209.9992973869016
 51
270.0
  0
LINE
  5
C68
330
1A
100
AcDbEntity
  8
NOKITOI
  6
PHANTOM
 62
     8
 48
3.5
100
AcDbLine
 10
543.7510210243106
 20
226.950809016705
 30
0.0
 11
540.8145210243108
 21
226.950809016705
 31
0.0
  0
ARC
  5
C69
330
1A
100
AcDbEntity
  8
NOKITOI
  6
PHANTOM
 62
     8
 48
3.5
100
AcDbCircle
 10
542.2721831428641
 20
220.6508527992302
 30
0.0
 40
3.999989731271038
100
AcDbArc
 50
358.2100163932691
 51
83.52268857986855
  0
ARC
  5
C6A
330
1A
100
AcDbEntity
  8
NOKITOI
  6
PHANTOM
 62
     8
 48
3.5
100
AcDbCircle
 10
542.2721008116416
 20
220.6508677450849
 30
0.0
 40
5.2000412730095
100
AcDbArc
 50
37.92420092094386
 51
89.9986754569384
  0
LINE
  5
C6B
330
1A
100
AcDbEntity
  8
NOKITOI
  6
PHANTOM
 62
     8
 48
3.5
100
AcDbLine
 10
546.5234210243104
 20
228.6258090167048
 30
0.0
 11
546.3740210243111
 21
223.846909016705
 31
0.0
  0
ARC
  5
C6C
330
1A
100
AcDbEntity
  8
NOKITOI
  6
PHANTOM
 62
     8
 48
3.5
100
AcDbCircle
 10
539.7617279113058
 20
221.6508024816194
 30
0.0
 40
0.499993464961963
100
AcDbArc
 50
183.0029638682573
 51
269.9992107982126
  0
ARC
  5
C6D
330
1A
100
AcDbEntity
  8
NOKITOI
  6
PHANTOM
 62
     8
 48
3.5
100
AcDbCircle
 10
542.0107944237131
 20
221.6507783398228
 30
0.0
 40
0.4999693238254178
100
AcDbArc
 50
270.0030483909652
 51
8.144496122946785
  0
LINE
  5
C6E
330
1A
100
AcDbEntity
  8
NOKITOI
  6
PHANTOM
 62
     8
 48
3.5
100
AcDbLine
 10
539.7617210243108
 20
221.1508090167049
 30
0.0
 11
542.0108210243109
 21
221.1508090167049
 31
0.0
  0
LINE
  5
C6F
330
1A
100
AcDbEntity
  8
NOKITOI
  6
PHANTOM
 62
     8
 48
3.5
100
AcDbLine
 10
542.5057210243109
 20
221.721609016705
 30
0.0
 11
542.1720210243108
 21
224.057809016705
 31
0.0
  0
LINE
  5
C70
330
1A
100
AcDbEntity
  8
NOKITOI
  6
PHANTOM
 62
     8
 48
3.5
100
AcDbLine
 10
540.4258210243108
 20
222.3508090167049
 30
0.0
 11
540.2446210243108
 21
225.792309016705
 31
0.0
  0
LINE
  5
C71
330
1A
100
AcDbEntity
  8
NOKITOI
  6
PHANTOM
 62
     8
 48
3.5
100
AcDbLine
 10
541.2037210243104
 20
222.3508090167049
 30
0.0
 11
540.7996210243107
 21
225.1792090167048
 31
0.0
  0
LINE
  5
C72
330
1A
100
AcDbEntity
  8
NOKITOI
  6
PHANTOM
 62
     8
 48
3.5
100
AcDbLine
 10
539.2623210243107
 20
221.6246090167048
 30
0.0
 11
538.9465210243108
 21
227.6245090167049
 31
0.0
  0
LINE
  5
C73
330
1A
100
AcDbEntity
  8
NOKITOI
  6
PHANTOM
 62
     8
 48
3.5
100
AcDbLine
 10
540.4258210243108
 20
222.3508090167049
 30
0.0
 11
541.2037210243104
 21
222.3508090167049
 31
0.0
  0
ARC
  5
C74
330
1A
100
AcDbEntity
  8
NOKITOI
  6
PHANTOM
 62
     8
 48
3.5
100
AcDbCircle
 10
539.4459272254687
 20
227.6508155517901
 30
0.0
 40
0.4999934649531607
100
AcDbArc
 50
90.00071060961996
 51
183.0044636796616
  0
LINE
  5
C75
330
1A
100
AcDbEntity
  8
NOKITOI
  6
PHANTOM
 62
     8
 48
3.5
100
AcDbLine
 10
539.445921024311
 20
228.1508090167049
 30
0.0
 11
541.6774210243109
 21
228.1508090167049
 31
0.0
  0
LINE
  5
C76
330
1A
100
AcDbEntity
  8
NOKITOI
  6
PHANTOM
 62
     8
 48
3.5
100
AcDbLine
 10
540.7996210243107
 20
225.1792090167048
 30
0.0
 11
540.2446210243108
 21
225.792309016705
 31
0.0
  0
LINE
  5
C77
330
1A
100
AcDbEntity
  8
NOKITOI
  6
PHANTOM
 62
     8
 48
3.5
100
AcDbLine
 10
541.8103210243105
 20
225.8508090167049
 30
0.0
 11
540.8145210243108
 21
226.950809016705
 31
0.0
  0
ARC
  5
C78
330
1A
100
AcDbEntity
  8
NOKITOI
  6
PHANTOM
 62
     8
 48
3.5
100
AcDbCircle
 10
542.6670068058954
 20
224.1284943824039
 30
0.0
 40
0.5000073448410256
100
AcDbArc
 50
83.5217071700316
 51
188.1270521358757
  0
ARC
  5
C79
330
1A
100
AcDbEntity
  8
NOKITOI
  6
PHANTOM
 62
     8
 48
3.5
100
AcDbCircle
 10
541.6774282788662
 20
228.6508178665483
 30
0.0
 40
0.5000088498959383
100
AcDbArc
 50
269.9991687038565
 51
11.3135956695115
  0
LINE
  5
C7A
330
1A
100
AcDbEntity
  8
NOKITOI
  6
PHANTOM
 62
     8
 48
3.5
100
AcDbLine
 10
541.8103210243105
 20
225.8508090167049
 30
0.0
 11
542.2722210243107
 21
225.8508090167049
 31
0.0
  0
LINE
  5
C7B
330
1A
100
AcDbEntity
  8
NOKITOI
  6
PHANTOM
 62
     8
 48
3.5
100
AcDbLine
 10
543.2510210243106
 20
229.450809016705
 30
0.0
 11
543.7510210243106
 21
226.950809016705
 31
0.0
  0
ARC
  5
C7C
330
1A
100
AcDbEntity
  8
NOKITOI
  6
PHANTOM
 62
     8
 48
3.5
100
AcDbCircle
 10
545.7238165295128
 20
228.6508136542317
 30
0.0
 40
0.7999953624857498
100
AcDbArc
 50
358.20887265358
 51
89.99967808194663
  0
ARC
  5
C7D
330
1A
100
AcDbEntity
  8
NOKITOI
  6
PHANTOM
 62
     8
 48
3.5
100
AcDbCircle
 10
545.7238082734609
 20
228.6508221717913
 30
0.0
 40
1.999986844954076
100
AcDbArc
 50
358.21169271173
 51
89.99963471264477
  0
ARC
  5
C7E
330
1A
100
AcDbEntity
  8
SEIHIN
100
AcDbCircle
 10
545.7256593437687
 20
228.1507282201759
 30
0.0
 40
2.000009148391147
100
AcDbArc
 50
358.3322042374547
 51
89.82672090231103
  0
LINE
  5
C7F
330
1A
100
AcDbEntity
  8
NOKITOI
  6
PHANTOM
 62
     8
 48
3.5
100
AcDbLine
 10
542.1677210243108
 20
228.7489090167048
 30
0.0
 11
541.9069210243107
 21
230.0528090167049
 31
0.0
  0
LINE
  5
C80
330
1A
100
AcDbEntity
  8
SEIHIN
100
AcDbLine
 10
540.9871593437688
 20
230.1508282201759
 30
0.0
 11
540.9871593437688
 21
228.6507282201759
 31
0.0
  0
LINE
  5
C81
330
1A
100
AcDbEntity
  8
NOKITOI
  6
PHANTOM
 62
     8
 48
3.5
100
AcDbLine
 10
436.8773210243105
 20
213.7503090167049
 30
0.0
 11
439.7461210243107
 21
185.0629090167048
 31
0.0
  0
LINE
  5
C82
330
1A
100
AcDbEntity
  8
NOKITOI
  6
PHANTOM
 62
     8
 48
3.5
100
AcDbLine
 10
437.9183210243107
 20
215.4006090167049
 30
0.0
 11
440.9113210243111
 21
185.4708090167048
 31
0.0
  0
LINE
  5
C83
330
1A
100
AcDbEntity
  8
SEIHIN
100
AcDbLine
 10
435.1225593437687
 20
211.2004282201759
 30
0.0
 11
437.8384593437687
 21
184.0395682201759
 31
0.0
  0
LINE
  5
C84
330
1A
100
AcDbEntity
  8
SEIHIN
100
AcDbLine
 10
436.1176593437687
 20
211.3000282201759
 30
0.0
 11
438.7922593437687
 21
184.5512182201759
 31
0.0
  0
LINE
  5
C85
330
1A
100
AcDbEntity
  8
SEIHIN
100
AcDbLine
 10
439.7460290437686
 20
185.0631812201759
 30
0.0
 11
437.1126593437686
 21
211.3994282201759
 31
0.0
  0
LINE
  5
C86
330
1A
100
AcDbEntity
  8
CENTER_L
 48
5.0
100
AcDbLine
 10
487.7872593437687
 20
168.2173882201759
 30
0.0
 11
487.7872593437687
 21
210.6092282201759
 31
0.0
  0
LINE
  5
C87
330
1A
100
AcDbEntity
  8
NOKITOI
  6
PHANTOM
 62
     8
 48
3.5
100
AcDbLine
 10
451.1443210243108
 20
175.6507090167049
 30
0.0
 11
495.9737210243109
 21
175.6508090167049
 31
0.0
  0
LINE
  5
C88
330
1A
100
AcDbEntity
  8
NOKITOI
  6
PHANTOM
 62
     8
 48
3.5
100
AcDbLine
 10
495.9737210243109
 20
176.8508090167049
 30
0.0
 11
451.3941210243109
 21
176.8507090167049
 31
0.0
  0
LINE
  5
C89
330
1A
100
AcDbEntity
  8
SEIHIN
100
AcDbLine
 10
496.0788593437687
 20
175.6507082201759
 30
0.0
 11
451.1384502437687
 21
175.6507082201759
 31
0.0
  0
LINE
  5
C8A
330
1A
100
AcDbEntity
  8
SEIHIN
100
AcDbLine
 10
450.4303593437687
 20
173.6507082201759
 30
0.0
 11
496.0788593437687
 21
173.6507082201759
 31
0.0
  0
LINE
  5
C8B
330
1A
100
AcDbEntity
  8
SEIHIN
100
AcDbLine
 10
450.7872593437687
 20
174.6507082201759
 30
0.0
 11
496.0788593437687
 21
174.6507082201759
 31
0.0
  0
LINE
  5
C8C
330
1A
100
AcDbEntity
  8
NOKITOI
  6
PHANTOM
 62
     8
 48
3.5
100
AcDbLine
 10
455.1443210243108
 20
175.6507090167049
 30
0.0
 11
475.3022210243105
 21
175.6507090167049
 31
0.0
  0
LINE
  5
C8D
330
1A
100
AcDbEntity
  8
NOKITOI
  6
PHANTOM
 62
     8
 48
3.5
100
AcDbLine
 10
455.3941210243109
 20
176.8507090167049
 30
0.0
 11
475.3022210243105
 21
176.8507090167049
 31
0.0
  0
LINE
  5
C8E
330
1A
100
AcDbEntity
  8
SEIHIN
100
AcDbLine
 10
438.2002593437687
 20
183.365098220176
 30
0.0
 11
449.7970593437687
 21
173.8767582201759
 31
0.0
  0
ARC
  5
C8F
330
1A
100
AcDbEntity
  8
SEIHIN
100
AcDbCircle
 10
450.4303593437687
 20
174.6507082201759
 30
0.0
 40
1.000016904294394
100
AcDbArc
 50
230.7075725227607
 51
270.0
  0
LINE
  5
C90
330
1A
100
AcDbEntity
  8
NOKITOI
  6
PHANTOM
 62
     8
 48
3.5
100
AcDbLine
 10
440.1079210243109
 20
184.388409016705
 30
0.0
 11
450.5110210243109
 21
175.876709016705
 31
0.0
  0
LINE
  5
C91
330
1A
100
AcDbEntity
  8
SEIHIN
100
AcDbLine
 10
440.1043775437687
 20
184.3912569201759
 30
0.0
 11
450.5063055437687
 21
175.8805658201759
 31
0.0
  0
LINE
  5
C92
330
1A
100
AcDbEntity
  8
SEIHIN
100
AcDbLine
 10
439.1540593437687
 20
183.8767582201759
 30
0.0
 11
450.1540593437687
 21
174.8767582201759
 31
0.0
  0
LINE
  5
C93
330
1A
100
AcDbEntity
  8
NOKITOI
  6
PHANTOM
 62
     8
 48
3.5
100
AcDbLine
 10
441.0922210243104
 20
185.1335090167049
 30
0.0
 11
451.0775210243108
 21
176.9637090167047
 31
0.0
  0
ARC
  5
C94
330
1A
100
AcDbEntity
  8
NOKITOI
  6
PHANTOM
 62
     8
 48
3.5
100
AcDbCircle
 10
451.1443279568882
 20
176.6507065416988
 30
0.0
 40
0.9999975250179316
100
AcDbArc
 50
230.7053583247702
 51
269.9996027915957
  0
ARC
  5
C95
330
1A
100
AcDbEntity
  8
NOKITOI
  6
PHANTOM
 62
     8
 48
3.5
100
AcDbCircle
 10
451.3941146365621
 20
177.3507112966945
 30
0.0
 40
0.5000022800304047
100
AcDbArc
 50
230.7145501403941
 51
270.0007319787213
  0
ARC
  5
C96
330
1A
100
AcDbEntity
  8
SEIHIN
100
AcDbCircle
 10
451.1442593437687
 20
176.6507082201759
 30
0.0
 40
1.000016877465954
100
AcDbArc
 50
230.3630671151224
 51
269.6671668310872
  0
ARC
  5
C97
330
1A
100
AcDbEntity
  8
SEIHIN
100
AcDbCircle
 10
450.7872593437687
 20
175.6507082201759
 30
0.0
 40
0.9999852368784347
100
AcDbArc
 50
230.7120045223594
 51
270.0
  0
ARC
  5
C98
330
1A
100
AcDbEntity
  8
NOKITOI
  6
PHANTOM
 62
     8
 48
3.5
100
AcDbCircle
 10
441.4088384501891
 20
185.5204765303169
 30
0.0
 40
0.4999904508696396
100
AcDbArc
 50
185.7009889250754
 51
230.7099153622041
  0
ARC
  5
C99
330
1A
100
AcDbEntity
  8
SEIHIN
100
AcDbCircle
 10
438.8334593437686
 20
184.1390482201759
 30
0.0
 40
0.9999660317857914
100
AcDbArc
 50
185.7100207232928
 51
230.7120049526844
  0
ARC
  5
C9A
330
1A
100
AcDbEntity
  8
NOKITOI
  6
PHANTOM
 62
     8
 48
3.5
100
AcDbCircle
 10
440.7411435971797
 20
185.1623669450323
 30
0.0
 40
0.9999908507640039
100
AcDbArc
 50
185.7137670522469
 51
230.7112907769304
  0
ARC
  5
C9B
330
1A
100
AcDbEntity
  8
SEIHIN
100
AcDbCircle
 10
439.7872593437686
 20
184.6507082201759
 30
0.0
 40
0.9999660317857907
100
AcDbArc
 50
185.7100207232928
 51
230.7120049526844
  0
ARC
  5
C9C
330
1A
100
AcDbEntity
  8
SEIHIN
100
AcDbCircle
 10
440.7411593437687
 20
185.1623682201759
 30
0.0
 40
1.000051839915284
100
AcDbArc
 50
185.6920026729614
 51
230.4501903248898
  0
LINE
  5
C9D
330
1A
100
AcDbEntity
  8
SEIHIN
100
AcDbLine
 10
429.8430936437687
 20
213.6507282201759
 30
0.0
 11
487.7872593437687
 21
213.6507282201759
 31
0.0
  0
LINE
  5
C9E
330
1A
100
AcDbEntity
  8
NOKITOI
  6
PHANTOM
 62
     8
 48
3.5
100
AcDbLine
 10
437.4208210243112
 20
215.8508090167049
 30
0.0
 11
431.3889210243108
 21
215.8508090167049
 31
0.0
  0
ARC
  5
C9F
330
1A
100
AcDbEntity
  8
NOKITOI
  6
PHANTOM
 62
     8
 48
3.5
100
AcDbCircle
 10
433.302351951247
 20
220.6508447613687
 30
0.0
 40
3.99998565374706
100
AcDbArc
 50
96.47577619531674
 51
181.7913033408985
  0
LINE
  5
CA0
330
1A
100
AcDbEntity
  8
NOKITOI
  6
PHANTOM
 62
     8
 48
3.5
100
AcDbLine
 10
429.7412210243108
 20
214.6508090167049
 30
0.0
 11
435.8823210243106
 21
214.6508090167049
 31
0.0
  0
ARC
  5
CA1
330
1A
100
AcDbEntity
  8
NOKITOI
  6
PHANTOM
 62
     8
 48
3.5
100
AcDbCircle
 10
433.302338890662
 20
220.6508177450848
 30
0.0
 40
5.199991271650611
100
AcDbArc
 50
90.00019685927451
 51
142.074671395269
  0
LINE
  5
CA2
330
1A
100
AcDbEntity
  8
SEIHIN
100
AcDbLine
 10
434.6250593437686
 20
212.6507282201759
 30
0.0
 11
428.8725593437687
 21
212.6507282201759
 31
0.0
  0
LINE
  5
CA3
330
1A
100
AcDbEntity
  8
SEIHIN
100
AcDbLine
 10
427.9024593437687
 20
211.6507282201759
 30
0.0
 11
434.6250593437686
 21
211.6507282201759
 31
0.0
  0
LINE
  5
CA4
330
1A
100
AcDbEntity
  8
NOKITOI
  6
PHANTOM
 62
     8
 48
3.5
100
AcDbLine
 10
429.8508210243106
 20
230.6507090167049
 30
0.0
 11
433.1774210243109
 21
230.6508090167048
 31
0.0
  0
LINE
  5
CA5
330
1A
100
AcDbEntity
  8
NOKITOI
  6
PHANTOM
 62
     8
 48
3.5
100
AcDbLine
 10
429.8508210243106
 20
229.4507090167048
 30
0.0
 11
432.3235210243108
 21
229.450809016705
 31
0.0
  0
LINE
  5
CA6
330
1A
100
AcDbEntity
  8
SEIHIN
100
AcDbLine
 10
427.8874593437687
 20
232.1507282201759
 30
0.0
 11
434.3551593437687
 21
232.1506282201759
 31
0.0
  0
LINE
  5
CA7
330
1A
100
AcDbEntity
  8
SEIHIN
100
AcDbLine
 10
429.9551079437687
 20
230.1507282201759
 30
0.0
 11
434.5871593437687
 21
230.1507282201759
 31
0.0
  0
ARC
  5
CA8
330
1A
100
AcDbEntity
  8
NOKITOI
  6
PHANTOM
 62
     8
 48
3.5
100
AcDbCircle
 10
435.8823003744699
 20
213.6508277045541
 30
0.0
 40
0.9999813123640345
100
AcDbArc
 50
5.709409966648974
 51
89.99881682915043
  0
ARC
  5
CA9
330
1A
100
AcDbEntity
  8
SEIHIN
100
AcDbCircle
 10
434.6250599437687
 20
211.1507276201759
 30
0.0
 40
2.50000057633207
100
AcDbArc
 50
5.709239914462039
 51
89.99998395718533
  0
ARC
  5
CAA
330
1A
100
AcDbEntity
  8
NOKITOI
  6
PHANTOM
 62
     8
 48
3.5
100
AcDbCircle
 10
437.4208079533062
 20
215.3508208469848
 30
0.0
 40
0.499988169890889
100
AcDbArc
 50
5.703393862284343
 51
89.99850213773374
  0
ARC
  5
CAB
330
1A
100
AcDbEntity
  8
SEIHIN
100
AcDbCircle
 10
434.6250593437686
 20
211.1507282201759
 30
0.0
 40
0.4999931128597423
100
AcDbArc
 50
5.716296639528268
 51
90.0
  0
ARC
  5
CAC
330
1A
100
AcDbEntity
  8
SEIHIN
100
AcDbCircle
 10
434.6250593437686
 20
211.1507282201759
 30
0.0
 40
1.500019235952838
100
AcDbArc
 50
5.7083130896103
 51
90.0
  0
ARC
  5
CAD
330
1A
100
AcDbEntity
  8
SEIHIN
100
AcDbCircle
 10
436.0871593437687
 20
231.6506282201759
 30
0.0
 40
1.5
100
AcDbArc
 50
0.000000000000007
 51
90.0
  0
ARC
  5
CAE
330
1A
100
AcDbEntity
  8
NOKITOI
  6
PHANTOM
 62
     8
 48
3.5
100
AcDbCircle
 10
433.1774282788663
 20
230.1508001668614
 30
0.0
 40
0.500008849895925
100
AcDbArc
 50
348.6864043304882
 51
90.00083129614504
  0
ARC
  5
CAF
330
1A
100
AcDbEntity
  8
SEIHIN
100
AcDbCircle
 10
434.3551593437687
 20
234.1506282201759
 30
0.0
 40
1.999978020300449
100
AcDbArc
 50
270.0
 51
329.9992729067443
  0
ARC
  5
CB0
330
1A
100
AcDbEntity
  8
NOKITOI
  6
PHANTOM
 62
     8
 48
3.5
100
AcDbCircle
 10
435.8129169029042
 20
221.6508051066743
 30
0.0
 40
0.4999960899864752
100
AcDbArc
 50
270.0004722821405
 51
356.9852756208262
  0
ARC
  5
CB1
330
1A
100
AcDbEntity
  8
NOKITOI
  6
PHANTOM
 62
     8
 48
3.5
100
AcDbCircle
 10
433.5638108378746
 20
221.650820761429
 30
0.0
 40
0.5000117448278309
100
AcDbArc
 50
171.8726853912841
 51
270.0011672521981
  0
LINE
  5
CB2
330
1A
100
AcDbEntity
  8
NOKITOI
  6
PHANTOM
 62
     8
 48
3.5
100
AcDbLine
 10
435.8129210243108
 20
221.1508090167049
 30
0.0
 11
433.5638210243113
 21
221.1508090167049
 31
0.0
  0
LINE
  5
CB3
330
1A
100
AcDbEntity
  8
NOKITOI
  6
PHANTOM
 62
     8
 48
3.5
100
AcDbLine
 10
436.3122210243107
 20
221.6245090167049
 30
0.0
 11
436.628021024311
 21
227.6245090167049
 31
0.0
  0
LINE
  5
CB4
330
1A
100
AcDbEntity
  8
NOKITOI
  6
PHANTOM
 62
     8
 48
3.5
100
AcDbLine
 10
435.1488210243108
 20
222.3508090167049
 30
0.0
 11
435.329921024311
 21
225.7922090167048
 31
0.0
  0
LINE
  5
CB5
330
1A
100
AcDbEntity
  8
NOKITOI
  6
PHANTOM
 62
     8
 48
3.5
100
AcDbLine
 10
433.0688210243109
 20
221.7215090167048
 30
0.0
 11
433.4026210243107
 21
224.057709016705
 31
0.0
  0
LINE
  5
CB6
330
1A
100
AcDbEntity
  8
NOKITOI
  6
PHANTOM
 62
     8
 48
3.5
100
AcDbLine
 10
434.3709210243112
 20
222.3508090167049
 30
0.0
 11
434.7749210243107
 21
225.1792090167048
 31
0.0
  0
LINE
  5
CB7
330
1A
100
AcDbEntity
  8
NOKITOI
  6
PHANTOM
 62
     8
 48
3.5
100
AcDbLine
 10
435.1488210243108
 20
222.3508090167049
 30
0.0
 11
434.3709210243112
 21
222.3508090167049
 31
0.0
  0
ARC
  5
CB8
330
1A
100
AcDbEntity
  8
NOKITOI
  6
PHANTOM
 62
     8
 48
3.5
100
AcDbCircle
 10
436.1287173148155
 20
227.6508129267356
 30
0.0
 40
0.4999960899831856
100
AcDbArc
 50
356.9843782585345
 51
89.9995749198487
  0
LINE
  5
CB9
330
1A
100
AcDbEntity
  8
NOKITOI
  6
PHANTOM
 62
     8
 48
3.5
100
AcDbLine
 10
434.7749210243107
 20
225.1792090167048
 30
0.0
 11
435.329921024311
 21
225.7922090167048
 31
0.0
  0
LINE
  5
CBA
330
1A
100
AcDbEntity
  8
NOKITOI
  6
PHANTOM
 62
     8
 48
3.5
100
AcDbLine
 10
431.8235210243108
 20
226.950809016705
 30
0.0
 11
434.7601210243109
 21
226.950809016705
 31
0.0
  0
ARC
  5
CBB
330
1A
100
AcDbEntity
  8
NOKITOI
  6
PHANTOM
 62
     8
 48
3.5
100
AcDbCircle
 10
433.8972218073193
 20
228.6508080617031
 30
0.0
 40
0.4999990449987399
100
AcDbArc
 50
168.6967198015449
 51
269.9999102736945
  0
ARC
  5
CBC
330
1A
100
AcDbEntity
  8
NOKITOI
  6
PHANTOM
 62
     8
 48
3.5
100
AcDbCircle
 10
432.9075916518111
 20
224.1284392491997
 30
0.0
 40
0.4999578477751074
100
AcDbArc
 50
351.8669438287075
 51
96.47390928779223
  0
LINE
  5
CBD
330
1A
100
AcDbEntity
  8
NOKITOI
  6
PHANTOM
 62
     8
 48
3.5
100
AcDbLine
 10
433.7643210243107
 20
225.8508090167049
 30
0.0
 11
433.3023210243107
 21
225.8508090167049
 31
0.0
  0
LINE
  5
CBE
330
1A
100
AcDbEntity
  8
NOKITOI
  6
PHANTOM
 62
     8
 48
3.5
100
AcDbLine
 10
433.7643210243107
 20
225.8508090167049
 30
0.0
 11
434.7601210243109
 21
226.950809016705
 31
0.0
  0
LINE
  5
CBF
330
1A
100
AcDbEntity
  8
NOKITOI
  6
PHANTOM
 62
     8
 48
3.5
100
AcDbLine
 10
436.1287210243106
 20
228.1508090167049
 30
0.0
 11
433.8972210243108
 21
228.1508090167049
 31
0.0
  0
LINE
  5
CC0
330
1A
100
AcDbEntity
  8
NOKITOI
  6
PHANTOM
 62
     8
 48
3.5
100
AcDbLine
 10
432.3235210243108
 20
229.450809016705
 30
0.0
 11
431.8235210243108
 21
226.950809016705
 31
0.0
  0
LINE
  5
CC1
330
1A
100
AcDbEntity
  8
NOKITOI
  6
PHANTOM
 62
     8
 48
3.5
100
AcDbLine
 10
433.4069210243108
 20
228.748809016705
 30
0.0
 11
433.6677210243109
 21
230.0528090167049
 31
0.0
  0
LINE
  5
CC2
330
1A
100
AcDbEntity
  8
SEIHIN
100
AcDbLine
 10
434.5871593437687
 20
230.1507282201759
 30
0.0
 11
434.5871593437687
 21
228.6506282201759
 31
0.0
  0
ARC
  5
CC3
330
1A
100
AcDbEntity
  8
SEIHIN
100
AcDbCircle
 10
433.2809593437687
 20
232.9569282201759
 30
0.0
 40
4.499960833695206
100
AcDbArc
 50
286.8753475869976
 51
343.1258712404237
  0
LINE
  5
CC4
330
1A
100
AcDbEntity
  8
NOKITOI
  6
PHANTOM
 62
     8
 48
3.5
100
AcDbLine
 10
427.8518210243108
 20
228.5883090167049
 30
0.0
 11
428.2419210243109
 21
216.1039090167048
 31
0.0
  0
LINE
  5
CC5
330
1A
100
AcDbEntity
  8
NOKITOI
  6
PHANTOM
 62
     8
 48
3.5
100
AcDbLine
 10
429.3898210243108
 20
217.7882090167049
 30
0.0
 11
429.3043210243111
 21
220.5258090167049
 31
0.0
  0
LINE
  5
CC6
330
1A
100
AcDbEntity
  8
SEIHIN
100
AcDbLine
 10
427.9501003437687
 20
228.0854747201759
 30
0.0
 11
428.3435930437687
 21
215.1009154201759
 31
0.0
  0
LINE
  5
CC7
330
1A
100
AcDbEntity
  8
SEIHIN
100
AcDbLine
 10
426.4030593437687
 20
213.1053282201759
 30
0.0
 11
425.8884593437687
 21
230.0901282201759
 31
0.0
  0
LINE
  5
CC8
330
1A
100
AcDbEntity
  8
SEIHIN
100
AcDbLine
 10
427.3732593437687
 20
214.1053282201759
 30
0.0
 11
426.8888593437687
 21
230.0901282201759
 31
0.0
  0
ARC
  5
CC9
330
1A
100
AcDbEntity
  8
NOKITOI
  6
PHANTOM
 62
     8
 48
3.5
100
AcDbCircle
 10
429.7412038111326
 20
216.1508256998526
 30
0.0
 40
1.500016683246579
100
AcDbArc
 50
181.792357675589
 51
270.0006574876651
  0
ARC
  5
CCA
330
1A
100
AcDbEntity
  8
NOKITOI
  6
PHANTOM
 62
     8
 48
3.5
100
AcDbCircle
 10
431.3888830364866
 20
217.8507458372771
 30
0.0
 40
2.000036820932882
100
AcDbArc
 50
181.7889408725804
 51
270.001088250966
  0
ARC
  5
CCB
330
1A
100
AcDbEntity
  8
SEIHIN
100
AcDbCircle
 10
428.8725593437687
 20
214.1507282201759
 30
0.0
 40
1.499993609866689
100
AcDbArc
 50
181.7344321595528
 51
270.0
  0
ARC
  5
CCC
330
1A
100
AcDbEntity
  8
SEIHIN
100
AcDbCircle
 10
429.8427593437687
 20
215.1507282201759
 30
0.0
 40
1.499993636969331
100
AcDbArc
 50
181.9030667736619
 51
270.0127693736615
  0
ARC
  5
CCD
330
1A
100
AcDbEntity
  8
SEIHIN
100
AcDbCircle
 10
427.9024593437687
 20
213.1507282201759
 30
0.0
 40
1.499993609866689
100
AcDbArc
 50
181.7344321595528
 51
270.0
  0
ARC
  5
CCE
330
1A
100
AcDbEntity
  8
SEIHIN
100
AcDbCircle
 10
428.8879593437687
 20
230.1507282201759
 30
0.0
 40
2.000009143752309
100
AcDbArc
 50
90.0
 51
181.7363112956577
  0
ARC
  5
CCF
330
1A
100
AcDbEntity
  8
SEIHIN
100
AcDbCircle
 10
427.8874593437687
 20
230.1507282201759
 30
0.0
 40
1.999959177979727
100
AcDbArc
 50
90.0
 51
181.7363977374687
  0
LINE
  5
CD0
330
1A
100
AcDbEntity
  8
NOKITOI
  6
PHANTOM
 62
     8
 48
3.5
100
AcDbLine
 10
429.0512210243112
 20
228.6258090167048
 30
0.0
 11
429.2005210243108
 21
223.846809016705
 31
0.0
  0
ARC
  5
CD1
330
1A
100
AcDbEntity
  8
NOKITOI
  6
PHANTOM
 62
     8
 48
3.5
100
AcDbCircle
 10
429.8507770579579
 20
228.6507636542319
 30
0.0
 40
0.7999453636812564
100
AcDbArc
 50
89.99685092684627
 51
181.7876563552118
  0
ARC
  5
CD2
330
1A
100
AcDbEntity
  8
NOKITOI
  6
PHANTOM
 62
     8
 48
3.5
100
AcDbCircle
 10
429.850832261305
 20
228.650820610522
 30
0.0
 40
1.999988406214315
100
AcDbArc
 50
90.00032191804388
 51
181.791127346407
  0
ARC
  5
CD3
330
1A
100
AcDbEntity
  8
SEIHIN
100
AcDbCircle
 10
429.9490593437687
 20
228.1507282201759
 30
0.0
 40
2.00000915834316
100
AcDbArc
 50
89.82672090231103
 51
181.8696868518821
  0
LINE
  5
CD4
330
1A
100
AcDbEntity
  8
SEIHIN
100
AcDbLine
 10
437.1803593437687
 20
349.5298111061053
 30
0.0
 11
537.0799593437687
 21
449.4295111061053
 31
0.0
  0
LINE
  5
CD5
330
1A
100
AcDbEntity
  8
SEIHIN
100
AcDbLine
 10
426.7045593437686
 20
346.1251111061053
 30
0.0
 11
544.7151436437686
 21
464.1356954061053
 31
0.0
  0
LINE
  5
CD6
330
1A
100
AcDbEntity
  8
SEIHIN
100
AcDbLine
 10
428.1197593437688
 20
344.7118111061052
 30
0.0
 11
546.1406593437686
 21
462.7329111061053
 31
0.0
  0
LINE
  5
CD7
330
1A
100
AcDbEntity
  8
SEIHIN
100
AcDbLine
 10
548.7484593437686
 20
308.4190111061053
 30
0.0
 11
426.8259593437687
 21
308.4190111061053
 31
0.0
  0
LINE
  5
CD8
330
1A
100
AcDbEntity
  8
SEIHIN
100
AcDbLine
 10
538.7871593437687
 20
333.4190111061053
 30
0.0
 11
538.7870593437687
 21
448.7224111061053
 31
0.0
  0
LINE
  5
CD9
330
1A
100
AcDbEntity
  8
SEIHIN
100
AcDbLine
 10
549.8487593437687
 20
313.4191111061053
 30
0.0
 11
549.8486593437688
 21
462.0378303061053
 31
0.0
  0
LINE
  5
CDA
330
1A
100
AcDbEntity
  8
SEIHIN
100
AcDbLine
 10
547.8477593437687
 20
335.4190111061053
 30
0.0
 11
547.8477593437687
 21
462.0258111061053
 31
0.0
  0
DIMENSION
  5
CDB
330
1A
100
AcDbEntity
  8
SUNPOU
100
AcDbDimension
  2
*D10
 10
570.1856153969384
 20
308.4190111061053
 30
0.0
 11
565.1856153969382
 21
325.9190111061054
 31
0.0
 70
    32
  1
\U+203B<>
  3
STANDARD
100
AcDbAlignedDimension
 13
548.7484593437686
 23
343.4190111061053
 33
0.0
 14
548.7484593437686
 24
308.4190111061053
 34
0.0
 50
90.0
100
AcDbRotatedDimension
1001
ACAD
1000
DSTYLE
1002
{
1070
    41
1040
7.0
1070
    42
1040
6.0
1070
    43
1040
14.0
1070
    44
1040
3.0
1070
    73
1070
     0
1070
    74
1070
     0
1070
    77
1070
     3
1070
   140
1040
6.0
1070
   141
1040
150.0
1070
   147
1040
2.0
1070
   172
1070
     1
1070
   173
1070
     1
1070
   176
1070
     4
1070
   177
1070
     4
1070
   178
1070
     4
1070
   271
1070
     0
1070
   272
1070
     2
1070
   341
1005
6D
1070
     6
1000
OPEN
1070
     7
1000
OPEN
1002
}
  0
LINE
  5
CDC
330
1A
100
AcDbEntity
  8
SEIHIN
100
AcDbLine
 10
539.4871593437687
 20
308.4190111061053
 30
0.0
 11
539.4871593437687
 21
333.4191111061053
 31
0.0
  0
LINE
  5
CDD
330
1A
100
AcDbEntity
  8
SEIHIN
100
AcDbLine
 10
541.2192593437687
 20
308.4190111061053
 30
0.0
 11
541.2192593437687
 21
333.4191111061053
 31
0.0
  0
LINE
  5
CDE
330
1A
100
AcDbEntity
  8
SEIHIN
100
AcDbLine
 10
537.9871593437687
 20
308.4190111061053
 30
0.0
 11
537.9871593437687
 21
333.4191111061053
 31
0.0
  0
LINE
  5
CDF
330
1A
100
AcDbEntity
  8
SEIHIN
100
AcDbLine
 10
549.7484593437686
 20
313.4191111061053
 30
0.0
 11
548.7485593437687
 21
308.4191111061053
 31
0.0
  0
LINE
  5
CE0
330
1A
100
AcDbEntity
  8
SEIHIN
100
AcDbLine
 10
537.9871593437687
 20
333.4190111061053
 30
0.0
 11
545.8477593437687
 21
333.4190111061053
 31
0.0
  0
ARC
  5
CE1
330
1A
100
AcDbEntity
  8
SEIHIN
100
AcDbCircle
 10
545.8477593437687
 20
335.4190111061053
 30
0.0
 40
2.0
100
AcDbArc
 50
270.0
 51
0.000000000000007
  0
ARC
  5
CE2
330
1A
100
AcDbEntity
  8
SEIHIN
100
AcDbCircle
 10
537.7870593437688
 20
448.7224111061053
 30
0.0
 40
0.99999520914008
100
AcDbArc
 50
0.000000000000007
 51
135.0000000000011
  0
ARC
  5
CE3
330
1A
100
AcDbEntity
  8
SEIHIN
100
AcDbCircle
 10
546.8486593437687
 20
462.0266111061053
 30
0.0
 40
3.000020974685158
100
AcDbArc
 50
0.2142699376090514
 51
135.3299393378194
  0
ARC
  5
CE4
330
1A
100
AcDbEntity
  8
SEIHIN
100
AcDbCircle
 10
546.8477593437687
 20
462.0258111061053
 30
0.0
 40
0.9999952091400599
100
AcDbArc
 50
0.000000000000007
 51
135.0
  0
LINE
  5
CE5
330
1A
100
AcDbEntity
  8
CENTER_L
 48
5.0
100
AcDbLine
 10
487.7872593437687
 20
301.0669111061052
 30
0.0
 11
487.7871593437687
 21
413.9034111061053
 31
0.0
  0
LINE
  5
CE6
330
1A
100
AcDbEntity
  8
SEIHIN
100
AcDbLine
 10
434.3553593437687
 20
308.4189111061053
 30
0.0
 11
434.3552593437687
 21
333.4190111061053
 31
0.0
  0
LINE
  5
CE7
330
1A
100
AcDbEntity
  8
SEIHIN
100
AcDbLine
 10
436.0871593437687
 20
308.4189111061053
 30
0.0
 11
436.0871593437687
 21
333.4190111061053
 31
0.0
  0
LINE
  5
CE8
330
1A
100
AcDbEntity
  8
SEIHIN
100
AcDbLine
 10
437.5871593437687
 20
308.4189111061053
 30
0.0
 11
437.5871593437687
 21
333.4190111061053
 31
0.0
  0
LINE
  5
CE9
330
1A
100
AcDbEntity
  8
SEIHIN
100
AcDbLine
 10
450.7872593437687
 20
308.4190111061053
 30
0.0
 11
450.7872593437687
 21
362.7225111061053
 31
0.0
  0
LINE
  5
CEA
330
1A
100
AcDbEntity
  8
SEIHIN
100
AcDbLine
 10
439.7872593437686
 20
308.4190111061053
 30
0.0
 11
439.7872593437686
 21
351.7225111061053
 31
0.0
  0
LINE
  5
CEB
330
1A
100
AcDbEntity
  8
SEIHIN
100
AcDbLine
 10
425.8259593437687
 20
313.4190111061053
 30
0.0
 11
425.8259593437687
 21
344.0038111061053
 31
0.0
  0
LINE
  5
CEC
330
1A
100
AcDbEntity
  8
SEIHIN
100
AcDbLine
 10
425.8259593437687
 20
313.4190111061053
 30
0.0
 11
426.8259593437687
 21
308.4190111061053
 31
0.0
  0
LINE
  5
CED
330
1A
100
AcDbEntity
  8
SEIHIN
100
AcDbLine
 10
429.8268593437687
 20
333.4190111061053
 30
0.0
 11
437.5871593437687
 21
333.4190111061053
 31
0.0
  0
ARC
  5
CEE
330
1A
100
AcDbEntity
  8
SEIHIN
100
AcDbCircle
 10
437.8874593437687
 20
348.8227111061053
 30
0.0
 40
0.9999952091400599
100
AcDbArc
 50
135.0
 51
180.0
  0
ARC
  5
CEF
330
1A
100
AcDbEntity
  8
SEIHIN
100
AcDbCircle
 10
440.7872593437686
 20
351.7225111061053
 30
0.0
 40
0.9999952091400599
100
AcDbArc
 50
135.0
 51
180.0
  0
LINE
  5
CF0
330
1A
100
AcDbEntity
  8
SEIHIN
100
AcDbLine
 10
436.8874593437687
 20
333.4190111061053
 30
0.0
 11
436.8874593437687
 21
348.8227111061053
 31
0.0
  0
ARC
  5
CF1
330
1A
100
AcDbEntity
  8
SEIHIN
100
AcDbCircle
 10
451.7872593437687
 20
362.7225111061053
 30
0.0
 40
0.9999952091400599
100
AcDbArc
 50
135.0
 51
180.0
  0
ARC
  5
CF2
330
1A
100
AcDbEntity
  8
SEIHIN
100
AcDbCircle
 10
428.8259593437687
 20
344.0038111061053
 30
0.0
 40
2.999985628253527
100
AcDbArc
 50
135.0
 51
180.001909868484
  0
ARC
  5
CF3
330
1A
100
AcDbEntity
  8
SEIHIN
100
AcDbCircle
 10
428.8268593437686
 20
344.0047111061053
 30
0.0
 40
0.9999952091400599
100
AcDbArc
 50
135.0
 51
180.0
  0
ARC
  5
CF4
330
1A
100
AcDbEntity
  8
SEIHIN
100
AcDbCircle
 10
429.8268593437687
 20
335.4190111061053
 30
0.0
 40
2.0
100
AcDbArc
 50
180.0
 51
270.0
  0
LINE
  5
CF5
330
1A
100
AcDbEntity
  8
SEIHIN
100
AcDbLine
 10
427.8268593437687
 20
335.4190111061053
 30
0.0
 11
427.8268593437687
 21
344.0047111061053
 31
0.0
  0
LINE
  5
FEB
330
1A
100
AcDbEntity
  8
ZUWAKU
100
AcDbLine
 10
208.6466015947312
 20
15.20000012033744
 30
0.0
 11
447.4243642756546
 21
15.20000012033743
 31
0.0
  0
LINE
  5
FEC
330
1A
100
AcDbEntity
  8
ZUWAKU
100
AcDbLine
 10
208.6466015947312
 20
15.60000012033743
 30
0.0
 11
447.4243642756546
 21
15.60000012033744
 31
0.0
  0
LINE
  5
FED
330
1A
100
AcDbEntity
  8
ZUWAKU
100
AcDbLine
 10
208.6466015947312
 20
15.40000012033743
 30
0.0
 11
447.4243642756546
 21
15.40000012033743
 31
0.0
  0
LINE
  5
FEE
330
1A
100
AcDbEntity
  8
ZUWAKU
100
AcDbLine
 10
0.0000003046632173
 20
30.80000012033741
 30
0.0
 11
797.400000304663
 21
30.80000012033741
 31
0.0
  0
LINE
  5
FEF
330
1A
100
AcDbEntity
  8
ZUWAKU
100
AcDbLine
 10
0.0000003046632173
 20
30.60000012033741
 30
0.0
 11
797.400000304663
 21
30.60000012033741
 31
0.0
  0
LINE
  5
FF0
330
1A
100
AcDbEntity
  8
ZUWAKU
100
AcDbLine
 10
0.0000003046632173
 20
30.40000012033741
 30
0.0
 11
797.400000304663
 21
30.40000012033741
 31
0.0
  0
LINE
  5
FF1
330
1A
100
AcDbEntity
  8
ZUWAKU
100
AcDbLine
 10
0.0000003046632173
 20
30.2000001203374
 30
0.0
 11
797.400000304663
 21
30.2000001203374
 31
0.0
  0
LINE
  5
FF2
330
1A
100
AcDbEntity
  8
ZUWAKU
100
AcDbLine
 10
0.0000003046632173
 20
30.0000001203374
 30
0.0
 11
797.400000304663
 21
30.0000001203374
 31
0.0
  0
LWPOLYLINE
  5
FF3
330
1A
100
AcDbEntity
  8
ZUWAKU
100
AcDbPolyline
 90
        4
 70
     1
 43
0.0
 10
0.2000003046631491
 20
551.4000001203375
 10
0.2000003046631491
 20
0.2000001203374495
 10
797.400000304663
 20
0.2000001203374726
 10
797.4000003046633
 20
551.4000001203375
  0
LWPOLYLINE
  5
FF4
330
1A
100
AcDbEntity
  8
ZUWAKU
100
AcDbPolyline
 90
        4
 70
     1
 43
0.0
 10
0.6000003046631264
 20
551.0000001203374
 10
0.6000003046631264
 20
0.6000001203374268
 10
797.0000003046634
 20
0.600000120337473
 10
797.0000003046632
 20
551.0000001203374
  0
LWPOLYLINE
  5
FF5
330
1A
100
AcDbEntity
  8
ZUWAKU
100
AcDbPolyline
 90
        4
 70
     1
 43
0.0
 10
0.0000003046632173
 20
551.6000001203374
 10
0.0000003046632173
 20
0.000000120337404
 10
797.6000003046634
 20
0.0000001203374715
 10
797.6000003046634
 20
551.6000001203375
  0
LWPOLYLINE
  5
FF6
330
1A
100
AcDbEntity
  8
ZUWAKU
100
AcDbPolyline
 90
        4
 70
     1
 43
0.0
 10
0.4000003046631946
 20
551.2000001203374
 10
0.4000003046631946
 20
0.400000120337495
 10
797.2000003046632
 20
0.4000001203374719
 10
797.2000003046632
 20
551.2000001203374
  0
LWPOLYLINE
  5
FF7
330
1A
100
AcDbEntity
  8
ZUWAKU
100
AcDbPolyline
 90
        4
 70
     1
 43
0.0
 10
0.8000003046631718
 20
550.8000001203375
 10
0.8000003046631718
 20
0.8000001203374722
 10
796.8000003046632
 20
0.8000001203374722
 10
796.8000003046632
 20
550.8000001203375
  0
TEXT
  5
FF8
330
1A
100
AcDbEntity
  8
MOJI
100
AcDbText
 10
92.95778989283235
 20
12.74117825061216
 30
0.0
 40
6.0
  1
新・丸トップＲＶ１０５
 41
0.9
  7
ｽﾀｲﾙ1
100
AcDbText
  0
HATCH
  5
FF9
330
1A
100
AcDbEntity
  8
ZUWAKU
100
AcDbHatch
 10
0.0
 20
0.0
 30
0.0
210
0.0
220
0.0
230
1.0
  2
ANSI37
 70
     0
 71
     0
 91
        8
 92
        7
 72
     1
 73
     1
 93
       24
 10
14.50226296578307
 20
17.64484860132098
 42
-0.1989123673796348
 10
14.09221245944434
 20
18.63479809498203
 42
0.0
 10
14.09221245944434
 20
19.92500012033741
 42
-0.4142135623730912
 10
14.61721245944431
 20
20.4500001203374
 42
0.0
 10
17.59221245944422
 20
20.4500001203374
 42
0.4142135623731546
 10
18.11721245944431
 20
20.97500012033739
 42
0.0
 10
18.11721245944431
 20
22.72500012033741
 42
0.4142135623731586
 10
17.59221245944422
 20
23.25000012033741
 42
0.0
 10
14.09221245944434
 20
23.25000012033741
 42
0.4142135623730928
 10
11.29221245944438
 20
20.45000012033743
 42
0.0
 10
11.29221245944438
 20
18.63479809498216
 42
0.1989123673796619
 10
12.52236397846081
 20
15.66494961399856
 42
0.0
 10
15.43216195310549
 20
12.7551516393539
 42
-0.1989123673796613
 10
15.84221245944434
 20
11.76520214569271
 42
0.0
 10
15.84221245944434
 20
10.47500012033739
 42
-0.4142135623730911
 10
15.31721245944436
 20
9.950000120337406
 42
0.0
 10
12.34221245944445
 20
9.950000120337406
 42
0.4142135623731526
 10
11.81721245944436
 20
9.425000120337418
 42
0.0
 10
11.81721245944436
 20
7.675000120337397
 42
0.4142135623731526
 10
12.34221245944445
 20
7.150000120337409
 42
0.0
 10
15.84221245944434
 20
7.150000120337409
 42
0.4142135623731044
 10
18.6422124594444
 20
9.950000120337385
 42
0.0
 10
18.6422124594444
 20
11.76520214569265
 42
0.1989123673796604
 10
17.41206094042786
 20
14.73505062667619
 42
0.0
 97
        0
 92
        7
 72
     1
 73
     1
 93
       16
 10
23.54221245944438
 20
19.05000012033741
 42
-0.4142135623730935
 10
24.94221245944436
 20
20.4500001203374
 42
0.0
 10
26.86721245944431
 20
20.4500001203374
 42
0.4142135623731546
 10
27.3922124594444
 20
20.97500012033739
 42
0.0
 10
27.3922124594444
 20
22.72500012033741
 42
0.4142135623730951
 10
26.86721245944443
 20
23.25000012033741
 42
0.0
 10
24.94221245944425
 20
23.25000012033736
 42
0.4142135623730892
 10
20.74221245944432
 20
19.05000012033734
 42
0.0
 10
20.74221245944432
 20
11.35000012033743
 42
0.4142135623730969
 10
24.94221245944436
 20
7.150000120337409
 42
0.0
 10
26.86721245944431
 20
7.150000120337409
 42
0.4142135623731526
 10
27.3922124594444
 20
7.675000120337397
 42
0.0
 10
27.3922124594444
 20
9.425000120337418
 42
0.4142135623730891
 10
26.86721245944443
 20
9.950000120337406
 42
0.0
 10
24.94221245944436
 20
9.950000120337406
 42
-0.4142135623730928
 10
23.54221245944438
 20
11.35000012033739
 42
0.0
 97
        0
 92
        7
 72
     1
 73
     1
 93
        2
 10
24.24221245944432
 20
15.2000001203374
 42
1.0
 10
27.74221245944431
 20
15.2000001203374
 42
1.0
 97
        0
 92
        7
 72
     1
 73
     1
 93
       26
 10
37.31485894162233
 20
19.20504731390083
 42
0.0
 10
38.37649857476014
 20
22.56690615217042
 42
0.5069206636600134
 10
37.87586767556479
 20
23.25000012033741
 42
0.0
 10
36.17697829595556
 20
23.25000012033741
 42
0.3272098845218764
 10
35.6763473967602
 20
22.88309408850437
 42
0.0
 10
33.80807752212843
 20
16.96690615217048
 42
-0.3272098845219541
 10
33.30744662293295
 20
16.6000001203374
 42
0.0
 10
33.16721245944449
 20
16.6000001203374
 42
-0.4142135623731526
 10
32.6422124594444
 20
17.12500012033739
 42
0.0
 10
32.6422124594444
 20
22.72500012033741
 42
0.4142135623730951
 10
32.11721245944443
 20
23.25000012033741
 42
0.0
 10
30.36721245944431
 20
23.25000012033741
 42
0.4142135623730871
 10
29.84221245944434
 20
22.72500012033742
 42
0.0
 10
29.84221245944434
 20
7.675000120337397
 42
0.4142135623730891
 10
30.36721245944431
 20
7.150000120337409
 42
0.0
 10
32.11721245944431
 20
7.150000120337409
 42
0.4142135623731526
 10
32.6422124594444
 20
7.675000120337397
 42
0.0
 10
32.6422124594444
 20
13.27500012033742
 42
-0.4142135623731526
 10
33.16721245944449
 20
13.80000012033741
 42
0.0
 10
33.30744662293307
 20
13.80000012033741
 42
-0.3272098845218915
 10
33.80807752212843
 20
13.43309408850433
 42
0.0
 10
35.6763473967602
 20
7.516906152170481
 42
0.3272098845218902
 10
36.17697829595556
 20
7.150000120337409
 42
0.0
 10
37.87586767556479
 20
7.150000120337409
 42
0.5069206636600335
 10
38.37649857476014
 20
7.833094088504417
 42
0.0
 10
36.05010719628649
 20
15.20000012033754
 42
0.0
 97
        0
 92
        7
 72
     1
 73
     1
 93
        8
 10
43.49221245944431
 20
22.72500012033741
 42
0.4142135623731546
 10
42.96721245944422
 20
23.25000012033741
 42
0.0
 10
41.21721245944445
 20
23.25000012033741
 42
0.4142135623731507
 10
40.69221245944436
 20
22.72500012033742
 42
0.0
 10
40.69221245944436
 20
7.675000120337397
 42
0.4142135623731526
 10
41.21721245944445
 20
7.150000120337409
 42
0.0
 10
42.96721245944422
 20
7.150000120337409
 42
0.4142135623731526
 10
43.49221245944431
 20
7.675000120337397
 42
0.0
 97
        0
 92
        7
 72
     1
 73
     1
 93
       24
 10
48.39221245944441
 20
19.92500012033741
 42
-0.4142135623731546
 10
48.9172124594445
 20
20.4500001203374
 42
0.0
 10
51.89221245944441
 20
20.4500001203374
 42
0.4142135623730911
 10
52.41721245944439
 20
20.97500012033739
 42
0.0
 10
52.41721245944439
 20
22.72500012033741
 42
0.4142135623730952
 10
51.89221245944441
 20
23.25000012033741
 42
0.0
 10
48.39221245944441
 20
23.25000012033741
 42
0.4142135623731048
 10
45.59221245944434
 20
20.45000012033743
 42
0.0
 10
45.59221245944434
 20
18.63479809498216
 42
0.1989123673796613
 10
46.82236397846089
 20
15.66494961399861
 42
0.0
 10
49.73216195310556
 20
12.75515163935394
 42
-0.1989123673796402
 10
50.1422124594444
 20
11.76520214569287
 42
0.0
 10
50.1422124594444
 20
10.47500012033739
 42
-0.4142135623730911
 10
49.61721245944443
 20
9.950000120337406
 42
0.0
 10
46.64221245944441
 20
9.950000120337406
 42
0.4142135623731526
 10
46.11721245944432
 20
9.425000120337418
 42
0.0
 10
46.11721245944432
 20
7.675000120337397
 42
0.4142135623730891
 10
46.64221245944429
 20
7.150000120337409
 42
0.0
 10
50.1422124594444
 20
7.150000120337409
 42
0.4142135623730925
 10
52.94221245944436
 20
9.950000120337385
 42
0.0
 10
52.94221245944436
 20
11.76520214569265
 42
0.1989123673796675
 10
51.71206094042782
 20
14.73505062667631
 42
0.0
 10
48.80226296578325
 20
17.64484860132082
 42
-0.1989123673796652
 10
48.39221245944441
 20
18.63479809498199
 42
0.0
 97
        0
 92
        7
 72
     1
 73
     1
 93
       16
 10
57.84221245944434
 20
22.72500012033739
 42
0.414213562373103
 10
57.31721245944436
 20
23.25000012033741
 42
0.0
 10
55.56721245944436
 20
23.25000012033741
 42
0.4142135623730871
 10
55.04221245944439
 20
22.72500012033742
 42
0.0
 10
55.04221245944439
 20
9.950000120337385
 42
0.4142135623730926
 10
57.84221245944434
 20
7.150000120337409
 42
0.0
 10
61.34221245944434
 20
7.150000120337409
 42
0.4142135623731044
 10
64.14221245944441
 20
9.950000120337385
 42
0.0
 10
64.14221245944441
 20
22.72500012033741
 42
0.4142135623730951
 10
63.61721245944443
 20
23.25000012033741
 42
0.0
 10
61.86721245944432
 20
23.25000012033741
 42
0.4142135623730871
 10
61.34221245944434
 20
22.72500012033742
 42
0.0
 10
61.34221245944434
 20
11.00000012033738
 42
-0.414213562373088
 10
60.29221245944438
 20
9.950000120337406
 42
0.0
 10
58.8922124594444
 20
9.950000120337406
 42
-0.4142135623731197
 10
57.84221245944434
 20
11.00000012033738
 42
0.0
 97
        0
 92
        7
 72
     1
 73
     1
 93
        8
 10
69.04221245944438
 20
22.72500012033742
 42
0.4142135623730871
 10
68.51721245944441
 20
23.25000012033741
 42
0.0
 10
66.76721245944441
 20
23.25000012033741
 42
0.4142135623731507
 10
66.24221245944432
 20
22.72500012033742
 42
0.0
 10
66.24221245944432
 20
7.675000120337397
 42
0.4142135623730891
 10
66.76721245944429
 20
7.150000120337409
 42
0.0
 10
68.51721245944441
 20
7.150000120337409
 42
0.4142135623730891
 10
69.04221245944438
 20
7.675000120337397
 42
0.0
 97
        0
 75
     0
 76
     1
 52
0.0
 41
0.2
 77
     0
 78
     2
 53
45.0
 43
-900.9423040300157
 44
-13.19999987966252
 45
-0.4490128060534576
 46
0.4490128060534577
 79
     0
 53
135.0
 43
-900.9423040300157
 44
-13.19999987966252
 45
-0.4490128060534577
 46
-0.4490128060534576
 79
     0
 47
0.057451373970553
 98
        8
 10
16.07985526768652
 20
15.16717376622295
 10
22.40451531110238
 20
18.84406230278841
 10
25.16436819032287
 20
15.51188176640812
 10
30.91406028630035
 20
16.2012977667789
 10
41.83847232361995
 20
16.66091003432052
 10
46.89820119979276
 20
19.41857643674461
 10
56.55768627706357
 20
18.72915803543241
 10
67.82707992428595
 20
19.18877030297403
  0
LINE
  5
FFA
330
1A
100
AcDbEntity
  8
ZUWAKU
100
AcDbLine
 10
24.94221245944436
 20
23.25000012033736
 30
0.0
 11
26.86721245944431
 21
23.25000012033741
 31
0.0
  0
LINE
  5
FFB
330
1A
100
AcDbEntity
  8
ZUWAKU
100
AcDbLine
 10
26.86721245944431
 20
20.4500001203374
 30
0.0
 11
24.94221245944436
 21
20.4500001203374
 31
0.0
  0
LINE
  5
FFC
330
1A
100
AcDbEntity
  8
ZUWAKU
100
AcDbLine
 10
24.94221245944436
 20
9.950000120337406
 30
0.0
 11
26.86721245944431
 21
9.950000120337406
 31
0.0
  0
LINE
  5
FFD
330
1A
100
AcDbEntity
  8
ZUWAKU
100
AcDbLine
 10
26.86721245944431
 20
7.150000120337409
 30
0.0
 11
24.94221245944436
 21
7.150000120337409
 31
0.0
  0
CIRCLE
  5
FFE
330
1A
100
AcDbEntity
  8
ZUWAKU
100
AcDbCircle
 10
25.99221245944431
 20
15.2000001203374
 30
0.0
 40
1.75
  0
ARC
  5
FFF
330
1A
100
AcDbEntity
  8
ZUWAKU
100
AcDbCircle
 10
15.49221245944431
 20
18.6347980949821
 30
0.0
 40
1.399999999999999
100
AcDbArc
 50
180.0000000000016
 51
224.9999999999988
  0
LINE
  5
1000
330
1A
100
AcDbEntity
  8
ZUWAKU
100
AcDbLine
 10
23.54221245944438
 20
19.0500001203374
 30
0.0
 11
23.54221245944438
 21
11.35000012033741
 31
0.0
  0
LINE
  5
1001
330
1A
100
AcDbEntity
  8
ZUWAKU
100
AcDbLine
 10
20.74221245944432
 20
11.35000012033741
 30
0.0
 11
20.74221245944432
 21
19.05000012033736
 31
0.0
  0
ARC
  5
1002
330
1A
100
AcDbEntity
  8
ZUWAKU
100
AcDbCircle
 10
15.49221245944431
 20
18.6347980949821
 30
0.0
 40
4.199999999999999
100
AcDbArc
 50
180.0
 51
225.0
  0
ARC
  5
1003
330
1A
100
AcDbEntity
  8
ZUWAKU
100
AcDbCircle
 10
15.84221245944434
 20
9.950000120337406
 30
0.0
 40
2.799999999999999
100
AcDbArc
 50
270.0
 51
0.0
  0
ARC
  5
1004
330
1A
100
AcDbEntity
  8
ZUWAKU
100
AcDbCircle
 10
24.94221245944436
 20
11.35000012033741
 30
0.0
 40
4.199999999999999
100
AcDbArc
 50
180.0
 51
270.0
  0
ARC
  5
1005
330
1A
100
AcDbEntity
  8
ZUWAKU
100
AcDbCircle
 10
14.44221245944436
 20
11.76520214569271
 30
0.0
 40
4.199999999999999
100
AcDbArc
 50
0.0
 51
45.0
  0
LINE
  5
1006
330
1A
100
AcDbEntity
  8
ZUWAKU
100
AcDbLine
 10
17.41206094042786
 20
14.73505062667623
 30
0.0
 11
14.50226296578319
 21
17.64484860132091
 31
0.0
  0
LINE
  5
1007
330
1A
100
AcDbEntity
  8
ZUWAKU
100
AcDbLine
 10
15.84221245944434
 20
10.47500012033741
 30
0.0
 11
15.84221245944434
 21
11.76520214569275
 31
0.0
  0
ARC
  5
1008
330
1A
100
AcDbEntity
  8
ZUWAKU
100
AcDbCircle
 10
15.31721245944436
 20
10.47500012033741
 30
0.0
 40
0.525
100
AcDbArc
 50
270.0
 51
0.0
  0
ARC
  5
1009
330
1A
100
AcDbEntity
  8
ZUWAKU
100
AcDbCircle
 10
14.44221245944436
 20
11.76520214569275
 30
0.0
 40
1.399999999999999
100
AcDbArc
 50
0.0
 51
45.0
  0
LINE
  5
100A
330
1A
100
AcDbEntity
  8
ZUWAKU
100
AcDbLine
 10
11.81721245944436
 20
7.675000120337408
 30
0.0
 11
11.81721245944436
 21
9.425000120337408
 31
0.0
  0
ARC
  5
100B
330
1A
100
AcDbEntity
  8
ZUWAKU
100
AcDbCircle
 10
12.34221245944434
 20
7.675000120337408
 30
0.0
 40
0.525
100
AcDbArc
 50
180.0
 51
270.0
  0
ARC
  5
100C
330
1A
100
AcDbEntity
  8
ZUWAKU
100
AcDbCircle
 10
12.34221245944434
 20
9.425000120337408
 30
0.0
 40
0.525
100
AcDbArc
 50
90.0
 51
180.0
  0
LINE
  5
100D
330
1A
100
AcDbEntity
  8
ZUWAKU
100
AcDbLine
 10
12.34221245944434
 20
7.150000120337409
 30
0.0
 11
15.84221245944434
 21
7.150000120337409
 31
0.0
  0
LINE
  5
100E
330
1A
100
AcDbEntity
  8
ZUWAKU
100
AcDbLine
 10
12.34221245944434
 20
9.950000120337406
 30
0.0
 11
15.31721245944436
 21
9.950000120337406
 31
0.0
  0
LINE
  5
100F
330
1A
100
AcDbEntity
  8
ZUWAKU
100
AcDbLine
 10
12.52236397846081
 20
15.66494961399858
 30
0.0
 11
15.43216195310549
 21
12.75515163935392
 31
0.0
  0
LINE
  5
1010
330
1A
100
AcDbEntity
  8
ZUWAKU
100
AcDbLine
 10
18.6422124594444
 20
9.950000120337406
 30
0.0
 11
18.6422124594444
 21
11.76520214569275
 31
0.0
  0
ARC
  5
1011
330
1A
100
AcDbEntity
  8
ZUWAKU
100
AcDbCircle
 10
24.94221245944436
 20
11.35000012033741
 30
0.0
 40
1.399999999999999
100
AcDbArc
 50
180.0
 51
270.0
  0
ARC
  5
1012
330
1A
100
AcDbEntity
  8
ZUWAKU
100
AcDbCircle
 10
17.59221245944434
 20
22.7250001203374
 30
0.0
 40
0.525
100
AcDbArc
 50
0.0
 51
90.0
  0
ARC
  5
1013
330
1A
100
AcDbEntity
  8
ZUWAKU
100
AcDbCircle
 10
17.59221245944434
 20
20.9750001203374
 30
0.0
 40
0.525
100
AcDbArc
 50
270.0
 51
0.0
  0
LINE
  5
1014
330
1A
100
AcDbEntity
  8
ZUWAKU
100
AcDbLine
 10
14.09221245944434
 20
23.25000012033741
 30
0.0
 11
17.59221245944434
 21
23.25000012033741
 31
0.0
  0
ARC
  5
1015
330
1A
100
AcDbEntity
  8
ZUWAKU
100
AcDbCircle
 10
14.61721245944431
 20
19.9250001203374
 30
0.0
 40
0.525
100
AcDbArc
 50
90.0
 51
180.0
  0
LINE
  5
1016
330
1A
100
AcDbEntity
  8
ZUWAKU
100
AcDbLine
 10
14.09221245944434
 20
19.9250001203374
 30
0.0
 11
14.09221245944434
 21
18.63479809498206
 31
0.0
  0
LINE
  5
1017
330
1A
100
AcDbEntity
  8
ZUWAKU
100
AcDbLine
 10
17.59221245944434
 20
20.4500001203374
 30
0.0
 11
14.61721245944431
 21
20.4500001203374
 31
0.0
  0
LINE
  5
1018
330
1A
100
AcDbEntity
  8
ZUWAKU
100
AcDbLine
 10
11.29221245944438
 20
20.4500001203374
 30
0.0
 11
11.29221245944438
 21
18.63479809498206
 31
0.0
  0
ARC
  5
1019
330
1A
100
AcDbEntity
  8
ZUWAKU
100
AcDbCircle
 10
14.09221245944434
 20
20.4500001203374
 30
0.0
 40
2.799999999999999
100
AcDbArc
 50
90.0
 51
180.0
  0
LINE
  5
101A
330
1A
100
AcDbEntity
  8
ZUWAKU
100
AcDbLine
 10
18.11721245944431
 20
22.7250001203374
 30
0.0
 11
18.11721245944431
 21
20.9750001203374
 31
0.0
  0
ARC
  5
101B
330
1A
100
AcDbEntity
  8
ZUWAKU
100
AcDbCircle
 10
24.94221245944436
 20
19.0500001203374
 30
0.0
 40
1.399999999999999
100
AcDbArc
 50
90.0
 51
180.0
  0
ARC
  5
101C
330
1A
100
AcDbEntity
  8
ZUWAKU
100
AcDbCircle
 10
24.94221245944436
 20
19.05000012033736
 30
0.0
 40
4.199999999999999
100
AcDbArc
 50
90.0
 51
180.0
  0
LINE
  5
101D
330
1A
100
AcDbEntity
  8
ZUWAKU
100
AcDbLine
 10
79.32662985265142
 20
30.0000001203374
 30
0.0
 11
79.32662985265165
 21
0.8000001203374722
 31
0.0
  0
LINE
  5
101E
330
1A
100
AcDbEntity
  8
ZUWAKU
100
AcDbLine
 10
79.52662985265146
 20
30.0000001203374
 30
0.0
 11
79.5266298526517
 21
0.8000001203374722
 31
0.0
  0
LINE
  5
101F
330
1A
100
AcDbEntity
  8
ZUWAKU
100
AcDbLine
 10
79.12662985265161
 20
30.0000001203374
 30
0.0
 11
79.12662985265161
 21
0.8000001203374722
 31
0.0
  0
LINE
  5
1020
330
1A
100
AcDbEntity
  8
ZUWAKU
100
AcDbLine
 10
64.14221245944441
 20
9.950000120337406
 30
0.0
 11
64.14221245944441
 21
22.7250001203374
 31
0.0
  0
LINE
  5
1021
330
1A
100
AcDbEntity
  8
ZUWAKU
100
AcDbLine
 10
61.34221245944434
 20
22.7250001203374
 30
0.0
 11
61.34221245944434
 21
11.0000001203374
 31
0.0
  0
LINE
  5
1022
330
1A
100
AcDbEntity
  8
ZUWAKU
100
AcDbLine
 10
69.04221245944438
 20
7.675000120337408
 30
0.0
 11
69.04221245944438
 21
22.7250001203374
 31
0.0
  0
LINE
  5
1023
330
1A
100
AcDbEntity
  8
ZUWAKU
100
AcDbLine
 10
66.24221245944432
 20
22.7250001203374
 30
0.0
 11
66.24221245944432
 21
7.675000120337408
 31
0.0
  0
ARC
  5
1024
330
1A
100
AcDbEntity
  8
ZUWAKU
100
AcDbCircle
 10
49.79221245944438
 20
18.6347980949821
 30
0.0
 40
1.399999999999999
100
AcDbArc
 50
180.0000000000016
 51
224.9999999999988
  0
ARC
  5
1025
330
1A
100
AcDbEntity
  8
ZUWAKU
100
AcDbCircle
 10
49.79221245944438
 20
18.6347980949821
 30
0.0
 40
4.199999999999999
100
AcDbArc
 50
180.0
 51
225.0
  0
LINE
  5
1026
330
1A
100
AcDbEntity
  8
ZUWAKU
100
AcDbLine
 10
37.31485894162233
 20
19.20504731390083
 30
0.0
 11
36.05010719628649
 21
15.20000012033742
 31
0.0
  0
LINE
  5
1027
330
1A
100
AcDbEntity
  8
ZUWAKU
100
AcDbLine
 10
40.69221245944436
 20
22.7250001203374
 30
0.0
 11
40.69221245944436
 21
7.675000120337408
 31
0.0
  0
LINE
  5
1028
330
1A
100
AcDbEntity
  8
ZUWAKU
100
AcDbLine
 10
43.49221245944431
 20
7.675000120337408
 30
0.0
 11
43.49221245944431
 21
22.7250001203374
 31
0.0
  0
LINE
  5
1029
330
1A
100
AcDbEntity
  8
ZUWAKU
100
AcDbLine
 10
55.04221245944439
 20
22.7250001203374
 30
0.0
 11
55.04221245944439
 21
9.950000120337406
 31
0.0
  0
LINE
  5
102A
330
1A
100
AcDbEntity
  8
ZUWAKU
100
AcDbLine
 10
57.84221245944434
 20
11.0000001203374
 30
0.0
 11
57.84221245944434
 21
22.7250001203374
 31
0.0
  0
LINE
  5
102B
330
1A
100
AcDbEntity
  8
ZUWAKU
100
AcDbLine
 10
32.6422124594444
 20
17.12500012033741
 30
0.0
 11
32.6422124594444
 21
22.7250001203374
 31
0.0
  0
LINE
  5
102C
330
1A
100
AcDbEntity
  8
ZUWAKU
100
AcDbLine
 10
29.84221245944434
 20
22.7250001203374
 30
0.0
 11
29.84221245944434
 21
7.675000120337408
 31
0.0
  0
LINE
  5
102D
330
1A
100
AcDbEntity
  8
ZUWAKU
100
AcDbLine
 10
35.6763473967602
 20
22.88309408850437
 30
0.0
 11
33.80807752212843
 21
16.96690615217043
 31
0.0
  0
LINE
  5
102E
330
1A
100
AcDbEntity
  8
ZUWAKU
100
AcDbLine
 10
60.29221245944438
 20
9.950000120337406
 30
0.0
 11
58.8922124594444
 21
9.950000120337406
 31
0.0
  0
LINE
  5
102F
330
1A
100
AcDbEntity
  8
ZUWAKU
100
AcDbLine
 10
57.84221245944434
 20
7.150000120337409
 30
0.0
 11
61.34221245944434
 21
7.150000120337409
 31
0.0
  0
LINE
  5
1030
330
1A
100
AcDbEntity
  8
ZUWAKU
100
AcDbLine
 10
41.21721245944434
 20
7.150000120337409
 30
0.0
 11
42.96721245944434
 21
7.150000120337409
 31
0.0
  0
LINE
  5
1031
330
1A
100
AcDbEntity
  8
ZUWAKU
100
AcDbLine
 10
35.6763473967602
 20
7.516906152170435
 30
0.0
 11
33.80807752212843
 21
13.43309408850437
 31
0.0
  0
ARC
  5
1032
330
1A
100
AcDbEntity
  8
ZUWAKU
100
AcDbCircle
 10
33.30744662293307
 20
17.12500012033741
 30
0.0
 40
0.525
100
AcDbArc
 50
270.0
 51
342.4744316262769
  0
LINE
  5
1033
330
1A
100
AcDbEntity
  8
ZUWAKU
100
AcDbLine
 10
33.30744662293307
 20
16.6000001203374
 30
0.0
 11
33.16721245944438
 21
16.6000001203374
 31
0.0
  0
LINE
  5
1034
330
1A
100
AcDbEntity
  8
ZUWAKU
100
AcDbLine
 10
33.16721245944438
 20
13.80000012033741
 30
0.0
 11
33.30744662293307
 21
13.80000012033741
 31
0.0
  0
ARC
  5
1035
330
1A
100
AcDbEntity
  8
ZUWAKU
100
AcDbCircle
 10
33.16721245944438
 20
17.12500012033741
 30
0.0
 40
0.525
100
AcDbArc
 50
180.0
 51
270.0
  0
LINE
  5
1036
330
1A
100
AcDbEntity
  8
ZUWAKU
100
AcDbLine
 10
30.36721245944431
 20
7.150000120337409
 30
0.0
 11
32.11721245944431
 21
7.150000120337409
 31
0.0
  0
ARC
  5
1037
330
1A
100
AcDbEntity
  8
ZUWAKU
100
AcDbCircle
 10
32.11721245944431
 20
7.675000120337408
 30
0.0
 40
0.525
100
AcDbArc
 50
270.0
 51
0.0
  0
LINE
  5
1038
330
1A
100
AcDbEntity
  8
ZUWAKU
100
AcDbLine
 10
32.6422124594444
 20
7.675000120337408
 30
0.0
 11
32.6422124594444
 21
13.27500012033741
 31
0.0
  0
LINE
  5
1039
330
1A
100
AcDbEntity
  8
ZUWAKU
100
AcDbLine
 10
27.3922124594444
 20
9.425000120337408
 30
0.0
 11
27.3922124594444
 21
7.675000120337408
 31
0.0
  0
ARC
  5
103A
330
1A
100
AcDbEntity
  8
ZUWAKU
100
AcDbCircle
 10
26.86721245944431
 20
7.675000120337408
 30
0.0
 40
0.525
100
AcDbArc
 50
270.0
 51
0.0
  0
ARC
  5
103B
330
1A
100
AcDbEntity
  8
ZUWAKU
100
AcDbCircle
 10
26.86721245944431
 20
9.425000120337408
 30
0.0
 40
0.525
100
AcDbArc
 50
0.0
 51
90.0
  0
ARC
  5
103C
330
1A
100
AcDbEntity
  8
ZUWAKU
100
AcDbCircle
 10
30.36721245944431
 20
7.675000120337408
 30
0.0
 40
0.525
100
AcDbArc
 50
180.0
 51
270.0
  0
ARC
  5
103D
330
1A
100
AcDbEntity
  8
ZUWAKU
100
AcDbCircle
 10
33.30744662293307
 20
13.27500012033741
 30
0.0
 40
0.525
100
AcDbArc
 50
17.52556837372303
 51
90.0
  0
ARC
  5
103E
330
1A
100
AcDbEntity
  8
ZUWAKU
100
AcDbCircle
 10
33.16721245944438
 20
13.27500012033741
 30
0.0
 40
0.525
100
AcDbArc
 50
90.0
 51
180.0
  0
ARC
  5
103F
330
1A
100
AcDbEntity
  8
ZUWAKU
100
AcDbCircle
 10
41.21721245944434
 20
7.675000120337408
 30
0.0
 40
0.525
100
AcDbArc
 50
180.0
 51
270.0
  0
LINE
  5
1040
330
1A
100
AcDbEntity
  8
ZUWAKU
100
AcDbLine
 10
36.17697829595567
 20
7.150000120337409
 30
0.0
 11
37.87586767556467
 21
7.150000120337409
 31
0.0
  0
ARC
  5
1041
330
1A
100
AcDbEntity
  8
ZUWAKU
100
AcDbCircle
 10
37.87586767556467
 20
7.675000120337408
 30
0.0
 40
0.525
100
AcDbArc
 50
270.0
 51
17.52556837372303
  0
LINE
  5
1042
330
1A
100
AcDbEntity
  8
ZUWAKU
100
AcDbLine
 10
38.37649857476014
 20
7.833094088504381
 30
0.0
 11
36.05010719628649
 21
15.20000012033742
 31
0.0
  0
ARC
  5
1043
330
1A
100
AcDbEntity
  8
ZUWAKU
100
AcDbCircle
 10
36.17697829595567
 20
7.675000120337408
 30
0.0
 40
0.525
100
AcDbArc
 50
197.525568373723
 51
270.0
  0
ARC
  5
1044
330
1A
100
AcDbEntity
  8
ZUWAKU
100
AcDbCircle
 10
57.84221245944434
 20
9.950000120337406
 30
0.0
 40
2.799999999999999
100
AcDbArc
 50
180.0
 51
270.0
  0
ARC
  5
1045
330
1A
100
AcDbEntity
  8
ZUWAKU
100
AcDbCircle
 10
50.1422124594444
 20
9.950000120337406
 30
0.0
 40
2.799999999999999
100
AcDbArc
 50
270.0
 51
0.0
  0
LINE
  5
1046
330
1A
100
AcDbEntity
  8
ZUWAKU
100
AcDbLine
 10
51.71206094042793
 20
14.73505062667623
 30
0.0
 11
48.80226296578314
 21
17.64484860132091
 31
0.0
  0
LINE
  5
1047
330
1A
100
AcDbEntity
  8
ZUWAKU
100
AcDbLine
 10
50.1422124594444
 20
10.47500012033741
 30
0.0
 11
50.1422124594444
 21
11.76520214569275
 31
0.0
  0
ARC
  5
1048
330
1A
100
AcDbEntity
  8
ZUWAKU
100
AcDbCircle
 10
48.74221245944432
 20
11.76520214569275
 30
0.0
 40
1.399999999999999
100
AcDbArc
 50
0.0
 51
45.0
  0
ARC
  5
1049
330
1A
100
AcDbEntity
  8
ZUWAKU
100
AcDbCircle
 10
49.61721245944431
 20
10.47500012033741
 30
0.0
 40
0.525
100
AcDbArc
 50
270.0
 51
0.0
  0
LINE
  5
104A
330
1A
100
AcDbEntity
  8
ZUWAKU
100
AcDbLine
 10
46.11721245944432
 20
7.675000120337408
 30
0.0
 11
46.11721245944432
 21
9.425000120337408
 31
0.0
  0
ARC
  5
104B
330
1A
100
AcDbEntity
  8
ZUWAKU
100
AcDbCircle
 10
46.64221245944441
 20
7.675000120337408
 30
0.0
 40
0.525
100
AcDbArc
 50
180.0
 51
270.0
  0
ARC
  5
104C
330
1A
100
AcDbEntity
  8
ZUWAKU
100
AcDbCircle
 10
42.96721245944434
 20
7.675000120337408
 30
0.0
 40
0.525
100
AcDbArc
 50
270.0
 51
0.0
  0
ARC
  5
104D
330
1A
100
AcDbEntity
  8
ZUWAKU
100
AcDbCircle
 10
46.64221245944441
 20
9.425000120337408
 30
0.0
 40
0.525
100
AcDbArc
 50
90.0
 51
180.0
  0
LINE
  5
104E
330
1A
100
AcDbEntity
  8
ZUWAKU
100
AcDbLine
 10
46.64221245944441
 20
9.950000120337406
 30
0.0
 11
49.61721245944431
 21
9.950000120337406
 31
0.0
  0
LINE
  5
104F
330
1A
100
AcDbEntity
  8
ZUWAKU
100
AcDbLine
 10
46.64221245944441
 20
7.150000120337409
 30
0.0
 11
50.1422124594444
 21
7.150000120337409
 31
0.0
  0
LINE
  5
1050
330
1A
100
AcDbEntity
  8
ZUWAKU
100
AcDbLine
 10
46.82236397846089
 20
15.66494961399858
 30
0.0
 11
49.73216195310556
 21
12.75515163935392
 31
0.0
  0
LINE
  5
1051
330
1A
100
AcDbEntity
  8
ZUWAKU
100
AcDbLine
 10
52.94221245944436
 20
9.950000120337406
 30
0.0
 11
52.94221245944436
 21
11.76520214569275
 31
0.0
  0
ARC
  5
1052
330
1A
100
AcDbEntity
  8
ZUWAKU
100
AcDbCircle
 10
48.74221245944432
 20
11.76520214569271
 30
0.0
 40
4.199999999999999
100
AcDbArc
 50
0.0
 51
45.0
  0
ARC
  5
1053
330
1A
100
AcDbEntity
  8
ZUWAKU
100
AcDbCircle
 10
58.8922124594444
 20
11.0000001203374
 30
0.0
 40
1.049999999999999
100
AcDbArc
 50
180.0
 51
270.0
  0
ARC
  5
1054
330
1A
100
AcDbEntity
  8
ZUWAKU
100
AcDbCircle
 10
61.34221245944434
 20
9.950000120337406
 30
0.0
 40
2.799999999999999
100
AcDbArc
 50
270.0
 51
0.0
  0
LINE
  5
1055
330
1A
100
AcDbEntity
  8
ZUWAKU
100
AcDbLine
 10
66.76721245944441
 20
7.150000120337409
 30
0.0
 11
68.51721245944441
 21
7.150000120337409
 31
0.0
  0
ARC
  5
1056
330
1A
100
AcDbEntity
  8
ZUWAKU
100
AcDbCircle
 10
66.76721245944441
 20
7.675000120337408
 30
0.0
 40
0.525
100
AcDbArc
 50
180.0
 51
270.0
  0
ARC
  5
1057
330
1A
100
AcDbEntity
  8
ZUWAKU
100
AcDbCircle
 10
60.29221245944438
 20
11.0000001203374
 30
0.0
 40
1.049999999999999
100
AcDbArc
 50
270.0
 51
0.0
  0
ARC
  5
1058
330
1A
100
AcDbEntity
  8
ZUWAKU
100
AcDbCircle
 10
68.51721245944441
 20
7.675000120337408
 30
0.0
 40
0.525
100
AcDbArc
 50
270.0
 51
0.0
  0
LINE
  5
1059
330
1A
100
AcDbEntity
  8
ZUWAKU
100
AcDbLine
 10
42.96721245944434
 20
23.25000012033741
 30
0.0
 11
41.21721245944434
 21
23.25000012033741
 31
0.0
  0
ARC
  5
105A
330
1A
100
AcDbEntity
  8
ZUWAKU
100
AcDbCircle
 10
32.11721245944431
 20
22.7250001203374
 30
0.0
 40
0.525
100
AcDbArc
 50
0.0
 51
90.0
  0
LINE
  5
105B
330
1A
100
AcDbEntity
  8
ZUWAKU
100
AcDbLine
 10
32.11721245944431
 20
23.25000012033741
 30
0.0
 11
30.36721245944431
 21
23.25000012033741
 31
0.0
  0
ARC
  5
105C
330
1A
100
AcDbEntity
  8
ZUWAKU
100
AcDbCircle
 10
26.86721245944431
 20
22.7250001203374
 30
0.0
 40
0.525
100
AcDbArc
 50
0.0
 51
90.0
  0
ARC
  5
105D
330
1A
100
AcDbEntity
  8
ZUWAKU
100
AcDbCircle
 10
30.36721245944431
 20
22.7250001203374
 30
0.0
 40
0.525
100
AcDbArc
 50
90.0
 51
180.0
  0
ARC
  5
105E
330
1A
100
AcDbEntity
  8
ZUWAKU
100
AcDbCircle
 10
26.86721245944431
 20
20.9750001203374
 30
0.0
 40
0.525
100
AcDbArc
 50
270.0
 51
0.0
  0
LINE
  5
105F
330
1A
100
AcDbEntity
  8
ZUWAKU
100
AcDbLine
 10
27.3922124594444
 20
22.7250001203374
 30
0.0
 11
27.3922124594444
 21
20.9750001203374
 31
0.0
  0
ARC
  5
1060
330
1A
100
AcDbEntity
  8
ZUWAKU
100
AcDbCircle
 10
41.21721245944434
 20
22.7250001203374
 30
0.0
 40
0.525
100
AcDbArc
 50
90.0
 51
180.0
  0
LINE
  5
1061
330
1A
100
AcDbEntity
  8
ZUWAKU
100
AcDbLine
 10
36.17697829595567
 20
23.25000012033741
 30
0.0
 11
37.87586767556467
 21
23.25000012033741
 31
0.0
  0
ARC
  5
1062
330
1A
100
AcDbEntity
  8
ZUWAKU
100
AcDbCircle
 10
37.87586767556467
 20
22.7250001203374
 30
0.0
 40
0.525
100
AcDbArc
 50
342.4744316262769
 51
90.0
  0
LINE
  5
1063
330
1A
100
AcDbEntity
  8
ZUWAKU
100
AcDbLine
 10
38.37649857476014
 20
22.56690615217043
 30
0.0
 11
37.31485894162233
 21
19.20504731390083
 31
0.0
  0
ARC
  5
1064
330
1A
100
AcDbEntity
  8
ZUWAKU
100
AcDbCircle
 10
36.17697829595567
 20
22.7250001203374
 30
0.0
 40
0.525
100
AcDbArc
 50
90.0
 51
162.4744316262769
  0
LINE
  5
1065
330
1A
100
AcDbEntity
  8
ZUWAKU
100
AcDbLine
 10
48.39221245944441
 20
23.25000012033741
 30
0.0
 11
51.89221245944441
 21
23.25000012033741
 31
0.0
  0
LINE
  5
1066
330
1A
100
AcDbEntity
  8
ZUWAKU
100
AcDbLine
 10
51.89221245944441
 20
20.4500001203374
 30
0.0
 11
48.91721245944438
 21
20.4500001203374
 31
0.0
  0
ARC
  5
1067
330
1A
100
AcDbEntity
  8
ZUWAKU
100
AcDbCircle
 10
48.91721245944438
 20
19.9250001203374
 30
0.0
 40
0.525
100
AcDbArc
 50
90.0
 51
180.0
  0
LINE
  5
1068
330
1A
100
AcDbEntity
  8
ZUWAKU
100
AcDbLine
 10
48.39221245944441
 20
19.9250001203374
 30
0.0
 11
48.39221245944441
 21
18.63479809498206
 31
0.0
  0
ARC
  5
1069
330
1A
100
AcDbEntity
  8
ZUWAKU
100
AcDbCircle
 10
42.96721245944434
 20
22.7250001203374
 30
0.0
 40
0.525
100
AcDbArc
 50
0.0
 51
90.0
  0
LINE
  5
106A
330
1A
100
AcDbEntity
  8
ZUWAKU
100
AcDbLine
 10
45.59221245944434
 20
20.4500001203374
 30
0.0
 11
45.59221245944434
 21
18.63479809498206
 31
0.0
  0
ARC
  5
106B
330
1A
100
AcDbEntity
  8
ZUWAKU
100
AcDbCircle
 10
48.39221245944441
 20
20.4500001203374
 30
0.0
 40
2.799999999999999
100
AcDbArc
 50
90.0
 51
180.0
  0
ARC
  5
106C
330
1A
100
AcDbEntity
  8
ZUWAKU
100
AcDbCircle
 10
57.31721245944436
 20
22.7250001203374
 30
0.0
 40
0.525
100
AcDbArc
 50
0.0
 51
90.0
  0
ARC
  5
106D
330
1A
100
AcDbEntity
  8
ZUWAKU
100
AcDbCircle
 10
55.56721245944436
 20
22.7250001203374
 30
0.0
 40
0.525
100
AcDbArc
 50
90.0
 51
180.0
  0
LINE
  5
106E
330
1A
100
AcDbEntity
  8
ZUWAKU
100
AcDbLine
 10
57.31721245944436
 20
23.25000012033741
 30
0.0
 11
55.56721245944436
 21
23.25000012033741
 31
0.0
  0
ARC
  5
106F
330
1A
100
AcDbEntity
  8
ZUWAKU
100
AcDbCircle
 10
51.89221245944441
 20
22.7250001203374
 30
0.0
 40
0.525
100
AcDbArc
 50
0.0
 51
90.0
  0
ARC
  5
1070
330
1A
100
AcDbEntity
  8
ZUWAKU
100
AcDbCircle
 10
51.89221245944441
 20
20.9750001203374
 30
0.0
 40
0.525
100
AcDbArc
 50
270.0
 51
0.0
  0
LINE
  5
1071
330
1A
100
AcDbEntity
  8
ZUWAKU
100
AcDbLine
 10
52.41721245944439
 20
22.7250001203374
 30
0.0
 11
52.41721245944439
 21
20.9750001203374
 31
0.0
  0
LINE
  5
1072
330
1A
100
AcDbEntity
  8
ZUWAKU
100
AcDbLine
 10
68.51721245944441
 20
23.25000012033741
 30
0.0
 11
66.76721245944441
 21
23.25000012033741
 31
0.0
  0
ARC
  5
1073
330
1A
100
AcDbEntity
  8
ZUWAKU
100
AcDbCircle
 10
66.76721245944441
 20
22.7250001203374
 30
0.0
 40
0.525
100
AcDbArc
 50
90.0
 51
180.0
  0
ARC
  5
1074
330
1A
100
AcDbEntity
  8
ZUWAKU
100
AcDbCircle
 10
63.61721245944432
 20
22.7250001203374
 30
0.0
 40
0.525
100
AcDbArc
 50
0.0
 51
90.0
  0
LINE
  5
1075
330
1A
100
AcDbEntity
  8
ZUWAKU
100
AcDbLine
 10
63.61721245944432
 20
23.25000012033741
 30
0.0
 11
61.86721245944432
 21
23.25000012033741
 31
0.0
  0
ARC
  5
1076
330
1A
100
AcDbEntity
  8
ZUWAKU
100
AcDbCircle
 10
61.86721245944432
 20
22.7250001203374
 30
0.0
 40
0.525
100
AcDbArc
 50
90.0
 51
180.0
  0
ARC
  5
1077
330
1A
100
AcDbEntity
  8
ZUWAKU
100
AcDbCircle
 10
68.51721245944441
 20
22.7250001203374
 30
0.0
 40
0.525
100
AcDbArc
 50
0.0
 51
90.0
  0
TEXT
  5
1078
330
1A
100
AcDbEntity
  8
MOJI
100
AcDbText
 10
239.8272029855143
 20
3.204921177744825
 30
0.0
 40
5.599999999999999
  1
ＲＶ１０５
 41
0.9
  7
ｽﾀｲﾙ1
100
AcDbText
  0
LINE
  5
1079
330
1A
100
AcDbEntity
  8
ZUWAKU
100
AcDbLine
 10
208.2466015947311
 20
30.0000001203374
 30
0.0
 11
208.2466015947311
 21
0.8000001203374722
 31
0.0
  0
LINE
  5
107A
330
1A
100
AcDbEntity
  8
ZUWAKU
100
AcDbLine
 10
208.646601594731
 20
30.0000001203374
 30
0.0
 11
208.6466015947312
 21
0.8000001203374722
 31
0.0
  0
LINE
  5
107B
330
1A
100
AcDbEntity
  8
ZUWAKU
100
AcDbLine
 10
208.4466015947309
 20
30.0000001203374
 30
0.0
 11
208.4466015947311
 21
0.8000001203374722
 31
0.0
  0
TEXT
  5
107C
330
1A
100
AcDbEntity
  8
MOJI
100
AcDbText
 10
239.8272029855143
 20
18.00492117774479
 30
0.0
 40
5.599999999999999
  1
４５°止り（右・左９
 41
0.9
  7
ｽﾀｲﾙ1
100
AcDbText
  0
TEXT
  5
107D
330
1A
100
AcDbEntity
  8
ZUWAKU
100
AcDbText
 10
209.7240466169407
 20
9.655356658723022
 30
0.0
 40
4.0
  1
サイズ
 41
0.9
  7
ｽﾀｲﾙ1
100
AcDbText
  0
TEXT
  5
107E
330
1A
100
AcDbEntity
  8
ZUWAKU
100
AcDbText
 10
209.7240466169405
 20
24.05535665872298
 30
0.0
 40
4.0
  1
品名
 41
0.9
  7
ｽﾀｲﾙ1
100
AcDbText
  0
LINE
  5
107F
330
1A
100
AcDbEntity
  8
ZUWAKU
100
AcDbLine
 10
648.8172028148674
 20
15.20000012033743
 30
0.0
 11
697.2490108532045
 21
15.20000012033744
 31
0.0
  0
LINE
  5
1080
330
1A
100
AcDbEntity
  8
ZUWAKU
100
AcDbLine
 10
648.8172028148676
 20
15.40000012033744
 30
0.0
 11
697.2490108532045
 21
15.40000012033743
 31
0.0
  0
LINE
  5
1081
330
1A
100
AcDbEntity
  8
ZUWAKU
100
AcDbLine
 10
648.8172028148674
 20
15.60000012033743
 30
0.0
 11
697.2490108532045
 21
15.60000012033743
 31
0.0
  0
TEXT
  5
1082
330
1A
100
AcDbEntity
  8
ZUWAKU
100
AcDbText
 10
658.2039379919656
 20
18.00492117774479
 30
0.0
 40
5.599999999999999
  1
　　．　　．　　
 41
0.9
  7
ｽﾀｲﾙ1
100
AcDbText
  0
LINE
  5
1083
330
1A
100
AcDbEntity
  8
ZUWAKU
100
AcDbLine
 10
505.1991798028041
 20
15.20000012033744
 30
0.0
 11
552.5269560707756
 21
15.20000012033744
 31
0.0
  0
LINE
  5
1084
330
1A
100
AcDbEntity
  8
ZUWAKU
100
AcDbLine
 10
505.1991798028041
 20
15.40000012033743
 30
0.0
 11
552.5269560707756
 21
15.40000012033743
 31
0.0
  0
LINE
  5
1085
330
1A
100
AcDbEntity
  8
ZUWAKU
100
AcDbLine
 10
505.1991798028041
 20
15.60000012033743
 30
0.0
 11
552.5269560707756
 21
15.60000012033743
 31
0.0
  0
TEXT
  5
1086
330
1A
100
AcDbEntity
  8
MOJI
100
AcDbText
 10
464.5946263079022
 20
11.94261784199738
 30
0.0
 40
5.599999999999999
  1
ＧＲ９３□
 41
0.9
  7
ｽﾀｲﾙ1
100
AcDbText
  0
LINE
  5
1087
330
1A
100
AcDbEntity
  8
ZUWAKU
100
AcDbLine
 10
447.6243642756544
 20
30.0000001203374
 30
0.0
 11
447.6243642756546
 21
0.8000001203374722
 31
0.0
  0
LINE
  5
1088
330
1A
100
AcDbEntity
  8
ZUWAKU
100
AcDbLine
 10
447.8243642756544
 20
30.0000001203374
 30
0.0
 11
447.8243642756547
 21
0.8000001203374722
 31
0.0
  0
LINE
  5
1089
330
1A
100
AcDbEntity
  8
ZUWAKU
100
AcDbLine
 10
447.4243642756546
 20
30.0000001203374
 30
0.0
 11
447.4243642756546
 21
0.8000001203374722
 31
0.0
  0
TEXT
  5
108A
330
1A
100
AcDbEntity
  8
MOJI
100
AcDbText
 10
528.0409082769761
 20
18.00492117774479
 30
0.0
 40
5.599999999999999
  1
Ａ３
 41
0.9
  7
ｽﾀｲﾙ1
100
AcDbText
  0
LINE
  5
108B
330
1A
100
AcDbEntity
  8
ZUWAKU
100
AcDbLine
 10
504.999179802804
 20
30.0000001203374
 30
0.0
 11
504.9991798028043
 21
0.8000001203374722
 31
0.0
  0
LINE
  5
108C
330
1A
100
AcDbEntity
  8
ZUWAKU
100
AcDbLine
 10
505.1991798028041
 20
30.0000001203374
 30
0.0
 11
505.1991798028043
 21
0.8000001203374722
 31
0.0
  0
LINE
  5
108D
330
1A
100
AcDbEntity
  8
ZUWAKU
100
AcDbLine
 10
504.7991798028042
 20
30.0000001203374
 30
0.0
 11
504.7991798028042
 21
0.8000001203374722
 31
0.0
  0
TEXT
  5
108E
330
1A
100
AcDbEntity
  8
ZUWAKU
100
AcDbText
 10
462.6937619601704
 20
2.614071031476896
 30
0.0
 40
3.0
  1
□には色品番が入ります
 41
0.9
  7
ｽﾀｲﾙ1
100
AcDbText
  0
TEXT
  5
108F
330
1A
100
AcDbEntity
  8
ZUWAKU
100
AcDbText
 10
506.6766248250139
 20
9.655356658723022
 30
0.0
 40
4.0
  1
縮尺
 41
0.9
  7
ｽﾀｲﾙ1
100
AcDbText
  0
TEXT
  5
1090
330
1A
100
AcDbEntity
  8
MOJI
100
AcDbText
 10
528.0409082769761
 20
3.204921177744825
 30
0.0
 40
5.599999999999999
  1
１/２
 41
0.9
  7
ｽﾀｲﾙ1
100
AcDbText
  0
TEXT
  5
1091
330
1A
100
AcDbEntity
  8
ZUWAKU
100
AcDbText
 10
449.301809297864
 20
24.05535665872298
 30
0.0
 40
4.0
  1
品番
 41
0.9
  7
ｽﾀｲﾙ1
100
AcDbText
  0
TEXT
  5
1092
330
1A
100
AcDbEntity
  8
ZUWAKU
100
AcDbText
 10
506.6766248250137
 20
24.05535665872298
 30
0.0
 40
4.0
  1
用紙
 41
0.9
  7
ｽﾀｲﾙ1
100
AcDbText
  0
LINE
  5
1093
330
1A
100
AcDbEntity
  8
ZUWAKU
100
AcDbLine
 10
648.6172028148676
 20
30.0000001203374
 30
0.0
 11
648.6172028148678
 21
0.8000001203374722
 31
0.0
  0
LINE
  5
1094
330
1A
100
AcDbEntity
  8
ZUWAKU
100
AcDbLine
 10
648.8172028148676
 20
30.0000001203374
 30
0.0
 11
648.8172028148678
 21
0.8000001203374722
 31
0.0
  0
LINE
  5
1095
330
1A
100
AcDbEntity
  8
ZUWAKU
100
AcDbLine
 10
648.4172028148678
 20
30.0000001203374
 30
0.0
 11
648.4172028148678
 21
0.8000001203374722
 31
0.0
  0
LINE
  5
1096
330
1A
100
AcDbEntity
  8
ZUWAKU
100
AcDbLine
 10
552.7269560707755
 20
30.0000001203374
 30
0.0
 11
552.7269560707757
 21
0.8000001203374722
 31
0.0
  0
LINE
  5
1097
330
1A
100
AcDbEntity
  8
ZUWAKU
100
AcDbLine
 10
552.9269560707755
 20
30.0000001203374
 30
0.0
 11
552.9269560707757
 21
0.8000001203374722
 31
0.0
  0
LINE
  5
1098
330
1A
100
AcDbEntity
  8
ZUWAKU
100
AcDbLine
 10
552.5269560707756
 20
30.0000001203374
 30
0.0
 11
552.5269560707756
 21
0.8000001203374722
 31
0.0
  0
TEXT
  5
1099
330
1A
100
AcDbEntity
  8
ZUWAKU
100
AcDbText
 10
650.2946478370772
 20
24.05535665872298
 30
0.0
 40
4.0
  1
DATE
 41
0.9
  7
ｽﾀｲﾙ1
100
AcDbText
  0
LINE
  5
109A
330
1A
100
AcDbEntity
  8
ZUWAKU
100
AcDbLine
 10
697.2490108532045
 20
30.0000001203374
 30
0.0
 11
697.2490108532045
 21
0.8000001203374722
 31
0.0
  0
LINE
  5
109B
330
1A
100
AcDbEntity
  8
ZUWAKU
100
AcDbLine
 10
697.4490108532044
 20
30.0000001203374
 30
0.0
 11
697.4490108532044
 21
0.8000001203374722
 31
0.0
  0
LINE
  5
109C
330
1A
100
AcDbEntity
  8
ZUWAKU
100
AcDbLine
 10
697.6490108532043
 20
30.0000001203374
 30
0.0
 11
697.6490108532045
 21
0.8000001203374722
 31
0.0
  0
LINE
  5
109D
330
1A
100
AcDbEntity
  8
ZUWAKU
100
AcDbLine
 10
697.8490108532043
 20
30.0000001203374
 30
0.0
 11
697.8490108532046
 21
0.8000001203374722
 31
0.0
  0
TEXT
  5
109E
330
1A
100
AcDbEntity
  8
ZUWAKU
100
AcDbText
 10
708.5280844969069
 20
17.5538394560242
 30
0.0
 40
6.0
  1
積水化学工業株式会社
 41
0.9
  7
ｽﾀｲﾙ1
100
AcDbText
  0
TEXT
  5
109F
330
1A
100
AcDbEntity
  8
ZUWAKU
100
AcDbText
 10
708.5280844969069
 20
6.64884043419147
 30
0.0
 40
6.0
  1
建材事業部
 41
0.9
  7
ｽﾀｲﾙ1
100
AcDbText
  0
VIEWPORT
  5
22
330
17
100
AcDbEntity
 67
     1
  8
0
100
AcDbViewport
 10
313.6808219178082
 20
148.5
 30
0.0
 40
627.3616438356165
 41
297.0
 68
     2
 69
     1
1001
ACAD
1000
MVIEW
1002
{
1070
    16
1010
0.0
1020
0.0
1030
0.0
1010
0.0
1020
0.0
1030
1.0
1040
0.0
1040
297.0
1040
313.6808219178082
1040
148.5
1040
50.0
1040
0.0
1040
0.0
1070
     0
1070
   100
1070
     1
1070
     0
1070
     0
1070
     0
1070
     0
1070
     0
1040
0.0
1040
0.0
1040
0.0
1040
1.0
1040
1.0
1040
10.0
1040
10.0
1070
     0
1002
{
1002
}
1002
}
  0
VIEWPORT
  5
64
330
17
100
AcDbEntity
 67
     1
  8
VIEWPORT
100
AcDbViewport
 10
210.0
 20
148.5
 30
0.0
 40
420.0
 41
297.0
 68
     1
 69
     2
1001
ACAD
1000
MVIEW
1002
{
1070
    16
1010
0.0
1020
0.0
1030
0.0
1010
0.0
1020
0.0
1030
1.0
1040
0.0
1040
605.8799999999998
1040
420.0
1040
297.0
1040
50.0
1040
0.0
1040
0.0
1070
     0
1070
   100
1070
     1
1070
     0
1070
     0
1070
     0
1070
     0
1070
     0
1040
0.0
1040
0.0
1040
0.0
1040
10.0
1040
10.0
1040
0.0
1040
0.0
1070
     0
1002
{
1002
}
1002
}
  0
ENDSEC
  0
SECTION
  2
OBJECTS
  0
DICTIONARY
  5
C
330
0
100
AcDbDictionary
  3
ACAD_GROUP
350
D
  3
ACAD_LAYOUT
350
66C
  3
ACAD_MLINESTYLE
350
E
  3
ACAD_PLOTSETTINGS
350
66D
  3
ACAD_PLOTSTYLENAME
350
66A
  3
ACDBHEADERROUNDTRIPXREC
350
10A7
  0
DICTIONARY
  5
DCD
330
1A
100
AcDbDictionary
280
     1
  3
ACAD_LAYOUTSELFREF
360
10C9
  0
DICTIONARY
  5
DCB
330
17
100
AcDbDictionary
280
     1
  3
ACAD_LAYOUTSELFREF
360
10C8
  0
DICTIONARY
  5
D
102
{ACAD_REACTORS
330
C
102
}
330
C
100
AcDbDictionary
  0
DICTIONARY
  5
66C
102
{ACAD_REACTORS
330
C
102
}
330
C
100
AcDbDictionary
  0
DICTIONARY
  5
E
102
{ACAD_REACTORS
330
C
102
}
330
C
100
AcDbDictionary
  3
STANDARD
350
13
  0
DICTIONARY
  5
66D
102
{ACAD_REACTORS
330
C
102
}
330
C
100
AcDbDictionary
  0
ACDBDICTIONARYWDFLT
  5
66A
102
{ACAD_REACTORS
330
C
102
}
330
C
100
AcDbDictionary
281
     1
  3
Normal
350
66B
100
AcDbDictionaryWithDefault
340
66B
1001
ACAD
1000
TREAT_AS_HARD
1070
     0
1000
TREAT_AS_HARD
1070
     0
1000
TREAT_AS_HARD
1070
     0
1000
TREAT_AS_HARD
1070
     0
  0
DICTIONARY
  5
10A7
102
{ACAD_REACTORS
330
C
102
}
330
C
100
AcDbDictionary
  3
TSTACKALIGN
350
10A8
  3
TSTACKSIZE
350
10A9
  3
HYPERLINKBASE
350
10AA
  3
STYLESHEET
350
10AB
  3
LAYOUTDICT
350
10AC
  3
PLOTSETDICT
350
10AD
  3
PLOTSTYLNAMDICT
350
10AE
  3
LWETCUNION
350
10AF
  3
INSUNITS
350
10B0
  3
CEPSNTYPE
350
10B1
  3
FINGERPRINTGUID
350
10B2
  3
VERSIONGUID
350
10B3
  3
PSVPSCALE
350
10B4
  3
DIMSTYLEDATA
350
10B5
  3
PUCSORTHOREF
350
10B6
  3
PUCSORTHOVIEW
350
10B7
  3
PUCSBASE
350
10B8
  3
PUCSORGTOP
350
10B9
  3
PUCSORGBOTTOM
350
10BA
  3
PUCSORGLEFT
350
10BB
  3
PUCSORGRIGHT
350
10BC
  3
PUCSORGFRONT
350
10BD
  3
PUCSORGBACK
350
10BE
  3
UCSORTHOREF
350
10BF
  3
UCSORTHOVIEW
350
10C0
  3
UCSBASE
350
10C1
  3
UCSORGTOP
350
10C2
  3
UCSORGBOTTOM
350
10C3
  3
UCSORGLEFT
350
10C4
  3
UCSORGRIGHT
350
10C5
  3
UCSORGFRONT
350
10C6
  3
UCSORGBACK
350
10C7
  0
XRECORD
  5
10C9
102
{ACAD_REACTORS
330
DCD
102
}
330
DCD
100
AcDbXrecord
340
1A
  0
XRECORD
  5
10C8
102
{ACAD_REACTORS
330
DCB
102
}
330
DCB
100
AcDbXrecord
340
17
  0
MLINESTYLE
  5
13
102
{ACAD_REACTORS
330
E
102
}
330
E
100
AcDbMlineStyle
  2
STANDARD
 70
     0
  3

 62
     0
 51
90.0
 52
90.0
 71
     2
 49
0.5
 62
   256
  6
BYLAYER
 49
-0.5
 62
   256
  6
BYLAYER
  0
ACDBPLACEHOLDER
  5
66B
102
{ACAD_REACTORS
330
66A
102
}
330
66A
100
AcDbPlaceHolder
280
     0
  0
XRECORD
  5
10A8
102
{ACAD_REACTORS
330
10A7
102
}
330
10A7
100
AcDbXrecord
 90
        1
  0
XRECORD
  5
10A9
102
{ACAD_REACTORS
330
10A7
102
}
330
10A7
100
AcDbXrecord
 90
       70
  0
XRECORD
  5
10AA
102
{ACAD_REACTORS
330
10A7
102
}
330
10A7
100
AcDbXrecord
  1

  0
XRECORD
  5
10AB
102
{ACAD_REACTORS
330
10A7
102
}
330
10A7
100
AcDbXrecord
  1
systemprinter.ctb
  0
XRECORD
  5
10AC
102
{ACAD_REACTORS
330
10A7
102
}
330
10A7
100
AcDbXrecord
340
66C
  0
XRECORD
  5
10AD
102
{ACAD_REACTORS
330
10A7
102
}
330
10A7
100
AcDbXrecord
340
66D
  0
XRECORD
  5
10AE
102
{ACAD_REACTORS
330
10A7
102
}
330
10A7
100
AcDbXrecord
340
66A
  0
XRECORD
  5
10AF
102
{ACAD_REACTORS
330
10A7
102
}
330
10A7
100
AcDbXrecord
 90
    10781
  0
XRECORD
  5
10B0
102
{ACAD_REACTORS
330
10A7
102
}
330
10A7
100
AcDbXrecord
 90
        0
  0
XRECORD
  5
10B1
102
{ACAD_REACTORS
330
10A7
102
}
330
10A7
100
AcDbXrecord
 90
        0
  0
XRECORD
  5
10B2
102
{ACAD_REACTORS
330
10A7
102
}
330
10A7
100
AcDbXrecord
  1
{6E396E46-8D73-11D4-932C-0050DA99388B}
  0
XRECORD
  5
10B3
102
{ACAD_REACTORS
330
10A7
102
}
330
10A7
100
AcDbXrecord
  1
{0AFB700F-D43A-4208-B5F3-A10F89B7D36E}
  0
XRECORD
  5
10B4
102
{ACAD_REACTORS
330
10A7
102
}
330
10A7
100
AcDbXrecord
 40
0.0
  0
XRECORD
  5
10B5
102
{ACAD_REACTORS
330
10A7
102
}
330
10A7
100
AcDbXrecord
1000
DSTYLE
1002
{
1070
   341
340
6D
1070
   343
340
6D
1070
   344
340
6D
1070
   371
 70
    -1
1070
   372
 70
    -1
1002
}
  0
XRECORD
  5
10B6
102
{ACAD_REACTORS
330
10A7
102
}
330
10A7
100
AcDbXrecord
340
0
  0
XRECORD
  5
10B7
102
{ACAD_REACTORS
330
10A7
102
}
330
10A7
100
AcDbXrecord
 70
     0
  0
XRECORD
  5
10B8
102
{ACAD_REACTORS
330
10A7
102
}
330
10A7
100
AcDbXrecord
340
0
  0
XRECORD
  5
10B9
102
{ACAD_REACTORS
330
10A7
102
}
330
10A7
100
AcDbXrecord
 10
0.0
 20
0.0
 30
0.0
  0
XRECORD
  5
10BA
102
{ACAD_REACTORS
330
10A7
102
}
330
10A7
100
AcDbXrecord
 10
0.0
 20
0.0
 30
0.0
  0
XRECORD
  5
10BB
102
{ACAD_REACTORS
330
10A7
102
}
330
10A7
100
AcDbXrecord
 10
0.0
 20
0.0
 30
0.0
  0
XRECORD
  5
10BC
102
{ACAD_REACTORS
330
10A7
102
}
330
10A7
100
AcDbXrecord
 10
0.0
 20
0.0
 30
0.0
  0
XRECORD
  5
10BD
102
{ACAD_REACTORS
330
10A7
102
}
330
10A7
100
AcDbXrecord
 10
0.0
 20
0.0
 30
0.0
  0
XRECORD
  5
10BE
102
{ACAD_REACTORS
330
10A7
102
}
330
10A7
100
AcDbXrecord
 10
0.0
 20
0.0
 30
0.0
  0
XRECORD
  5
10BF
102
{ACAD_REACTORS
330
10A7
102
}
330
10A7
100
AcDbXrecord
340
0
  0
XRECORD
  5
10C0
102
{ACAD_REACTORS
330
10A7
102
}
330
10A7
100
AcDbXrecord
 70
     0
  0
XRECORD
  5
10C1
102
{ACAD_REACTORS
330
10A7
102
}
330
10A7
100
AcDbXrecord
340
0
  0
XRECORD
  5
10C2
102
{ACAD_REACTORS
330
10A7
102
}
330
10A7
100
AcDbXrecord
 10
0.0
 20
0.0
 30
0.0
  0
XRECORD
  5
10C3
102
{ACAD_REACTORS
330
10A7
102
}
330
10A7
100
AcDbXrecord
 10
0.0
 20
0.0
 30
0.0
  0
XRECORD
  5
10C4
102
{ACAD_REACTORS
330
10A7
102
}
330
10A7
100
AcDbXrecord
 10
0.0
 20
0.0
 30
0.0
  0
XRECORD
  5
10C5
102
{ACAD_REACTORS
330
10A7
102
}
330
10A7
100
AcDbXrecord
 10
0.0
 20
0.0
 30
0.0
  0
XRECORD
  5
10C6
102
{ACAD_REACTORS
330
10A7
102
}
330
10A7
100
AcDbXrecord
 10
0.0
 20
0.0
 30
0.0
  0
XRECORD
  5
10C7
102
{ACAD_REACTORS
330
10A7
102
}
330
10A7
100
AcDbXrecord
 10
0.0
 20
0.0
 30
0.0
  0
ENDSEC
  0
EOF
