  0
SECTION
  2
HEADER
  9
$ACADVER
  1
AC1014
  9
$ACADMAINTVER
 70
     9
  9
$DWGCODEPAGE
  3
ANSI_932
  9
$INSBASE
 10
0.0
 20
0.0
 30
0.0
  9
$EXTMIN
 10
-0.05126640194635
 20
-0.0362526699479986
 30
-0.0000000000000058
  9
$EXTMAX
 10
797.6628945888771
 20
551.6439420217511
 30
0.0000000000000104
  9
$LIMMIN
 10
0.0
 20
0.0
  9
$LIMMAX
 10
840.0
 20
594.0
  9
$ORTHOMODE
 70
     0
  9
$REGENMODE
 70
     1
  9
$FILLMODE
 70
     1
  9
$QTEXTMODE
 70
     0
  9
$MIRRTEXT
 70
     1
  9
$DRAGMODE
 70
     2
  9
$LTSCALE
 40
2.0
  9
$OSMODE
 70
    35
  9
$ATTMODE
 70
     1
  9
$TEXTSIZE
 40
5.0
  9
$TRACEWID
 40
1.0
  9
$TEXTSTYLE
  7
STANDARD
  9
$CLAYER
  8
SUNPOU
  9
$CELTYPE
  6
BYLAYER
  9
$CECOLOR
 62
   256
  9
$CELTSCALE
 40
1.0
  9
$DELOBJ
 70
     1
  9
$DISPSILH
 70
     0
  9
$DIMSCALE
 40
1.0
  9
$DIMASZ
 40
7.0
  9
$DIMEXO
 40
6.0
  9
$DIMDLI
 40
14.0
  9
$DIMRND
 40
0.0
  9
$DIMDLE
 40
0.0
  9
$DIMEXE
 40
3.0
  9
$DIMTP
 40
0.0
  9
$DIMTM
 40
0.0
  9
$DIMTXT
 40
6.0
  9
$DIMCEN
 40
150.0
  9
$DIMTSZ
 40
0.0
  9
$DIMTOL
 70
     0
  9
$DIMLIM
 70
     0
  9
$DIMTIH
 70
     0
  9
$DIMTOH
 70
     0
  9
$DIMSE1
 70
     0
  9
$DIMSE2
 70
     0
  9
$DIMTAD
 70
     3
  9
$DIMZIN
 70
     0
  9
$DIMBLK
  1

  9
$DIMASO
 70
     1
  9
$DIMSHO
 70
     1
  9
$DIMPOST
  1

  9
$DIMAPOST
  1

  9
$DIMALT
 70
     0
  9
$DIMALTD
 70
     2
  9
$DIMALTF
 40
25.4
  9
$DIMLFAC
 40
1.0
  9
$DIMTOFL
 70
     1
  9
$DIMTVP
 40
0.0
  9
$DIMTIX
 70
     0
  9
$DIMSOXD
 70
     0
  9
$DIMSAH
 70
     1
  9
$DIMBLK1
  1
OPEN
  9
$DIMBLK2
  1
OPEN
  9
$DIMSTYLE
  2
STANDARD
  9
$DIMCLRD
 70
   256
  9
$DIMCLRE
 70
   256
  9
$DIMCLRT
 70
   256
  9
$DIMTFAC
 40
1.0
  9
$DIMGAP
 40
2.0
  9
$DIMJUST
 70
     0
  9
$DIMSD1
 70
     0
  9
$DIMSD2
 70
     0
  9
$DIMTOLJ
 70
     1
  9
$DIMTZIN
 70
     0
  9
$DIMALTZ
 70
     0
  9
$DIMALTTZ
 70
     0
  9
$DIMFIT
 70
     3
  9
$DIMUPT
 70
     0
  9
$DIMUNIT
 70
     2
  9
$DIMDEC
 70
     0
  9
$DIMTDEC
 70
     0
  9
$DIMALTU
 70
     2
  9
$DIMALTTD
 70
     2
  9
$DIMTXSTY
  7
STANDARD
  9
$DIMAUNIT
 70
     0
  9
$LUNITS
 70
     2
  9
$LUPREC
 70
     4
  9
$SKETCHINC
 40
1.0
  9
$FILLETRAD
 40
20.0
  9
$AUNITS
 70
     0
  9
$AUPREC
 70
     0
  9
$MENU
  1
.
  9
$ELEVATION
 40
0.0
  9
$PELEVATION
 40
0.0
  9
$THICKNESS
 40
0.0
  9
$LIMCHECK
 70
     0
  9
$BLIPMODE
 70
     0
  9
$CHAMFERA
 40
20.0
  9
$CHAMFERB
 40
20.0
  9
$CHAMFERC
 40
40.0
  9
$CHAMFERD
 40
0.0
  9
$SKPOLY
 70
     0
  9
$TDCREATE
 40
2450994.354346065
  9
$TDUPDATE
 40
2453805.642064340
  9
$TDINDWG
 40
0.0433546412
  9
$TDUSRTIMER
 40
0.0433546412
  9
$USRTIMER
 70
     1
  9
$ANGBASE
 50
0.0
  9
$ANGDIR
 70
     0
  9
$PDMODE
 70
     1
  9
$PDSIZE
 40
0.0
  9
$PLINEWID
 40
0.0
  9
$COORDS
 70
     1
  9
$SPLFRAME
 70
     0
  9
$SPLINETYPE
 70
     6
  9
$SPLINESEGS
 70
     8
  9
$ATTDIA
 70
     0
  9
$ATTREQ
 70
     1
  9
$HANDLING
 70
 10241
  9
$HANDSEED
  5
FC4
  9
$SURFTAB1
 70
     6
  9
$SURFTAB2
 70
     6
  9
$SURFTYPE
 70
     6
  9
$SURFU
 70
     6
  9
$SURFV
 70
     6
  9
$UCSNAME
  2

  9
$UCSORG
 10
0.0
 20
0.0
 30
0.0
  9
$UCSXDIR
 10
1.0
 20
0.0
 30
0.0
  9
$UCSYDIR
 10
0.0
 20
1.0
 30
0.0
  9
$PUCSNAME
  2

  9
$PUCSORG
 10
0.0
 20
0.0
 30
0.0
  9
$PUCSXDIR
 10
1.0
 20
0.0
 30
0.0
  9
$PUCSYDIR
 10
0.0
 20
1.0
 30
0.0
  9
$USERI1
 70
     0
  9
$USERI2
 70
     0
  9
$USERI3
 70
     0
  9
$USERI4
 70
     0
  9
$USERI5
 70
     0
  9
$USERR1
 40
0.0
  9
$USERR2
 40
0.0
  9
$USERR3
 40
0.0
  9
$USERR4
 40
0.0
  9
$USERR5
 40
0.0
  9
$WORLDVIEW
 70
     1
  9
$SHADEDGE
 70
     3
  9
$SHADEDIF
 70
    70
  9
$TILEMODE
 70
     1
  9
$MAXACTVP
 70
    16
  9
$PINSBASE
 10
0.0
 20
0.0
 30
0.0
  9
$PLIMCHECK
 70
     0
  9
$PEXTMIN
 10
0.0
 20
0.0
 30
0.0
  9
$PEXTMAX
 10
420.0
 20
297.0
 30
0.0
  9
$PLIMMIN
 10
0.0
 20
0.0
  9
$PLIMMAX
 10
420.0
 20
297.0
  9
$UNITMODE
 70
     0
  9
$VISRETAIN
 70
     0
  9
$PLINEGEN
 70
     0
  9
$PSLTSCALE
 70
     1
  9
$TREEDEPTH
 70
  3020
  9
$PICKSTYLE
 70
     1
  9
$CMLSTYLE
  2
STANDARD
  9
$CMLJUST
 70
     0
  9
$CMLSCALE
 40
1.0
  9
$PROXYGRAPHICS
 70
     1
  9
$MEASUREMENT
 70
     1
  0
ENDSEC
  0
SECTION
  2
CLASSES
  0
CLASS
  1
ACDBDICTIONARYWDFLT
  2
AcDbDictionaryWithDefault
  3
AutoCAD 2000
 90
        0
280
     0
281
     0
  0
CLASS
  1
ACDBPLACEHOLDER
  2
AcDbPlaceHolder
  3
AutoCAD 2000
 90
        0
280
     0
281
     0
  0
CLASS
  1
LAYOUT
  2
AcDbLayout
  3
AutoCAD 2000
 90
        0
280
     0
281
     0
  0
CLASS
  1
LONG_TRANSACTION
  2
AcDbLongTransaction
  3
AutoCAD 2000
 90
        0
280
     0
281
     0
  0
CLASS
  1
LWPOLYLINE
  2
AcDbPolyline
  3
AutoCAD 2000
 90
        0
280
     0
281
     1
  0
CLASS
  1
HATCH
  2
AcDbHatch
  3
AutoCAD 2000
 90
        0
280
     0
281
     1
  0
CLASS
  1
XRECORD
  2
AcDbXrecord
  3
AutoCAD 2000
 90
        0
280
     0
281
     0
  0
CLASS
  1
DICTIONARYVAR
  2
AcDbDictionaryVar
  3
AutoCAD 2000
 90
        0
280
     0
281
     0
  0
CLASS
  1
LONG_TRANSACTION
  2
AcDbLongTransaction
  3
AutoCAD 2000
 90
        0
280
     0
281
     0
  0
CLASS
  1
LWPOLYLINE
  2
AcDbPolyline
  3
AutoCAD 2000
 90
        0
280
     0
281
     1
  0
CLASS
  1
HATCH
  2
AcDbHatch
  3
AutoCAD 2000
 90
        0
280
     0
281
     1
  0
CLASS
  1
XRECORD
  2
AcDbXrecord
  3
AutoCAD 2000
 90
        0
280
     0
281
     0
  0
CLASS
  1
LONG_TRANSACTION
  2
AcDbLongTransaction
  3
AutoCAD 2000
 90
        0
280
     0
281
     0
  0
CLASS
  1
LWPOLYLINE
  2
AcDbPolyline
  3
AutoCAD 2000
 90
        0
280
     0
281
     1
  0
CLASS
  1
HATCH
  2
AcDbHatch
  3
AutoCAD 2000
 90
        0
280
     0
281
     1
  0
CLASS
  1
XRECORD
  2
AcDbXrecord
  3
AutoCAD 2000
 90
        0
280
     0
281
     0
  0
CLASS
  1
LONG_TRANSACTION
  2
AcDbLongTransaction
  3
AutoCAD 2000
 90
        0
280
     0
281
     0
  0
CLASS
  1
LWPOLYLINE
  2
AcDbPolyline
  3
AutoCAD 2000
 90
        0
280
     0
281
     1
  0
CLASS
  1
HATCH
  2
AcDbHatch
  3
AutoCAD 2000
 90
        0
280
     0
281
     1
  0
CLASS
  1
XRECORD
  2
AcDbXrecord
  3
AutoCAD 2000
 90
        0
280
     0
281
     0
  0
ENDSEC
  0
SECTION
  2
TABLES
  0
TABLE
  2
VPORT
  5
8
330
0
100
AcDbSymbolTable
 70
     3
  0
VPORT
  5
F83
330
8
100
AcDbSymbolTableRecord
100
AcDbViewportTableRecord
  2
*ACTIVE
 70
     0
 10
0.0
 20
0.0
 11
1.0
 21
1.0
 12
396.0934947573057
 22
268.5460704750289
 13
0.0
 23
0.0
 14
5.0
 24
5.0
 15
0.0
 25
0.0
 16
0.0
 26
0.0
 36
1.0
 17
0.0
 27
0.0
 37
0.0
 40
600.755572985266
 41
1.795454545454545
 42
50.0
 43
0.0
 44
0.0
 50
0.0
 51
0.0
 71
     0
 72
   100
 73
     1
 74
     0
 75
     0
 76
     0
 77
     0
 78
     0
  0
ENDTAB
  0
TABLE
  2
LTYPE
  5
5
330
0
100
AcDbSymbolTable
 70
     3
  0
LTYPE
  5
14
330
5
100
AcDbSymbolTableRecord
100
AcDbLinetypeTableRecord
  2
BYBLOCK
 70
     0
  3

 72
    65
 73
     0
 40
0.0
  0
LTYPE
  5
15
330
5
100
AcDbSymbolTableRecord
100
AcDbLinetypeTableRecord
  2
BYLAYER
 70
     0
  3

 72
    65
 73
     0
 40
0.0
  0
LTYPE
  5
16
330
5
100
AcDbSymbolTableRecord
100
AcDbLinetypeTableRecord
  2
CONTINUOUS
 70
     0
  3
Solid line
 72
    65
 73
     0
 40
0.0
  0
LTYPE
  5
115
330
5
100
AcDbSymbolTableRecord
100
AcDbLinetypeTableRecord
  2
PHANTOM
 70
     0
  3
______  __  __  ______  __  __  ______  __  __ 
 72
    65
 73
     6
 40
2.5
 49
1.25
 74
     0
 49
-0.25
 74
     0
 49
0.25
 74
     0
 49
-0.25
 74
     0
 49
0.25
 74
     0
 49
-0.25
 74
     0
  0
LTYPE
  5
135
330
5
100
AcDbSymbolTableRecord
100
AcDbLinetypeTableRecord
  2
CENTER
 70
     0
  3
____ _ ____ _ ____ _ ____ _ ____ _ ____ _ ____ 
 72
    65
 73
     4
 40
2.0
 49
1.25
 74
     0
 49
-0.25
 74
     0
 49
0.25
 74
     0
 49
-0.25
 74
     0
  0
ENDTAB
  0
TABLE
  2
LAYER
  5
2
330
0
100
AcDbSymbolTable
 70
     9
  0
LAYER
  5
F
330
2
100
AcDbSymbolTableRecord
100
AcDbLayerTableRecord
  2
0
 70
     0
 62
     7
  6
CONTINUOUS
  0
LAYER
  5
62
330
2
100
AcDbSymbolTableRecord
100
AcDbLayerTableRecord
  2
VIEWPORT
 70
     0
 62
     7
  6
CONTINUOUS
  0
LAYER
  5
65
330
2
100
AcDbSymbolTableRecord
100
AcDbLayerTableRecord
  2
ZUWAKU
 70
     0
 62
     7
  6
CONTINUOUS
  0
LAYER
  5
1D2
330
2
100
AcDbSymbolTableRecord
100
AcDbLayerTableRecord
  2
SEIHIN
 70
     0
 62
     3
  6
CONTINUOUS
  0
LAYER
  5
1D3
330
2
100
AcDbSymbolTableRecord
100
AcDbLayerTableRecord
  2
SUNPOU
 70
     0
 62
     4
  6
CONTINUOUS
  0
LAYER
  5
1D4
330
2
100
AcDbSymbolTableRecord
100
AcDbLayerTableRecord
  2
CENTER_L
 70
     0
 62
     1
  6
CENTER
  0
LAYER
  5
1D5
330
2
100
AcDbSymbolTableRecord
100
AcDbLayerTableRecord
  2
NOKITOI
 70
     0
 62
     8
  6
PHANTOM
  0
LAYER
  5
1D6
330
2
100
AcDbSymbolTableRecord
100
AcDbLayerTableRecord
  2
DEFPOINTS
 70
     0
 62
     7
  6
CONTINUOUS
  0
LAYER
  5
D96
330
2
100
AcDbSymbolTableRecord
100
AcDbLayerTableRecord
  2
MOJI
 70
     0
 62
     2
  6
CONTINUOUS
  0
ENDTAB
  0
TABLE
  2
STYLE
  5
3
330
0
100
AcDbSymbolTable
 70
     2
  0
STYLE
  5
10
330
3
100
AcDbSymbolTableRecord
100
AcDbTextStyleTableRecord
  2
STANDARD
 70
     0
 40
0.0
 41
1.0
 50
0.0
 71
     0
 42
5.0
  3
TXT
  4
bigfont.shx
  0
STYLE
  5
D97
330
3
100
AcDbSymbolTableRecord
100
AcDbTextStyleTableRecord
  2
ｽﾀｲﾙ1
 70
     0
 40
0.0
 41
1.0
 50
0.0
 71
     0
 42
2.5
  3
MS PGothic.ttf
  4

1001
ACAD
1000
MS PGothic
1071
    32818
  0
ENDTAB
  0
TABLE
  2
VIEW
  5
6
330
0
100
AcDbSymbolTable
 70
     0
  0
ENDTAB
  0
TABLE
  2
UCS
  5
7
330
0
100
AcDbSymbolTable
 70
     0
  0
ENDTAB
  0
TABLE
  2
APPID
  5
9
330
0
100
AcDbSymbolTable
 70
     1
  0
APPID
  5
11
330
9
100
AcDbSymbolTableRecord
100
AcDbRegAppTableRecord
  2
ACAD
 70
     0
  0
ENDTAB
  0
TABLE
  2
DIMSTYLE
  5
A
330
0
100
AcDbSymbolTable
 70
     1
  0
DIMSTYLE
105
1D
102
{ACAD_REACTORS
330
ABC
330
AC9
330
AD6
330
AE3
330
AF0
330
B06
330
B25
330
B58
330
B65
330
B72
330
BD0
330
C91
102
}
330
A
100
AcDbSymbolTableRecord
100
AcDbDimStyleTableRecord
  2
STANDARD
 70
     0
  3

  4

  5

  6

  7

 40
1.0
 41
0.18
 42
0.0625
 43
0.38
 44
0.18
 45
0.0
 46
0.0
 47
0.0
 48
0.0
140
0.18
141
0.09
142
0.0
143
25.4
144
1.0
145
0.0
146
1.0
147
0.09
 71
     0
 72
     0
 73
     1
 74
     1
 75
     0
 76
     0
 77
     0
 78
     0
170
     0
171
     2
172
     0
173
     0
174
     0
175
     0
176
     0
177
     0
178
     0
270
     2
271
     4
272
     4
273
     2
274
     2
340
10
275
     0
280
     0
281
     0
282
     0
283
     1
284
     0
285
     0
286
     0
287
     3
288
     0
  0
ENDTAB
  0
TABLE
  2
BLOCK_RECORD
  5
1
330
0
100
AcDbSymbolTable
 70
    13
  0
BLOCK_RECORD
  5
1A
102
{ACAD_XDICTIONARY
360
975
102
}
330
1
100
AcDbSymbolTableRecord
100
AcDbBlockTableRecord
  2
*MODEL_SPACE
  0
BLOCK_RECORD
  5
17
102
{ACAD_XDICTIONARY
360
973
102
}
330
1
100
AcDbSymbolTableRecord
100
AcDbBlockTableRecord
  2
*PAPER_SPACE
  0
BLOCK_RECORD
  5
6D
330
1
100
AcDbSymbolTableRecord
100
AcDbBlockTableRecord
  2
_OPEN
  0
BLOCK_RECORD
  5
ABD
330
1
100
AcDbSymbolTableRecord
100
AcDbBlockTableRecord
  2
*D1
  0
BLOCK_RECORD
  5
ACA
330
1
100
AcDbSymbolTableRecord
100
AcDbBlockTableRecord
  2
*D2
  0
BLOCK_RECORD
  5
AD7
330
1
100
AcDbSymbolTableRecord
100
AcDbBlockTableRecord
  2
*D3
  0
BLOCK_RECORD
  5
AE4
330
1
100
AcDbSymbolTableRecord
100
AcDbBlockTableRecord
  2
*D4
  0
BLOCK_RECORD
  5
AF1
330
1
100
AcDbSymbolTableRecord
100
AcDbBlockTableRecord
  2
*D5
  0
BLOCK_RECORD
  5
B07
330
1
100
AcDbSymbolTableRecord
100
AcDbBlockTableRecord
  2
*D6
  0
BLOCK_RECORD
  5
B26
330
1
100
AcDbSymbolTableRecord
100
AcDbBlockTableRecord
  2
*D7
  0
BLOCK_RECORD
  5
B59
330
1
100
AcDbSymbolTableRecord
100
AcDbBlockTableRecord
  2
*D8
  0
BLOCK_RECORD
  5
B66
330
1
100
AcDbSymbolTableRecord
100
AcDbBlockTableRecord
  2
*D9
  0
BLOCK_RECORD
  5
B73
330
1
100
AcDbSymbolTableRecord
100
AcDbBlockTableRecord
  2
*D10
  0
BLOCK_RECORD
  5
BD1
330
1
100
AcDbSymbolTableRecord
100
AcDbBlockTableRecord
  2
*D11
  0
BLOCK_RECORD
  5
C92
330
1
100
AcDbSymbolTableRecord
100
AcDbBlockTableRecord
  2
*D12
  0
ENDTAB
  0
ENDSEC
  0
SECTION
  2
BLOCKS
  0
BLOCK
  5
1B
330
1A
100
AcDbEntity
  8
0
100
AcDbBlockBegin
  2
*MODEL_SPACE
 70
     0
 10
0.0
 20
0.0
 30
0.0
  3
*MODEL_SPACE
  1

  0
ENDBLK
  5
1C
330
1A
100
AcDbEntity
  8
0
100
AcDbBlockEnd
  0
BLOCK
  5
18
330
17
100
AcDbEntity
 67
     1
  8
0
100
AcDbBlockBegin
  2
*PAPER_SPACE
 70
     0
 10
0.0
 20
0.0
 30
0.0
  3
*PAPER_SPACE
  1

  0
ENDBLK
  5
19
330
17
100
AcDbEntity
 67
     1
  8
0
100
AcDbBlockEnd
  0
BLOCK
  5
6E
330
6D
100
AcDbEntity
  8
0
100
AcDbBlockBegin
  2
_OPEN
 70
     0
 10
0.0
 20
0.0
 30
0.0
  3
_OPEN
  1

  0
LINE
  5
6F
330
6D
100
AcDbEntity
  8
0
  6
BYBLOCK
 62
     0
100
AcDbLine
 10
-1.0
 20
0.1666666666666666
 30
0.0
 11
0.0
 21
0.0
 31
0.0
  0
LINE
  5
70
330
6D
100
AcDbEntity
  8
0
  6
BYBLOCK
 62
     0
100
AcDbLine
 10
0.0
 20
0.0
 30
0.0
 11
-1.0
 21
-0.1666666666666666
 31
0.0
  0
LINE
  5
71
330
6D
100
AcDbEntity
  8
0
  6
BYBLOCK
 62
     0
100
AcDbLine
 10
0.0
 20
0.0
 30
0.0
 11
-1.0
 21
0.0
 31
0.0
  0
ENDBLK
  5
72
330
6D
100
AcDbEntity
  8
0
100
AcDbBlockEnd
  0
BLOCK
  5
AC7
330
ABD
100
AcDbEntity
  8
0
100
AcDbBlockBegin
  2
*D1
 70
     1
 10
0.0
 20
0.0
 30
0.0
  3
*D1
  1

  0
LINE
  5
F15
330
ABD
100
AcDbEntity
  8
SUNPOU
 62
     4
100
AcDbLine
 10
355.9837661387812
 20
242.4404550744902
 30
0.0
 11
355.9837661387812
 21
287.4869958504225
 31
0.0
  0
LINE
  5
F16
330
ABD
100
AcDbEntity
  8
SUNPOU
 62
     4
100
AcDbLine
 10
135.9837661387814
 20
242.4404550744902
 30
0.0
 11
135.9837661387814
 21
287.4869958504225
 31
0.0
  0
LINE
  5
F17
330
ABD
100
AcDbEntity
  8
SUNPOU
 62
     4
100
AcDbLine
 10
348.9837661387812
 20
284.4869958504225
 30
0.0
 11
142.9837661387814
 21
284.4869958504225
 31
0.0
  0
INSERT
  5
F18
330
ABD
100
AcDbEntity
  8
SUNPOU
 62
     4
100
AcDbBlockReference
  2
_OPEN
 10
355.9837661387812
 20
284.4869958504225
 30
0.0
 41
7.0
 42
7.0
 43
7.0
  0
INSERT
  5
F19
330
ABD
100
AcDbEntity
  8
SUNPOU
 62
     4
100
AcDbBlockReference
  2
_OPEN
 10
135.9837661387814
 20
284.4869958504225
 30
0.0
 41
7.0
 42
7.0
 43
7.0
 50
180.0
  0
MTEXT
  5
F1A
330
ABD
100
AcDbEntity
  8
SUNPOU
 62
     4
100
AcDbMText
 10
245.9837661387813
 20
289.4869958504225
 30
0.0
 40
6.0
 41
0.0
 71
     5
 72
     1
  1
\A1;220
1001
ACAD
1000
MTEXTBEGIN
1070
    73
1070
     1
1070
    44
1040
1.0
1070
    74
1070
     0
1000
MTEXTEND
  0
POINT
  5
F1B
330
ABD
100
AcDbEntity
  8
DEFPOINTS
 62
     0
100
AcDbPoint
 10
355.9837661387812
 20
236.4404550744902
 30
0.0
  0
POINT
  5
F1C
330
ABD
100
AcDbEntity
  8
DEFPOINTS
 62
     0
100
AcDbPoint
 10
135.9837661387814
 20
236.4404550744902
 30
0.0
  0
POINT
  5
F1D
330
ABD
100
AcDbEntity
  8
DEFPOINTS
 62
     0
100
AcDbPoint
 10
135.9837661387814
 20
284.4869958504225
 30
0.0
  0
ENDBLK
  5
AC8
330
ABD
100
AcDbEntity
  8
0
100
AcDbBlockEnd
  0
BLOCK
  5
AD4
330
ACA
100
AcDbEntity
  8
0
100
AcDbBlockBegin
  2
*D2
 70
     1
 10
0.0
 20
0.0
 30
0.0
  3
*D2
  1

  0
LINE
  5
F42
330
ACA
100
AcDbEntity
  8
SUNPOU
 62
     4
100
AcDbLine
 10
490.3808895927618
 20
239.6404550744902
 30
0.0
 11
490.3808895927618
 21
287.4869958504225
 31
0.0
  0
LINE
  5
F43
330
ACA
100
AcDbEntity
  8
SUNPOU
 62
     4
100
AcDbLine
 10
614.6805863771617
 20
239.6404550744902
 30
0.0
 11
614.6805863771617
 21
287.4869958504225
 31
0.0
  0
LINE
  5
F44
330
ACA
100
AcDbEntity
  8
SUNPOU
 62
     4
100
AcDbLine
 10
497.3808895927618
 20
284.4869958504225
 30
0.0
 11
607.6805863771617
 21
284.4869958504225
 31
0.0
  0
INSERT
  5
F45
330
ACA
100
AcDbEntity
  8
SUNPOU
 62
     4
100
AcDbBlockReference
  2
_OPEN
 10
490.3808895927618
 20
284.4869958504225
 30
0.0
 41
7.0
 42
7.0
 43
7.0
 50
180.0
  0
INSERT
  5
F46
330
ACA
100
AcDbEntity
  8
SUNPOU
 62
     4
100
AcDbBlockReference
  2
_OPEN
 10
614.6805863771617
 20
284.4869958504225
 30
0.0
 41
7.0
 42
7.0
 43
7.0
  0
MTEXT
  5
F47
330
ACA
100
AcDbEntity
  8
SUNPOU
 62
     4
100
AcDbMText
 10
552.5307379849618
 20
289.4869958504225
 30
0.0
 40
6.0
 41
0.0
 71
     5
 72
     1
  1
\A1;124
1001
ACAD
1000
MTEXTBEGIN
1070
    73
1070
     1
1070
    44
1040
1.0
1070
    74
1070
     0
1000
MTEXTEND
  0
POINT
  5
F48
330
ACA
100
AcDbEntity
  8
DEFPOINTS
 62
     0
100
AcDbPoint
 10
490.3808895927618
 20
233.6404550744902
 30
0.0
  0
POINT
  5
F49
330
ACA
100
AcDbEntity
  8
DEFPOINTS
 62
     0
100
AcDbPoint
 10
614.6805863771617
 20
233.6404550744902
 30
0.0
  0
POINT
  5
F4A
330
ACA
100
AcDbEntity
  8
DEFPOINTS
 62
     0
100
AcDbPoint
 10
614.6805863771617
 20
284.4869958504225
 30
0.0
  0
ENDBLK
  5
AD5
330
ACA
100
AcDbEntity
  8
0
100
AcDbBlockEnd
  0
BLOCK
  5
AE1
330
AD7
100
AcDbEntity
  8
0
100
AcDbBlockBegin
  2
*D3
 70
     1
 10
0.0
 20
0.0
 30
0.0
  3
*D3
  1

  0
LINE
  5
F0C
330
AD7
100
AcDbEntity
  8
SUNPOU
 62
     4
100
AcDbLine
 10
487.0808895927616
 20
235.6404550744902
 30
0.0
 11
436.6915489450581
 21
235.6404550744902
 31
0.0
  0
LINE
  5
F0D
330
AD7
100
AcDbEntity
  8
SUNPOU
 62
     4
100
AcDbLine
 10
521.1808895927616
 20
113.0404550744902
 30
0.0
 11
436.691548945058
 21
113.0404550744902
 31
0.0
  0
LINE
  5
F0E
330
AD7
100
AcDbEntity
  8
SUNPOU
 62
     4
100
AcDbLine
 10
439.691548945058
 20
228.6404550744903
 30
0.0
 11
439.691548945058
 21
120.0404550744902
 31
0.0
  0
INSERT
  5
F0F
330
AD7
100
AcDbEntity
  8
SUNPOU
 62
     4
100
AcDbBlockReference
  2
_OPEN
 10
439.691548945058
 20
235.6404550744902
 30
0.0
 41
7.0
 42
7.0
 43
7.0
 50
90.0
  0
INSERT
  5
F10
330
AD7
100
AcDbEntity
  8
SUNPOU
 62
     4
100
AcDbBlockReference
  2
_OPEN
 10
439.691548945058
 20
113.0404550744902
 30
0.0
 41
7.0
 42
7.0
 43
7.0
 50
270.0
  0
MTEXT
  5
F11
330
AD7
100
AcDbEntity
  8
SUNPOU
 62
     4
100
AcDbMText
 10
434.6915489450579
 20
174.3404550744903
 30
0.0
 40
6.0
 41
0.0
 71
     5
 72
     1
  1
\A1;123
 11
0.0000000000000001
 21
1.0
 31
0.0
1001
ACAD
1000
MTEXTBEGIN
1070
    73
1070
     1
1070
    44
1040
1.0
1070
    74
1070
     0
1000
MTEXTEND
  0
POINT
  5
F12
330
AD7
100
AcDbEntity
  8
DEFPOINTS
 62
     0
100
AcDbPoint
 10
493.0808895927616
 20
235.6404550744902
 30
0.0
  0
POINT
  5
F13
330
AD7
100
AcDbEntity
  8
DEFPOINTS
 62
     0
100
AcDbPoint
 10
527.1808895927615
 20
113.0404550744902
 30
0.0
  0
POINT
  5
F14
330
AD7
100
AcDbEntity
  8
DEFPOINTS
 62
     0
100
AcDbPoint
 10
439.691548945058
 20
113.0404550744902
 30
0.0
  0
ENDBLK
  5
AE2
330
AD7
100
AcDbEntity
  8
0
100
AcDbBlockEnd
  0
BLOCK
  5
AEE
330
AE4
100
AcDbEntity
  8
0
100
AcDbBlockBegin
  2
*D4
 70
     1
 10
0.0
 20
0.0
 30
0.0
  3
*D4
  1

  0
LINE
  5
F68
330
AE4
100
AcDbEntity
  8
SUNPOU
 62
     4
100
AcDbLine
 10
487.0808895927616
 20
235.6404550744902
 30
0.0
 11
451.2474482904186
 21
235.6404550744902
 31
0.0
  0
LINE
  5
F69
330
AE4
100
AcDbEntity
  8
SUNPOU
 62
     4
100
AcDbLine
 10
511.1546769715617
 20
156.7404550744902
 30
0.0
 11
451.2474482904186
 21
156.7404550744902
 31
0.0
  0
LINE
  5
F6A
330
AE4
100
AcDbEntity
  8
SUNPOU
 62
     4
100
AcDbLine
 10
454.2474482904185
 20
228.6404550744902
 30
0.0
 11
454.2474482904185
 21
163.7404550744902
 31
0.0
  0
INSERT
  5
F6B
330
AE4
100
AcDbEntity
  8
SUNPOU
 62
     4
100
AcDbBlockReference
  2
_OPEN
 10
454.2474482904185
 20
235.6404550744902
 30
0.0
 41
7.0
 42
7.0
 43
7.0
 50
90.0
  0
INSERT
  5
F6C
330
AE4
100
AcDbEntity
  8
SUNPOU
 62
     4
100
AcDbBlockReference
  2
_OPEN
 10
454.2474482904185
 20
156.7404550744902
 30
0.0
 41
7.0
 42
7.0
 43
7.0
 50
270.0
  0
MTEXT
  5
F6D
330
AE4
100
AcDbEntity
  8
SUNPOU
 62
     4
100
AcDbMText
 10
449.2474482904184
 20
196.1904550744903
 30
0.0
 40
6.0
 41
0.0
 71
     5
 72
     1
  1
\A1;79
 11
0.0000000000000001
 21
1.0
 31
0.0
1001
ACAD
1000
MTEXTBEGIN
1070
    73
1070
     1
1070
    44
1040
1.0
1070
    74
1070
     0
1000
MTEXTEND
  0
POINT
  5
F6E
330
AE4
100
AcDbEntity
  8
DEFPOINTS
 62
     0
100
AcDbPoint
 10
493.0808895927616
 20
235.6404550744902
 30
0.0
  0
POINT
  5
F6F
330
AE4
100
AcDbEntity
  8
DEFPOINTS
 62
     0
100
AcDbPoint
 10
517.1546769715616
 20
156.7404550744902
 30
0.0
  0
POINT
  5
F70
330
AE4
100
AcDbEntity
  8
DEFPOINTS
 62
     0
100
AcDbPoint
 10
454.2474482904185
 20
156.7404550744902
 30
0.0
  0
ENDBLK
  5
AEF
330
AE4
100
AcDbEntity
  8
0
100
AcDbBlockEnd
  0
BLOCK
  5
AFB
330
AF1
100
AcDbEntity
  8
0
100
AcDbBlockBegin
  2
*D5
 70
     1
 10
0.0
 20
0.0
 30
0.0
  3
*D5
  1

  0
LINE
  5
F4B
330
AF1
100
AcDbEntity
  8
SUNPOU
 62
     4
100
AcDbLine
 10
521.3806895927936
 20
113.0404150745927
 30
0.0
 11
521.3806895927936
 21
61.93290364578138
 31
0.0
  0
LINE
  5
F4C
330
AF1
100
AcDbEntity
  8
SUNPOU
 62
     4
100
AcDbLine
 10
591.3808895927618
 20
113.0402450744902
 30
0.0
 11
591.3808895927618
 21
61.93290364578138
 31
0.0
  0
LINE
  5
F4D
330
AF1
100
AcDbEntity
  8
SUNPOU
 62
     4
100
AcDbLine
 10
528.3806895927936
 20
64.93290364578138
 30
0.0
 11
584.3808895927618
 21
64.93290364578138
 31
0.0
  0
INSERT
  5
F4E
330
AF1
100
AcDbEntity
  8
SUNPOU
 62
     4
100
AcDbBlockReference
  2
_OPEN
 10
521.3806895927936
 20
64.93290364578138
 30
0.0
 41
7.0
 42
7.0
 43
7.0
 50
180.0
  0
INSERT
  5
F4F
330
AF1
100
AcDbEntity
  8
SUNPOU
 62
     4
100
AcDbBlockReference
  2
_OPEN
 10
591.3808895927618
 20
64.93290364578138
 30
0.0
 41
7.0
 42
7.0
 43
7.0
  0
MTEXT
  5
F50
330
AF1
100
AcDbEntity
  8
SUNPOU
 62
     4
100
AcDbMText
 10
556.3807895927777
 20
69.93290364578138
 30
0.0
 40
6.0
 41
0.0
 71
     5
 72
     1
  1
\A1;φ70
1001
ACAD
1000
MTEXTBEGIN
1070
    73
1070
     1
1070
    44
1040
1.0
1070
    74
1070
     0
1000
MTEXTEND
  0
POINT
  5
F51
330
AF1
100
AcDbEntity
  8
DEFPOINTS
 62
     0
100
AcDbPoint
 10
521.3806895927936
 20
119.0404150745927
 30
0.0
  0
POINT
  5
F52
330
AF1
100
AcDbEntity
  8
DEFPOINTS
 62
     0
100
AcDbPoint
 10
591.3808895927618
 20
119.0402450744902
 30
0.0
  0
POINT
  5
F53
330
AF1
100
AcDbEntity
  8
DEFPOINTS
 62
     0
100
AcDbPoint
 10
591.3808895927618
 20
64.93290364578138
 30
0.0
  0
ENDBLK
  5
AFC
330
AF1
100
AcDbEntity
  8
0
100
AcDbBlockEnd
  0
BLOCK
  5
B13
330
B07
100
AcDbEntity
  8
0
100
AcDbBlockBegin
  2
*D6
 70
     1
 10
0.0
 20
0.0
 30
0.0
  3
*D6
  1

  0
LINE
  5
F54
330
B07
100
AcDbEntity
  8
SUNPOU
 62
     4
100
AcDbLine
 10
552.5808895927617
 20
203.2620109830386
 30
0.0
 11
552.5808895927617
 21
220.7949178144542
 31
0.0
  0
LINE
  5
F55
330
B07
100
AcDbEntity
  8
SUNPOU
 62
     4
100
AcDbLine
 10
556.3808895927616
 20
211.4961856377346
 30
0.0
 11
556.3808895927616
 21
220.7949178144542
 31
0.0
  0
LINE
  5
F56
330
B07
100
AcDbEntity
  8
SUNPOU
 62
     4
100
AcDbLine
 10
545.5808895927616
 20
217.7949178144542
 30
0.0
 11
538.5808895927616
 21
217.7949178144542
 31
0.0
  0
LINE
  5
F57
330
B07
100
AcDbEntity
  8
SUNPOU
 62
     4
100
AcDbLine
 10
563.3808895927615
 20
217.7949178144542
 30
0.0
 11
578.3808895927616
 21
217.7949178144542
 31
0.0
  0
LINE
  5
F58
330
B07
100
AcDbEntity
  8
SUNPOU
 62
     4
100
AcDbLine
 10
552.5808895927617
 20
217.7949178144542
 30
0.0
 11
556.3808895927616
 21
217.7949178144542
 31
0.0
  0
INSERT
  5
F59
330
B07
100
AcDbEntity
  8
SUNPOU
 62
     4
100
AcDbBlockReference
  2
_OPEN
 10
552.5808895927617
 20
217.7949178144542
 30
0.0
 41
7.0
 42
7.0
 43
7.0
  0
INSERT
  5
F5A
330
B07
100
AcDbEntity
  8
SUNPOU
 62
     4
100
AcDbBlockReference
  2
_OPEN
 10
556.3808895927616
 20
217.7949178144542
 30
0.0
 41
7.0
 42
7.0
 43
7.0
 50
180.0
  0
MTEXT
  5
F5B
330
B07
100
AcDbEntity
  8
SUNPOU
 62
     4
100
AcDbMText
 10
574.3808895927616
 20
222.7949178144542
 30
0.0
 40
6.0
 41
0.0
 71
     5
 72
     1
  1
\A1;4
1001
ACAD
1000
MTEXTBEGIN
1070
    73
1070
     1
1070
    44
1040
1.0
1070
    74
1070
     0
1000
MTEXTEND
  0
POINT
  5
F5C
330
B07
100
AcDbEntity
  8
DEFPOINTS
 62
     0
100
AcDbPoint
 10
552.5808895927617
 20
197.2620109830386
 30
0.0
  0
POINT
  5
F5D
330
B07
100
AcDbEntity
  8
DEFPOINTS
 62
     0
100
AcDbPoint
 10
556.3808895927616
 20
205.4961856377346
 30
0.0
  0
POINT
  5
F5E
330
B07
100
AcDbEntity
  8
DEFPOINTS
 62
     0
100
AcDbPoint
 10
556.3808895927616
 20
217.7949178144542
 30
0.0
  0
ENDBLK
  5
B14
330
B07
100
AcDbEntity
  8
0
100
AcDbBlockEnd
  0
BLOCK
  5
B32
330
B26
100
AcDbEntity
  8
0
100
AcDbBlockBegin
  2
*D7
 70
     1
 10
0.0
 20
0.0
 30
0.0
  3
*D7
  1

  0
LINE
  5
FA7
330
B26
100
AcDbEntity
  8
SUNPOU
 62
     4
100
AcDbLine
 10
515.3806895927616
 20
119.0402850744902
 30
0.0
 11
486.5049502719315
 21
119.0402850744902
 31
0.0
  0
LINE
  5
FA8
330
B26
100
AcDbEntity
  8
SUNPOU
 62
     4
100
AcDbLine
 10
513.8869684345348
 20
129.0407148919023
 30
0.0
 11
486.5049502719316
 21
129.0407148919023
 31
0.0
  0
LINE
  5
FA9
330
B26
100
AcDbEntity
  8
SUNPOU
 62
     4
100
AcDbLine
 10
489.5049502719316
 20
112.0402850744902
 30
0.0
 11
489.5049502719316
 21
105.0402850744902
 31
0.0
  0
LINE
  5
FAA
330
B26
100
AcDbEntity
  8
SUNPOU
 62
     4
100
AcDbLine
 10
489.5049502719316
 20
136.0407148919023
 30
0.0
 11
489.5049502719316
 21
143.0407148919023
 31
0.0
  0
MTEXT
  5
FAB
330
B26
100
AcDbEntity
  8
SUNPOU
 62
     4
100
AcDbMText
 10
483.087312943207
 20
140.6455728468911
 30
0.0
 40
6.0
 41
0.0
 71
     5
 72
     1
  1
\A1;\U+203B10
 11
0.0000000000000001
 21
1.0
 31
0.0
  0
LINE
  5
FAC
330
B26
100
AcDbEntity
  8
SUNPOU
 62
     4
100
AcDbLine
 10
489.5049502719316
 20
119.0402850744902
 30
0.0
 11
489.5049502719316
 21
129.0407148919023
 31
0.0
  0
INSERT
  5
FAD
330
B26
100
AcDbEntity
  8
SUNPOU
 62
     4
100
AcDbBlockReference
  2
_OPEN
 10
489.5049502719316
 20
119.0402850744902
 30
0.0
 41
7.0
 42
7.0
 43
7.0
 50
90.0
  0
INSERT
  5
FAE
330
B26
100
AcDbEntity
  8
SUNPOU
 62
     4
100
AcDbBlockReference
  2
_OPEN
 10
489.5049502719316
 20
129.0407148919023
 30
0.0
 41
7.0
 42
7.0
 43
7.0
 50
270.0
  0
POINT
  5
FAF
330
B26
100
AcDbEntity
  8
DEFPOINTS
 62
     0
100
AcDbPoint
 10
521.3806895927616
 20
119.0402850744902
 30
0.0
  0
POINT
  5
FB0
330
B26
100
AcDbEntity
  8
DEFPOINTS
 62
     0
100
AcDbPoint
 10
519.8869684345347
 20
129.0407148919023
 30
0.0
  0
POINT
  5
FB1
330
B26
100
AcDbEntity
  8
DEFPOINTS
 62
     0
100
AcDbPoint
 10
489.5049502719316
 20
129.0407148919023
 30
0.0
  0
ENDBLK
  5
B33
330
B26
100
AcDbEntity
  8
0
100
AcDbBlockEnd
  0
BLOCK
  5
B63
330
B59
100
AcDbEntity
  8
0
100
AcDbBlockBegin
  2
*D8
 70
     1
 10
0.0
 20
0.0
 30
0.0
  3
*D8
  1

  0
LINE
  5
F30
330
B59
100
AcDbEntity
  8
SUNPOU
 62
     4
100
AcDbLine
 10
355.9837661387812
 20
358.1157338489273
 30
0.0
 11
355.9837661387812
 21
334.0667537565202
 31
0.0
  0
LINE
  5
F31
330
B59
100
AcDbEntity
  8
SUNPOU
 62
     4
100
AcDbLine
 10
285.9837661387812
 20
359.6157338489273
 30
0.0
 11
285.9837661387812
 21
334.0667537565202
 31
0.0
  0
LINE
  5
F32
330
B59
100
AcDbEntity
  8
SUNPOU
 62
     4
100
AcDbLine
 10
348.9837661387812
 20
337.0667537565202
 30
0.0
 11
292.9837661387812
 21
337.0667537565202
 31
0.0
  0
INSERT
  5
F33
330
B59
100
AcDbEntity
  8
SUNPOU
 62
     4
100
AcDbBlockReference
  2
_OPEN
 10
355.9837661387812
 20
337.0667537565202
 30
0.0
 41
7.0
 42
7.0
 43
7.0
  0
INSERT
  5
F34
330
B59
100
AcDbEntity
  8
SUNPOU
 62
     4
100
AcDbBlockReference
  2
_OPEN
 10
285.9837661387812
 20
337.0667537565202
 30
0.0
 41
7.0
 42
7.0
 43
7.0
 50
180.0
  0
MTEXT
  5
F35
330
B59
100
AcDbEntity
  8
SUNPOU
 62
     4
100
AcDbMText
 10
320.9837661387812
 20
342.0667537565202
 30
0.0
 40
6.0
 41
0.0
 71
     5
 72
     1
  1
\A1;\U+203B70
1001
ACAD
1000
MTEXTBEGIN
1070
    73
1070
     1
1070
    44
1040
1.0
1070
    74
1070
     0
1000
MTEXTEND
  0
POINT
  5
F36
330
B59
100
AcDbEntity
  8
DEFPOINTS
 62
     0
100
AcDbPoint
 10
355.9837661387812
 20
364.1157338489273
 30
0.0
  0
POINT
  5
F37
330
B59
100
AcDbEntity
  8
DEFPOINTS
 62
     0
100
AcDbPoint
 10
285.9837661387812
 20
365.6157338489273
 30
0.0
  0
POINT
  5
F38
330
B59
100
AcDbEntity
  8
DEFPOINTS
 62
     0
100
AcDbPoint
 10
285.9837661387812
 20
337.0667537565202
 30
0.0
  0
ENDBLK
  5
B64
330
B59
100
AcDbEntity
  8
0
100
AcDbBlockEnd
  0
BLOCK
  5
B70
330
B66
100
AcDbEntity
  8
0
100
AcDbBlockBegin
  2
*D9
 70
     1
 10
0.0
 20
0.0
 30
0.0
  3
*D9
  1

  0
LINE
  5
FB2
330
B66
100
AcDbEntity
  8
SUNPOU
 62
     4
100
AcDbLine
 10
285.9837661387812
 20
359.6157338489273
 30
0.0
 11
285.9837661387812
 21
334.0667537565202
 31
0.0
  0
LINE
  5
FB3
330
B66
100
AcDbEntity
  8
SUNPOU
 62
     4
100
AcDbLine
 10
205.9837661387812
 20
359.6157338489273
 30
0.0
 11
205.9837661387812
 21
334.0667537565202
 31
0.0
  0
LINE
  5
FB4
330
B66
100
AcDbEntity
  8
SUNPOU
 62
     4
100
AcDbLine
 10
278.9837661387812
 20
337.0667537565202
 30
0.0
 11
212.9837661387812
 21
337.0667537565202
 31
0.0
  0
INSERT
  5
FB5
330
B66
100
AcDbEntity
  8
SUNPOU
 62
     4
100
AcDbBlockReference
  2
_OPEN
 10
285.9837661387812
 20
337.0667537565202
 30
0.0
 41
7.0
 42
7.0
 43
7.0
  0
INSERT
  5
FB6
330
B66
100
AcDbEntity
  8
SUNPOU
 62
     4
100
AcDbBlockReference
  2
_OPEN
 10
205.9837661387812
 20
337.0667537565202
 30
0.0
 41
7.0
 42
7.0
 43
7.0
 50
180.0
  0
MTEXT
  5
FB7
330
B66
100
AcDbEntity
  8
SUNPOU
 62
     4
100
AcDbMText
 10
245.9837661387812
 20
342.0667537565202
 30
0.0
 40
6.0
 41
0.0
 71
     5
 72
     1
  1
\A1;80
  0
POINT
  5
FB8
330
B66
100
AcDbEntity
  8
DEFPOINTS
 62
     0
100
AcDbPoint
 10
285.9837661387812
 20
365.6157338489273
 30
0.0
  0
POINT
  5
FB9
330
B66
100
AcDbEntity
  8
DEFPOINTS
 62
     0
100
AcDbPoint
 10
205.9837661387812
 20
365.6157338489273
 30
0.0
  0
POINT
  5
FBA
330
B66
100
AcDbEntity
  8
DEFPOINTS
 62
     0
100
AcDbPoint
 10
205.9837661387812
 20
337.0667537565202
 30
0.0
  0
ENDBLK
  5
B71
330
B66
100
AcDbEntity
  8
0
100
AcDbBlockEnd
  0
BLOCK
  5
B7D
330
B73
100
AcDbEntity
  8
0
100
AcDbBlockBegin
  2
*D10
 70
     1
 10
0.0
 20
0.0
 30
0.0
  3
*D10
  1

  0
LINE
  5
FBB
330
B73
100
AcDbEntity
  8
SUNPOU
 62
     4
100
AcDbLine
 10
205.9837661387812
 20
359.6157338489273
 30
0.0
 11
205.9837661387812
 21
334.0667537565202
 31
0.0
  0
LINE
  5
FBC
330
B73
100
AcDbEntity
  8
SUNPOU
 62
     4
100
AcDbLine
 10
135.9837661387814
 20
358.1157338489273
 30
0.0
 11
135.9837661387814
 21
334.0667537565202
 31
0.0
  0
LINE
  5
FBD
330
B73
100
AcDbEntity
  8
SUNPOU
 62
     4
100
AcDbLine
 10
198.9837661387812
 20
337.0667537565202
 30
0.0
 11
142.9837661387814
 21
337.0667537565202
 31
0.0
  0
INSERT
  5
FBE
330
B73
100
AcDbEntity
  8
SUNPOU
 62
     4
100
AcDbBlockReference
  2
_OPEN
 10
205.9837661387812
 20
337.0667537565202
 30
0.0
 41
7.0
 42
7.0
 43
7.0
  0
INSERT
  5
FBF
330
B73
100
AcDbEntity
  8
SUNPOU
 62
     4
100
AcDbBlockReference
  2
_OPEN
 10
135.9837661387814
 20
337.0667537565202
 30
0.0
 41
7.0
 42
7.0
 43
7.0
 50
180.0
  0
MTEXT
  5
FC0
330
B73
100
AcDbEntity
  8
SUNPOU
 62
     4
100
AcDbMText
 10
170.9837661387813
 20
342.0667537565202
 30
0.0
 40
6.0
 41
0.0
 71
     5
 72
     1
  1
\A1;\U+203B70
  0
POINT
  5
FC1
330
B73
100
AcDbEntity
  8
DEFPOINTS
 62
     0
100
AcDbPoint
 10
205.9837661387812
 20
365.6157338489273
 30
0.0
  0
POINT
  5
FC2
330
B73
100
AcDbEntity
  8
DEFPOINTS
 62
     0
100
AcDbPoint
 10
135.9837661387814
 20
364.1157338489273
 30
0.0
  0
POINT
  5
FC3
330
B73
100
AcDbEntity
  8
DEFPOINTS
 62
     0
100
AcDbPoint
 10
135.9837661387814
 20
337.0667537565202
 30
0.0
  0
ENDBLK
  5
B7E
330
B73
100
AcDbEntity
  8
0
100
AcDbBlockEnd
  0
BLOCK
  5
BDB
330
BD1
100
AcDbEntity
  8
0
100
AcDbBlockBegin
  2
*D11
 70
     1
 10
0.0
 20
0.0
 30
0.0
  3
*D11
  1

  0
LINE
  5
F5F
330
BD1
100
AcDbEntity
  8
SUNPOU
 62
     4
100
AcDbLine
 10
487.0808895927616
 20
235.6404550744902
 30
0.0
 11
466.9334162383124
 21
235.6404550744902
 31
0.0
  0
LINE
  5
F60
330
BD1
100
AcDbEntity
  8
SUNPOU
 62
     4
100
AcDbLine
 10
538.3944104283711
 20
178.9405558710192
 30
0.0
 11
466.9334162383124
 21
178.9405558710192
 31
0.0
  0
LINE
  5
F61
330
BD1
100
AcDbEntity
  8
SUNPOU
 62
     4
100
AcDbLine
 10
469.9334162383125
 20
228.6404550744902
 30
0.0
 11
469.9334162383125
 21
185.9405558710192
 31
0.0
  0
INSERT
  5
F62
330
BD1
100
AcDbEntity
  8
SUNPOU
 62
     4
100
AcDbBlockReference
  2
_OPEN
 10
469.9334162383125
 20
235.6404550744902
 30
0.0
 41
7.0
 42
7.0
 43
7.0
 50
90.0
  0
INSERT
  5
F63
330
BD1
100
AcDbEntity
  8
SUNPOU
 62
     4
100
AcDbBlockReference
  2
_OPEN
 10
469.9334162383125
 20
178.9405558710192
 30
0.0
 41
7.0
 42
7.0
 43
7.0
 50
270.0
  0
MTEXT
  5
F64
330
BD1
100
AcDbEntity
  8
SUNPOU
 62
     4
100
AcDbMText
 10
464.9334162383124
 20
207.2905054727548
 30
0.0
 40
6.0
 41
0.0
 71
     5
 72
     1
  1
\A1;57
 11
0.0000000000000001
 21
1.0
 31
0.0
1001
ACAD
1000
MTEXTBEGIN
1070
    73
1070
     1
1070
    44
1040
1.0
1070
    74
1070
     0
1000
MTEXTEND
  0
POINT
  5
F65
330
BD1
100
AcDbEntity
  8
DEFPOINTS
 62
     0
100
AcDbPoint
 10
493.0808895927616
 20
235.6404550744902
 30
0.0
  0
POINT
  5
F66
330
BD1
100
AcDbEntity
  8
DEFPOINTS
 62
     0
100
AcDbPoint
 10
544.3944104283712
 20
178.9405558710192
 30
0.0
  0
POINT
  5
F67
330
BD1
100
AcDbEntity
  8
DEFPOINTS
 62
     0
100
AcDbPoint
 10
469.9334162383125
 20
178.9405558710192
 30
0.0
  0
ENDBLK
  5
BDC
330
BD1
100
AcDbEntity
  8
0
100
AcDbBlockEnd
  0
BLOCK
  5
C9C
330
C92
100
AcDbEntity
  8
0
100
AcDbBlockBegin
  2
*D12
 70
     1
 10
0.0
 20
0.0
 30
0.0
  3
*D12
  1

  0
LINE
  5
F1E
330
C92
100
AcDbEntity
  8
SUNPOU
 62
     4
100
AcDbLine
 10
135.9837661387814
 20
358.1157338489273
 30
0.0
 11
135.9837661387814
 21
319.3410932186882
 31
0.0
  0
LINE
  5
F1F
330
C92
100
AcDbEntity
  8
SUNPOU
 62
     4
100
AcDbLine
 10
355.9837661387812
 20
358.1157338489273
 30
0.0
 11
355.9837661387812
 21
319.3410932186882
 31
0.0
  0
LINE
  5
F20
330
C92
100
AcDbEntity
  8
SUNPOU
 62
     4
100
AcDbLine
 10
142.9837661387814
 20
322.3410932186882
 30
0.0
 11
348.9837661387812
 21
322.3410932186882
 31
0.0
  0
INSERT
  5
F21
330
C92
100
AcDbEntity
  8
SUNPOU
 62
     4
100
AcDbBlockReference
  2
_OPEN
 10
135.9837661387814
 20
322.3410932186882
 30
0.0
 41
7.0
 42
7.0
 43
7.0
 50
180.0
  0
INSERT
  5
F22
330
C92
100
AcDbEntity
  8
SUNPOU
 62
     4
100
AcDbBlockReference
  2
_OPEN
 10
355.9837661387812
 20
322.3410932186882
 30
0.0
 41
7.0
 42
7.0
 43
7.0
  0
MTEXT
  5
F23
330
C92
100
AcDbEntity
  8
SUNPOU
 62
     4
100
AcDbMText
 10
245.9837661387813
 20
327.3410932186882
 30
0.0
 40
6.0
 41
0.0
 71
     5
 72
     1
  1
\A1;220
1001
ACAD
1000
MTEXTBEGIN
1070
    73
1070
     1
1070
    44
1040
1.0
1070
    74
1070
     0
1000
MTEXTEND
  0
POINT
  5
F24
330
C92
100
AcDbEntity
  8
DEFPOINTS
 62
     0
100
AcDbPoint
 10
135.9837661387814
 20
364.1157338489273
 30
0.0
  0
POINT
  5
F25
330
C92
100
AcDbEntity
  8
DEFPOINTS
 62
     0
100
AcDbPoint
 10
355.9837661387812
 20
364.1157338489273
 30
0.0
  0
POINT
  5
F26
330
C92
100
AcDbEntity
  8
DEFPOINTS
 62
     0
100
AcDbPoint
 10
355.9837661387812
 20
322.3410932186882
 30
0.0
  0
ENDBLK
  5
C9D
330
C92
100
AcDbEntity
  8
0
100
AcDbBlockEnd
  0
ENDSEC
  0
SECTION
  2
ENTITIES
  0
LINE
  5
629
330
1A
100
AcDbEntity
  8
SEIHIN
100
AcDbLine
 10
585.5808895927616
 20
113.0404550744902
 30
0.0
 11
527.1808895927615
 21
113.0404550744902
 31
0.0
  0
LINE
  5
62B
330
1A
100
AcDbEntity
  8
SEIHIN
100
AcDbLine
 10
589.2239262146618
 20
178.9404550744902
 30
0.0
 11
544.2892037891615
 21
178.9404550744902
 31
0.0
  0
LINE
  5
62C
330
1A
100
AcDbEntity
  8
SEIHIN
100
AcDbLine
 10
589.7593712818616
 20
177.4404550744902
 30
0.0
 11
544.2892021087616
 21
177.4404550744902
 31
0.0
  0
LINE
  5
62D
330
1A
100
AcDbEntity
  8
SEIHIN
100
AcDbLine
 10
517.1546769715616
 20
156.7404550744902
 30
0.0
 11
595.5765935300616
 21
156.7404550744902
 31
0.0
  0
LINE
  5
62E
330
1A
100
AcDbEntity
  8
SEIHIN
100
AcDbLine
 10
585.5808895927616
 20
113.0404550744902
 30
0.0
 11
527.1808895927615
 21
113.0404550744902
 31
0.0
  0
LINE
  5
62F
330
1A
100
AcDbEntity
  8
SEIHIN
100
AcDbLine
 10
590.0092456466616
 20
176.7404550744902
 30
0.0
 11
544.2892036709618
 21
176.7404550744902
 31
0.0
  0
LINE
  5
631
330
1A
100
AcDbEntity
  8
SEIHIN
100
AcDbLine
 10
183.0884524948812
 20
156.7404550744902
 30
0.0
 11
308.8790797825813
 21
156.7404550744902
 31
0.0
  0
LINE
  5
632
330
1A
100
AcDbEntity
  8
SEIHIN
100
AcDbLine
 10
155.9837661387812
 20
235.6404550744902
 30
0.0
 11
335.9837661387812
 21
235.6404550744902
 31
0.0
  0
LINE
  5
633
330
1A
100
AcDbEntity
  8
SEIHIN
100
AcDbLine
 10
335.9837661387812
 20
214.7404550744902
 30
0.0
 11
155.9837661387812
 21
214.7404550744902
 31
0.0
  0
LINE
  5
634
330
1A
100
AcDbEntity
  8
SEIHIN
100
AcDbLine
 10
155.9837661387814
 20
214.7404550744902
 30
0.0
 11
335.9837661387812
 21
214.7404550744902
 31
0.0
  0
LINE
  5
635
330
1A
100
AcDbEntity
  8
SEIHIN
100
AcDbLine
 10
335.9837661387812
 20
235.6404550744902
 30
0.0
 11
155.9837661387814
 21
235.6404550744902
 31
0.0
  0
LINE
  5
636
330
1A
100
AcDbEntity
  8
SEIHIN
100
AcDbLine
 10
308.8790797826813
 20
156.7404550744902
 30
0.0
 11
183.0884524949813
 21
156.7404550744902
 31
0.0
  0
LINE
  5
637
330
1A
100
AcDbEntity
  8
SEIHIN
100
AcDbLine
 10
135.9837661387814
 20
177.4404550744902
 30
0.0
 11
135.9837661387814
 21
236.4404550744902
 31
0.0
  0
ARC
  5
638
330
1A
100
AcDbEntity
  8
SEIHIN
100
AcDbCircle
 10
321.8816891614812
 20
251.8602494807903
 30
0.0
 40
170.0
100
AcDbArc
 50
192.6122407013003
 51
212.9163061578989
  0
LINE
  5
639
330
1A
100
AcDbEntity
  8
SEIHIN
100
AcDbLine
 10
155.9837661387814
 20
179.7404550744902
 30
0.0
 11
155.9837661387814
 21
212.7404550744902
 31
0.0
  0
LINE
  5
63A
330
1A
100
AcDbEntity
  8
SEIHIN
100
AcDbLine
 10
157.0184284992812
 20
175.9127251861902
 30
0.0
 11
179.3402822096813
 21
158.0552422177903
 31
0.0
  0
LINE
  5
63B
330
1A
100
AcDbEntity
  8
SEIHIN
100
AcDbLine
 10
135.9837661387814
 20
177.4404550744902
 30
0.0
 11
154.6595626376813
 21
176.7868021969902
 31
0.0
  0
LINE
  5
63C
330
1A
100
AcDbEntity
  8
SEIHIN
100
AcDbLine
 10
153.9974608871812
 20
176.8099757582902
 30
0.0
 11
135.9837661387814
 21
177.4404550744902
 31
0.0
  0
ARC
  5
63D
330
1A
100
AcDbEntity
  8
SEIHIN
100
AcDbCircle
 10
154.5196483089812
 20
172.7892499483902
 30
0.0
 40
4.0
100
AcDbArc
 50
51.34019174590279
 51
87.99546596789207
  0
ARC
  5
63E
330
1A
100
AcDbEntity
  8
SEIHIN
100
AcDbCircle
 10
184.2093889519812
 20
162.7404550744902
 30
0.0
 40
6.0
100
AcDbArc
 50
212.9163061578989
 51
270.0
  0
ARC
  5
63F
330
1A
100
AcDbEntity
  8
SEIHIN
100
AcDbCircle
 10
183.0884524949813
 20
162.7404550744902
 30
0.0
 40
6.0
100
AcDbArc
 50
231.3401917459028
 51
270.0
  0
LINE
  5
640
330
1A
100
AcDbEntity
  8
SEIHIN
100
AcDbLine
 10
135.9837661387814
 20
215.4404550744903
 30
0.0
 11
155.9837661387814
 21
214.7404550744902
 31
0.0
  0
LINE
  5
641
330
1A
100
AcDbEntity
  8
SEIHIN
100
AcDbLine
 10
135.9837661387814
 20
235.6404550744902
 30
0.0
 11
155.9837661387814
 21
235.6404550744902
 31
0.0
  0
LINE
  5
642
330
1A
100
AcDbEntity
  8
SEIHIN
100
AcDbLine
 10
155.9837661387814
 20
236.4404550744902
 30
0.0
 11
135.9837661387814
 21
236.4404550744902
 31
0.0
  0
LINE
  5
643
330
1A
100
AcDbEntity
  8
SEIHIN
100
AcDbLine
 10
155.9837661387814
 20
235.6404550744902
 30
0.0
 11
155.9837661387814
 21
236.4404550744902
 31
0.0
  0
LINE
  5
646
330
1A
100
AcDbEntity
  8
SEIHIN
100
AcDbLine
 10
282.7896661387812
 20
133.0548650744902
 30
0.0
 11
284.1341661387811
 21
156.4402650744902
 31
0.0
  0
LINE
  5
647
330
1A
100
AcDbEntity
  8
CENTER_L
 48
10.0
100
AcDbLine
 10
245.9837661387811
 20
106.0404550744902
 30
0.0
 11
245.9837661387812
 21
242.6404550744901
 31
0.0
  0
LINE
  5
648
330
1A
100
AcDbEntity
  8
CENTER_L
 48
10.0
100
AcDbLine
 10
556.3808895927616
 20
106.0404550744902
 30
0.0
 11
556.3808895927616
 21
205.4961856377346
 31
0.0
  0
LINE
  5
649
330
1A
100
AcDbEntity
  8
SEIHIN
100
AcDbLine
 10
209.1778661387811
 20
133.0548650744902
 30
0.0
 11
207.8333661387812
 21
156.4402650744902
 31
0.0
  0
LINE
  5
64A
330
1A
100
AcDbEntity
  8
SEIHIN
100
AcDbLine
 10
282.7895661387813
 20
133.0548650744902
 30
0.0
 11
284.1340661387812
 21
156.4402650744902
 31
0.0
  0
LINE
  5
64B
330
1A
100
AcDbEntity
  8
SEIHIN
100
AcDbLine
 10
519.5749895927617
 20
133.0548650744902
 30
0.0
 11
518.2304895927618
 21
156.4402650744902
 31
0.0
  0
LINE
  5
64E
330
1A
100
AcDbEntity
  8
SEIHIN
100
AcDbLine
 10
216.7837661387811
 20
113.0404550744902
 30
0.0
 11
275.1837661387812
 21
113.0404550744902
 31
0.0
  0
LINE
  5
64F
330
1A
100
AcDbEntity
  8
SEIHIN
100
AcDbLine
 10
275.1840661387812
 20
113.0403050744902
 30
0.0
 11
245.9840661387811
 21
113.0404250744902
 31
0.0
  0
LINE
  5
650
330
1A
100
AcDbEntity
  8
SEIHIN
100
AcDbLine
 10
245.9840661387811
 20
119.0404750744902
 30
0.0
 11
280.9839661387814
 21
119.0402850744902
 31
0.0
  0
LINE
  5
651
330
1A
100
AcDbEntity
  8
SEIHIN
100
AcDbLine
 10
275.1838661387812
 20
113.0403050744902
 30
0.0
 11
245.9837661387812
 21
113.0404550744902
 31
0.0
  0
LINE
  5
652
330
1A
100
AcDbEntity
  8
SEIHIN
100
AcDbLine
 10
245.9837661387812
 20
119.0404750744902
 30
0.0
 11
280.9837661387812
 21
119.0402450744902
 31
0.0
  0
LINE
  5
653
330
1A
100
AcDbEntity
  8
SEIHIN
100
AcDbLine
 10
275.1837661387812
 20
113.0404550744902
 30
0.0
 11
216.7837661387811
 21
113.0404550744902
 31
0.0
  0
LINE
  5
654
330
1A
100
AcDbEntity
  8
SEIHIN
100
AcDbLine
 10
245.9834661387812
 20
119.0404750744902
 30
0.0
 11
210.9835661387812
 21
119.0402850744902
 31
0.0
  0
LINE
  5
655
330
1A
100
AcDbEntity
  8
SEIHIN
100
AcDbLine
 10
216.7834661387812
 20
113.0403050744902
 30
0.0
 11
245.9834661387812
 21
113.0404250744902
 31
0.0
  0
ARC
  5
656
330
1A
100
AcDbEntity
  8
SEIHIN
100
AcDbCircle
 10
309.0129690974813
 20
138.7945421114902
 30
0.0
 40
99.9999468971
100
AcDbArc
 50
183.2902880011002
 51
191.3932220468007
  0
LINE
  5
657
330
1A
100
AcDbEntity
  8
SEIHIN
100
AcDbLine
 10
216.7836661387814
 20
113.0403050744902
 30
0.0
 11
216.7837661387811
 21
119.0405450744902
 31
0.0
  0
ARC
  5
658
330
1A
100
AcDbEntity
  8
SEIHIN
100
AcDbCircle
 10
182.9545631800811
 20
138.7945421114902
 30
0.0
 40
99.9999468971
100
AcDbArc
 50
348.6067779531992
 51
356.7097119988997
  0
ARC
  5
659
330
1A
100
AcDbEntity
  8
SEIHIN
100
AcDbCircle
 10
182.9544117027812
 20
138.7950187014902
 30
0.0
 40
100.0000428647999
100
AcDbArc
 50
348.6063643594985
 51
356.7092694720999
  0
LINE
  5
65A
330
1A
100
AcDbEntity
  8
SEIHIN
100
AcDbLine
 10
275.1838661387812
 20
113.0403050744902
 30
0.0
 11
275.1837661387812
 21
119.0405450744902
 31
0.0
  0
LINE
  5
65B
330
1A
100
AcDbEntity
  8
SEIHIN
100
AcDbLine
 10
275.1836661387812
 20
113.0403050744902
 30
0.0
 11
275.1836661387812
 21
119.0405450744902
 31
0.0
  0
LINE
  5
65C
330
1A
100
AcDbEntity
  8
SEIHIN
100
AcDbLine
 10
591.3809903518645
 20
119.0406650772086
 30
0.0
 11
521.3806895927616
 21
119.0402850744902
 31
0.0
  0
ARC
  5
65D
330
1A
100
AcDbEntity
  8
SEIHIN
100
AcDbCircle
 10
619.4100925514617
 20
138.7945421114902
 30
0.0
 40
99.9999468971
100
AcDbArc
 50
183.2902880011002
 51
191.3932220468007
  0
LINE
  5
65E
330
1A
100
AcDbEntity
  8
SEIHIN
100
AcDbLine
 10
527.1807895927618
 20
113.0403050744902
 30
0.0
 11
527.1808895927615
 21
119.0405450744902
 31
0.0
  0
LINE
  5
660
330
1A
100
AcDbEntity
  8
SEIHIN
100
AcDbLine
 10
335.9837661387812
 20
236.4404550744902
 30
0.0
 11
355.9837661387812
 21
236.4404550744902
 31
0.0
  0
LINE
  5
661
330
1A
100
AcDbEntity
  8
SEIHIN
100
AcDbLine
 10
355.9837661387812
 20
235.6404550744902
 30
0.0
 11
335.9837661387812
 21
235.6404550744902
 31
0.0
  0
LINE
  5
662
330
1A
100
AcDbEntity
  8
SEIHIN
100
AcDbLine
 10
355.9837661387812
 20
215.4404550744903
 30
0.0
 11
335.9837661387812
 21
214.7404550744902
 31
0.0
  0
LINE
  5
663
330
1A
100
AcDbEntity
  8
SEIHIN
100
AcDbLine
 10
337.9700713903812
 20
176.8099757582902
 30
0.0
 11
355.9837661387812
 21
177.4404550744902
 31
0.0
  0
LINE
  5
664
330
1A
100
AcDbEntity
  8
SEIHIN
100
AcDbLine
 10
355.9837661387812
 20
177.4404550744902
 30
0.0
 11
337.3079696398813
 21
176.7868021969902
 31
0.0
  0
LINE
  5
665
330
1A
100
AcDbEntity
  8
SEIHIN
100
AcDbLine
 10
355.9837661387812
 20
236.4404550744902
 30
0.0
 11
335.9837661387812
 21
236.4404550744902
 31
0.0
  0
LINE
  5
666
330
1A
100
AcDbEntity
  8
SEIHIN
100
AcDbLine
 10
335.9837661387812
 20
235.6404550744902
 30
0.0
 11
355.9837661387812
 21
235.6404550744902
 31
0.0
  0
LINE
  5
667
330
1A
100
AcDbEntity
  8
SEIHIN
100
AcDbLine
 10
335.9837661387812
 20
214.7404550744902
 30
0.0
 11
355.9837661387812
 21
215.4404550744903
 31
0.0
  0
LINE
  5
668
330
1A
100
AcDbEntity
  8
SEIHIN
100
AcDbLine
 10
337.3079696398813
 20
176.7868021969902
 30
0.0
 11
355.9837661387812
 21
177.4404550744902
 31
0.0
  0
LINE
  5
669
330
1A
100
AcDbEntity
  8
SEIHIN
100
AcDbLine
 10
335.9837661387812
 20
179.7404550744902
 30
0.0
 11
335.9837661387812
 21
212.7404550744902
 31
0.0
  0
ARC
  5
66A
330
1A
100
AcDbEntity
  8
SEIHIN
100
AcDbCircle
 10
170.0858431160813
 20
251.8602494807903
 30
0.0
 40
170.0
100
AcDbArc
 50
327.083693842101
 51
347.3877592986996
  0
LINE
  5
66B
330
1A
100
AcDbEntity
  8
SEIHIN
100
AcDbLine
 10
334.9491037782813
 20
175.9127251861902
 30
0.0
 11
312.6272500678812
 21
158.0552422177903
 31
0.0
  0
LINE
  5
66C
330
1A
100
AcDbEntity
  8
SEIHIN
100
AcDbLine
 10
334.9491037783814
 20
175.9127251861902
 30
0.0
 11
312.6272500679813
 21
158.0552422177903
 31
0.0
  0
ARC
  5
66D
330
1A
100
AcDbEntity
  8
SEIHIN
100
AcDbCircle
 10
308.8790797825813
 20
162.7404550744902
 30
0.0
 40
6.0
100
AcDbArc
 50
270.0
 51
308.6598082540971
  0
ARC
  5
66E
330
1A
100
AcDbEntity
  8
SEIHIN
100
AcDbCircle
 10
307.7581433255813
 20
162.7404550744902
 30
0.0
 40
6.0
100
AcDbArc
 50
270.0
 51
327.083693842101
  0
ARC
  5
66F
330
1A
100
AcDbEntity
  8
SEIHIN
100
AcDbCircle
 10
308.8790797826813
 20
162.7404550744902
 30
0.0
 40
6.0
100
AcDbArc
 50
270.0
 51
308.6598082540971
  0
ARC
  5
670
330
1A
100
AcDbEntity
  8
SEIHIN
100
AcDbCircle
 10
337.4478839685812
 20
172.7892499483902
 30
0.0
 40
4.0
100
AcDbArc
 50
92.00453403209492
 51
128.6598082540972
  0
ARC
  5
671
330
1A
100
AcDbEntity
  8
SEIHIN
100
AcDbCircle
 10
337.4478839685812
 20
172.7892499483902
 30
0.0
 40
4.0
100
AcDbArc
 50
92.00453403209492
 51
128.6598082540972
  0
LINE
  5
672
330
1A
100
AcDbEntity
  8
SEIHIN
100
AcDbLine
 10
335.9837661387812
 20
235.6404550744902
 30
0.0
 11
335.9837661387812
 21
236.4404550744902
 31
0.0
  0
LINE
  5
673
330
1A
100
AcDbEntity
  8
SEIHIN
100
AcDbLine
 10
335.9837661387812
 20
235.6404550744902
 30
0.0
 11
335.9837661387812
 21
236.4404550744902
 31
0.0
  0
LINE
  5
674
330
1A
100
AcDbEntity
  8
SEIHIN
100
AcDbLine
 10
355.9837661387812
 20
177.4404550744902
 30
0.0
 11
355.9837661387812
 21
236.4404550744902
 31
0.0
  0
LINE
  5
675
330
1A
100
AcDbEntity
  8
SEIHIN
100
AcDbLine
 10
498.0375030314617
 20
233.4404550744902
 30
0.0
 11
501.8126353498616
 21
215.2515661855902
 31
0.0
  0
LINE
  5
676
330
1A
100
AcDbEntity
  8
SEIHIN
100
AcDbLine
 10
492.5808895927616
 20
218.4404550744902
 30
0.0
 11
492.5808895927616
 21
232.4404550744902
 31
0.0
  0
LINE
  5
677
330
1A
100
AcDbEntity
  8
SEIHIN
100
AcDbLine
 10
491.0808895927616
 20
216.9404550744902
 30
0.0
 11
491.0808895927616
 21
233.6404550744902
 31
0.0
  0
LINE
  5
678
330
1A
100
AcDbEntity
  8
SEIHIN
100
AcDbLine
 10
490.3808895927618
 20
216.2404550744903
 30
0.0
 11
490.3808895927618
 21
233.6404550744902
 31
0.0
  0
LINE
  5
679
330
1A
100
AcDbEntity
  8
SEIHIN
100
AcDbLine
 10
355.9837661387812
 20
177.4404550744902
 30
0.0
 11
355.9837661387812
 21
236.4404550744902
 31
0.0
  0
LINE
  5
67A
330
1A
100
AcDbEntity
  8
CENTER_L
 48
10.0
100
AcDbLine
 10
552.5808895927617
 20
197.2620109830386
 30
0.0
 11
552.5808895927617
 21
168.9404550744902
 31
0.0
  0
ARC
  5
67B
330
1A
100
AcDbEntity
  8
SEIHIN
100
AcDbCircle
 10
544.2892026009617
 20
221.9404550744902
 30
0.0
 40
43.0
100
AcDbArc
 50
188.9490180653
 51
270.0000015831993
  0
LINE
  5
67C
330
1A
100
AcDbEntity
  8
SEIHIN
100
AcDbLine
 10
512.0089710820616
 20
198.9404551210902
 30
0.0
 11
507.9573983222616
 21
198.9404551210902
 31
0.0
  0
ARC
  5
67D
330
1A
100
AcDbEntity
  8
SEIHIN
100
AcDbCircle
 10
544.2892026009617
 20
221.9404550744902
 30
0.0
 40
45.2
100
AcDbArc
 50
190.2235455230017
 51
270.0000013564026
  0
ARC
  5
67E
330
1A
100
AcDbEntity
  8
SEIHIN
100
AcDbCircle
 10
552.6663357868617
 20
191.0347593429902
 30
0.0
 40
50.0
100
AcDbArc
 50
189.6823296983985
 51
222.2833852616046
  0
ARC
  5
67F
330
1A
100
AcDbEntity
  8
SEIHIN
100
AcDbCircle
 10
544.2892026009617
 20
221.9404550744902
 30
0.0
 40
44.5
100
AcDbArc
 50
189.4876589957009
 51
269.9999993663008
  0
ARC
  5
680
330
1A
100
AcDbEntity
  8
SEIHIN
100
AcDbCircle
 10
799.1051809938617
 20
233.0811096371902
 30
0.0
 40
300.0
100
AcDbArc
 50
183.6039623003999
 51
189.6823309306998
  0
ARC
  5
681
330
1A
100
AcDbEntity
  8
SEIHIN
100
AcDbCircle
 10
491.8808895927618
 20
216.2404550744903
 30
0.0
 40
1.5
100
AcDbArc
 50
180.0
 51
270.0
  0
ARC
  5
682
330
1A
100
AcDbEntity
  8
SEIHIN
100
AcDbCircle
 10
492.5808895927616
 20
216.9404550744902
 30
0.0
 40
1.5
100
AcDbArc
 50
180.0
 51
270.0
  0
ARC
  5
683
330
1A
100
AcDbEntity
  8
SEIHIN
100
AcDbCircle
 10
499.8369810591616
 20
214.9404550744902
 30
0.0
 40
2.0
100
AcDbArc
 50
8.949018065300082
 51
90.0
  0
ARC
  5
684
330
1A
100
AcDbEntity
  8
SEIHIN
100
AcDbCircle
 10
499.4115912562618
 20
214.4404550744902
 30
0.0
 40
1.0
100
AcDbArc
 50
9.487658995701007
 51
90.0
  0
LINE
  5
685
330
1A
100
AcDbEntity
  8
SEIHIN
100
AcDbLine
 10
499.4115912562618
 20
215.4404550744903
 30
0.0
 11
492.5808895927616
 21
215.4404550744903
 31
0.0
  0
LINE
  5
686
330
1A
100
AcDbEntity
  8
SEIHIN
100
AcDbLine
 10
498.8227314380617
 20
214.7404550744902
 30
0.0
 11
491.8808895927618
 21
214.7404550744902
 31
0.0
  0
LINE
  5
687
330
1A
100
AcDbEntity
  8
SEIHIN
100
AcDbLine
 10
499.8369810591616
 20
216.9404550744902
 30
0.0
 11
494.0808895927616
 21
216.9404550744902
 31
0.0
  0
ARC
  5
688
330
1A
100
AcDbEntity
  8
SEIHIN
100
AcDbCircle
 10
494.0808895927616
 20
218.4404550744902
 30
0.0
 40
1.5
100
AcDbArc
 50
180.0
 51
270.0
  0
ARC
  5
689
330
1A
100
AcDbEntity
  8
SEIHIN
100
AcDbCircle
 10
498.8227314380617
 20
213.7404550744903
 30
0.0
 40
1.0
100
AcDbArc
 50
10.2235455230017
 51
90.0
  0
ARC
  5
68A
330
1A
100
AcDbEntity
  8
SEIHIN
100
AcDbCircle
 10
517.1546769715616
 20
158.7404550744902
 30
0.0
 40
2.0
100
AcDbArc
 50
222.2833852616046
 51
270.0
  0
ARC
  5
68B
330
1A
100
AcDbEntity
  8
SEIHIN
100
AcDbCircle
 10
799.1051809938617
 20
233.0811096371902
 30
0.0
 40
287.8
100
AcDbArc
 50
187.0765992883005
 51
188.4009770687999
  0
ARC
  5
68C
330
1A
100
AcDbEntity
  8
SEIHIN
100
AcDbCircle
 10
512.0089710820616
 20
197.4404551210902
 30
0.0
 40
1.5
100
AcDbArc
 50
7.076599288300517
 51
90.0
  0
ARC
  5
68E
330
1A
100
AcDbEntity
  8
SEIHIN
100
AcDbCircle
 10
493.0808895927616
 20
233.6404550744902
 30
0.0
 40
2.0
100
AcDbArc
 50
90.0
 51
180.0
  0
ARC
  5
68F
330
1A
100
AcDbEntity
  8
SEIHIN
100
AcDbCircle
 10
492.3808895927618
 20
233.6404550744902
 30
0.0
 40
2.0
100
AcDbArc
 50
90.0
 51
180.0
  0
ARC
  5
690
330
1A
100
AcDbEntity
  8
SEIHIN
100
AcDbCircle
 10
497.6793274740616
 20
236.6420171931902
 30
0.0
 40
5.0
100
AcDbArc
 50
289.8959097497992
 51
340.1040902501982
  0
ARC
  5
691
330
1A
100
AcDbEntity
  8
SEIHIN
100
AcDbCircle
 10
499.2789429109616
 20
237.6378551029902
 30
0.0
 40
2.0
100
AcDbArc
 50
267.0781764766989
 51
323.2231503484015
  0
LINE
  5
692
330
1A
100
AcDbEntity
  8
SEIHIN
100
AcDbLine
 10
494.5808895927616
 20
233.4404550744902
 30
0.0
 11
498.8808895927618
 21
233.4404550744902
 31
0.0
  0
LINE
  5
693
330
1A
100
AcDbEntity
  8
SEIHIN
100
AcDbLine
 10
494.5808895927616
 20
234.4404550744902
 30
0.0
 11
499.3808895927618
 21
234.4404550744902
 31
0.0
  0
ARC
  5
694
330
1A
100
AcDbEntity
  8
SEIHIN
100
AcDbCircle
 10
494.5808895927616
 20
231.4404550744902
 30
0.0
 40
2.0
100
AcDbArc
 50
90.0
 51
180.0
  0
LINE
  5
695
330
1A
100
AcDbEntity
  8
SEIHIN
100
AcDbLine
 10
499.3808895927618
 20
232.9404550744902
 30
0.0
 11
499.3808895927618
 21
231.9404550744902
 31
0.0
  0
LINE
  5
696
330
1A
100
AcDbEntity
  8
SEIHIN
100
AcDbLine
 10
499.3808895927618
 20
234.4404550744902
 30
0.0
 11
499.3808895927618
 21
232.9404550744902
 31
0.0
  0
ARC
  5
697
330
1A
100
AcDbEntity
  8
SEIHIN
100
AcDbCircle
 10
498.8808895927618
 20
232.9404550744902
 30
0.0
 40
0.5
100
AcDbArc
 50
0.0
 51
90.0
  0
ARC
  5
698
330
1A
100
AcDbEntity
  8
SEIHIN
100
AcDbCircle
 10
494.5808895927616
 20
232.4404550744902
 30
0.0
 40
2.0
100
AcDbArc
 50
90.0
 51
180.0
  0
LINE
  5
699
330
1A
100
AcDbEntity
  8
SEIHIN
100
AcDbLine
 10
492.3808895927618
 20
235.6404550744902
 30
0.0
 11
499.1769962290616
 21
235.6404550744902
 31
0.0
  0
ARC
  5
69A
330
1A
100
AcDbEntity
  8
SEIHIN
100
AcDbCircle
 10
500.8808895927618
 20
234.9404550744902
 30
0.0
 40
1.5
100
AcDbArc
 50
0.0
 51
90.0
  0
LINE
  5
69B
330
1A
100
AcDbEntity
  8
SEIHIN
100
AcDbLine
 10
155.9837661387812
 20
487.7154306332273
 30
0.0
 11
335.9837661387812
 21
487.7154306332273
 31
0.0
  0
LINE
  5
69C
330
1A
100
AcDbEntity
  8
SEIHIN
100
AcDbLine
 10
155.9837661387812
 20
363.4157338489273
 30
0.0
 11
335.9837661387812
 21
363.4157338489273
 31
0.0
  0
LINE
  5
69E
330
1A
100
AcDbEntity
  8
SEIHIN
100
AcDbLine
 10
230.4837661387812
 20
365.6157338489273
 30
0.0
 11
157.9837661387814
 21
365.6157338489273
 31
0.0
  0
LINE
  5
69F
330
1A
100
AcDbEntity
  8
CENTER_L
 48
10.0
100
AcDbLine
 10
362.9837661387812
 20
425.6157338489273
 30
0.0
 11
128.9837661387814
 21
425.6157338489273
 31
0.0
  0
LINE
  5
6A0
330
1A
100
AcDbEntity
  8
SEIHIN
100
AcDbLine
 10
335.9837661387812
 20
363.4157338489273
 30
0.0
 11
155.9837661387814
 21
363.4157338489273
 31
0.0
  0
LINE
  5
6A1
330
1A
100
AcDbEntity
  8
SEIHIN
100
AcDbLine
 10
335.9837661387812
 20
487.7154306332273
 30
0.0
 11
155.9837661387814
 21
487.7154306332273
 31
0.0
  0
LINE
  5
6A2
330
1A
100
AcDbEntity
  8
SEIHIN
100
AcDbLine
 10
245.9837661387812
 20
476.5154306332274
 30
0.0
 11
155.9837661387814
 21
476.5154306332274
 31
0.0
  0
LINE
  5
6A3
330
1A
100
AcDbEntity
  8
SEIHIN
100
AcDbLine
 10
245.9837661387812
 20
374.7160370646273
 30
0.0
 11
155.9837661387814
 21
374.7160370646273
 31
0.0
  0
LINE
  5
6A4
330
1A
100
AcDbEntity
  8
SEIHIN
100
AcDbLine
 10
230.4837661387812
 20
485.5154306332273
 30
0.0
 11
157.9837661387814
 21
485.5154306332273
 31
0.0
  0
LINE
  5
6A5
330
1A
100
AcDbEntity
  8
SEIHIN
100
AcDbLine
 10
244.9837661387812
 20
468.4310081798273
 30
0.0
 11
184.1578479335812
 21
468.4310081798273
 31
0.0
  0
LINE
  5
6A6
330
1A
100
AcDbEntity
  8
SEIHIN
100
AcDbLine
 10
244.9837661387812
 20
390.2780854079273
 30
0.0
 11
184.1578479335812
 21
390.2780854079273
 31
0.0
  0
LINE
  5
6A7
330
1A
100
AcDbEntity
  8
SEIHIN
100
AcDbLine
 10
135.9837661387814
 20
364.1157338489273
 30
0.0
 11
135.9837661387814
 21
487.0154306332273
 31
0.0
  0
LINE
  5
6A8
330
1A
100
AcDbEntity
  8
SEIHIN
100
AcDbLine
 10
160.0137661387812
 20
374.7160370646273
 30
0.0
 11
160.0137661387812
 21
476.5154306332274
 31
0.0
  0
LINE
  5
6A9
330
1A
100
AcDbEntity
  8
SEIHIN
100
AcDbLine
 10
182.1578479335812
 20
392.2780854079273
 30
0.0
 11
182.1578479335812
 21
466.4310081798273
 31
0.0
  0
ARC
  5
6AA
330
1A
100
AcDbEntity
  8
SEIHIN
100
AcDbCircle
 10
122.8359942189813
 20
451.1543342400273
 30
0.0
 40
85.0
100
AcDbArc
 50
295.9371876792038
 51
311.4992346502972
  0
LINE
  5
6AB
330
1A
100
AcDbEntity
  8
SEIHIN
100
AcDbLine
 10
155.9837661387814
 20
375.4157338489273
 30
0.0
 11
155.9837661387814
 21
367.6157338489273
 31
0.0
  0
LINE
  5
6AC
330
1A
100
AcDbEntity
  8
SEIHIN
100
AcDbLine
 10
135.9837661387814
 20
364.1157338489273
 30
0.0
 11
155.9837661387814
 21
363.4157338489273
 31
0.0
  0
ARC
  5
6AD
330
1A
100
AcDbEntity
  8
SEIHIN
100
AcDbCircle
 10
157.9837661387814
 20
367.6157338489273
 30
0.0
 40
2.0
100
AcDbArc
 50
180.0
 51
270.0
  0
LINE
  5
6AE
330
1A
100
AcDbEntity
  8
SEIHIN
100
AcDbLine
 10
155.9837661387814
 20
374.0160370646273
 30
0.0
 11
135.9837661387814
 21
374.0160370646273
 31
0.0
  0
LINE
  5
6AF
330
1A
100
AcDbEntity
  8
SEIHIN
100
AcDbLine
 10
154.4837661387814
 20
372.3154803114273
 30
0.0
 11
137.4837661387814
 21
372.3154803114273
 31
0.0
  0
LINE
  5
6B0
330
1A
100
AcDbEntity
  8
SEIHIN
100
AcDbLine
 10
155.9837661387814
 20
375.4157338489273
 30
0.0
 11
135.9837661387814
 21
375.4157338489273
 31
0.0
  0
ARC
  5
6B1
330
1A
100
AcDbEntity
  8
SEIHIN
100
AcDbCircle
 10
184.1578479335812
 20
392.2780854079273
 30
0.0
 40
2.0
100
AcDbArc
 50
180.0
 51
270.0
  0
LINE
  5
6B2
330
1A
100
AcDbEntity
  8
SEIHIN
100
AcDbLine
 10
160.0137661387812
 20
476.5154306332274
 30
0.0
 11
182.1578479335812
 21
468.4310081798273
 31
0.0
  0
LINE
  5
6B3
330
1A
100
AcDbEntity
  8
SEIHIN
100
AcDbLine
 10
155.9837661387814
 20
475.7154306332274
 30
0.0
 11
155.9837661387814
 21
483.5154306332273
 31
0.0
  0
LINE
  5
6B4
330
1A
100
AcDbEntity
  8
SEIHIN
100
AcDbLine
 10
155.9837661387814
 20
477.2154306332273
 30
0.0
 11
135.9837661387814
 21
477.2154306332273
 31
0.0
  0
LINE
  5
6B5
330
1A
100
AcDbEntity
  8
SEIHIN
100
AcDbLine
 10
155.9837661387814
 20
475.7154306332274
 30
0.0
 11
135.9837661387814
 21
475.7154306332274
 31
0.0
  0
LINE
  5
6B6
330
1A
100
AcDbEntity
  8
SEIHIN
100
AcDbLine
 10
157.0137661387811
 20
473.6157338489273
 30
0.0
 11
138.9837661387814
 21
473.6157338489273
 31
0.0
  0
LINE
  5
6B7
330
1A
100
AcDbEntity
  8
SEIHIN
100
AcDbLine
 10
157.0137661387811
 20
462.6157338489273
 30
0.0
 11
138.9837661387814
 21
462.6157338489273
 31
0.0
  0
LINE
  5
6B8
330
1A
100
AcDbEntity
  8
SEIHIN
100
AcDbLine
 10
154.4837661387814
 20
478.9159873864273
 30
0.0
 11
137.4837661387814
 21
478.9159873864273
 31
0.0
  0
LINE
  5
6B9
330
1A
100
AcDbEntity
  8
SEIHIN
100
AcDbLine
 10
135.9837661387814
 20
487.0154306332273
 30
0.0
 11
155.9837661387814
 21
487.7154306332273
 31
0.0
  0
ARC
  5
6BA
330
1A
100
AcDbEntity
  8
SEIHIN
100
AcDbCircle
 10
157.9837661387814
 20
483.5154306332273
 30
0.0
 40
2.0
100
AcDbArc
 50
90.0
 51
180.0
  0
ARC
  5
6BB
330
1A
100
AcDbEntity
  8
SEIHIN
100
AcDbCircle
 10
184.1578479335812
 20
466.4310081798273
 30
0.0
 40
2.0
100
AcDbArc
 50
90.0
 51
180.0
  0
LINE
  5
6BC
330
1A
100
AcDbEntity
  8
SEIHIN
100
AcDbLine
 10
309.8096843439812
 20
392.2780854079273
 30
0.0
 11
309.8096843439812
 21
466.4310081798273
 31
0.0
  0
LINE
  5
6BD
330
1A
100
AcDbEntity
  8
SEIHIN
100
AcDbLine
 10
331.9537661387812
 20
374.7160370646273
 30
0.0
 11
331.9537661387812
 21
476.5154306332274
 31
0.0
  0
LINE
  5
6BE
330
1A
100
AcDbEntity
  8
SEIHIN
100
AcDbLine
 10
355.9837661387812
 20
364.1157338489273
 30
0.0
 11
355.9837661387812
 21
487.0154306332273
 31
0.0
  0
LINE
  5
6BF
330
1A
100
AcDbEntity
  8
SEIHIN
100
AcDbLine
 10
355.9837661387812
 20
364.1157338489273
 30
0.0
 11
355.9837661387812
 21
487.0154306332273
 31
0.0
  0
LINE
  5
6C0
330
1A
100
AcDbEntity
  8
CENTER_L
 48
10.0
100
AcDbLine
 10
245.9837661387812
 20
356.4157338489274
 30
0.0
 11
245.9837661387812
 21
494.7154306332273
 31
0.0
  0
LINE
  5
6C1
330
1A
100
AcDbEntity
  8
SEIHIN
100
AcDbLine
 10
335.9837661387812
 20
375.4157338489273
 30
0.0
 11
355.9837661387812
 21
375.4157338489273
 31
0.0
  0
LINE
  5
6C2
330
1A
100
AcDbEntity
  8
SEIHIN
100
AcDbLine
 10
335.9837661387812
 20
374.0160370646273
 30
0.0
 11
355.9837661387812
 21
374.0160370646273
 31
0.0
  0
LINE
  5
6C3
330
1A
100
AcDbEntity
  8
SEIHIN
100
AcDbLine
 10
355.9837661387812
 20
364.1157338489273
 30
0.0
 11
335.9837661387812
 21
363.4157338489273
 31
0.0
  0
LINE
  5
6C4
330
1A
100
AcDbEntity
  8
SEIHIN
100
AcDbLine
 10
355.9837661387812
 20
364.1157338489273
 30
0.0
 11
335.9837661387812
 21
363.4157338489273
 31
0.0
  0
LINE
  5
6C6
330
1A
100
AcDbEntity
  8
SEIHIN
100
AcDbLine
 10
244.9837661387812
 20
392.5280854079273
 30
0.0
 11
244.9837661387812
 21
375.7160370646273
 31
0.0
  0
LINE
  5
6C7
330
1A
100
AcDbEntity
  8
SEIHIN
100
AcDbLine
 10
245.9837661387812
 20
374.7160370646273
 30
0.0
 11
335.9837661387812
 21
374.7160370646273
 31
0.0
  0
LINE
  5
6C8
330
1A
100
AcDbEntity
  8
SEIHIN
100
AcDbLine
 10
261.4837661387812
 20
365.6157338489273
 30
0.0
 11
333.9837661387812
 21
365.6157338489273
 31
0.0
  0
LINE
  5
6C9
330
1A
100
AcDbEntity
  8
SEIHIN
100
AcDbLine
 10
233.4837661387812
 20
365.6157338489273
 30
0.0
 11
245.9837661387812
 21
365.6157338489273
 31
0.0
  0
LINE
  5
6CA
330
1A
100
AcDbEntity
  8
SEIHIN
100
AcDbLine
 10
230.9837661387812
 20
366.1157338489273
 30
0.0
 11
230.9837661387812
 21
374.7160370646273
 31
0.0
  0
LINE
  5
6CB
330
1A
100
AcDbEntity
  8
SEIHIN
100
AcDbLine
 10
232.9837661387812
 20
366.1157338489273
 30
0.0
 11
232.9837661387812
 21
374.7160370646273
 31
0.0
  0
ARC
  5
6CC
330
1A
100
AcDbEntity
  8
SEIHIN
100
AcDbCircle
 10
233.4837661387812
 20
366.1157338489273
 30
0.0
 40
0.5
100
AcDbArc
 50
180.0
 51
270.0
  0
ARC
  5
6CD
330
1A
100
AcDbEntity
  8
SEIHIN
100
AcDbCircle
 10
230.4837661387812
 20
366.1157338489273
 30
0.0
 40
0.5
100
AcDbArc
 50
270.0
 51
0.0
  0
LINE
  5
6CE
330
1A
100
AcDbEntity
  8
SEIHIN
100
AcDbLine
 10
230.9837661387812
 20
370.7160370646273
 30
0.0
 11
232.9837661387812
 21
370.7160370646273
 31
0.0
  0
LINE
  5
6CF
330
1A
100
AcDbEntity
  8
SEIHIN
100
AcDbLine
 10
258.9837661387812
 20
366.1157338489273
 30
0.0
 11
258.9837661387812
 21
374.7160370646273
 31
0.0
  0
LINE
  5
6D0
330
1A
100
AcDbEntity
  8
SEIHIN
100
AcDbLine
 10
260.9837661387812
 20
366.1157338489273
 30
0.0
 11
260.9837661387812
 21
374.7160370646273
 31
0.0
  0
LINE
  5
6D1
330
1A
100
AcDbEntity
  8
SEIHIN
100
AcDbLine
 10
258.4837661387812
 20
365.6157338489273
 30
0.0
 11
245.9837661387812
 21
365.6157338489273
 31
0.0
  0
ARC
  5
6D2
330
1A
100
AcDbEntity
  8
SEIHIN
100
AcDbCircle
 10
258.4837661387812
 20
366.1157338489273
 30
0.0
 40
0.5
100
AcDbArc
 50
270.0
 51
0.0
  0
ARC
  5
6D3
330
1A
100
AcDbEntity
  8
SEIHIN
100
AcDbCircle
 10
261.4837661387812
 20
366.1157338489273
 30
0.0
 40
0.5
100
AcDbArc
 50
180.0
 51
270.0
  0
ARC
  5
6D4
330
1A
100
AcDbEntity
  8
SEIHIN
100
AcDbCircle
 10
243.9837661387812
 20
375.7160370646273
 30
0.0
 40
1.0
100
AcDbArc
 50
270.0
 51
0.0
  0
LINE
  5
6D5
330
1A
100
AcDbEntity
  8
SEIHIN
100
AcDbLine
 10
260.9837661387812
 20
370.7160370646273
 30
0.0
 11
258.9837661387812
 21
370.7160370646273
 31
0.0
  0
LINE
  5
6D6
330
1A
100
AcDbEntity
  8
SEIHIN
100
AcDbLine
 10
335.9837661387812
 20
375.4157338489273
 30
0.0
 11
335.9837661387812
 21
367.6157338489273
 31
0.0
  0
ARC
  5
6D7
330
1A
100
AcDbEntity
  8
SEIHIN
100
AcDbCircle
 10
333.9837661387812
 20
367.6157338489273
 30
0.0
 40
2.0
100
AcDbArc
 50
270.0
 51
0.0
  0
ARC
  5
6D8
330
1A
100
AcDbEntity
  8
SEIHIN
100
AcDbCircle
 10
369.1315380585813
 20
451.1543342400273
 30
0.0
 40
85.0
100
AcDbArc
 50
228.5007653497028
 51
244.0628123207961
  0
ARC
  5
6D9
330
1A
100
AcDbEntity
  8
SEIHIN
100
AcDbCircle
 10
245.9837661387812
 20
429.4157338489273
 30
0.0
 40
27.0
100
AcDbArc
 50
270.0
 51
90.0
  0
ARC
  5
6DA
330
1A
100
AcDbEntity
  8
SEIHIN
100
AcDbCircle
 10
245.9837661387812
 20
429.4157338489273
 30
0.0
 40
31.89999999999999
100
AcDbArc
 50
270.0
 51
90.0
  0
LINE
  5
6DC
330
1A
100
AcDbEntity
  8
SEIHIN
100
AcDbLine
 10
246.9837661387812
 20
390.2780854079273
 30
0.0
 11
307.8096843439812
 21
390.2780854079273
 31
0.0
  0
ARC
  5
6DD
330
1A
100
AcDbEntity
  8
SEIHIN
100
AcDbCircle
 10
245.9837661387812
 20
429.4157338489273
 30
0.0
 40
27.0
100
AcDbArc
 50
270.0
 51
90.0
  0
LINE
  5
6DF
330
1A
100
AcDbEntity
  8
CENTER_L
 48
10.0
100
AcDbLine
 10
285.9837661387812
 20
429.4157338489273
 30
0.0
 11
205.9837661387812
 21
429.4157338489273
 31
0.0
  0
ARC
  5
6E0
330
1A
100
AcDbEntity
  8
SEIHIN
100
AcDbCircle
 10
245.9837661387812
 20
429.4157338489273
 30
0.0
 40
31.89999999999999
100
AcDbArc
 50
90.0
 51
270.0
  0
ARC
  5
6E1
330
1A
100
AcDbEntity
  8
SEIHIN
100
AcDbCircle
 10
245.9837661387812
 20
429.4157338489273
 30
0.0
 40
27.0
100
AcDbArc
 50
90.0
 51
270.0
  0
ARC
  5
6E2
330
1A
100
AcDbEntity
  8
SEIHIN
100
AcDbCircle
 10
245.7337661387812
 20
392.5280854079273
 30
0.0
 40
0.75
100
AcDbArc
 50
90.0
 51
180.0
  0
LINE
  5
6E3
330
1A
100
AcDbEntity
  8
SEIHIN
100
AcDbLine
 10
245.9837661387812
 20
393.2780854079274
 30
0.0
 11
245.7337661387812
 21
393.2780854079274
 31
0.0
  0
ARC
  5
6E4
330
1A
100
AcDbEntity
  8
SEIHIN
100
AcDbCircle
 10
307.8096843439812
 20
392.2780854079273
 30
0.0
 40
2.0
100
AcDbArc
 50
270.0
 51
0.0
  0
LINE
  5
6E5
330
1A
100
AcDbEntity
  8
SEIHIN
100
AcDbLine
 10
334.9537661387812
 20
462.6157338489273
 30
0.0
 11
352.9837661387812
 21
462.6157338489273
 31
0.0
  0
LINE
  5
6E6
330
1A
100
AcDbEntity
  8
SEIHIN
100
AcDbLine
 10
355.9837661387812
 20
487.0154306332273
 30
0.0
 11
335.9837661387812
 21
487.7154306332273
 31
0.0
  0
LINE
  5
6E7
330
1A
100
AcDbEntity
  8
SEIHIN
100
AcDbLine
 10
337.4837661387812
 20
478.9159873864273
 30
0.0
 11
354.4837661387812
 21
478.9159873864273
 31
0.0
  0
LINE
  5
6E8
330
1A
100
AcDbEntity
  8
SEIHIN
100
AcDbLine
 10
334.9537661387812
 20
473.6157338489273
 30
0.0
 11
352.9837661387812
 21
473.6157338489273
 31
0.0
  0
LINE
  5
6E9
330
1A
100
AcDbEntity
  8
SEIHIN
100
AcDbLine
 10
335.9837661387812
 20
475.7154306332274
 30
0.0
 11
355.9837661387812
 21
475.7154306332274
 31
0.0
  0
LINE
  5
6EA
330
1A
100
AcDbEntity
  8
SEIHIN
100
AcDbLine
 10
335.9837661387812
 20
477.2154306332273
 30
0.0
 11
355.9837661387812
 21
477.2154306332273
 31
0.0
  0
LINE
  5
6EB
330
1A
100
AcDbEntity
  8
SEIHIN
100
AcDbLine
 10
355.9837661387812
 20
487.0154306332273
 30
0.0
 11
335.9837661387812
 21
487.7154306332273
 31
0.0
  0
LINE
  5
6EC
330
1A
100
AcDbEntity
  8
SEIHIN
100
AcDbLine
 10
246.9837661387812
 20
468.4310081798273
 30
0.0
 11
307.8096843439812
 21
468.4310081798273
 31
0.0
  0
LINE
  5
6ED
330
1A
100
AcDbEntity
  8
SEIHIN
100
AcDbLine
 10
261.4837661387812
 20
485.5154306332273
 30
0.0
 11
333.9837661387812
 21
485.5154306332273
 31
0.0
  0
LINE
  5
6EE
330
1A
100
AcDbEntity
  8
SEIHIN
100
AcDbLine
 10
245.9837661387812
 20
476.5154306332274
 30
0.0
 11
335.9837661387812
 21
476.5154306332274
 31
0.0
  0
LINE
  5
6EF
330
1A
100
AcDbEntity
  8
SEIHIN
100
AcDbLine
 10
225.3125127094813
 20
485.5154306332273
 30
0.0
 11
245.9837661387812
 21
485.5154306332273
 31
0.0
  0
LINE
  5
6F0
330
1A
100
AcDbEntity
  8
SEIHIN
100
AcDbLine
 10
233.4837661387812
 20
485.5154306332273
 30
0.0
 11
243.9837661387812
 21
485.5154306332273
 31
0.0
  0
LINE
  5
6F1
330
1A
100
AcDbEntity
  8
SEIHIN
100
AcDbLine
 10
230.9837661387812
 20
485.0154306332274
 30
0.0
 11
230.9837661387812
 21
476.5154306332274
 31
0.0
  0
LINE
  5
6F2
330
1A
100
AcDbEntity
  8
SEIHIN
100
AcDbLine
 10
232.9837661387812
 20
485.0154306332274
 30
0.0
 11
232.9837661387812
 21
476.5154306332274
 31
0.0
  0
ARC
  5
6F3
330
1A
100
AcDbEntity
  8
SEIHIN
100
AcDbCircle
 10
230.4837661387812
 20
485.0154306332274
 30
0.0
 40
0.5
100
AcDbArc
 50
0.0
 51
90.0
  0
LINE
  5
6F4
330
1A
100
AcDbEntity
  8
SEIHIN
100
AcDbLine
 10
230.9837661387812
 20
480.5154306332274
 30
0.0
 11
232.9837661387812
 21
480.5154306332274
 31
0.0
  0
ARC
  5
6F5
330
1A
100
AcDbEntity
  8
SEIHIN
100
AcDbCircle
 10
233.4837661387812
 20
485.0154306332274
 30
0.0
 40
0.5
100
AcDbArc
 50
90.0
 51
180.0
  0
LINE
  5
6F6
330
1A
100
AcDbEntity
  8
SEIHIN
100
AcDbLine
 10
258.9837661387812
 20
485.0154306332274
 30
0.0
 11
258.9837661387812
 21
476.5154306332274
 31
0.0
  0
LINE
  5
6F7
330
1A
100
AcDbEntity
  8
SEIHIN
100
AcDbLine
 10
260.9837661387812
 20
485.0154306332274
 30
0.0
 11
260.9837661387812
 21
476.5154306332274
 31
0.0
  0
LINE
  5
6F8
330
1A
100
AcDbEntity
  8
SEIHIN
100
AcDbLine
 10
244.9837661387812
 20
465.0657338489273
 30
0.0
 11
244.9837661387812
 21
475.5154306332273
 31
0.0
  0
ARC
  5
6F9
330
1A
100
AcDbEntity
  8
SEIHIN
100
AcDbCircle
 10
245.7337661387812
 20
465.0657338489273
 30
0.0
 40
0.75
100
AcDbArc
 50
180.0
 51
270.0
  0
LINE
  5
6FA
330
1A
100
AcDbEntity
  8
SEIHIN
100
AcDbLine
 10
245.9837661387812
 20
464.3157338489273
 30
0.0
 11
245.7337661387812
 21
464.3157338489273
 31
0.0
  0
ARC
  5
6FB
330
1A
100
AcDbEntity
  8
SEIHIN
100
AcDbCircle
 10
243.9837661387812
 20
475.5154306332273
 30
0.0
 40
1.0
100
AcDbArc
 50
0.0
 51
90.0
  0
LINE
  5
6FC
330
1A
100
AcDbEntity
  8
SEIHIN
100
AcDbLine
 10
258.4837661387812
 20
485.5154306332273
 30
0.0
 11
247.9837661387812
 21
485.5154306332273
 31
0.0
  0
LINE
  5
6FD
330
1A
100
AcDbEntity
  8
SEIHIN
100
AcDbLine
 10
266.6550195680813
 20
485.5154306332273
 30
0.0
 11
245.9837661387812
 21
485.5154306332273
 31
0.0
  0
LINE
  5
6FE
330
1A
100
AcDbEntity
  8
SEIHIN
100
AcDbLine
 10
260.9837661387812
 20
480.5154306332274
 30
0.0
 11
258.9837661387812
 21
480.5154306332274
 31
0.0
  0
ARC
  5
6FF
330
1A
100
AcDbEntity
  8
SEIHIN
100
AcDbCircle
 10
258.4837661387812
 20
485.0154306332274
 30
0.0
 40
0.5
100
AcDbArc
 50
0.0
 51
90.0
  0
ARC
  5
700
330
1A
100
AcDbEntity
  8
SEIHIN
100
AcDbCircle
 10
261.4837661387812
 20
485.0154306332274
 30
0.0
 40
0.5
100
AcDbArc
 50
90.0
 51
180.0
  0
LINE
  5
701
330
1A
100
AcDbEntity
  8
SEIHIN
100
AcDbLine
 10
335.9837661387812
 20
475.7154306332274
 30
0.0
 11
335.9837661387812
 21
483.5154306332273
 31
0.0
  0
LINE
  5
702
330
1A
100
AcDbEntity
  8
SEIHIN
100
AcDbLine
 10
331.9537661387812
 20
476.5154306332274
 30
0.0
 11
309.8096843439812
 21
468.4310081798273
 31
0.0
  0
ARC
  5
703
330
1A
100
AcDbEntity
  8
SEIHIN
100
AcDbCircle
 10
307.8096843439812
 20
466.4310081798273
 30
0.0
 40
2.0
100
AcDbArc
 50
0.0
 51
90.0
  0
ARC
  5
704
330
1A
100
AcDbEntity
  8
SEIHIN
100
AcDbCircle
 10
333.9837661387812
 20
483.5154306332273
 30
0.0
 40
2.0
100
AcDbArc
 50
0.0
 51
90.0
  0
LINE
  5
705
330
1A
100
AcDbEntity
  8
SEIHIN
100
AcDbLine
 10
593.1866895927616
 20
133.0548650744902
 30
0.0
 11
594.5311895927615
 21
156.4402650744902
 31
0.0
  0
ARC
  5
706
330
1A
100
AcDbEntity
  8
SEIHIN
100
AcDbCircle
 10
493.3515351567616
 20
138.7950187014902
 30
0.0
 40
100.0000428647999
100
AcDbArc
 50
348.6063643594985
 51
356.7092694720999
  0
LINE
  5
707
330
1A
100
AcDbEntity
  8
SEIHIN
100
AcDbLine
 10
585.5807895927616
 20
113.0403050744902
 30
0.0
 11
585.5807895927616
 21
119.0405450744902
 31
0.0
  0
LINE
  5
709
330
1A
100
AcDbEntity
  8
SEIHIN
100
AcDbLine
 10
607.1242761541616
 20
233.4404550744902
 30
0.0
 11
603.3491438357616
 21
215.2515661855902
 31
0.0
  0
LINE
  5
70A
330
1A
100
AcDbEntity
  8
SEIHIN
100
AcDbLine
 10
612.4805863771617
 20
218.4404550744902
 30
0.0
 11
612.4805863771617
 21
232.4404550744902
 31
0.0
  0
LINE
  5
70B
330
1A
100
AcDbEntity
  8
SEIHIN
100
AcDbLine
 10
613.9805863771616
 20
216.9404550744902
 30
0.0
 11
613.9805863771616
 21
233.6404550744902
 31
0.0
  0
LINE
  5
70C
330
1A
100
AcDbEntity
  8
SEIHIN
100
AcDbLine
 10
614.6805863771617
 20
216.2404550744903
 30
0.0
 11
614.6805863771617
 21
233.6404550744902
 31
0.0
  0
LINE
  5
70D
330
1A
100
AcDbEntity
  8
SEIHIN
100
AcDbLine
 10
589.8571640048617
 20
179.1664977752902
 30
0.0
 11
600.2603012893616
 21
187.6781555534902
 31
0.0
  0
LINE
  5
70E
330
1A
100
AcDbEntity
  8
SEIHIN
100
AcDbLine
 10
595.2649098077618
 20
186.9038240248902
 30
0.0
 11
594.8916616577617
 21
183.2856322184902
 31
0.0
  0
LINE
  5
70F
330
1A
100
AcDbEntity
  8
SEIHIN
100
AcDbLine
 10
590.3926090721616
 20
177.6664977752902
 30
0.0
 11
601.6910404299617
 21
186.9106688861902
 31
0.0
  0
LINE
  5
710
330
1A
100
AcDbEntity
  8
SEIHIN
100
AcDbLine
 10
600.2808895927617
 20
184.8524664482902
 30
0.0
 11
597.5660359904615
 21
158.5352266737902
 31
0.0
  0
LINE
  5
711
330
1A
100
AcDbEntity
  8
SEIHIN
100
AcDbLine
 10
590.6424834368618
 20
176.9664977752902
 30
0.0
 11
602.3587186955617
 21
186.5525084414902
 31
0.0
  0
ARC
  5
712
330
1A
100
AcDbEntity
  8
SEIHIN
100
AcDbCircle
 10
595.5765935300616
 20
158.7404550744902
 30
0.0
 40
2.0
100
AcDbArc
 50
270.0
 51
354.1102722439002
  0
ARC
  5
713
330
1A
100
AcDbEntity
  8
SEIHIN
100
AcDbCircle
 10
589.2239262146618
 20
179.9404550744902
 30
0.0
 40
1.0
100
AcDbArc
 50
270.0
 51
309.2894068624993
  0
ARC
  5
714
330
1A
100
AcDbEntity
  8
SEIHIN
100
AcDbCircle
 10
590.0092456466616
 20
177.7404550744902
 30
0.0
 40
1.0
100
AcDbArc
 50
270.0
 51
309.2894068624993
  0
ARC
  5
715
330
1A
100
AcDbEntity
  8
SEIHIN
100
AcDbCircle
 10
589.7593712818616
 20
178.4404550744902
 30
0.0
 40
1.0
100
AcDbArc
 50
270.0
 51
309.2894068624993
  0
ARC
  5
716
330
1A
100
AcDbEntity
  8
SEIHIN
100
AcDbCircle
 10
613.1805863771617
 20
216.2404550744903
 30
0.0
 40
1.5
100
AcDbArc
 50
270.0
 51
0.0
  0
ARC
  5
717
330
1A
100
AcDbEntity
  8
SEIHIN
100
AcDbCircle
 10
612.4805863771617
 20
216.9404550744902
 30
0.0
 40
1.5
100
AcDbArc
 50
270.0
 51
0.0
  0
LINE
  5
718
330
1A
100
AcDbEntity
  8
SEIHIN
100
AcDbLine
 10
602.0528408598615
 20
187.5851327671902
 30
0.0
 11
604.7480406006616
 21
214.5399484926902
 31
0.0
  0
LINE
  5
719
330
1A
100
AcDbEntity
  8
SEIHIN
100
AcDbLine
 10
600.6221017193616
 20
188.3526194344902
 30
0.0
 11
603.3005038916617
 21
215.1394419108902
 31
0.0
  0
LINE
  5
71A
330
1A
100
AcDbEntity
  8
SEIHIN
100
AcDbLine
 10
602.7205191254616
 20
187.2269723224902
 30
0.0
 11
605.3815384848617
 21
213.8399484926902
 31
0.0
  0
LINE
  5
71B
330
1A
100
AcDbEntity
  8
SEIHIN
100
AcDbLine
 10
595.8071349677616
 20
187.9108386730902
 30
0.0
 11
597.2385288564616
 21
189.0819791275902
 31
0.0
  0
ARC
  5
71C
330
1A
100
AcDbEntity
  8
SEIHIN
100
AcDbCircle
 10
596.7569916530617
 20
186.7499027242902
 30
0.0
 40
1.5
100
AcDbArc
 50
129.2894068624993
 51
174.1102722439002
  0
LINE
  5
71D
330
1A
100
AcDbEntity
  8
SEIHIN
100
AcDbLine
 10
597.7812295014616
 20
190.0936749490902
 30
0.0
 11
598.5307531551616
 21
197.5896952483902
 31
0.0
  0
ARC
  5
71E
330
1A
100
AcDbEntity
  8
SEIHIN
100
AcDbCircle
 10
596.2886721710617
 20
190.2429150763902
 30
0.0
 40
1.5
100
AcDbArc
 50
309.2894068624993
 51
354.2900000000011
  0
ARC
  5
71F
330
1A
100
AcDbEntity
  8
SEIHIN
100
AcDbCircle
 10
601.7254809052617
 20
187.3264657406902
 30
0.0
 40
1.0
100
AcDbArc
 50
309.2894068624993
 51
354.2900000000011
  0
ARC
  5
720
330
1A
100
AcDbEntity
  8
SEIHIN
100
AcDbCircle
 10
601.0578026396617
 20
187.6846261853902
 30
0.0
 40
1.0
100
AcDbArc
 50
309.2894068624993
 51
354.2900000000011
  0
ARC
  5
721
330
1A
100
AcDbEntity
  8
SEIHIN
100
AcDbCircle
 10
599.6270634990617
 20
188.4521128526902
 30
0.0
 40
1.0
100
AcDbArc
 50
309.2894068624993
 51
354.2900000000011
  0
LINE
  5
722
330
1A
100
AcDbEntity
  8
SEIHIN
100
AcDbLine
 10
600.0233104855617
 20
198.9404551210902
 30
0.0
 11
600.3232791183618
 21
198.9404551210902
 31
0.0
  0
ARC
  5
723
330
1A
100
AcDbEntity
  8
SEIHIN
100
AcDbCircle
 10
600.0233104855617
 20
197.4404551210902
 30
0.0
 40
1.5
100
AcDbArc
 50
90.0
 51
174.2900000000011
  0
ARC
  5
724
330
1A
100
AcDbEntity
  8
SEIHIN
100
AcDbCircle
 10
600.3232791183618
 20
200.4404551210902
 30
0.0
 40
1.5
100
AcDbArc
 50
270.0
 51
354.2899880643003
  0
ARC
  5
725
330
1A
100
AcDbEntity
  8
SEIHIN
100
AcDbCircle
 10
605.7430788208616
 20
214.4404550744902
 30
0.0
 40
1.0
100
AcDbArc
 50
90.0
 51
174.2900000000011
  0
ARC
  5
726
330
1A
100
AcDbEntity
  8
SEIHIN
100
AcDbCircle
 10
605.2905803320616
 20
214.9404550744902
 30
0.0
 40
2.0
100
AcDbArc
 50
90.0
 51
174.2900000000011
  0
ARC
  5
727
330
1A
100
AcDbEntity
  8
SEIHIN
100
AcDbCircle
 10
606.3765767050617
 20
213.7404550744903
 30
0.0
 40
1.0
100
AcDbArc
 50
90.0
 51
174.2900000000011
  0
ARC
  5
728
330
1A
100
AcDbEntity
  8
SEIHIN
100
AcDbCircle
 10
610.9805863771616
 20
218.4404550744902
 30
0.0
 40
1.5
100
AcDbArc
 50
270.0
 51
0.0
  0
LINE
  5
729
330
1A
100
AcDbEntity
  8
SEIHIN
100
AcDbLine
 10
605.7430788208616
 20
215.4404550744903
 30
0.0
 11
612.4805863771617
 21
215.4404550744903
 31
0.0
  0
LINE
  5
72A
330
1A
100
AcDbEntity
  8
SEIHIN
100
AcDbLine
 10
606.3765767050617
 20
214.7404550744902
 30
0.0
 11
613.1805863771617
 21
214.7404550744902
 31
0.0
  0
LINE
  5
72B
330
1A
100
AcDbEntity
  8
SEIHIN
100
AcDbLine
 10
605.2905803320616
 20
216.9404550744902
 30
0.0
 11
610.9805863771616
 21
216.9404550744902
 31
0.0
  0
ARC
  5
72D
330
1A
100
AcDbEntity
  8
SEIHIN
100
AcDbCircle
 10
611.9805863771617
 20
233.6404550744902
 30
0.0
 40
2.0
100
AcDbArc
 50
0.0
 51
90.0
  0
ARC
  5
72E
330
1A
100
AcDbEntity
  8
SEIHIN
100
AcDbCircle
 10
612.6805863771616
 20
233.6404550744902
 30
0.0
 40
2.0
100
AcDbArc
 50
0.0
 51
90.0
  0
ARC
  5
72F
330
1A
100
AcDbEntity
  8
SEIHIN
100
AcDbCircle
 10
605.7825330589617
 20
237.6378551029902
 30
0.0
 40
2.0
100
AcDbArc
 50
216.7768496515984
 51
272.921823523301
  0
ARC
  5
730
330
1A
100
AcDbEntity
  8
SEIHIN
100
AcDbCircle
 10
607.3821484958616
 20
236.6420171931902
 30
0.0
 40
5.0
100
AcDbArc
 50
199.8959097498017
 51
250.1040902502007
  0
ARC
  5
731
330
1A
100
AcDbEntity
  8
SEIHIN
100
AcDbCircle
 10
604.1805863771616
 20
234.9404550744902
 30
0.0
 40
1.5
100
AcDbArc
 50
90.0
 51
180.0
  0
ARC
  5
732
330
1A
100
AcDbEntity
  8
SEIHIN
100
AcDbCircle
 10
606.1805863771617
 20
232.9404550744902
 30
0.0
 40
0.5
100
AcDbArc
 50
90.0
 51
180.0
  0
LINE
  5
733
330
1A
100
AcDbEntity
  8
SEIHIN
100
AcDbLine
 10
605.6805863771617
 20
234.4404550744902
 30
0.0
 11
605.6805863771617
 21
232.9404550744902
 31
0.0
  0
ARC
  5
734
330
1A
100
AcDbEntity
  8
SEIHIN
100
AcDbCircle
 10
610.4805863771616
 20
231.4404550744902
 30
0.0
 40
2.0
100
AcDbArc
 50
0.0
 51
90.0
  0
LINE
  5
735
330
1A
100
AcDbEntity
  8
SEIHIN
100
AcDbLine
 10
610.4805863771616
 20
233.4404550744902
 30
0.0
 11
606.1805863771617
 21
233.4404550744902
 31
0.0
  0
LINE
  5
736
330
1A
100
AcDbEntity
  8
SEIHIN
100
AcDbLine
 10
612.6805863771616
 20
235.6404550744902
 30
0.0
 11
605.8844797408617
 21
235.6404550744902
 31
0.0
  0
ARC
  5
737
330
1A
100
AcDbEntity
  8
SEIHIN
100
AcDbCircle
 10
610.4805863771616
 20
232.4404550744902
 30
0.0
 40
2.0
100
AcDbArc
 50
0.0
 51
90.0
  0
LINE
  5
738
330
1A
100
AcDbEntity
  8
SEIHIN
100
AcDbLine
 10
610.4805863771616
 20
234.4404550744902
 30
0.0
 11
605.6805863771617
 21
234.4404550744902
 31
0.0
  0
LINE
  5
739
330
1A
100
AcDbEntity
  8
SEIHIN
100
AcDbLine
 10
605.6805863771617
 20
232.9404550744902
 30
0.0
 11
605.6805863771617
 21
231.9404550744902
 31
0.0
  0
LINE
  5
983
330
1A
100
AcDbEntity
  8
NOKITOI
  6
PHANTOM
 62
     8
 48
5.0
100
AcDbLine
 10
600.2602104283712
 20
187.6781558710193
 30
0.0
 11
589.8571104283712
 21
179.1664558710193
 31
0.0
  0
ARC
  5
984
330
1A
100
AcDbEntity
  8
NOKITOI
  6
PHANTOM
 62
     8
 48
5.0
100
AcDbCircle
 10
544.3943942019139
 20
221.9405703473893
 30
0.0
 40
43.00001447645168
100
AcDbArc
 50
186.524910707118
 51
269.999888375144
  0
ARC
  5
985
330
1A
100
AcDbEntity
  8
NOKITOI
  6
PHANTOM
 62
     8
 48
5.0
100
AcDbCircle
 10
544.3944165103391
 20
221.9405502463629
 30
0.0
 40
41.79999437547816
100
AcDbArc
 50
184.474295212525
 51
269.9998545921086
  0
LINE
  5
986
330
1A
100
AcDbEntity
  8
NOKITOI
  6
PHANTOM
 62
     8
 48
5.0
100
AcDbLine
 10
599.2759104283716
 20
188.4232558710192
 30
0.0
 11
589.2906104283713
 21
180.2534558710191
 31
0.0
  0
LINE
  5
987
330
1A
100
AcDbEntity
  8
NOKITOI
  6
PHANTOM
 62
     8
 48
5.0
100
AcDbLine
 10
589.2238104283713
 20
178.9404558710192
 30
0.0
 11
544.3944104283712
 21
178.9405558710192
 31
0.0
  0
LINE
  5
988
330
1A
100
AcDbEntity
  8
NOKITOI
  6
PHANTOM
 62
     8
 48
5.0
100
AcDbLine
 10
544.3944104283712
 20
180.1405558710192
 30
0.0
 11
588.9740104283712
 21
180.1404558710192
 31
0.0
  0
LINE
  5
989
330
1A
100
AcDbEntity
  8
NOKITOI
  6
PHANTOM
 62
     8
 48
5.0
100
AcDbLine
 10
584.9740104283712
 20
180.1404558710192
 30
0.0
 11
565.0659104283715
 21
180.1404558710192
 31
0.0
  0
LINE
  5
98A
330
1A
100
AcDbEntity
  8
NOKITOI
  6
PHANTOM
 62
     8
 48
5.0
100
AcDbLine
 10
585.2238104283713
 20
178.9404558710192
 30
0.0
 11
565.0659104283715
 21
178.9404558710192
 31
0.0
  0
ARC
  5
98B
330
1A
100
AcDbEntity
  8
NOKITOI
  6
PHANTOM
 62
     8
 48
5.0
100
AcDbCircle
 10
588.9740168161199
 20
180.6404581510088
 30
0.0
 40
0.5000022800304047
100
AcDbArc
 50
269.9992680212786
 51
309.2854498596058
  0
ARC
  5
98C
330
1A
100
AcDbEntity
  8
NOKITOI
  6
PHANTOM
 62
     8
 48
5.0
100
AcDbCircle
 10
589.2238034957938
 20
179.9404533960131
 30
0.0
 40
0.9999975250179316
100
AcDbArc
 50
270.0003972084043
 51
309.2946416752298
  0
LINE
  5
98D
330
1A
100
AcDbEntity
  8
NOKITOI
  6
PHANTOM
 62
     8
 48
5.0
100
AcDbLine
 10
501.1058104283713
 20
224.9143558710192
 30
0.0
 11
501.4216104283711
 21
230.9142558710192
 31
0.0
  0
LINE
  5
98E
330
1A
100
AcDbEntity
  8
NOKITOI
  6
PHANTOM
 62
     8
 48
5.0
100
AcDbLine
 10
499.9423104283712
 20
225.6405558710192
 30
0.0
 11
500.1235104283712
 21
229.0820558710194
 31
0.0
  0
LINE
  5
98F
330
1A
100
AcDbEntity
  8
NOKITOI
  6
PHANTOM
 62
     8
 48
5.0
100
AcDbLine
 10
499.1644104283716
 20
225.6405558710192
 30
0.0
 11
499.5685104283714
 21
228.4689558710191
 31
0.0
  0
LINE
  5
990
330
1A
100
AcDbEntity
  8
NOKITOI
  6
PHANTOM
 62
     8
 48
5.0
100
AcDbLine
 10
493.8447104283716
 20
231.9155558710191
 30
0.0
 11
493.9941104283709
 21
227.1366558710193
 31
0.0
  0
LINE
  5
991
330
1A
100
AcDbEntity
  8
NOKITOI
  6
PHANTOM
 62
     8
 48
5.0
100
AcDbLine
 10
492.6453104283711
 20
231.8780558710192
 30
0.0
 11
493.035510428371
 21
219.3937558710191
 31
0.0
  0
ARC
  5
992
330
1A
100
AcDbEntity
  8
NOKITOI
  6
PHANTOM
 62
     8
 48
5.0
100
AcDbCircle
 10
498.0960306410404
 20
223.9406145993992
 30
0.0
 40
5.2000412730095
100
AcDbArc
 50
90.00132454306161
 51
142.0757990790561
  0
ARC
  5
993
330
1A
100
AcDbEntity
  8
NOKITOI
  6
PHANTOM
 62
     8
 48
5.0
100
AcDbCircle
 10
498.0959483098179
 20
223.9405996535446
 30
0.0
 40
3.999989731271038
100
AcDbArc
 50
96.47731142013144
 51
181.7899836067308
  0
ARC
  5
994
330
1A
100
AcDbEntity
  8
NOKITOI
  6
PHANTOM
 62
     8
 48
5.0
100
AcDbCircle
 10
498.3573370289689
 20
224.9405251941372
 30
0.0
 40
0.4999693238254178
100
AcDbArc
 50
171.8555038770532
 51
269.9969516090348
  0
LINE
  5
995
330
1A
100
AcDbEntity
  8
NOKITOI
  6
PHANTOM
 62
     8
 48
5.0
100
AcDbLine
 10
497.862410428371
 20
225.0113558710194
 30
0.0
 11
498.1961104283711
 21
227.3475558710194
 31
0.0
  0
ARC
  5
996
330
1A
100
AcDbEntity
  8
NOKITOI
  6
PHANTOM
 62
     8
 48
5.0
100
AcDbCircle
 10
497.7011246467866
 20
227.4182412367182
 30
0.0
 40
0.5000073448410256
100
AcDbArc
 50
351.8729478641243
 51
96.47829282996843
  0
LINE
  5
997
330
1A
100
AcDbEntity
  8
NOKITOI
  6
PHANTOM
 62
     8
 48
5.0
100
AcDbLine
 10
500.6064104283711
 20
224.4405558710192
 30
0.0
 11
498.3573104283712
 21
224.4405558710192
 31
0.0
  0
ARC
  5
998
330
1A
100
AcDbEntity
  8
NOKITOI
  6
PHANTOM
 62
     8
 48
5.0
100
AcDbCircle
 10
500.6064035413762
 20
224.9405493359337
 30
0.0
 40
0.499993464961963
100
AcDbArc
 50
270.0007892017873
 51
356.9970361317427
  0
LINE
  5
999
330
1A
100
AcDbEntity
  8
NOKITOI
  6
PHANTOM
 62
     8
 48
5.0
100
AcDbLine
 10
499.9423104283712
 20
225.6405558710192
 30
0.0
 11
499.1644104283716
 21
225.6405558710192
 31
0.0
  0
ARC
  5
99A
330
1A
100
AcDbEntity
  8
NOKITOI
  6
PHANTOM
 62
     8
 48
5.0
100
AcDbCircle
 10
500.6794020042086
 20
216.9405633860757
 30
0.0
 40
0.9999924849789756
100
AcDbArc
 50
6.528264606674428
 51
89.99951732740891
  0
LINE
  5
99B
330
1A
100
AcDbEntity
  8
NOKITOI
  6
PHANTOM
 62
     8
 48
5.0
100
AcDbLine
 10
494.5347104283712
 20
217.9405558710192
 30
0.0
 11
500.679410428371
 21
217.9405558710192
 31
0.0
  0
LINE
  5
99C
330
1A
100
AcDbEntity
  8
NOKITOI
  6
PHANTOM
 62
     8
 48
5.0
100
AcDbLine
 10
502.2233104283716
 20
219.1405558710192
 30
0.0
 11
496.1824104283712
 21
219.1405558710192
 31
0.0
  0
ARC
  5
99D
330
1A
100
AcDbEntity
  8
NOKITOI
  6
PHANTOM
 62
     8
 48
5.0
100
AcDbCircle
 10
502.2233229980795
 20
218.6405442462895
 30
0.0
 40
0.5000116248877111
100
AcDbArc
 50
4.474846808342897
 51
90.00144034898337
  0
LINE
  5
99E
330
1A
100
AcDbEntity
  8
NOKITOI
  6
PHANTOM
 62
     8
 48
5.0
100
AcDbLine
 10
494.1834104283709
 20
221.0781558710192
 30
0.0
 11
494.0979104283712
 21
223.8156558710191
 31
0.0
  0
ARC
  5
99F
330
1A
100
AcDbEntity
  8
NOKITOI
  6
PHANTOM
 62
     8
 48
5.0
100
AcDbCircle
 10
494.534746387522
 20
219.4405210168759
 30
0.0
 40
1.499965146287778
100
AcDbArc
 50
181.7866280217767
 51
269.9986264296976
  0
ARC
  5
9A0
330
1A
100
AcDbEntity
  8
NOKITOI
  6
PHANTOM
 62
     8
 48
5.0
100
AcDbCircle
 10
496.1824240005096
 20
221.1405427159328
 30
0.0
 40
1.999986844959662
100
AcDbArc
 50
181.7875531852363
 51
269.9996111843223
  0
LINE
  5
9A5
330
1A
100
AcDbEntity
  8
NOKITOI
  6
PHANTOM
 62
     8
 48
5.0
100
AcDbLine
 10
494.644310428371
 20
233.9405558710192
 30
0.0
 11
497.9709104283712
 21
233.9405558710192
 31
0.0
  0
LINE
  5
9A6
330
1A
100
AcDbEntity
  8
NOKITOI
  6
PHANTOM
 62
     8
 48
5.0
100
AcDbLine
 10
494.644310428371
 20
232.7405558710194
 30
0.0
 11
497.1171104283715
 21
232.7405558710194
 31
0.0
  0
LINE
  5
9A7
330
1A
100
AcDbEntity
  8
NOKITOI
  6
PHANTOM
 62
     8
 48
5.0
100
AcDbLine
 10
498.5578104283716
 20
229.1405558710192
 30
0.0
 11
499.5536104283712
 21
230.2405558710194
 31
0.0
  0
LINE
  5
9A8
330
1A
100
AcDbEntity
  8
NOKITOI
  6
PHANTOM
 62
     8
 48
5.0
100
AcDbLine
 10
498.5578104283716
 20
229.1405558710192
 30
0.0
 11
498.0959104283713
 21
229.1405558710192
 31
0.0
  0
LINE
  5
9A9
330
1A
100
AcDbEntity
  8
NOKITOI
  6
PHANTOM
 62
     8
 48
5.0
100
AcDbLine
 10
499.5685104283714
 20
228.4689558710191
 30
0.0
 11
500.1235104283712
 21
229.0820558710194
 31
0.0
  0
LINE
  5
9AA
330
1A
100
AcDbEntity
  8
NOKITOI
  6
PHANTOM
 62
     8
 48
5.0
100
AcDbLine
 10
497.1171104283715
 20
232.7405558710194
 30
0.0
 11
496.6171104283715
 21
230.2405558710194
 31
0.0
  0
ARC
  5
9AB
330
1A
100
AcDbEntity
  8
NOKITOI
  6
PHANTOM
 62
     8
 48
5.0
100
AcDbCircle
 10
498.6907031738158
 20
231.9405647208626
 30
0.0
 40
0.5000088498959383
100
AcDbArc
 50
168.6864043304884
 51
270.0008312961434
  0
LINE
  5
9AC
330
1A
100
AcDbEntity
  8
NOKITOI
  6
PHANTOM
 62
     8
 48
5.0
100
AcDbLine
 10
496.6171104283715
 20
230.2405558710194
 30
0.0
 11
499.5536104283712
 21
230.2405558710194
 31
0.0
  0
ARC
  5
9AD
330
1A
100
AcDbEntity
  8
NOKITOI
  6
PHANTOM
 62
     8
 48
5.0
100
AcDbCircle
 10
500.9222042272133
 20
230.9405624061044
 30
0.0
 40
0.4999934649531607
100
AcDbArc
 50
356.9955363203384
 51
89.99928939038005
  0
LINE
  5
9AE
330
1A
100
AcDbEntity
  8
NOKITOI
  6
PHANTOM
 62
     8
 48
5.0
100
AcDbLine
 10
500.922210428371
 20
231.4405558710192
 30
0.0
 11
498.6907104283711
 21
231.4405558710192
 31
0.0
  0
ARC
  5
9AF
330
1A
100
AcDbEntity
  8
NOKITOI
  6
PHANTOM
 62
     8
 48
5.0
100
AcDbCircle
 10
497.9709096453627
 20
233.4405568260209
 30
0.0
 40
0.4999990449987349
100
AcDbArc
 50
348.6967198015448
 51
89.99991027369452
  0
LINE
  5
9B0
330
1A
100
AcDbEntity
  8
NOKITOI
  6
PHANTOM
 62
     8
 48
5.0
100
AcDbLine
 10
498.2004104283712
 20
232.0386558710191
 30
0.0
 11
498.4612104283712
 21
233.3425558710192
 31
0.0
  0
ARC
  5
9B1
330
1A
100
AcDbEntity
  8
NOKITOI
  6
PHANTOM
 62
     8
 48
5.0
100
AcDbCircle
 10
494.6443149231693
 20
231.9405605085461
 30
0.0
 40
0.7999953624857498
100
AcDbArc
 50
90.00032191805336
 51
181.7911273464199
  0
ARC
  5
9B2
330
1A
100
AcDbEntity
  8
NOKITOI
  6
PHANTOM
 62
     8
 48
5.0
100
AcDbCircle
 10
494.6443231792211
 20
231.9405690261056
 30
0.0
 40
1.999986844954076
100
AcDbArc
 50
90.00036528735526
 51
181.7883072882699
  0
LINE
  5
9B3
330
1A
100
AcDbEntity
  8
NOKITOI
  6
PHANTOM
 62
     8
 48
5.0
100
AcDbLine
 10
611.3169104283708
 20
231.9155558710191
 30
0.0
 11
611.1676104283713
 21
227.1365558710193
 31
0.0
  0
LINE
  5
9B4
330
1A
100
AcDbEntity
  8
NOKITOI
  6
PHANTOM
 62
     8
 48
5.0
100
AcDbLine
 10
612.5163104283712
 20
231.8780558710192
 30
0.0
 11
612.1262104283712
 21
219.3936558710191
 31
0.0
  0
LINE
  5
9B5
330
1A
100
AcDbEntity
  8
NOKITOI
  6
PHANTOM
 62
     8
 48
5.0
100
AcDbLine
 10
604.0559104283714
 20
224.9142558710192
 30
0.0
 11
603.740110428371
 21
230.9142558710192
 31
0.0
  0
LINE
  5
9B6
330
1A
100
AcDbEntity
  8
NOKITOI
  6
PHANTOM
 62
     8
 48
5.0
100
AcDbLine
 10
605.9972104283708
 20
225.6405558710192
 30
0.0
 11
605.5932104283713
 21
228.4689558710191
 31
0.0
  0
LINE
  5
9B7
330
1A
100
AcDbEntity
  8
NOKITOI
  6
PHANTOM
 62
     8
 48
5.0
100
AcDbLine
 10
605.2193104283713
 20
225.6405558710192
 30
0.0
 11
605.038210428371
 21
229.0819558710192
 31
0.0
  0
ARC
  5
9B8
330
1A
100
AcDbEntity
  8
NOKITOI
  6
PHANTOM
 62
     8
 48
5.0
100
AcDbCircle
 10
607.0657795014351
 20
223.940591615683
 30
0.0
 40
3.99998565374706
100
AcDbArc
 50
358.2086966591014
 51
83.52422380468325
  0
ARC
  5
9B9
330
1A
100
AcDbEntity
  8
NOKITOI
  6
PHANTOM
 62
     8
 48
5.0
100
AcDbCircle
 10
607.06579256202
 20
223.9405645993991
 30
0.0
 40
5.199991271650611
100
AcDbArc
 50
37.92532860473096
 51
89.99980314072548
  0
LINE
  5
9BA
330
1A
100
AcDbEntity
  8
NOKITOI
  6
PHANTOM
 62
     8
 48
5.0
100
AcDbLine
 10
602.4498104283714
 20
218.6903558710192
 30
0.0
 11
599.4568104283709
 21
188.7605558710191
 31
0.0
  0
LINE
  5
9BB
330
1A
100
AcDbEntity
  8
NOKITOI
  6
PHANTOM
 62
     8
 48
5.0
100
AcDbLine
 10
603.4908104283715
 20
217.0400558710192
 30
0.0
 11
600.6220104283714
 21
188.3526558710192
 31
0.0
  0
ARC
  5
9BC
330
1A
100
AcDbEntity
  8
NOKITOI
  6
PHANTOM
 62
     8
 48
5.0
100
AcDbCircle
 10
598.959293002493
 20
188.8102233846312
 30
0.0
 40
0.4999904508696396
100
AcDbArc
 50
309.2900846377958
 51
354.2990110749245
  0
ARC
  5
9BD
330
1A
100
AcDbEntity
  8
NOKITOI
  6
PHANTOM
 62
     8
 48
5.0
100
AcDbCircle
 10
599.6269878555024
 20
188.4521137993466
 30
0.0
 40
0.9999908507640039
100
AcDbArc
 50
309.2887092230696
 51
354.2862329477531
  0
LINE
  5
9BE
330
1A
100
AcDbEntity
  8
NOKITOI
  6
PHANTOM
 62
     8
 48
5.0
100
AcDbLine
 10
604.5552104283713
 20
224.4405558710192
 30
0.0
 11
606.8043104283709
 21
224.4405558710192
 31
0.0
  0
LINE
  5
9BF
330
1A
100
AcDbEntity
  8
NOKITOI
  6
PHANTOM
 62
     8
 48
5.0
100
AcDbLine
 10
602.9473104283709
 20
219.1405558710192
 30
0.0
 11
608.9792104283713
 21
219.1405558710192
 31
0.0
  0
LINE
  5
9C0
330
1A
100
AcDbEntity
  8
NOKITOI
  6
PHANTOM
 62
     8
 48
5.0
100
AcDbLine
 10
610.6269104283712
 20
217.9405558710192
 30
0.0
 11
604.4858104283714
 21
217.9405558710192
 31
0.0
  0
ARC
  5
9C1
330
1A
100
AcDbEntity
  8
NOKITOI
  6
PHANTOM
 62
     8
 48
5.0
100
AcDbCircle
 10
604.5552145497779
 20
224.9405519609887
 30
0.0
 40
0.4999960899864752
100
AcDbArc
 50
183.0147243791737
 51
269.9995277178594
  0
LINE
  5
9C2
330
1A
100
AcDbEntity
  8
NOKITOI
  6
PHANTOM
 62
     8
 48
5.0
100
AcDbLine
 10
605.2193104283713
 20
225.6405558710192
 30
0.0
 11
605.9972104283708
 21
225.6405558710192
 31
0.0
  0
ARC
  5
9C3
330
1A
100
AcDbEntity
  8
NOKITOI
  6
PHANTOM
 62
     8
 48
5.0
100
AcDbCircle
 10
604.4858310782122
 20
216.9405745588684
 30
0.0
 40
0.9999813123640345
100
AcDbArc
 50
90.00118317084957
 51
174.290590033351
  0
ARC
  5
9C4
330
1A
100
AcDbEntity
  8
NOKITOI
  6
PHANTOM
 62
     8
 48
5.0
100
AcDbCircle
 10
602.9473234993758
 20
218.6405677012991
 30
0.0
 40
0.499988169890889
100
AcDbArc
 50
90.00149786226627
 51
174.2966061377156
  0
ARC
  5
9C5
330
1A
100
AcDbEntity
  8
NOKITOI
  6
PHANTOM
 62
     8
 48
5.0
100
AcDbCircle
 10
610.6269276415494
 20
219.440572554167
 30
0.0
 40
1.500016683246579
100
AcDbArc
 50
269.9993425123348
 51
358.207642324411
  0
LINE
  5
9C6
330
1A
100
AcDbEntity
  8
NOKITOI
  6
PHANTOM
 62
     8
 48
5.0
100
AcDbLine
 10
610.9783104283713
 20
221.0779558710192
 30
0.0
 11
611.0638104283709
 21
223.8155558710192
 31
0.0
  0
ARC
  5
9C7
330
1A
100
AcDbEntity
  8
NOKITOI
  6
PHANTOM
 62
     8
 48
5.0
100
AcDbCircle
 10
606.8043206148074
 20
224.9405676157433
 30
0.0
 40
0.5000117448278309
100
AcDbArc
 50
269.9988327478018
 51
8.127314608715803
  0
LINE
  5
9C8
330
1A
100
AcDbEntity
  8
NOKITOI
  6
PHANTOM
 62
     8
 48
5.0
100
AcDbLine
 10
607.2993104283711
 20
225.0112558710192
 30
0.0
 11
606.9655104283713
 21
227.3474558710194
 31
0.0
  0
ARC
  5
9C9
330
1A
100
AcDbEntity
  8
NOKITOI
  6
PHANTOM
 62
     8
 48
5.0
100
AcDbCircle
 10
607.4605398008709
 20
227.4181861035141
 30
0.0
 40
0.4999578477751074
100
AcDbArc
 50
83.52609071220776
 51
188.1330561712924
  0
ARC
  5
9CA
330
1A
100
AcDbEntity
  8
NOKITOI
  6
PHANTOM
 62
     8
 48
5.0
100
AcDbCircle
 10
608.9792484161955
 20
221.1404926915914
 30
0.0
 40
2.000036820932882
100
AcDbArc
 50
269.9989117490339
 51
358.2110591274196
  0
LINE
  5
9CC
330
1A
100
AcDbEntity
  8
NOKITOI
  6
PHANTOM
 62
     8
 48
5.0
100
AcDbLine
 10
606.6038104283713
 20
229.1405558710192
 30
0.0
 11
605.6080104283712
 21
230.2405558710194
 31
0.0
  0
LINE
  5
9CD
330
1A
100
AcDbEntity
  8
NOKITOI
  6
PHANTOM
 62
     8
 48
5.0
100
AcDbLine
 10
608.5446104283712
 20
230.2405558710194
 30
0.0
 11
605.6080104283712
 21
230.2405558710194
 31
0.0
  0
LINE
  5
9CE
330
1A
100
AcDbEntity
  8
NOKITOI
  6
PHANTOM
 62
     8
 48
5.0
100
AcDbLine
 10
604.2394104283714
 20
231.4405558710192
 30
0.0
 11
606.4709104283713
 21
231.4405558710192
 31
0.0
  0
LINE
  5
9CF
330
1A
100
AcDbEntity
  8
NOKITOI
  6
PHANTOM
 62
     8
 48
5.0
100
AcDbLine
 10
605.5932104283713
 20
228.4689558710191
 30
0.0
 11
605.038210428371
 21
229.0819558710192
 31
0.0
  0
ARC
  5
9D0
330
1A
100
AcDbEntity
  8
NOKITOI
  6
PHANTOM
 62
     8
 48
5.0
100
AcDbCircle
 10
604.2394141378665
 20
230.9405597810499
 30
0.0
 40
0.4999960899831856
100
AcDbArc
 50
90.00042508015132
 51
183.0156217414654
  0
ARC
  5
9D2
330
1A
100
AcDbEntity
  8
NOKITOI
  6
PHANTOM
 62
     8
 48
5.0
100
AcDbCircle
 10
610.5173543947241
 20
231.9405105085462
 30
0.0
 40
0.7999453636812564
100
AcDbArc
 50
358.212343644788
 51
90.00314907315372
  0
ARC
  5
9D3
330
1A
100
AcDbEntity
  8
NOKITOI
  6
PHANTOM
 62
     8
 48
5.0
100
AcDbCircle
 10
610.5172991913771
 20
231.9405674648363
 30
0.0
 40
1.999988406214315
100
AcDbArc
 50
358.2088726535929
 51
89.99967808195611
  0
LINE
  5
9D4
330
1A
100
AcDbEntity
  8
NOKITOI
  6
PHANTOM
 62
     8
 48
5.0
100
AcDbLine
 10
606.6038104283713
 20
229.1405558710192
 30
0.0
 11
607.0658104283713
 21
229.1405558710192
 31
0.0
  0
ARC
  5
9D5
330
1A
100
AcDbEntity
  8
NOKITOI
  6
PHANTOM
 62
     8
 48
5.0
100
AcDbCircle
 10
606.4709096453627
 20
231.9405549160175
 30
0.0
 40
0.4999990449987399
100
AcDbArc
 50
270.0000897263054
 51
11.30328019845509
  0
LINE
  5
9D6
330
1A
100
AcDbEntity
  8
NOKITOI
  6
PHANTOM
 62
     8
 48
5.0
100
AcDbLine
 10
608.0446104283712
 20
232.7405558710194
 30
0.0
 11
608.5446104283712
 21
230.2405558710194
 31
0.0
  0
ARC
  5
9D7
330
1A
100
AcDbEntity
  8
NOKITOI
  6
PHANTOM
 62
     8
 48
5.0
100
AcDbCircle
 10
607.1907031738158
 20
233.4405470211758
 30
0.0
 40
0.500008849895925
100
AcDbArc
 50
89.99916870385492
 51
191.3135956695117
  0
LINE
  5
9D8
330
1A
100
AcDbEntity
  8
NOKITOI
  6
PHANTOM
 62
     8
 48
5.0
100
AcDbLine
 10
606.9612104283712
 20
232.0385558710194
 30
0.0
 11
606.7004104283712
 21
233.3425558710192
 31
0.0
  0
LINE
  5
9D9
330
1A
100
AcDbEntity
  8
NOKITOI
  6
PHANTOM
 62
     8
 48
5.0
100
AcDbLine
 10
610.5173104283714
 20
233.9404558710192
 30
0.0
 11
607.1907104283711
 21
233.9405558710192
 31
0.0
  0
LINE
  5
9DA
330
1A
100
AcDbEntity
  8
NOKITOI
  6
PHANTOM
 62
     8
 48
5.0
100
AcDbLine
 10
610.5173104283714
 20
232.7404558710191
 30
0.0
 11
608.0446104283712
 21
232.7405558710194
 31
0.0
  0
LINE
  5
A53
330
1A
100
AcDbEntity
  8
SEIHIN
100
AcDbLine
 10
246.9837661387812
 20
392.5280854079273
 30
0.0
 11
246.9837661387812
 21
375.7160370646273
 31
0.0
  0
ARC
  5
A54
330
1A
100
AcDbEntity
  8
SEIHIN
100
AcDbCircle
 10
247.9837661387812
 20
375.7160370646273
 30
0.0
 40
1.0
100
AcDbArc
 50
180.0
 51
270.0
  0
ARC
  5
A55
330
1A
100
AcDbEntity
  8
SEIHIN
100
AcDbCircle
 10
246.2337661387812
 20
392.5280854079273
 30
0.0
 40
0.75
100
AcDbArc
 50
0.000000000000007
 51
90.0
  0
LINE
  5
A56
330
1A
100
AcDbEntity
  8
SEIHIN
100
AcDbLine
 10
245.9837661387812
 20
393.2780854079274
 30
0.0
 11
246.2337661387812
 21
393.2780854079274
 31
0.0
  0
LINE
  5
A57
330
1A
100
AcDbEntity
  8
SEIHIN
100
AcDbLine
 10
246.9837661387812
 20
465.0657338489273
 30
0.0
 11
246.9837661387812
 21
475.5154306332273
 31
0.0
  0
ARC
  5
A58
330
1A
100
AcDbEntity
  8
SEIHIN
100
AcDbCircle
 10
246.2337661387812
 20
465.0657338489273
 30
0.0
 40
0.75
100
AcDbArc
 50
270.0
 51
0.000000000000007
  0
LINE
  5
A59
330
1A
100
AcDbEntity
  8
SEIHIN
100
AcDbLine
 10
245.9837661387812
 20
464.3157338489273
 30
0.0
 11
246.2337661387812
 21
464.3157338489273
 31
0.0
  0
ARC
  5
A5A
330
1A
100
AcDbEntity
  8
SEIHIN
100
AcDbCircle
 10
247.9837661387812
 20
475.5154306332273
 30
0.0
 40
1.0
100
AcDbArc
 50
90.0
 51
180.0
  0
DIMENSION
  5
ABC
330
1A
100
AcDbEntity
  8
SUNPOU
100
AcDbDimension
  2
*D1
 10
135.9837661387814
 20
284.4869958504225
 30
0.0
 11
245.9837661387813
 21
289.4869958504225
 31
0.0
 70
    32
  3
STANDARD
100
AcDbAlignedDimension
 13
355.9837661387812
 23
236.4404550744902
 33
0.0
 14
135.9837661387814
 24
236.4404550744902
 34
0.0
100
AcDbRotatedDimension
1001
ACAD
1000
DSTYLE
1002
{
1070
    41
1040
7.0
1070
    42
1040
6.0
1070
    43
1040
14.0
1070
    44
1040
3.0
1070
    73
1070
     0
1070
    74
1070
     0
1070
    77
1070
     3
1070
   140
1040
6.0
1070
   141
1040
150.0
1070
   147
1040
2.0
1070
   172
1070
     1
1070
   173
1070
     1
1070
   176
1070
     4
1070
   177
1070
     4
1070
   178
1070
     4
1070
   271
1070
     0
1070
   272
1070
     2
1070
   341
1005
6D
1070
     6
1000
OPEN
1070
     7
1000
OPEN
1002
}
  0
DIMENSION
  5
AC9
330
1A
100
AcDbEntity
  8
SUNPOU
100
AcDbDimension
  2
*D2
 10
614.6805863771617
 20
284.4869958504225
 30
0.0
 11
552.5307379849618
 21
289.4869958504225
 31
0.0
 70
    32
  3
STANDARD
100
AcDbAlignedDimension
 13
490.3808895927618
 23
233.6404550744902
 33
0.0
 14
614.6805863771617
 24
233.6404550744902
 34
0.0
100
AcDbRotatedDimension
1001
ACAD
1000
DSTYLE
1002
{
1070
    41
1040
7.0
1070
    42
1040
6.0
1070
    43
1040
14.0
1070
    44
1040
3.0
1070
    73
1070
     0
1070
    74
1070
     0
1070
    77
1070
     3
1070
   140
1040
6.0
1070
   141
1040
150.0
1070
   147
1040
2.0
1070
   172
1070
     1
1070
   173
1070
     1
1070
   176
1070
     4
1070
   177
1070
     4
1070
   178
1070
     4
1070
   271
1070
     0
1070
   272
1070
     2
1070
   341
1005
6D
1070
     6
1000
OPEN
1070
     7
1000
OPEN
1002
}
  0
DIMENSION
  5
AD6
330
1A
100
AcDbEntity
  8
SUNPOU
100
AcDbDimension
  2
*D3
 10
439.691548945058
 20
113.0404550744902
 30
0.0
 11
434.6915489450579
 21
174.3404550744903
 31
0.0
 70
    32
  3
STANDARD
100
AcDbAlignedDimension
 13
493.0808895927616
 23
235.6404550744902
 33
0.0
 14
527.1808895927615
 24
113.0404550744902
 34
0.0
 50
90.0
100
AcDbRotatedDimension
1001
ACAD
1000
DSTYLE
1002
{
1070
    41
1040
7.0
1070
    42
1040
6.0
1070
    43
1040
14.0
1070
    44
1040
3.0
1070
    73
1070
     0
1070
    74
1070
     0
1070
    77
1070
     3
1070
   140
1040
6.0
1070
   141
1040
150.0
1070
   147
1040
2.0
1070
   172
1070
     1
1070
   173
1070
     1
1070
   176
1070
     4
1070
   177
1070
     4
1070
   178
1070
     4
1070
   271
1070
     0
1070
   272
1070
     2
1070
   341
1005
6D
1070
     6
1000
OPEN
1070
     7
1000
OPEN
1002
}
  0
DIMENSION
  5
AE3
330
1A
100
AcDbEntity
  8
SUNPOU
100
AcDbDimension
  2
*D4
 10
454.2474482904185
 20
156.7404550744902
 30
0.0
 11
449.2474482904184
 21
196.1904550744903
 31
0.0
 70
    32
  3
STANDARD
100
AcDbAlignedDimension
 13
493.0808895927616
 23
235.6404550744902
 33
0.0
 14
517.1546769715616
 24
156.7404550744902
 34
0.0
 50
90.0
100
AcDbRotatedDimension
1001
ACAD
1000
DSTYLE
1002
{
1070
    41
1040
7.0
1070
    42
1040
6.0
1070
    43
1040
14.0
1070
    44
1040
3.0
1070
    73
1070
     0
1070
    74
1070
     0
1070
    77
1070
     3
1070
   140
1040
6.0
1070
   141
1040
150.0
1070
   147
1040
2.0
1070
   172
1070
     1
1070
   173
1070
     1
1070
   176
1070
     4
1070
   177
1070
     4
1070
   178
1070
     4
1070
   271
1070
     0
1070
   272
1070
     2
1070
   341
1005
6D
1070
     6
1000
OPEN
1070
     7
1000
OPEN
1002
}
  0
DIMENSION
  5
AF0
330
1A
100
AcDbEntity
  8
SUNPOU
100
AcDbDimension
  2
*D5
 10
591.3808895927618
 20
64.93290364578138
 30
0.0
 11
556.3807895927777
 21
69.93290364578138
 31
0.0
 70
    32
  1
φ<>
  3
STANDARD
100
AcDbAlignedDimension
 13
521.3806895927936
 23
119.0404150745927
 33
0.0
 14
591.3808895927618
 24
119.0402450744902
 34
0.0
100
AcDbRotatedDimension
1001
ACAD
1000
DSTYLE
1002
{
1070
    41
1040
7.0
1070
    42
1040
6.0
1070
    43
1040
14.0
1070
    44
1040
3.0
1070
    73
1070
     0
1070
    74
1070
     0
1070
    77
1070
     3
1070
   140
1040
6.0
1070
   141
1040
150.0
1070
   147
1040
2.0
1070
   172
1070
     1
1070
   173
1070
     1
1070
   176
1070
     4
1070
   177
1070
     4
1070
   178
1070
     4
1070
   271
1070
     0
1070
   272
1070
     2
1070
   341
1005
6D
1070
     6
1000
OPEN
1070
     7
1000
OPEN
1002
}
  0
DIMENSION
  5
B06
330
1A
100
AcDbEntity
  8
SUNPOU
100
AcDbDimension
  2
*D6
 10
556.3808895927616
 20
217.7949178144542
 30
0.0
 11
574.3808895927616
 21
222.7949178144542
 31
0.0
 70
    32
  3
STANDARD
100
AcDbAlignedDimension
 13
552.5808895927617
 23
197.2620109830386
 33
0.0
 14
556.3808895927616
 24
205.4961856377346
 34
0.0
100
AcDbRotatedDimension
1001
ACAD
1000
DSTYLE
1002
{
1070
    41
1040
7.0
1070
    42
1040
6.0
1070
    43
1040
14.0
1070
    44
1040
3.0
1070
    73
1070
     0
1070
    74
1070
     0
1070
    77
1070
     3
1070
   140
1040
6.0
1070
   141
1040
150.0
1070
   147
1040
2.0
1070
   172
1070
     1
1070
   173
1070
     1
1070
   176
1070
     4
1070
   177
1070
     4
1070
   178
1070
     4
1070
   271
1070
     0
1070
   272
1070
     2
1070
   341
1005
6D
1070
     6
1000
OPEN
1070
     7
1000
OPEN
1002
}
  0
DIMENSION
  5
B25
330
1A
100
AcDbEntity
  8
SUNPOU
100
AcDbDimension
  2
*D7
 10
489.5049502719316
 20
129.0407148919023
 30
0.0
 11
483.087312943207
 21
140.6455728468911
 31
0.0
 70
   160
  1
\U+203B<>
  3
STANDARD
100
AcDbAlignedDimension
 13
521.3806895927616
 23
119.0402850744902
 33
0.0
 14
519.8869684345347
 24
129.0407148919023
 34
0.0
 50
90.0
100
AcDbRotatedDimension
1001
ACAD
1000
DSTYLE
1002
{
1070
   287
1070
     5
1070
   287
1070
     5
1070
   287
1070
     5
1070
    41
1040
7.0
1070
    42
1040
6.0
1070
    43
1040
14.0
1070
    44
1040
3.0
1070
    73
1070
     0
1070
    74
1070
     0
1070
    77
1070
     3
1070
   140
1040
6.0
1070
   141
1040
150.0
1070
   147
1040
2.0
1070
   172
1070
     1
1070
   173
1070
     1
1070
   176
1070
     4
1070
   177
1070
     4
1070
   178
1070
     4
1070
   271
1070
     0
1070
   272
1070
     2
1070
   279
1070
     2
1070
   341
1005
6D
1070
     6
1000
OPEN
1070
     7
1000
OPEN
1002
}
  0
LINE
  5
B56
330
1A
100
AcDbEntity
  8
SUNPOU
  6
PHANTOM
 48
10.0
100
AcDbLine
 10
285.9837661387812
 20
365.6157338489273
 30
0.0
 11
285.9837661387812
 21
485.5154306332273
 31
0.0
  0
LINE
  5
B57
330
1A
100
AcDbEntity
  8
SUNPOU
  6
PHANTOM
 48
10.0
100
AcDbLine
 10
205.9837661387812
 20
365.6157338489273
 30
0.0
 11
205.9837661387811
 21
485.5154306332273
 31
0.0
  0
DIMENSION
  5
B58
330
1A
100
AcDbEntity
  8
SUNPOU
100
AcDbDimension
  2
*D8
 10
285.9837661387812
 20
337.0667537565202
 30
0.0
 11
320.9837661387812
 21
342.0667537565202
 31
0.0
 70
    32
  1
\U+203B<>
  3
STANDARD
100
AcDbAlignedDimension
 13
355.9837661387812
 23
364.1157338489273
 33
0.0
 14
285.9837661387812
 24
365.6157338489273
 34
0.0
100
AcDbRotatedDimension
1001
ACAD
1000
DSTYLE
1002
{
1070
    41
1040
7.0
1070
    42
1040
6.0
1070
    43
1040
14.0
1070
    44
1040
3.0
1070
    73
1070
     0
1070
    74
1070
     0
1070
    77
1070
     3
1070
   140
1040
6.0
1070
   141
1040
150.0
1070
   147
1040
2.0
1070
   172
1070
     1
1070
   173
1070
     1
1070
   176
1070
     4
1070
   177
1070
     4
1070
   178
1070
     4
1070
   271
1070
     0
1070
   272
1070
     2
1070
   341
1005
6D
1070
     6
1000
OPEN
1070
     7
1000
OPEN
1002
}
  0
DIMENSION
  5
B65
330
1A
100
AcDbEntity
  8
SUNPOU
100
AcDbDimension
  2
*D9
 10
205.9837661387812
 20
337.0667537565202
 30
0.0
 11
245.9837661387812
 21
342.0667537565202
 31
0.0
 70
    32
  3
STANDARD
100
AcDbAlignedDimension
 13
285.9837661387812
 23
365.6157338489273
 33
0.0
 14
205.9837661387812
 24
365.6157338489273
 34
0.0
100
AcDbRotatedDimension
1001
ACAD
1000
DSTYLE
1002
{
1070
   287
1070
     4
1070
   287
1070
     4
1070
   287
1070
     4
1070
   279
1070
     1
1070
    41
1040
7.0
1070
    42
1040
6.0
1070
    43
1040
14.0
1070
    44
1040
3.0
1070
    73
1070
     0
1070
    74
1070
     0
1070
    77
1070
     3
1070
   140
1040
6.0
1070
   141
1040
150.0
1070
   147
1040
2.0
1070
   172
1070
     1
1070
   173
1070
     1
1070
   176
1070
     4
1070
   177
1070
     4
1070
   178
1070
     4
1070
   271
1070
     0
1070
   272
1070
     2
1070
   341
1005
6D
1070
     6
1000
OPEN
1070
     7
1000
OPEN
1002
}
  0
DIMENSION
  5
B72
330
1A
100
AcDbEntity
  8
SUNPOU
100
AcDbDimension
  2
*D10
 10
135.9837661387814
 20
337.0667537565202
 30
0.0
 11
170.9837661387813
 21
342.0667537565202
 31
0.0
 70
    32
  1
\U+203B<>
  3
STANDARD
100
AcDbAlignedDimension
 13
205.9837661387812
 23
365.6157338489273
 33
0.0
 14
135.9837661387814
 24
364.1157338489273
 34
0.0
100
AcDbRotatedDimension
1001
ACAD
1000
DSTYLE
1002
{
1070
   287
1070
     4
1070
   287
1070
     4
1070
   287
1070
     4
1070
   279
1070
     1
1070
    41
1040
7.0
1070
    42
1040
6.0
1070
    43
1040
14.0
1070
    44
1040
3.0
1070
    73
1070
     0
1070
    74
1070
     0
1070
    77
1070
     3
1070
   140
1040
6.0
1070
   141
1040
150.0
1070
   147
1040
2.0
1070
   172
1070
     1
1070
   173
1070
     1
1070
   176
1070
     4
1070
   177
1070
     4
1070
   178
1070
     4
1070
   271
1070
     0
1070
   272
1070
     2
1070
   341
1005
6D
1070
     6
1000
OPEN
1070
     7
1000
OPEN
1002
}
  0
DIMENSION
  5
BD0
330
1A
100
AcDbEntity
  8
SUNPOU
100
AcDbDimension
  2
*D11
 10
469.9334162383125
 20
178.9405558710192
 30
0.0
 11
464.9334162383124
 21
207.2905054727548
 31
0.0
 70
    32
  3
STANDARD
100
AcDbAlignedDimension
 13
493.0808895927616
 23
235.6404550744902
 33
0.0
 14
544.3944104283712
 24
178.9405558710192
 34
0.0
 50
90.0
100
AcDbRotatedDimension
1001
ACAD
1000
DSTYLE
1002
{
1070
    41
1040
7.0
1070
    42
1040
6.0
1070
    43
1040
14.0
1070
    44
1040
3.0
1070
    73
1070
     0
1070
    74
1070
     0
1070
    77
1070
     3
1070
   140
1040
6.0
1070
   141
1040
150.0
1070
   147
1040
2.0
1070
   172
1070
     1
1070
   173
1070
     1
1070
   176
1070
     4
1070
   177
1070
     4
1070
   178
1070
     4
1070
   271
1070
     0
1070
   272
1070
     2
1070
   341
1005
6D
1070
     6
1000
OPEN
1070
     7
1000
OPEN
1002
}
  0
DIMENSION
  5
C91
330
1A
100
AcDbEntity
  8
SUNPOU
100
AcDbDimension
  2
*D12
 10
355.9837661387812
 20
322.3410932186882
 30
0.0
 11
245.9837661387813
 21
327.3410932186882
 31
0.0
 70
    32
  3
STANDARD
100
AcDbAlignedDimension
 13
135.9837661387814
 23
364.1157338489273
 33
0.0
 14
355.9837661387812
 24
364.1157338489273
 34
0.0
100
AcDbRotatedDimension
1001
ACAD
1000
DSTYLE
1002
{
1070
    41
1040
7.0
1070
    42
1040
6.0
1070
    43
1040
14.0
1070
    44
1040
3.0
1070
    73
1070
     0
1070
    74
1070
     0
1070
    77
1070
     3
1070
   140
1040
6.0
1070
   141
1040
150.0
1070
   147
1040
2.0
1070
   172
1070
     1
1070
   173
1070
     1
1070
   176
1070
     4
1070
   177
1070
     4
1070
   178
1070
     4
1070
   271
1070
     0
1070
   272
1070
     2
1070
   341
1005
6D
1070
     6
1000
OPEN
1070
     7
1000
OPEN
1002
}
  0
LWPOLYLINE
  5
E54
330
1A
100
AcDbEntity
  8
ZUWAKU
100
AcDbPolyline
 90
        4
 70
     1
 43
0.0
 10
0.80000097256152
 20
550.7999999190697
 10
0.80000097256152
 20
0.7999999190697054
 10
796.8000009725614
 20
0.7999999190697054
 10
796.8000009725614
 20
550.7999999190697
  0
LWPOLYLINE
  5
E55
330
1A
100
AcDbEntity
  8
ZUWAKU
100
AcDbPolyline
 90
        4
 70
     1
 43
0.0
 10
0.4000009725615428
 20
551.1999999190696
 10
0.4000009725615428
 20
0.3999999190697281
 10
797.2000009725616
 20
0.399999919069705
 10
797.2000009725616
 20
551.1999999190696
  0
LWPOLYLINE
  5
E56
330
1A
100
AcDbEntity
  8
ZUWAKU
100
AcDbPolyline
 90
        4
 70
     1
 43
0.0
 10
0.0000009725615655
 20
551.5999999190696
 10
0.0000009725615655
 20
-0.0000000809303629
 10
797.6000009725617
 20
-0.0000000809302954
 10
797.6000009725617
 20
551.5999999190698
  0
LWPOLYLINE
  5
E57
330
1A
100
AcDbEntity
  8
ZUWAKU
100
AcDbPolyline
 90
        4
 70
     1
 43
0.0
 10
0.6000009725614746
 20
550.9999999190697
 10
0.6000009725614746
 20
0.5999999190696599
 10
797.0000009725618
 20
0.5999999190697061
 10
797.0000009725615
 20
550.9999999190697
  0
LWPOLYLINE
  5
E58
330
1A
100
AcDbEntity
  8
ZUWAKU
100
AcDbPolyline
 90
        4
 70
     1
 43
0.0
 10
0.2000009725614973
 20
551.3999999190697
 10
0.2000009725614973
 20
0.1999999190696826
 10
797.4000009725614
 20
0.1999999190697057
 10
797.4000009725616
 20
551.3999999190697
  0
LINE
  5
E59
330
1A
100
AcDbEntity
  8
ZUWAKU
100
AcDbLine
 10
0.0000009725615655
 20
29.99999991906964
 30
0.0
 11
797.4000009725614
 21
29.99999991906964
 31
0.0
  0
LINE
  5
E5A
330
1A
100
AcDbEntity
  8
ZUWAKU
100
AcDbLine
 10
0.0000009725615655
 20
30.19999991906963
 30
0.0
 11
797.4000009725614
 21
30.19999991906963
 31
0.0
  0
LINE
  5
E5B
330
1A
100
AcDbEntity
  8
ZUWAKU
100
AcDbLine
 10
0.0000009725615655
 20
30.39999991906964
 30
0.0
 11
797.4000009725614
 21
30.39999991906964
 31
0.0
  0
LINE
  5
E5C
330
1A
100
AcDbEntity
  8
ZUWAKU
100
AcDbLine
 10
0.0000009725615655
 20
30.59999991906964
 30
0.0
 11
797.4000009725614
 21
30.59999991906964
 31
0.0
  0
LINE
  5
E5D
330
1A
100
AcDbEntity
  8
ZUWAKU
100
AcDbLine
 10
0.0000009725615655
 20
30.79999991906964
 30
0.0
 11
797.4000009725614
 21
30.79999991906964
 31
0.0
  0
LINE
  5
E5E
330
1A
100
AcDbEntity
  8
ZUWAKU
100
AcDbLine
 10
208.6466022626296
 20
15.39999991906967
 30
0.0
 11
447.4243649435529
 21
15.39999991906967
 31
0.0
  0
LINE
  5
E5F
330
1A
100
AcDbEntity
  8
ZUWAKU
100
AcDbLine
 10
208.6466022626296
 20
15.59999991906967
 30
0.0
 11
447.4243649435529
 21
15.59999991906967
 31
0.0
  0
LINE
  5
E60
330
1A
100
AcDbEntity
  8
ZUWAKU
100
AcDbLine
 10
208.6466022626296
 20
15.19999991906967
 30
0.0
 11
447.4243649435529
 21
15.19999991906966
 31
0.0
  0
TEXT
  5
E61
330
1A
100
AcDbEntity
  8
MOJI
100
AcDbText
 10
92.95779056073071
 20
12.74117804934439
 30
0.0
 40
6.0
  1
新・丸トップＲＶ１０５
 41
0.9
  7
ｽﾀｲﾙ1
100
AcDbText
  0
CIRCLE
  5
E62
330
1A
100
AcDbEntity
  8
ZUWAKU
100
AcDbCircle
 10
25.99221312734266
 20
15.19999991906963
 30
0.0
 40
1.75
  0
LINE
  5
E63
330
1A
100
AcDbEntity
  8
ZUWAKU
100
AcDbLine
 10
26.86721312734266
 20
7.149999919069642
 30
0.0
 11
24.94221312734271
 21
7.149999919069642
 31
0.0
  0
LINE
  5
E64
330
1A
100
AcDbEntity
  8
ZUWAKU
100
AcDbLine
 10
24.94221312734271
 20
9.949999919069639
 30
0.0
 11
26.86721312734266
 21
9.949999919069639
 31
0.0
  0
LINE
  5
E65
330
1A
100
AcDbEntity
  8
ZUWAKU
100
AcDbLine
 10
26.86721312734266
 20
20.44999991906963
 30
0.0
 11
24.94221312734271
 21
20.44999991906963
 31
0.0
  0
LINE
  5
E66
330
1A
100
AcDbEntity
  8
ZUWAKU
100
AcDbLine
 10
24.94221312734271
 20
23.2499999190696
 30
0.0
 11
26.86721312734266
 21
23.24999991906964
 31
0.0
  0
HATCH
  5
E67
330
1A
100
AcDbEntity
  8
ZUWAKU
100
AcDbHatch
 10
0.0
 20
0.0
 30
0.0
210
0.0
220
0.0
230
1.0
  2
ANSI37
 70
     0
 71
     0
 91
        8
 92
        7
 72
     1
 73
     1
 93
       24
 10
14.50226363368142
 20
17.64484840005322
 42
-0.1989123673796348
 10
14.09221312734269
 20
18.63479789371427
 42
0.0
 10
14.09221312734269
 20
19.92499991906965
 42
-0.4142135623730912
 10
14.61721312734266
 20
20.44999991906963
 42
0.0
 10
17.59221312734257
 20
20.44999991906963
 42
0.4142135623731546
 10
18.11721312734266
 20
20.97499991906963
 42
0.0
 10
18.11721312734266
 20
22.72499991906964
 42
0.4142135623731586
 10
17.59221312734257
 20
23.24999991906964
 42
0.0
 10
14.09221312734269
 20
23.24999991906964
 42
0.4142135623730928
 10
11.29221312734273
 20
20.44999991906967
 42
0.0
 10
11.29221312734273
 20
18.6347978937144
 42
0.1989123673796619
 10
12.52236464635916
 20
15.66494941273079
 42
0.0
 10
15.43216262100384
 20
12.75515143808613
 42
-0.1989123673796613
 10
15.84221312734269
 20
11.76520194442494
 42
0.0
 10
15.84221312734269
 20
10.47499991906963
 42
-0.4142135623730911
 10
15.31721312734271
 20
9.949999919069639
 42
0.0
 10
12.3422131273428
 20
9.949999919069639
 42
0.4142135623731526
 10
11.81721312734271
 20
9.424999919069652
 42
0.0
 10
11.81721312734271
 20
7.67499991906963
 42
0.4142135623731526
 10
12.3422131273428
 20
7.149999919069642
 42
0.0
 10
15.84221312734269
 20
7.149999919069642
 42
0.4142135623731044
 10
18.64221312734275
 20
9.949999919069618
 42
0.0
 10
18.64221312734275
 20
11.76520194442489
 42
0.1989123673796604
 10
17.41206160832621
 20
14.73505042540843
 42
0.0
 97
        0
 92
        7
 72
     1
 73
     1
 93
       16
 10
23.54221312734273
 20
19.04999991906964
 42
-0.4142135623730935
 10
24.94221312734271
 20
20.44999991906963
 42
0.0
 10
26.86721312734266
 20
20.44999991906963
 42
0.4142135623731546
 10
27.39221312734275
 20
20.97499991906963
 42
0.0
 10
27.39221312734275
 20
22.72499991906964
 42
0.4142135623730951
 10
26.86721312734277
 20
23.24999991906964
 42
0.0
 10
24.94221312734259
 20
23.2499999190696
 42
0.4142135623730892
 10
20.74221312734266
 20
19.04999991906957
 42
0.0
 10
20.74221312734266
 20
11.34999991906966
 42
0.4142135623730969
 10
24.94221312734271
 20
7.149999919069642
 42
0.0
 10
26.86721312734266
 20
7.149999919069642
 42
0.4142135623731526
 10
27.39221312734275
 20
7.67499991906963
 42
0.0
 10
27.39221312734275
 20
9.424999919069652
 42
0.4142135623730891
 10
26.86721312734277
 20
9.949999919069639
 42
0.0
 10
24.94221312734271
 20
9.949999919069639
 42
-0.4142135623730928
 10
23.54221312734273
 20
11.34999991906962
 42
0.0
 97
        0
 92
        7
 72
     1
 73
     1
 93
        2
 10
24.24221312734266
 20
15.19999991906963
 42
1.0
 10
27.74221312734266
 20
15.19999991906963
 42
1.0
 97
        0
 92
        7
 72
     1
 73
     1
 93
       26
 10
37.31485960952068
 20
19.20504711263306
 42
0.0
 10
38.3764992426585
 20
22.56690595090265
 42
0.5069206636600134
 10
37.87586834346313
 20
23.24999991906964
 42
0.0
 10
36.17697896385391
 20
23.24999991906964
 42
0.3272098845218764
 10
35.67634806465855
 20
22.88309388723661
 42
0.0
 10
33.80807819002678
 20
16.96690595090272
 42
-0.3272098845219541
 10
33.3074472908313
 20
16.59999991906963
 42
0.0
 10
33.16721312734284
 20
16.59999991906963
 42
-0.4142135623731526
 10
32.64221312734275
 20
17.12499991906962
 42
0.0
 10
32.64221312734275
 20
22.72499991906964
 42
0.4142135623730951
 10
32.11721312734278
 20
23.24999991906964
 42
0.0
 10
30.36721312734266
 20
23.24999991906964
 42
0.4142135623730871
 10
29.84221312734268
 20
22.72499991906966
 42
0.0
 10
29.84221312734268
 20
7.67499991906963
 42
0.4142135623730891
 10
30.36721312734266
 20
7.149999919069642
 42
0.0
 10
32.11721312734266
 20
7.149999919069642
 42
0.4142135623731526
 10
32.64221312734275
 20
7.67499991906963
 42
0.0
 10
32.64221312734275
 20
13.27499991906965
 42
-0.4142135623731526
 10
33.16721312734284
 20
13.79999991906964
 42
0.0
 10
33.30744729083142
 20
13.79999991906964
 42
-0.3272098845218915
 10
33.80807819002678
 20
13.43309388723656
 42
0.0
 10
35.67634806465855
 20
7.516905950902714
 42
0.3272098845218902
 10
36.17697896385391
 20
7.149999919069642
 42
0.0
 10
37.87586834346313
 20
7.149999919069642
 42
0.5069206636600335
 10
38.3764992426585
 20
7.83309388723665
 42
0.0
 10
36.05010786418484
 20
15.19999991906978
 42
0.0
 97
        0
 92
        7
 72
     1
 73
     1
 93
        8
 10
43.49221312734266
 20
22.72499991906965
 42
0.4142135623731546
 10
42.96721312734257
 20
23.24999991906964
 42
0.0
 10
41.2172131273428
 20
23.24999991906964
 42
0.4142135623731507
 10
40.69221312734271
 20
22.72499991906966
 42
0.0
 10
40.69221312734271
 20
7.67499991906963
 42
0.4142135623731526
 10
41.2172131273428
 20
7.149999919069642
 42
0.0
 10
42.96721312734257
 20
7.149999919069642
 42
0.4142135623731526
 10
43.49221312734266
 20
7.67499991906963
 42
0.0
 97
        0
 92
        7
 72
     1
 73
     1
 93
       24
 10
48.39221312734276
 20
19.92499991906965
 42
-0.4142135623731546
 10
48.91721312734285
 20
20.44999991906963
 42
0.0
 10
51.89221312734275
 20
20.44999991906963
 42
0.4142135623730911
 10
52.41721312734274
 20
20.97499991906963
 42
0.0
 10
52.41721312734274
 20
22.72499991906964
 42
0.4142135623730952
 10
51.89221312734275
 20
23.24999991906964
 42
0.0
 10
48.39221312734276
 20
23.24999991906964
 42
0.4142135623731048
 10
45.59221312734268
 20
20.44999991906967
 42
0.0
 10
45.59221312734268
 20
18.6347978937144
 42
0.1989123673796613
 10
46.82236464635923
 20
15.66494941273084
 42
0.0
 10
49.73216262100391
 20
12.75515143808618
 42
-0.1989123673796402
 10
50.14221312734275
 20
11.7652019444251
 42
0.0
 10
50.14221312734275
 20
10.47499991906963
 42
-0.4142135623730911
 10
49.61721312734278
 20
9.949999919069639
 42
0.0
 10
46.64221312734276
 20
9.949999919069639
 42
0.4142135623731526
 10
46.11721312734267
 20
9.424999919069652
 42
0.0
 10
46.11721312734267
 20
7.67499991906963
 42
0.4142135623730891
 10
46.64221312734264
 20
7.149999919069642
 42
0.0
 10
50.14221312734275
 20
7.149999919069642
 42
0.4142135623730925
 10
52.94221312734271
 20
9.949999919069618
 42
0.0
 10
52.94221312734271
 20
11.76520194442489
 42
0.1989123673796675
 10
51.71206160832617
 20
14.73505042540854
 42
0.0
 10
48.8022636336816
 20
17.64484840005306
 42
-0.1989123673796652
 10
48.39221312734276
 20
18.63479789371423
 42
0.0
 97
        0
 92
        7
 72
     1
 73
     1
 93
       16
 10
57.84221312734269
 20
22.72499991906963
 42
0.414213562373103
 10
57.31721312734271
 20
23.24999991906964
 42
0.0
 10
55.56721312734271
 20
23.24999991906964
 42
0.4142135623730871
 10
55.04221312734273
 20
22.72499991906966
 42
0.0
 10
55.04221312734273
 20
9.949999919069618
 42
0.4142135623730926
 10
57.84221312734269
 20
7.149999919069642
 42
0.0
 10
61.34221312734268
 20
7.149999919069642
 42
0.4142135623731044
 10
64.14221312734276
 20
9.949999919069618
 42
0.0
 10
64.14221312734276
 20
22.72499991906964
 42
0.4142135623730951
 10
63.61721312734278
 20
23.24999991906964
 42
0.0
 10
61.86721312734267
 20
23.24999991906964
 42
0.4142135623730871
 10
61.34221312734268
 20
22.72499991906966
 42
0.0
 10
61.34221312734268
 20
10.99999991906961
 42
-0.414213562373088
 10
60.29221312734273
 20
9.949999919069639
 42
0.0
 10
58.89221312734275
 20
9.949999919069639
 42
-0.4142135623731197
 10
57.84221312734269
 20
10.99999991906961
 42
0.0
 97
        0
 92
        7
 72
     1
 73
     1
 93
        8
 10
69.04221312734273
 20
22.72499991906966
 42
0.4142135623730871
 10
68.51721312734276
 20
23.24999991906964
 42
0.0
 10
66.76721312734276
 20
23.24999991906964
 42
0.4142135623731507
 10
66.24221312734267
 20
22.72499991906966
 42
0.0
 10
66.24221312734267
 20
7.67499991906963
 42
0.4142135623730891
 10
66.76721312734264
 20
7.149999919069642
 42
0.0
 10
68.51721312734276
 20
7.149999919069642
 42
0.4142135623730891
 10
69.04221312734273
 20
7.67499991906963
 42
0.0
 97
        0
 75
     0
 76
     1
 52
0.0
 41
0.2
 77
     0
 78
     2
 53
45.0
 43
-900.9423033621173
 44
-13.20000008093029
 45
-0.4490128060534576
 46
0.4490128060534577
 79
     0
 53
135.0
 43
-900.9423033621173
 44
-13.20000008093029
 45
-0.4490128060534577
 46
-0.4490128060534576
 79
     0
 47
0.057451373970553
 98
        8
 10
16.07985593558487
 20
15.16717356495519
 10
22.40451597900073
 20
18.84406210152064
 10
25.16436885822122
 20
15.51188156514035
 10
30.9140609541987
 20
16.20129756551114
 10
41.8384729915183
 20
16.66090983305275
 10
46.89820186769111
 20
19.41857623547685
 10
56.55768694496192
 20
18.72915783416465
 10
67.8270805921843
 20
19.18877010170626
  0
ARC
  5
E68
330
1A
100
AcDbEntity
  8
ZUWAKU
100
AcDbCircle
 10
15.49221312734266
 20
18.63479789371434
 30
0.0
 40
4.199999999999999
100
AcDbArc
 50
180.0
 51
225.0
  0
LINE
  5
E69
330
1A
100
AcDbEntity
  8
ZUWAKU
100
AcDbLine
 10
20.74221312734266
 20
11.34999991906964
 30
0.0
 11
20.74221312734266
 21
19.0499999190696
 31
0.0
  0
LINE
  5
E6A
330
1A
100
AcDbEntity
  8
ZUWAKU
100
AcDbLine
 10
23.54221312734273
 20
19.04999991906964
 30
0.0
 11
23.54221312734273
 21
11.34999991906964
 31
0.0
  0
ARC
  5
E6B
330
1A
100
AcDbEntity
  8
ZUWAKU
100
AcDbCircle
 10
15.49221312734266
 20
18.63479789371434
 30
0.0
 40
1.399999999999999
100
AcDbArc
 50
180.0000000000016
 51
224.9999999999988
  0
ARC
  5
E6C
330
1A
100
AcDbEntity
  8
ZUWAKU
100
AcDbCircle
 10
24.94221312734271
 20
11.34999991906964
 30
0.0
 40
4.199999999999999
100
AcDbArc
 50
180.0
 51
270.0
  0
ARC
  5
E6D
330
1A
100
AcDbEntity
  8
ZUWAKU
100
AcDbCircle
 10
15.84221312734269
 20
9.949999919069639
 30
0.0
 40
2.799999999999999
100
AcDbArc
 50
270.0
 51
0.0
  0
ARC
  5
E6E
330
1A
100
AcDbEntity
  8
ZUWAKU
100
AcDbCircle
 10
14.44221312734271
 20
11.76520194442494
 30
0.0
 40
4.199999999999999
100
AcDbArc
 50
0.0
 51
45.0
  0
LINE
  5
E6F
330
1A
100
AcDbEntity
  8
ZUWAKU
100
AcDbLine
 10
12.52236464635916
 20
15.66494941273082
 30
0.0
 11
15.43216262100384
 21
12.75515143808616
 31
0.0
  0
LINE
  5
E70
330
1A
100
AcDbEntity
  8
ZUWAKU
100
AcDbLine
 10
12.34221312734268
 20
9.949999919069639
 30
0.0
 11
15.31721312734271
 21
9.949999919069639
 31
0.0
  0
LINE
  5
E71
330
1A
100
AcDbEntity
  8
ZUWAKU
100
AcDbLine
 10
12.34221312734268
 20
7.149999919069642
 30
0.0
 11
15.84221312734269
 21
7.149999919069642
 31
0.0
  0
ARC
  5
E72
330
1A
100
AcDbEntity
  8
ZUWAKU
100
AcDbCircle
 10
12.34221312734268
 20
9.424999919069641
 30
0.0
 40
0.525
100
AcDbArc
 50
90.0
 51
180.0
  0
ARC
  5
E73
330
1A
100
AcDbEntity
  8
ZUWAKU
100
AcDbCircle
 10
12.34221312734268
 20
7.674999919069641
 30
0.0
 40
0.525
100
AcDbArc
 50
180.0
 51
270.0
  0
LINE
  5
E74
330
1A
100
AcDbEntity
  8
ZUWAKU
100
AcDbLine
 10
11.81721312734271
 20
7.674999919069641
 30
0.0
 11
11.81721312734271
 21
9.424999919069641
 31
0.0
  0
ARC
  5
E75
330
1A
100
AcDbEntity
  8
ZUWAKU
100
AcDbCircle
 10
14.44221312734271
 20
11.76520194442498
 30
0.0
 40
1.399999999999999
100
AcDbArc
 50
0.0
 51
45.0
  0
ARC
  5
E76
330
1A
100
AcDbEntity
  8
ZUWAKU
100
AcDbCircle
 10
15.31721312734271
 20
10.47499991906964
 30
0.0
 40
0.525
100
AcDbArc
 50
270.0
 51
0.0
  0
LINE
  5
E77
330
1A
100
AcDbEntity
  8
ZUWAKU
100
AcDbLine
 10
15.84221312734269
 20
10.47499991906964
 30
0.0
 11
15.84221312734269
 21
11.76520194442498
 31
0.0
  0
LINE
  5
E78
330
1A
100
AcDbEntity
  8
ZUWAKU
100
AcDbLine
 10
17.41206160832621
 20
14.73505042540846
 30
0.0
 11
14.50226363368153
 21
17.64484840005314
 31
0.0
  0
ARC
  5
E79
330
1A
100
AcDbEntity
  8
ZUWAKU
100
AcDbCircle
 10
24.94221312734271
 20
11.34999991906964
 30
0.0
 40
1.399999999999999
100
AcDbArc
 50
180.0
 51
270.0
  0
LINE
  5
E7A
330
1A
100
AcDbEntity
  8
ZUWAKU
100
AcDbLine
 10
18.64221312734275
 20
9.949999919069639
 30
0.0
 11
18.64221312734275
 21
11.76520194442498
 31
0.0
  0
ARC
  5
E7B
330
1A
100
AcDbEntity
  8
ZUWAKU
100
AcDbCircle
 10
17.59221312734268
 20
20.97499991906964
 30
0.0
 40
0.525
100
AcDbArc
 50
270.0
 51
0.0
  0
ARC
  5
E7C
330
1A
100
AcDbEntity
  8
ZUWAKU
100
AcDbCircle
 10
17.59221312734268
 20
22.72499991906963
 30
0.0
 40
0.525
100
AcDbArc
 50
0.0
 51
90.0
  0
ARC
  5
E7D
330
1A
100
AcDbEntity
  8
ZUWAKU
100
AcDbCircle
 10
14.09221312734269
 20
20.44999991906963
 30
0.0
 40
2.799999999999999
100
AcDbArc
 50
90.0
 51
180.0
  0
LINE
  5
E7E
330
1A
100
AcDbEntity
  8
ZUWAKU
100
AcDbLine
 10
11.29221312734273
 20
20.44999991906963
 30
0.0
 11
11.29221312734273
 21
18.6347978937143
 31
0.0
  0
LINE
  5
E7F
330
1A
100
AcDbEntity
  8
ZUWAKU
100
AcDbLine
 10
17.59221312734268
 20
20.44999991906963
 30
0.0
 11
14.61721312734266
 21
20.44999991906963
 31
0.0
  0
LINE
  5
E80
330
1A
100
AcDbEntity
  8
ZUWAKU
100
AcDbLine
 10
14.09221312734269
 20
19.92499991906964
 30
0.0
 11
14.09221312734269
 21
18.6347978937143
 31
0.0
  0
ARC
  5
E81
330
1A
100
AcDbEntity
  8
ZUWAKU
100
AcDbCircle
 10
14.61721312734266
 20
19.92499991906964
 30
0.0
 40
0.525
100
AcDbArc
 50
90.0
 51
180.0
  0
LINE
  5
E82
330
1A
100
AcDbEntity
  8
ZUWAKU
100
AcDbLine
 10
14.09221312734269
 20
23.24999991906964
 30
0.0
 11
17.59221312734268
 21
23.24999991906964
 31
0.0
  0
ARC
  5
E83
330
1A
100
AcDbEntity
  8
ZUWAKU
100
AcDbCircle
 10
24.94221312734271
 20
19.0499999190696
 30
0.0
 40
4.199999999999999
100
AcDbArc
 50
90.0
 51
180.0
  0
ARC
  5
E84
330
1A
100
AcDbEntity
  8
ZUWAKU
100
AcDbCircle
 10
24.94221312734271
 20
19.04999991906964
 30
0.0
 40
1.399999999999999
100
AcDbArc
 50
90.0
 51
180.0
  0
LINE
  5
E85
330
1A
100
AcDbEntity
  8
ZUWAKU
100
AcDbLine
 10
18.11721312734266
 20
22.72499991906963
 30
0.0
 11
18.11721312734266
 21
20.97499991906964
 31
0.0
  0
LINE
  5
E86
330
1A
100
AcDbEntity
  8
ZUWAKU
100
AcDbLine
 10
35.67634806465855
 20
22.88309388723661
 30
0.0
 11
33.80807819002678
 21
16.96690595090267
 31
0.0
  0
LINE
  5
E87
330
1A
100
AcDbEntity
  8
ZUWAKU
100
AcDbLine
 10
29.84221312734268
 20
22.72499991906963
 30
0.0
 11
29.84221312734268
 21
7.674999919069641
 31
0.0
  0
LINE
  5
E88
330
1A
100
AcDbEntity
  8
ZUWAKU
100
AcDbLine
 10
32.64221312734275
 20
17.12499991906964
 30
0.0
 11
32.64221312734275
 21
22.72499991906963
 31
0.0
  0
LINE
  5
E89
330
1A
100
AcDbEntity
  8
ZUWAKU
100
AcDbLine
 10
57.84221312734269
 20
10.99999991906963
 30
0.0
 11
57.84221312734269
 21
22.72499991906963
 31
0.0
  0
LINE
  5
E8A
330
1A
100
AcDbEntity
  8
ZUWAKU
100
AcDbLine
 10
55.04221312734273
 20
22.72499991906963
 30
0.0
 11
55.04221312734273
 21
9.949999919069639
 31
0.0
  0
LINE
  5
E8B
330
1A
100
AcDbEntity
  8
ZUWAKU
100
AcDbLine
 10
43.49221312734266
 20
7.674999919069641
 30
0.0
 11
43.49221312734266
 21
22.72499991906963
 31
0.0
  0
LINE
  5
E8C
330
1A
100
AcDbEntity
  8
ZUWAKU
100
AcDbLine
 10
40.69221312734271
 20
22.72499991906963
 30
0.0
 11
40.69221312734271
 21
7.674999919069641
 31
0.0
  0
LINE
  5
E8D
330
1A
100
AcDbEntity
  8
ZUWAKU
100
AcDbLine
 10
37.31485960952068
 20
19.20504711263306
 30
0.0
 11
36.05010786418484
 21
15.19999991906966
 31
0.0
  0
ARC
  5
E8E
330
1A
100
AcDbEntity
  8
ZUWAKU
100
AcDbCircle
 10
49.79221312734273
 20
18.63479789371434
 30
0.0
 40
4.199999999999999
100
AcDbArc
 50
180.0
 51
225.0
  0
ARC
  5
E8F
330
1A
100
AcDbEntity
  8
ZUWAKU
100
AcDbCircle
 10
49.79221312734273
 20
18.63479789371434
 30
0.0
 40
1.399999999999999
100
AcDbArc
 50
180.0000000000016
 51
224.9999999999988
  0
LINE
  5
E90
330
1A
100
AcDbEntity
  8
ZUWAKU
100
AcDbLine
 10
66.24221312734267
 20
22.72499991906963
 30
0.0
 11
66.24221312734267
 21
7.674999919069641
 31
0.0
  0
LINE
  5
E91
330
1A
100
AcDbEntity
  8
ZUWAKU
100
AcDbLine
 10
69.04221312734273
 20
7.674999919069641
 30
0.0
 11
69.04221312734273
 21
22.72499991906963
 31
0.0
  0
LINE
  5
E92
330
1A
100
AcDbEntity
  8
ZUWAKU
100
AcDbLine
 10
61.34221312734268
 20
22.72499991906963
 30
0.0
 11
61.34221312734268
 21
10.99999991906963
 31
0.0
  0
LINE
  5
E93
330
1A
100
AcDbEntity
  8
ZUWAKU
100
AcDbLine
 10
64.14221312734276
 20
9.949999919069639
 30
0.0
 11
64.14221312734276
 21
22.72499991906963
 31
0.0
  0
LINE
  5
E94
330
1A
100
AcDbEntity
  8
ZUWAKU
100
AcDbLine
 10
79.12663052054995
 20
29.99999991906964
 30
0.0
 11
79.12663052054995
 21
0.7999999190697054
 31
0.0
  0
LINE
  5
E95
330
1A
100
AcDbEntity
  8
ZUWAKU
100
AcDbLine
 10
79.52663052054981
 20
29.99999991906964
 30
0.0
 11
79.52663052055005
 21
0.7999999190697054
 31
0.0
  0
LINE
  5
E96
330
1A
100
AcDbEntity
  8
ZUWAKU
100
AcDbLine
 10
79.32663052054977
 20
29.99999991906964
 30
0.0
 11
79.32663052055
 21
0.7999999190697054
 31
0.0
  0
LINE
  5
E97
330
1A
100
AcDbEntity
  8
ZUWAKU
100
AcDbLine
 10
57.84221312734269
 20
7.149999919069642
 30
0.0
 11
61.34221312734268
 21
7.149999919069642
 31
0.0
  0
LINE
  5
E98
330
1A
100
AcDbEntity
  8
ZUWAKU
100
AcDbLine
 10
60.29221312734273
 20
9.949999919069639
 30
0.0
 11
58.89221312734275
 21
9.949999919069639
 31
0.0
  0
LINE
  5
E99
330
1A
100
AcDbEntity
  8
ZUWAKU
100
AcDbLine
 10
41.21721312734268
 20
7.149999919069642
 30
0.0
 11
42.96721312734269
 21
7.149999919069642
 31
0.0
  0
LINE
  5
E9A
330
1A
100
AcDbEntity
  8
ZUWAKU
100
AcDbLine
 10
35.67634806465855
 20
7.516905950902668
 30
0.0
 11
33.80807819002678
 21
13.4330938872366
 31
0.0
  0
ARC
  5
E9B
330
1A
100
AcDbEntity
  8
ZUWAKU
100
AcDbCircle
 10
33.16721312734273
 20
13.27499991906964
 30
0.0
 40
0.525
100
AcDbArc
 50
90.0
 51
180.0
  0
ARC
  5
E9C
330
1A
100
AcDbEntity
  8
ZUWAKU
100
AcDbCircle
 10
33.30744729083142
 20
13.27499991906964
 30
0.0
 40
0.525
100
AcDbArc
 50
17.52556837372303
 51
90.0
  0
ARC
  5
E9D
330
1A
100
AcDbEntity
  8
ZUWAKU
100
AcDbCircle
 10
30.36721312734266
 20
7.674999919069641
 30
0.0
 40
0.525
100
AcDbArc
 50
180.0
 51
270.0
  0
ARC
  5
E9E
330
1A
100
AcDbEntity
  8
ZUWAKU
100
AcDbCircle
 10
26.86721312734266
 20
9.424999919069641
 30
0.0
 40
0.525
100
AcDbArc
 50
0.0
 51
90.0
  0
ARC
  5
E9F
330
1A
100
AcDbEntity
  8
ZUWAKU
100
AcDbCircle
 10
26.86721312734266
 20
7.674999919069641
 30
0.0
 40
0.525
100
AcDbArc
 50
270.0
 51
0.0
  0
LINE
  5
EA0
330
1A
100
AcDbEntity
  8
ZUWAKU
100
AcDbLine
 10
27.39221312734275
 20
9.424999919069641
 30
0.0
 11
27.39221312734275
 21
7.674999919069641
 31
0.0
  0
LINE
  5
EA1
330
1A
100
AcDbEntity
  8
ZUWAKU
100
AcDbLine
 10
32.64221312734275
 20
7.674999919069641
 30
0.0
 11
32.64221312734275
 21
13.27499991906964
 31
0.0
  0
ARC
  5
EA2
330
1A
100
AcDbEntity
  8
ZUWAKU
100
AcDbCircle
 10
32.11721312734266
 20
7.674999919069641
 30
0.0
 40
0.525
100
AcDbArc
 50
270.0
 51
0.0
  0
LINE
  5
EA3
330
1A
100
AcDbEntity
  8
ZUWAKU
100
AcDbLine
 10
30.36721312734266
 20
7.149999919069642
 30
0.0
 11
32.11721312734266
 21
7.149999919069642
 31
0.0
  0
ARC
  5
EA4
330
1A
100
AcDbEntity
  8
ZUWAKU
100
AcDbCircle
 10
33.16721312734273
 20
17.12499991906964
 30
0.0
 40
0.525
100
AcDbArc
 50
180.0
 51
270.0
  0
LINE
  5
EA5
330
1A
100
AcDbEntity
  8
ZUWAKU
100
AcDbLine
 10
33.16721312734273
 20
13.79999991906964
 30
0.0
 11
33.30744729083142
 21
13.79999991906964
 31
0.0
  0
LINE
  5
EA6
330
1A
100
AcDbEntity
  8
ZUWAKU
100
AcDbLine
 10
33.30744729083142
 20
16.59999991906963
 30
0.0
 11
33.16721312734273
 21
16.59999991906963
 31
0.0
  0
ARC
  5
EA7
330
1A
100
AcDbEntity
  8
ZUWAKU
100
AcDbCircle
 10
33.30744729083142
 20
17.12499991906964
 30
0.0
 40
0.525
100
AcDbArc
 50
270.0
 51
342.4744316262769
  0
ARC
  5
EA8
330
1A
100
AcDbEntity
  8
ZUWAKU
100
AcDbCircle
 10
36.17697896385402
 20
7.674999919069641
 30
0.0
 40
0.525
100
AcDbArc
 50
197.525568373723
 51
270.0
  0
LINE
  5
EA9
330
1A
100
AcDbEntity
  8
ZUWAKU
100
AcDbLine
 10
38.3764992426585
 20
7.833093887236614
 30
0.0
 11
36.05010786418484
 21
15.19999991906966
 31
0.0
  0
ARC
  5
EAA
330
1A
100
AcDbEntity
  8
ZUWAKU
100
AcDbCircle
 10
37.87586834346302
 20
7.674999919069641
 30
0.0
 40
0.525
100
AcDbArc
 50
270.0
 51
17.52556837372303
  0
LINE
  5
EAB
330
1A
100
AcDbEntity
  8
ZUWAKU
100
AcDbLine
 10
36.17697896385402
 20
7.149999919069642
 30
0.0
 11
37.87586834346302
 21
7.149999919069642
 31
0.0
  0
ARC
  5
EAC
330
1A
100
AcDbEntity
  8
ZUWAKU
100
AcDbCircle
 10
41.21721312734268
 20
7.674999919069641
 30
0.0
 40
0.525
100
AcDbArc
 50
180.0
 51
270.0
  0
ARC
  5
EAD
330
1A
100
AcDbEntity
  8
ZUWAKU
100
AcDbCircle
 10
50.14221312734275
 20
9.949999919069639
 30
0.0
 40
2.799999999999999
100
AcDbArc
 50
270.0
 51
0.0
  0
ARC
  5
EAE
330
1A
100
AcDbEntity
  8
ZUWAKU
100
AcDbCircle
 10
57.84221312734269
 20
9.949999919069639
 30
0.0
 40
2.799999999999999
100
AcDbArc
 50
180.0
 51
270.0
  0
LINE
  5
EAF
330
1A
100
AcDbEntity
  8
ZUWAKU
100
AcDbLine
 10
51.71206160832628
 20
14.73505042540846
 30
0.0
 11
48.80226363368149
 21
17.64484840005314
 31
0.0
  0
LINE
  5
EB0
330
1A
100
AcDbEntity
  8
ZUWAKU
100
AcDbLine
 10
46.82236464635923
 20
15.66494941273082
 30
0.0
 11
49.73216262100391
 21
12.75515143808616
 31
0.0
  0
LINE
  5
EB1
330
1A
100
AcDbEntity
  8
ZUWAKU
100
AcDbLine
 10
46.64221312734276
 20
7.149999919069642
 30
0.0
 11
50.14221312734275
 21
7.149999919069642
 31
0.0
  0
LINE
  5
EB2
330
1A
100
AcDbEntity
  8
ZUWAKU
100
AcDbLine
 10
46.64221312734276
 20
9.949999919069639
 30
0.0
 11
49.61721312734266
 21
9.949999919069639
 31
0.0
  0
ARC
  5
EB3
330
1A
100
AcDbEntity
  8
ZUWAKU
100
AcDbCircle
 10
46.64221312734276
 20
9.424999919069641
 30
0.0
 40
0.525
100
AcDbArc
 50
90.0
 51
180.0
  0
ARC
  5
EB4
330
1A
100
AcDbEntity
  8
ZUWAKU
100
AcDbCircle
 10
42.96721312734269
 20
7.674999919069641
 30
0.0
 40
0.525
100
AcDbArc
 50
270.0
 51
0.0
  0
ARC
  5
EB5
330
1A
100
AcDbEntity
  8
ZUWAKU
100
AcDbCircle
 10
46.64221312734276
 20
7.674999919069641
 30
0.0
 40
0.525
100
AcDbArc
 50
180.0
 51
270.0
  0
LINE
  5
EB6
330
1A
100
AcDbEntity
  8
ZUWAKU
100
AcDbLine
 10
46.11721312734267
 20
7.674999919069641
 30
0.0
 11
46.11721312734267
 21
9.424999919069641
 31
0.0
  0
ARC
  5
EB7
330
1A
100
AcDbEntity
  8
ZUWAKU
100
AcDbCircle
 10
49.61721312734266
 20
10.47499991906964
 30
0.0
 40
0.525
100
AcDbArc
 50
270.0
 51
0.0
  0
ARC
  5
EB8
330
1A
100
AcDbEntity
  8
ZUWAKU
100
AcDbCircle
 10
48.74221312734267
 20
11.76520194442498
 30
0.0
 40
1.399999999999999
100
AcDbArc
 50
0.0
 51
45.0
  0
LINE
  5
EB9
330
1A
100
AcDbEntity
  8
ZUWAKU
100
AcDbLine
 10
50.14221312734275
 20
10.47499991906964
 30
0.0
 11
50.14221312734275
 21
11.76520194442498
 31
0.0
  0
ARC
  5
EBA
330
1A
100
AcDbEntity
  8
ZUWAKU
100
AcDbCircle
 10
58.89221312734275
 20
10.99999991906963
 30
0.0
 40
1.049999999999999
100
AcDbArc
 50
180.0
 51
270.0
  0
ARC
  5
EBB
330
1A
100
AcDbEntity
  8
ZUWAKU
100
AcDbCircle
 10
48.74221312734267
 20
11.76520194442494
 30
0.0
 40
4.199999999999999
100
AcDbArc
 50
0.0
 51
45.0
  0
LINE
  5
EBC
330
1A
100
AcDbEntity
  8
ZUWAKU
100
AcDbLine
 10
52.94221312734271
 20
9.949999919069639
 30
0.0
 11
52.94221312734271
 21
11.76520194442498
 31
0.0
  0
ARC
  5
EBD
330
1A
100
AcDbEntity
  8
ZUWAKU
100
AcDbCircle
 10
61.34221312734268
 20
9.949999919069639
 30
0.0
 40
2.799999999999999
100
AcDbArc
 50
270.0
 51
0.0
  0
LINE
  5
EBE
330
1A
100
AcDbEntity
  8
ZUWAKU
100
AcDbLine
 10
66.76721312734276
 20
7.149999919069642
 30
0.0
 11
68.51721312734276
 21
7.149999919069642
 31
0.0
  0
ARC
  5
EBF
330
1A
100
AcDbEntity
  8
ZUWAKU
100
AcDbCircle
 10
60.29221312734273
 20
10.99999991906963
 30
0.0
 40
1.049999999999999
100
AcDbArc
 50
270.0
 51
0.0
  0
ARC
  5
EC0
330
1A
100
AcDbEntity
  8
ZUWAKU
100
AcDbCircle
 10
66.76721312734276
 20
7.674999919069641
 30
0.0
 40
0.525
100
AcDbArc
 50
180.0
 51
270.0
  0
ARC
  5
EC1
330
1A
100
AcDbEntity
  8
ZUWAKU
100
AcDbCircle
 10
68.51721312734276
 20
7.674999919069641
 30
0.0
 40
0.525
100
AcDbArc
 50
270.0
 51
0.0
  0
LINE
  5
EC2
330
1A
100
AcDbEntity
  8
ZUWAKU
100
AcDbLine
 10
42.96721312734269
 20
23.24999991906964
 30
0.0
 11
41.21721312734268
 21
23.24999991906964
 31
0.0
  0
LINE
  5
EC3
330
1A
100
AcDbEntity
  8
ZUWAKU
100
AcDbLine
 10
27.39221312734275
 20
22.72499991906963
 30
0.0
 11
27.39221312734275
 21
20.97499991906964
 31
0.0
  0
ARC
  5
EC4
330
1A
100
AcDbEntity
  8
ZUWAKU
100
AcDbCircle
 10
26.86721312734266
 20
20.97499991906964
 30
0.0
 40
0.525
100
AcDbArc
 50
270.0
 51
0.0
  0
ARC
  5
EC5
330
1A
100
AcDbEntity
  8
ZUWAKU
100
AcDbCircle
 10
30.36721312734266
 20
22.72499991906963
 30
0.0
 40
0.525
100
AcDbArc
 50
90.0
 51
180.0
  0
ARC
  5
EC6
330
1A
100
AcDbEntity
  8
ZUWAKU
100
AcDbCircle
 10
26.86721312734266
 20
22.72499991906963
 30
0.0
 40
0.525
100
AcDbArc
 50
0.0
 51
90.0
  0
LINE
  5
EC7
330
1A
100
AcDbEntity
  8
ZUWAKU
100
AcDbLine
 10
32.11721312734266
 20
23.24999991906964
 30
0.0
 11
30.36721312734266
 21
23.24999991906964
 31
0.0
  0
ARC
  5
EC8
330
1A
100
AcDbEntity
  8
ZUWAKU
100
AcDbCircle
 10
32.11721312734266
 20
22.72499991906963
 30
0.0
 40
0.525
100
AcDbArc
 50
0.0
 51
90.0
  0
ARC
  5
EC9
330
1A
100
AcDbEntity
  8
ZUWAKU
100
AcDbCircle
 10
36.17697896385402
 20
22.72499991906963
 30
0.0
 40
0.525
100
AcDbArc
 50
90.0
 51
162.4744316262769
  0
LINE
  5
ECA
330
1A
100
AcDbEntity
  8
ZUWAKU
100
AcDbLine
 10
38.3764992426585
 20
22.56690595090267
 30
0.0
 11
37.31485960952068
 21
19.20504711263306
 31
0.0
  0
ARC
  5
ECB
330
1A
100
AcDbEntity
  8
ZUWAKU
100
AcDbCircle
 10
37.87586834346302
 20
22.72499991906963
 30
0.0
 40
0.525
100
AcDbArc
 50
342.4744316262769
 51
90.0
  0
LINE
  5
ECC
330
1A
100
AcDbEntity
  8
ZUWAKU
100
AcDbLine
 10
36.17697896385402
 20
23.24999991906964
 30
0.0
 11
37.87586834346302
 21
23.24999991906964
 31
0.0
  0
ARC
  5
ECD
330
1A
100
AcDbEntity
  8
ZUWAKU
100
AcDbCircle
 10
41.21721312734268
 20
22.72499991906963
 30
0.0
 40
0.525
100
AcDbArc
 50
90.0
 51
180.0
  0
LINE
  5
ECE
330
1A
100
AcDbEntity
  8
ZUWAKU
100
AcDbLine
 10
51.89221312734275
 20
20.44999991906963
 30
0.0
 11
48.91721312734273
 21
20.44999991906963
 31
0.0
  0
LINE
  5
ECF
330
1A
100
AcDbEntity
  8
ZUWAKU
100
AcDbLine
 10
48.39221312734276
 20
23.24999991906964
 30
0.0
 11
51.89221312734275
 21
23.24999991906964
 31
0.0
  0
ARC
  5
ED0
330
1A
100
AcDbEntity
  8
ZUWAKU
100
AcDbCircle
 10
48.39221312734276
 20
20.44999991906963
 30
0.0
 40
2.799999999999999
100
AcDbArc
 50
90.0
 51
180.0
  0
LINE
  5
ED1
330
1A
100
AcDbEntity
  8
ZUWAKU
100
AcDbLine
 10
45.59221312734268
 20
20.44999991906963
 30
0.0
 11
45.59221312734268
 21
18.6347978937143
 31
0.0
  0
ARC
  5
ED2
330
1A
100
AcDbEntity
  8
ZUWAKU
100
AcDbCircle
 10
42.96721312734269
 20
22.72499991906963
 30
0.0
 40
0.525
100
AcDbArc
 50
0.0
 51
90.0
  0
LINE
  5
ED3
330
1A
100
AcDbEntity
  8
ZUWAKU
100
AcDbLine
 10
48.39221312734276
 20
19.92499991906964
 30
0.0
 11
48.39221312734276
 21
18.6347978937143
 31
0.0
  0
ARC
  5
ED4
330
1A
100
AcDbEntity
  8
ZUWAKU
100
AcDbCircle
 10
48.91721312734273
 20
19.92499991906964
 30
0.0
 40
0.525
100
AcDbArc
 50
90.0
 51
180.0
  0
LINE
  5
ED5
330
1A
100
AcDbEntity
  8
ZUWAKU
100
AcDbLine
 10
52.41721312734274
 20
22.72499991906963
 30
0.0
 11
52.41721312734274
 21
20.97499991906964
 31
0.0
  0
ARC
  5
ED6
330
1A
100
AcDbEntity
  8
ZUWAKU
100
AcDbCircle
 10
51.89221312734275
 20
20.97499991906964
 30
0.0
 40
0.525
100
AcDbArc
 50
270.0
 51
0.0
  0
ARC
  5
ED7
330
1A
100
AcDbEntity
  8
ZUWAKU
100
AcDbCircle
 10
51.89221312734275
 20
22.72499991906963
 30
0.0
 40
0.525
100
AcDbArc
 50
0.0
 51
90.0
  0
LINE
  5
ED8
330
1A
100
AcDbEntity
  8
ZUWAKU
100
AcDbLine
 10
57.31721312734271
 20
23.24999991906964
 30
0.0
 11
55.56721312734271
 21
23.24999991906964
 31
0.0
  0
ARC
  5
ED9
330
1A
100
AcDbEntity
  8
ZUWAKU
100
AcDbCircle
 10
55.56721312734271
 20
22.72499991906963
 30
0.0
 40
0.525
100
AcDbArc
 50
90.0
 51
180.0
  0
ARC
  5
EDA
330
1A
100
AcDbEntity
  8
ZUWAKU
100
AcDbCircle
 10
57.31721312734271
 20
22.72499991906963
 30
0.0
 40
0.525
100
AcDbArc
 50
0.0
 51
90.0
  0
LINE
  5
EDB
330
1A
100
AcDbEntity
  8
ZUWAKU
100
AcDbLine
 10
68.51721312734276
 20
23.24999991906964
 30
0.0
 11
66.76721312734276
 21
23.24999991906964
 31
0.0
  0
ARC
  5
EDC
330
1A
100
AcDbEntity
  8
ZUWAKU
100
AcDbCircle
 10
61.86721312734267
 20
22.72499991906963
 30
0.0
 40
0.525
100
AcDbArc
 50
90.0
 51
180.0
  0
LINE
  5
EDD
330
1A
100
AcDbEntity
  8
ZUWAKU
100
AcDbLine
 10
63.61721312734267
 20
23.24999991906964
 30
0.0
 11
61.86721312734267
 21
23.24999991906964
 31
0.0
  0
ARC
  5
EDE
330
1A
100
AcDbEntity
  8
ZUWAKU
100
AcDbCircle
 10
63.61721312734267
 20
22.72499991906963
 30
0.0
 40
0.525
100
AcDbArc
 50
0.0
 51
90.0
  0
ARC
  5
EDF
330
1A
100
AcDbEntity
  8
ZUWAKU
100
AcDbCircle
 10
66.76721312734276
 20
22.72499991906963
 30
0.0
 40
0.525
100
AcDbArc
 50
90.0
 51
180.0
  0
ARC
  5
EE0
330
1A
100
AcDbEntity
  8
ZUWAKU
100
AcDbCircle
 10
68.51721312734276
 20
22.72499991906963
 30
0.0
 40
0.525
100
AcDbArc
 50
0.0
 51
90.0
  0
TEXT
  5
EE1
330
1A
100
AcDbEntity
  8
MOJI
100
AcDbText
 10
239.8272036534126
 20
3.204920976477058
 30
0.0
 40
5.599999999999999
  1
ＲＶ１０５－ＵＴ６０
 41
0.9
  7
ｽﾀｲﾙ1
100
AcDbText
  0
LINE
  5
EE2
330
1A
100
AcDbEntity
  8
ZUWAKU
100
AcDbLine
 10
208.4466022626293
 20
29.99999991906964
 30
0.0
 11
208.4466022626295
 21
0.7999999190697054
 31
0.0
  0
LINE
  5
EE3
330
1A
100
AcDbEntity
  8
ZUWAKU
100
AcDbLine
 10
208.6466022626293
 20
29.99999991906964
 30
0.0
 11
208.6466022626296
 21
0.7999999190697054
 31
0.0
  0
LINE
  5
EE4
330
1A
100
AcDbEntity
  8
ZUWAKU
100
AcDbLine
 10
208.2466022626294
 20
29.99999991906964
 30
0.0
 11
208.2466022626294
 21
0.7999999190697054
 31
0.0
  0
TEXT
  5
EE5
330
1A
100
AcDbEntity
  8
MOJI
100
AcDbText
 10
239.8272036534126
 20
18.00492097647702
 30
0.0
 40
5.599999999999999
  1
洋風じょうごⅢ型
 41
0.9
  7
ｽﾀｲﾙ1
100
AcDbText
  0
TEXT
  5
EE6
330
1A
100
AcDbEntity
  8
ZUWAKU
100
AcDbText
 10
209.7240472848391
 20
9.655356457455255
 30
0.0
 40
4.0
  1
サイズ
 41
0.9
  7
ｽﾀｲﾙ1
100
AcDbText
  0
TEXT
  5
EE7
330
1A
100
AcDbEntity
  8
ZUWAKU
100
AcDbText
 10
209.7240472848389
 20
24.05535645745521
 30
0.0
 40
4.0
  1
品名
 41
0.9
  7
ｽﾀｲﾙ1
100
AcDbText
  0
TEXT
  5
EE8
330
1A
100
AcDbEntity
  8
SUNPOU
100
AcDbText
 10
661.9071654575064
 20
46.25388945180316
 30
0.0
 40
6.0
  1
※a　のきといの縁切り間隔寸法を示す
100
AcDbText
  0
TEXT
  5
EE9
330
1A
100
AcDbEntity
  8
SUNPOU
100
AcDbText
 10
661.9071654575064
 20
36.65388945180314
 30
0.0
 40
6.0
  1
※b　エルボの差込み寸法を示す
100
AcDbText
  0
TEXT
  5
EEA
330
1A
100
AcDbEntity
  8
ZUWAKU
100
AcDbText
 10
658.203938659864
 20
18.00492097647702
 30
0.0
 40
5.599999999999999
  1
　　．　　．　　
 41
0.9
  7
ｽﾀｲﾙ1
100
AcDbText
  0
LINE
  5
EEB
330
1A
100
AcDbEntity
  8
ZUWAKU
100
AcDbLine
 10
648.8172034827657
 20
15.59999991906967
 30
0.0
 11
697.2490115211028
 21
15.59999991906967
 31
0.0
  0
LINE
  5
EEC
330
1A
100
AcDbEntity
  8
ZUWAKU
100
AcDbLine
 10
648.817203482766
 20
15.39999991906967
 30
0.0
 11
697.2490115211028
 21
15.39999991906967
 31
0.0
  0
LINE
  5
EED
330
1A
100
AcDbEntity
  8
ZUWAKU
100
AcDbLine
 10
648.8172034827657
 20
15.19999991906966
 30
0.0
 11
697.2490115211028
 21
15.19999991906967
 31
0.0
  0
LINE
  5
EEE
330
1A
100
AcDbEntity
  8
ZUWAKU
100
AcDbLine
 10
505.1991804707024
 20
15.59999991906967
 30
0.0
 11
552.526956738674
 21
15.59999991906967
 31
0.0
  0
LINE
  5
EEF
330
1A
100
AcDbEntity
  8
ZUWAKU
100
AcDbLine
 10
505.1991804707024
 20
15.39999991906967
 30
0.0
 11
552.526956738674
 21
15.39999991906967
 31
0.0
  0
LINE
  5
EF0
330
1A
100
AcDbEntity
  8
ZUWAKU
100
AcDbLine
 10
505.1991804707024
 20
15.19999991906967
 30
0.0
 11
552.526956738674
 21
15.19999991906967
 31
0.0
  0
LINE
  5
EF1
330
1A
100
AcDbEntity
  8
ZUWAKU
100
AcDbLine
 10
504.7991804707026
 20
29.99999991906964
 30
0.0
 11
504.7991804707026
 21
0.7999999190697054
 31
0.0
  0
LINE
  5
EF2
330
1A
100
AcDbEntity
  8
ZUWAKU
100
AcDbLine
 10
505.1991804707024
 20
29.99999991906964
 30
0.0
 11
505.1991804707027
 21
0.7999999190697054
 31
0.0
  0
LINE
  5
EF3
330
1A
100
AcDbEntity
  8
ZUWAKU
100
AcDbLine
 10
504.9991804707024
 20
29.99999991906964
 30
0.0
 11
504.9991804707026
 21
0.7999999190697054
 31
0.0
  0
TEXT
  5
EF4
330
1A
100
AcDbEntity
  8
MOJI
100
AcDbText
 10
528.0409089448744
 20
18.00492097647702
 30
0.0
 40
5.599999999999999
  1
Ａ３
 41
0.9
  7
ｽﾀｲﾙ1
100
AcDbText
  0
LINE
  5
EF5
330
1A
100
AcDbEntity
  8
ZUWAKU
100
AcDbLine
 10
447.4243649435529
 20
29.99999991906964
 30
0.0
 11
447.4243649435529
 21
0.7999999190697054
 31
0.0
  0
LINE
  5
EF6
330
1A
100
AcDbEntity
  8
ZUWAKU
100
AcDbLine
 10
447.8243649435528
 20
29.99999991906964
 30
0.0
 11
447.8243649435531
 21
0.7999999190697054
 31
0.0
  0
LINE
  5
EF7
330
1A
100
AcDbEntity
  8
ZUWAKU
100
AcDbLine
 10
447.6243649435527
 20
29.99999991906964
 30
0.0
 11
447.624364943553
 21
0.7999999190697054
 31
0.0
  0
TEXT
  5
EF8
330
1A
100
AcDbEntity
  8
MOJI
100
AcDbText
 10
464.5946269758005
 20
11.94261764072962
 30
0.0
 40
5.599999999999999
  1
ＧＳ１０□
 41
0.9
  7
ｽﾀｲﾙ1
100
AcDbText
  0
TEXT
  5
EF9
330
1A
100
AcDbEntity
  8
ZUWAKU
100
AcDbText
 10
462.6937626280687
 20
2.614070830209129
 30
0.0
 40
3.0
  1
□には色品番が入ります
 41
0.9
  7
ｽﾀｲﾙ1
100
AcDbText
  0
TEXT
  5
EFA
330
1A
100
AcDbEntity
  8
ZUWAKU
100
AcDbText
 10
506.6766254929123
 20
9.655356457455255
 30
0.0
 40
4.0
  1
縮尺
 41
0.9
  7
ｽﾀｲﾙ1
100
AcDbText
  0
TEXT
  5
EFB
330
1A
100
AcDbEntity
  8
MOJI
100
AcDbText
 10
528.0409089448744
 20
3.204920976477058
 30
0.0
 40
5.599999999999999
  1
１/２
 41
0.9
  7
ｽﾀｲﾙ1
100
AcDbText
  0
TEXT
  5
EFC
330
1A
100
AcDbEntity
  8
ZUWAKU
100
AcDbText
 10
449.3018099657624
 20
24.05535645745521
 30
0.0
 40
4.0
  1
品番
 41
0.9
  7
ｽﾀｲﾙ1
100
AcDbText
  0
TEXT
  5
EFD
330
1A
100
AcDbEntity
  8
ZUWAKU
100
AcDbText
 10
506.676625492912
 20
24.05535645745521
 30
0.0
 40
4.0
  1
用紙
 41
0.9
  7
ｽﾀｲﾙ1
100
AcDbText
  0
LINE
  5
EFE
330
1A
100
AcDbEntity
  8
ZUWAKU
100
AcDbLine
 10
552.526956738674
 20
29.99999991906964
 30
0.0
 11
552.526956738674
 21
0.7999999190697054
 31
0.0
  0
LINE
  5
EFF
330
1A
100
AcDbEntity
  8
ZUWAKU
100
AcDbLine
 10
552.9269567386738
 20
29.99999991906964
 30
0.0
 11
552.9269567386741
 21
0.7999999190697054
 31
0.0
  0
LINE
  5
F00
330
1A
100
AcDbEntity
  8
ZUWAKU
100
AcDbLine
 10
552.7269567386738
 20
29.99999991906964
 30
0.0
 11
552.726956738674
 21
0.7999999190697054
 31
0.0
  0
LINE
  5
F01
330
1A
100
AcDbEntity
  8
ZUWAKU
100
AcDbLine
 10
648.4172034827661
 20
29.99999991906964
 30
0.0
 11
648.4172034827661
 21
0.7999999190697054
 31
0.0
  0
LINE
  5
F02
330
1A
100
AcDbEntity
  8
ZUWAKU
100
AcDbLine
 10
648.817203482766
 20
29.99999991906964
 30
0.0
 11
648.8172034827662
 21
0.7999999190697054
 31
0.0
  0
LINE
  5
F03
330
1A
100
AcDbEntity
  8
ZUWAKU
100
AcDbLine
 10
648.6172034827659
 20
29.99999991906964
 30
0.0
 11
648.6172034827661
 21
0.7999999190697054
 31
0.0
  0
TEXT
  5
F04
330
1A
100
AcDbEntity
  8
ZUWAKU
100
AcDbText
 10
650.2946485049756
 20
24.05535645745521
 30
0.0
 40
4.0
  1
DATE
 41
0.9
  7
ｽﾀｲﾙ1
100
AcDbText
  0
TEXT
  5
F05
330
1A
100
AcDbEntity
  8
ZUWAKU
100
AcDbText
 10
708.5280851648053
 20
17.55383925475643
 30
0.0
 40
6.0
  1
積水化学工業株式会社
 41
0.9
  7
ｽﾀｲﾙ1
100
AcDbText
  0
LINE
  5
F06
330
1A
100
AcDbEntity
  8
ZUWAKU
100
AcDbLine
 10
697.8490115211027
 20
29.99999991906964
 30
0.0
 11
697.8490115211029
 21
0.7999999190697054
 31
0.0
  0
LINE
  5
F07
330
1A
100
AcDbEntity
  8
ZUWAKU
100
AcDbLine
 10
697.6490115211027
 20
29.99999991906964
 30
0.0
 11
697.6490115211029
 21
0.7999999190697054
 31
0.0
  0
LINE
  5
F08
330
1A
100
AcDbEntity
  8
ZUWAKU
100
AcDbLine
 10
697.4490115211028
 20
29.99999991906964
 30
0.0
 11
697.4490115211028
 21
0.7999999190697054
 31
0.0
  0
LINE
  5
F09
330
1A
100
AcDbEntity
  8
ZUWAKU
100
AcDbLine
 10
697.2490115211028
 20
29.99999991906964
 30
0.0
 11
697.2490115211028
 21
0.7999999190697054
 31
0.0
  0
TEXT
  5
F0A
330
1A
100
AcDbEntity
  8
ZUWAKU
100
AcDbText
 10
708.5280851648053
 20
6.648840232923703
 30
0.0
 40
6.0
  1
建材事業部
 41
0.9
  7
ｽﾀｲﾙ1
100
AcDbText
  0
VIEWPORT
  5
22
330
17
100
AcDbEntity
 67
     1
  8
0
100
AcDbViewport
 10
313.6808219178082
 20
148.5
 30
0.0
 40
627.3616438356165
 41
297.0
 68
     2
 69
     1
1001
ACAD
1000
MVIEW
1002
{
1070
    16
1010
0.0
1020
0.0
1030
0.0
1010
0.0
1020
0.0
1030
1.0
1040
0.0
1040
297.0
1040
313.6808219178082
1040
148.5
1040
50.0
1040
0.0
1040
0.0
1070
     0
1070
   100
1070
     1
1070
     0
1070
     0
1070
     0
1070
     0
1070
     0
1040
0.0
1040
0.0
1040
0.0
1040
1.0
1040
1.0
1040
10.0
1040
10.0
1070
     0
1002
{
1002
}
1002
}
  0
VIEWPORT
  5
64
330
17
100
AcDbEntity
 67
     1
  8
VIEWPORT
100
AcDbViewport
 10
210.0
 20
148.5
 30
0.0
 40
420.0
 41
297.0
 68
     1
 69
     2
1001
ACAD
1000
MVIEW
1002
{
1070
    16
1010
0.0
1020
0.0
1030
0.0
1010
0.0
1020
0.0
1030
1.0
1040
0.0
1040
605.8799999999998
1040
420.0
1040
297.0
1040
50.0
1040
0.0
1040
0.0
1070
     0
1070
   100
1070
     1
1070
     0
1070
     0
1070
     0
1070
     0
1070
     0
1040
0.0
1040
0.0
1040
0.0
1040
10.0
1040
10.0
1040
0.0
1040
0.0
1070
     0
1002
{
1002
}
1002
}
  0
ENDSEC
  0
SECTION
  2
OBJECTS
  0
DICTIONARY
  5
C
330
0
100
AcDbDictionary
  3
ACAD_GROUP
350
D
  3
ACAD_LAYOUT
350
48D
  3
ACAD_MLINESTYLE
350
E
  3
ACAD_PLOTSETTINGS
350
48E
  3
ACAD_PLOTSTYLENAME
350
48B
  3
ACDBVARIABLEDICTIONARY
350
A4F
  3
ACDBHEADERROUNDTRIPXREC
350
F84
  0
DICTIONARY
  5
975
330
1A
100
AcDbDictionary
280
     1
  3
ACAD_LAYOUTSELFREF
360
FA6
  0
DICTIONARY
  5
973
330
17
100
AcDbDictionary
280
     1
  3
ACAD_LAYOUTSELFREF
360
FA5
  0
DICTIONARY
  5
D
102
{ACAD_REACTORS
330
C
102
}
330
C
100
AcDbDictionary
  0
DICTIONARY
  5
48D
102
{ACAD_REACTORS
330
C
102
}
330
C
100
AcDbDictionary
  0
DICTIONARY
  5
E
102
{ACAD_REACTORS
330
C
102
}
330
C
100
AcDbDictionary
  3
STANDARD
350
13
  0
DICTIONARY
  5
48E
102
{ACAD_REACTORS
330
C
102
}
330
C
100
AcDbDictionary
  0
ACDBDICTIONARYWDFLT
  5
48B
102
{ACAD_REACTORS
330
C
102
}
330
C
100
AcDbDictionary
281
     1
  3
Normal
350
48C
100
AcDbDictionaryWithDefault
340
48C
1001
ACAD
1000
TREAT_AS_HARD
1070
     0
1000
TREAT_AS_HARD
1070
     0
1000
TREAT_AS_HARD
1070
     0
  0
DICTIONARY
  5
A4F
102
{ACAD_REACTORS
330
C
102
}
330
C
100
AcDbDictionary
  3
SORTENTS
350
A50
  0
DICTIONARY
  5
F84
102
{ACAD_REACTORS
330
C
102
}
330
C
100
AcDbDictionary
  3
TSTACKALIGN
350
F85
  3
TSTACKSIZE
350
F86
  3
HYPERLINKBASE
350
F87
  3
STYLESHEET
350
F88
  3
LAYOUTDICT
350
F89
  3
PLOTSETDICT
350
F8A
  3
PLOTSTYLNAMDICT
350
F8B
  3
LWETCUNION
350
F8C
  3
INSUNITS
350
F8D
  3
CEPSNTYPE
350
F8E
  3
FINGERPRINTGUID
350
F8F
  3
VERSIONGUID
350
F90
  3
PSVPSCALE
350
F91
  3
DIMSTYLEDATA
350
F92
  3
PUCSORTHOREF
350
F93
  3
PUCSORTHOVIEW
350
F94
  3
PUCSBASE
350
F95
  3
PUCSORGTOP
350
F96
  3
PUCSORGBOTTOM
350
F97
  3
PUCSORGLEFT
350
F98
  3
PUCSORGRIGHT
350
F99
  3
PUCSORGFRONT
350
F9A
  3
PUCSORGBACK
350
F9B
  3
UCSORTHOREF
350
F9C
  3
UCSORTHOVIEW
350
F9D
  3
UCSBASE
350
F9E
  3
UCSORGTOP
350
F9F
  3
UCSORGBOTTOM
350
FA0
  3
UCSORGLEFT
350
FA1
  3
UCSORGRIGHT
350
FA2
  3
UCSORGFRONT
350
FA3
  3
UCSORGBACK
350
FA4
  0
XRECORD
  5
FA6
102
{ACAD_REACTORS
330
975
102
}
330
975
100
AcDbXrecord
340
1A
  0
XRECORD
  5
FA5
102
{ACAD_REACTORS
330
973
102
}
330
973
100
AcDbXrecord
340
17
  0
MLINESTYLE
  5
13
102
{ACAD_REACTORS
330
E
102
}
330
E
100
AcDbMlineStyle
  2
STANDARD
 70
     0
  3

 62
     0
 51
90.0
 52
90.0
 71
     2
 49
0.5
 62
   256
  6
BYLAYER
 49
-0.5
 62
   256
  6
BYLAYER
  0
ACDBPLACEHOLDER
  5
48C
102
{ACAD_REACTORS
330
48B
102
}
330
48B
100
AcDbPlaceHolder
280
     0
  0
DICTIONARYVAR
  5
A50
102
{ACAD_REACTORS
330
A4F
102
}
330
A4F
100
DictionaryVariables
280
     0
  1
96
  0
XRECORD
  5
F85
102
{ACAD_REACTORS
330
F84
102
}
330
F84
100
AcDbXrecord
 90
        1
  0
XRECORD
  5
F86
102
{ACAD_REACTORS
330
F84
102
}
330
F84
100
AcDbXrecord
 90
       70
  0
XRECORD
  5
F87
102
{ACAD_REACTORS
330
F84
102
}
330
F84
100
AcDbXrecord
  1

  0
XRECORD
  5
F88
102
{ACAD_REACTORS
330
F84
102
}
330
F84
100
AcDbXrecord
  1
systemprinter.ctb
  0
XRECORD
  5
F89
102
{ACAD_REACTORS
330
F84
102
}
330
F84
100
AcDbXrecord
340
48D
  0
XRECORD
  5
F8A
102
{ACAD_REACTORS
330
F84
102
}
330
F84
100
AcDbXrecord
340
48E
  0
XRECORD
  5
F8B
102
{ACAD_REACTORS
330
F84
102
}
330
F84
100
AcDbXrecord
340
48B
  0
XRECORD
  5
F8C
102
{ACAD_REACTORS
330
F84
102
}
330
F84
100
AcDbXrecord
 90
    10781
  0
XRECORD
  5
F8D
102
{ACAD_REACTORS
330
F84
102
}
330
F84
100
AcDbXrecord
 90
        0
  0
XRECORD
  5
F8E
102
{ACAD_REACTORS
330
F84
102
}
330
F84
100
AcDbXrecord
 90
        0
  0
XRECORD
  5
F8F
102
{ACAD_REACTORS
330
F84
102
}
330
F84
100
AcDbXrecord
  1
{0B5873E6-8D85-11D4-932C-0050DA99388B}
  0
XRECORD
  5
F90
102
{ACAD_REACTORS
330
F84
102
}
330
F84
100
AcDbXrecord
  1
{1A61C1DF-D5E1-48B3-97D5-3A6634DD1434}
  0
XRECORD
  5
F91
102
{ACAD_REACTORS
330
F84
102
}
330
F84
100
AcDbXrecord
 40
0.0
  0
XRECORD
  5
F92
102
{ACAD_REACTORS
330
F84
102
}
330
F84
100
AcDbXrecord
1000
DSTYLE
1002
{
1070
   341
340
6D
1070
   343
340
6D
1070
   344
340
6D
1070
   371
 70
    -1
1070
   372
 70
    -1
1002
}
  0
XRECORD
  5
F93
102
{ACAD_REACTORS
330
F84
102
}
330
F84
100
AcDbXrecord
340
0
  0
XRECORD
  5
F94
102
{ACAD_REACTORS
330
F84
102
}
330
F84
100
AcDbXrecord
 70
     0
  0
XRECORD
  5
F95
102
{ACAD_REACTORS
330
F84
102
}
330
F84
100
AcDbXrecord
340
0
  0
XRECORD
  5
F96
102
{ACAD_REACTORS
330
F84
102
}
330
F84
100
AcDbXrecord
 10
0.0
 20
0.0
 30
0.0
  0
XRECORD
  5
F97
102
{ACAD_REACTORS
330
F84
102
}
330
F84
100
AcDbXrecord
 10
0.0
 20
0.0
 30
0.0
  0
XRECORD
  5
F98
102
{ACAD_REACTORS
330
F84
102
}
330
F84
100
AcDbXrecord
 10
0.0
 20
0.0
 30
0.0
  0
XRECORD
  5
F99
102
{ACAD_REACTORS
330
F84
102
}
330
F84
100
AcDbXrecord
 10
0.0
 20
0.0
 30
0.0
  0
XRECORD
  5
F9A
102
{ACAD_REACTORS
330
F84
102
}
330
F84
100
AcDbXrecord
 10
0.0
 20
0.0
 30
0.0
  0
XRECORD
  5
F9B
102
{ACAD_REACTORS
330
F84
102
}
330
F84
100
AcDbXrecord
 10
0.0
 20
0.0
 30
0.0
  0
XRECORD
  5
F9C
102
{ACAD_REACTORS
330
F84
102
}
330
F84
100
AcDbXrecord
340
0
  0
XRECORD
  5
F9D
102
{ACAD_REACTORS
330
F84
102
}
330
F84
100
AcDbXrecord
 70
     0
  0
XRECORD
  5
F9E
102
{ACAD_REACTORS
330
F84
102
}
330
F84
100
AcDbXrecord
340
0
  0
XRECORD
  5
F9F
102
{ACAD_REACTORS
330
F84
102
}
330
F84
100
AcDbXrecord
 10
0.0
 20
0.0
 30
0.0
  0
XRECORD
  5
FA0
102
{ACAD_REACTORS
330
F84
102
}
330
F84
100
AcDbXrecord
 10
0.0
 20
0.0
 30
0.0
  0
XRECORD
  5
FA1
102
{ACAD_REACTORS
330
F84
102
}
330
F84
100
AcDbXrecord
 10
0.0
 20
0.0
 30
0.0
  0
XRECORD
  5
FA2
102
{ACAD_REACTORS
330
F84
102
}
330
F84
100
AcDbXrecord
 10
0.0
 20
0.0
 30
0.0
  0
XRECORD
  5
FA3
102
{ACAD_REACTORS
330
F84
102
}
330
F84
100
AcDbXrecord
 10
0.0
 20
0.0
 30
0.0
  0
XRECORD
  5
FA4
102
{ACAD_REACTORS
330
F84
102
}
330
F84
100
AcDbXrecord
 10
0.0
 20
0.0
 30
0.0
  0
ENDSEC
  0
EOF
