  0
SECTION
  2
HEADER
  9
$ACADVER
  1
AC1014
  9
$ACADMAINTVER
 70
     9
  9
$DWGCODEPAGE
  3
ANSI_932
  9
$INSBASE
 10
0.0
 20
0.0
 30
0.0
  9
$EXTMIN
 10
-0.0256331206132927
 20
-0.0181266077920555
 30
-0.0015258207003583
  9
$EXTMAX
 10
797.6000995469832
 20
551.6452344488313
 30
0.0000000349246037
  9
$LIMMIN
 10
0.0
 20
0.0
  9
$LIMMAX
 10
840.0
 20
594.0
  9
$ORTHOMODE
 70
     0
  9
$REGENMODE
 70
     1
  9
$FILLMODE
 70
     1
  9
$QTEXTMODE
 70
     0
  9
$MIRRTEXT
 70
     1
  9
$DRAGMODE
 70
     2
  9
$LTSCALE
 40
2.0
  9
$OSMODE
 70
    35
  9
$ATTMODE
 70
     1
  9
$TEXTSIZE
 40
5.0
  9
$TRACEWID
 40
1.0
  9
$TEXTSTYLE
  7
STANDARD
  9
$CLAYER
  8
SUNPOU
  9
$CELTYPE
  6
BYLAYER
  9
$CECOLOR
 62
   256
  9
$CELTSCALE
 40
1.0
  9
$DELOBJ
 70
     1
  9
$DISPSILH
 70
     0
  9
$DIMSCALE
 40
1.0
  9
$DIMASZ
 40
7.0
  9
$DIMEXO
 40
6.0
  9
$DIMDLI
 40
14.0
  9
$DIMRND
 40
0.0
  9
$DIMDLE
 40
0.0
  9
$DIMEXE
 40
3.0
  9
$DIMTP
 40
0.0
  9
$DIMTM
 40
0.0
  9
$DIMTXT
 40
6.0
  9
$DIMCEN
 40
150.0
  9
$DIMTSZ
 40
0.0
  9
$DIMTOL
 70
     0
  9
$DIMLIM
 70
     0
  9
$DIMTIH
 70
     0
  9
$DIMTOH
 70
     0
  9
$DIMSE1
 70
     0
  9
$DIMSE2
 70
     0
  9
$DIMTAD
 70
     3
  9
$DIMZIN
 70
     0
  9
$DIMBLK
  1

  9
$DIMASO
 70
     1
  9
$DIMSHO
 70
     1
  9
$DIMPOST
  1

  9
$DIMAPOST
  1

  9
$DIMALT
 70
     0
  9
$DIMALTD
 70
     2
  9
$DIMALTF
 40
25.4
  9
$DIMLFAC
 40
1.0
  9
$DIMTOFL
 70
     1
  9
$DIMTVP
 40
0.0
  9
$DIMTIX
 70
     0
  9
$DIMSOXD
 70
     0
  9
$DIMSAH
 70
     1
  9
$DIMBLK1
  1
OPEN
  9
$DIMBLK2
  1
OPEN
  9
$DIMSTYLE
  2
STANDARD
  9
$DIMCLRD
 70
   256
  9
$DIMCLRE
 70
   256
  9
$DIMCLRT
 70
   256
  9
$DIMTFAC
 40
1.0
  9
$DIMGAP
 40
2.0
  9
$DIMJUST
 70
     0
  9
$DIMSD1
 70
     0
  9
$DIMSD2
 70
     0
  9
$DIMTOLJ
 70
     1
  9
$DIMTZIN
 70
     0
  9
$DIMALTZ
 70
     0
  9
$DIMALTTZ
 70
     0
  9
$DIMFIT
 70
     3
  9
$DIMUPT
 70
     0
  9
$DIMUNIT
 70
     2
  9
$DIMDEC
 70
     0
  9
$DIMTDEC
 70
     0
  9
$DIMALTU
 70
     2
  9
$DIMALTTD
 70
     2
  9
$DIMTXSTY
  7
STANDARD
  9
$DIMAUNIT
 70
     0
  9
$LUNITS
 70
     2
  9
$LUPREC
 70
     4
  9
$SKETCHINC
 40
1.0
  9
$FILLETRAD
 40
20.0
  9
$AUNITS
 70
     0
  9
$AUPREC
 70
     0
  9
$MENU
  1
.
  9
$ELEVATION
 40
0.0
  9
$PELEVATION
 40
0.0
  9
$THICKNESS
 40
0.0
  9
$LIMCHECK
 70
     0
  9
$BLIPMODE
 70
     0
  9
$CHAMFERA
 40
20.0
  9
$CHAMFERB
 40
20.0
  9
$CHAMFERC
 40
40.0
  9
$CHAMFERD
 40
0.0
  9
$SKPOLY
 70
     0
  9
$TDCREATE
 40
2450994.354346065
  9
$TDUPDATE
 40
2453805.435848159
  9
$TDINDWG
 40
0.0288195370
  9
$TDUSRTIMER
 40
0.0288195370
  9
$USRTIMER
 70
     1
  9
$ANGBASE
 50
0.0
  9
$ANGDIR
 70
     0
  9
$PDMODE
 70
     1
  9
$PDSIZE
 40
0.0
  9
$PLINEWID
 40
0.0
  9
$COORDS
 70
     1
  9
$SPLFRAME
 70
     0
  9
$SPLINETYPE
 70
     6
  9
$SPLINESEGS
 70
     8
  9
$ATTDIA
 70
     0
  9
$ATTREQ
 70
     1
  9
$HANDLING
 70
 10241
  9
$HANDSEED
  5
FFA
  9
$SURFTAB1
 70
     6
  9
$SURFTAB2
 70
     6
  9
$SURFTYPE
 70
     6
  9
$SURFU
 70
     6
  9
$SURFV
 70
     6
  9
$UCSNAME
  2

  9
$UCSORG
 10
0.0
 20
0.0
 30
0.0
  9
$UCSXDIR
 10
1.0
 20
0.0
 30
0.0
  9
$UCSYDIR
 10
0.0
 20
1.0
 30
0.0
  9
$PUCSNAME
  2

  9
$PUCSORG
 10
0.0
 20
0.0
 30
0.0
  9
$PUCSXDIR
 10
1.0
 20
0.0
 30
0.0
  9
$PUCSYDIR
 10
0.0
 20
1.0
 30
0.0
  9
$USERI1
 70
     0
  9
$USERI2
 70
     0
  9
$USERI3
 70
     0
  9
$USERI4
 70
     0
  9
$USERI5
 70
     0
  9
$USERR1
 40
0.0
  9
$USERR2
 40
0.0
  9
$USERR3
 40
0.0
  9
$USERR4
 40
0.0
  9
$USERR5
 40
0.0
  9
$WORLDVIEW
 70
     1
  9
$SHADEDGE
 70
     3
  9
$SHADEDIF
 70
    70
  9
$TILEMODE
 70
     1
  9
$MAXACTVP
 70
    16
  9
$PINSBASE
 10
0.0
 20
0.0
 30
0.0
  9
$PLIMCHECK
 70
     0
  9
$PEXTMIN
 10
0.0
 20
0.0
 30
0.0
  9
$PEXTMAX
 10
420.0
 20
297.0
 30
0.0
  9
$PLIMMIN
 10
0.0
 20
0.0
  9
$PLIMMAX
 10
420.0
 20
297.0
  9
$UNITMODE
 70
     0
  9
$VISRETAIN
 70
     0
  9
$PLINEGEN
 70
     0
  9
$PSLTSCALE
 70
     1
  9
$TREEDEPTH
 70
  3020
  9
$PICKSTYLE
 70
     1
  9
$CMLSTYLE
  2
STANDARD
  9
$CMLJUST
 70
     0
  9
$CMLSCALE
 40
1.0
  9
$PROXYGRAPHICS
 70
     1
  9
$MEASUREMENT
 70
     1
  0
ENDSEC
  0
SECTION
  2
CLASSES
  0
CLASS
  1
ACDBDICTIONARYWDFLT
  2
AcDbDictionaryWithDefault
  3
AutoCAD 2000
 90
        0
280
     0
281
     0
  0
CLASS
  1
ACDBPLACEHOLDER
  2
AcDbPlaceHolder
  3
AutoCAD 2000
 90
        0
280
     0
281
     0
  0
CLASS
  1
LAYOUT
  2
AcDbLayout
  3
AutoCAD 2000
 90
        0
280
     0
281
     0
  0
CLASS
  1
LONG_TRANSACTION
  2
AcDbLongTransaction
  3
AutoCAD 2000
 90
        0
280
     0
281
     0
  0
CLASS
  1
LWPOLYLINE
  2
AcDbPolyline
  3
AutoCAD 2000
 90
        0
280
     0
281
     1
  0
CLASS
  1
HATCH
  2
AcDbHatch
  3
AutoCAD 2000
 90
        0
280
     0
281
     1
  0
CLASS
  1
XRECORD
  2
AcDbXrecord
  3
AutoCAD 2000
 90
        0
280
     0
281
     0
  0
CLASS
  1
DICTIONARYVAR
  2
AcDbDictionaryVar
  3
AutoCAD 2000
 90
        0
280
     0
281
     0
  0
CLASS
  1
LONG_TRANSACTION
  2
AcDbLongTransaction
  3
AutoCAD 2000
 90
        0
280
     0
281
     0
  0
CLASS
  1
LWPOLYLINE
  2
AcDbPolyline
  3
AutoCAD 2000
 90
        0
280
     0
281
     1
  0
CLASS
  1
HATCH
  2
AcDbHatch
  3
AutoCAD 2000
 90
        0
280
     0
281
     1
  0
CLASS
  1
XRECORD
  2
AcDbXrecord
  3
AutoCAD 2000
 90
        0
280
     0
281
     0
  0
CLASS
  1
LONG_TRANSACTION
  2
AcDbLongTransaction
  3
AutoCAD 2000
 90
        0
280
     0
281
     0
  0
CLASS
  1
LWPOLYLINE
  2
AcDbPolyline
  3
AutoCAD 2000
 90
        0
280
     0
281
     1
  0
CLASS
  1
HATCH
  2
AcDbHatch
  3
AutoCAD 2000
 90
        0
280
     0
281
     1
  0
CLASS
  1
XRECORD
  2
AcDbXrecord
  3
AutoCAD 2000
 90
        0
280
     0
281
     0
  0
CLASS
  1
LONG_TRANSACTION
  2
AcDbLongTransaction
  3
AutoCAD 2000
 90
        0
280
     0
281
     0
  0
CLASS
  1
LWPOLYLINE
  2
AcDbPolyline
  3
AutoCAD 2000
 90
        0
280
     0
281
     1
  0
CLASS
  1
HATCH
  2
AcDbHatch
  3
AutoCAD 2000
 90
        0
280
     0
281
     1
  0
CLASS
  1
XRECORD
  2
AcDbXrecord
  3
AutoCAD 2000
 90
        0
280
     0
281
     0
  0
ENDSEC
  0
SECTION
  2
TABLES
  0
TABLE
  2
VPORT
  5
8
330
0
100
AcDbSymbolTable
 70
     2
  0
VPORT
  5
FB9
330
8
100
AcDbSymbolTableRecord
100
AcDbViewportTableRecord
  2
*ACTIVE
 70
     0
 10
0.0
 20
0.0
 11
1.0
 21
1.0
 12
409.8940557872425
 22
275.3893446207206
 13
0.0
 23
0.0
 14
5.0
 24
5.0
 15
0.0
 25
0.0
 16
0.0
 26
0.0
 36
1.0
 17
0.0
 27
0.0
 37
0.0
 40
590.3829590094053
 41
1.795454545454545
 42
50.0
 43
0.0
 44
0.0
 50
0.0
 51
0.0
 71
     0
 72
   100
 73
     1
 74
     0
 75
     0
 76
     0
 77
     0
 78
     0
  0
ENDTAB
  0
TABLE
  2
LTYPE
  5
5
330
0
100
AcDbSymbolTable
 70
     3
  0
LTYPE
  5
14
330
5
100
AcDbSymbolTableRecord
100
AcDbLinetypeTableRecord
  2
BYBLOCK
 70
     0
  3

 72
    65
 73
     0
 40
0.0
  0
LTYPE
  5
15
330
5
100
AcDbSymbolTableRecord
100
AcDbLinetypeTableRecord
  2
BYLAYER
 70
     0
  3

 72
    65
 73
     0
 40
0.0
  0
LTYPE
  5
16
330
5
100
AcDbSymbolTableRecord
100
AcDbLinetypeTableRecord
  2
CONTINUOUS
 70
     0
  3
Solid line
 72
    65
 73
     0
 40
0.0
  0
LTYPE
  5
115
330
5
100
AcDbSymbolTableRecord
100
AcDbLinetypeTableRecord
  2
PHANTOM
 70
     0
  3
______  __  __  ______  __  __  ______  __  __ 
 72
    65
 73
     6
 40
2.5
 49
1.25
 74
     0
 49
-0.25
 74
     0
 49
0.25
 74
     0
 49
-0.25
 74
     0
 49
0.25
 74
     0
 49
-0.25
 74
     0
  0
LTYPE
  5
135
330
5
100
AcDbSymbolTableRecord
100
AcDbLinetypeTableRecord
  2
CENTER
 70
     0
  3
____ _ ____ _ ____ _ ____ _ ____ _ ____ _ ____ 
 72
    65
 73
     4
 40
2.0
 49
1.25
 74
     0
 49
-0.25
 74
     0
 49
0.25
 74
     0
 49
-0.25
 74
     0
  0
ENDTAB
  0
TABLE
  2
LAYER
  5
2
330
0
100
AcDbSymbolTable
 70
     9
  0
LAYER
  5
F
330
2
100
AcDbSymbolTableRecord
100
AcDbLayerTableRecord
  2
0
 70
     0
 62
     7
  6
CONTINUOUS
  0
LAYER
  5
62
330
2
100
AcDbSymbolTableRecord
100
AcDbLayerTableRecord
  2
VIEWPORT
 70
     0
 62
     7
  6
CONTINUOUS
  0
LAYER
  5
65
330
2
100
AcDbSymbolTableRecord
100
AcDbLayerTableRecord
  2
ZUWAKU
 70
     0
 62
     7
  6
CONTINUOUS
  0
LAYER
  5
1D2
330
2
100
AcDbSymbolTableRecord
100
AcDbLayerTableRecord
  2
SEIHIN
 70
     0
 62
     3
  6
CONTINUOUS
  0
LAYER
  5
1D3
330
2
100
AcDbSymbolTableRecord
100
AcDbLayerTableRecord
  2
SUNPOU
 70
     0
 62
     4
  6
CONTINUOUS
  0
LAYER
  5
1D4
330
2
100
AcDbSymbolTableRecord
100
AcDbLayerTableRecord
  2
CENTER_L
 70
     0
 62
     1
  6
CENTER
  0
LAYER
  5
1D5
330
2
100
AcDbSymbolTableRecord
100
AcDbLayerTableRecord
  2
NOKITOI
 70
     0
 62
     8
  6
PHANTOM
  0
LAYER
  5
1D6
330
2
100
AcDbSymbolTableRecord
100
AcDbLayerTableRecord
  2
DEFPOINTS
 70
     0
 62
     7
  6
CONTINUOUS
  0
LAYER
  5
DCE
330
2
100
AcDbSymbolTableRecord
100
AcDbLayerTableRecord
  2
MOJI
 70
     0
 62
     2
  6
CONTINUOUS
  0
ENDTAB
  0
TABLE
  2
STYLE
  5
3
330
0
100
AcDbSymbolTable
 70
     2
  0
STYLE
  5
10
330
3
100
AcDbSymbolTableRecord
100
AcDbTextStyleTableRecord
  2
STANDARD
 70
     0
 40
0.0
 41
1.0
 50
0.0
 71
     0
 42
5.0
  3
TXT
  4
bigfont.shx
  0
STYLE
  5
DCF
330
3
100
AcDbSymbolTableRecord
100
AcDbTextStyleTableRecord
  2
ｽﾀｲﾙ1
 70
     0
 40
0.0
 41
1.0
 50
0.0
 71
     0
 42
2.5
  3
MS PGothic.ttf
  4

1001
ACAD
1000
MS PGothic
1071
    32818
  0
ENDTAB
  0
TABLE
  2
VIEW
  5
6
330
0
100
AcDbSymbolTable
 70
     0
  0
ENDTAB
  0
TABLE
  2
UCS
  5
7
330
0
100
AcDbSymbolTable
 70
     0
  0
ENDTAB
  0
TABLE
  2
APPID
  5
9
330
0
100
AcDbSymbolTable
 70
     1
  0
APPID
  5
11
330
9
100
AcDbSymbolTableRecord
100
AcDbRegAppTableRecord
  2
ACAD
 70
     0
  0
ENDTAB
  0
TABLE
  2
DIMSTYLE
  5
A
330
0
100
AcDbSymbolTable
 70
     1
  0
DIMSTYLE
105
1D
102
{ACAD_REACTORS
330
ABC
330
AC9
330
AD6
330
AE3
330
AF0
330
B06
330
B25
330
B58
330
B65
330
B72
330
BD0
330
C91
102
}
330
A
100
AcDbSymbolTableRecord
100
AcDbDimStyleTableRecord
  2
STANDARD
 70
     0
  3

  4

  5

  6

  7

 40
1.0
 41
0.18
 42
0.0625
 43
0.38
 44
0.18
 45
0.0
 46
0.0
 47
0.0
 48
0.0
140
0.18
141
0.09
142
0.0
143
25.4
144
1.0
145
0.0
146
1.0
147
0.09
 71
     0
 72
     0
 73
     1
 74
     1
 75
     0
 76
     0
 77
     0
 78
     0
170
     0
171
     2
172
     0
173
     0
174
     0
175
     0
176
     0
177
     0
178
     0
270
     2
271
     4
272
     4
273
     2
274
     2
340
10
275
     0
280
     0
281
     0
282
     0
283
     1
284
     0
285
     0
286
     0
287
     3
288
     0
  0
ENDTAB
  0
TABLE
  2
BLOCK_RECORD
  5
1
330
0
100
AcDbSymbolTable
 70
    13
  0
BLOCK_RECORD
  5
1A
102
{ACAD_XDICTIONARY
360
975
102
}
330
1
100
AcDbSymbolTableRecord
100
AcDbBlockTableRecord
  2
*MODEL_SPACE
  0
BLOCK_RECORD
  5
17
102
{ACAD_XDICTIONARY
360
973
102
}
330
1
100
AcDbSymbolTableRecord
100
AcDbBlockTableRecord
  2
*PAPER_SPACE
  0
BLOCK_RECORD
  5
6D
330
1
100
AcDbSymbolTableRecord
100
AcDbBlockTableRecord
  2
_OPEN
  0
BLOCK_RECORD
  5
ABD
330
1
100
AcDbSymbolTableRecord
100
AcDbBlockTableRecord
  2
*D1
  0
BLOCK_RECORD
  5
ACA
330
1
100
AcDbSymbolTableRecord
100
AcDbBlockTableRecord
  2
*D2
  0
BLOCK_RECORD
  5
AD7
330
1
100
AcDbSymbolTableRecord
100
AcDbBlockTableRecord
  2
*D3
  0
BLOCK_RECORD
  5
AE4
330
1
100
AcDbSymbolTableRecord
100
AcDbBlockTableRecord
  2
*D4
  0
BLOCK_RECORD
  5
AF1
330
1
100
AcDbSymbolTableRecord
100
AcDbBlockTableRecord
  2
*D5
  0
BLOCK_RECORD
  5
B07
330
1
100
AcDbSymbolTableRecord
100
AcDbBlockTableRecord
  2
*D6
  0
BLOCK_RECORD
  5
B26
330
1
100
AcDbSymbolTableRecord
100
AcDbBlockTableRecord
  2
*D7
  0
BLOCK_RECORD
  5
B59
330
1
100
AcDbSymbolTableRecord
100
AcDbBlockTableRecord
  2
*D8
  0
BLOCK_RECORD
  5
B66
330
1
100
AcDbSymbolTableRecord
100
AcDbBlockTableRecord
  2
*D9
  0
BLOCK_RECORD
  5
B73
330
1
100
AcDbSymbolTableRecord
100
AcDbBlockTableRecord
  2
*D10
  0
BLOCK_RECORD
  5
BD1
330
1
100
AcDbSymbolTableRecord
100
AcDbBlockTableRecord
  2
*D11
  0
BLOCK_RECORD
  5
C92
330
1
100
AcDbSymbolTableRecord
100
AcDbBlockTableRecord
  2
*D12
  0
ENDTAB
  0
ENDSEC
  0
SECTION
  2
BLOCKS
  0
BLOCK
  5
1B
330
1A
100
AcDbEntity
  8
0
100
AcDbBlockBegin
  2
*MODEL_SPACE
 70
     0
 10
0.0
 20
0.0
 30
0.0
  3
*MODEL_SPACE
  1

  0
ENDBLK
  5
1C
330
1A
100
AcDbEntity
  8
0
100
AcDbBlockEnd
  0
BLOCK
  5
18
330
17
100
AcDbEntity
 67
     1
  8
0
100
AcDbBlockBegin
  2
*PAPER_SPACE
 70
     0
 10
0.0
 20
0.0
 30
0.0
  3
*PAPER_SPACE
  1

  0
ENDBLK
  5
19
330
17
100
AcDbEntity
 67
     1
  8
0
100
AcDbBlockEnd
  0
BLOCK
  5
6E
330
6D
100
AcDbEntity
  8
0
100
AcDbBlockBegin
  2
_OPEN
 70
     0
 10
0.0
 20
0.0
 30
0.0
  3
_OPEN
  1

  0
LINE
  5
6F
330
6D
100
AcDbEntity
  8
0
  6
BYBLOCK
 62
     0
100
AcDbLine
 10
-1.0
 20
0.1666666666666666
 30
0.0
 11
0.0
 21
0.0
 31
0.0
  0
LINE
  5
70
330
6D
100
AcDbEntity
  8
0
  6
BYBLOCK
 62
     0
100
AcDbLine
 10
0.0
 20
0.0
 30
0.0
 11
-1.0
 21
-0.1666666666666666
 31
0.0
  0
LINE
  5
71
330
6D
100
AcDbEntity
  8
0
  6
BYBLOCK
 62
     0
100
AcDbLine
 10
0.0
 20
0.0
 30
0.0
 11
-1.0
 21
0.0
 31
0.0
  0
ENDBLK
  5
72
330
6D
100
AcDbEntity
  8
0
100
AcDbBlockEnd
  0
BLOCK
  5
AC7
330
ABD
100
AcDbEntity
  8
0
100
AcDbBlockBegin
  2
*D1
 70
     1
 10
0.0
 20
0.0
 30
0.0
  3
*D1
  1

  0
LINE
  5
F4C
330
ABD
100
AcDbEntity
  8
SUNPOU
 62
     4
100
AcDbLine
 10
365.9308385984593
 20
250.3472825319052
 30
0.0
 11
365.9308385984593
 21
295.3938233078374
 31
0.0
  0
LINE
  5
F4D
330
ABD
100
AcDbEntity
  8
SUNPOU
 62
     4
100
AcDbLine
 10
145.9308385984595
 20
250.3472825319052
 30
0.0
 11
145.9308385984595
 21
295.3938233078374
 31
0.0
  0
LINE
  5
F4E
330
ABD
100
AcDbEntity
  8
SUNPOU
 62
     4
100
AcDbLine
 10
358.9308385984593
 20
292.3938233078374
 30
0.0
 11
152.9308385984595
 21
292.3938233078374
 31
0.0
  0
INSERT
  5
F4F
330
ABD
100
AcDbEntity
  8
SUNPOU
 62
     4
100
AcDbBlockReference
  2
_OPEN
 10
365.9308385984593
 20
292.3938233078374
 30
0.0
 41
7.0
 42
7.0
 43
7.0
  0
INSERT
  5
F50
330
ABD
100
AcDbEntity
  8
SUNPOU
 62
     4
100
AcDbBlockReference
  2
_OPEN
 10
145.9308385984595
 20
292.3938233078374
 30
0.0
 41
7.0
 42
7.0
 43
7.0
 50
180.0
  0
MTEXT
  5
F51
330
ABD
100
AcDbEntity
  8
SUNPOU
 62
     4
100
AcDbMText
 10
255.9308385984594
 20
297.3938233078374
 30
0.0
 40
6.0
 41
0.0
 71
     5
 72
     1
  1
\A1;220
1001
ACAD
1000
MTEXTBEGIN
1070
    73
1070
     1
1070
    44
1040
1.0
1070
    74
1070
     0
1000
MTEXTEND
  0
POINT
  5
F52
330
ABD
100
AcDbEntity
  8
DEFPOINTS
 62
     0
100
AcDbPoint
 10
365.9308385984593
 20
244.3472825319052
 30
0.0
  0
POINT
  5
F53
330
ABD
100
AcDbEntity
  8
DEFPOINTS
 62
     0
100
AcDbPoint
 10
145.9308385984595
 20
244.3472825319052
 30
0.0
  0
POINT
  5
F54
330
ABD
100
AcDbEntity
  8
DEFPOINTS
 62
     0
100
AcDbPoint
 10
145.9308385984595
 20
292.3938233078374
 30
0.0
  0
ENDBLK
  5
AC8
330
ABD
100
AcDbEntity
  8
0
100
AcDbBlockEnd
  0
BLOCK
  5
AD4
330
ACA
100
AcDbEntity
  8
0
100
AcDbBlockBegin
  2
*D2
 70
     1
 10
0.0
 20
0.0
 30
0.0
  3
*D2
  1

  0
LINE
  5
F79
330
ACA
100
AcDbEntity
  8
SUNPOU
 62
     4
100
AcDbLine
 10
500.3279620524399
 20
247.5472825319051
 30
0.0
 11
500.3279620524399
 21
295.3938233078374
 31
0.0
  0
LINE
  5
F7A
330
ACA
100
AcDbEntity
  8
SUNPOU
 62
     4
100
AcDbLine
 10
624.6276588368398
 20
247.5472825319051
 30
0.0
 11
624.6276588368398
 21
295.3938233078374
 31
0.0
  0
LINE
  5
F7B
330
ACA
100
AcDbEntity
  8
SUNPOU
 62
     4
100
AcDbLine
 10
507.3279620524399
 20
292.3938233078374
 30
0.0
 11
617.6276588368398
 21
292.3938233078374
 31
0.0
  0
INSERT
  5
F7C
330
ACA
100
AcDbEntity
  8
SUNPOU
 62
     4
100
AcDbBlockReference
  2
_OPEN
 10
500.3279620524399
 20
292.3938233078374
 30
0.0
 41
7.0
 42
7.0
 43
7.0
 50
180.0
  0
INSERT
  5
F7D
330
ACA
100
AcDbEntity
  8
SUNPOU
 62
     4
100
AcDbBlockReference
  2
_OPEN
 10
624.6276588368398
 20
292.3938233078374
 30
0.0
 41
7.0
 42
7.0
 43
7.0
  0
MTEXT
  5
F7E
330
ACA
100
AcDbEntity
  8
SUNPOU
 62
     4
100
AcDbMText
 10
562.4778104446399
 20
297.3938233078374
 30
0.0
 40
6.0
 41
0.0
 71
     5
 72
     1
  1
\A1;124
1001
ACAD
1000
MTEXTBEGIN
1070
    73
1070
     1
1070
    44
1040
1.0
1070
    74
1070
     0
1000
MTEXTEND
  0
POINT
  5
F7F
330
ACA
100
AcDbEntity
  8
DEFPOINTS
 62
     0
100
AcDbPoint
 10
500.3279620524399
 20
241.5472825319052
 30
0.0
  0
POINT
  5
F80
330
ACA
100
AcDbEntity
  8
DEFPOINTS
 62
     0
100
AcDbPoint
 10
624.6276588368398
 20
241.5472825319052
 30
0.0
  0
POINT
  5
F81
330
ACA
100
AcDbEntity
  8
DEFPOINTS
 62
     0
100
AcDbPoint
 10
624.6276588368398
 20
292.3938233078374
 30
0.0
  0
ENDBLK
  5
AD5
330
ACA
100
AcDbEntity
  8
0
100
AcDbBlockEnd
  0
BLOCK
  5
AE1
330
AD7
100
AcDbEntity
  8
0
100
AcDbBlockBegin
  2
*D3
 70
     1
 10
0.0
 20
0.0
 30
0.0
  3
*D3
  1

  0
LINE
  5
F43
330
AD7
100
AcDbEntity
  8
SUNPOU
 62
     4
100
AcDbLine
 10
497.0279620524397
 20
243.5472825319052
 30
0.0
 11
446.6386214047362
 21
243.5472825319052
 31
0.0
  0
LINE
  5
F44
330
AD7
100
AcDbEntity
  8
SUNPOU
 62
     4
100
AcDbLine
 10
531.1279620524397
 20
120.9472825319051
 30
0.0
 11
446.6386214047361
 21
120.9472825319052
 31
0.0
  0
LINE
  5
F45
330
AD7
100
AcDbEntity
  8
SUNPOU
 62
     4
100
AcDbLine
 10
449.6386214047361
 20
236.5472825319051
 30
0.0
 11
449.6386214047361
 21
127.9472825319052
 31
0.0
  0
INSERT
  5
F46
330
AD7
100
AcDbEntity
  8
SUNPOU
 62
     4
100
AcDbBlockReference
  2
_OPEN
 10
449.6386214047361
 20
243.5472825319052
 30
0.0
 41
7.0
 42
7.0
 43
7.0
 50
90.0
  0
INSERT
  5
F47
330
AD7
100
AcDbEntity
  8
SUNPOU
 62
     4
100
AcDbBlockReference
  2
_OPEN
 10
449.6386214047361
 20
120.9472825319052
 30
0.0
 41
7.0
 42
7.0
 43
7.0
 50
270.0
  0
MTEXT
  5
F48
330
AD7
100
AcDbEntity
  8
SUNPOU
 62
     4
100
AcDbMText
 10
444.6386214047361
 20
182.2472825319052
 30
0.0
 40
6.0
 41
0.0
 71
     5
 72
     1
  1
\A1;123
 11
0.0000000000000001
 21
1.0
 31
0.0
1001
ACAD
1000
MTEXTBEGIN
1070
    73
1070
     1
1070
    44
1040
1.0
1070
    74
1070
     0
1000
MTEXTEND
  0
POINT
  5
F49
330
AD7
100
AcDbEntity
  8
DEFPOINTS
 62
     0
100
AcDbPoint
 10
503.0279620524397
 20
243.5472825319052
 30
0.0
  0
POINT
  5
F4A
330
AD7
100
AcDbEntity
  8
DEFPOINTS
 62
     0
100
AcDbPoint
 10
537.1279620524396
 20
120.9472825319051
 30
0.0
  0
POINT
  5
F4B
330
AD7
100
AcDbEntity
  8
DEFPOINTS
 62
     0
100
AcDbPoint
 10
449.6386214047361
 20
120.9472825319052
 30
0.0
  0
ENDBLK
  5
AE2
330
AD7
100
AcDbEntity
  8
0
100
AcDbBlockEnd
  0
BLOCK
  5
AEE
330
AE4
100
AcDbEntity
  8
0
100
AcDbBlockBegin
  2
*D4
 70
     1
 10
0.0
 20
0.0
 30
0.0
  3
*D4
  1

  0
LINE
  5
F9F
330
AE4
100
AcDbEntity
  8
SUNPOU
 62
     4
100
AcDbLine
 10
497.0279620524397
 20
243.5472825319052
 30
0.0
 11
461.1945207500967
 21
243.5472825319052
 31
0.0
  0
LINE
  5
FA0
330
AE4
100
AcDbEntity
  8
SUNPOU
 62
     4
100
AcDbLine
 10
521.1017494312398
 20
164.6472825319052
 30
0.0
 11
461.1945207500967
 21
164.6472825319052
 31
0.0
  0
LINE
  5
FA1
330
AE4
100
AcDbEntity
  8
SUNPOU
 62
     4
100
AcDbLine
 10
464.1945207500966
 20
236.5472825319051
 30
0.0
 11
464.1945207500966
 21
171.6472825319051
 31
0.0
  0
INSERT
  5
FA2
330
AE4
100
AcDbEntity
  8
SUNPOU
 62
     4
100
AcDbBlockReference
  2
_OPEN
 10
464.1945207500966
 20
243.5472825319052
 30
0.0
 41
7.0
 42
7.0
 43
7.0
 50
90.0
  0
INSERT
  5
FA3
330
AE4
100
AcDbEntity
  8
SUNPOU
 62
     4
100
AcDbBlockReference
  2
_OPEN
 10
464.1945207500966
 20
164.6472825319052
 30
0.0
 41
7.0
 42
7.0
 43
7.0
 50
270.0
  0
MTEXT
  5
FA4
330
AE4
100
AcDbEntity
  8
SUNPOU
 62
     4
100
AcDbMText
 10
459.1945207500966
 20
204.0972825319052
 30
0.0
 40
6.0
 41
0.0
 71
     5
 72
     1
  1
\A1;79
 11
0.0000000000000001
 21
1.0
 31
0.0
1001
ACAD
1000
MTEXTBEGIN
1070
    73
1070
     1
1070
    44
1040
1.0
1070
    74
1070
     0
1000
MTEXTEND
  0
POINT
  5
FA5
330
AE4
100
AcDbEntity
  8
DEFPOINTS
 62
     0
100
AcDbPoint
 10
503.0279620524397
 20
243.5472825319052
 30
0.0
  0
POINT
  5
FA6
330
AE4
100
AcDbEntity
  8
DEFPOINTS
 62
     0
100
AcDbPoint
 10
527.1017494312397
 20
164.6472825319052
 30
0.0
  0
POINT
  5
FA7
330
AE4
100
AcDbEntity
  8
DEFPOINTS
 62
     0
100
AcDbPoint
 10
464.1945207500966
 20
164.6472825319052
 30
0.0
  0
ENDBLK
  5
AEF
330
AE4
100
AcDbEntity
  8
0
100
AcDbBlockEnd
  0
BLOCK
  5
AFB
330
AF1
100
AcDbEntity
  8
0
100
AcDbBlockBegin
  2
*D5
 70
     1
 10
0.0
 20
0.0
 30
0.0
  3
*D5
  1

  0
LINE
  5
F82
330
AF1
100
AcDbEntity
  8
SUNPOU
 62
     4
100
AcDbLine
 10
531.3277620524717
 20
120.9472425320077
 30
0.0
 11
531.3277620524717
 21
69.8397311031963
 31
0.0
  0
LINE
  5
F83
330
AF1
100
AcDbEntity
  8
SUNPOU
 62
     4
100
AcDbLine
 10
601.3279620524399
 20
120.9470725319051
 30
0.0
 11
601.3279620524399
 21
69.8397311031963
 31
0.0
  0
LINE
  5
F84
330
AF1
100
AcDbEntity
  8
SUNPOU
 62
     4
100
AcDbLine
 10
538.3277620524717
 20
72.8397311031963
 30
0.0
 11
594.3279620524399
 21
72.8397311031963
 31
0.0
  0
INSERT
  5
F85
330
AF1
100
AcDbEntity
  8
SUNPOU
 62
     4
100
AcDbBlockReference
  2
_OPEN
 10
531.3277620524717
 20
72.8397311031963
 30
0.0
 41
7.0
 42
7.0
 43
7.0
 50
180.0
  0
INSERT
  5
F86
330
AF1
100
AcDbEntity
  8
SUNPOU
 62
     4
100
AcDbBlockReference
  2
_OPEN
 10
601.3279620524399
 20
72.8397311031963
 30
0.0
 41
7.0
 42
7.0
 43
7.0
  0
MTEXT
  5
F87
330
AF1
100
AcDbEntity
  8
SUNPOU
 62
     4
100
AcDbMText
 10
566.3278620524558
 20
77.8397311031963
 30
0.0
 40
6.0
 41
0.0
 71
     5
 72
     1
  1
\A1;φ70
1001
ACAD
1000
MTEXTBEGIN
1070
    73
1070
     1
1070
    44
1040
1.0
1070
    74
1070
     0
1000
MTEXTEND
  0
POINT
  5
F88
330
AF1
100
AcDbEntity
  8
DEFPOINTS
 62
     0
100
AcDbPoint
 10
531.3277620524717
 20
126.9472425320076
 30
0.0
  0
POINT
  5
F89
330
AF1
100
AcDbEntity
  8
DEFPOINTS
 62
     0
100
AcDbPoint
 10
601.3279620524399
 20
126.9470725319051
 30
0.0
  0
POINT
  5
F8A
330
AF1
100
AcDbEntity
  8
DEFPOINTS
 62
     0
100
AcDbPoint
 10
601.3279620524399
 20
72.8397311031963
 30
0.0
  0
ENDBLK
  5
AFC
330
AF1
100
AcDbEntity
  8
0
100
AcDbBlockEnd
  0
BLOCK
  5
B13
330
B07
100
AcDbEntity
  8
0
100
AcDbBlockBegin
  2
*D6
 70
     1
 10
0.0
 20
0.0
 30
0.0
  3
*D6
  1

  0
LINE
  5
F8B
330
B07
100
AcDbEntity
  8
SUNPOU
 62
     4
100
AcDbLine
 10
562.5279620524398
 20
211.1688384404535
 30
0.0
 11
562.5279620524398
 21
228.7017452718691
 31
0.0
  0
LINE
  5
F8C
330
B07
100
AcDbEntity
  8
SUNPOU
 62
     4
100
AcDbLine
 10
566.3279620524397
 20
219.4030130951495
 30
0.0
 11
566.3279620524397
 21
228.7017452718691
 31
0.0
  0
LINE
  5
F8D
330
B07
100
AcDbEntity
  8
SUNPOU
 62
     4
100
AcDbLine
 10
555.5279620524397
 20
225.7017452718691
 30
0.0
 11
548.5279620524397
 21
225.7017452718691
 31
0.0
  0
LINE
  5
F8E
330
B07
100
AcDbEntity
  8
SUNPOU
 62
     4
100
AcDbLine
 10
573.3279620524397
 20
225.7017452718691
 30
0.0
 11
588.3279620524397
 21
225.7017452718691
 31
0.0
  0
LINE
  5
F8F
330
B07
100
AcDbEntity
  8
SUNPOU
 62
     4
100
AcDbLine
 10
562.5279620524398
 20
225.7017452718691
 30
0.0
 11
566.3279620524397
 21
225.7017452718691
 31
0.0
  0
INSERT
  5
F90
330
B07
100
AcDbEntity
  8
SUNPOU
 62
     4
100
AcDbBlockReference
  2
_OPEN
 10
562.5279620524398
 20
225.7017452718691
 30
0.0
 41
7.0
 42
7.0
 43
7.0
  0
INSERT
  5
F91
330
B07
100
AcDbEntity
  8
SUNPOU
 62
     4
100
AcDbBlockReference
  2
_OPEN
 10
566.3279620524397
 20
225.7017452718691
 30
0.0
 41
7.0
 42
7.0
 43
7.0
 50
180.0
  0
MTEXT
  5
F92
330
B07
100
AcDbEntity
  8
SUNPOU
 62
     4
100
AcDbMText
 10
584.3279620524397
 20
230.7017452718691
 30
0.0
 40
6.0
 41
0.0
 71
     5
 72
     1
  1
\A1;4
1001
ACAD
1000
MTEXTBEGIN
1070
    73
1070
     1
1070
    44
1040
1.0
1070
    74
1070
     0
1000
MTEXTEND
  0
POINT
  5
F93
330
B07
100
AcDbEntity
  8
DEFPOINTS
 62
     0
100
AcDbPoint
 10
562.5279620524398
 20
205.1688384404535
 30
0.0
  0
POINT
  5
F94
330
B07
100
AcDbEntity
  8
DEFPOINTS
 62
     0
100
AcDbPoint
 10
566.3279620524397
 20
213.4030130951495
 30
0.0
  0
POINT
  5
F95
330
B07
100
AcDbEntity
  8
DEFPOINTS
 62
     0
100
AcDbPoint
 10
566.3279620524397
 20
225.7017452718691
 30
0.0
  0
ENDBLK
  5
B14
330
B07
100
AcDbEntity
  8
0
100
AcDbBlockEnd
  0
BLOCK
  5
B32
330
B26
100
AcDbEntity
  8
0
100
AcDbBlockBegin
  2
*D7
 70
     1
 10
0.0
 20
0.0
 30
0.0
  3
*D7
  1

  0
LINE
  5
FDD
330
B26
100
AcDbEntity
  8
SUNPOU
 62
     4
100
AcDbLine
 10
525.3277620524397
 20
126.9471125319052
 30
0.0
 11
496.4520227316096
 21
126.9471125319052
 31
0.0
  0
LINE
  5
FDE
330
B26
100
AcDbEntity
  8
SUNPOU
 62
     4
100
AcDbLine
 10
523.8340408942129
 20
136.9475423493172
 30
0.0
 11
496.4520227316097
 21
136.9475423493172
 31
0.0
  0
LINE
  5
FDF
330
B26
100
AcDbEntity
  8
SUNPOU
 62
     4
100
AcDbLine
 10
499.4520227316097
 20
119.9471125319051
 30
0.0
 11
499.4520227316097
 21
112.9471125319051
 31
0.0
  0
LINE
  5
FE0
330
B26
100
AcDbEntity
  8
SUNPOU
 62
     4
100
AcDbLine
 10
499.4520227316098
 20
143.9475423493172
 30
0.0
 11
499.4520227316098
 21
150.9475423493173
 31
0.0
  0
MTEXT
  5
FE1
330
B26
100
AcDbEntity
  8
SUNPOU
 62
     4
100
AcDbMText
 10
493.0343854028851
 20
148.552400304306
 30
0.0
 40
6.0
 41
0.0
 71
     5
 72
     1
  1
\A1;\U+203B10
 11
0.0000000000000001
 21
1.0
 31
0.0
  0
LINE
  5
FE2
330
B26
100
AcDbEntity
  8
SUNPOU
 62
     4
100
AcDbLine
 10
499.4520227316097
 20
126.9471125319052
 30
0.0
 11
499.4520227316098
 21
136.9475423493172
 31
0.0
  0
INSERT
  5
FE3
330
B26
100
AcDbEntity
  8
SUNPOU
 62
     4
100
AcDbBlockReference
  2
_OPEN
 10
499.4520227316097
 20
126.9471125319052
 30
0.0
 41
7.0
 42
7.0
 43
7.0
 50
90.0
  0
INSERT
  5
FE4
330
B26
100
AcDbEntity
  8
SUNPOU
 62
     4
100
AcDbBlockReference
  2
_OPEN
 10
499.4520227316098
 20
136.9475423493172
 30
0.0
 41
7.0
 42
7.0
 43
7.0
 50
270.0
  0
POINT
  5
FE5
330
B26
100
AcDbEntity
  8
DEFPOINTS
 62
     0
100
AcDbPoint
 10
531.3277620524397
 20
126.9471125319052
 30
0.0
  0
POINT
  5
FE6
330
B26
100
AcDbEntity
  8
DEFPOINTS
 62
     0
100
AcDbPoint
 10
529.8340408942128
 20
136.9475423493172
 30
0.0
  0
POINT
  5
FE7
330
B26
100
AcDbEntity
  8
DEFPOINTS
 62
     0
100
AcDbPoint
 10
499.4520227316098
 20
136.9475423493172
 30
0.0
  0
ENDBLK
  5
B33
330
B26
100
AcDbEntity
  8
0
100
AcDbBlockEnd
  0
BLOCK
  5
B63
330
B59
100
AcDbEntity
  8
0
100
AcDbBlockBegin
  2
*D8
 70
     1
 10
0.0
 20
0.0
 30
0.0
  3
*D8
  1

  0
LINE
  5
F67
330
B59
100
AcDbEntity
  8
SUNPOU
 62
     4
100
AcDbLine
 10
365.9308385984593
 20
366.0225613063422
 30
0.0
 11
365.9308385984593
 21
341.9735812139351
 31
0.0
  0
LINE
  5
F68
330
B59
100
AcDbEntity
  8
SUNPOU
 62
     4
100
AcDbLine
 10
295.9308385984594
 20
367.5225613063422
 30
0.0
 11
295.9308385984594
 21
341.9735812139351
 31
0.0
  0
LINE
  5
F69
330
B59
100
AcDbEntity
  8
SUNPOU
 62
     4
100
AcDbLine
 10
358.9308385984593
 20
344.9735812139351
 30
0.0
 11
302.9308385984593
 21
344.9735812139351
 31
0.0
  0
INSERT
  5
F6A
330
B59
100
AcDbEntity
  8
SUNPOU
 62
     4
100
AcDbBlockReference
  2
_OPEN
 10
365.9308385984593
 20
344.9735812139351
 30
0.0
 41
7.0
 42
7.0
 43
7.0
  0
INSERT
  5
F6B
330
B59
100
AcDbEntity
  8
SUNPOU
 62
     4
100
AcDbBlockReference
  2
_OPEN
 10
295.9308385984594
 20
344.9735812139351
 30
0.0
 41
7.0
 42
7.0
 43
7.0
 50
180.0
  0
MTEXT
  5
F6C
330
B59
100
AcDbEntity
  8
SUNPOU
 62
     4
100
AcDbMText
 10
330.9308385984593
 20
349.9735812139352
 30
0.0
 40
6.0
 41
0.0
 71
     5
 72
     1
  1
\A1;\U+203B70
1001
ACAD
1000
MTEXTBEGIN
1070
    73
1070
     1
1070
    44
1040
1.0
1070
    74
1070
     0
1000
MTEXTEND
  0
POINT
  5
F6D
330
B59
100
AcDbEntity
  8
DEFPOINTS
 62
     0
100
AcDbPoint
 10
365.9308385984593
 20
372.0225613063422
 30
0.0
  0
POINT
  5
F6E
330
B59
100
AcDbEntity
  8
DEFPOINTS
 62
     0
100
AcDbPoint
 10
295.9308385984594
 20
373.5225613063422
 30
0.0
  0
POINT
  5
F6F
330
B59
100
AcDbEntity
  8
DEFPOINTS
 62
     0
100
AcDbPoint
 10
295.9308385984594
 20
344.9735812139351
 30
0.0
  0
ENDBLK
  5
B64
330
B59
100
AcDbEntity
  8
0
100
AcDbBlockEnd
  0
BLOCK
  5
B70
330
B66
100
AcDbEntity
  8
0
100
AcDbBlockBegin
  2
*D9
 70
     1
 10
0.0
 20
0.0
 30
0.0
  3
*D9
  1

  0
LINE
  5
FE8
330
B66
100
AcDbEntity
  8
SUNPOU
 62
     4
100
AcDbLine
 10
295.9308385984594
 20
367.5225613063422
 30
0.0
 11
295.9308385984594
 21
341.9735812139351
 31
0.0
  0
LINE
  5
FE9
330
B66
100
AcDbEntity
  8
SUNPOU
 62
     4
100
AcDbLine
 10
215.9308385984593
 20
367.5225613063422
 30
0.0
 11
215.9308385984593
 21
341.9735812139351
 31
0.0
  0
LINE
  5
FEA
330
B66
100
AcDbEntity
  8
SUNPOU
 62
     4
100
AcDbLine
 10
288.9308385984593
 20
344.9735812139351
 30
0.0
 11
222.9308385984593
 21
344.9735812139351
 31
0.0
  0
INSERT
  5
FEB
330
B66
100
AcDbEntity
  8
SUNPOU
 62
     4
100
AcDbBlockReference
  2
_OPEN
 10
295.9308385984594
 20
344.9735812139351
 30
0.0
 41
7.0
 42
7.0
 43
7.0
  0
INSERT
  5
FEC
330
B66
100
AcDbEntity
  8
SUNPOU
 62
     4
100
AcDbBlockReference
  2
_OPEN
 10
215.9308385984593
 20
344.9735812139351
 30
0.0
 41
7.0
 42
7.0
 43
7.0
 50
180.0
  0
MTEXT
  5
FED
330
B66
100
AcDbEntity
  8
SUNPOU
 62
     4
100
AcDbMText
 10
255.9308385984593
 20
349.9735812139352
 30
0.0
 40
6.0
 41
0.0
 71
     5
 72
     1
  1
\A1;80
  0
POINT
  5
FEE
330
B66
100
AcDbEntity
  8
DEFPOINTS
 62
     0
100
AcDbPoint
 10
295.9308385984594
 20
373.5225613063422
 30
0.0
  0
POINT
  5
FEF
330
B66
100
AcDbEntity
  8
DEFPOINTS
 62
     0
100
AcDbPoint
 10
215.9308385984593
 20
373.5225613063422
 30
0.0
  0
POINT
  5
FF0
330
B66
100
AcDbEntity
  8
DEFPOINTS
 62
     0
100
AcDbPoint
 10
215.9308385984593
 20
344.9735812139351
 30
0.0
  0
ENDBLK
  5
B71
330
B66
100
AcDbEntity
  8
0
100
AcDbBlockEnd
  0
BLOCK
  5
B7D
330
B73
100
AcDbEntity
  8
0
100
AcDbBlockBegin
  2
*D10
 70
     1
 10
0.0
 20
0.0
 30
0.0
  3
*D10
  1

  0
LINE
  5
FF1
330
B73
100
AcDbEntity
  8
SUNPOU
 62
     4
100
AcDbLine
 10
215.9308385984593
 20
367.5225613063422
 30
0.0
 11
215.9308385984593
 21
341.9735812139351
 31
0.0
  0
LINE
  5
FF2
330
B73
100
AcDbEntity
  8
SUNPOU
 62
     4
100
AcDbLine
 10
145.9308385984595
 20
366.0225613063422
 30
0.0
 11
145.9308385984595
 21
341.9735812139351
 31
0.0
  0
LINE
  5
FF3
330
B73
100
AcDbEntity
  8
SUNPOU
 62
     4
100
AcDbLine
 10
208.9308385984593
 20
344.9735812139351
 30
0.0
 11
152.9308385984595
 21
344.9735812139351
 31
0.0
  0
INSERT
  5
FF4
330
B73
100
AcDbEntity
  8
SUNPOU
 62
     4
100
AcDbBlockReference
  2
_OPEN
 10
215.9308385984593
 20
344.9735812139351
 30
0.0
 41
7.0
 42
7.0
 43
7.0
  0
INSERT
  5
FF5
330
B73
100
AcDbEntity
  8
SUNPOU
 62
     4
100
AcDbBlockReference
  2
_OPEN
 10
145.9308385984595
 20
344.9735812139351
 30
0.0
 41
7.0
 42
7.0
 43
7.0
 50
180.0
  0
MTEXT
  5
FF6
330
B73
100
AcDbEntity
  8
SUNPOU
 62
     4
100
AcDbMText
 10
180.9308385984594
 20
349.9735812139352
 30
0.0
 40
6.0
 41
0.0
 71
     5
 72
     1
  1
\A1;\U+203B70
  0
POINT
  5
FF7
330
B73
100
AcDbEntity
  8
DEFPOINTS
 62
     0
100
AcDbPoint
 10
215.9308385984593
 20
373.5225613063422
 30
0.0
  0
POINT
  5
FF8
330
B73
100
AcDbEntity
  8
DEFPOINTS
 62
     0
100
AcDbPoint
 10
145.9308385984595
 20
372.0225613063422
 30
0.0
  0
POINT
  5
FF9
330
B73
100
AcDbEntity
  8
DEFPOINTS
 62
     0
100
AcDbPoint
 10
145.9308385984595
 20
344.9735812139351
 30
0.0
  0
ENDBLK
  5
B7E
330
B73
100
AcDbEntity
  8
0
100
AcDbBlockEnd
  0
BLOCK
  5
BDB
330
BD1
100
AcDbEntity
  8
0
100
AcDbBlockBegin
  2
*D11
 70
     1
 10
0.0
 20
0.0
 30
0.0
  3
*D11
  1

  0
LINE
  5
F96
330
BD1
100
AcDbEntity
  8
SUNPOU
 62
     4
100
AcDbLine
 10
497.0279620524397
 20
243.5472825319052
 30
0.0
 11
476.8804886979905
 21
243.5472825319052
 31
0.0
  0
LINE
  5
F97
330
BD1
100
AcDbEntity
  8
SUNPOU
 62
     4
100
AcDbLine
 10
548.3414828880492
 20
186.8473833284341
 30
0.0
 11
476.8804886979905
 21
186.8473833284341
 31
0.0
  0
LINE
  5
F98
330
BD1
100
AcDbEntity
  8
SUNPOU
 62
     4
100
AcDbLine
 10
479.8804886979906
 20
236.5472825319051
 30
0.0
 11
479.8804886979906
 21
193.8473833284341
 31
0.0
  0
INSERT
  5
F99
330
BD1
100
AcDbEntity
  8
SUNPOU
 62
     4
100
AcDbBlockReference
  2
_OPEN
 10
479.8804886979906
 20
243.5472825319052
 30
0.0
 41
7.0
 42
7.0
 43
7.0
 50
90.0
  0
INSERT
  5
F9A
330
BD1
100
AcDbEntity
  8
SUNPOU
 62
     4
100
AcDbBlockReference
  2
_OPEN
 10
479.8804886979906
 20
186.8473833284341
 30
0.0
 41
7.0
 42
7.0
 43
7.0
 50
270.0
  0
MTEXT
  5
F9B
330
BD1
100
AcDbEntity
  8
SUNPOU
 62
     4
100
AcDbMText
 10
474.8804886979905
 20
215.1973329301697
 30
0.0
 40
6.0
 41
0.0
 71
     5
 72
     1
  1
\A1;57
 11
0.0000000000000001
 21
1.0
 31
0.0
1001
ACAD
1000
MTEXTBEGIN
1070
    73
1070
     1
1070
    44
1040
1.0
1070
    74
1070
     0
1000
MTEXTEND
  0
POINT
  5
F9C
330
BD1
100
AcDbEntity
  8
DEFPOINTS
 62
     0
100
AcDbPoint
 10
503.0279620524397
 20
243.5472825319052
 30
0.0
  0
POINT
  5
F9D
330
BD1
100
AcDbEntity
  8
DEFPOINTS
 62
     0
100
AcDbPoint
 10
554.3414828880493
 20
186.8473833284341
 30
0.0
  0
POINT
  5
F9E
330
BD1
100
AcDbEntity
  8
DEFPOINTS
 62
     0
100
AcDbPoint
 10
479.8804886979906
 20
186.8473833284341
 30
0.0
  0
ENDBLK
  5
BDC
330
BD1
100
AcDbEntity
  8
0
100
AcDbBlockEnd
  0
BLOCK
  5
C9C
330
C92
100
AcDbEntity
  8
0
100
AcDbBlockBegin
  2
*D12
 70
     1
 10
0.0
 20
0.0
 30
0.0
  3
*D12
  1

  0
LINE
  5
F55
330
C92
100
AcDbEntity
  8
SUNPOU
 62
     4
100
AcDbLine
 10
145.9308385984595
 20
366.0225613063422
 30
0.0
 11
145.9308385984595
 21
327.2479206761031
 31
0.0
  0
LINE
  5
F56
330
C92
100
AcDbEntity
  8
SUNPOU
 62
     4
100
AcDbLine
 10
365.9308385984593
 20
366.0225613063422
 30
0.0
 11
365.9308385984593
 21
327.2479206761031
 31
0.0
  0
LINE
  5
F57
330
C92
100
AcDbEntity
  8
SUNPOU
 62
     4
100
AcDbLine
 10
152.9308385984595
 20
330.2479206761031
 30
0.0
 11
358.9308385984593
 21
330.2479206761031
 31
0.0
  0
INSERT
  5
F58
330
C92
100
AcDbEntity
  8
SUNPOU
 62
     4
100
AcDbBlockReference
  2
_OPEN
 10
145.9308385984595
 20
330.2479206761031
 30
0.0
 41
7.0
 42
7.0
 43
7.0
 50
180.0
  0
INSERT
  5
F59
330
C92
100
AcDbEntity
  8
SUNPOU
 62
     4
100
AcDbBlockReference
  2
_OPEN
 10
365.9308385984593
 20
330.2479206761031
 30
0.0
 41
7.0
 42
7.0
 43
7.0
  0
MTEXT
  5
F5A
330
C92
100
AcDbEntity
  8
SUNPOU
 62
     4
100
AcDbMText
 10
255.9308385984594
 20
335.2479206761031
 30
0.0
 40
6.0
 41
0.0
 71
     5
 72
     1
  1
\A1;220
1001
ACAD
1000
MTEXTBEGIN
1070
    73
1070
     1
1070
    44
1040
1.0
1070
    74
1070
     0
1000
MTEXTEND
  0
POINT
  5
F5B
330
C92
100
AcDbEntity
  8
DEFPOINTS
 62
     0
100
AcDbPoint
 10
145.9308385984595
 20
372.0225613063422
 30
0.0
  0
POINT
  5
F5C
330
C92
100
AcDbEntity
  8
DEFPOINTS
 62
     0
100
AcDbPoint
 10
365.9308385984593
 20
372.0225613063422
 30
0.0
  0
POINT
  5
F5D
330
C92
100
AcDbEntity
  8
DEFPOINTS
 62
     0
100
AcDbPoint
 10
365.9308385984593
 20
330.2479206761031
 30
0.0
  0
ENDBLK
  5
C9D
330
C92
100
AcDbEntity
  8
0
100
AcDbBlockEnd
  0
ENDSEC
  0
SECTION
  2
ENTITIES
  0
LINE
  5
629
330
1A
100
AcDbEntity
  8
SEIHIN
100
AcDbLine
 10
595.5279620524398
 20
120.9472825319051
 30
0.0
 11
537.1279620524396
 21
120.9472825319051
 31
0.0
  0
LINE
  5
62B
330
1A
100
AcDbEntity
  8
SEIHIN
100
AcDbLine
 10
599.1709986743399
 20
186.8472825319051
 30
0.0
 11
554.2362762488396
 21
186.8472825319051
 31
0.0
  0
LINE
  5
62C
330
1A
100
AcDbEntity
  8
SEIHIN
100
AcDbLine
 10
599.7064437415397
 20
185.3472825319052
 30
0.0
 11
554.2362745684397
 21
185.3472825319052
 31
0.0
  0
LINE
  5
62D
330
1A
100
AcDbEntity
  8
SEIHIN
100
AcDbLine
 10
527.1017494312397
 20
164.6472825319052
 30
0.0
 11
605.5236659897397
 21
164.6472825319052
 31
0.0
  0
LINE
  5
62E
330
1A
100
AcDbEntity
  8
SEIHIN
100
AcDbLine
 10
595.5279620524398
 20
120.9472825319051
 30
0.0
 11
537.1279620524396
 21
120.9472825319051
 31
0.0
  0
LINE
  5
62F
330
1A
100
AcDbEntity
  8
SEIHIN
100
AcDbLine
 10
599.9563181063397
 20
184.6472825319052
 30
0.0
 11
554.2362761306399
 21
184.6472825319052
 31
0.0
  0
LINE
  5
631
330
1A
100
AcDbEntity
  8
SEIHIN
100
AcDbLine
 10
193.0355249545593
 20
164.6472825319052
 30
0.0
 11
318.8261522422594
 21
164.6472825319052
 31
0.0
  0
LINE
  5
632
330
1A
100
AcDbEntity
  8
SEIHIN
100
AcDbLine
 10
165.9308385984593
 20
243.5472825319052
 30
0.0
 11
345.9308385984593
 21
243.5472825319052
 31
0.0
  0
LINE
  5
633
330
1A
100
AcDbEntity
  8
SEIHIN
100
AcDbLine
 10
345.9308385984593
 20
222.6472825319051
 30
0.0
 11
165.9308385984593
 21
222.6472825319051
 31
0.0
  0
LINE
  5
634
330
1A
100
AcDbEntity
  8
SEIHIN
100
AcDbLine
 10
165.9308385984595
 20
222.6472825319051
 30
0.0
 11
345.9308385984593
 21
222.6472825319051
 31
0.0
  0
LINE
  5
635
330
1A
100
AcDbEntity
  8
SEIHIN
100
AcDbLine
 10
345.9308385984593
 20
243.5472825319052
 30
0.0
 11
165.9308385984595
 21
243.5472825319052
 31
0.0
  0
LINE
  5
636
330
1A
100
AcDbEntity
  8
SEIHIN
100
AcDbLine
 10
318.8261522423595
 20
164.6472825319052
 30
0.0
 11
193.0355249546594
 21
164.6472825319052
 31
0.0
  0
LINE
  5
637
330
1A
100
AcDbEntity
  8
SEIHIN
100
AcDbLine
 10
145.9308385984595
 20
185.3472825319052
 30
0.0
 11
145.9308385984595
 21
244.3472825319052
 31
0.0
  0
ARC
  5
638
330
1A
100
AcDbEntity
  8
SEIHIN
100
AcDbCircle
 10
331.8287616211593
 20
259.7670769382052
 30
0.0
 40
170.0
100
AcDbArc
 50
192.6122407013003
 51
212.9163061578989
  0
LINE
  5
639
330
1A
100
AcDbEntity
  8
SEIHIN
100
AcDbLine
 10
165.9308385984595
 20
187.6472825319052
 30
0.0
 11
165.9308385984595
 21
220.6472825319051
 31
0.0
  0
LINE
  5
63A
330
1A
100
AcDbEntity
  8
SEIHIN
100
AcDbLine
 10
166.9655009589594
 20
183.8195526436051
 30
0.0
 11
189.2873546693595
 21
165.9620696752052
 31
0.0
  0
LINE
  5
63B
330
1A
100
AcDbEntity
  8
SEIHIN
100
AcDbLine
 10
145.9308385984595
 20
185.3472825319052
 30
0.0
 11
164.6066350973594
 21
184.6936296544051
 31
0.0
  0
LINE
  5
63C
330
1A
100
AcDbEntity
  8
SEIHIN
100
AcDbLine
 10
163.9445333468593
 20
184.7168032157052
 30
0.0
 11
145.9308385984595
 21
185.3472825319052
 31
0.0
  0
ARC
  5
63D
330
1A
100
AcDbEntity
  8
SEIHIN
100
AcDbCircle
 10
164.4667207686593
 20
180.6960774058051
 30
0.0
 40
4.0
100
AcDbArc
 50
51.34019174590279
 51
87.99546596789207
  0
ARC
  5
63E
330
1A
100
AcDbEntity
  8
SEIHIN
100
AcDbCircle
 10
194.1564614116593
 20
170.6472825319051
 30
0.0
 40
6.0
100
AcDbArc
 50
212.9163061578989
 51
270.0
  0
ARC
  5
63F
330
1A
100
AcDbEntity
  8
SEIHIN
100
AcDbCircle
 10
193.0355249546594
 20
170.6472825319051
 30
0.0
 40
6.0
100
AcDbArc
 50
231.3401917459028
 51
270.0
  0
LINE
  5
640
330
1A
100
AcDbEntity
  8
SEIHIN
100
AcDbLine
 10
145.9308385984595
 20
223.3472825319052
 30
0.0
 11
165.9308385984595
 21
222.6472825319051
 31
0.0
  0
LINE
  5
641
330
1A
100
AcDbEntity
  8
SEIHIN
100
AcDbLine
 10
145.9308385984595
 20
243.5472825319052
 30
0.0
 11
165.9308385984595
 21
243.5472825319052
 31
0.0
  0
LINE
  5
642
330
1A
100
AcDbEntity
  8
SEIHIN
100
AcDbLine
 10
165.9308385984595
 20
244.3472825319052
 30
0.0
 11
145.9308385984595
 21
244.3472825319052
 31
0.0
  0
LINE
  5
643
330
1A
100
AcDbEntity
  8
SEIHIN
100
AcDbLine
 10
165.9308385984595
 20
243.5472825319052
 30
0.0
 11
165.9308385984595
 21
244.3472825319052
 31
0.0
  0
LINE
  5
647
330
1A
100
AcDbEntity
  8
CENTER_L
 48
10.0
100
AcDbLine
 10
255.9308385984592
 20
113.9472825319051
 30
0.0
 11
255.9308385984593
 21
250.5472825319051
 31
0.0
  0
LINE
  5
648
330
1A
100
AcDbEntity
  8
CENTER_L
 48
10.0
100
AcDbLine
 10
566.3279620524397
 20
113.9472825319051
 30
0.0
 11
566.3279620524397
 21
213.4030130951495
 31
0.0
  0
LINE
  5
64E
330
1A
100
AcDbEntity
  8
SEIHIN
100
AcDbLine
 10
226.7308385984593
 20
120.9472825319051
 30
0.0
 11
285.1308385984594
 21
120.9472825319051
 31
0.0
  0
LINE
  5
64F
330
1A
100
AcDbEntity
  8
SEIHIN
100
AcDbLine
 10
285.1311385984593
 20
120.9471325319052
 30
0.0
 11
255.9311385984592
 21
120.9472525319051
 31
0.0
  0
LINE
  5
650
330
1A
100
AcDbEntity
  8
SEIHIN
100
AcDbLine
 10
255.9311385984592
 20
126.9473025319052
 30
0.0
 11
290.9310385984595
 21
126.9471125319052
 31
0.0
  0
LINE
  5
651
330
1A
100
AcDbEntity
  8
SEIHIN
100
AcDbLine
 10
285.1309385984593
 20
120.9471325319052
 30
0.0
 11
255.9308385984593
 21
120.9472825319051
 31
0.0
  0
LINE
  5
652
330
1A
100
AcDbEntity
  8
SEIHIN
100
AcDbLine
 10
255.9308385984593
 20
126.9473025319052
 30
0.0
 11
290.9308385984593
 21
126.9470725319051
 31
0.0
  0
LINE
  5
653
330
1A
100
AcDbEntity
  8
SEIHIN
100
AcDbLine
 10
285.1308385984594
 20
120.9472825319051
 30
0.0
 11
226.7308385984593
 21
120.9472825319051
 31
0.0
  0
LINE
  5
654
330
1A
100
AcDbEntity
  8
SEIHIN
100
AcDbLine
 10
255.9305385984594
 20
126.9473025319052
 30
0.0
 11
220.9306385984593
 21
126.9471125319052
 31
0.0
  0
LINE
  5
655
330
1A
100
AcDbEntity
  8
SEIHIN
100
AcDbLine
 10
226.7305385984593
 20
120.9471325319052
 30
0.0
 11
255.9305385984594
 21
120.9472525319051
 31
0.0
  0
LINE
  5
657
330
1A
100
AcDbEntity
  8
SEIHIN
100
AcDbLine
 10
226.7307385984595
 20
120.9471325319052
 30
0.0
 11
226.7308385984593
 21
126.9473725319052
 31
0.0
  0
LINE
  5
65A
330
1A
100
AcDbEntity
  8
SEIHIN
100
AcDbLine
 10
285.1309385984593
 20
120.9471325319052
 30
0.0
 11
285.1308385984594
 21
126.9473725319052
 31
0.0
  0
LINE
  5
65B
330
1A
100
AcDbEntity
  8
SEIHIN
100
AcDbLine
 10
285.1307385984593
 20
120.9471325319052
 30
0.0
 11
285.1307385984593
 21
126.9473725319052
 31
0.0
  0
LINE
  5
65C
330
1A
100
AcDbEntity
  8
SEIHIN
100
AcDbLine
 10
601.3280628115426
 20
126.9474925346236
 30
0.0
 11
531.3277620524397
 21
126.9471125319052
 31
0.0
  0
LINE
  5
65E
330
1A
100
AcDbEntity
  8
SEIHIN
100
AcDbLine
 10
537.1278620524399
 20
120.9471325319052
 30
0.0
 11
537.1279620524396
 21
126.9473725319052
 31
0.0
  0
LINE
  5
660
330
1A
100
AcDbEntity
  8
SEIHIN
100
AcDbLine
 10
345.9308385984593
 20
244.3472825319052
 30
0.0
 11
365.9308385984593
 21
244.3472825319052
 31
0.0
  0
LINE
  5
661
330
1A
100
AcDbEntity
  8
SEIHIN
100
AcDbLine
 10
365.9308385984593
 20
243.5472825319052
 30
0.0
 11
345.9308385984593
 21
243.5472825319052
 31
0.0
  0
LINE
  5
662
330
1A
100
AcDbEntity
  8
SEIHIN
100
AcDbLine
 10
365.9308385984593
 20
223.3472825319052
 30
0.0
 11
345.9308385984593
 21
222.6472825319051
 31
0.0
  0
LINE
  5
663
330
1A
100
AcDbEntity
  8
SEIHIN
100
AcDbLine
 10
347.9171438500593
 20
184.7168032157052
 30
0.0
 11
365.9308385984593
 21
185.3472825319052
 31
0.0
  0
LINE
  5
664
330
1A
100
AcDbEntity
  8
SEIHIN
100
AcDbLine
 10
365.9308385984593
 20
185.3472825319052
 30
0.0
 11
347.2550420995594
 21
184.6936296544051
 31
0.0
  0
LINE
  5
665
330
1A
100
AcDbEntity
  8
SEIHIN
100
AcDbLine
 10
365.9308385984593
 20
244.3472825319052
 30
0.0
 11
345.9308385984593
 21
244.3472825319052
 31
0.0
  0
LINE
  5
666
330
1A
100
AcDbEntity
  8
SEIHIN
100
AcDbLine
 10
345.9308385984593
 20
243.5472825319052
 30
0.0
 11
365.9308385984593
 21
243.5472825319052
 31
0.0
  0
LINE
  5
667
330
1A
100
AcDbEntity
  8
SEIHIN
100
AcDbLine
 10
345.9308385984593
 20
222.6472825319051
 30
0.0
 11
365.9308385984593
 21
223.3472825319052
 31
0.0
  0
LINE
  5
668
330
1A
100
AcDbEntity
  8
SEIHIN
100
AcDbLine
 10
347.2550420995594
 20
184.6936296544051
 30
0.0
 11
365.9308385984593
 21
185.3472825319052
 31
0.0
  0
LINE
  5
669
330
1A
100
AcDbEntity
  8
SEIHIN
100
AcDbLine
 10
345.9308385984593
 20
187.6472825319052
 30
0.0
 11
345.9308385984593
 21
220.6472825319051
 31
0.0
  0
ARC
  5
66A
330
1A
100
AcDbEntity
  8
SEIHIN
100
AcDbCircle
 10
180.0329155757594
 20
259.7670769382052
 30
0.0
 40
170.0
100
AcDbArc
 50
327.083693842101
 51
347.3877592986996
  0
LINE
  5
66B
330
1A
100
AcDbEntity
  8
SEIHIN
100
AcDbLine
 10
344.8961762379594
 20
183.8195526436051
 30
0.0
 11
322.5743225275593
 21
165.9620696752052
 31
0.0
  0
LINE
  5
66C
330
1A
100
AcDbEntity
  8
SEIHIN
100
AcDbLine
 10
344.8961762380595
 20
183.8195526436051
 30
0.0
 11
322.5743225276594
 21
165.9620696752052
 31
0.0
  0
ARC
  5
66D
330
1A
100
AcDbEntity
  8
SEIHIN
100
AcDbCircle
 10
318.8261522422594
 20
170.6472825319051
 30
0.0
 40
6.0
100
AcDbArc
 50
270.0
 51
308.6598082540971
  0
ARC
  5
66E
330
1A
100
AcDbEntity
  8
SEIHIN
100
AcDbCircle
 10
317.7052157852595
 20
170.6472825319051
 30
0.0
 40
6.0
100
AcDbArc
 50
270.0
 51
327.083693842101
  0
ARC
  5
66F
330
1A
100
AcDbEntity
  8
SEIHIN
100
AcDbCircle
 10
318.8261522423595
 20
170.6472825319051
 30
0.0
 40
6.0
100
AcDbArc
 50
270.0
 51
308.6598082540971
  0
ARC
  5
670
330
1A
100
AcDbEntity
  8
SEIHIN
100
AcDbCircle
 10
347.3949564282593
 20
180.6960774058051
 30
0.0
 40
4.0
100
AcDbArc
 50
92.00453403209492
 51
128.6598082540972
  0
ARC
  5
671
330
1A
100
AcDbEntity
  8
SEIHIN
100
AcDbCircle
 10
347.3949564282593
 20
180.6960774058051
 30
0.0
 40
4.0
100
AcDbArc
 50
92.00453403209492
 51
128.6598082540972
  0
LINE
  5
672
330
1A
100
AcDbEntity
  8
SEIHIN
100
AcDbLine
 10
345.9308385984593
 20
243.5472825319052
 30
0.0
 11
345.9308385984593
 21
244.3472825319052
 31
0.0
  0
LINE
  5
673
330
1A
100
AcDbEntity
  8
SEIHIN
100
AcDbLine
 10
345.9308385984593
 20
243.5472825319052
 30
0.0
 11
345.9308385984593
 21
244.3472825319052
 31
0.0
  0
LINE
  5
674
330
1A
100
AcDbEntity
  8
SEIHIN
100
AcDbLine
 10
365.9308385984593
 20
185.3472825319052
 30
0.0
 11
365.9308385984593
 21
244.3472825319052
 31
0.0
  0
LINE
  5
675
330
1A
100
AcDbEntity
  8
SEIHIN
100
AcDbLine
 10
507.9845754911398
 20
241.3472825319051
 30
0.0
 11
511.7597078095398
 21
223.1583936430051
 31
0.0
  0
LINE
  5
676
330
1A
100
AcDbEntity
  8
SEIHIN
100
AcDbLine
 10
502.5279620524397
 20
226.3472825319051
 30
0.0
 11
502.5279620524397
 21
240.3472825319052
 31
0.0
  0
LINE
  5
677
330
1A
100
AcDbEntity
  8
SEIHIN
100
AcDbLine
 10
501.0279620524397
 20
224.8472825319051
 30
0.0
 11
501.0279620524397
 21
241.5472825319052
 31
0.0
  0
LINE
  5
678
330
1A
100
AcDbEntity
  8
SEIHIN
100
AcDbLine
 10
500.3279620524399
 20
224.1472825319052
 30
0.0
 11
500.3279620524399
 21
241.5472825319052
 31
0.0
  0
LINE
  5
679
330
1A
100
AcDbEntity
  8
SEIHIN
100
AcDbLine
 10
365.9308385984593
 20
185.3472825319052
 30
0.0
 11
365.9308385984593
 21
244.3472825319052
 31
0.0
  0
LINE
  5
67A
330
1A
100
AcDbEntity
  8
CENTER_L
 48
10.0
100
AcDbLine
 10
562.5279620524398
 20
205.1688384404535
 30
0.0
 11
562.5279620524398
 21
176.8472825319052
 31
0.0
  0
ARC
  5
67B
330
1A
100
AcDbEntity
  8
SEIHIN
100
AcDbCircle
 10
554.2362750606399
 20
229.8472825319052
 30
0.0
 40
43.0
100
AcDbArc
 50
188.9490180653
 51
270.0000015831993
  0
LINE
  5
67C
330
1A
100
AcDbEntity
  8
SEIHIN
100
AcDbLine
 10
521.9560435417397
 20
206.8472825785052
 30
0.0
 11
517.9044707819398
 21
206.8472825785052
 31
0.0
  0
ARC
  5
67D
330
1A
100
AcDbEntity
  8
SEIHIN
100
AcDbCircle
 10
554.2362750606399
 20
229.8472825319052
 30
0.0
 40
45.2
100
AcDbArc
 50
190.2235455230017
 51
270.0000013564026
  0
ARC
  5
67E
330
1A
100
AcDbEntity
  8
SEIHIN
100
AcDbCircle
 10
562.6134082465398
 20
198.9415868004051
 30
0.0
 40
50.0
100
AcDbArc
 50
189.6823296983985
 51
222.2833852616046
  0
ARC
  5
67F
330
1A
100
AcDbEntity
  8
SEIHIN
100
AcDbCircle
 10
554.2362750606399
 20
229.8472825319052
 30
0.0
 40
44.5
100
AcDbArc
 50
189.4876589957009
 51
269.9999993663008
  0
ARC
  5
680
330
1A
100
AcDbEntity
  8
SEIHIN
100
AcDbCircle
 10
809.0522534535399
 20
240.9879370946051
 30
0.0
 40
300.0
100
AcDbArc
 50
183.6039623003999
 51
189.6823309306998
  0
ARC
  5
681
330
1A
100
AcDbEntity
  8
SEIHIN
100
AcDbCircle
 10
501.8279620524399
 20
224.1472825319052
 30
0.0
 40
1.5
100
AcDbArc
 50
180.0
 51
270.0
  0
ARC
  5
682
330
1A
100
AcDbEntity
  8
SEIHIN
100
AcDbCircle
 10
502.5279620524397
 20
224.8472825319051
 30
0.0
 40
1.5
100
AcDbArc
 50
180.0
 51
270.0
  0
ARC
  5
683
330
1A
100
AcDbEntity
  8
SEIHIN
100
AcDbCircle
 10
509.7840535188397
 20
222.8472825319051
 30
0.0
 40
2.0
100
AcDbArc
 50
8.949018065300082
 51
90.0
  0
ARC
  5
684
330
1A
100
AcDbEntity
  8
SEIHIN
100
AcDbCircle
 10
509.3586637159399
 20
222.3472825319051
 30
0.0
 40
1.0
100
AcDbArc
 50
9.487658995701007
 51
90.0
  0
LINE
  5
685
330
1A
100
AcDbEntity
  8
SEIHIN
100
AcDbLine
 10
509.3586637159399
 20
223.3472825319052
 30
0.0
 11
502.5279620524397
 21
223.3472825319052
 31
0.0
  0
LINE
  5
686
330
1A
100
AcDbEntity
  8
SEIHIN
100
AcDbLine
 10
508.7698038977398
 20
222.6472825319051
 30
0.0
 11
501.8279620524399
 21
222.6472825319051
 31
0.0
  0
LINE
  5
687
330
1A
100
AcDbEntity
  8
SEIHIN
100
AcDbLine
 10
509.7840535188397
 20
224.8472825319051
 30
0.0
 11
504.0279620524398
 21
224.8472825319051
 31
0.0
  0
ARC
  5
688
330
1A
100
AcDbEntity
  8
SEIHIN
100
AcDbCircle
 10
504.0279620524398
 20
226.3472825319051
 30
0.0
 40
1.5
100
AcDbArc
 50
180.0
 51
270.0
  0
ARC
  5
689
330
1A
100
AcDbEntity
  8
SEIHIN
100
AcDbCircle
 10
508.7698038977398
 20
221.6472825319052
 30
0.0
 40
1.0
100
AcDbArc
 50
10.2235455230017
 51
90.0
  0
ARC
  5
68A
330
1A
100
AcDbEntity
  8
SEIHIN
100
AcDbCircle
 10
527.1017494312397
 20
166.6472825319052
 30
0.0
 40
2.0
100
AcDbArc
 50
222.2833852616046
 51
270.0
  0
ARC
  5
68B
330
1A
100
AcDbEntity
  8
SEIHIN
100
AcDbCircle
 10
809.0522534535399
 20
240.9879370946051
 30
0.0
 40
287.8
100
AcDbArc
 50
187.0765992883005
 51
188.4009770687999
  0
ARC
  5
68C
330
1A
100
AcDbEntity
  8
SEIHIN
100
AcDbCircle
 10
521.9560435417397
 20
205.3472825785052
 30
0.0
 40
1.5
100
AcDbArc
 50
7.076599288300517
 51
90.0
  0
ARC
  5
68E
330
1A
100
AcDbEntity
  8
SEIHIN
100
AcDbCircle
 10
503.0279620524397
 20
241.5472825319052
 30
0.0
 40
2.0
100
AcDbArc
 50
90.0
 51
180.0
  0
ARC
  5
68F
330
1A
100
AcDbEntity
  8
SEIHIN
100
AcDbCircle
 10
502.3279620524399
 20
241.5472825319052
 30
0.0
 40
2.0
100
AcDbArc
 50
90.0
 51
180.0
  0
ARC
  5
690
330
1A
100
AcDbEntity
  8
SEIHIN
100
AcDbCircle
 10
507.6263999337397
 20
244.5488446506051
 30
0.0
 40
5.0
100
AcDbArc
 50
289.8959097497992
 51
340.1040902501982
  0
ARC
  5
691
330
1A
100
AcDbEntity
  8
SEIHIN
100
AcDbCircle
 10
509.2260153706397
 20
245.5446825604052
 30
0.0
 40
2.0
100
AcDbArc
 50
267.0781764766989
 51
323.2231503484015
  0
LINE
  5
692
330
1A
100
AcDbEntity
  8
SEIHIN
100
AcDbLine
 10
504.5279620524397
 20
241.3472825319051
 30
0.0
 11
508.8279620524399
 21
241.3472825319051
 31
0.0
  0
LINE
  5
693
330
1A
100
AcDbEntity
  8
SEIHIN
100
AcDbLine
 10
504.5279620524397
 20
242.3472825319052
 30
0.0
 11
509.3279620524399
 21
242.3472825319052
 31
0.0
  0
ARC
  5
694
330
1A
100
AcDbEntity
  8
SEIHIN
100
AcDbCircle
 10
504.5279620524397
 20
239.3472825319051
 30
0.0
 40
2.0
100
AcDbArc
 50
90.0
 51
180.0
  0
LINE
  5
695
330
1A
100
AcDbEntity
  8
SEIHIN
100
AcDbLine
 10
509.3279620524399
 20
240.8472825319051
 30
0.0
 11
509.3279620524399
 21
239.8472825319052
 31
0.0
  0
LINE
  5
696
330
1A
100
AcDbEntity
  8
SEIHIN
100
AcDbLine
 10
509.3279620524399
 20
242.3472825319052
 30
0.0
 11
509.3279620524399
 21
240.8472825319051
 31
0.0
  0
ARC
  5
697
330
1A
100
AcDbEntity
  8
SEIHIN
100
AcDbCircle
 10
508.8279620524399
 20
240.8472825319051
 30
0.0
 40
0.5
100
AcDbArc
 50
0.0
 51
90.0
  0
ARC
  5
698
330
1A
100
AcDbEntity
  8
SEIHIN
100
AcDbCircle
 10
504.5279620524397
 20
240.3472825319052
 30
0.0
 40
2.0
100
AcDbArc
 50
90.0
 51
180.0
  0
LINE
  5
699
330
1A
100
AcDbEntity
  8
SEIHIN
100
AcDbLine
 10
502.3279620524399
 20
243.5472825319052
 30
0.0
 11
509.1240686887397
 21
243.5472825319052
 31
0.0
  0
ARC
  5
69A
330
1A
100
AcDbEntity
  8
SEIHIN
100
AcDbCircle
 10
510.8279620524399
 20
242.8472825319051
 30
0.0
 40
1.5
100
AcDbArc
 50
0.0
 51
90.0
  0
LINE
  5
69B
330
1A
100
AcDbEntity
  8
SEIHIN
100
AcDbLine
 10
165.9308385984593
 20
495.6222580906422
 30
0.0
 11
345.9308385984593
 21
495.6222580906422
 31
0.0
  0
LINE
  5
69C
330
1A
100
AcDbEntity
  8
SEIHIN
100
AcDbLine
 10
165.9308385984593
 20
371.3225613063422
 30
0.0
 11
345.9308385984593
 21
371.3225613063422
 31
0.0
  0
LINE
  5
69E
330
1A
100
AcDbEntity
  8
SEIHIN
100
AcDbLine
 10
240.4308385984593
 20
373.5225613063422
 30
0.0
 11
167.9308385984595
 21
373.5225613063422
 31
0.0
  0
LINE
  5
69F
330
1A
100
AcDbEntity
  8
CENTER_L
 48
10.0
100
AcDbLine
 10
372.9308385984594
 20
433.5225613063423
 30
0.0
 11
138.9308385984595
 21
433.5225613063422
 31
0.0
  0
LINE
  5
6A0
330
1A
100
AcDbEntity
  8
SEIHIN
100
AcDbLine
 10
345.9308385984593
 20
371.3225613063422
 30
0.0
 11
165.9308385984595
 21
371.3225613063422
 31
0.0
  0
LINE
  5
6A1
330
1A
100
AcDbEntity
  8
SEIHIN
100
AcDbLine
 10
345.9308385984593
 20
495.6222580906422
 30
0.0
 11
165.9308385984595
 21
495.6222580906422
 31
0.0
  0
LINE
  5
6A2
330
1A
100
AcDbEntity
  8
SEIHIN
100
AcDbLine
 10
255.9308385984593
 20
484.4222580906422
 30
0.0
 11
165.9308385984595
 21
484.4222580906422
 31
0.0
  0
LINE
  5
6A3
330
1A
100
AcDbEntity
  8
SEIHIN
100
AcDbLine
 10
255.9308385984593
 20
382.6228645220422
 30
0.0
 11
165.9308385984595
 21
382.6228645220422
 31
0.0
  0
LINE
  5
6A4
330
1A
100
AcDbEntity
  8
SEIHIN
100
AcDbLine
 10
240.4308385984593
 20
493.4222580906422
 30
0.0
 11
167.9308385984595
 21
493.4222580906422
 31
0.0
  0
LINE
  5
6A5
330
1A
100
AcDbEntity
  8
SEIHIN
100
AcDbLine
 10
254.9308385984593
 20
476.3378356372422
 30
0.0
 11
194.1049203932593
 21
476.3378356372422
 31
0.0
  0
LINE
  5
6A6
330
1A
100
AcDbEntity
  8
SEIHIN
100
AcDbLine
 10
254.9308385984593
 20
398.1849128653422
 30
0.0
 11
194.1049203932593
 21
398.1849128653422
 31
0.0
  0
LINE
  5
6A7
330
1A
100
AcDbEntity
  8
SEIHIN
100
AcDbLine
 10
145.9308385984595
 20
372.0225613063422
 30
0.0
 11
145.9308385984595
 21
494.9222580906423
 31
0.0
  0
LINE
  5
6A8
330
1A
100
AcDbEntity
  8
SEIHIN
100
AcDbLine
 10
169.9608385984593
 20
382.6228645220422
 30
0.0
 11
169.9608385984593
 21
484.4222580906422
 31
0.0
  0
LINE
  5
6A9
330
1A
100
AcDbEntity
  8
SEIHIN
100
AcDbLine
 10
192.1049203932593
 20
400.1849128653423
 30
0.0
 11
192.1049203932593
 21
474.3378356372422
 31
0.0
  0
ARC
  5
6AA
330
1A
100
AcDbEntity
  8
SEIHIN
100
AcDbCircle
 10
132.7830666786594
 20
459.0611616974422
 30
0.0
 40
85.0
100
AcDbArc
 50
295.9371876792038
 51
311.4992346502972
  0
LINE
  5
6AB
330
1A
100
AcDbEntity
  8
SEIHIN
100
AcDbLine
 10
165.9308385984595
 20
383.3225613063422
 30
0.0
 11
165.9308385984595
 21
375.5225613063422
 31
0.0
  0
LINE
  5
6AC
330
1A
100
AcDbEntity
  8
SEIHIN
100
AcDbLine
 10
145.9308385984595
 20
372.0225613063422
 30
0.0
 11
165.9308385984595
 21
371.3225613063422
 31
0.0
  0
ARC
  5
6AD
330
1A
100
AcDbEntity
  8
SEIHIN
100
AcDbCircle
 10
167.9308385984595
 20
375.5225613063422
 30
0.0
 40
2.0
100
AcDbArc
 50
180.0
 51
270.0
  0
LINE
  5
6AE
330
1A
100
AcDbEntity
  8
SEIHIN
100
AcDbLine
 10
165.9308385984595
 20
381.9228645220423
 30
0.0
 11
145.9308385984595
 21
381.9228645220423
 31
0.0
  0
LINE
  5
6AF
330
1A
100
AcDbEntity
  8
SEIHIN
100
AcDbLine
 10
164.4308385984595
 20
380.2223077688422
 30
0.0
 11
147.4308385984595
 21
380.2223077688422
 31
0.0
  0
LINE
  5
6B0
330
1A
100
AcDbEntity
  8
SEIHIN
100
AcDbLine
 10
165.9308385984595
 20
383.3225613063422
 30
0.0
 11
145.9308385984595
 21
383.3225613063422
 31
0.0
  0
ARC
  5
6B1
330
1A
100
AcDbEntity
  8
SEIHIN
100
AcDbCircle
 10
194.1049203932593
 20
400.1849128653423
 30
0.0
 40
2.0
100
AcDbArc
 50
180.0
 51
270.0
  0
LINE
  5
6B2
330
1A
100
AcDbEntity
  8
SEIHIN
100
AcDbLine
 10
169.9608385984593
 20
484.4222580906422
 30
0.0
 11
192.1049203932593
 21
476.3378356372422
 31
0.0
  0
LINE
  5
6B3
330
1A
100
AcDbEntity
  8
SEIHIN
100
AcDbLine
 10
165.9308385984595
 20
483.6222580906422
 30
0.0
 11
165.9308385984595
 21
491.4222580906423
 31
0.0
  0
LINE
  5
6B4
330
1A
100
AcDbEntity
  8
SEIHIN
100
AcDbLine
 10
165.9308385984595
 20
485.1222580906422
 30
0.0
 11
145.9308385984595
 21
485.1222580906422
 31
0.0
  0
LINE
  5
6B5
330
1A
100
AcDbEntity
  8
SEIHIN
100
AcDbLine
 10
165.9308385984595
 20
483.6222580906422
 30
0.0
 11
145.9308385984595
 21
483.6222580906422
 31
0.0
  0
LINE
  5
6B6
330
1A
100
AcDbEntity
  8
SEIHIN
100
AcDbLine
 10
166.9608385984593
 20
481.5225613063423
 30
0.0
 11
148.9308385984595
 21
481.5225613063423
 31
0.0
  0
LINE
  5
6B7
330
1A
100
AcDbEntity
  8
SEIHIN
100
AcDbLine
 10
166.9608385984593
 20
470.5225613063422
 30
0.0
 11
148.9308385984595
 21
470.5225613063422
 31
0.0
  0
LINE
  5
6B8
330
1A
100
AcDbEntity
  8
SEIHIN
100
AcDbLine
 10
164.4308385984595
 20
486.8228148438422
 30
0.0
 11
147.4308385984595
 21
486.8228148438422
 31
0.0
  0
LINE
  5
6B9
330
1A
100
AcDbEntity
  8
SEIHIN
100
AcDbLine
 10
145.9308385984595
 20
494.9222580906423
 30
0.0
 11
165.9308385984595
 21
495.6222580906422
 31
0.0
  0
ARC
  5
6BA
330
1A
100
AcDbEntity
  8
SEIHIN
100
AcDbCircle
 10
167.9308385984595
 20
491.4222580906423
 30
0.0
 40
2.0
100
AcDbArc
 50
90.0
 51
180.0
  0
ARC
  5
6BB
330
1A
100
AcDbEntity
  8
SEIHIN
100
AcDbCircle
 10
194.1049203932593
 20
474.3378356372422
 30
0.0
 40
2.0
100
AcDbArc
 50
90.0
 51
180.0
  0
LINE
  5
6BC
330
1A
100
AcDbEntity
  8
SEIHIN
100
AcDbLine
 10
319.7567568036593
 20
400.1849128653423
 30
0.0
 11
319.7567568036593
 21
474.3378356372422
 31
0.0
  0
LINE
  5
6BD
330
1A
100
AcDbEntity
  8
SEIHIN
100
AcDbLine
 10
341.9008385984593
 20
382.6228645220422
 30
0.0
 11
341.9008385984593
 21
484.4222580906422
 31
0.0
  0
LINE
  5
6BE
330
1A
100
AcDbEntity
  8
SEIHIN
100
AcDbLine
 10
365.9308385984593
 20
372.0225613063422
 30
0.0
 11
365.9308385984593
 21
494.9222580906423
 31
0.0
  0
LINE
  5
6BF
330
1A
100
AcDbEntity
  8
SEIHIN
100
AcDbLine
 10
365.9308385984593
 20
372.0225613063422
 30
0.0
 11
365.9308385984593
 21
494.9222580906423
 31
0.0
  0
LINE
  5
6C0
330
1A
100
AcDbEntity
  8
CENTER_L
 48
10.0
100
AcDbLine
 10
255.9308385984593
 20
364.3225613063423
 30
0.0
 11
255.9308385984593
 21
502.6222580906423
 31
0.0
  0
LINE
  5
6C1
330
1A
100
AcDbEntity
  8
SEIHIN
100
AcDbLine
 10
345.9308385984593
 20
383.3225613063422
 30
0.0
 11
365.9308385984593
 21
383.3225613063422
 31
0.0
  0
LINE
  5
6C2
330
1A
100
AcDbEntity
  8
SEIHIN
100
AcDbLine
 10
345.9308385984593
 20
381.9228645220423
 30
0.0
 11
365.9308385984593
 21
381.9228645220423
 31
0.0
  0
LINE
  5
6C3
330
1A
100
AcDbEntity
  8
SEIHIN
100
AcDbLine
 10
365.9308385984593
 20
372.0225613063422
 30
0.0
 11
345.9308385984593
 21
371.3225613063422
 31
0.0
  0
LINE
  5
6C4
330
1A
100
AcDbEntity
  8
SEIHIN
100
AcDbLine
 10
365.9308385984593
 20
372.0225613063422
 30
0.0
 11
345.9308385984593
 21
371.3225613063422
 31
0.0
  0
LINE
  5
6C6
330
1A
100
AcDbEntity
  8
SEIHIN
100
AcDbLine
 10
254.9308385984593
 20
400.4349128653423
 30
0.0
 11
254.9308385984593
 21
383.6228645220423
 31
0.0
  0
LINE
  5
6C7
330
1A
100
AcDbEntity
  8
SEIHIN
100
AcDbLine
 10
255.9308385984593
 20
382.6228645220422
 30
0.0
 11
345.9308385984593
 21
382.6228645220422
 31
0.0
  0
LINE
  5
6C8
330
1A
100
AcDbEntity
  8
SEIHIN
100
AcDbLine
 10
271.4308385984593
 20
373.5225613063422
 30
0.0
 11
343.9308385984593
 21
373.5225613063422
 31
0.0
  0
LINE
  5
6C9
330
1A
100
AcDbEntity
  8
SEIHIN
100
AcDbLine
 10
243.4308385984593
 20
373.5225613063422
 30
0.0
 11
255.9308385984593
 21
373.5225613063422
 31
0.0
  0
LINE
  5
6CA
330
1A
100
AcDbEntity
  8
SEIHIN
100
AcDbLine
 10
240.9308385984593
 20
374.0225613063422
 30
0.0
 11
240.9308385984593
 21
382.6228645220422
 31
0.0
  0
LINE
  5
6CB
330
1A
100
AcDbEntity
  8
SEIHIN
100
AcDbLine
 10
242.9308385984593
 20
374.0225613063422
 30
0.0
 11
242.9308385984593
 21
382.6228645220422
 31
0.0
  0
ARC
  5
6CC
330
1A
100
AcDbEntity
  8
SEIHIN
100
AcDbCircle
 10
243.4308385984593
 20
374.0225613063422
 30
0.0
 40
0.5
100
AcDbArc
 50
180.0
 51
270.0
  0
ARC
  5
6CD
330
1A
100
AcDbEntity
  8
SEIHIN
100
AcDbCircle
 10
240.4308385984593
 20
374.0225613063422
 30
0.0
 40
0.5
100
AcDbArc
 50
270.0
 51
0.0
  0
LINE
  5
6CE
330
1A
100
AcDbEntity
  8
SEIHIN
100
AcDbLine
 10
240.9308385984593
 20
378.6228645220422
 30
0.0
 11
242.9308385984593
 21
378.6228645220422
 31
0.0
  0
LINE
  5
6CF
330
1A
100
AcDbEntity
  8
SEIHIN
100
AcDbLine
 10
268.9308385984593
 20
374.0225613063422
 30
0.0
 11
268.9308385984593
 21
382.6228645220422
 31
0.0
  0
LINE
  5
6D0
330
1A
100
AcDbEntity
  8
SEIHIN
100
AcDbLine
 10
270.9308385984593
 20
374.0225613063422
 30
0.0
 11
270.9308385984593
 21
382.6228645220422
 31
0.0
  0
LINE
  5
6D1
330
1A
100
AcDbEntity
  8
SEIHIN
100
AcDbLine
 10
268.4308385984593
 20
373.5225613063422
 30
0.0
 11
255.9308385984593
 21
373.5225613063422
 31
0.0
  0
ARC
  5
6D2
330
1A
100
AcDbEntity
  8
SEIHIN
100
AcDbCircle
 10
268.4308385984593
 20
374.0225613063422
 30
0.0
 40
0.5
100
AcDbArc
 50
270.0
 51
0.0
  0
ARC
  5
6D3
330
1A
100
AcDbEntity
  8
SEIHIN
100
AcDbCircle
 10
271.4308385984593
 20
374.0225613063422
 30
0.0
 40
0.5
100
AcDbArc
 50
180.0
 51
270.0
  0
ARC
  5
6D4
330
1A
100
AcDbEntity
  8
SEIHIN
100
AcDbCircle
 10
253.9308385984593
 20
383.6228645220423
 30
0.0
 40
1.0
100
AcDbArc
 50
270.0
 51
0.0
  0
LINE
  5
6D5
330
1A
100
AcDbEntity
  8
SEIHIN
100
AcDbLine
 10
270.9308385984593
 20
378.6228645220422
 30
0.0
 11
268.9308385984593
 21
378.6228645220422
 31
0.0
  0
LINE
  5
6D6
330
1A
100
AcDbEntity
  8
SEIHIN
100
AcDbLine
 10
345.9308385984593
 20
383.3225613063422
 30
0.0
 11
345.9308385984593
 21
375.5225613063422
 31
0.0
  0
ARC
  5
6D7
330
1A
100
AcDbEntity
  8
SEIHIN
100
AcDbCircle
 10
343.9308385984593
 20
375.5225613063422
 30
0.0
 40
2.0
100
AcDbArc
 50
270.0
 51
0.0
  0
ARC
  5
6D8
330
1A
100
AcDbEntity
  8
SEIHIN
100
AcDbCircle
 10
379.0786105182594
 20
459.0611616974422
 30
0.0
 40
85.0
100
AcDbArc
 50
228.5007653497028
 51
244.0628123207961
  0
ARC
  5
6D9
330
1A
100
AcDbEntity
  8
SEIHIN
100
AcDbCircle
 10
255.9308385984593
 20
437.3225613063422
 30
0.0
 40
27.0
100
AcDbArc
 50
270.0
 51
90.0
  0
ARC
  5
6DA
330
1A
100
AcDbEntity
  8
SEIHIN
100
AcDbCircle
 10
255.9308385984593
 20
437.3225613063422
 30
0.0
 40
31.89999999999999
100
AcDbArc
 50
270.0
 51
90.0
  0
LINE
  5
6DC
330
1A
100
AcDbEntity
  8
SEIHIN
100
AcDbLine
 10
256.9308385984593
 20
398.1849128653422
 30
0.0
 11
317.7567568036593
 21
398.1849128653422
 31
0.0
  0
ARC
  5
6DD
330
1A
100
AcDbEntity
  8
SEIHIN
100
AcDbCircle
 10
255.9308385984593
 20
437.3225613063422
 30
0.0
 40
27.0
100
AcDbArc
 50
270.0
 51
90.0
  0
LINE
  5
6DF
330
1A
100
AcDbEntity
  8
CENTER_L
 48
10.0
100
AcDbLine
 10
295.9308385984593
 20
437.3225613063422
 30
0.0
 11
215.9308385984593
 21
437.3225613063422
 31
0.0
  0
ARC
  5
6E0
330
1A
100
AcDbEntity
  8
SEIHIN
100
AcDbCircle
 10
255.9308385984593
 20
437.3225613063422
 30
0.0
 40
31.89999999999999
100
AcDbArc
 50
90.0
 51
270.0
  0
ARC
  5
6E1
330
1A
100
AcDbEntity
  8
SEIHIN
100
AcDbCircle
 10
255.9308385984593
 20
437.3225613063422
 30
0.0
 40
27.0
100
AcDbArc
 50
90.0
 51
270.0
  0
ARC
  5
6E2
330
1A
100
AcDbEntity
  8
SEIHIN
100
AcDbCircle
 10
255.6808385984593
 20
400.4349128653423
 30
0.0
 40
0.75
100
AcDbArc
 50
90.0
 51
180.0
  0
LINE
  5
6E3
330
1A
100
AcDbEntity
  8
SEIHIN
100
AcDbLine
 10
255.9308385984593
 20
401.1849128653422
 30
0.0
 11
255.6808385984593
 21
401.1849128653422
 31
0.0
  0
ARC
  5
6E4
330
1A
100
AcDbEntity
  8
SEIHIN
100
AcDbCircle
 10
317.7567568036593
 20
400.1849128653423
 30
0.0
 40
2.0
100
AcDbArc
 50
270.0
 51
0.0
  0
LINE
  5
6E5
330
1A
100
AcDbEntity
  8
SEIHIN
100
AcDbLine
 10
344.9008385984593
 20
470.5225613063422
 30
0.0
 11
362.9308385984593
 21
470.5225613063422
 31
0.0
  0
LINE
  5
6E6
330
1A
100
AcDbEntity
  8
SEIHIN
100
AcDbLine
 10
365.9308385984593
 20
494.9222580906423
 30
0.0
 11
345.9308385984593
 21
495.6222580906422
 31
0.0
  0
LINE
  5
6E7
330
1A
100
AcDbEntity
  8
SEIHIN
100
AcDbLine
 10
347.4308385984593
 20
486.8228148438422
 30
0.0
 11
364.4308385984593
 21
486.8228148438422
 31
0.0
  0
LINE
  5
6E8
330
1A
100
AcDbEntity
  8
SEIHIN
100
AcDbLine
 10
344.9008385984593
 20
481.5225613063423
 30
0.0
 11
362.9308385984593
 21
481.5225613063423
 31
0.0
  0
LINE
  5
6E9
330
1A
100
AcDbEntity
  8
SEIHIN
100
AcDbLine
 10
345.9308385984593
 20
483.6222580906422
 30
0.0
 11
365.9308385984593
 21
483.6222580906422
 31
0.0
  0
LINE
  5
6EA
330
1A
100
AcDbEntity
  8
SEIHIN
100
AcDbLine
 10
345.9308385984593
 20
485.1222580906422
 30
0.0
 11
365.9308385984593
 21
485.1222580906422
 31
0.0
  0
LINE
  5
6EB
330
1A
100
AcDbEntity
  8
SEIHIN
100
AcDbLine
 10
365.9308385984593
 20
494.9222580906423
 30
0.0
 11
345.9308385984593
 21
495.6222580906422
 31
0.0
  0
LINE
  5
6EC
330
1A
100
AcDbEntity
  8
SEIHIN
100
AcDbLine
 10
256.9308385984593
 20
476.3378356372422
 30
0.0
 11
317.7567568036593
 21
476.3378356372422
 31
0.0
  0
LINE
  5
6ED
330
1A
100
AcDbEntity
  8
SEIHIN
100
AcDbLine
 10
271.4308385984593
 20
493.4222580906422
 30
0.0
 11
343.9308385984593
 21
493.4222580906422
 31
0.0
  0
LINE
  5
6EE
330
1A
100
AcDbEntity
  8
SEIHIN
100
AcDbLine
 10
255.9308385984593
 20
484.4222580906422
 30
0.0
 11
345.9308385984593
 21
484.4222580906422
 31
0.0
  0
LINE
  5
6EF
330
1A
100
AcDbEntity
  8
SEIHIN
100
AcDbLine
 10
235.2595851691594
 20
493.4222580906422
 30
0.0
 11
255.9308385984593
 21
493.4222580906422
 31
0.0
  0
LINE
  5
6F0
330
1A
100
AcDbEntity
  8
SEIHIN
100
AcDbLine
 10
243.4308385984593
 20
493.4222580906422
 30
0.0
 11
253.9308385984593
 21
493.4222580906422
 31
0.0
  0
LINE
  5
6F1
330
1A
100
AcDbEntity
  8
SEIHIN
100
AcDbLine
 10
240.9308385984593
 20
492.9222580906422
 30
0.0
 11
240.9308385984593
 21
484.4222580906422
 31
0.0
  0
LINE
  5
6F2
330
1A
100
AcDbEntity
  8
SEIHIN
100
AcDbLine
 10
242.9308385984593
 20
492.9222580906422
 30
0.0
 11
242.9308385984593
 21
484.4222580906422
 31
0.0
  0
ARC
  5
6F3
330
1A
100
AcDbEntity
  8
SEIHIN
100
AcDbCircle
 10
240.4308385984593
 20
492.9222580906422
 30
0.0
 40
0.5
100
AcDbArc
 50
0.0
 51
90.0
  0
LINE
  5
6F4
330
1A
100
AcDbEntity
  8
SEIHIN
100
AcDbLine
 10
240.9308385984593
 20
488.4222580906422
 30
0.0
 11
242.9308385984593
 21
488.4222580906422
 31
0.0
  0
ARC
  5
6F5
330
1A
100
AcDbEntity
  8
SEIHIN
100
AcDbCircle
 10
243.4308385984593
 20
492.9222580906422
 30
0.0
 40
0.5
100
AcDbArc
 50
90.0
 51
180.0
  0
LINE
  5
6F6
330
1A
100
AcDbEntity
  8
SEIHIN
100
AcDbLine
 10
268.9308385984593
 20
492.9222580906422
 30
0.0
 11
268.9308385984593
 21
484.4222580906422
 31
0.0
  0
LINE
  5
6F7
330
1A
100
AcDbEntity
  8
SEIHIN
100
AcDbLine
 10
270.9308385984593
 20
492.9222580906422
 30
0.0
 11
270.9308385984593
 21
484.4222580906422
 31
0.0
  0
LINE
  5
6F8
330
1A
100
AcDbEntity
  8
SEIHIN
100
AcDbLine
 10
254.9308385984593
 20
472.9725613063423
 30
0.0
 11
254.9308385984593
 21
483.4222580906422
 31
0.0
  0
ARC
  5
6F9
330
1A
100
AcDbEntity
  8
SEIHIN
100
AcDbCircle
 10
255.6808385984593
 20
472.9725613063423
 30
0.0
 40
0.75
100
AcDbArc
 50
180.0
 51
270.0
  0
LINE
  5
6FA
330
1A
100
AcDbEntity
  8
SEIHIN
100
AcDbLine
 10
255.9308385984593
 20
472.2225613063423
 30
0.0
 11
255.6808385984593
 21
472.2225613063423
 31
0.0
  0
ARC
  5
6FB
330
1A
100
AcDbEntity
  8
SEIHIN
100
AcDbCircle
 10
253.9308385984593
 20
483.4222580906422
 30
0.0
 40
1.0
100
AcDbArc
 50
0.0
 51
90.0
  0
LINE
  5
6FC
330
1A
100
AcDbEntity
  8
SEIHIN
100
AcDbLine
 10
268.4308385984593
 20
493.4222580906422
 30
0.0
 11
257.9308385984593
 21
493.4222580906422
 31
0.0
  0
LINE
  5
6FD
330
1A
100
AcDbEntity
  8
SEIHIN
100
AcDbLine
 10
276.6020920277594
 20
493.4222580906422
 30
0.0
 11
255.9308385984593
 21
493.4222580906422
 31
0.0
  0
LINE
  5
6FE
330
1A
100
AcDbEntity
  8
SEIHIN
100
AcDbLine
 10
270.9308385984593
 20
488.4222580906422
 30
0.0
 11
268.9308385984593
 21
488.4222580906422
 31
0.0
  0
ARC
  5
6FF
330
1A
100
AcDbEntity
  8
SEIHIN
100
AcDbCircle
 10
268.4308385984593
 20
492.9222580906422
 30
0.0
 40
0.5
100
AcDbArc
 50
0.0
 51
90.0
  0
ARC
  5
700
330
1A
100
AcDbEntity
  8
SEIHIN
100
AcDbCircle
 10
271.4308385984593
 20
492.9222580906422
 30
0.0
 40
0.5
100
AcDbArc
 50
90.0
 51
180.0
  0
LINE
  5
701
330
1A
100
AcDbEntity
  8
SEIHIN
100
AcDbLine
 10
345.9308385984593
 20
483.6222580906422
 30
0.0
 11
345.9308385984593
 21
491.4222580906423
 31
0.0
  0
LINE
  5
702
330
1A
100
AcDbEntity
  8
SEIHIN
100
AcDbLine
 10
341.9008385984593
 20
484.4222580906422
 30
0.0
 11
319.7567568036593
 21
476.3378356372422
 31
0.0
  0
ARC
  5
703
330
1A
100
AcDbEntity
  8
SEIHIN
100
AcDbCircle
 10
317.7567568036593
 20
474.3378356372422
 30
0.0
 40
2.0
100
AcDbArc
 50
0.0
 51
90.0
  0
ARC
  5
704
330
1A
100
AcDbEntity
  8
SEIHIN
100
AcDbCircle
 10
343.9308385984593
 20
491.4222580906423
 30
0.0
 40
2.0
100
AcDbArc
 50
0.0
 51
90.0
  0
LINE
  5
707
330
1A
100
AcDbEntity
  8
SEIHIN
100
AcDbLine
 10
595.5278620524397
 20
120.9471325319052
 30
0.0
 11
595.5278620524397
 21
126.9473725319052
 31
0.0
  0
LINE
  5
709
330
1A
100
AcDbEntity
  8
SEIHIN
100
AcDbLine
 10
617.0713486138397
 20
241.3472825319051
 30
0.0
 11
613.2962162954397
 21
223.1583936430051
 31
0.0
  0
LINE
  5
70A
330
1A
100
AcDbEntity
  8
SEIHIN
100
AcDbLine
 10
622.4276588368398
 20
226.3472825319051
 30
0.0
 11
622.4276588368398
 21
240.3472825319052
 31
0.0
  0
LINE
  5
70B
330
1A
100
AcDbEntity
  8
SEIHIN
100
AcDbLine
 10
623.9276588368397
 20
224.8472825319051
 30
0.0
 11
623.9276588368397
 21
241.5472825319052
 31
0.0
  0
LINE
  5
70C
330
1A
100
AcDbEntity
  8
SEIHIN
100
AcDbLine
 10
624.6276588368398
 20
224.1472825319052
 30
0.0
 11
624.6276588368398
 21
241.5472825319052
 31
0.0
  0
LINE
  5
70D
330
1A
100
AcDbEntity
  8
SEIHIN
100
AcDbLine
 10
599.8042364645398
 20
187.0733252327052
 30
0.0
 11
610.2073737490398
 21
195.5849830109052
 31
0.0
  0
LINE
  5
70E
330
1A
100
AcDbEntity
  8
SEIHIN
100
AcDbLine
 10
605.2119822674399
 20
194.8106514823051
 30
0.0
 11
604.8387341174398
 21
191.1924596759051
 31
0.0
  0
LINE
  5
70F
330
1A
100
AcDbEntity
  8
SEIHIN
100
AcDbLine
 10
600.3396815318397
 20
185.5733252327052
 30
0.0
 11
611.6381128896398
 21
194.8174963436052
 31
0.0
  0
LINE
  5
710
330
1A
100
AcDbEntity
  8
SEIHIN
100
AcDbLine
 10
610.2279620524398
 20
192.7592939057051
 30
0.0
 11
607.5131084501397
 21
166.4420541312052
 31
0.0
  0
LINE
  5
711
330
1A
100
AcDbEntity
  8
SEIHIN
100
AcDbLine
 10
600.5895558965399
 20
184.8733252327051
 30
0.0
 11
612.3057911552398
 21
194.4593358989051
 31
0.0
  0
ARC
  5
712
330
1A
100
AcDbEntity
  8
SEIHIN
100
AcDbCircle
 10
605.5236659897397
 20
166.6472825319052
 30
0.0
 40
2.0
100
AcDbArc
 50
270.0
 51
354.1102722439002
  0
ARC
  5
713
330
1A
100
AcDbEntity
  8
SEIHIN
100
AcDbCircle
 10
599.1709986743399
 20
187.8472825319051
 30
0.0
 40
1.0
100
AcDbArc
 50
270.0
 51
309.2894068624993
  0
ARC
  5
714
330
1A
100
AcDbEntity
  8
SEIHIN
100
AcDbCircle
 10
599.9563181063397
 20
185.6472825319052
 30
0.0
 40
1.0
100
AcDbArc
 50
270.0
 51
309.2894068624993
  0
ARC
  5
715
330
1A
100
AcDbEntity
  8
SEIHIN
100
AcDbCircle
 10
599.7064437415397
 20
186.3472825319052
 30
0.0
 40
1.0
100
AcDbArc
 50
270.0
 51
309.2894068624993
  0
ARC
  5
716
330
1A
100
AcDbEntity
  8
SEIHIN
100
AcDbCircle
 10
623.1276588368398
 20
224.1472825319052
 30
0.0
 40
1.5
100
AcDbArc
 50
270.0
 51
0.0
  0
ARC
  5
717
330
1A
100
AcDbEntity
  8
SEIHIN
100
AcDbCircle
 10
622.4276588368398
 20
224.8472825319051
 30
0.0
 40
1.5
100
AcDbArc
 50
270.0
 51
0.0
  0
LINE
  5
718
330
1A
100
AcDbEntity
  8
SEIHIN
100
AcDbLine
 10
611.9999133195396
 20
195.4919602246052
 30
0.0
 11
614.6951130603397
 21
222.4467759501052
 31
0.0
  0
LINE
  5
719
330
1A
100
AcDbEntity
  8
SEIHIN
100
AcDbLine
 10
610.5691741790397
 20
196.2594468919052
 30
0.0
 11
613.2475763513398
 21
223.0462693683052
 31
0.0
  0
LINE
  5
71A
330
1A
100
AcDbEntity
  8
SEIHIN
100
AcDbLine
 10
612.6675915851397
 20
195.1337997799051
 30
0.0
 11
615.3286109445398
 21
221.7467759501051
 31
0.0
  0
LINE
  5
71B
330
1A
100
AcDbEntity
  8
SEIHIN
100
AcDbLine
 10
605.7542074274397
 20
195.8176661305051
 30
0.0
 11
607.1856013161398
 21
196.9888065850051
 31
0.0
  0
ARC
  5
71C
330
1A
100
AcDbEntity
  8
SEIHIN
100
AcDbCircle
 10
606.7040641127398
 20
194.6567301817051
 30
0.0
 40
1.5
100
AcDbArc
 50
129.2894068624993
 51
174.1102722439002
  0
LINE
  5
71D
330
1A
100
AcDbEntity
  8
SEIHIN
100
AcDbLine
 10
607.7283019611398
 20
198.0005024065051
 30
0.0
 11
608.4778256148397
 21
205.4965227058052
 31
0.0
  0
ARC
  5
71E
330
1A
100
AcDbEntity
  8
SEIHIN
100
AcDbCircle
 10
606.2357446307398
 20
198.1497425338051
 30
0.0
 40
1.5
100
AcDbArc
 50
309.2894068624993
 51
354.2900000000011
  0
ARC
  5
71F
330
1A
100
AcDbEntity
  8
SEIHIN
100
AcDbCircle
 10
611.6725533649399
 20
195.2332931981052
 30
0.0
 40
1.0
100
AcDbArc
 50
309.2894068624993
 51
354.2900000000011
  0
ARC
  5
720
330
1A
100
AcDbEntity
  8
SEIHIN
100
AcDbCircle
 10
611.0048750993398
 20
195.5914536428051
 30
0.0
 40
1.0
100
AcDbArc
 50
309.2894068624993
 51
354.2900000000011
  0
ARC
  5
721
330
1A
100
AcDbEntity
  8
SEIHIN
100
AcDbCircle
 10
609.5741359587398
 20
196.3589403101052
 30
0.0
 40
1.0
100
AcDbArc
 50
309.2894068624993
 51
354.2900000000011
  0
LINE
  5
722
330
1A
100
AcDbEntity
  8
SEIHIN
100
AcDbLine
 10
609.9703829452399
 20
206.8472825785052
 30
0.0
 11
610.2703515780399
 21
206.8472825785052
 31
0.0
  0
ARC
  5
723
330
1A
100
AcDbEntity
  8
SEIHIN
100
AcDbCircle
 10
609.9703829452399
 20
205.3472825785052
 30
0.0
 40
1.5
100
AcDbArc
 50
90.0
 51
174.2900000000011
  0
ARC
  5
724
330
1A
100
AcDbEntity
  8
SEIHIN
100
AcDbCircle
 10
610.2703515780399
 20
208.3472825785051
 30
0.0
 40
1.5
100
AcDbArc
 50
270.0
 51
354.2899880643003
  0
ARC
  5
725
330
1A
100
AcDbEntity
  8
SEIHIN
100
AcDbCircle
 10
615.6901512805397
 20
222.3472825319051
 30
0.0
 40
1.0
100
AcDbArc
 50
90.0
 51
174.2900000000011
  0
ARC
  5
726
330
1A
100
AcDbEntity
  8
SEIHIN
100
AcDbCircle
 10
615.2376527917397
 20
222.8472825319051
 30
0.0
 40
2.0
100
AcDbArc
 50
90.0
 51
174.2900000000011
  0
ARC
  5
727
330
1A
100
AcDbEntity
  8
SEIHIN
100
AcDbCircle
 10
616.3236491647398
 20
221.6472825319052
 30
0.0
 40
1.0
100
AcDbArc
 50
90.0
 51
174.2900000000011
  0
ARC
  5
728
330
1A
100
AcDbEntity
  8
SEIHIN
100
AcDbCircle
 10
620.9276588368397
 20
226.3472825319051
 30
0.0
 40
1.5
100
AcDbArc
 50
270.0
 51
0.0
  0
LINE
  5
729
330
1A
100
AcDbEntity
  8
SEIHIN
100
AcDbLine
 10
615.6901512805397
 20
223.3472825319052
 30
0.0
 11
622.4276588368398
 21
223.3472825319052
 31
0.0
  0
LINE
  5
72A
330
1A
100
AcDbEntity
  8
SEIHIN
100
AcDbLine
 10
616.3236491647398
 20
222.6472825319051
 30
0.0
 11
623.1276588368398
 21
222.6472825319051
 31
0.0
  0
LINE
  5
72B
330
1A
100
AcDbEntity
  8
SEIHIN
100
AcDbLine
 10
615.2376527917397
 20
224.8472825319051
 30
0.0
 11
620.9276588368397
 21
224.8472825319051
 31
0.0
  0
ARC
  5
72D
330
1A
100
AcDbEntity
  8
SEIHIN
100
AcDbCircle
 10
621.9276588368398
 20
241.5472825319052
 30
0.0
 40
2.0
100
AcDbArc
 50
0.0
 51
90.0
  0
ARC
  5
72E
330
1A
100
AcDbEntity
  8
SEIHIN
100
AcDbCircle
 10
622.6276588368398
 20
241.5472825319052
 30
0.0
 40
2.0
100
AcDbArc
 50
0.0
 51
90.0
  0
ARC
  5
72F
330
1A
100
AcDbEntity
  8
SEIHIN
100
AcDbCircle
 10
615.7296055186398
 20
245.5446825604052
 30
0.0
 40
2.0
100
AcDbArc
 50
216.7768496515984
 51
272.921823523301
  0
ARC
  5
730
330
1A
100
AcDbEntity
  8
SEIHIN
100
AcDbCircle
 10
617.3292209555397
 20
244.5488446506051
 30
0.0
 40
5.0
100
AcDbArc
 50
199.8959097498017
 51
250.1040902502007
  0
ARC
  5
731
330
1A
100
AcDbEntity
  8
SEIHIN
100
AcDbCircle
 10
614.1276588368398
 20
242.8472825319051
 30
0.0
 40
1.5
100
AcDbArc
 50
90.0
 51
180.0
  0
ARC
  5
732
330
1A
100
AcDbEntity
  8
SEIHIN
100
AcDbCircle
 10
616.1276588368398
 20
240.8472825319051
 30
0.0
 40
0.5
100
AcDbArc
 50
90.0
 51
180.0
  0
LINE
  5
733
330
1A
100
AcDbEntity
  8
SEIHIN
100
AcDbLine
 10
615.6276588368398
 20
242.3472825319052
 30
0.0
 11
615.6276588368398
 21
240.8472825319051
 31
0.0
  0
ARC
  5
734
330
1A
100
AcDbEntity
  8
SEIHIN
100
AcDbCircle
 10
620.4276588368397
 20
239.3472825319051
 30
0.0
 40
2.0
100
AcDbArc
 50
0.0
 51
90.0
  0
LINE
  5
735
330
1A
100
AcDbEntity
  8
SEIHIN
100
AcDbLine
 10
620.4276588368397
 20
241.3472825319051
 30
0.0
 11
616.1276588368398
 21
241.3472825319051
 31
0.0
  0
LINE
  5
736
330
1A
100
AcDbEntity
  8
SEIHIN
100
AcDbLine
 10
622.6276588368398
 20
243.5472825319052
 30
0.0
 11
615.8315522005398
 21
243.5472825319052
 31
0.0
  0
ARC
  5
737
330
1A
100
AcDbEntity
  8
SEIHIN
100
AcDbCircle
 10
620.4276588368397
 20
240.3472825319052
 30
0.0
 40
2.0
100
AcDbArc
 50
0.0
 51
90.0
  0
LINE
  5
738
330
1A
100
AcDbEntity
  8
SEIHIN
100
AcDbLine
 10
620.4276588368397
 20
242.3472825319052
 30
0.0
 11
615.6276588368398
 21
242.3472825319052
 31
0.0
  0
LINE
  5
739
330
1A
100
AcDbEntity
  8
SEIHIN
100
AcDbLine
 10
615.6276588368398
 20
240.8472825319051
 30
0.0
 11
615.6276588368398
 21
239.8472825319052
 31
0.0
  0
LINE
  5
983
330
1A
100
AcDbEntity
  8
NOKITOI
  6
PHANTOM
 62
     8
 48
5.0
100
AcDbLine
 10
610.2072828880493
 20
195.5849833284343
 30
0.0
 11
599.8041828880493
 21
187.0732833284342
 31
0.0
  0
ARC
  5
984
330
1A
100
AcDbEntity
  8
NOKITOI
  6
PHANTOM
 62
     8
 48
5.0
100
AcDbCircle
 10
554.341466661592
 20
229.8473978048042
 30
0.0
 40
43.00001447645168
100
AcDbArc
 50
186.524910707118
 51
269.999888375144
  0
ARC
  5
985
330
1A
100
AcDbEntity
  8
NOKITOI
  6
PHANTOM
 62
     8
 48
5.0
100
AcDbCircle
 10
554.3414889700172
 20
229.8473777037778
 30
0.0
 40
41.79999437547816
100
AcDbArc
 50
184.474295212525
 51
269.9998545921086
  0
LINE
  5
986
330
1A
100
AcDbEntity
  8
NOKITOI
  6
PHANTOM
 62
     8
 48
5.0
100
AcDbLine
 10
609.2229828880497
 20
196.3300833284341
 30
0.0
 11
599.2376828880495
 21
188.160283328434
 31
0.0
  0
LINE
  5
987
330
1A
100
AcDbEntity
  8
NOKITOI
  6
PHANTOM
 62
     8
 48
5.0
100
AcDbLine
 10
599.1708828880494
 20
186.8472833284341
 30
0.0
 11
554.3414828880493
 21
186.8473833284341
 31
0.0
  0
LINE
  5
988
330
1A
100
AcDbEntity
  8
NOKITOI
  6
PHANTOM
 62
     8
 48
5.0
100
AcDbLine
 10
554.3414828880493
 20
188.0473833284342
 30
0.0
 11
598.9210828880493
 21
188.0472833284342
 31
0.0
  0
LINE
  5
989
330
1A
100
AcDbEntity
  8
NOKITOI
  6
PHANTOM
 62
     8
 48
5.0
100
AcDbLine
 10
594.9210828880493
 20
188.0472833284342
 30
0.0
 11
575.0129828880496
 21
188.0472833284342
 31
0.0
  0
LINE
  5
98A
330
1A
100
AcDbEntity
  8
NOKITOI
  6
PHANTOM
 62
     8
 48
5.0
100
AcDbLine
 10
595.1708828880494
 20
186.8472833284341
 30
0.0
 11
575.0129828880496
 21
186.8472833284341
 31
0.0
  0
ARC
  5
98B
330
1A
100
AcDbEntity
  8
NOKITOI
  6
PHANTOM
 62
     8
 48
5.0
100
AcDbCircle
 10
598.9210892757981
 20
188.5472856084237
 30
0.0
 40
0.5000022800304047
100
AcDbArc
 50
269.9992680212786
 51
309.2854498596058
  0
ARC
  5
98C
330
1A
100
AcDbEntity
  8
NOKITOI
  6
PHANTOM
 62
     8
 48
5.0
100
AcDbCircle
 10
599.1708759554719
 20
187.847280853428
 30
0.0
 40
0.9999975250179316
100
AcDbArc
 50
270.0003972084043
 51
309.2946416752298
  0
LINE
  5
98D
330
1A
100
AcDbEntity
  8
NOKITOI
  6
PHANTOM
 62
     8
 48
5.0
100
AcDbLine
 10
511.0528828880494
 20
232.8211833284341
 30
0.0
 11
511.3686828880493
 21
238.8210833284341
 31
0.0
  0
LINE
  5
98E
330
1A
100
AcDbEntity
  8
NOKITOI
  6
PHANTOM
 62
     8
 48
5.0
100
AcDbLine
 10
509.8893828880493
 20
233.5473833284341
 30
0.0
 11
510.0705828880493
 21
236.9888833284343
 31
0.0
  0
LINE
  5
98F
330
1A
100
AcDbEntity
  8
NOKITOI
  6
PHANTOM
 62
     8
 48
5.0
100
AcDbLine
 10
509.1114828880497
 20
233.5473833284341
 30
0.0
 11
509.5155828880495
 21
236.375783328434
 31
0.0
  0
LINE
  5
990
330
1A
100
AcDbEntity
  8
NOKITOI
  6
PHANTOM
 62
     8
 48
5.0
100
AcDbLine
 10
503.7917828880497
 20
239.822383328434
 30
0.0
 11
503.941182888049
 21
235.0434833284342
 31
0.0
  0
LINE
  5
991
330
1A
100
AcDbEntity
  8
NOKITOI
  6
PHANTOM
 62
     8
 48
5.0
100
AcDbLine
 10
502.5923828880492
 20
239.7848833284341
 30
0.0
 11
502.9825828880491
 21
227.300583328434
 31
0.0
  0
ARC
  5
992
330
1A
100
AcDbEntity
  8
NOKITOI
  6
PHANTOM
 62
     8
 48
5.0
100
AcDbCircle
 10
508.0431031007186
 20
231.8474420568142
 30
0.0
 40
5.2000412730095
100
AcDbArc
 50
90.00132454306161
 51
142.0757990790561
  0
ARC
  5
993
330
1A
100
AcDbEntity
  8
NOKITOI
  6
PHANTOM
 62
     8
 48
5.0
100
AcDbCircle
 10
508.043020769496
 20
231.8474271109595
 30
0.0
 40
3.999989731271038
100
AcDbArc
 50
96.47731142013144
 51
181.7899836067308
  0
ARC
  5
994
330
1A
100
AcDbEntity
  8
NOKITOI
  6
PHANTOM
 62
     8
 48
5.0
100
AcDbCircle
 10
508.304409488647
 20
232.8473526515521
 30
0.0
 40
0.4999693238254178
100
AcDbArc
 50
171.8555038770532
 51
269.9969516090348
  0
LINE
  5
995
330
1A
100
AcDbEntity
  8
NOKITOI
  6
PHANTOM
 62
     8
 48
5.0
100
AcDbLine
 10
507.8094828880491
 20
232.9181833284343
 30
0.0
 11
508.1431828880493
 21
235.2543833284343
 31
0.0
  0
ARC
  5
996
330
1A
100
AcDbEntity
  8
NOKITOI
  6
PHANTOM
 62
     8
 48
5.0
100
AcDbCircle
 10
507.6481971064647
 20
235.3250686941331
 30
0.0
 40
0.5000073448410256
100
AcDbArc
 50
351.8729478641243
 51
96.47829282996843
  0
LINE
  5
997
330
1A
100
AcDbEntity
  8
NOKITOI
  6
PHANTOM
 62
     8
 48
5.0
100
AcDbLine
 10
510.5534828880492
 20
232.3473833284341
 30
0.0
 11
508.3043828880493
 21
232.3473833284341
 31
0.0
  0
ARC
  5
998
330
1A
100
AcDbEntity
  8
NOKITOI
  6
PHANTOM
 62
     8
 48
5.0
100
AcDbCircle
 10
510.5534760010543
 20
232.8473767933486
 30
0.0
 40
0.499993464961963
100
AcDbArc
 50
270.0007892017873
 51
356.9970361317427
  0
LINE
  5
999
330
1A
100
AcDbEntity
  8
NOKITOI
  6
PHANTOM
 62
     8
 48
5.0
100
AcDbLine
 10
509.8893828880493
 20
233.5473833284341
 30
0.0
 11
509.1114828880497
 21
233.5473833284341
 31
0.0
  0
ARC
  5
99A
330
1A
100
AcDbEntity
  8
NOKITOI
  6
PHANTOM
 62
     8
 48
5.0
100
AcDbCircle
 10
510.6264744638868
 20
224.8473908434906
 30
0.0
 40
0.9999924849789756
100
AcDbArc
 50
6.528264606674428
 51
89.99951732740891
  0
LINE
  5
99B
330
1A
100
AcDbEntity
  8
NOKITOI
  6
PHANTOM
 62
     8
 48
5.0
100
AcDbLine
 10
504.4817828880493
 20
225.8473833284341
 30
0.0
 11
510.6264828880491
 21
225.8473833284341
 31
0.0
  0
LINE
  5
99C
330
1A
100
AcDbEntity
  8
NOKITOI
  6
PHANTOM
 62
     8
 48
5.0
100
AcDbLine
 10
512.1703828880497
 20
227.0473833284341
 30
0.0
 11
506.1294828880493
 21
227.0473833284341
 31
0.0
  0
ARC
  5
99D
330
1A
100
AcDbEntity
  8
NOKITOI
  6
PHANTOM
 62
     8
 48
5.0
100
AcDbCircle
 10
512.1703954577576
 20
226.5473717037044
 30
0.0
 40
0.5000116248877111
100
AcDbArc
 50
4.474846808342897
 51
90.00144034898337
  0
LINE
  5
99E
330
1A
100
AcDbEntity
  8
NOKITOI
  6
PHANTOM
 62
     8
 48
5.0
100
AcDbLine
 10
504.130482888049
 20
228.9849833284341
 30
0.0
 11
504.0449828880493
 21
231.7224833284341
 31
0.0
  0
ARC
  5
99F
330
1A
100
AcDbEntity
  8
NOKITOI
  6
PHANTOM
 62
     8
 48
5.0
100
AcDbCircle
 10
504.4818188472001
 20
227.3473484742909
 30
0.0
 40
1.499965146287778
100
AcDbArc
 50
181.7866280217767
 51
269.9986264296976
  0
ARC
  5
9A0
330
1A
100
AcDbEntity
  8
NOKITOI
  6
PHANTOM
 62
     8
 48
5.0
100
AcDbCircle
 10
506.1294964601877
 20
229.0473701733477
 30
0.0
 40
1.999986844959662
100
AcDbArc
 50
181.7875531852363
 51
269.9996111843223
  0
LINE
  5
9A5
330
1A
100
AcDbEntity
  8
NOKITOI
  6
PHANTOM
 62
     8
 48
5.0
100
AcDbLine
 10
504.5913828880491
 20
241.8473833284341
 30
0.0
 11
507.9179828880494
 21
241.8473833284341
 31
0.0
  0
LINE
  5
9A6
330
1A
100
AcDbEntity
  8
NOKITOI
  6
PHANTOM
 62
     8
 48
5.0
100
AcDbLine
 10
504.5913828880491
 20
240.6473833284343
 30
0.0
 11
507.0641828880495
 21
240.6473833284343
 31
0.0
  0
LINE
  5
9A7
330
1A
100
AcDbEntity
  8
NOKITOI
  6
PHANTOM
 62
     8
 48
5.0
100
AcDbLine
 10
508.5048828880497
 20
237.0473833284342
 30
0.0
 11
509.5006828880493
 21
238.1473833284343
 31
0.0
  0
LINE
  5
9A8
330
1A
100
AcDbEntity
  8
NOKITOI
  6
PHANTOM
 62
     8
 48
5.0
100
AcDbLine
 10
508.5048828880497
 20
237.0473833284342
 30
0.0
 11
508.0429828880494
 21
237.0473833284342
 31
0.0
  0
LINE
  5
9A9
330
1A
100
AcDbEntity
  8
NOKITOI
  6
PHANTOM
 62
     8
 48
5.0
100
AcDbLine
 10
509.5155828880495
 20
236.375783328434
 30
0.0
 11
510.0705828880493
 21
236.9888833284343
 31
0.0
  0
LINE
  5
9AA
330
1A
100
AcDbEntity
  8
NOKITOI
  6
PHANTOM
 62
     8
 48
5.0
100
AcDbLine
 10
507.0641828880495
 20
240.6473833284343
 30
0.0
 11
506.5641828880496
 21
238.1473833284343
 31
0.0
  0
ARC
  5
9AB
330
1A
100
AcDbEntity
  8
NOKITOI
  6
PHANTOM
 62
     8
 48
5.0
100
AcDbCircle
 10
508.6377756334939
 20
239.8473921782775
 30
0.0
 40
0.5000088498959383
100
AcDbArc
 50
168.6864043304884
 51
270.0008312961434
  0
LINE
  5
9AC
330
1A
100
AcDbEntity
  8
NOKITOI
  6
PHANTOM
 62
     8
 48
5.0
100
AcDbLine
 10
506.5641828880496
 20
238.1473833284343
 30
0.0
 11
509.5006828880493
 21
238.1473833284343
 31
0.0
  0
ARC
  5
9AD
330
1A
100
AcDbEntity
  8
NOKITOI
  6
PHANTOM
 62
     8
 48
5.0
100
AcDbCircle
 10
510.8692766868914
 20
238.8473898635194
 30
0.0
 40
0.4999934649531607
100
AcDbArc
 50
356.9955363203384
 51
89.99928939038005
  0
LINE
  5
9AE
330
1A
100
AcDbEntity
  8
NOKITOI
  6
PHANTOM
 62
     8
 48
5.0
100
AcDbLine
 10
510.8692828880491
 20
239.3473833284341
 30
0.0
 11
508.6377828880492
 21
239.3473833284341
 31
0.0
  0
ARC
  5
9AF
330
1A
100
AcDbEntity
  8
NOKITOI
  6
PHANTOM
 62
     8
 48
5.0
100
AcDbCircle
 10
507.9179821050408
 20
241.3473842834358
 30
0.0
 40
0.4999990449987349
100
AcDbArc
 50
348.6967198015448
 51
89.99991027369452
  0
LINE
  5
9B0
330
1A
100
AcDbEntity
  8
NOKITOI
  6
PHANTOM
 62
     8
 48
5.0
100
AcDbLine
 10
508.1474828880494
 20
239.9454833284341
 30
0.0
 11
508.4082828880493
 21
241.2493833284341
 31
0.0
  0
ARC
  5
9B1
330
1A
100
AcDbEntity
  8
NOKITOI
  6
PHANTOM
 62
     8
 48
5.0
100
AcDbCircle
 10
504.5913873828474
 20
239.847387965961
 30
0.0
 40
0.7999953624857498
100
AcDbArc
 50
90.00032191805336
 51
181.7911273464199
  0
ARC
  5
9B2
330
1A
100
AcDbEntity
  8
NOKITOI
  6
PHANTOM
 62
     8
 48
5.0
100
AcDbCircle
 10
504.5913956388992
 20
239.8473964835206
 30
0.0
 40
1.999986844954076
100
AcDbArc
 50
90.00036528735526
 51
181.7883072882699
  0
LINE
  5
9B3
330
1A
100
AcDbEntity
  8
NOKITOI
  6
PHANTOM
 62
     8
 48
5.0
100
AcDbLine
 10
621.2639828880489
 20
239.822383328434
 30
0.0
 11
621.1146828880494
 21
235.0433833284343
 31
0.0
  0
LINE
  5
9B4
330
1A
100
AcDbEntity
  8
NOKITOI
  6
PHANTOM
 62
     8
 48
5.0
100
AcDbLine
 10
622.4633828880493
 20
239.7848833284341
 30
0.0
 11
622.0732828880493
 21
227.300483328434
 31
0.0
  0
LINE
  5
9B5
330
1A
100
AcDbEntity
  8
NOKITOI
  6
PHANTOM
 62
     8
 48
5.0
100
AcDbLine
 10
614.0029828880495
 20
232.8210833284341
 30
0.0
 11
613.6871828880491
 21
238.8210833284341
 31
0.0
  0
LINE
  5
9B6
330
1A
100
AcDbEntity
  8
NOKITOI
  6
PHANTOM
 62
     8
 48
5.0
100
AcDbLine
 10
615.9442828880489
 20
233.5473833284341
 30
0.0
 11
615.5402828880494
 21
236.375783328434
 31
0.0
  0
LINE
  5
9B7
330
1A
100
AcDbEntity
  8
NOKITOI
  6
PHANTOM
 62
     8
 48
5.0
100
AcDbLine
 10
615.1663828880494
 20
233.5473833284341
 30
0.0
 11
614.9852828880491
 21
236.9887833284341
 31
0.0
  0
ARC
  5
9B8
330
1A
100
AcDbEntity
  8
NOKITOI
  6
PHANTOM
 62
     8
 48
5.0
100
AcDbCircle
 10
617.0128519611132
 20
231.8474190730979
 30
0.0
 40
3.99998565374706
100
AcDbArc
 50
358.2086966591014
 51
83.52422380468325
  0
ARC
  5
9B9
330
1A
100
AcDbEntity
  8
NOKITOI
  6
PHANTOM
 62
     8
 48
5.0
100
AcDbCircle
 10
617.0128650216981
 20
231.8473920568141
 30
0.0
 40
5.199991271650611
100
AcDbArc
 50
37.92532860473096
 51
89.99980314072548
  0
LINE
  5
9BA
330
1A
100
AcDbEntity
  8
NOKITOI
  6
PHANTOM
 62
     8
 48
5.0
100
AcDbLine
 10
612.3968828880495
 20
226.5971833284341
 30
0.0
 11
609.4038828880491
 21
196.6673833284341
 31
0.0
  0
LINE
  5
9BB
330
1A
100
AcDbEntity
  8
NOKITOI
  6
PHANTOM
 62
     8
 48
5.0
100
AcDbLine
 10
613.4378828880496
 20
224.9468833284341
 30
0.0
 11
610.5690828880494
 21
196.2594833284341
 31
0.0
  0
ARC
  5
9BC
330
1A
100
AcDbEntity
  8
NOKITOI
  6
PHANTOM
 62
     8
 48
5.0
100
AcDbCircle
 10
608.9063654621711
 20
196.7170508420462
 30
0.0
 40
0.4999904508696396
100
AcDbArc
 50
309.2900846377958
 51
354.2990110749245
  0
ARC
  5
9BD
330
1A
100
AcDbEntity
  8
NOKITOI
  6
PHANTOM
 62
     8
 48
5.0
100
AcDbCircle
 10
609.5740603151805
 20
196.3589412567615
 30
0.0
 40
0.9999908507640039
100
AcDbArc
 50
309.2887092230696
 51
354.2862329477531
  0
LINE
  5
9BE
330
1A
100
AcDbEntity
  8
NOKITOI
  6
PHANTOM
 62
     8
 48
5.0
100
AcDbLine
 10
614.5022828880494
 20
232.3473833284341
 30
0.0
 11
616.751382888049
 21
232.3473833284341
 31
0.0
  0
LINE
  5
9BF
330
1A
100
AcDbEntity
  8
NOKITOI
  6
PHANTOM
 62
     8
 48
5.0
100
AcDbLine
 10
612.894382888049
 20
227.0473833284341
 30
0.0
 11
618.9262828880494
 21
227.0473833284341
 31
0.0
  0
LINE
  5
9C0
330
1A
100
AcDbEntity
  8
NOKITOI
  6
PHANTOM
 62
     8
 48
5.0
100
AcDbLine
 10
620.5739828880494
 20
225.8473833284341
 30
0.0
 11
614.4328828880495
 21
225.8473833284341
 31
0.0
  0
ARC
  5
9C1
330
1A
100
AcDbEntity
  8
NOKITOI
  6
PHANTOM
 62
     8
 48
5.0
100
AcDbCircle
 10
614.502287009456
 20
232.8473794184036
 30
0.0
 40
0.4999960899864752
100
AcDbArc
 50
183.0147243791737
 51
269.9995277178594
  0
LINE
  5
9C2
330
1A
100
AcDbEntity
  8
NOKITOI
  6
PHANTOM
 62
     8
 48
5.0
100
AcDbLine
 10
615.1663828880494
 20
233.5473833284341
 30
0.0
 11
615.9442828880489
 21
233.5473833284341
 31
0.0
  0
ARC
  5
9C3
330
1A
100
AcDbEntity
  8
NOKITOI
  6
PHANTOM
 62
     8
 48
5.0
100
AcDbCircle
 10
614.4329035378903
 20
224.8474020162833
 30
0.0
 40
0.9999813123640345
100
AcDbArc
 50
90.00118317084957
 51
174.290590033351
  0
ARC
  5
9C4
330
1A
100
AcDbEntity
  8
NOKITOI
  6
PHANTOM
 62
     8
 48
5.0
100
AcDbCircle
 10
612.8943959590539
 20
226.547395158714
 30
0.0
 40
0.499988169890889
100
AcDbArc
 50
90.00149786226627
 51
174.2966061377156
  0
ARC
  5
9C5
330
1A
100
AcDbEntity
  8
NOKITOI
  6
PHANTOM
 62
     8
 48
5.0
100
AcDbCircle
 10
620.5740001012275
 20
227.3474000115819
 30
0.0
 40
1.500016683246579
100
AcDbArc
 50
269.9993425123348
 51
358.207642324411
  0
LINE
  5
9C6
330
1A
100
AcDbEntity
  8
NOKITOI
  6
PHANTOM
 62
     8
 48
5.0
100
AcDbLine
 10
620.9253828880494
 20
228.9847833284342
 30
0.0
 11
621.0108828880491
 21
231.7223833284341
 31
0.0
  0
ARC
  5
9C7
330
1A
100
AcDbEntity
  8
NOKITOI
  6
PHANTOM
 62
     8
 48
5.0
100
AcDbCircle
 10
616.7513930744855
 20
232.8473950731583
 30
0.0
 40
0.5000117448278309
100
AcDbArc
 50
269.9988327478018
 51
8.127314608715803
  0
LINE
  5
9C8
330
1A
100
AcDbEntity
  8
NOKITOI
  6
PHANTOM
 62
     8
 48
5.0
100
AcDbLine
 10
617.2463828880493
 20
232.9180833284341
 30
0.0
 11
616.9125828880494
 21
235.2542833284343
 31
0.0
  0
ARC
  5
9C9
330
1A
100
AcDbEntity
  8
NOKITOI
  6
PHANTOM
 62
     8
 48
5.0
100
AcDbCircle
 10
617.407612260549
 20
235.325013560929
 30
0.0
 40
0.4999578477751074
100
AcDbArc
 50
83.52609071220776
 51
188.1330561712924
  0
ARC
  5
9CA
330
1A
100
AcDbEntity
  8
NOKITOI
  6
PHANTOM
 62
     8
 48
5.0
100
AcDbCircle
 10
618.9263208758736
 20
229.0473201490064
 30
0.0
 40
2.000036820932882
100
AcDbArc
 50
269.9989117490339
 51
358.2110591274196
  0
LINE
  5
9CC
330
1A
100
AcDbEntity
  8
NOKITOI
  6
PHANTOM
 62
     8
 48
5.0
100
AcDbLine
 10
616.5508828880494
 20
237.0473833284342
 30
0.0
 11
615.5550828880493
 21
238.1473833284343
 31
0.0
  0
LINE
  5
9CD
330
1A
100
AcDbEntity
  8
NOKITOI
  6
PHANTOM
 62
     8
 48
5.0
100
AcDbLine
 10
618.4916828880493
 20
238.1473833284343
 30
0.0
 11
615.5550828880493
 21
238.1473833284343
 31
0.0
  0
LINE
  5
9CE
330
1A
100
AcDbEntity
  8
NOKITOI
  6
PHANTOM
 62
     8
 48
5.0
100
AcDbLine
 10
614.1864828880495
 20
239.3473833284341
 30
0.0
 11
616.4179828880494
 21
239.3473833284341
 31
0.0
  0
LINE
  5
9CF
330
1A
100
AcDbEntity
  8
NOKITOI
  6
PHANTOM
 62
     8
 48
5.0
100
AcDbLine
 10
615.5402828880494
 20
236.375783328434
 30
0.0
 11
614.9852828880491
 21
236.9887833284341
 31
0.0
  0
ARC
  5
9D0
330
1A
100
AcDbEntity
  8
NOKITOI
  6
PHANTOM
 62
     8
 48
5.0
100
AcDbCircle
 10
614.1864865975446
 20
238.8473872384648
 30
0.0
 40
0.4999960899831856
100
AcDbArc
 50
90.00042508015132
 51
183.0156217414654
  0
ARC
  5
9D2
330
1A
100
AcDbEntity
  8
NOKITOI
  6
PHANTOM
 62
     8
 48
5.0
100
AcDbCircle
 10
620.4644268544022
 20
239.8473379659611
 30
0.0
 40
0.7999453636812564
100
AcDbArc
 50
358.212343644788
 51
90.00314907315372
  0
ARC
  5
9D3
330
1A
100
AcDbEntity
  8
NOKITOI
  6
PHANTOM
 62
     8
 48
5.0
100
AcDbCircle
 10
620.4643716510552
 20
239.8473949222512
 30
0.0
 40
1.999988406214315
100
AcDbArc
 50
358.2088726535929
 51
89.99967808195611
  0
LINE
  5
9D4
330
1A
100
AcDbEntity
  8
NOKITOI
  6
PHANTOM
 62
     8
 48
5.0
100
AcDbLine
 10
616.5508828880494
 20
237.0473833284342
 30
0.0
 11
617.0128828880494
 21
237.0473833284342
 31
0.0
  0
ARC
  5
9D5
330
1A
100
AcDbEntity
  8
NOKITOI
  6
PHANTOM
 62
     8
 48
5.0
100
AcDbCircle
 10
616.4179821050408
 20
239.8473823734324
 30
0.0
 40
0.4999990449987399
100
AcDbArc
 50
270.0000897263054
 51
11.30328019845509
  0
LINE
  5
9D6
330
1A
100
AcDbEntity
  8
NOKITOI
  6
PHANTOM
 62
     8
 48
5.0
100
AcDbLine
 10
617.9916828880493
 20
240.6473833284343
 30
0.0
 11
618.4916828880493
 21
238.1473833284343
 31
0.0
  0
ARC
  5
9D7
330
1A
100
AcDbEntity
  8
NOKITOI
  6
PHANTOM
 62
     8
 48
5.0
100
AcDbCircle
 10
617.1377756334939
 20
241.3473744785907
 30
0.0
 40
0.500008849895925
100
AcDbArc
 50
89.99916870385492
 51
191.3135956695117
  0
LINE
  5
9D8
330
1A
100
AcDbEntity
  8
NOKITOI
  6
PHANTOM
 62
     8
 48
5.0
100
AcDbLine
 10
616.9082828880493
 20
239.9453833284343
 30
0.0
 11
616.6474828880494
 21
241.2493833284341
 31
0.0
  0
LINE
  5
9D9
330
1A
100
AcDbEntity
  8
NOKITOI
  6
PHANTOM
 62
     8
 48
5.0
100
AcDbLine
 10
620.4643828880496
 20
241.8472833284341
 30
0.0
 11
617.1377828880492
 21
241.8473833284341
 31
0.0
  0
LINE
  5
9DA
330
1A
100
AcDbEntity
  8
NOKITOI
  6
PHANTOM
 62
     8
 48
5.0
100
AcDbLine
 10
620.4643828880496
 20
240.6472833284341
 30
0.0
 11
617.9916828880493
 21
240.6473833284343
 31
0.0
  0
LINE
  5
A53
330
1A
100
AcDbEntity
  8
SEIHIN
100
AcDbLine
 10
256.9308385984593
 20
400.4349128653423
 30
0.0
 11
256.9308385984593
 21
383.6228645220423
 31
0.0
  0
ARC
  5
A54
330
1A
100
AcDbEntity
  8
SEIHIN
100
AcDbCircle
 10
257.9308385984593
 20
383.6228645220423
 30
0.0
 40
1.0
100
AcDbArc
 50
180.0
 51
270.0
  0
ARC
  5
A55
330
1A
100
AcDbEntity
  8
SEIHIN
100
AcDbCircle
 10
256.1808385984593
 20
400.4349128653423
 30
0.0
 40
0.75
100
AcDbArc
 50
0.000000000000007
 51
90.0
  0
LINE
  5
A56
330
1A
100
AcDbEntity
  8
SEIHIN
100
AcDbLine
 10
255.9308385984593
 20
401.1849128653422
 30
0.0
 11
256.1808385984593
 21
401.1849128653422
 31
0.0
  0
LINE
  5
A57
330
1A
100
AcDbEntity
  8
SEIHIN
100
AcDbLine
 10
256.9308385984593
 20
472.9725613063423
 30
0.0
 11
256.9308385984593
 21
483.4222580906422
 31
0.0
  0
ARC
  5
A58
330
1A
100
AcDbEntity
  8
SEIHIN
100
AcDbCircle
 10
256.1808385984593
 20
472.9725613063423
 30
0.0
 40
0.75
100
AcDbArc
 50
270.0
 51
0.000000000000007
  0
LINE
  5
A59
330
1A
100
AcDbEntity
  8
SEIHIN
100
AcDbLine
 10
255.9308385984593
 20
472.2225613063423
 30
0.0
 11
256.1808385984593
 21
472.2225613063423
 31
0.0
  0
ARC
  5
A5A
330
1A
100
AcDbEntity
  8
SEIHIN
100
AcDbCircle
 10
257.9308385984593
 20
483.4222580906422
 30
0.0
 40
1.0
100
AcDbArc
 50
90.0
 51
180.0
  0
DIMENSION
  5
ABC
330
1A
100
AcDbEntity
  8
SUNPOU
100
AcDbDimension
  2
*D1
 10
145.9308385984595
 20
292.3938233078374
 30
0.0
 11
255.9308385984594
 21
297.3938233078374
 31
0.0
 70
    32
  3
STANDARD
100
AcDbAlignedDimension
 13
365.9308385984593
 23
244.3472825319052
 33
0.0
 14
145.9308385984595
 24
244.3472825319052
 34
0.0
100
AcDbRotatedDimension
1001
ACAD
1000
DSTYLE
1002
{
1070
    41
1040
7.0
1070
    42
1040
6.0
1070
    43
1040
14.0
1070
    44
1040
3.0
1070
    73
1070
     0
1070
    74
1070
     0
1070
    77
1070
     3
1070
   140
1040
6.0
1070
   141
1040
150.0
1070
   147
1040
2.0
1070
   172
1070
     1
1070
   173
1070
     1
1070
   176
1070
     4
1070
   177
1070
     4
1070
   178
1070
     4
1070
   271
1070
     0
1070
   272
1070
     2
1070
   341
1005
6D
1070
     6
1000
OPEN
1070
     7
1000
OPEN
1002
}
  0
DIMENSION
  5
AC9
330
1A
100
AcDbEntity
  8
SUNPOU
100
AcDbDimension
  2
*D2
 10
624.6276588368398
 20
292.3938233078374
 30
0.0
 11
562.4778104446399
 21
297.3938233078374
 31
0.0
 70
    32
  3
STANDARD
100
AcDbAlignedDimension
 13
500.3279620524399
 23
241.5472825319052
 33
0.0
 14
624.6276588368398
 24
241.5472825319052
 34
0.0
100
AcDbRotatedDimension
1001
ACAD
1000
DSTYLE
1002
{
1070
    41
1040
7.0
1070
    42
1040
6.0
1070
    43
1040
14.0
1070
    44
1040
3.0
1070
    73
1070
     0
1070
    74
1070
     0
1070
    77
1070
     3
1070
   140
1040
6.0
1070
   141
1040
150.0
1070
   147
1040
2.0
1070
   172
1070
     1
1070
   173
1070
     1
1070
   176
1070
     4
1070
   177
1070
     4
1070
   178
1070
     4
1070
   271
1070
     0
1070
   272
1070
     2
1070
   341
1005
6D
1070
     6
1000
OPEN
1070
     7
1000
OPEN
1002
}
  0
DIMENSION
  5
AD6
330
1A
100
AcDbEntity
  8
SUNPOU
100
AcDbDimension
  2
*D3
 10
449.6386214047361
 20
120.9472825319052
 30
0.0
 11
444.6386214047361
 21
182.2472825319052
 31
0.0
 70
    32
  3
STANDARD
100
AcDbAlignedDimension
 13
503.0279620524397
 23
243.5472825319052
 33
0.0
 14
537.1279620524396
 24
120.9472825319051
 34
0.0
 50
90.0
100
AcDbRotatedDimension
1001
ACAD
1000
DSTYLE
1002
{
1070
    41
1040
7.0
1070
    42
1040
6.0
1070
    43
1040
14.0
1070
    44
1040
3.0
1070
    73
1070
     0
1070
    74
1070
     0
1070
    77
1070
     3
1070
   140
1040
6.0
1070
   141
1040
150.0
1070
   147
1040
2.0
1070
   172
1070
     1
1070
   173
1070
     1
1070
   176
1070
     4
1070
   177
1070
     4
1070
   178
1070
     4
1070
   271
1070
     0
1070
   272
1070
     2
1070
   341
1005
6D
1070
     6
1000
OPEN
1070
     7
1000
OPEN
1002
}
  0
DIMENSION
  5
AE3
330
1A
100
AcDbEntity
  8
SUNPOU
100
AcDbDimension
  2
*D4
 10
464.1945207500966
 20
164.6472825319052
 30
0.0
 11
459.1945207500966
 21
204.0972825319052
 31
0.0
 70
    32
  3
STANDARD
100
AcDbAlignedDimension
 13
503.0279620524397
 23
243.5472825319052
 33
0.0
 14
527.1017494312397
 24
164.6472825319052
 34
0.0
 50
90.0
100
AcDbRotatedDimension
1001
ACAD
1000
DSTYLE
1002
{
1070
    41
1040
7.0
1070
    42
1040
6.0
1070
    43
1040
14.0
1070
    44
1040
3.0
1070
    73
1070
     0
1070
    74
1070
     0
1070
    77
1070
     3
1070
   140
1040
6.0
1070
   141
1040
150.0
1070
   147
1040
2.0
1070
   172
1070
     1
1070
   173
1070
     1
1070
   176
1070
     4
1070
   177
1070
     4
1070
   178
1070
     4
1070
   271
1070
     0
1070
   272
1070
     2
1070
   341
1005
6D
1070
     6
1000
OPEN
1070
     7
1000
OPEN
1002
}
  0
DIMENSION
  5
AF0
330
1A
100
AcDbEntity
  8
SUNPOU
100
AcDbDimension
  2
*D5
 10
601.3279620524399
 20
72.8397311031963
 30
0.0
 11
566.3278620524558
 21
77.8397311031963
 31
0.0
 70
    32
  1
φ<>
  3
STANDARD
100
AcDbAlignedDimension
 13
531.3277620524717
 23
126.9472425320076
 33
0.0
 14
601.3279620524399
 24
126.9470725319051
 34
0.0
100
AcDbRotatedDimension
1001
ACAD
1000
DSTYLE
1002
{
1070
    41
1040
7.0
1070
    42
1040
6.0
1070
    43
1040
14.0
1070
    44
1040
3.0
1070
    73
1070
     0
1070
    74
1070
     0
1070
    77
1070
     3
1070
   140
1040
6.0
1070
   141
1040
150.0
1070
   147
1040
2.0
1070
   172
1070
     1
1070
   173
1070
     1
1070
   176
1070
     4
1070
   177
1070
     4
1070
   178
1070
     4
1070
   271
1070
     0
1070
   272
1070
     2
1070
   341
1005
6D
1070
     6
1000
OPEN
1070
     7
1000
OPEN
1002
}
  0
DIMENSION
  5
B06
330
1A
100
AcDbEntity
  8
SUNPOU
100
AcDbDimension
  2
*D6
 10
566.3279620524397
 20
225.7017452718691
 30
0.0
 11
584.3279620524397
 21
230.7017452718691
 31
0.0
 70
    32
  3
STANDARD
100
AcDbAlignedDimension
 13
562.5279620524398
 23
205.1688384404535
 33
0.0
 14
566.3279620524397
 24
213.4030130951495
 34
0.0
100
AcDbRotatedDimension
1001
ACAD
1000
DSTYLE
1002
{
1070
    41
1040
7.0
1070
    42
1040
6.0
1070
    43
1040
14.0
1070
    44
1040
3.0
1070
    73
1070
     0
1070
    74
1070
     0
1070
    77
1070
     3
1070
   140
1040
6.0
1070
   141
1040
150.0
1070
   147
1040
2.0
1070
   172
1070
     1
1070
   173
1070
     1
1070
   176
1070
     4
1070
   177
1070
     4
1070
   178
1070
     4
1070
   271
1070
     0
1070
   272
1070
     2
1070
   341
1005
6D
1070
     6
1000
OPEN
1070
     7
1000
OPEN
1002
}
  0
DIMENSION
  5
B25
330
1A
100
AcDbEntity
  8
SUNPOU
100
AcDbDimension
  2
*D7
 10
499.4520227316098
 20
136.9475423493172
 30
0.0
 11
493.0343854028851
 21
148.552400304306
 31
0.0
 70
   160
  1
\U+203B<>
  3
STANDARD
100
AcDbAlignedDimension
 13
531.3277620524397
 23
126.9471125319052
 33
0.0
 14
529.8340408942128
 24
136.9475423493172
 34
0.0
 50
90.0
100
AcDbRotatedDimension
1001
ACAD
1000
DSTYLE
1002
{
1070
   287
1070
     5
1070
   287
1070
     5
1070
   287
1070
     5
1070
    41
1040
7.0
1070
    42
1040
6.0
1070
    43
1040
14.0
1070
    44
1040
3.0
1070
    73
1070
     0
1070
    74
1070
     0
1070
    77
1070
     3
1070
   140
1040
6.0
1070
   141
1040
150.0
1070
   147
1040
2.0
1070
   172
1070
     1
1070
   173
1070
     1
1070
   176
1070
     4
1070
   177
1070
     4
1070
   178
1070
     4
1070
   271
1070
     0
1070
   272
1070
     2
1070
   279
1070
     2
1070
   341
1005
6D
1070
     6
1000
OPEN
1070
     7
1000
OPEN
1002
}
  0
LINE
  5
B56
330
1A
100
AcDbEntity
  8
SUNPOU
  6
PHANTOM
 48
10.0
100
AcDbLine
 10
295.9308385984594
 20
373.5225613063422
 30
0.0
 11
295.9308385984594
 21
493.4222580906422
 31
0.0
  0
LINE
  5
B57
330
1A
100
AcDbEntity
  8
SUNPOU
  6
PHANTOM
 48
10.0
100
AcDbLine
 10
215.9308385984593
 20
373.5225613063422
 30
0.0
 11
215.9308385984592
 21
493.4222580906422
 31
0.0
  0
DIMENSION
  5
B58
330
1A
100
AcDbEntity
  8
SUNPOU
100
AcDbDimension
  2
*D8
 10
295.9308385984594
 20
344.9735812139351
 30
0.0
 11
330.9308385984593
 21
349.9735812139352
 31
0.0
 70
    32
  1
\U+203B<>
  3
STANDARD
100
AcDbAlignedDimension
 13
365.9308385984593
 23
372.0225613063422
 33
0.0
 14
295.9308385984594
 24
373.5225613063422
 34
0.0
100
AcDbRotatedDimension
1001
ACAD
1000
DSTYLE
1002
{
1070
    41
1040
7.0
1070
    42
1040
6.0
1070
    43
1040
14.0
1070
    44
1040
3.0
1070
    73
1070
     0
1070
    74
1070
     0
1070
    77
1070
     3
1070
   140
1040
6.0
1070
   141
1040
150.0
1070
   147
1040
2.0
1070
   172
1070
     1
1070
   173
1070
     1
1070
   176
1070
     4
1070
   177
1070
     4
1070
   178
1070
     4
1070
   271
1070
     0
1070
   272
1070
     2
1070
   341
1005
6D
1070
     6
1000
OPEN
1070
     7
1000
OPEN
1002
}
  0
DIMENSION
  5
B65
330
1A
100
AcDbEntity
  8
SUNPOU
100
AcDbDimension
  2
*D9
 10
215.9308385984593
 20
344.9735812139351
 30
0.0
 11
255.9308385984593
 21
349.9735812139352
 31
0.0
 70
    32
  3
STANDARD
100
AcDbAlignedDimension
 13
295.9308385984594
 23
373.5225613063422
 33
0.0
 14
215.9308385984593
 24
373.5225613063422
 34
0.0
100
AcDbRotatedDimension
1001
ACAD
1000
DSTYLE
1002
{
1070
   287
1070
     4
1070
   287
1070
     4
1070
   287
1070
     4
1070
   279
1070
     1
1070
    41
1040
7.0
1070
    42
1040
6.0
1070
    43
1040
14.0
1070
    44
1040
3.0
1070
    73
1070
     0
1070
    74
1070
     0
1070
    77
1070
     3
1070
   140
1040
6.0
1070
   141
1040
150.0
1070
   147
1040
2.0
1070
   172
1070
     1
1070
   173
1070
     1
1070
   176
1070
     4
1070
   177
1070
     4
1070
   178
1070
     4
1070
   271
1070
     0
1070
   272
1070
     2
1070
   341
1005
6D
1070
     6
1000
OPEN
1070
     7
1000
OPEN
1002
}
  0
DIMENSION
  5
B72
330
1A
100
AcDbEntity
  8
SUNPOU
100
AcDbDimension
  2
*D10
 10
145.9308385984595
 20
344.9735812139351
 30
0.0
 11
180.9308385984594
 21
349.9735812139352
 31
0.0
 70
    32
  1
\U+203B<>
  3
STANDARD
100
AcDbAlignedDimension
 13
215.9308385984593
 23
373.5225613063422
 33
0.0
 14
145.9308385984595
 24
372.0225613063422
 34
0.0
100
AcDbRotatedDimension
1001
ACAD
1000
DSTYLE
1002
{
1070
   287
1070
     4
1070
   287
1070
     4
1070
   287
1070
     4
1070
   279
1070
     1
1070
    41
1040
7.0
1070
    42
1040
6.0
1070
    43
1040
14.0
1070
    44
1040
3.0
1070
    73
1070
     0
1070
    74
1070
     0
1070
    77
1070
     3
1070
   140
1040
6.0
1070
   141
1040
150.0
1070
   147
1040
2.0
1070
   172
1070
     1
1070
   173
1070
     1
1070
   176
1070
     4
1070
   177
1070
     4
1070
   178
1070
     4
1070
   271
1070
     0
1070
   272
1070
     2
1070
   341
1005
6D
1070
     6
1000
OPEN
1070
     7
1000
OPEN
1002
}
  0
DIMENSION
  5
BD0
330
1A
100
AcDbEntity
  8
SUNPOU
100
AcDbDimension
  2
*D11
 10
479.8804886979906
 20
186.8473833284341
 30
0.0
 11
474.8804886979905
 21
215.1973329301697
 31
0.0
 70
    32
  3
STANDARD
100
AcDbAlignedDimension
 13
503.0279620524397
 23
243.5472825319052
 33
0.0
 14
554.3414828880493
 24
186.8473833284341
 34
0.0
 50
90.0
100
AcDbRotatedDimension
1001
ACAD
1000
DSTYLE
1002
{
1070
    41
1040
7.0
1070
    42
1040
6.0
1070
    43
1040
14.0
1070
    44
1040
3.0
1070
    73
1070
     0
1070
    74
1070
     0
1070
    77
1070
     3
1070
   140
1040
6.0
1070
   141
1040
150.0
1070
   147
1040
2.0
1070
   172
1070
     1
1070
   173
1070
     1
1070
   176
1070
     4
1070
   177
1070
     4
1070
   178
1070
     4
1070
   271
1070
     0
1070
   272
1070
     2
1070
   341
1005
6D
1070
     6
1000
OPEN
1070
     7
1000
OPEN
1002
}
  0
DIMENSION
  5
C91
330
1A
100
AcDbEntity
  8
SUNPOU
100
AcDbDimension
  2
*D12
 10
365.9308385984593
 20
330.2479206761031
 30
0.0
 11
255.9308385984594
 21
335.2479206761031
 31
0.0
 70
    32
  3
STANDARD
100
AcDbAlignedDimension
 13
145.9308385984595
 23
372.0225613063422
 33
0.0
 14
365.9308385984593
 24
372.0225613063422
 34
0.0
100
AcDbRotatedDimension
1001
ACAD
1000
DSTYLE
1002
{
1070
    41
1040
7.0
1070
    42
1040
6.0
1070
    43
1040
14.0
1070
    44
1040
3.0
1070
    73
1070
     0
1070
    74
1070
     0
1070
    77
1070
     3
1070
   140
1040
6.0
1070
   141
1040
150.0
1070
   147
1040
2.0
1070
   172
1070
     1
1070
   173
1070
     1
1070
   176
1070
     4
1070
   177
1070
     4
1070
   178
1070
     4
1070
   271
1070
     0
1070
   272
1070
     2
1070
   341
1005
6D
1070
     6
1000
OPEN
1070
     7
1000
OPEN
1002
}
  0
ARC
  5
D66
330
1A
100
AcDbEntity
  8
SEIHIN
  6
CONTINUOUS
 62
     3
100
AcDbCircle
 10
318.9601188379991
 20
146.7011025319051
 30
0.0
 40
90.99997900000001
100
AcDbArc
 50
183.2900189999994
 51
192.5372139999992
  0
ARC
  5
D67
330
1A
100
AcDbEntity
  8
SEIHIN
  6
CONTINUOUS
 62
     3
100
AcDbCircle
 10
318.9601188379991
 20
146.7011025319051
 30
0.0
 40
99.99998000000001
100
AcDbArc
 50
183.2900690000003
 51
191.3929150000006
  0
LINE
  5
D68
330
1A
100
AcDbEntity
  8
SEIHIN
  6
CONTINUOUS
 62
     3
100
AcDbLine
 10
217.780518837999
 20
164.3473025319051
 30
0.0
 11
219.1249188379991
 21
140.9619025319051
 31
0.0
  0
LINE
  5
D69
330
1A
100
AcDbEntity
  8
SEIHIN
  6
CONTINUOUS
 62
     3
100
AcDbLine
 10
228.1100188379991
 20
141.4785025319052
 30
0.0
 11
226.7954188379992
 21
164.3473025319051
 31
0.0
  0
ARC
  5
D6A
330
1A
100
AcDbEntity
  8
SEIHIN
  6
CONTINUOUS
 62
     3
100
AcDbCircle
 10
192.901018837999
 20
146.7012025319051
 30
0.0
 40
99.99994200000001
100
AcDbArc
 50
348.6067930000006
 51
356.7096989999996
  0
ARC
  5
D6B
330
1A
100
AcDbEntity
  8
SEIHIN
  6
CONTINUOUS
 62
     3
100
AcDbCircle
 10
192.901018837999
 20
146.7012025319051
 30
0.0
 40
91.00000899999999
100
AcDbArc
 50
347.4626629999994
 51
356.7097919999999
  0
LINE
  5
D6C
330
1A
100
AcDbEntity
  8
SEIHIN
  6
CONTINUOUS
 62
     3
100
AcDbLine
 10
283.7510188379992
 20
141.4784025319051
 30
0.0
 11
285.0657188379991
 21
164.3473025319051
 31
0.0
  0
LINE
  5
D6D
330
1A
100
AcDbEntity
  8
SEIHIN
  6
CONTINUOUS
 62
     3
100
AcDbLine
 10
294.080618837999
 20
164.3473025319051
 30
0.0
 11
292.7362188379991
 21
140.9619025319051
 31
0.0
  0
LINE
  5
D6E
330
1A
100
AcDbEntity
  8
SEIHIN
  6
CONTINUOUS
 62
     3
100
AcDbLine
 10
604.4780422919793
 20
164.3473025335338
 30
0.0
 11
603.1336422919793
 21
140.9619025335337
 31
0.0
  0
LINE
  5
D6F
330
1A
100
AcDbEntity
  8
SEIHIN
  6
CONTINUOUS
 62
     3
100
AcDbLine
 10
594.1484422919796
 20
141.4784025335337
 30
0.0
 11
595.4631422919795
 21
164.3473025335338
 31
0.0
  0
ARC
  5
D70
330
1A
100
AcDbEntity
  8
SEIHIN
  6
CONTINUOUS
 62
     3
100
AcDbCircle
 10
503.2984422919794
 20
146.7012025335337
 30
0.0
 40
91.00000899999999
100
AcDbArc
 50
347.4626629999994
 51
356.7097919999999
  0
ARC
  5
D71
330
1A
100
AcDbEntity
  8
SEIHIN
  6
CONTINUOUS
 62
     3
100
AcDbCircle
 10
503.2984422919794
 20
146.7012025335337
 30
0.0
 40
99.99994200000001
100
AcDbArc
 50
348.6067930000006
 51
356.7096989999996
  0
LINE
  5
D72
330
1A
100
AcDbEntity
  8
SEIHIN
  6
CONTINUOUS
 62
     3
100
AcDbLine
 10
538.5074422919794
 20
141.4785025335338
 30
0.0
 11
537.1928422919795
 21
164.3473025335338
 31
0.0
  0
LINE
  5
D73
330
1A
100
AcDbEntity
  8
SEIHIN
  6
CONTINUOUS
 62
     3
100
AcDbLine
 10
528.1779422919794
 20
164.3473025335338
 30
0.0
 11
529.5223422919794
 21
140.9619025335337
 31
0.0
  0
ARC
  5
D74
330
1A
100
AcDbEntity
  8
SEIHIN
  6
CONTINUOUS
 62
     3
100
AcDbCircle
 10
629.3575422919793
 20
146.7011025335337
 30
0.0
 40
99.99998000000001
100
AcDbArc
 50
183.2900690000003
 51
191.3929150000006
  0
ARC
  5
D75
330
1A
100
AcDbEntity
  8
SEIHIN
  6
CONTINUOUS
 62
     3
100
AcDbCircle
 10
629.3575422919793
 20
146.7011025335337
 30
0.0
 40
90.99997900000001
100
AcDbArc
 50
183.2900189999994
 51
192.5372139999992
  0
LINE
  5
E8C
330
1A
100
AcDbEntity
  8
ZUWAKU
100
AcDbLine
 10
208.6466009793416
 20
15.19999945063829
 30
0.0
 11
447.424363660265
 21
15.19999945063828
 31
0.0
  0
LINE
  5
E8D
330
1A
100
AcDbEntity
  8
ZUWAKU
100
AcDbLine
 10
208.6466009793416
 20
15.59999945063829
 30
0.0
 11
447.424363660265
 21
15.59999945063829
 31
0.0
  0
LINE
  5
E8E
330
1A
100
AcDbEntity
  8
ZUWAKU
100
AcDbLine
 10
208.6466009793416
 20
15.39999945063829
 30
0.0
 11
447.424363660265
 21
15.39999945063829
 31
0.0
  0
LINE
  5
E8F
330
1A
100
AcDbEntity
  8
ZUWAKU
100
AcDbLine
 10
-0.0000003107263638
 20
30.79999945063827
 30
0.0
 11
797.3999996892735
 21
30.79999945063827
 31
0.0
  0
LINE
  5
E90
330
1A
100
AcDbEntity
  8
ZUWAKU
100
AcDbLine
 10
-0.0000003107263638
 20
30.59999945063826
 30
0.0
 11
797.3999996892735
 21
30.59999945063826
 31
0.0
  0
LINE
  5
E91
330
1A
100
AcDbEntity
  8
ZUWAKU
100
AcDbLine
 10
-0.0000003107263638
 20
30.39999945063826
 30
0.0
 11
797.3999996892735
 21
30.39999945063826
 31
0.0
  0
LINE
  5
E92
330
1A
100
AcDbEntity
  8
ZUWAKU
100
AcDbLine
 10
-0.0000003107263638
 20
30.19999945063826
 30
0.0
 11
797.3999996892735
 21
30.19999945063826
 31
0.0
  0
LINE
  5
E93
330
1A
100
AcDbEntity
  8
ZUWAKU
100
AcDbLine
 10
-0.0000003107263638
 20
29.99999945063825
 30
0.0
 11
797.3999996892735
 21
29.99999945063825
 31
0.0
  0
LWPOLYLINE
  5
E94
330
1A
100
AcDbEntity
  8
ZUWAKU
100
AcDbPolyline
 90
        4
 70
     1
 43
0.0
 10
0.199999689273568
 20
551.3999994506384
 10
0.199999689273568
 20
0.1999994506383018
 10
797.3999996892735
 20
0.1999994506383249
 10
797.3999996892737
 20
551.3999994506384
  0
LWPOLYLINE
  5
E95
330
1A
100
AcDbEntity
  8
ZUWAKU
100
AcDbPolyline
 90
        4
 70
     1
 43
0.0
 10
0.5999996892735453
 20
550.9999994506383
 10
0.5999996892735453
 20
0.5999994506382791
 10
796.9999996892738
 20
0.5999994506383253
 10
796.9999996892736
 20
550.9999994506383
  0
LWPOLYLINE
  5
E96
330
1A
100
AcDbEntity
  8
ZUWAKU
100
AcDbPolyline
 90
        4
 70
     1
 43
0.0
 10
-0.0000003107263638
 20
551.5999994506382
 10
-0.0000003107263638
 20
-0.0000005493617437
 10
797.5999996892737
 20
-0.0000005493616761
 10
797.5999996892737
 20
551.5999994506383
  0
LWPOLYLINE
  5
E97
330
1A
100
AcDbEntity
  8
ZUWAKU
100
AcDbPolyline
 90
        4
 70
     1
 43
0.0
 10
0.3999996892736135
 20
551.1999994506383
 10
0.3999996892736135
 20
0.3999994506383473
 10
797.1999996892736
 20
0.3999994506383242
 10
797.1999996892736
 20
551.1999994506383
  0
LWPOLYLINE
  5
E98
330
1A
100
AcDbEntity
  8
ZUWAKU
100
AcDbPolyline
 90
        4
 70
     1
 43
0.0
 10
0.7999996892735908
 20
550.7999994506383
 10
0.7999996892735908
 20
0.7999994506383246
 10
796.7999996892736
 20
0.7999994506383246
 10
796.7999996892736
 20
550.7999994506383
  0
TEXT
  5
E99
330
1A
100
AcDbEntity
  8
MOJI
100
AcDbText
 10
92.95778927744278
 20
12.74117758091301
 30
0.0
 40
6.0
  1
新・丸トップＲＶ１０５
 41
0.9
  7
ｽﾀｲﾙ1
100
AcDbText
  0
HATCH
  5
E9A
330
1A
100
AcDbEntity
  8
ZUWAKU
100
AcDbHatch
 10
0.0
 20
0.0
 30
0.0
210
0.0
220
0.0
230
1.0
  2
ANSI37
 70
     0
 71
     0
 91
        8
 92
        7
 72
     1
 73
     1
 93
       24
 10
14.50226235039349
 20
17.64484793162184
 42
-0.1989123673796348
 10
14.09221184405476
 20
18.63479742528289
 42
0.0
 10
14.09221184405476
 20
19.92499945063826
 42
-0.4142135623730912
 10
14.61721184405473
 20
20.44999945063826
 42
0.0
 10
17.59221184405464
 20
20.44999945063826
 42
0.4142135623731546
 10
18.11721184405473
 20
20.97499945063824
 42
0.0
 10
18.11721184405473
 20
22.72499945063826
 42
0.4142135623731586
 10
17.59221184405464
 20
23.24999945063826
 42
0.0
 10
14.09221184405476
 20
23.24999945063826
 42
0.4142135623730928
 10
11.2922118440548
 20
20.44999945063828
 42
0.0
 10
11.2922118440548
 20
18.63479742528301
 42
0.1989123673796619
 10
12.52236336307123
 20
15.66494894429941
 42
0.0
 10
15.43216133771591
 20
12.75515096965475
 42
-0.1989123673796613
 10
15.84221184405476
 20
11.76520147599356
 42
0.0
 10
15.84221184405476
 20
10.47499945063825
 42
-0.4142135623730911
 10
15.31721184405478
 20
9.949999450638259
 42
0.0
 10
12.34221184405487
 20
9.949999450638259
 42
0.4142135623731526
 10
11.81721184405478
 20
9.424999450638271
 42
0.0
 10
11.81721184405478
 20
7.674999450638249
 42
0.4142135623731526
 10
12.34221184405487
 20
7.149999450638262
 42
0.0
 10
15.84221184405476
 20
7.149999450638262
 42
0.4142135623731044
 10
18.64221184405482
 20
9.949999450638237
 42
0.0
 10
18.64221184405482
 20
11.76520147599351
 42
0.1989123673796604
 10
17.41206032503828
 20
14.73504995697705
 42
0.0
 97
        0
 92
        7
 72
     1
 73
     1
 93
       16
 10
23.5422118440548
 20
19.04999945063826
 42
-0.4142135623730935
 10
24.94221184405478
 20
20.44999945063826
 42
0.0
 10
26.86721184405473
 20
20.44999945063826
 42
0.4142135623731546
 10
27.39221184405483
 20
20.97499945063824
 42
0.0
 10
27.39221184405483
 20
22.72499945063826
 42
0.4142135623730951
 10
26.86721184405485
 20
23.24999945063826
 42
0.0
 10
24.94221184405466
 20
23.24999945063822
 42
0.4142135623730892
 10
20.74221184405473
 20
19.04999945063819
 42
0.0
 10
20.74221184405473
 20
11.34999945063828
 42
0.4142135623730969
 10
24.94221184405478
 20
7.149999450638262
 42
0.0
 10
26.86721184405473
 20
7.149999450638262
 42
0.4142135623731526
 10
27.39221184405483
 20
7.674999450638249
 42
0.0
 10
27.39221184405483
 20
9.424999450638271
 42
0.4142135623730891
 10
26.86721184405485
 20
9.949999450638259
 42
0.0
 10
24.94221184405478
 20
9.949999450638259
 42
-0.4142135623730928
 10
23.5422118440548
 20
11.34999945063824
 42
0.0
 97
        0
 92
        7
 72
     1
 73
     1
 93
        2
 10
24.24221184405473
 20
15.19999945063825
 42
1.0
 10
27.74221184405473
 20
15.19999945063825
 42
1.0
 97
        0
 92
        7
 72
     1
 73
     1
 93
       26
 10
37.31485832623275
 20
19.20504664420168
 42
0.0
 10
38.37649795937057
 20
22.56690548247128
 42
0.5069206636600134
 10
37.87586706017521
 20
23.24999945063826
 42
0.0
 10
36.17697768056598
 20
23.24999945063826
 42
0.3272098845218764
 10
35.67634678137062
 20
22.88309341880523
 42
0.0
 10
33.80807690673885
 20
16.96690548247134
 42
-0.3272098845219541
 10
33.30744600754337
 20
16.59999945063825
 42
0.0
 10
33.16721184405492
 20
16.59999945063825
 42
-0.4142135623731526
 10
32.64221184405482
 20
17.12499945063824
 42
0.0
 10
32.64221184405482
 20
22.72499945063826
 42
0.4142135623730951
 10
32.11721184405485
 20
23.24999945063826
 42
0.0
 10
30.36721184405474
 20
23.24999945063826
 42
0.4142135623730871
 10
29.84221184405475
 20
22.72499945063827
 42
0.0
 10
29.84221184405475
 20
7.674999450638249
 42
0.4142135623730891
 10
30.36721184405474
 20
7.149999450638262
 42
0.0
 10
32.11721184405473
 20
7.149999450638262
 42
0.4142135623731526
 10
32.64221184405482
 20
7.674999450638249
 42
0.0
 10
32.64221184405482
 20
13.27499945063827
 42
-0.4142135623731526
 10
33.16721184405492
 20
13.79999945063826
 42
0.0
 10
33.30744600754349
 20
13.79999945063826
 42
-0.3272098845218915
 10
33.80807690673885
 20
13.43309341880518
 42
0.0
 10
35.67634678137062
 20
7.516905482471333
 42
0.3272098845218902
 10
36.17697768056598
 20
7.149999450638262
 42
0.0
 10
37.87586706017521
 20
7.149999450638262
 42
0.5069206636600335
 10
38.37649795937057
 20
7.833093418805269
 42
0.0
 10
36.05010658089691
 20
15.19999945063839
 42
0.0
 97
        0
 92
        7
 72
     1
 73
     1
 93
        8
 10
43.49221184405474
 20
22.72499945063827
 42
0.4142135623731546
 10
42.96721184405464
 20
23.24999945063826
 42
0.0
 10
41.21721184405487
 20
23.24999945063826
 42
0.4142135623731507
 10
40.69221184405478
 20
22.72499945063827
 42
0.0
 10
40.69221184405478
 20
7.674999450638249
 42
0.4142135623731526
 10
41.21721184405487
 20
7.149999450638262
 42
0.0
 10
42.96721184405464
 20
7.149999450638262
 42
0.4142135623731526
 10
43.49221184405474
 20
7.674999450638249
 42
0.0
 97
        0
 92
        7
 72
     1
 73
     1
 93
       24
 10
48.39221184405483
 20
19.92499945063826
 42
-0.4142135623731546
 10
48.91721184405492
 20
20.44999945063826
 42
0.0
 10
51.89221184405482
 20
20.44999945063826
 42
0.4142135623730911
 10
52.41721184405481
 20
20.97499945063824
 42
0.0
 10
52.41721184405481
 20
22.72499945063826
 42
0.4142135623730952
 10
51.89221184405482
 20
23.24999945063826
 42
0.0
 10
48.39221184405483
 20
23.24999945063826
 42
0.4142135623731048
 10
45.59221184405475
 20
20.44999945063828
 42
0.0
 10
45.59221184405475
 20
18.63479742528301
 42
0.1989123673796613
 10
46.8223633630713
 20
15.66494894429946
 42
0.0
 10
49.73216133771598
 20
12.7551509696548
 42
-0.1989123673796402
 10
50.14221184405482
 20
11.76520147599372
 42
0.0
 10
50.14221184405482
 20
10.47499945063825
 42
-0.4142135623730911
 10
49.61721184405485
 20
9.949999450638259
 42
0.0
 10
46.64221184405483
 20
9.949999450638259
 42
0.4142135623731526
 10
46.11721184405474
 20
9.424999450638271
 42
0.0
 10
46.11721184405474
 20
7.674999450638249
 42
0.4142135623730891
 10
46.64221184405471
 20
7.149999450638262
 42
0.0
 10
50.14221184405482
 20
7.149999450638262
 42
0.4142135623730925
 10
52.94221184405478
 20
9.949999450638237
 42
0.0
 10
52.94221184405478
 20
11.76520147599351
 42
0.1989123673796675
 10
51.71206032503824
 20
14.73504995697716
 42
0.0
 10
48.80226235039367
 20
17.64484793162168
 42
-0.1989123673796652
 10
48.39221184405483
 20
18.63479742528284
 42
0.0
 97
        0
 92
        7
 72
     1
 73
     1
 93
       16
 10
57.84221184405476
 20
22.72499945063825
 42
0.414213562373103
 10
57.31721184405478
 20
23.24999945063826
 42
0.0
 10
55.56721184405478
 20
23.24999945063826
 42
0.4142135623730871
 10
55.0422118440548
 20
22.72499945063827
 42
0.0
 10
55.0422118440548
 20
9.949999450638237
 42
0.4142135623730926
 10
57.84221184405476
 20
7.149999450638262
 42
0.0
 10
61.34221184405475
 20
7.149999450638262
 42
0.4142135623731044
 10
64.14221184405483
 20
9.949999450638237
 42
0.0
 10
64.14221184405483
 20
22.72499945063826
 42
0.4142135623730951
 10
63.61721184405485
 20
23.24999945063826
 42
0.0
 10
61.86721184405474
 20
23.24999945063826
 42
0.4142135623730871
 10
61.34221184405475
 20
22.72499945063827
 42
0.0
 10
61.34221184405475
 20
10.99999945063823
 42
-0.414213562373088
 10
60.2922118440548
 20
9.949999450638259
 42
0.0
 10
58.89221184405482
 20
9.949999450638259
 42
-0.4142135623731197
 10
57.84221184405476
 20
10.99999945063823
 42
0.0
 97
        0
 92
        7
 72
     1
 73
     1
 93
        8
 10
69.0422118440548
 20
22.72499945063827
 42
0.4142135623730871
 10
68.51721184405483
 20
23.24999945063826
 42
0.0
 10
66.76721184405483
 20
23.24999945063826
 42
0.4142135623731507
 10
66.24221184405474
 20
22.72499945063827
 42
0.0
 10
66.24221184405474
 20
7.674999450638249
 42
0.4142135623730891
 10
66.76721184405471
 20
7.149999450638262
 42
0.0
 10
68.51721184405483
 20
7.149999450638262
 42
0.4142135623730891
 10
69.0422118440548
 20
7.674999450638249
 42
0.0
 97
        0
 75
     0
 76
     1
 52
0.0
 41
0.2
 77
     0
 78
     2
 53
45.0
 43
-900.9423046454053
 44
-13.20000054936167
 45
-0.4490128060534576
 46
0.4490128060534577
 79
     0
 53
135.0
 43
-900.9423046454053
 44
-13.20000054936167
 45
-0.4490128060534577
 46
-0.4490128060534576
 79
     0
 47
0.057451373970553
 98
        8
 10
16.07985465229694
 20
15.16717309652381
 10
22.4045146957128
 20
18.84406163308926
 10
25.16436757493329
 20
15.51188109670897
 10
30.91405967091077
 20
16.20129709707976
 10
41.83847170823037
 20
16.66090936462137
 10
46.89820058440318
 20
19.41857576704546
 10
56.55768566167399
 20
18.72915736573327
 10
67.82707930889637
 20
19.18876963327488
  0
LINE
  5
E9B
330
1A
100
AcDbEntity
  8
ZUWAKU
100
AcDbLine
 10
24.94221184405478
 20
23.24999945063822
 30
0.0
 11
26.86721184405473
 21
23.24999945063826
 31
0.0
  0
LINE
  5
E9C
330
1A
100
AcDbEntity
  8
ZUWAKU
100
AcDbLine
 10
26.86721184405473
 20
20.44999945063826
 30
0.0
 11
24.94221184405478
 21
20.44999945063826
 31
0.0
  0
LINE
  5
E9D
330
1A
100
AcDbEntity
  8
ZUWAKU
100
AcDbLine
 10
24.94221184405478
 20
9.949999450638259
 30
0.0
 11
26.86721184405473
 21
9.949999450638259
 31
0.0
  0
LINE
  5
E9E
330
1A
100
AcDbEntity
  8
ZUWAKU
100
AcDbLine
 10
26.86721184405473
 20
7.149999450638262
 30
0.0
 11
24.94221184405478
 21
7.149999450638262
 31
0.0
  0
CIRCLE
  5
E9F
330
1A
100
AcDbEntity
  8
ZUWAKU
100
AcDbCircle
 10
25.99221184405474
 20
15.19999945063825
 30
0.0
 40
1.75
  0
ARC
  5
EA0
330
1A
100
AcDbEntity
  8
ZUWAKU
100
AcDbCircle
 10
15.49221184405473
 20
18.63479742528296
 30
0.0
 40
1.399999999999999
100
AcDbArc
 50
180.0000000000016
 51
224.9999999999988
  0
LINE
  5
EA1
330
1A
100
AcDbEntity
  8
ZUWAKU
100
AcDbLine
 10
23.5422118440548
 20
19.04999945063826
 30
0.0
 11
23.5422118440548
 21
11.34999945063826
 31
0.0
  0
LINE
  5
EA2
330
1A
100
AcDbEntity
  8
ZUWAKU
100
AcDbLine
 10
20.74221184405473
 20
11.34999945063826
 30
0.0
 11
20.74221184405473
 21
19.04999945063821
 31
0.0
  0
ARC
  5
EA3
330
1A
100
AcDbEntity
  8
ZUWAKU
100
AcDbCircle
 10
15.49221184405473
 20
18.63479742528296
 30
0.0
 40
4.199999999999999
100
AcDbArc
 50
180.0
 51
225.0
  0
ARC
  5
EA4
330
1A
100
AcDbEntity
  8
ZUWAKU
100
AcDbCircle
 10
15.84221184405476
 20
9.949999450638259
 30
0.0
 40
2.799999999999999
100
AcDbArc
 50
270.0
 51
0.0
  0
ARC
  5
EA5
330
1A
100
AcDbEntity
  8
ZUWAKU
100
AcDbCircle
 10
24.94221184405478
 20
11.34999945063826
 30
0.0
 40
4.199999999999999
100
AcDbArc
 50
180.0
 51
270.0
  0
ARC
  5
EA6
330
1A
100
AcDbEntity
  8
ZUWAKU
100
AcDbCircle
 10
14.44221184405478
 20
11.76520147599356
 30
0.0
 40
4.199999999999999
100
AcDbArc
 50
0.0
 51
45.0
  0
LINE
  5
EA7
330
1A
100
AcDbEntity
  8
ZUWAKU
100
AcDbLine
 10
17.41206032503828
 20
14.73504995697708
 30
0.0
 11
14.5022623503936
 21
17.64484793162176
 31
0.0
  0
LINE
  5
EA8
330
1A
100
AcDbEntity
  8
ZUWAKU
100
AcDbLine
 10
15.84221184405476
 20
10.47499945063826
 30
0.0
 11
15.84221184405476
 21
11.7652014759936
 31
0.0
  0
ARC
  5
EA9
330
1A
100
AcDbEntity
  8
ZUWAKU
100
AcDbCircle
 10
15.31721184405478
 20
10.47499945063826
 30
0.0
 40
0.525
100
AcDbArc
 50
270.0
 51
0.0
  0
ARC
  5
EAA
330
1A
100
AcDbEntity
  8
ZUWAKU
100
AcDbCircle
 10
14.44221184405478
 20
11.7652014759936
 30
0.0
 40
1.399999999999999
100
AcDbArc
 50
0.0
 51
45.0
  0
LINE
  5
EAB
330
1A
100
AcDbEntity
  8
ZUWAKU
100
AcDbLine
 10
11.81721184405478
 20
7.67499945063826
 30
0.0
 11
11.81721184405478
 21
9.42499945063826
 31
0.0
  0
ARC
  5
EAC
330
1A
100
AcDbEntity
  8
ZUWAKU
100
AcDbCircle
 10
12.34221184405476
 20
7.67499945063826
 30
0.0
 40
0.525
100
AcDbArc
 50
180.0
 51
270.0
  0
ARC
  5
EAD
330
1A
100
AcDbEntity
  8
ZUWAKU
100
AcDbCircle
 10
12.34221184405476
 20
9.42499945063826
 30
0.0
 40
0.525
100
AcDbArc
 50
90.0
 51
180.0
  0
LINE
  5
EAE
330
1A
100
AcDbEntity
  8
ZUWAKU
100
AcDbLine
 10
12.34221184405476
 20
7.149999450638262
 30
0.0
 11
15.84221184405476
 21
7.149999450638262
 31
0.0
  0
LINE
  5
EAF
330
1A
100
AcDbEntity
  8
ZUWAKU
100
AcDbLine
 10
12.34221184405476
 20
9.949999450638259
 30
0.0
 11
15.31721184405478
 21
9.949999450638259
 31
0.0
  0
LINE
  5
EB0
330
1A
100
AcDbEntity
  8
ZUWAKU
100
AcDbLine
 10
12.52236336307123
 20
15.66494894429943
 30
0.0
 11
15.43216133771591
 21
12.75515096965477
 31
0.0
  0
LINE
  5
EB1
330
1A
100
AcDbEntity
  8
ZUWAKU
100
AcDbLine
 10
18.64221184405482
 20
9.949999450638259
 30
0.0
 11
18.64221184405482
 21
11.7652014759936
 31
0.0
  0
ARC
  5
EB2
330
1A
100
AcDbEntity
  8
ZUWAKU
100
AcDbCircle
 10
24.94221184405478
 20
11.34999945063826
 30
0.0
 40
1.399999999999999
100
AcDbArc
 50
180.0
 51
270.0
  0
ARC
  5
EB3
330
1A
100
AcDbEntity
  8
ZUWAKU
100
AcDbCircle
 10
17.59221184405475
 20
22.72499945063825
 30
0.0
 40
0.525
100
AcDbArc
 50
0.0
 51
90.0
  0
ARC
  5
EB4
330
1A
100
AcDbEntity
  8
ZUWAKU
100
AcDbCircle
 10
17.59221184405475
 20
20.97499945063825
 30
0.0
 40
0.525
100
AcDbArc
 50
270.0
 51
0.0
  0
LINE
  5
EB5
330
1A
100
AcDbEntity
  8
ZUWAKU
100
AcDbLine
 10
14.09221184405476
 20
23.24999945063826
 30
0.0
 11
17.59221184405475
 21
23.24999945063826
 31
0.0
  0
ARC
  5
EB6
330
1A
100
AcDbEntity
  8
ZUWAKU
100
AcDbCircle
 10
14.61721184405473
 20
19.92499945063826
 30
0.0
 40
0.525
100
AcDbArc
 50
90.0
 51
180.0
  0
LINE
  5
EB7
330
1A
100
AcDbEntity
  8
ZUWAKU
100
AcDbLine
 10
14.09221184405476
 20
19.92499945063826
 30
0.0
 11
14.09221184405476
 21
18.63479742528292
 31
0.0
  0
LINE
  5
EB8
330
1A
100
AcDbEntity
  8
ZUWAKU
100
AcDbLine
 10
17.59221184405475
 20
20.44999945063826
 30
0.0
 11
14.61721184405473
 21
20.44999945063826
 31
0.0
  0
LINE
  5
EB9
330
1A
100
AcDbEntity
  8
ZUWAKU
100
AcDbLine
 10
11.2922118440548
 20
20.44999945063826
 30
0.0
 11
11.2922118440548
 21
18.63479742528292
 31
0.0
  0
ARC
  5
EBA
330
1A
100
AcDbEntity
  8
ZUWAKU
100
AcDbCircle
 10
14.09221184405476
 20
20.44999945063826
 30
0.0
 40
2.799999999999999
100
AcDbArc
 50
90.0
 51
180.0
  0
LINE
  5
EBB
330
1A
100
AcDbEntity
  8
ZUWAKU
100
AcDbLine
 10
18.11721184405473
 20
22.72499945063825
 30
0.0
 11
18.11721184405473
 21
20.97499945063825
 31
0.0
  0
ARC
  5
EBC
330
1A
100
AcDbEntity
  8
ZUWAKU
100
AcDbCircle
 10
24.94221184405478
 20
19.04999945063826
 30
0.0
 40
1.399999999999999
100
AcDbArc
 50
90.0
 51
180.0
  0
ARC
  5
EBD
330
1A
100
AcDbEntity
  8
ZUWAKU
100
AcDbCircle
 10
24.94221184405478
 20
19.04999945063821
 30
0.0
 40
4.199999999999999
100
AcDbArc
 50
90.0
 51
180.0
  0
LINE
  5
EBE
330
1A
100
AcDbEntity
  8
ZUWAKU
100
AcDbLine
 10
79.32662923726184
 20
29.99999945063825
 30
0.0
 11
79.32662923726207
 21
0.7999994506383246
 31
0.0
  0
LINE
  5
EBF
330
1A
100
AcDbEntity
  8
ZUWAKU
100
AcDbLine
 10
79.52662923726188
 20
29.99999945063825
 30
0.0
 11
79.52662923726212
 21
0.7999994506383246
 31
0.0
  0
LINE
  5
EC0
330
1A
100
AcDbEntity
  8
ZUWAKU
100
AcDbLine
 10
79.12662923726202
 20
29.99999945063825
 30
0.0
 11
79.12662923726202
 21
0.7999994506383246
 31
0.0
  0
LINE
  5
EC1
330
1A
100
AcDbEntity
  8
ZUWAKU
100
AcDbLine
 10
64.14221184405483
 20
9.949999450638259
 30
0.0
 11
64.14221184405483
 21
22.72499945063825
 31
0.0
  0
LINE
  5
EC2
330
1A
100
AcDbEntity
  8
ZUWAKU
100
AcDbLine
 10
61.34221184405475
 20
22.72499945063825
 30
0.0
 11
61.34221184405475
 21
10.99999945063825
 31
0.0
  0
LINE
  5
EC3
330
1A
100
AcDbEntity
  8
ZUWAKU
100
AcDbLine
 10
69.0422118440548
 20
7.67499945063826
 30
0.0
 11
69.0422118440548
 21
22.72499945063825
 31
0.0
  0
LINE
  5
EC4
330
1A
100
AcDbEntity
  8
ZUWAKU
100
AcDbLine
 10
66.24221184405474
 20
22.72499945063825
 30
0.0
 11
66.24221184405474
 21
7.67499945063826
 31
0.0
  0
ARC
  5
EC5
330
1A
100
AcDbEntity
  8
ZUWAKU
100
AcDbCircle
 10
49.79221184405481
 20
18.63479742528296
 30
0.0
 40
1.399999999999999
100
AcDbArc
 50
180.0000000000016
 51
224.9999999999988
  0
ARC
  5
EC6
330
1A
100
AcDbEntity
  8
ZUWAKU
100
AcDbCircle
 10
49.79221184405481
 20
18.63479742528296
 30
0.0
 40
4.199999999999999
100
AcDbArc
 50
180.0
 51
225.0
  0
LINE
  5
EC7
330
1A
100
AcDbEntity
  8
ZUWAKU
100
AcDbLine
 10
37.31485832623275
 20
19.20504664420168
 30
0.0
 11
36.05010658089691
 21
15.19999945063828
 31
0.0
  0
LINE
  5
EC8
330
1A
100
AcDbEntity
  8
ZUWAKU
100
AcDbLine
 10
40.69221184405478
 20
22.72499945063825
 30
0.0
 11
40.69221184405478
 21
7.67499945063826
 31
0.0
  0
LINE
  5
EC9
330
1A
100
AcDbEntity
  8
ZUWAKU
100
AcDbLine
 10
43.49221184405474
 20
7.67499945063826
 30
0.0
 11
43.49221184405474
 21
22.72499945063825
 31
0.0
  0
LINE
  5
ECA
330
1A
100
AcDbEntity
  8
ZUWAKU
100
AcDbLine
 10
55.0422118440548
 20
22.72499945063825
 30
0.0
 11
55.0422118440548
 21
9.949999450638259
 31
0.0
  0
LINE
  5
ECB
330
1A
100
AcDbEntity
  8
ZUWAKU
100
AcDbLine
 10
57.84221184405476
 20
10.99999945063825
 30
0.0
 11
57.84221184405476
 21
22.72499945063825
 31
0.0
  0
LINE
  5
ECC
330
1A
100
AcDbEntity
  8
ZUWAKU
100
AcDbLine
 10
32.64221184405482
 20
17.12499945063826
 30
0.0
 11
32.64221184405482
 21
22.72499945063825
 31
0.0
  0
LINE
  5
ECD
330
1A
100
AcDbEntity
  8
ZUWAKU
100
AcDbLine
 10
29.84221184405475
 20
22.72499945063825
 30
0.0
 11
29.84221184405475
 21
7.67499945063826
 31
0.0
  0
LINE
  5
ECE
330
1A
100
AcDbEntity
  8
ZUWAKU
100
AcDbLine
 10
35.67634678137062
 20
22.88309341880523
 30
0.0
 11
33.80807690673885
 21
16.96690548247129
 31
0.0
  0
LINE
  5
ECF
330
1A
100
AcDbEntity
  8
ZUWAKU
100
AcDbLine
 10
60.2922118440548
 20
9.949999450638259
 30
0.0
 11
58.89221184405482
 21
9.949999450638259
 31
0.0
  0
LINE
  5
ED0
330
1A
100
AcDbEntity
  8
ZUWAKU
100
AcDbLine
 10
57.84221184405476
 20
7.149999450638262
 30
0.0
 11
61.34221184405475
 21
7.149999450638262
 31
0.0
  0
LINE
  5
ED1
330
1A
100
AcDbEntity
  8
ZUWAKU
100
AcDbLine
 10
41.21721184405475
 20
7.149999450638262
 30
0.0
 11
42.96721184405476
 21
7.149999450638262
 31
0.0
  0
LINE
  5
ED2
330
1A
100
AcDbEntity
  8
ZUWAKU
100
AcDbLine
 10
35.67634678137062
 20
7.516905482471287
 30
0.0
 11
33.80807690673885
 21
13.43309341880522
 31
0.0
  0
ARC
  5
ED3
330
1A
100
AcDbEntity
  8
ZUWAKU
100
AcDbCircle
 10
33.30744600754349
 20
17.12499945063826
 30
0.0
 40
0.525
100
AcDbArc
 50
270.0
 51
342.4744316262769
  0
LINE
  5
ED4
330
1A
100
AcDbEntity
  8
ZUWAKU
100
AcDbLine
 10
33.30744600754349
 20
16.59999945063825
 30
0.0
 11
33.1672118440548
 21
16.59999945063825
 31
0.0
  0
LINE
  5
ED5
330
1A
100
AcDbEntity
  8
ZUWAKU
100
AcDbLine
 10
33.1672118440548
 20
13.79999945063826
 30
0.0
 11
33.30744600754349
 21
13.79999945063826
 31
0.0
  0
ARC
  5
ED6
330
1A
100
AcDbEntity
  8
ZUWAKU
100
AcDbCircle
 10
33.1672118440548
 20
17.12499945063826
 30
0.0
 40
0.525
100
AcDbArc
 50
180.0
 51
270.0
  0
LINE
  5
ED7
330
1A
100
AcDbEntity
  8
ZUWAKU
100
AcDbLine
 10
30.36721184405474
 20
7.149999450638262
 30
0.0
 11
32.11721184405473
 21
7.149999450638262
 31
0.0
  0
ARC
  5
ED8
330
1A
100
AcDbEntity
  8
ZUWAKU
100
AcDbCircle
 10
32.11721184405473
 20
7.67499945063826
 30
0.0
 40
0.525
100
AcDbArc
 50
270.0
 51
0.0
  0
LINE
  5
ED9
330
1A
100
AcDbEntity
  8
ZUWAKU
100
AcDbLine
 10
32.64221184405482
 20
7.67499945063826
 30
0.0
 11
32.64221184405482
 21
13.27499945063826
 31
0.0
  0
LINE
  5
EDA
330
1A
100
AcDbEntity
  8
ZUWAKU
100
AcDbLine
 10
27.39221184405483
 20
9.42499945063826
 30
0.0
 11
27.39221184405483
 21
7.67499945063826
 31
0.0
  0
ARC
  5
EDB
330
1A
100
AcDbEntity
  8
ZUWAKU
100
AcDbCircle
 10
26.86721184405473
 20
7.67499945063826
 30
0.0
 40
0.525
100
AcDbArc
 50
270.0
 51
0.0
  0
ARC
  5
EDC
330
1A
100
AcDbEntity
  8
ZUWAKU
100
AcDbCircle
 10
26.86721184405473
 20
9.42499945063826
 30
0.0
 40
0.525
100
AcDbArc
 50
0.0
 51
90.0
  0
ARC
  5
EDD
330
1A
100
AcDbEntity
  8
ZUWAKU
100
AcDbCircle
 10
30.36721184405474
 20
7.67499945063826
 30
0.0
 40
0.525
100
AcDbArc
 50
180.0
 51
270.0
  0
ARC
  5
EDE
330
1A
100
AcDbEntity
  8
ZUWAKU
100
AcDbCircle
 10
33.30744600754349
 20
13.27499945063826
 30
0.0
 40
0.525
100
AcDbArc
 50
17.52556837372303
 51
90.0
  0
ARC
  5
EDF
330
1A
100
AcDbEntity
  8
ZUWAKU
100
AcDbCircle
 10
33.1672118440548
 20
13.27499945063826
 30
0.0
 40
0.525
100
AcDbArc
 50
90.0
 51
180.0
  0
ARC
  5
EE0
330
1A
100
AcDbEntity
  8
ZUWAKU
100
AcDbCircle
 10
41.21721184405475
 20
7.67499945063826
 30
0.0
 40
0.525
100
AcDbArc
 50
180.0
 51
270.0
  0
LINE
  5
EE1
330
1A
100
AcDbEntity
  8
ZUWAKU
100
AcDbLine
 10
36.1769776805661
 20
7.149999450638262
 30
0.0
 11
37.87586706017509
 21
7.149999450638262
 31
0.0
  0
ARC
  5
EE2
330
1A
100
AcDbEntity
  8
ZUWAKU
100
AcDbCircle
 10
37.87586706017509
 20
7.67499945063826
 30
0.0
 40
0.525
100
AcDbArc
 50
270.0
 51
17.52556837372303
  0
LINE
  5
EE3
330
1A
100
AcDbEntity
  8
ZUWAKU
100
AcDbLine
 10
38.37649795937057
 20
7.833093418805233
 30
0.0
 11
36.05010658089691
 21
15.19999945063828
 31
0.0
  0
ARC
  5
EE4
330
1A
100
AcDbEntity
  8
ZUWAKU
100
AcDbCircle
 10
36.1769776805661
 20
7.67499945063826
 30
0.0
 40
0.525
100
AcDbArc
 50
197.525568373723
 51
270.0
  0
ARC
  5
EE5
330
1A
100
AcDbEntity
  8
ZUWAKU
100
AcDbCircle
 10
57.84221184405476
 20
9.949999450638259
 30
0.0
 40
2.799999999999999
100
AcDbArc
 50
180.0
 51
270.0
  0
ARC
  5
EE6
330
1A
100
AcDbEntity
  8
ZUWAKU
100
AcDbCircle
 10
50.14221184405482
 20
9.949999450638259
 30
0.0
 40
2.799999999999999
100
AcDbArc
 50
270.0
 51
0.0
  0
LINE
  5
EE7
330
1A
100
AcDbEntity
  8
ZUWAKU
100
AcDbLine
 10
51.71206032503835
 20
14.73504995697708
 30
0.0
 11
48.80226235039356
 21
17.64484793162176
 31
0.0
  0
LINE
  5
EE8
330
1A
100
AcDbEntity
  8
ZUWAKU
100
AcDbLine
 10
50.14221184405482
 20
10.47499945063826
 30
0.0
 11
50.14221184405482
 21
11.7652014759936
 31
0.0
  0
ARC
  5
EE9
330
1A
100
AcDbEntity
  8
ZUWAKU
100
AcDbCircle
 10
48.74221184405474
 20
11.7652014759936
 30
0.0
 40
1.399999999999999
100
AcDbArc
 50
0.0
 51
45.0
  0
ARC
  5
EEA
330
1A
100
AcDbEntity
  8
ZUWAKU
100
AcDbCircle
 10
49.61721184405473
 20
10.47499945063826
 30
0.0
 40
0.525
100
AcDbArc
 50
270.0
 51
0.0
  0
LINE
  5
EEB
330
1A
100
AcDbEntity
  8
ZUWAKU
100
AcDbLine
 10
46.11721184405474
 20
7.67499945063826
 30
0.0
 11
46.11721184405474
 21
9.42499945063826
 31
0.0
  0
ARC
  5
EEC
330
1A
100
AcDbEntity
  8
ZUWAKU
100
AcDbCircle
 10
46.64221184405483
 20
7.67499945063826
 30
0.0
 40
0.525
100
AcDbArc
 50
180.0
 51
270.0
  0
ARC
  5
EED
330
1A
100
AcDbEntity
  8
ZUWAKU
100
AcDbCircle
 10
42.96721184405476
 20
7.67499945063826
 30
0.0
 40
0.525
100
AcDbArc
 50
270.0
 51
0.0
  0
ARC
  5
EEE
330
1A
100
AcDbEntity
  8
ZUWAKU
100
AcDbCircle
 10
46.64221184405483
 20
9.42499945063826
 30
0.0
 40
0.525
100
AcDbArc
 50
90.0
 51
180.0
  0
LINE
  5
EEF
330
1A
100
AcDbEntity
  8
ZUWAKU
100
AcDbLine
 10
46.64221184405483
 20
9.949999450638259
 30
0.0
 11
49.61721184405473
 21
9.949999450638259
 31
0.0
  0
LINE
  5
EF0
330
1A
100
AcDbEntity
  8
ZUWAKU
100
AcDbLine
 10
46.64221184405483
 20
7.149999450638262
 30
0.0
 11
50.14221184405482
 21
7.149999450638262
 31
0.0
  0
LINE
  5
EF1
330
1A
100
AcDbEntity
  8
ZUWAKU
100
AcDbLine
 10
46.8223633630713
 20
15.66494894429943
 30
0.0
 11
49.73216133771598
 21
12.75515096965477
 31
0.0
  0
LINE
  5
EF2
330
1A
100
AcDbEntity
  8
ZUWAKU
100
AcDbLine
 10
52.94221184405478
 20
9.949999450638259
 30
0.0
 11
52.94221184405478
 21
11.7652014759936
 31
0.0
  0
ARC
  5
EF3
330
1A
100
AcDbEntity
  8
ZUWAKU
100
AcDbCircle
 10
48.74221184405474
 20
11.76520147599356
 30
0.0
 40
4.199999999999999
100
AcDbArc
 50
0.0
 51
45.0
  0
ARC
  5
EF4
330
1A
100
AcDbEntity
  8
ZUWAKU
100
AcDbCircle
 10
58.89221184405482
 20
10.99999945063825
 30
0.0
 40
1.049999999999999
100
AcDbArc
 50
180.0
 51
270.0
  0
ARC
  5
EF5
330
1A
100
AcDbEntity
  8
ZUWAKU
100
AcDbCircle
 10
61.34221184405475
 20
9.949999450638259
 30
0.0
 40
2.799999999999999
100
AcDbArc
 50
270.0
 51
0.0
  0
LINE
  5
EF6
330
1A
100
AcDbEntity
  8
ZUWAKU
100
AcDbLine
 10
66.76721184405483
 20
7.149999450638262
 30
0.0
 11
68.51721184405483
 21
7.149999450638262
 31
0.0
  0
ARC
  5
EF7
330
1A
100
AcDbEntity
  8
ZUWAKU
100
AcDbCircle
 10
66.76721184405483
 20
7.67499945063826
 30
0.0
 40
0.525
100
AcDbArc
 50
180.0
 51
270.0
  0
ARC
  5
EF8
330
1A
100
AcDbEntity
  8
ZUWAKU
100
AcDbCircle
 10
60.2922118440548
 20
10.99999945063825
 30
0.0
 40
1.049999999999999
100
AcDbArc
 50
270.0
 51
0.0
  0
ARC
  5
EF9
330
1A
100
AcDbEntity
  8
ZUWAKU
100
AcDbCircle
 10
68.51721184405483
 20
7.67499945063826
 30
0.0
 40
0.525
100
AcDbArc
 50
270.0
 51
0.0
  0
LINE
  5
EFA
330
1A
100
AcDbEntity
  8
ZUWAKU
100
AcDbLine
 10
42.96721184405476
 20
23.24999945063826
 30
0.0
 11
41.21721184405475
 21
23.24999945063826
 31
0.0
  0
ARC
  5
EFB
330
1A
100
AcDbEntity
  8
ZUWAKU
100
AcDbCircle
 10
32.11721184405473
 20
22.72499945063825
 30
0.0
 40
0.525
100
AcDbArc
 50
0.0
 51
90.0
  0
LINE
  5
EFC
330
1A
100
AcDbEntity
  8
ZUWAKU
100
AcDbLine
 10
32.11721184405473
 20
23.24999945063826
 30
0.0
 11
30.36721184405474
 21
23.24999945063826
 31
0.0
  0
ARC
  5
EFD
330
1A
100
AcDbEntity
  8
ZUWAKU
100
AcDbCircle
 10
26.86721184405473
 20
22.72499945063825
 30
0.0
 40
0.525
100
AcDbArc
 50
0.0
 51
90.0
  0
ARC
  5
EFE
330
1A
100
AcDbEntity
  8
ZUWAKU
100
AcDbCircle
 10
30.36721184405474
 20
22.72499945063825
 30
0.0
 40
0.525
100
AcDbArc
 50
90.0
 51
180.0
  0
ARC
  5
EFF
330
1A
100
AcDbEntity
  8
ZUWAKU
100
AcDbCircle
 10
26.86721184405473
 20
20.97499945063825
 30
0.0
 40
0.525
100
AcDbArc
 50
270.0
 51
0.0
  0
LINE
  5
F00
330
1A
100
AcDbEntity
  8
ZUWAKU
100
AcDbLine
 10
27.39221184405483
 20
22.72499945063825
 30
0.0
 11
27.39221184405483
 21
20.97499945063825
 31
0.0
  0
ARC
  5
F01
330
1A
100
AcDbEntity
  8
ZUWAKU
100
AcDbCircle
 10
41.21721184405475
 20
22.72499945063825
 30
0.0
 40
0.525
100
AcDbArc
 50
90.0
 51
180.0
  0
LINE
  5
F02
330
1A
100
AcDbEntity
  8
ZUWAKU
100
AcDbLine
 10
36.1769776805661
 20
23.24999945063826
 30
0.0
 11
37.87586706017509
 21
23.24999945063826
 31
0.0
  0
ARC
  5
F03
330
1A
100
AcDbEntity
  8
ZUWAKU
100
AcDbCircle
 10
37.87586706017509
 20
22.72499945063825
 30
0.0
 40
0.525
100
AcDbArc
 50
342.4744316262769
 51
90.0
  0
LINE
  5
F04
330
1A
100
AcDbEntity
  8
ZUWAKU
100
AcDbLine
 10
38.37649795937057
 20
22.56690548247129
 30
0.0
 11
37.31485832623275
 21
19.20504664420168
 31
0.0
  0
ARC
  5
F05
330
1A
100
AcDbEntity
  8
ZUWAKU
100
AcDbCircle
 10
36.1769776805661
 20
22.72499945063825
 30
0.0
 40
0.525
100
AcDbArc
 50
90.0
 51
162.4744316262769
  0
LINE
  5
F06
330
1A
100
AcDbEntity
  8
ZUWAKU
100
AcDbLine
 10
48.39221184405483
 20
23.24999945063826
 30
0.0
 11
51.89221184405482
 21
23.24999945063826
 31
0.0
  0
LINE
  5
F07
330
1A
100
AcDbEntity
  8
ZUWAKU
100
AcDbLine
 10
51.89221184405482
 20
20.44999945063826
 30
0.0
 11
48.9172118440548
 21
20.44999945063826
 31
0.0
  0
ARC
  5
F08
330
1A
100
AcDbEntity
  8
ZUWAKU
100
AcDbCircle
 10
48.9172118440548
 20
19.92499945063826
 30
0.0
 40
0.525
100
AcDbArc
 50
90.0
 51
180.0
  0
LINE
  5
F09
330
1A
100
AcDbEntity
  8
ZUWAKU
100
AcDbLine
 10
48.39221184405483
 20
19.92499945063826
 30
0.0
 11
48.39221184405483
 21
18.63479742528292
 31
0.0
  0
ARC
  5
F0A
330
1A
100
AcDbEntity
  8
ZUWAKU
100
AcDbCircle
 10
42.96721184405476
 20
22.72499945063825
 30
0.0
 40
0.525
100
AcDbArc
 50
0.0
 51
90.0
  0
LINE
  5
F0B
330
1A
100
AcDbEntity
  8
ZUWAKU
100
AcDbLine
 10
45.59221184405475
 20
20.44999945063826
 30
0.0
 11
45.59221184405475
 21
18.63479742528292
 31
0.0
  0
ARC
  5
F0C
330
1A
100
AcDbEntity
  8
ZUWAKU
100
AcDbCircle
 10
48.39221184405483
 20
20.44999945063826
 30
0.0
 40
2.799999999999999
100
AcDbArc
 50
90.0
 51
180.0
  0
ARC
  5
F0D
330
1A
100
AcDbEntity
  8
ZUWAKU
100
AcDbCircle
 10
57.31721184405478
 20
22.72499945063825
 30
0.0
 40
0.525
100
AcDbArc
 50
0.0
 51
90.0
  0
ARC
  5
F0E
330
1A
100
AcDbEntity
  8
ZUWAKU
100
AcDbCircle
 10
55.56721184405478
 20
22.72499945063825
 30
0.0
 40
0.525
100
AcDbArc
 50
90.0
 51
180.0
  0
LINE
  5
F0F
330
1A
100
AcDbEntity
  8
ZUWAKU
100
AcDbLine
 10
57.31721184405478
 20
23.24999945063826
 30
0.0
 11
55.56721184405478
 21
23.24999945063826
 31
0.0
  0
ARC
  5
F10
330
1A
100
AcDbEntity
  8
ZUWAKU
100
AcDbCircle
 10
51.89221184405482
 20
22.72499945063825
 30
0.0
 40
0.525
100
AcDbArc
 50
0.0
 51
90.0
  0
ARC
  5
F11
330
1A
100
AcDbEntity
  8
ZUWAKU
100
AcDbCircle
 10
51.89221184405482
 20
20.97499945063825
 30
0.0
 40
0.525
100
AcDbArc
 50
270.0
 51
0.0
  0
LINE
  5
F12
330
1A
100
AcDbEntity
  8
ZUWAKU
100
AcDbLine
 10
52.41721184405481
 20
22.72499945063825
 30
0.0
 11
52.41721184405481
 21
20.97499945063825
 31
0.0
  0
LINE
  5
F13
330
1A
100
AcDbEntity
  8
ZUWAKU
100
AcDbLine
 10
68.51721184405483
 20
23.24999945063826
 30
0.0
 11
66.76721184405483
 21
23.24999945063826
 31
0.0
  0
ARC
  5
F14
330
1A
100
AcDbEntity
  8
ZUWAKU
100
AcDbCircle
 10
66.76721184405483
 20
22.72499945063825
 30
0.0
 40
0.525
100
AcDbArc
 50
90.0
 51
180.0
  0
ARC
  5
F15
330
1A
100
AcDbEntity
  8
ZUWAKU
100
AcDbCircle
 10
63.61721184405474
 20
22.72499945063825
 30
0.0
 40
0.525
100
AcDbArc
 50
0.0
 51
90.0
  0
LINE
  5
F16
330
1A
100
AcDbEntity
  8
ZUWAKU
100
AcDbLine
 10
63.61721184405474
 20
23.24999945063826
 30
0.0
 11
61.86721184405474
 21
23.24999945063826
 31
0.0
  0
ARC
  5
F17
330
1A
100
AcDbEntity
  8
ZUWAKU
100
AcDbCircle
 10
61.86721184405474
 20
22.72499945063825
 30
0.0
 40
0.525
100
AcDbArc
 50
90.0
 51
180.0
  0
ARC
  5
F18
330
1A
100
AcDbEntity
  8
ZUWAKU
100
AcDbCircle
 10
68.51721184405483
 20
22.72499945063825
 30
0.0
 40
0.525
100
AcDbArc
 50
0.0
 51
90.0
  0
TEXT
  5
F19
330
1A
100
AcDbEntity
  8
MOJI
100
AcDbText
 10
239.8272023701247
 20
18.00492050804564
 30
0.0
 40
5.599999999999999
  1
洋風じょうごⅢ型
 41
0.9
  7
ｽﾀｲﾙ1
100
AcDbText
  0
TEXT
  5
F1A
330
1A
100
AcDbEntity
  8
MOJI
100
AcDbText
 10
239.8272023701247
 20
3.204920508045677
 30
0.0
 40
5.599999999999999
  1
ＲＶ１０５－Ｙ６０・ＵＴ６０
 41
0.9
  7
ｽﾀｲﾙ1
100
AcDbText
  0
LINE
  5
F1B
330
1A
100
AcDbEntity
  8
ZUWAKU
100
AcDbLine
 10
208.2466009793415
 20
29.99999945063825
 30
0.0
 11
208.2466009793415
 21
0.7999994506383246
 31
0.0
  0
LINE
  5
F1C
330
1A
100
AcDbEntity
  8
ZUWAKU
100
AcDbLine
 10
208.6466009793414
 20
29.99999945063825
 30
0.0
 11
208.6466009793416
 21
0.7999994506383246
 31
0.0
  0
LINE
  5
F1D
330
1A
100
AcDbEntity
  8
ZUWAKU
100
AcDbLine
 10
208.4466009793414
 20
29.99999945063825
 30
0.0
 11
208.4466009793416
 21
0.7999994506383246
 31
0.0
  0
TEXT
  5
F1E
330
1A
100
AcDbEntity
  8
ZUWAKU
100
AcDbText
 10
209.7240460015512
 20
9.655355989023874
 30
0.0
 40
4.0
  1
サイズ
 41
0.9
  7
ｽﾀｲﾙ1
100
AcDbText
  0
TEXT
  5
F1F
330
1A
100
AcDbEntity
  8
ZUWAKU
100
AcDbText
 10
209.7240460015509
 20
24.05535598902384
 30
0.0
 40
4.0
  1
品名
 41
0.9
  7
ｽﾀｲﾙ1
100
AcDbText
  0
LINE
  5
F20
330
1A
100
AcDbEntity
  8
ZUWAKU
100
AcDbLine
 10
648.8172021994778
 20
15.19999945063828
 30
0.0
 11
697.2490102378149
 21
15.19999945063829
 31
0.0
  0
LINE
  5
F21
330
1A
100
AcDbEntity
  8
ZUWAKU
100
AcDbLine
 10
648.817202199478
 20
15.39999945063829
 30
0.0
 11
697.2490102378149
 21
15.39999945063829
 31
0.0
  0
LINE
  5
F22
330
1A
100
AcDbEntity
  8
ZUWAKU
100
AcDbLine
 10
648.8172021994778
 20
15.59999945063829
 30
0.0
 11
697.2490102378149
 21
15.59999945063829
 31
0.0
  0
TEXT
  5
F23
330
1A
100
AcDbEntity
  8
ZUWAKU
100
AcDbText
 10
658.203937376576
 20
18.00492050804564
 30
0.0
 40
5.599999999999999
  1
　　．　　．　　
 41
0.9
  7
ｽﾀｲﾙ1
100
AcDbText
  0
TEXT
  5
F24
330
1A
100
AcDbEntity
  8
SUNPOU
100
AcDbText
 10
661.9071641742184
 20
36.65388898337175
 30
0.0
 40
6.0
  1
※b　エルボの差込み寸法を示す
100
AcDbText
  0
TEXT
  5
F25
330
1A
100
AcDbEntity
  8
SUNPOU
100
AcDbText
 10
661.9071641742184
 20
46.25388898337178
 30
0.0
 40
6.0
  1
※a　のきといの縁切り間隔寸法を示す
100
AcDbText
  0
LINE
  5
F26
330
1A
100
AcDbEntity
  8
ZUWAKU
100
AcDbLine
 10
505.1991791874145
 20
15.19999945063829
 30
0.0
 11
552.5269554553861
 21
15.19999945063829
 31
0.0
  0
LINE
  5
F27
330
1A
100
AcDbEntity
  8
ZUWAKU
100
AcDbLine
 10
505.1991791874145
 20
15.39999945063829
 30
0.0
 11
552.5269554553861
 21
15.39999945063829
 31
0.0
  0
LINE
  5
F28
330
1A
100
AcDbEntity
  8
ZUWAKU
100
AcDbLine
 10
505.1991791874145
 20
15.59999945063829
 30
0.0
 11
552.5269554553861
 21
15.59999945063829
 31
0.0
  0
TEXT
  5
F29
330
1A
100
AcDbEntity
  8
MOJI
100
AcDbText
 10
464.5946256925126
 20
11.94261717229824
 30
0.0
 40
5.599999999999999
  1
ＧＳ１２□
 41
0.9
  7
ｽﾀｲﾙ1
100
AcDbText
  0
LINE
  5
F2A
330
1A
100
AcDbEntity
  8
ZUWAKU
100
AcDbLine
 10
447.6243636602649
 20
29.99999945063825
 30
0.0
 11
447.624363660265
 21
0.7999994506383246
 31
0.0
  0
LINE
  5
F2B
330
1A
100
AcDbEntity
  8
ZUWAKU
100
AcDbLine
 10
447.8243636602648
 20
29.99999945063825
 30
0.0
 11
447.8243636602651
 21
0.7999994506383246
 31
0.0
  0
LINE
  5
F2C
330
1A
100
AcDbEntity
  8
ZUWAKU
100
AcDbLine
 10
447.424363660265
 20
29.99999945063825
 30
0.0
 11
447.424363660265
 21
0.7999994506383246
 31
0.0
  0
TEXT
  5
F2D
330
1A
100
AcDbEntity
  8
MOJI
100
AcDbText
 10
528.0409076615865
 20
18.00492050804564
 30
0.0
 40
5.599999999999999
  1
Ａ３
 41
0.9
  7
ｽﾀｲﾙ1
100
AcDbText
  0
LINE
  5
F2E
330
1A
100
AcDbEntity
  8
ZUWAKU
100
AcDbLine
 10
504.9991791874145
 20
29.99999945063825
 30
0.0
 11
504.9991791874147
 21
0.7999994506383246
 31
0.0
  0
LINE
  5
F2F
330
1A
100
AcDbEntity
  8
ZUWAKU
100
AcDbLine
 10
505.1991791874145
 20
29.99999945063825
 30
0.0
 11
505.1991791874147
 21
0.7999994506383246
 31
0.0
  0
LINE
  5
F30
330
1A
100
AcDbEntity
  8
ZUWAKU
100
AcDbLine
 10
504.7991791874146
 20
29.99999945063825
 30
0.0
 11
504.7991791874146
 21
0.7999994506383246
 31
0.0
  0
TEXT
  5
F31
330
1A
100
AcDbEntity
  8
ZUWAKU
100
AcDbText
 10
462.6937613447807
 20
2.614070361777748
 30
0.0
 40
3.0
  1
□には色品番が入ります
 41
0.9
  7
ｽﾀｲﾙ1
100
AcDbText
  0
TEXT
  5
F32
330
1A
100
AcDbEntity
  8
ZUWAKU
100
AcDbText
 10
506.6766242096243
 20
9.655355989023874
 30
0.0
 40
4.0
  1
縮尺
 41
0.9
  7
ｽﾀｲﾙ1
100
AcDbText
  0
TEXT
  5
F33
330
1A
100
AcDbEntity
  8
MOJI
100
AcDbText
 10
528.0409076615865
 20
3.204920508045677
 30
0.0
 40
5.599999999999999
  1
１/２
 41
0.9
  7
ｽﾀｲﾙ1
100
AcDbText
  0
TEXT
  5
F34
330
1A
100
AcDbEntity
  8
ZUWAKU
100
AcDbText
 10
449.3018086824745
 20
24.05535598902384
 30
0.0
 40
4.0
  1
品番
 41
0.9
  7
ｽﾀｲﾙ1
100
AcDbText
  0
TEXT
  5
F35
330
1A
100
AcDbEntity
  8
ZUWAKU
100
AcDbText
 10
506.6766242096242
 20
24.05535598902384
 30
0.0
 40
4.0
  1
用紙
 41
0.9
  7
ｽﾀｲﾙ1
100
AcDbText
  0
LINE
  5
F36
330
1A
100
AcDbEntity
  8
ZUWAKU
100
AcDbLine
 10
648.617202199478
 20
29.99999945063825
 30
0.0
 11
648.6172021994782
 21
0.7999994506383246
 31
0.0
  0
LINE
  5
F37
330
1A
100
AcDbEntity
  8
ZUWAKU
100
AcDbLine
 10
648.817202199478
 20
29.99999945063825
 30
0.0
 11
648.8172021994783
 21
0.7999994506383246
 31
0.0
  0
LINE
  5
F38
330
1A
100
AcDbEntity
  8
ZUWAKU
100
AcDbLine
 10
648.4172021994782
 20
29.99999945063825
 30
0.0
 11
648.4172021994782
 21
0.7999994506383246
 31
0.0
  0
LINE
  5
F39
330
1A
100
AcDbEntity
  8
ZUWAKU
100
AcDbLine
 10
552.7269554553859
 20
29.99999945063825
 30
0.0
 11
552.7269554553861
 21
0.7999994506383246
 31
0.0
  0
LINE
  5
F3A
330
1A
100
AcDbEntity
  8
ZUWAKU
100
AcDbLine
 10
552.9269554553859
 20
29.99999945063825
 30
0.0
 11
552.9269554553861
 21
0.7999994506383246
 31
0.0
  0
LINE
  5
F3B
330
1A
100
AcDbEntity
  8
ZUWAKU
100
AcDbLine
 10
552.5269554553861
 20
29.99999945063825
 30
0.0
 11
552.5269554553861
 21
0.7999994506383246
 31
0.0
  0
TEXT
  5
F3C
330
1A
100
AcDbEntity
  8
ZUWAKU
100
AcDbText
 10
650.2946472216876
 20
24.05535598902384
 30
0.0
 40
4.0
  1
DATE
 41
0.9
  7
ｽﾀｲﾙ1
100
AcDbText
  0
LINE
  5
F3D
330
1A
100
AcDbEntity
  8
ZUWAKU
100
AcDbLine
 10
697.2490102378149
 20
29.99999945063825
 30
0.0
 11
697.2490102378149
 21
0.7999994506383246
 31
0.0
  0
LINE
  5
F3E
330
1A
100
AcDbEntity
  8
ZUWAKU
100
AcDbLine
 10
697.4490102378149
 20
29.99999945063825
 30
0.0
 11
697.4490102378149
 21
0.7999994506383246
 31
0.0
  0
LINE
  5
F3F
330
1A
100
AcDbEntity
  8
ZUWAKU
100
AcDbLine
 10
697.6490102378147
 20
29.99999945063825
 30
0.0
 11
697.649010237815
 21
0.7999994506383246
 31
0.0
  0
LINE
  5
F40
330
1A
100
AcDbEntity
  8
ZUWAKU
100
AcDbLine
 10
697.8490102378148
 20
29.99999945063825
 30
0.0
 11
697.849010237815
 21
0.7999994506383246
 31
0.0
  0
TEXT
  5
F41
330
1A
100
AcDbEntity
  8
ZUWAKU
100
AcDbText
 10
708.5280838815174
 20
17.55383878632506
 30
0.0
 40
6.0
  1
積水化学工業株式会社
 41
0.9
  7
ｽﾀｲﾙ1
100
AcDbText
  0
TEXT
  5
F42
330
1A
100
AcDbEntity
  8
ZUWAKU
100
AcDbText
 10
708.5280838815174
 20
6.648839764492322
 30
0.0
 40
6.0
  1
建材事業部
 41
0.9
  7
ｽﾀｲﾙ1
100
AcDbText
  0
VIEWPORT
  5
22
330
17
100
AcDbEntity
 67
     1
  8
0
100
AcDbViewport
 10
313.6808219178082
 20
148.5
 30
0.0
 40
627.3616438356165
 41
297.0
 68
     2
 69
     1
1001
ACAD
1000
MVIEW
1002
{
1070
    16
1010
0.0
1020
0.0
1030
0.0
1010
0.0
1020
0.0
1030
1.0
1040
0.0
1040
297.0
1040
313.6808219178082
1040
148.5
1040
50.0
1040
0.0
1040
0.0
1070
     0
1070
   100
1070
     1
1070
     0
1070
     0
1070
     0
1070
     0
1070
     0
1040
0.0
1040
0.0
1040
0.0
1040
1.0
1040
1.0
1040
10.0
1040
10.0
1070
     0
1002
{
1002
}
1002
}
  0
VIEWPORT
  5
64
330
17
100
AcDbEntity
 67
     1
  8
VIEWPORT
100
AcDbViewport
 10
210.0
 20
148.5
 30
0.0
 40
420.0
 41
297.0
 68
     1
 69
     2
1001
ACAD
1000
MVIEW
1002
{
1070
    16
1010
0.0
1020
0.0
1030
0.0
1010
0.0
1020
0.0
1030
1.0
1040
0.0
1040
605.8799999999998
1040
420.0
1040
297.0
1040
50.0
1040
0.0
1040
0.0
1070
     0
1070
   100
1070
     1
1070
     0
1070
     0
1070
     0
1070
     0
1070
     0
1040
0.0
1040
0.0
1040
0.0
1040
10.0
1040
10.0
1040
0.0
1040
0.0
1070
     0
1002
{
1002
}
1002
}
  0
ENDSEC
  0
SECTION
  2
OBJECTS
  0
DICTIONARY
  5
C
330
0
100
AcDbDictionary
  3
ACAD_GROUP
350
D
  3
ACAD_LAYOUT
350
48D
  3
ACAD_MLINESTYLE
350
E
  3
ACAD_PLOTSETTINGS
350
48E
  3
ACAD_PLOTSTYLENAME
350
48B
  3
ACDBVARIABLEDICTIONARY
350
A4F
  3
ACDBHEADERROUNDTRIPXREC
350
FBA
  0
DICTIONARY
  5
975
330
1A
100
AcDbDictionary
280
     1
  3
ACAD_LAYOUTSELFREF
360
FDC
  0
DICTIONARY
  5
973
330
17
100
AcDbDictionary
280
     1
  3
ACAD_LAYOUTSELFREF
360
FDB
  0
DICTIONARY
  5
D
102
{ACAD_REACTORS
330
C
102
}
330
C
100
AcDbDictionary
  0
DICTIONARY
  5
48D
102
{ACAD_REACTORS
330
C
102
}
330
C
100
AcDbDictionary
  0
DICTIONARY
  5
E
102
{ACAD_REACTORS
330
C
102
}
330
C
100
AcDbDictionary
  3
STANDARD
350
13
  0
DICTIONARY
  5
48E
102
{ACAD_REACTORS
330
C
102
}
330
C
100
AcDbDictionary
  0
ACDBDICTIONARYWDFLT
  5
48B
102
{ACAD_REACTORS
330
C
102
}
330
C
100
AcDbDictionary
281
     1
  3
Normal
350
48C
100
AcDbDictionaryWithDefault
340
48C
1001
ACAD
1000
TREAT_AS_HARD
1070
     0
1000
TREAT_AS_HARD
1070
     0
1000
TREAT_AS_HARD
1070
     0
  0
DICTIONARY
  5
A4F
102
{ACAD_REACTORS
330
C
102
}
330
C
100
AcDbDictionary
  3
SORTENTS
350
A50
  0
DICTIONARY
  5
FBA
102
{ACAD_REACTORS
330
C
102
}
330
C
100
AcDbDictionary
  3
TSTACKALIGN
350
FBB
  3
TSTACKSIZE
350
FBC
  3
HYPERLINKBASE
350
FBD
  3
STYLESHEET
350
FBE
  3
LAYOUTDICT
350
FBF
  3
PLOTSETDICT
350
FC0
  3
PLOTSTYLNAMDICT
350
FC1
  3
LWETCUNION
350
FC2
  3
INSUNITS
350
FC3
  3
CEPSNTYPE
350
FC4
  3
FINGERPRINTGUID
350
FC5
  3
VERSIONGUID
350
FC6
  3
PSVPSCALE
350
FC7
  3
DIMSTYLEDATA
350
FC8
  3
PUCSORTHOREF
350
FC9
  3
PUCSORTHOVIEW
350
FCA
  3
PUCSBASE
350
FCB
  3
PUCSORGTOP
350
FCC
  3
PUCSORGBOTTOM
350
FCD
  3
PUCSORGLEFT
350
FCE
  3
PUCSORGRIGHT
350
FCF
  3
PUCSORGFRONT
350
FD0
  3
PUCSORGBACK
350
FD1
  3
UCSORTHOREF
350
FD2
  3
UCSORTHOVIEW
350
FD3
  3
UCSBASE
350
FD4
  3
UCSORGTOP
350
FD5
  3
UCSORGBOTTOM
350
FD6
  3
UCSORGLEFT
350
FD7
  3
UCSORGRIGHT
350
FD8
  3
UCSORGFRONT
350
FD9
  3
UCSORGBACK
350
FDA
  0
XRECORD
  5
FDC
102
{ACAD_REACTORS
330
975
102
}
330
975
100
AcDbXrecord
340
1A
  0
XRECORD
  5
FDB
102
{ACAD_REACTORS
330
973
102
}
330
973
100
AcDbXrecord
340
17
  0
MLINESTYLE
  5
13
102
{ACAD_REACTORS
330
E
102
}
330
E
100
AcDbMlineStyle
  2
STANDARD
 70
     0
  3

 62
     0
 51
90.0
 52
90.0
 71
     2
 49
0.5
 62
   256
  6
BYLAYER
 49
-0.5
 62
   256
  6
BYLAYER
  0
ACDBPLACEHOLDER
  5
48C
102
{ACAD_REACTORS
330
48B
102
}
330
48B
100
AcDbPlaceHolder
280
     0
  0
DICTIONARYVAR
  5
A50
102
{ACAD_REACTORS
330
A4F
102
}
330
A4F
100
DictionaryVariables
280
     0
  1
96
  0
XRECORD
  5
FBB
102
{ACAD_REACTORS
330
FBA
102
}
330
FBA
100
AcDbXrecord
 90
        1
  0
XRECORD
  5
FBC
102
{ACAD_REACTORS
330
FBA
102
}
330
FBA
100
AcDbXrecord
 90
       70
  0
XRECORD
  5
FBD
102
{ACAD_REACTORS
330
FBA
102
}
330
FBA
100
AcDbXrecord
  1

  0
XRECORD
  5
FBE
102
{ACAD_REACTORS
330
FBA
102
}
330
FBA
100
AcDbXrecord
  1
systemprinter.ctb
  0
XRECORD
  5
FBF
102
{ACAD_REACTORS
330
FBA
102
}
330
FBA
100
AcDbXrecord
340
48D
  0
XRECORD
  5
FC0
102
{ACAD_REACTORS
330
FBA
102
}
330
FBA
100
AcDbXrecord
340
48E
  0
XRECORD
  5
FC1
102
{ACAD_REACTORS
330
FBA
102
}
330
FBA
100
AcDbXrecord
340
48B
  0
XRECORD
  5
FC2
102
{ACAD_REACTORS
330
FBA
102
}
330
FBA
100
AcDbXrecord
 90
    10781
  0
XRECORD
  5
FC3
102
{ACAD_REACTORS
330
FBA
102
}
330
FBA
100
AcDbXrecord
 90
        0
  0
XRECORD
  5
FC4
102
{ACAD_REACTORS
330
FBA
102
}
330
FBA
100
AcDbXrecord
 90
        0
  0
XRECORD
  5
FC5
102
{ACAD_REACTORS
330
FBA
102
}
330
FBA
100
AcDbXrecord
  1
{0B5873E6-8D85-11D4-932C-0050DA99388B}
  0
XRECORD
  5
FC6
102
{ACAD_REACTORS
330
FBA
102
}
330
FBA
100
AcDbXrecord
  1
{C9CEE7C2-5182-495B-AAF0-EA539367F549}
  0
XRECORD
  5
FC7
102
{ACAD_REACTORS
330
FBA
102
}
330
FBA
100
AcDbXrecord
 40
0.0
  0
XRECORD
  5
FC8
102
{ACAD_REACTORS
330
FBA
102
}
330
FBA
100
AcDbXrecord
1000
DSTYLE
1002
{
1070
   341
340
6D
1070
   343
340
6D
1070
   344
340
6D
1070
   371
 70
    -1
1070
   372
 70
    -1
1002
}
  0
XRECORD
  5
FC9
102
{ACAD_REACTORS
330
FBA
102
}
330
FBA
100
AcDbXrecord
340
0
  0
XRECORD
  5
FCA
102
{ACAD_REACTORS
330
FBA
102
}
330
FBA
100
AcDbXrecord
 70
     0
  0
XRECORD
  5
FCB
102
{ACAD_REACTORS
330
FBA
102
}
330
FBA
100
AcDbXrecord
340
0
  0
XRECORD
  5
FCC
102
{ACAD_REACTORS
330
FBA
102
}
330
FBA
100
AcDbXrecord
 10
0.0
 20
0.0
 30
0.0
  0
XRECORD
  5
FCD
102
{ACAD_REACTORS
330
FBA
102
}
330
FBA
100
AcDbXrecord
 10
0.0
 20
0.0
 30
0.0
  0
XRECORD
  5
FCE
102
{ACAD_REACTORS
330
FBA
102
}
330
FBA
100
AcDbXrecord
 10
0.0
 20
0.0
 30
0.0
  0
XRECORD
  5
FCF
102
{ACAD_REACTORS
330
FBA
102
}
330
FBA
100
AcDbXrecord
 10
0.0
 20
0.0
 30
0.0
  0
XRECORD
  5
FD0
102
{ACAD_REACTORS
330
FBA
102
}
330
FBA
100
AcDbXrecord
 10
0.0
 20
0.0
 30
0.0
  0
XRECORD
  5
FD1
102
{ACAD_REACTORS
330
FBA
102
}
330
FBA
100
AcDbXrecord
 10
0.0
 20
0.0
 30
0.0
  0
XRECORD
  5
FD2
102
{ACAD_REACTORS
330
FBA
102
}
330
FBA
100
AcDbXrecord
340
0
  0
XRECORD
  5
FD3
102
{ACAD_REACTORS
330
FBA
102
}
330
FBA
100
AcDbXrecord
 70
     0
  0
XRECORD
  5
FD4
102
{ACAD_REACTORS
330
FBA
102
}
330
FBA
100
AcDbXrecord
340
0
  0
XRECORD
  5
FD5
102
{ACAD_REACTORS
330
FBA
102
}
330
FBA
100
AcDbXrecord
 10
0.0
 20
0.0
 30
0.0
  0
XRECORD
  5
FD6
102
{ACAD_REACTORS
330
FBA
102
}
330
FBA
100
AcDbXrecord
 10
0.0
 20
0.0
 30
0.0
  0
XRECORD
  5
FD7
102
{ACAD_REACTORS
330
FBA
102
}
330
FBA
100
AcDbXrecord
 10
0.0
 20
0.0
 30
0.0
  0
XRECORD
  5
FD8
102
{ACAD_REACTORS
330
FBA
102
}
330
FBA
100
AcDbXrecord
 10
0.0
 20
0.0
 30
0.0
  0
XRECORD
  5
FD9
102
{ACAD_REACTORS
330
FBA
102
}
330
FBA
100
AcDbXrecord
 10
0.0
 20
0.0
 30
0.0
  0
XRECORD
  5
FDA
102
{ACAD_REACTORS
330
FBA
102
}
330
FBA
100
AcDbXrecord
 10
0.0
 20
0.0
 30
0.0
  0
ENDSEC
  0
EOF
