  0
SECTION
  2
HEADER
  9
$ACADVER
  1
AC1012
  9
$DWGCODEPAGE
  3
dos932
  9
$INSBASE
 10
0.0
 20
0.0
 30
0.0
  9
$EXTMIN
 10
10.05047808566086
 20
4.949376903717846
 30
-0.00000001
  9
$EXTMAX
 10
806.2246110975902
 20
563.7825862828226
 30
0.00000001
  9
$LIMMIN
 10
0.0
 20
0.0
  9
$LIMMAX
 10
840.0
 20
594.0
  9
$ORTHOMODE
 70
     0
  9
$REGENMODE
 70
     1
  9
$FILLMODE
 70
     1
  9
$QTEXTMODE
 70
     0
  9
$MIRRTEXT
 70
     1
  9
$DRAGMODE
 70
     2
  9
$LTSCALE
 40
10.0
  9
$OSMODE
 70
    37
  9
$ATTMODE
 70
     1
  9
$TEXTSIZE
 40
5.0
  9
$TRACEWID
 40
1.0
  9
$TEXTSTYLE
  7
STANDARD
  9
$CLAYER
  8
ZUWAKU
  9
$CELTYPE
  6
BYLAYER
  9
$CECOLOR
 62
   256
  9
$CELTSCALE
 40
1.0
  9
$DELOBJ
 70
     1
  9
$DISPSILH
 70
     0
  9
$DIMSCALE
 40
1.0
  9
$DIMASZ
 40
3.0
  9
$DIMEXO
 40
6.0
  9
$DIMDLI
 40
14.0
  9
$DIMRND
 40
0.0
  9
$DIMDLE
 40
0.0
  9
$DIMEXE
 40
3.0
  9
$DIMTP
 40
0.0
  9
$DIMTM
 40
0.0
  9
$DIMTXT
 40
6.0
  9
$DIMCEN
 40
10.0
  9
$DIMTSZ
 40
0.0
  9
$DIMTOL
 70
     0
  9
$DIMLIM
 70
     0
  9
$DIMTIH
 70
     0
  9
$DIMTOH
 70
     0
  9
$DIMSE1
 70
     0
  9
$DIMSE2
 70
     0
  9
$DIMTAD
 70
     3
  9
$DIMZIN
 70
     0
  9
$DIMBLK
  1

  9
$DIMASO
 70
     1
  9
$DIMSHO
 70
     1
  9
$DIMPOST
  1

  9
$DIMAPOST
  1

  9
$DIMALT
 70
     0
  9
$DIMALTD
 70
     2
  9
$DIMALTF
 40
25.4
  9
$DIMLFAC
 40
1.0
  9
$DIMTOFL
 70
     1
  9
$DIMTVP
 40
0.0
  9
$DIMTIX
 70
     0
  9
$DIMSOXD
 70
     0
  9
$DIMSAH
 70
     1
  9
$DIMBLK1
  1
OPEN
  9
$DIMBLK2
  1
OPEN
  9
$DIMSTYLE
  2
STANDARD
  9
$DIMCLRD
 70
   256
  9
$DIMCLRE
 70
   256
  9
$DIMCLRT
 70
   256
  9
$DIMTFAC
 40
1.0
  9
$DIMGAP
 40
2.0
  9
$DIMJUST
 70
     0
  9
$DIMSD1
 70
     0
  9
$DIMSD2
 70
     0
  9
$DIMTOLJ
 70
     1
  9
$DIMTZIN
 70
     0
  9
$DIMALTZ
 70
     0
  9
$DIMALTTZ
 70
     0
  9
$DIMFIT
 70
     3
  9
$DIMUPT
 70
     0
  9
$DIMUNIT
 70
     2
  9
$DIMDEC
 70
     0
  9
$DIMTDEC
 70
     0
  9
$DIMALTU
 70
     2
  9
$DIMALTTD
 70
     2
  9
$DIMTXSTY
  7
STANDARD
  9
$DIMAUNIT
 70
     0
  9
$LUNITS
 70
     2
  9
$LUPREC
 70
     4
  9
$SKETCHINC
 40
1.0
  9
$FILLETRAD
 40
0.6
  9
$AUNITS
 70
     0
  9
$AUPREC
 70
     0
  9
$MENU
  1
.
  9
$ELEVATION
 40
0.0
  9
$PELEVATION
 40
0.0
  9
$THICKNESS
 40
0.0
  9
$LIMCHECK
 70
     0
  9
$BLIPMODE
 70
     0
  9
$CHAMFERA
 40
20.0
  9
$CHAMFERB
 40
20.0
  9
$CHAMFERC
 40
40.0
  9
$CHAMFERD
 40
0.0
  9
$SKPOLY
 70
     0
  9
$TDCREATE
 40
2451618.333540741
  9
$TDUPDATE
 40
2452395.863559525
  9
$TDINDWG
 40
0.0547288310
  9
$TDUSRTIMER
 40
0.0547255903
  9
$USRTIMER
 70
     1
  9
$ANGBASE
 50
0.0
  9
$ANGDIR
 70
     0
  9
$PDMODE
 70
     0
  9
$PDSIZE
 40
0.0
  9
$PLINEWID
 40
0.0
  9
$COORDS
 70
     1
  9
$SPLFRAME
 70
     0
  9
$SPLINETYPE
 70
     6
  9
$SPLINESEGS
 70
     8
  9
$ATTDIA
 70
     0
  9
$ATTREQ
 70
     1
  9
$HANDLING
 70
 10241
  9
$HANDSEED
  5
3D2
  9
$SURFTAB1
 70
     6
  9
$SURFTAB2
 70
     6
  9
$SURFTYPE
 70
     6
  9
$SURFU
 70
     6
  9
$SURFV
 70
     6
  9
$UCSNAME
  2

  9
$UCSORG
 10
0.0
 20
0.0
 30
0.0
  9
$UCSXDIR
 10
1.0
 20
0.0
 30
0.0
  9
$UCSYDIR
 10
0.0
 20
1.0
 30
0.0
  9
$PUCSNAME
  2

  9
$PUCSORG
 10
0.0
 20
0.0
 30
0.0
  9
$PUCSXDIR
 10
1.0
 20
0.0
 30
0.0
  9
$PUCSYDIR
 10
0.0
 20
1.0
 30
0.0
  9
$USERI1
 70
     0
  9
$USERI2
 70
     0
  9
$USERI3
 70
     0
  9
$USERI4
 70
     0
  9
$USERI5
 70
     0
  9
$USERR1
 40
0.0
  9
$USERR2
 40
0.0
  9
$USERR3
 40
0.0
  9
$USERR4
 40
0.0
  9
$USERR5
 40
0.0
  9
$WORLDVIEW
 70
     1
  9
$SHADEDGE
 70
     3
  9
$SHADEDIF
 70
    70
  9
$TILEMODE
 70
     1
  9
$MAXACTVP
 70
    16
  9
$PINSBASE
 10
0.0
 20
0.0
 30
0.0
  9
$PLIMCHECK
 70
     0
  9
$PEXTMIN
 10
0.0
 20
0.0
 30
0.0
  9
$PEXTMAX
 10
420.0
 20
297.0
 30
0.0
  9
$PLIMMIN
 10
0.0
 20
0.0
  9
$PLIMMAX
 10
420.0
 20
297.0
  9
$UNITMODE
 70
     0
  9
$VISRETAIN
 70
     0
  9
$PLINEGEN
 70
     0
  9
$PSLTSCALE
 70
     1
  9
$TREEDEPTH
 70
  3020
  9
$PICKSTYLE
 70
     1
  9
$CMLSTYLE
  2
STANDARD
  9
$CMLJUST
 70
     0
  9
$CMLSCALE
 40
1.0
  9
$SAVEIMAGES
 70
     1
  0
ENDSEC
  0
SECTION
  2
CLASSES
  0
CLASS
  1
ACDBDICTIONARYWDFLT
  2
AcDbDictionaryWithDefault
  3
AutoCAD 2000
 90
    32768
280
     0
281
     0
  0
CLASS
  1
ACDBPLACEHOLDER
  2
AcDbPlaceHolder
  3
AutoCAD 2000
 90
    32768
280
     0
281
     0
  0
CLASS
  1
LAYOUT
  2
AcDbLayout
  3
AutoCAD 2000
 90
    32768
280
     0
281
     0
  0
CLASS
  1
LONG_TRANSACTION
  2
AcDbLongTransaction
  3
AutoCAD 2000
 90
    32768
280
     0
281
     0
  0
CLASS
  1
LWPOLYLINE
  2
AcDbPolyline
  3
AutoCAD 2000
 90
    32768
280
     0
281
     1
  0
CLASS
  1
HATCH
  2
AcDbHatch
  3
AutoCAD 2000
 90
    32768
280
     0
281
     1
  0
CLASS
  1
XRECORD
  2
AcDbXrecord
  3
AutoCAD 2000
 90
    32768
280
     0
281
     0
  0
CLASS
  1
LONG_TRANSACTION
  2
AcDbLongTransaction
  3
AutoCAD 2000
 90
    32768
280
     0
281
     0
  0
CLASS
  1
LWPOLYLINE
  2
AcDbPolyline
  3
AutoCAD 2000
 90
    32768
280
     0
281
     1
  0
CLASS
  1
HATCH
  2
AcDbHatch
  3
AutoCAD 2000
 90
    32768
280
     0
281
     1
  0
CLASS
  1
XRECORD
  2
AcDbXrecord
  3
AutoCAD 2000
 90
    32768
280
     0
281
     0
  0
CLASS
  1
LONG_TRANSACTION
  2
AcDbLongTransaction
  3
AutoCAD 2000
 90
    32768
280
     0
281
     0
  0
CLASS
  1
LWPOLYLINE
  2
AcDbPolyline
  3
AutoCAD 2000
 90
    32768
280
     0
281
     1
  0
CLASS
  1
HATCH
  2
AcDbHatch
  3
AutoCAD 2000
 90
    32768
280
     0
281
     1
  0
CLASS
  1
XRECORD
  2
AcDbXrecord
  3
AutoCAD 2000
 90
    32768
280
     0
281
     0
  0
CLASS
  1
LONG_TRANSACTION
  2
AcDbLongTransaction
  3
AutoCAD 2000
 90
    32768
280
     0
281
     0
  0
CLASS
  1
LWPOLYLINE
  2
AcDbPolyline
  3
AutoCAD 2000
 90
    32768
280
     0
281
     1
  0
CLASS
  1
HATCH
  2
AcDbHatch
  3
AutoCAD 2000
 90
    32768
280
     0
281
     1
  0
CLASS
  1
XRECORD
  2
AcDbXrecord
  3
AutoCAD 2000
 90
    32768
280
     0
281
     0
  0
ENDSEC
  0
SECTION
  2
TABLES
  0
TABLE
  2
VPORT
  5
8
330
0
100
AcDbSymbolTable
 70
     2
  0
VPORT
  5
3C6
330
8
100
AcDbSymbolTableRecord
100
AcDbViewportTableRecord
  2
*ACTIVE
 70
     0
 10
0.0
 20
0.0
 11
1.0
 21
1.0
 12
545.7199995860113
 22
315.3689632408374
 13
0.0
 23
0.0
 14
5.0
 24
5.0
 15
0.0
 25
0.0
 16
0.0
 26
0.0
 36
1.0
 17
0.0
 27
0.0
 37
0.0
 40
652.4680639986777
 41
2.169459962756052
 42
50.0
 43
0.0
 44
0.0
 50
0.0
 51
0.0
 71
     0
 72
   100
 73
     1
 74
     0
 75
     0
 76
     0
 77
     0
 78
     0
  0
ENDTAB
  0
TABLE
  2
LTYPE
  5
5
330
0
100
AcDbSymbolTable
 70
     3
  0
LTYPE
  5
14
330
5
100
AcDbSymbolTableRecord
100
AcDbLinetypeTableRecord
  2
BYBLOCK
 70
     0
  3

 72
    65
 73
     0
 40
0.0
  0
LTYPE
  5
15
330
5
100
AcDbSymbolTableRecord
100
AcDbLinetypeTableRecord
  2
BYLAYER
 70
     0
  3

 72
    65
 73
     0
 40
0.0
  0
LTYPE
  5
16
330
5
100
AcDbSymbolTableRecord
100
AcDbLinetypeTableRecord
  2
CONTINUOUS
 70
     0
  3
Solid line
 72
    65
 73
     0
 40
0.0
  0
LTYPE
  5
115
330
5
100
AcDbSymbolTableRecord
100
AcDbLinetypeTableRecord
  2
PHANTOM
 70
     0
  3
______  __  __  ______  __  __  ______  __  __ 
 72
    65
 73
     6
 40
2.5
 49
1.25
 74
     0
 49
-0.25
 74
     0
 49
0.25
 74
     0
 49
-0.25
 74
     0
 49
0.25
 74
     0
 49
-0.25
 74
     0
  0
LTYPE
  5
135
330
5
100
AcDbSymbolTableRecord
100
AcDbLinetypeTableRecord
  2
CENTER
 70
     0
  3
____ _ ____ _ ____ _ ____ _ ____ _ ____ _ ____ 
 72
    65
 73
     4
 40
2.0
 49
1.25
 74
     0
 49
-0.25
 74
     0
 49
0.25
 74
     0
 49
-0.25
 74
     0
  0
ENDTAB
  0
TABLE
  2
LAYER
  5
2
330
0
100
AcDbSymbolTable
 70
     7
  0
LAYER
  5
F
330
2
100
AcDbSymbolTableRecord
100
AcDbLayerTableRecord
  2
0
 70
     0
 62
     7
  6
CONTINUOUS
  0
LAYER
  5
62
330
2
100
AcDbSymbolTableRecord
100
AcDbLayerTableRecord
  2
VIEWPORT
 70
     0
 62
     7
  6
CONTINUOUS
  0
LAYER
  5
65
330
2
100
AcDbSymbolTableRecord
100
AcDbLayerTableRecord
  2
ZUWAKU
 70
     0
 62
     7
  6
CONTINUOUS
  0
LAYER
  5
158
330
2
100
AcDbSymbolTableRecord
100
AcDbLayerTableRecord
  2
SEIHIN
 70
     0
 62
     3
  6
CONTINUOUS
  0
LAYER
  5
159
330
2
100
AcDbSymbolTableRecord
100
AcDbLayerTableRecord
  2
SUNPOU
 70
     0
 62
     4
  6
CONTINUOUS
  0
LAYER
  5
15A
330
2
100
AcDbSymbolTableRecord
100
AcDbLayerTableRecord
  2
CENTER_L
 70
     0
 62
     1
  6
CENTER
  0
LAYER
  5
1F9
330
2
100
AcDbSymbolTableRecord
100
AcDbLayerTableRecord
  2
DEFPOINTS
 70
     0
 62
     7
  6
CONTINUOUS
  0
ENDTAB
  0
TABLE
  2
STYLE
  5
3
330
0
100
AcDbSymbolTable
 70
     1
  0
STYLE
  5
10
330
3
100
AcDbSymbolTableRecord
100
AcDbTextStyleTableRecord
  2
STANDARD
 70
     0
 40
0.0
 41
1.0
 50
0.0
 71
     0
 42
5.0
  3
TXT
  4
c:\PROGRAM FILES\AUTOCAD LT\ms\bigfont.shx
  0
ENDTAB
  0
TABLE
  2
VIEW
  5
6
330
0
100
AcDbSymbolTable
 70
     0
  0
ENDTAB
  0
TABLE
  2
UCS
  5
7
330
0
100
AcDbSymbolTable
 70
     0
  0
ENDTAB
  0
TABLE
  2
APPID
  5
9
330
0
100
AcDbSymbolTable
 70
     1
  0
APPID
  5
11
330
9
100
AcDbSymbolTableRecord
100
AcDbRegAppTableRecord
  2
ACAD
 70
     0
  0
ENDTAB
  0
TABLE
  2
DIMSTYLE
  5
A
330
0
100
AcDbSymbolTable
 70
     1
  0
DIMSTYLE
105
1D
102
{ACAD_REACTORS
330
26A
330
277
330
284
330
291
330
29E
330
2BD
102
}
330
A
100
AcDbSymbolTableRecord
100
AcDbDimStyleTableRecord
  2
STANDARD
 70
     0
  3

  4

  5

  6

  7

 40
1.0
 41
0.18
 42
0.0625
 43
0.38
 44
0.18
 45
0.0
 46
0.0
 47
0.0
 48
0.0
140
0.18
141
0.09
142
0.0
143
25.4
144
1.0
145
0.0
146
1.0
147
0.09
 71
     0
 72
     0
 73
     1
 74
     1
 75
     0
 76
     0
 77
     0
 78
     0
170
     0
171
     2
172
     0
173
     0
174
     0
175
     0
176
     0
177
     0
178
     0
270
     2
271
     4
272
     4
273
     2
274
     2
340
10
275
     0
280
     0
281
     0
282
     0
283
     1
284
     0
285
     0
286
     0
287
     3
288
     0
  0
ENDTAB
  0
TABLE
  2
BLOCK_RECORD
  5
1
330
0
100
AcDbSymbolTable
 70
     7
  0
BLOCK_RECORD
  5
1A
102
{ACAD_XDICTIONARY
360
30A
102
}
330
1
100
AcDbSymbolTableRecord
100
AcDbBlockTableRecord
  2
*MODEL_SPACE
  0
BLOCK_RECORD
  5
17
102
{ACAD_XDICTIONARY
360
308
102
}
330
1
100
AcDbSymbolTableRecord
100
AcDbBlockTableRecord
  2
*PAPER_SPACE
  0
BLOCK_RECORD
  5
6D
330
1
100
AcDbSymbolTableRecord
100
AcDbBlockTableRecord
  2
_OPEN
  0
BLOCK_RECORD
  5
26B
330
1
100
AcDbSymbolTableRecord
100
AcDbBlockTableRecord
  2
*D1
  0
BLOCK_RECORD
  5
278
330
1
100
AcDbSymbolTableRecord
100
AcDbBlockTableRecord
  2
*D2
  0
BLOCK_RECORD
  5
285
330
1
100
AcDbSymbolTableRecord
100
AcDbBlockTableRecord
  2
*D3
  0
BLOCK_RECORD
  5
292
330
1
100
AcDbSymbolTableRecord
100
AcDbBlockTableRecord
  2
*D4
  0
BLOCK_RECORD
  5
29F
330
1
100
AcDbSymbolTableRecord
100
AcDbBlockTableRecord
  2
*D5
  0
BLOCK_RECORD
  5
2BE
330
1
100
AcDbSymbolTableRecord
100
AcDbBlockTableRecord
  2
*D6
  0
ENDTAB
  0
ENDSEC
  0
SECTION
  2
BLOCKS
  0
BLOCK
  5
1B
330
1A
100
AcDbEntity
  8
0
100
AcDbBlockBegin
  2
*MODEL_SPACE
 70
     0
 10
0.0
 20
0.0
 30
0.0
  3
*MODEL_SPACE
  1

  0
ENDBLK
  5
1C
330
1A
100
AcDbEntity
  8
0
100
AcDbBlockEnd
  0
BLOCK
  5
18
330
17
100
AcDbEntity
 67
     1
  8
0
100
AcDbBlockBegin
  2
*PAPER_SPACE
 70
     0
 10
0.0
 20
0.0
 30
0.0
  3
*PAPER_SPACE
  1

  0
ENDBLK
  5
19
330
17
100
AcDbEntity
 67
     1
  8
0
100
AcDbBlockEnd
  0
BLOCK
  5
6E
330
6D
100
AcDbEntity
  8
0
100
AcDbBlockBegin
  2
_OPEN
 70
     0
 10
0.0
 20
0.0
 30
0.0
  3
_OPEN
  1

  0
LINE
  5
6F
330
6D
100
AcDbEntity
  8
0
  6
BYBLOCK
 62
     0
100
AcDbLine
 10
-1.0
 20
0.1666666666666666
 30
0.0
 11
0.0
 21
0.0
 31
0.0
  0
LINE
  5
70
330
6D
100
AcDbEntity
  8
0
  6
BYBLOCK
 62
     0
100
AcDbLine
 10
0.0
 20
0.0
 30
0.0
 11
-1.0
 21
-0.1666666666666666
 31
0.0
  0
LINE
  5
71
330
6D
100
AcDbEntity
  8
0
  6
BYBLOCK
 62
     0
100
AcDbLine
 10
0.0
 20
0.0
 30
0.0
 11
-1.0
 21
0.0
 31
0.0
  0
ENDBLK
  5
72
330
6D
100
AcDbEntity
  8
0
100
AcDbBlockEnd
  0
BLOCK
  5
275
330
26B
100
AcDbEntity
  8
0
100
AcDbBlockBegin
  2
*D1
 70
     1
 10
0.0
 20
0.0
 30
0.0
  3
*D1
  1

  0
LINE
  5
312
330
26B
100
AcDbEntity
  8
SUNPOU
100
AcDbLine
 10
538.7107386329462
 20
391.7151887597145
 30
0.0
 11
453.4119075136883
 21
391.7151887597145
 31
0.0
  0
LINE
  5
313
330
26B
100
AcDbEntity
  8
SUNPOU
100
AcDbLine
 10
541.2107386329462
 20
81.71518875971448
 30
0.0
 11
453.4119075136882
 21
81.71518875971448
 31
0.0
  0
LINE
  5
314
330
26B
100
AcDbEntity
  8
SUNPOU
100
AcDbLine
 10
456.4119075136883
 20
388.7151887597145
 30
0.0
 11
456.4119075136882
 21
84.71518875971449
 31
0.0
  0
INSERT
  5
315
330
26B
100
AcDbEntity
  8
SUNPOU
100
AcDbBlockReference
  2
_OPEN
 10
456.4119075136883
 20
391.7151887597145
 30
0.0
 41
3.0
 42
3.0
 43
3.0
 50
90.0
  0
INSERT
  5
316
330
26B
100
AcDbEntity
  8
SUNPOU
100
AcDbBlockReference
  2
_OPEN
 10
456.4119075136882
 20
81.71518875971448
 30
0.0
 41
3.0
 42
3.0
 43
3.0
 50
270.0
  0
MTEXT
  5
317
330
26B
100
AcDbEntity
  8
SUNPOU
100
AcDbMText
 10
451.4119075136882
 20
236.7151887597145
 30
0.0
 40
6.0
 41
0.0
 71
     5
 72
     1
  1
\A1;310
 11
0.0000000000000001
 21
1.0
 31
0.0
1001
ACAD
1000
MTEXTBEGIN
1070
    73
1070
     1
1070
    44
1040
1.0
1070
    74
1070
     0
1000
MTEXTEND
1000
MTEXTBEGIN
1070
    73
1070
     1
1070
    44
1040
1.0
1070
    74
1070
     0
1000
MTEXTEND
1000
MTEXTBEGIN
1070
    73
1070
     1
1070
    44
1040
1.0
1070
    74
1070
     0
1000
MTEXTEND
  0
POINT
  5
318
330
26B
100
AcDbEntity
  8
DEFPOINTS
 62
     0
100
AcDbPoint
 10
544.7107386329462
 20
391.7151887597145
 30
0.0
  0
POINT
  5
319
330
26B
100
AcDbEntity
  8
DEFPOINTS
 62
     0
100
AcDbPoint
 10
547.2107386329462
 20
81.71518875971447
 30
0.0
  0
POINT
  5
31A
330
26B
100
AcDbEntity
  8
DEFPOINTS
 62
     0
100
AcDbPoint
 10
456.4119075136882
 20
81.71518875971448
 30
0.0
  0
ENDBLK
  5
276
330
26B
100
AcDbEntity
  8
0
100
AcDbBlockEnd
  0
BLOCK
  5
282
330
278
100
AcDbEntity
  8
0
100
AcDbBlockBegin
  2
*D2
 70
     1
 10
0.0
 20
0.0
 30
0.0
  3
*D2
  1

  0
LINE
  5
31B
330
278
100
AcDbEntity
  8
SUNPOU
100
AcDbLine
 10
538.7107386329462
 20
391.7151887597145
 30
0.0
 11
474.2611965650081
 21
391.7151887597145
 31
0.0
  0
LINE
  5
31C
330
278
100
AcDbEntity
  8
SUNPOU
100
AcDbLine
 10
538.2107386329462
 20
106.7151887597145
 30
0.0
 11
474.261196565008
 21
106.7151887597145
 31
0.0
  0
LINE
  5
31D
330
278
100
AcDbEntity
  8
SUNPOU
100
AcDbLine
 10
477.2611965650082
 20
388.7151887597145
 30
0.0
 11
477.261196565008
 21
109.7151887597145
 31
0.0
  0
INSERT
  5
31E
330
278
100
AcDbEntity
  8
SUNPOU
100
AcDbBlockReference
  2
_OPEN
 10
477.2611965650082
 20
391.7151887597145
 30
0.0
 41
3.0
 42
3.0
 43
3.0
 50
90.0
  0
INSERT
  5
31F
330
278
100
AcDbEntity
  8
SUNPOU
100
AcDbBlockReference
  2
_OPEN
 10
477.261196565008
 20
106.7151887597145
 30
0.0
 41
3.0
 42
3.0
 43
3.0
 50
270.0
  0
MTEXT
  5
320
330
278
100
AcDbEntity
  8
SUNPOU
100
AcDbMText
 10
472.261196565008
 20
249.2151887597146
 30
0.0
 40
6.0
 41
0.0
 71
     5
 72
     1
  1
\A1;285
 11
0.0000000000000001
 21
1.0
 31
0.0
1001
ACAD
1000
MTEXTBEGIN
1070
    73
1070
     1
1070
    44
1040
1.0
1070
    74
1070
     0
1000
MTEXTEND
1000
MTEXTBEGIN
1070
    73
1070
     1
1070
    44
1040
1.0
1070
    74
1070
     0
1000
MTEXTEND
1000
MTEXTBEGIN
1070
    73
1070
     1
1070
    44
1040
1.0
1070
    74
1070
     0
1000
MTEXTEND
  0
POINT
  5
321
330
278
100
AcDbEntity
  8
DEFPOINTS
 62
     0
100
AcDbPoint
 10
544.7107386329462
 20
391.7151887597145
 30
0.0
  0
POINT
  5
322
330
278
100
AcDbEntity
  8
DEFPOINTS
 62
     0
100
AcDbPoint
 10
544.2107386329462
 20
106.7151887597144
 30
0.0
  0
POINT
  5
323
330
278
100
AcDbEntity
  8
DEFPOINTS
 62
     0
100
AcDbPoint
 10
477.261196565008
 20
106.7151887597145
 30
0.0
  0
ENDBLK
  5
283
330
278
100
AcDbEntity
  8
0
100
AcDbBlockEnd
  0
BLOCK
  5
28F
330
285
100
AcDbEntity
  8
0
100
AcDbBlockBegin
  2
*D3
 70
     1
 10
0.0
 20
0.0
 30
0.0
  3
*D3
  1

  0
ARC
  5
3C9
330
285
100
AcDbEntity
  8
SUNPOU
100
AcDbCircle
 10
219.7248179866255
 20
169.2250454986127
 30
0.0
 40
99.14208672823685
100
AcDbArc
 50
352.5441437972174
 51
88.26618641284737
  0
INSERT
  5
3CA
330
285
100
AcDbEntity
  8
SUNPOU
100
AcDbBlockReference
  2
_OPEN
 10
317.5944234669295
 20
153.3917361806309
 30
0.0
 41
3.0
 42
3.0
 43
3.0
 50
261.677237003641
  0
INSERT
  5
3CB
330
285
100
AcDbEntity
  8
SUNPOU
100
AcDbBlockReference
  2
_OPEN
 10
219.7248179866254
 20
268.3671322268496
 30
0.0
 41
3.0
 42
3.0
 43
3.0
 50
179.1330932064237
  0
MTEXT
  5
3CC
330
285
100
AcDbEntity
  8
SUNPOU
100
AcDbMText
 10
299.0269214489384
 20
236.7287536527893
 30
0.0
 40
6.0
 41
0.0
 71
     5
 72
     1
  1
\A1;99°
 11
0.6481885496526511
 21
-0.7614798776718876
 31
0.0
  0
POINT
  5
3CD
330
285
100
AcDbEntity
  8
DEFPOINTS
 62
     0
100
AcDbPoint
 10
310.3843933011791
 20
209.3497855552664
 30
0.0
  0
POINT
  5
3CE
330
285
100
AcDbEntity
  8
DEFPOINTS
 62
     0
100
AcDbPoint
 10
219.7248179866255
 20
410.4585561349308
 30
0.0
  0
POINT
  5
3CF
330
285
100
AcDbEntity
  8
DEFPOINTS
 62
     0
100
AcDbPoint
 10
412.5043403532253
 20
138.0372442111388
 30
0.0
  0
POINT
  5
3D0
330
285
100
AcDbEntity
  8
DEFPOINTS
 62
     0
100
AcDbPoint
 10
250.7248179866255
 20
164.209876729426
 30
0.0
  0
POINT
  5
3D1
330
285
100
AcDbEntity
  8
DEFPOINTS
 62
     0
100
AcDbPoint
 10
219.7248179866255
 20
74.71518875971445
 30
0.0
  0
ENDBLK
  5
290
330
285
100
AcDbEntity
  8
0
100
AcDbBlockEnd
  0
BLOCK
  5
29C
330
292
100
AcDbEntity
  8
0
100
AcDbBlockBegin
  2
*D4
 70
     1
 10
0.0
 20
0.0
 30
0.0
  3
*D4
  1

  0
LINE
  5
32D
330
292
100
AcDbEntity
  8
SUNPOU
100
AcDbLine
 10
544.7107386329462
 20
397.7151887597145
 30
0.0
 11
544.7107386329462
 21
420.5183257388227
 31
0.0
  0
LINE
  5
32E
330
292
100
AcDbEntity
  8
SUNPOU
100
AcDbLine
 10
606.7107386329462
 20
397.7151887597145
 30
0.0
 11
606.7107386329462
 21
420.5183257388227
 31
0.0
  0
LINE
  5
32F
330
292
100
AcDbEntity
  8
SUNPOU
100
AcDbLine
 10
547.7107386329462
 20
417.5183257388227
 30
0.0
 11
603.7107386329462
 21
417.5183257388227
 31
0.0
  0
INSERT
  5
330
330
292
100
AcDbEntity
  8
SUNPOU
100
AcDbBlockReference
  2
_OPEN
 10
544.7107386329462
 20
417.5183257388227
 30
0.0
 41
3.0
 42
3.0
 43
3.0
 50
180.0
  0
INSERT
  5
331
330
292
100
AcDbEntity
  8
SUNPOU
100
AcDbBlockReference
  2
_OPEN
 10
606.7107386329462
 20
417.5183257388227
 30
0.0
 41
3.0
 42
3.0
 43
3.0
  0
MTEXT
  5
332
330
292
100
AcDbEntity
  8
SUNPOU
100
AcDbMText
 10
575.7107386329462
 20
422.5183257388228
 30
0.0
 40
6.0
 41
0.0
 71
     5
 72
     1
  1
\A1;φ62
1001
ACAD
1000
MTEXTBEGIN
1070
    73
1070
     1
1070
    44
1040
1.0
1070
    74
1070
     0
1000
MTEXTEND
1000
MTEXTBEGIN
1070
    73
1070
     1
1070
    44
1040
1.0
1070
    74
1070
     0
1000
MTEXTEND
1000
MTEXTBEGIN
1070
    73
1070
     1
1070
    44
1040
1.0
1070
    74
1070
     0
1000
MTEXTEND
  0
POINT
  5
333
330
292
100
AcDbEntity
  8
DEFPOINTS
 62
     0
100
AcDbPoint
 10
544.7107386329462
 20
391.7151887597145
 30
0.0
  0
POINT
  5
334
330
292
100
AcDbEntity
  8
DEFPOINTS
 62
     0
100
AcDbPoint
 10
606.7107386329462
 20
391.7151887597145
 30
0.0
  0
POINT
  5
335
330
292
100
AcDbEntity
  8
DEFPOINTS
 62
     0
100
AcDbPoint
 10
606.7107386329462
 20
417.5183257388227
 30
0.0
  0
ENDBLK
  5
29D
330
292
100
AcDbEntity
  8
0
100
AcDbBlockEnd
  0
BLOCK
  5
2A9
330
29F
100
AcDbEntity
  8
0
100
AcDbBlockBegin
  2
*D5
 70
     1
 10
0.0
 20
0.0
 30
0.0
  3
*D5
  1

  0
LINE
  5
336
330
29F
100
AcDbEntity
  8
SUNPOU
100
AcDbLine
 10
547.2107386329462
 20
75.71518875971446
 30
0.0
 11
547.2107386329462
 21
49.26189179631774
 31
0.0
  0
LINE
  5
337
330
29F
100
AcDbEntity
  8
SUNPOU
100
AcDbLine
 10
604.2107386329462
 20
75.71518875971446
 30
0.0
 11
604.2107386329462
 21
49.26189179631774
 31
0.0
  0
LINE
  5
338
330
29F
100
AcDbEntity
  8
SUNPOU
100
AcDbLine
 10
550.2107386329462
 20
52.26189179631774
 30
0.0
 11
601.2107386329462
 21
52.26189179631774
 31
0.0
  0
INSERT
  5
339
330
29F
100
AcDbEntity
  8
SUNPOU
100
AcDbBlockReference
  2
_OPEN
 10
547.2107386329462
 20
52.26189179631774
 30
0.0
 41
3.0
 42
3.0
 43
3.0
 50
180.0
  0
INSERT
  5
33A
330
29F
100
AcDbEntity
  8
SUNPOU
100
AcDbBlockReference
  2
_OPEN
 10
604.2107386329462
 20
52.26189179631774
 30
0.0
 41
3.0
 42
3.0
 43
3.0
  0
MTEXT
  5
33B
330
29F
100
AcDbEntity
  8
SUNPOU
100
AcDbMText
 10
575.7107386329462
 20
57.26189179631774
 30
0.0
 40
6.0
 41
0.0
 71
     5
 72
     1
  1
\A1;φ57
1001
ACAD
1000
MTEXTBEGIN
1070
    73
1070
     1
1070
    44
1040
1.0
1070
    74
1070
     0
1000
MTEXTEND
1000
MTEXTBEGIN
1070
    73
1070
     1
1070
    44
1040
1.0
1070
    74
1070
     0
1000
MTEXTEND
1000
MTEXTBEGIN
1070
    73
1070
     1
1070
    44
1040
1.0
1070
    74
1070
     0
1000
MTEXTEND
  0
POINT
  5
33C
330
29F
100
AcDbEntity
  8
DEFPOINTS
 62
     0
100
AcDbPoint
 10
547.2107386329462
 20
81.71518875971447
 30
0.0
  0
POINT
  5
33D
330
29F
100
AcDbEntity
  8
DEFPOINTS
 62
     0
100
AcDbPoint
 10
604.2107386329462
 20
81.71518875971447
 30
0.0
  0
POINT
  5
33E
330
29F
100
AcDbEntity
  8
DEFPOINTS
 62
     0
100
AcDbPoint
 10
604.2107386329462
 20
52.26189179631774
 30
0.0
  0
ENDBLK
  5
2AA
330
29F
100
AcDbEntity
  8
0
100
AcDbBlockEnd
  0
BLOCK
  5
2C8
330
2BE
100
AcDbEntity
  8
0
100
AcDbBlockBegin
  2
*D6
 70
     1
 10
0.0
 20
0.0
 30
0.0
  3
*D6
  1

  0
LINE
  5
33F
330
2BE
100
AcDbEntity
  8
SUNPOU
100
AcDbLine
 10
251.2248180788034
 20
172.5733867942404
 30
0.0
 11
251.2248180788034
 21
287.3910655235879
 31
0.0
  0
LINE
  5
340
330
2BE
100
AcDbEntity
  8
SUNPOU
100
AcDbLine
 10
411.2703840094807
 20
144.2368732213867
 30
0.0
 11
411.2703840094807
 21
287.3910655235879
 31
0.0
  0
LINE
  5
341
330
2BE
100
AcDbEntity
  8
SUNPOU
100
AcDbLine
 10
254.2248180788034
 20
284.3910655235879
 30
0.0
 11
408.2703840094807
 21
284.3910655235879
 31
0.0
  0
INSERT
  5
342
330
2BE
100
AcDbEntity
  8
SUNPOU
100
AcDbBlockReference
  2
_OPEN
 10
251.2248180788034
 20
284.3910655235879
 30
0.0
 41
3.0
 42
3.0
 43
3.0
 50
180.0
  0
INSERT
  5
343
330
2BE
100
AcDbEntity
  8
SUNPOU
100
AcDbBlockReference
  2
_OPEN
 10
411.2703840094807
 20
284.3910655235879
 30
0.0
 41
3.0
 42
3.0
 43
3.0
  0
MTEXT
  5
344
330
2BE
100
AcDbEntity
  8
SUNPOU
100
AcDbMText
 10
331.2476010441421
 20
289.3910655235879
 30
0.0
 40
6.0
 41
0.0
 71
     5
 72
     1
  1
\A1;160
1001
ACAD
1000
MTEXTBEGIN
1070
    73
1070
     1
1070
    44
1040
1.0
1070
    74
1070
     0
1000
MTEXTEND
1000
MTEXTBEGIN
1070
    73
1070
     1
1070
    44
1040
1.0
1070
    74
1070
     0
1000
MTEXTEND
1000
MTEXTBEGIN
1070
    73
1070
     1
1070
    44
1040
1.0
1070
    74
1070
     0
1000
MTEXTEND
  0
POINT
  5
345
330
2BE
100
AcDbEntity
  8
DEFPOINTS
 62
     0
100
AcDbPoint
 10
251.2248180788034
 20
166.5733867942404
 30
0.0
  0
POINT
  5
346
330
2BE
100
AcDbEntity
  8
DEFPOINTS
 62
     0
100
AcDbPoint
 10
411.2703840094807
 20
138.2368732213867
 30
0.0
  0
POINT
  5
347
330
2BE
100
AcDbEntity
  8
DEFPOINTS
 62
     0
100
AcDbPoint
 10
411.2703840094807
 20
284.3910655235879
 30
0.0
  0
ENDBLK
  5
2C9
330
2BE
100
AcDbEntity
  8
0
100
AcDbBlockEnd
  0
ENDSEC
  0
SECTION
  2
ENTITIES
  0
TEXT
  5
11A
330
1A
100
AcDbEntity
  8
ZUWAKU
 48
5.0
100
AcDbText
 10
795.5579444309237
 20
4.974918402528146
 30
0.0
 40
8.0
  1
A1
100
AcDbText
  0
LINE
  5
11B
330
1A
100
AcDbEntity
  8
ZUWAKU
 48
5.0
100
AcDbLine
 10
10.05047808566086
 20
25.78258628282265
 30
0.0
 11
806.0504780856609
 21
25.78258628282253
 31
0.0
  0
LINE
  5
11C
330
1A
100
AcDbEntity
  8
ZUWAKU
 48
5.0
100
AcDbLine
 10
806.0504780856609
 20
563.7825862828226
 30
0.0
 11
10.05047808566086
 21
563.7825862828226
 31
0.0
  0
LINE
  5
11D
330
1A
100
AcDbEntity
  8
ZUWAKU
 48
5.0
100
AcDbLine
 10
806.0504780856609
 20
13.78258628282265
 30
0.0
 11
10.05047808566086
 21
13.78258628282265
 31
0.0
  0
LINE
  5
11E
330
1A
100
AcDbEntity
  8
ZUWAKU
 48
5.0
100
AcDbLine
 10
10.05047808566086
 20
563.7825862828226
 30
0.0
 11
10.05047808566086
 21
13.78258628282265
 31
0.0
  0
LINE
  5
11F
330
1A
100
AcDbEntity
  8
ZUWAKU
 48
5.0
100
AcDbLine
 10
44.55797523147839
 20
13.78258628282265
 30
0.0
 11
44.5579752314784
 21
25.78258628282265
 31
0.0
  0
TEXT
  5
120
330
1A
100
AcDbEntity
  8
ZUWAKU
 48
5.0
100
AcDbText
 10
16.05676551180931
 20
15.52294263804401
 30
0.0
 40
8.0
  1
品 種
100
AcDbText
  0
LINE
  5
121
330
1A
100
AcDbEntity
  8
ZUWAKU
 48
5.0
100
AcDbLine
 10
276.1028387068254
 20
13.78258628282265
 30
0.0
 11
276.1028387068254
 21
25.78258628282261
 31
0.0
  0
LINE
  5
122
330
1A
100
AcDbEntity
  8
ZUWAKU
 48
5.0
100
AcDbLine
 10
209.5138526425484
 20
13.78258628282265
 30
0.0
 11
209.5138526425485
 21
25.78258628282263
 31
0.0
  0
TEXT
  5
123
330
1A
100
AcDbEntity
  8
ZUWAKU
 48
5.0
100
AcDbText
 10
282.3131429914078
 20
15.64241700452384
 30
0.0
 40
8.0
  1
水取りくん　ＵＴ６０
100
AcDbText
  0
TEXT
  5
124
330
1A
100
AcDbEntity
  8
ZUWAKU
 48
5.0
100
AcDbText
 10
215.4560837190756
 20
16.18358115302453
 30
0.0
 40
8.0
  1
品名・ｻ ｲ ｽﾞ
100
AcDbText
  0
TEXT
  5
125
330
1A
100
AcDbEntity
  8
ZUWAKU
 48
5.0
100
AcDbText
 10
50.3519382305086
 20
16.10306189639755
 30
0.0
 40
8.0
  1

100
AcDbText
  0
LINE
  5
126
330
1A
100
AcDbEntity
  8
ZUWAKU
 48
5.0
100
AcDbLine
 10
768.7231079932794
 20
13.78258628282237
 30
0.0
 11
768.7231079932794
 21
25.78258628282254
 31
0.0
  0
LINE
  5
127
330
1A
100
AcDbEntity
  8
ZUWAKU
 48
5.0
100
AcDbLine
 10
733.8119002376948
 20
13.78258628282242
 30
0.0
 11
733.8119002376946
 21
25.78258628282254
 31
0.0
  0
TEXT
  5
128
330
1A
100
AcDbEntity
  8
ZUWAKU
 48
5.0
100
AcDbText
 10
739.6955629973526
 20
15.24227755810852
 30
0.0
 40
8.0
  1
尺 度
100
AcDbText
  0
TEXT
  5
129
330
1A
100
AcDbEntity
  8
ZUWAKU
 48
5.0
100
AcDbText
 10
779.7374630323229
 20
15.55488920081529
 30
0.0
 40
8.0
  1
1/2
100
AcDbText
  0
TEXT
  5
12A
330
1A
100
AcDbEntity
  8
ZUWAKU
 48
5.0
100
AcDbText
 10
654.2531733678779
 20
15.90287984531518
 30
0.0
 40
8.0
  1

100
AcDbText
  0
TEXT
  5
12B
330
1A
100
AcDbEntity
  8
ZUWAKU
 48
5.0
100
AcDbText
 10
620.3363288383084
 20
15.6519090944263
 30
0.0
 40
8.0
  1
品 番
100
AcDbText
  0
LINE
  5
12C
330
1A
100
AcDbEntity
  8
ZUWAKU
 48
5.0
100
AcDbLine
 10
614.3351028194128
 20
13.78258628282232
 30
0.0
 11
614.3351028194128
 21
25.78258628282256
 31
0.0
  0
LINE
  5
12D
330
1A
100
AcDbEntity
  8
ZUWAKU
 48
5.0
100
AcDbLine
 10
648.7607587371021
 20
13.78258628282232
 30
0.0
 11
648.7607587371021
 21
25.78258628282255
 31
0.0
  0
TEXT
  5
12E
330
1A
100
AcDbEntity
  8
ZUWAKU
 48
5.0
100
AcDbText
 10
646.2758615931216
 20
4.949376903717848
 30
0.0
 40
8.0
  1
積水化学工業株式会社  建材
100
AcDbText
  0
LINE
  5
12F
330
1A
100
AcDbEntity
  8
ZUWAKU
 48
5.0
100
AcDbLine
 10
806.0504780856609
 20
563.7825862828226
 30
0.0
 11
806.0504780856609
 21
13.78258628282265
 31
0.0
  0
LINE
  5
15B
330
1A
100
AcDbEntity
  8
CENTER_L
100
AcDbLine
 10
575.7107386329462
 20
410.4585561349308
 30
0.0
 11
575.7107386329462
 21
74.71518875971447
 31
0.0
  0
LINE
  5
15C
330
1A
100
AcDbEntity
  8
SEIHIN
100
AcDbLine
 10
544.7107386329462
 20
391.7151887597145
 30
0.0
 11
606.7107386329462
 21
391.7151887597145
 31
0.0
  0
LINE
  5
15D
330
1A
100
AcDbEntity
  8
SEIHIN
100
AcDbLine
 10
606.7107386329462
 20
391.7151887597145
 30
0.0
 11
606.7107386329462
 21
156.7151887597145
 31
0.0
  0
LINE
  5
15E
330
1A
100
AcDbEntity
  8
SEIHIN
100
AcDbLine
 10
544.2107386329462
 20
156.7151887597144
 30
0.0
 11
607.2107386329462
 21
156.7151887597144
 31
0.0
  0
LINE
  5
15F
330
1A
100
AcDbEntity
  8
SEIHIN
100
AcDbLine
 10
544.2107386329462
 20
106.7151887597144
 30
0.0
 11
607.2107386329462
 21
106.7151887597144
 31
0.0
  0
LINE
  5
160
330
1A
100
AcDbEntity
  8
SEIHIN
100
AcDbLine
 10
547.2107386329462
 20
81.71518875971447
 30
0.0
 11
604.2107386329462
 21
81.71518875971447
 31
0.0
  0
LINE
  5
161
330
1A
100
AcDbEntity
  8
SEIHIN
100
AcDbLine
 10
607.2107386329462
 20
156.7151887597144
 30
0.0
 11
607.2107386329462
 21
106.7151887597144
 31
0.0
  0
LINE
  5
162
330
1A
100
AcDbEntity
  8
SEIHIN
100
AcDbLine
 10
604.2107386329462
 20
106.7151887597145
 30
0.0
 11
604.2107386329462
 21
81.71518875971447
 31
0.0
  0
LINE
  5
165
330
1A
100
AcDbEntity
  8
SEIHIN
100
AcDbLine
 10
581.7107386329462
 20
379.7151887597145
 30
0.0
 11
597.2107386329462
 21
379.7151887597145
 31
0.0
  0
LINE
  5
166
330
1A
100
AcDbEntity
  8
SEIHIN
100
AcDbLine
 10
601.7107386329462
 20
199.7151887597145
 30
0.0
 11
604.2107386329462
 21
199.7151887597145
 31
0.0
  0
LINE
  5
169
330
1A
100
AcDbEntity
  8
SEIHIN
100
AcDbLine
 10
581.7107386329462
 20
387.7151887597144
 30
0.0
 11
581.7107386329462
 21
321.7151887597145
 31
0.0
  0
LINE
  5
16A
330
1A
100
AcDbEntity
  8
SEIHIN
100
AcDbLine
 10
569.7107386329462
 20
321.7151887597145
 30
0.0
 11
581.7107386329462
 21
321.7151887597145
 31
0.0
  0
LINE
  5
16B
330
1A
100
AcDbEntity
  8
SEIHIN
100
AcDbLine
 10
569.7107386329462
 20
331.7151887597145
 30
0.0
 11
581.7107386329462
 21
331.7151887597145
 31
0.0
  0
LINE
  5
16C
330
1A
100
AcDbEntity
  8
SEIHIN
100
AcDbLine
 10
569.7107386329462
 20
367.7151887597145
 30
0.0
 11
581.7107386329462
 21
367.7151887597145
 31
0.0
  0
LINE
  5
16D
330
1A
100
AcDbEntity
  8
SEIHIN
100
AcDbLine
 10
569.7107386329462
 20
382.7151887597145
 30
0.0
 11
581.7107386329462
 21
382.7151887597145
 31
0.0
  0
LINE
  5
16E
330
1A
100
AcDbEntity
  8
SEIHIN
100
AcDbLine
 10
583.7107386329462
 20
391.7151887597145
 30
0.0
 11
583.7107386329462
 21
385.7151887597144
 31
0.0
  0
LINE
  5
16F
330
1A
100
AcDbEntity
  8
SEIHIN
100
AcDbLine
 10
581.7107386329462
 20
385.7151887597145
 30
0.0
 11
583.7107386329462
 21
385.7151887597145
 31
0.0
  0
LINE
  5
171
330
1A
100
AcDbEntity
  8
CENTER_L
100
AcDbLine
 10
575.7107386329462
 20
546.6344323855592
 30
0.0
 11
575.7107386329462
 21
451.1344323855592
 31
0.0
  0
LINE
  5
172
330
1A
100
AcDbEntity
  8
CENTER_L
100
AcDbLine
 10
537.7107386329462
 20
508.6344323855591
 30
0.0
 11
613.7107386329462
 21
508.6344323855591
 31
0.0
  0
CIRCLE
  5
174
330
1A
100
AcDbEntity
  8
SEIHIN
100
AcDbCircle
 10
575.7107386329462
 20
508.6344323855591
 30
0.0
 40
31.0
  0
CIRCLE
  5
178
330
1A
100
AcDbEntity
  8
SEIHIN
100
AcDbCircle
 10
575.7107386329462
 20
508.6344323855591
 30
0.0
 40
32.0
  0
ARC
  5
179
330
1A
100
AcDbEntity
  8
SEIHIN
100
AcDbCircle
 10
575.7107386329462
 20
508.6344323855591
 30
0.0
 40
32.5
100
AcDbArc
 50
208.7266053481407
 51
331.2733946518591
  0
LINE
  5
17A
330
1A
100
AcDbEntity
  8
SEIHIN
100
AcDbLine
 10
547.2107386329462
 20
493.0139330337459
 30
0.0
 11
547.6492001714077
 21
493.2542484083892
 31
0.0
  0
LINE
  5
17B
330
1A
100
AcDbEntity
  8
SEIHIN
100
AcDbLine
 10
604.2107386329462
 20
493.0139330337459
 30
0.0
 11
603.7722770944847
 21
493.2542484083891
 31
0.0
  0
LINE
  5
17D
330
1A
100
AcDbEntity
  8
SEIHIN
100
AcDbLine
 10
604.2107386329462
 20
359.7151887597145
 30
0.0
 11
604.2107386329462
 21
199.7151887597145
 31
0.0
  0
ELLIPSE
  5
181
330
1A
100
AcDbEntity
  8
SEIHIN
100
AcDbEllipse
 10
597.2107386329462
 20
359.7151887597145
 30
0.0
 11
0.0
 21
-20.0
 31
0.0
210
0.0
220
0.0
230
1.0
 40
0.35
 41
1.570796326794896
 42
3.141592653589793
  0
ARC
  5
184
330
1A
100
AcDbEntity
  8
SEIHIN
100
AcDbCircle
 10
575.7107386329462
 20
196.7485220930478
 30
0.0
 40
30.03333333333332
100
AcDbArc
 50
210.0367212623014
 51
329.9632787376986
  0
LINE
  5
185
330
1A
100
AcDbEntity
  8
SEIHIN
100
AcDbLine
 10
601.7107386329462
 20
181.7151887597144
 30
0.0
 11
601.7107386329462
 21
199.7151887597144
 31
0.0
  0
LINE
  5
186
330
1A
100
AcDbEntity
  8
SEIHIN
100
AcDbLine
 10
603.7107386329462
 20
196.7151887597145
 30
0.0
 11
606.7107386329463
 21
196.7151887597145
 31
0.0
  0
ARC
  5
187
330
1A
100
AcDbEntity
  8
SEIHIN
100
AcDbCircle
 10
575.7107386329462
 20
196.7485220930478
 30
0.0
 40
32.03333333333331
100
AcDbArc
 50
209.0626004356943
 51
330.9373995643057
  0
LINE
  5
189
330
1A
100
AcDbEntity
  8
SEIHIN
100
AcDbLine
 10
603.7107386329462
 20
181.1878522988376
 30
0.0
 11
603.7107386329462
 21
196.7151887597145
 31
0.0
  0
LINE
  5
18C
330
1A
100
AcDbEntity
  8
SEIHIN
100
AcDbLine
 10
581.7107386329462
 20
380.0538351556393
 30
0.0
 11
569.7107386329462
 21
380.0538351556393
 31
0.0
  0
LINE
  5
18D
330
1A
100
AcDbEntity
  8
SEIHIN
100
AcDbLine
 10
547.2107386329462
 20
359.7151887597145
 30
0.0
 11
547.2107386329462
 21
199.7151887597145
 31
0.0
  0
LINE
  5
18E
330
1A
100
AcDbEntity
  8
SEIHIN
100
AcDbLine
 10
544.7107386329462
 20
391.7151887597145
 30
0.0
 11
544.7107386329462
 21
156.7151887597145
 31
0.0
  0
LINE
  5
18F
330
1A
100
AcDbEntity
  8
SEIHIN
100
AcDbLine
 10
544.2107386329462
 20
156.7151887597144
 30
0.0
 11
544.2107386329462
 21
106.7151887597144
 31
0.0
  0
LINE
  5
190
330
1A
100
AcDbEntity
  8
SEIHIN
100
AcDbLine
 10
547.2107386329462
 20
106.7151887597145
 30
0.0
 11
547.2107386329462
 21
81.71518875971447
 31
0.0
  0
LINE
  5
191
330
1A
100
AcDbEntity
  8
SEIHIN
100
AcDbLine
 10
549.7107386329462
 20
199.7151887597145
 30
0.0
 11
547.2107386329462
 21
199.7151887597145
 31
0.0
  0
LINE
  5
192
330
1A
100
AcDbEntity
  8
SEIHIN
100
AcDbLine
 10
549.7107386329462
 20
181.7151887597144
 30
0.0
 11
549.7107386329462
 21
199.7151887597144
 31
0.0
  0
LINE
  5
193
330
1A
100
AcDbEntity
  8
SEIHIN
100
AcDbLine
 10
547.7107386329462
 20
181.1878522988376
 30
0.0
 11
547.7107386329462
 21
196.7151887597145
 31
0.0
  0
LINE
  5
194
330
1A
100
AcDbEntity
  8
SEIHIN
100
AcDbLine
 10
547.7107386329462
 20
196.7151887597145
 30
0.0
 11
544.7107386329461
 21
196.7151887597145
 31
0.0
  0
LINE
  5
195
330
1A
100
AcDbEntity
  8
SEIHIN
100
AcDbLine
 10
569.7107386329462
 20
387.7151887597144
 30
0.0
 11
569.7107386329462
 21
321.7151887597145
 31
0.0
  0
ELLIPSE
  5
196
330
1A
100
AcDbEntity
  8
SEIHIN
100
AcDbEllipse
 10
554.2107386329462
 20
359.7151887597145
 30
0.0
 11
0.0
 21
-20.0
 31
0.0
210
0.0
220
0.0
230
-1.0
 40
0.35
 41
1.570796326794896
 42
3.141592653589793
  0
LINE
  5
197
330
1A
100
AcDbEntity
  8
SEIHIN
100
AcDbLine
 10
569.7107386329462
 20
379.7151887597145
 30
0.0
 11
554.2107386329462
 21
379.7151887597145
 31
0.0
  0
LINE
  5
198
330
1A
100
AcDbEntity
  8
SEIHIN
100
AcDbLine
 10
567.7107386329462
 20
391.7151887597145
 30
0.0
 11
567.7107386329462
 21
385.7151887597144
 31
0.0
  0
LINE
  5
199
330
1A
100
AcDbEntity
  8
SEIHIN
100
AcDbLine
 10
569.7107386329462
 20
385.7151887597145
 30
0.0
 11
567.7107386329462
 21
385.7151887597145
 31
0.0
  0
LINE
  5
19A
330
1A
100
AcDbEntity
  8
SEIHIN
100
AcDbLine
 10
569.7107386329462
 20
387.7151887597145
 30
0.0
 11
581.7107386329462
 21
387.7151887597145
 31
0.0
  0
LINE
  5
19D
330
1A
100
AcDbEntity
  8
CENTER_L
100
AcDbLine
 10
219.7248179866255
 20
410.4585561349308
 30
0.0
 11
219.7248179866255
 21
74.71518875971447
 31
0.0
  0
LINE
  5
1A1
330
1A
100
AcDbEntity
  8
SEIHIN
100
AcDbLine
 10
188.7248179866255
 20
391.7151887597145
 30
0.0
 11
188.7248179866255
 21
156.7151887597145
 31
0.0
  0
LINE
  5
1A2
330
1A
100
AcDbEntity
  8
SEIHIN
100
AcDbLine
 10
251.2248179866255
 20
156.7151887597144
 30
0.0
 11
251.2248179866255
 21
106.7151887597144
 31
0.0
  0
LINE
  5
1A3
330
1A
100
AcDbEntity
  8
SEIHIN
100
AcDbLine
 10
188.2248179866255
 20
156.7151887597144
 30
0.0
 11
188.2248179866255
 21
106.7151887597144
 31
0.0
  0
LINE
  5
1A4
330
1A
100
AcDbEntity
  8
SEIHIN
100
AcDbLine
 10
188.2248179866255
 20
106.7151887597144
 30
0.0
 11
251.2248179866255
 21
106.7151887597144
 31
0.0
  0
LINE
  5
1A5
330
1A
100
AcDbEntity
  8
SEIHIN
100
AcDbLine
 10
191.2248179866255
 20
81.71518875971447
 30
0.0
 11
248.2248179866255
 21
81.71518875971447
 31
0.0
  0
LINE
  5
1A6
330
1A
100
AcDbEntity
  8
SEIHIN
100
AcDbLine
 10
191.2248179866255
 20
106.7151887597145
 30
0.0
 11
191.2248179866255
 21
81.71518875971447
 31
0.0
  0
LINE
  5
1A7
330
1A
100
AcDbEntity
  8
SEIHIN
100
AcDbLine
 10
248.2248179866255
 20
106.7151887597145
 30
0.0
 11
248.2248179866255
 21
81.71518875971447
 31
0.0
  0
LINE
  5
1A8
330
1A
100
AcDbEntity
  8
SEIHIN
100
AcDbLine
 10
188.2248179866255
 20
156.7151887597144
 30
0.0
 11
251.2248179866255
 21
156.7151887597144
 31
0.0
  0
LINE
  5
1C4
330
1A
100
AcDbEntity
  8
SEIHIN
100
AcDbLine
 10
188.7248179866255
 20
391.7151887597145
 30
0.0
 11
251.2248179866255
 21
391.7151887597145
 31
0.0
  0
LINE
  5
1C5
330
1A
100
AcDbEntity
  8
CENTER_L
100
AcDbLine
 10
213.7248179866255
 20
191.7151887597144
 30
0.0
 11
241.7248179866255
 21
191.7151887597144
 31
0.0
  0
LINE
  5
1C6
330
1A
100
AcDbEntity
  8
CENTER_L
100
AcDbLine
 10
227.7248179866255
 20
205.7151887597144
 30
0.0
 11
227.7248179866255
 21
177.7151887597144
 31
0.0
  0
LINE
  5
1CB
330
1A
100
AcDbEntity
  8
SEIHIN
  6
PHANTOM
 62
     2
100
AcDbLine
 10
396.3181787555197
 20
171.0458896352235
 30
0.0
 11
250.7248179866255
 21
194.5999307942262
 31
0.0
  0
LINE
  5
1CC
330
1A
100
AcDbEntity
  8
SEIHIN
  6
PHANTOM
 62
     2
100
AcDbLine
 10
412.5043403532253
 20
138.0372442111387
 30
0.0
 11
250.7248179866255
 21
164.2098767294261
 31
0.0
  0
LINE
  5
1CE
330
1A
100
AcDbEntity
  8
SEIHIN
  6
PHANTOM
 62
     2
100
AcDbLine
 10
411.2703840094807
 20
138.2368732213866
 30
0.0
 11
413.6659321324565
 21
153.0443493463212
 31
0.0
  0
ELLIPSE
  5
1DA
330
1A
100
AcDbEntity
  8
SEIHIN
  6
PHANTOM
 62
     2
100
AcDbEllipse
 10
393.9226306325438
 20
156.2384135102889
 30
0.0
 11
-19.74330149991281
 21
3.194064163967872
 31
0.0
210
0.0
220
0.0
230
0.9999999999999998
 40
0.7499999999999987
 41
3.141592653589801
 42
4.712388980384694
  0
LINE
  5
1DB
330
1A
100
AcDbEntity
  8
SEIHIN
  6
PHANTOM
 62
     2
100
AcDbLine
 10
397.348261402954
 20
127.320165744824
 30
0.0
 11
399.1049966931362
 21
138.1789815697759
 31
0.0
  0
LINE
  5
1DC
330
1A
100
AcDbEntity
  8
SEIHIN
  6
PHANTOM
 62
     2
100
AcDbLine
 10
361.8103187031112
 20
133.0694812399658
 30
0.0
 11
363.5670539932933
 21
143.9282970649179
 31
0.0
  0
LINE
  5
1DD
330
1A
100
AcDbEntity
  8
SEIHIN
  6
PHANTOM
 62
     2
100
AcDbLine
 10
353.9349580556345
 20
147.0060767593952
 30
0.0
 11
354.0148096597336
 21
147.499659296893
 31
0.0
  0
LINE
  5
1DE
330
1A
100
AcDbEntity
  8
SEIHIN
  6
PHANTOM
 62
     2
100
AcDbLine
 10
395.054524836566
 20
125.6652420112295
 30
0.0
 11
363.4652424367057
 21
130.7757446735777
 31
0.0
  0
LINE
  5
1DF
330
1A
100
AcDbEntity
  8
SEIHIN
  6
PHANTOM
 62
     2
100
AcDbLine
 10
412.424488749126
 20
137.5436616736408
 30
0.0
 11
400.8252991179272
 21
139.4201743699718
 31
0.0
  0
LINE
  5
1E0
330
1A
100
AcDbEntity
  8
SEIHIN
  6
PHANTOM
 62
     2
100
AcDbLine
 10
362.303901240609
 20
132.9896296358666
 30
0.0
 11
364.0606365307912
 21
143.8484454608187
 31
0.0
  0
LINE
  5
1E1
330
1A
100
AcDbEntity
  8
SEIHIN
  6
PHANTOM
 62
     2
100
AcDbLine
 10
395.1343764406652
 20
126.1588245487273
 30
0.0
 11
363.5450940408049
 21
131.2693272110756
 31
0.0
  0
LINE
  5
1E2
330
1A
100
AcDbEntity
  8
SEIHIN
  6
PHANTOM
 62
     2
100
AcDbLine
 10
396.8546788654562
 20
127.4000173489232
 30
0.0
 11
398.6114141556385
 21
138.2588331738752
 31
0.0
  0
ARC
  5
1E3
330
1A
100
AcDbEntity
  8
SEIHIN
  6
PHANTOM
 62
     2
100
AcDbCircle
 10
362.0863063807999
 20
144.1678518772155
 30
0.0
 40
2.0
100
AcDbArc
 50
350.8103302100645
 51
80.81033021006463
  0
ARC
  5
1E4
330
1A
100
AcDbEntity
  8
SEIHIN
  6
PHANTOM
 62
     2
100
AcDbCircle
 10
363.7846488531025
 20
132.750074823569
 30
0.0
 40
2.0
100
AcDbArc
 50
170.8103302100645
 51
260.8103302100646
  0
ARC
  5
1E5
330
1A
100
AcDbEntity
  8
SEIHIN
  6
PHANTOM
 62
     2
100
AcDbCircle
 10
395.3739312529627
 20
127.6395721612207
 30
0.0
 40
2.0
100
AcDbArc
 50
260.8103302100646
 51
350.8103302100645
  0
ARC
  5
1E9
330
1A
100
AcDbEntity
  8
SEIHIN
  6
PHANTOM
 62
     2
100
AcDbCircle
 10
400.5857443056298
 20
137.9394267574784
 30
0.0
 40
2.0
100
AcDbArc
 50
80.81033021006463
 51
170.8103302100643
  0
ARC
  5
1EA
330
1A
100
AcDbEntity
  8
SEIHIN
  6
PHANTOM
 62
     2
100
AcDbCircle
 10
400.5857443056297
 20
137.9394267574784
 30
0.0
 40
1.5
100
AcDbArc
 50
80.81033021006463
 51
170.8103302100645
  0
ARC
  5
1EB
330
1A
100
AcDbEntity
  8
SEIHIN
  6
PHANTOM
 62
     2
100
AcDbCircle
 10
363.7846488531025
 20
132.750074823569
 30
0.0
 40
1.5
100
AcDbArc
 50
170.8103302100644
 51
260.8103302100646
  0
ARC
  5
1EC
330
1A
100
AcDbEntity
  8
SEIHIN
  6
PHANTOM
 62
     2
100
AcDbCircle
 10
395.3739312529627
 20
127.6395721612208
 30
0.0
 40
1.5
100
AcDbArc
 50
260.8103302100646
 51
350.8103302100644
  0
LINE
  5
1ED
330
1A
100
AcDbEntity
  8
SEIHIN
  6
PHANTOM
 62
     2
100
AcDbLine
 10
353.9349580556345
 20
147.0060767593952
 30
0.0
 11
362.3258611930974
 21
145.6485994897089
 31
0.0
  0
ARC
  5
1EE
330
1A
100
AcDbEntity
  8
SEIHIN
  6
PHANTOM
 62
     2
100
AcDbCircle
 10
362.0863063807998
 20
144.1678518772154
 30
0.0
 40
1.5
100
AcDbArc
 50
350.8103302100647
 51
80.81033021006437
  0
ARC
  5
1F3
330
1A
100
AcDbEntity
  8
SEIHIN
  6
PHANTOM
 62
     2
100
AcDbCircle
 10
412.3047113429773
 20
136.8032878673942
 30
0.0
 40
1.25
100
AcDbArc
 50
133.9404325642277
 51
80.81033021006241
  0
ARC
  5
1F4
330
1A
100
AcDbEntity
  8
SEIHIN
  6
PHANTOM
 62
     2
100
AcDbCircle
 10
412.3047113429773
 20
136.8032878673942
 30
0.0
 40
0.75
100
AcDbArc
 50
125.9886034712617
 51
80.81033021006078
  0
LINE
  5
1F5
330
1A
100
AcDbEntity
  8
SEIHIN
  6
PHANTOM
 62
     2
100
AcDbLine
 10
411.8639931018048
 20
137.4101382871006
 30
0.0
 11
411.6794932677096
 21
137.6641867727242
 31
0.0
  0
LINE
  5
20F
330
1A
100
AcDbEntity
  8
SEIHIN
100
AcDbLine
 10
251.2248172792388
 20
384.6571150776119
 30
0.0
 11
251.2248180788034
 21
166.5733867942404
 31
0.0
  0
LINE
  5
210
330
1A
100
AcDbEntity
  8
SEIHIN
100
AcDbLine
 10
264.2248173296508
 20
370.9071151252739
 30
0.0
 11
253.2248173296508
 21
370.9071150849446
 31
0.0
  0
LINE
  5
211
330
1A
100
AcDbEntity
  8
SEIHIN
100
AcDbLine
 10
264.2248173278176
 20
371.4071151252741
 30
0.0
 11
253.2248173278177
 21
371.4071150849445
 31
0.0
  0
ARC
  5
212
330
1A
100
AcDbEntity
  8
SEIHIN
100
AcDbCircle
 10
253.2248173223181
 20
372.9071150849445
 30
0.0
 40
2.0
100
AcDbArc
 50
180.0000002100645
 51
270.0000002100642
  0
ELLIPSE
  5
213
330
1A
100
AcDbEntity
  8
SEIHIN
100
AcDbEllipse
 10
236.2248173571481
 20
363.4071150226171
 30
0.0
 11
0.0000000733263722
 21
-20.00000000000007
 31
0.0
210
0.0
220
0.0
230
1.0
 40
0.7499999999999987
 41
3.141592653589793
 42
4.712388980384689
  0
LINE
  5
214
330
1A
100
AcDbEntity
  8
SEIHIN
100
AcDbLine
 10
221.2248173571481
 20
363.4071149676224
 30
0.0
 11
221.224817957295
 21
199.7151887597145
 31
0.0
  0
LINE
  5
215
330
1A
100
AcDbEntity
  8
SEIHIN
100
AcDbLine
 10
265.7248173351502
 20
369.4071151307734
 30
0.0
 11
265.7248174524724
 21
337.4071151307737
 31
0.0
  0
LINE
  5
216
330
1A
100
AcDbEntity
  8
SEIHIN
100
AcDbLine
 10
266.2248173351503
 20
369.4071151326066
 30
0.0
 11
266.2248174524725
 21
337.4071151326067
 31
0.0
  0
LINE
  5
217
330
1A
100
AcDbEntity
  8
SEIHIN
100
AcDbLine
 10
264.2248174598051
 20
335.4071151252741
 30
0.0
 11
253.2248174598052
 21
335.4071150849443
 31
0.0
  0
LINE
  5
218
330
1A
100
AcDbEntity
  8
SEIHIN
100
AcDbLine
 10
264.2248174579719
 20
335.9071151252741
 30
0.0
 11
253.224817457972
 21
335.9071150849445
 31
0.0
  0
ARC
  5
219
330
1A
100
AcDbEntity
  8
SEIHIN
100
AcDbCircle
 10
264.2248174524723
 20
337.4071151252741
 30
0.0
 40
1.5
100
AcDbArc
 50
270.0000002100645
 51
0.0000002100646057
  0
ARC
  5
21A
330
1A
100
AcDbEntity
  8
SEIHIN
100
AcDbCircle
 10
264.2248174524723
 20
337.4071151252741
 30
0.0
 40
2.0
100
AcDbArc
 50
270.0000002100645
 51
0.0000002100646057
  0
LINE
  5
21B
330
1A
100
AcDbEntity
  8
SEIHIN
100
AcDbLine
 10
251.7248174964684
 20
325.4071150794451
 30
0.0
 11
251.7248174653047
 21
333.907115079445
 31
0.0
  0
ARC
  5
21C
330
1A
100
AcDbEntity
  8
SEIHIN
100
AcDbCircle
 10
253.2248174653045
 20
333.9071150849445
 30
0.0
 40
2.0
100
AcDbArc
 50
90.00000021006453
 51
180.0000002100645
  0
ARC
  5
21D
330
1A
100
AcDbEntity
  8
SEIHIN
100
AcDbCircle
 10
253.2248174653045
 20
333.9071150849444
 30
0.0
 40
1.5
100
AcDbArc
 50
90.00000021006476
 51
180.0000002100643
  0
LINE
  5
21E
330
1A
100
AcDbEntity
  8
SEIHIN
100
AcDbLine
 10
251.7248174964684
 20
325.4071150794451
 30
0.0
 11
251.2248174964684
 21
325.4071150776118
 31
0.0
  0
ARC
  5
21F
330
1A
100
AcDbEntity
  8
SEIHIN
100
AcDbCircle
 10
264.2248173351501
 20
369.4071151252739
 30
0.0
 40
1.5
100
AcDbArc
 50
0.0000002100646057
 51
90.00000021006453
  0
ARC
  5
220
330
1A
100
AcDbEntity
  8
SEIHIN
100
AcDbCircle
 10
264.2248173351501
 20
369.4071151252739
 30
0.0
 40
2.0
100
AcDbArc
 50
0.0000002100646057
 51
90.00000021006453
  0
LINE
  5
221
330
1A
100
AcDbEntity
  8
SEIHIN
100
AcDbLine
 10
251.2248172838218
 20
383.4071150776119
 30
0.0
 11
236.2248172838218
 21
383.407115022617
 31
0.0
  0
LINE
  5
222
330
1A
100
AcDbEntity
  8
SEIHIN
100
AcDbLine
 10
251.724817279239
 20
384.657115079445
 30
0.0
 11
251.7248173223182
 21
372.9071150794449
 31
0.0
  0
ARC
  5
223
330
1A
100
AcDbEntity
  8
SEIHIN
100
AcDbCircle
 10
253.2248173223181
 20
372.9071150849444
 30
0.0
 40
1.5
100
AcDbArc
 50
180.0000002100645
 51
270.0000002100645
  0
LINE
  5
224
330
1A
100
AcDbEntity
  8
SEIHIN
100
AcDbLine
 10
251.9461398581354
 20
384.1251374657339
 30
0.0
 11
251.7248172820059
 21
383.9024333141691
 31
0.0
  0
ARC
  5
225
330
1A
100
AcDbEntity
  8
SEIHIN
100
AcDbCircle
 10
252.4748172792387
 20
384.6571150821947
 30
0.0
 40
1.25
100
AcDbArc
 50
233.1301025642277
 51
180.0000002100624
  0
ARC
  5
226
330
1A
100
AcDbEntity
  8
SEIHIN
100
AcDbCircle
 10
252.4748172792387
 20
384.6571150821947
 30
0.0
 40
0.75
100
AcDbArc
 50
225.1782734712616
 51
180.0000002100608
  0
LINE
  5
227
330
1A
100
AcDbEntity
  8
SEIHIN
100
AcDbLine
 10
221.2248179572951
 20
199.7151887597145
 30
0.0
 11
234.7248179866255
 21
199.7151887597145
 31
0.0
  0
CIRCLE
  5
22A
330
1A
100
AcDbEntity
  8
SEIHIN
100
AcDbCircle
 10
227.7248179866255
 20
191.7151887597144
 30
0.0
 40
2.5
  0
LINE
  5
22B
330
1A
100
AcDbEntity
  8
SEIHIN
100
AcDbLine
 10
219.7248179866255
 20
196.7151887597145
 30
0.0
 11
232.7248179866256
 21
196.7151887597145
 31
0.0
  0
LINE
  5
22C
330
1A
100
AcDbEntity
  8
SEIHIN
100
AcDbLine
 10
232.7248179866255
 20
196.7151887597144
 30
0.0
 11
232.7248179866256
 21
181.3672387652674
 31
0.0
  0
LINE
  5
231
330
1A
100
AcDbEntity
  8
SEIHIN
100
AcDbLine
 10
234.7248179866255
 20
199.7151887597145
 30
0.0
 11
234.7248179866257
 21
181.7151887597142
 31
0.0
  0
ARC
  5
232
330
1A
100
AcDbEntity
  8
SEIHIN
100
AcDbCircle
 10
257.6313383858499
 20
190.1154771855539
 30
0.0
 40
24.39822785444421
100
AcDbArc
 50
200.1390174403416
 51
254.7767126802947
  0
ARC
  5
233
330
1A
100
AcDbEntity
  8
SEIHIN
100
AcDbCircle
 10
257.6313383858499
 20
190.1154771855539
 30
0.0
 40
26.39822785444421
100
AcDbArc
 50
200.1390174403416
 51
254.8333052565989
  0
LINE
  5
235
330
1A
100
AcDbEntity
  8
SEIHIN
100
AcDbLine
 10
221.2248179467928
 20
202.5796911484655
 30
0.0
 11
219.7248179866255
 21
202.5796911484655
 31
0.0
  0
LINE
  5
236
330
1A
100
AcDbEntity
  8
SEIHIN
100
AcDbLine
 10
219.7248179866255
 20
202.5796911484655
 30
0.0
 11
219.7248179866255
 21
196.7151887597145
 31
0.0
  0
LINE
  5
237
330
1A
100
AcDbEntity
  8
SEIHIN
100
AcDbLine
 10
250.7248179866255
 20
164.6367329105656
 30
0.0
 11
250.7248179866255
 21
156.7151887597145
 31
0.0
  0
LINE
  5
238
330
1A
100
AcDbEntity
  8
SEIHIN
100
AcDbLine
 10
252.3003298872882
 20
386.2630815483789
 30
0.0
 11
251.1737927705264
 21
385.4576038114558
 31
0.0
  0
LINE
  5
23C
330
1A
100
AcDbEntity
  8
SEIHIN
100
AcDbLine
 10
252.6493046711892
 20
386.2630815483789
 30
0.0
 11
253.636956268052
 21
385.5569074109164
 31
0.0
  0
LINE
  5
23D
330
1A
100
AcDbEntity
  8
SEIHIN
100
AcDbLine
 10
256.2102093670483
 20
386.8977555891397
 30
0.0
 11
254.3349058358537
 21
385.5569074109164
 31
0.0
  0
LINE
  5
23E
330
1A
100
AcDbEntity
  8
SEIHIN
100
AcDbLine
 10
251.2248179866255
 20
391.7151887597145
 30
0.0
 11
251.2248179866255
 21
386.692044654671
 31
0.0
  0
LINE
  5
23F
330
1A
100
AcDbEntity
  8
SEIHIN
100
AcDbLine
 10
250.2248179866255
 20
391.7151887597145
 30
0.0
 11
250.2248179866255
 21
385.9456781912396
 31
0.0
  0
LINE
  5
240
330
1A
100
AcDbEntity
  8
SEIHIN
100
AcDbLine
 10
252.1258424989706
 20
386.7529829035917
 30
0.0
 11
251.699305378576
 21
386.4480074647792
 31
0.0
  0
LINE
  5
241
330
1A
100
AcDbEntity
  8
SEIHIN
100
AcDbLine
 10
252.8237920667724
 20
386.7529829035917
 30
0.0
 11
253.8114436645207
 21
386.0468087661292
 31
0.0
  0
LINE
  5
242
330
1A
100
AcDbEntity
  8
SEIHIN
100
AcDbLine
 10
255.7803788838161
 20
387.2050857957907
 30
0.0
 11
254.1604184484217
 21
386.0468087661292
 31
0.0
  0
LINE
  5
243
330
1A
100
AcDbEntity
  8
SEIHIN
100
AcDbLine
 10
255.7803788838161
 20
387.2050857957907
 30
0.0
 11
256.2102093670483
 21
386.8977555891398
 31
0.0
  0
ARC
  5
244
330
1A
100
AcDbEntity
  8
SEIHIN
100
AcDbCircle
 10
253.9859310564712
 20
386.2908459560211
 30
0.0
 40
0.3
100
AcDbArc
 50
234.4351075366754
 51
305.5648924633245
  0
ARC
  5
245
330
1A
100
AcDbEntity
  8
SEIHIN
100
AcDbCircle
 10
252.4748172792387
 20
386.019044358487
 30
0.0
 40
0.3
100
AcDbArc
 50
54.43510753667545
 51
125.5648924633245
  0
ARC
  5
246
330
1A
100
AcDbEntity
  8
SEIHIN
100
AcDbCircle
 10
251.5248179866255
 20
386.692044654671
 30
0.0
 40
0.3
100
AcDbArc
 50
180.0
 51
305.5648924633245
  0
ARC
  5
247
330
1A
100
AcDbEntity
  8
SEIHIN
100
AcDbCircle
 10
250.8248179866256
 20
385.9456781912396
 30
0.0
 40
0.6
100
AcDbArc
 50
180.0
 51
305.5648924633244
  0
ARC
  5
248
330
1A
100
AcDbEntity
  8
SEIHIN
100
AcDbCircle
 10
252.4748172828715
 20
386.2649085238079
 30
0.0
 40
0.6
100
AcDbArc
 50
54.43510753667655
 51
125.5648924633242
  0
ARC
  5
249
330
1A
100
AcDbEntity
  8
SEIHIN
100
AcDbCircle
 10
253.9859310519529
 20
386.0449817907002
 30
0.0
 40
0.6
100
AcDbArc
 50
234.4351075366755
 51
305.5648924633246
  0
LINE
  5
24A
330
1A
100
AcDbEntity
  8
SEIHIN
100
AcDbLine
 10
250.7248179866255
 20
385.3540702129297
 30
0.0
 11
250.7248179866255
 21
383.4071150757787
 31
0.0
  0
CIRCLE
  5
24B
330
1A
100
AcDbEntity
  8
SEIHIN
100
AcDbCircle
 10
575.7107386329462
 20
508.6344323855591
 30
0.0
 40
24.0
  0
LINE
  5
24D
330
1A
100
AcDbEntity
  8
SEIHIN
100
AcDbLine
 10
569.7107386329462
 20
458.134432385559
 30
0.0
 11
581.7107386329462
 21
458.1344323855593
 31
0.0
  0
LINE
  5
24F
330
1A
100
AcDbEntity
  8
SEIHIN
100
AcDbLine
 10
581.7107386329462
 20
458.1344323855593
 30
0.0
 11
581.7107386329462
 21
476.1844709063833
 31
0.0
  0
LINE
  5
250
330
1A
100
AcDbEntity
  8
SEIHIN
100
AcDbLine
 10
583.7107386329462
 20
477.1344323855592
 30
0.0
 11
583.7107386329462
 21
476.6188111983949
 31
0.0
  0
ARC
  5
251
330
1A
100
AcDbEntity
  8
SEIHIN
100
AcDbCircle
 10
575.7107386329462
 20
508.6344323855591
 30
0.0
 40
33.0
100
AcDbArc
 50
208.7266053481407
 51
284.0296654012888
  0
LINE
  5
253
330
1A
100
AcDbEntity
  8
SEIHIN
100
AcDbLine
 10
567.7107386329462
 20
477.1344323855592
 30
0.0
 11
567.7107386329462
 21
476.6188111983949
 31
0.0
  0
LINE
  5
254
330
1A
100
AcDbEntity
  8
SEIHIN
100
AcDbLine
 10
569.7107386329462
 20
458.1344323855593
 30
0.0
 11
569.7107386329462
 21
476.1844709063833
 31
0.0
  0
LINE
  5
265
330
1A
100
AcDbEntity
  8
SEIHIN
100
AcDbLine
 10
569.7107386329462
 20
470.6344323855591
 30
0.0
 11
581.7107386329462
 21
470.6344323855591
 31
0.0
  0
LINE
  5
267
330
1A
100
AcDbEntity
  8
SEIHIN
100
AcDbLine
 10
569.7107386329462
 20
471.9342636078904
 30
0.0
 11
581.7107386329462
 21
471.9342636078904
 31
0.0
  0
LINE
  5
268
330
1A
100
AcDbEntity
  8
SEIHIN
100
AcDbLine
 10
569.7107386329462
 20
473.8117974511316
 30
0.0
 11
581.7107386329462
 21
473.8117974511317
 31
0.0
  0
DIMENSION
  5
26A
330
1A
100
AcDbEntity
  8
SUNPOU
100
AcDbDimension
  2
*D1
 10
456.4119075136882
 20
81.71518875971448
 30
0.0
 11
451.4119075136882
 21
236.7151887597145
 31
0.0
 70
    32
  3
STANDARD
100
AcDbAlignedDimension
 13
544.7107386329462
 23
391.7151887597145
 33
0.0
 14
547.2107386329462
 24
81.71518875971447
 34
0.0
 50
90.0
100
AcDbRotatedDimension
1001
ACAD
1000
DSTYLE
1002
{
1070
    41
1040
3.0
1070
    42
1040
6.0
1070
    43
1040
14.0
1070
    44
1040
3.0
1070
    73
1070
     0
1070
    74
1070
     0
1070
    77
1070
     3
1070
   140
1040
6.0
1070
   141
1040
10.0
1070
   147
1040
2.0
1070
   172
1070
     1
1070
   173
1070
     1
1070
   176
1070
   256
1070
   177
1070
   256
1070
   178
1070
   256
1070
   271
1070
     0
1070
   272
1070
     0
1070
   341
1005
6D
1070
     6
1000
OPEN
1070
     7
1000
OPEN
1002
}
  0
DIMENSION
  5
277
330
1A
100
AcDbEntity
  8
SUNPOU
100
AcDbDimension
  2
*D2
 10
477.261196565008
 20
106.7151887597145
 30
0.0
 11
472.261196565008
 21
249.2151887597146
 31
0.0
 70
    32
  3
STANDARD
100
AcDbAlignedDimension
 13
544.7107386329462
 23
391.7151887597145
 33
0.0
 14
544.2107386329462
 24
106.7151887597144
 34
0.0
 50
90.0
100
AcDbRotatedDimension
1001
ACAD
1000
DSTYLE
1002
{
1070
    41
1040
3.0
1070
    42
1040
6.0
1070
    43
1040
14.0
1070
    44
1040
3.0
1070
    73
1070
     0
1070
    74
1070
     0
1070
    77
1070
     3
1070
   140
1040
6.0
1070
   141
1040
10.0
1070
   147
1040
2.0
1070
   172
1070
     1
1070
   173
1070
     1
1070
   176
1070
   256
1070
   177
1070
   256
1070
   178
1070
   256
1070
   271
1070
     0
1070
   272
1070
     0
1070
   341
1005
6D
1070
     6
1000
OPEN
1070
     7
1000
OPEN
1002
}
  0
DIMENSION
  5
284
330
1A
100
AcDbEntity
  8
SUNPOU
100
AcDbDimension
  2
*D3
 10
219.7248179866255
 20
74.71518875971447
 30
0.0
 11
299.0269214489383
 21
236.7287536527893
 31
0.0
 70
    34
  3
STANDARD
100
AcDb2LineAngularDimension
 13
412.5043403532253
 23
138.0372442111387
 33
0.0
 14
250.7248179866255
 24
164.2098767294261
 34
0.0
 15
219.7248179866255
 25
410.4585561349308
 35
0.0
 16
310.3843933011791
 26
209.3497855552664
 36
0.0
1001
ACAD
1000
DSTYLE
1002
{
1070
   271
1070
     0
1070
   271
1070
     0
1070
   271
1070
     0
1070
   271
1070
     0
1070
    41
1040
3.0
1070
    42
1040
6.0
1070
    43
1040
14.0
1070
    44
1040
3.0
1070
    73
1070
     0
1070
    74
1070
     0
1070
    77
1070
     3
1070
   140
1040
6.0
1070
   141
1040
10.0
1070
   147
1040
2.0
1070
   172
1070
     1
1070
   173
1070
     1
1070
   176
1070
   256
1070
   177
1070
   256
1070
   178
1070
   256
1070
   271
1070
     0
1070
   272
1070
     0
1070
   341
1005
6D
1070
     6
1000
OPEN
1070
     7
1000
OPEN
1002
}
  0
DIMENSION
  5
291
330
1A
100
AcDbEntity
  8
SUNPOU
100
AcDbDimension
  2
*D4
 10
606.7107386329462
 20
417.5183257388227
 30
0.0
 11
575.7107386329462
 21
422.5183257388228
 31
0.0
 70
    32
  1
φ<>
  3
STANDARD
100
AcDbAlignedDimension
 13
544.7107386329462
 23
391.7151887597145
 33
0.0
 14
606.7107386329462
 24
391.7151887597145
 34
0.0
100
AcDbRotatedDimension
1001
ACAD
1000
DSTYLE
1002
{
1070
    41
1040
3.0
1070
    42
1040
6.0
1070
    43
1040
14.0
1070
    44
1040
3.0
1070
    73
1070
     0
1070
    74
1070
     0
1070
    77
1070
     3
1070
   140
1040
6.0
1070
   141
1040
10.0
1070
   147
1040
2.0
1070
   172
1070
     1
1070
   173
1070
     1
1070
   176
1070
   256
1070
   177
1070
   256
1070
   178
1070
   256
1070
   271
1070
     0
1070
   272
1070
     0
1070
   341
1005
6D
1070
     6
1000
OPEN
1070
     7
1000
OPEN
1002
}
  0
DIMENSION
  5
29E
330
1A
100
AcDbEntity
  8
SUNPOU
100
AcDbDimension
  2
*D5
 10
604.2107386329462
 20
52.26189179631774
 30
0.0
 11
575.7107386329462
 21
57.26189179631774
 31
0.0
 70
    32
  1
φ<>
  3
STANDARD
100
AcDbAlignedDimension
 13
547.2107386329462
 23
81.71518875971447
 33
0.0
 14
604.2107386329462
 24
81.71518875971447
 34
0.0
100
AcDbRotatedDimension
1001
ACAD
1000
DSTYLE
1002
{
1070
    41
1040
3.0
1070
    42
1040
6.0
1070
    43
1040
14.0
1070
    44
1040
3.0
1070
    73
1070
     0
1070
    74
1070
     0
1070
    77
1070
     3
1070
   140
1040
6.0
1070
   141
1040
10.0
1070
   147
1040
2.0
1070
   172
1070
     1
1070
   173
1070
     1
1070
   176
1070
   256
1070
   177
1070
   256
1070
   178
1070
   256
1070
   271
1070
     0
1070
   272
1070
     0
1070
   341
1005
6D
1070
     6
1000
OPEN
1070
     7
1000
OPEN
1002
}
  0
DIMENSION
  5
2BD
330
1A
100
AcDbEntity
  8
SUNPOU
100
AcDbDimension
  2
*D6
 10
411.2703840094807
 20
284.3910655235879
 30
0.0
 11
331.2476010441421
 21
289.3910655235879
 31
0.0
 70
    32
  3
STANDARD
100
AcDbAlignedDimension
 13
251.2248180788034
 23
166.5733867942404
 33
0.0
 14
411.2703840094807
 24
138.2368732213867
 34
0.0
100
AcDbRotatedDimension
1001
ACAD
1000
DSTYLE
1002
{
1070
    41
1040
3.0
1070
    42
1040
6.0
1070
    43
1040
14.0
1070
    44
1040
3.0
1070
    73
1070
     0
1070
    74
1070
     0
1070
    77
1070
     3
1070
   140
1040
6.0
1070
   141
1040
10.0
1070
   147
1040
2.0
1070
   172
1070
     1
1070
   173
1070
     1
1070
   176
1070
   256
1070
   177
1070
   256
1070
   178
1070
   256
1070
   271
1070
     0
1070
   272
1070
     0
1070
   341
1005
6D
1070
     6
1000
OPEN
1070
     7
1000
OPEN
1002
}
  0
TEXT
  5
2DD
330
1A
100
AcDbEntity
  8
ZUWAKU
 48
5.0
100
AcDbText
 10
654.7619847559976
 20
15.6519090944263
 30
0.0
 40
8.0
  1
ＧＳ２１
100
AcDbText
  0
TEXT
  5
2DE
330
1A
100
AcDbEntity
  8
ZUWAKU
 48
5.0
100
AcDbText
 10
50.56426265762684
 20
15.52294263804401
 30
0.0
 40
8.0
  1
丸トップ　たてとい
100
AcDbText
  0
LINE
  5
2DF
330
1A
100
AcDbEntity
  8
SEIHIN
100
AcDbLine
 10
250.2248179866255
 20
165.8511328681363
 30
0.0
 11
250.2248179866255
 21
164.7775631153108
 31
0.0
  0
LINE
  5
2E1
330
1A
100
AcDbEntity
  8
SEIHIN
100
AcDbLine
 10
251.2248180788033
 20
166.5733867942404
 30
0.0
 11
250.2248179866255
 21
165.8511328681363
 31
0.0
  0
VIEWPORT
  5
22
330
17
100
AcDbEntity
 67
     1
  8
0
100
AcDbViewport
 10
313.6808219178082
 20
148.5
 30
0.0
 40
627.3616438356165
 41
297.0
 68
     2
 69
     1
1001
ACAD
1000
MVIEW
1002
{
1070
    16
1010
0.0
1020
0.0
1030
0.0
1010
0.0
1020
0.0
1030
1.0
1040
0.0
1040
297.0
1040
313.6808219178082
1040
148.5
1040
50.0
1040
0.0
1040
0.0
1070
     0
1070
   100
1070
     1
1070
     0
1070
     0
1070
     0
1070
     0
1070
     0
1040
0.0
1040
0.0
1040
0.0
1040
1.0
1040
1.0
1040
10.0
1040
10.0
1070
     0
1002
{
1002
}
1002
}
  0
VIEWPORT
  5
64
330
17
100
AcDbEntity
 67
     1
  8
VIEWPORT
100
AcDbViewport
 10
210.0
 20
148.5
 30
0.0
 40
420.0
 41
297.0
 68
     1
 69
     2
1001
ACAD
1000
MVIEW
1002
{
1070
    16
1010
0.0
1020
0.0
1030
0.0
1010
0.0
1020
0.0
1030
1.0
1040
0.0
1040
605.8799999999998
1040
420.0
1040
297.0
1040
50.0
1040
0.0
1040
0.0
1070
     0
1070
   100
1070
     1
1070
     0
1070
     0
1070
     0
1070
     0
1070
     0
1040
0.0
1040
0.0
1040
0.0
1040
10.0
1040
10.0
1040
0.0
1040
0.0
1070
     0
1002
{
1002
}
1002
}
  0
ENDSEC
  0
SECTION
  2
OBJECTS
  0
DICTIONARY
  5
C
330
0
100
AcDbDictionary
  3
ACAD_GROUP
350
D
  3
ACAD_LAYOUT
350
14C
  3
ACAD_MLINESTYLE
350
E
  3
ACAD_PLOTSETTINGS
350
14D
1001
ACAD
1000
TREAT_AS_HARD
1070
     0
  0
DICTIONARY
  5
30A
330
1A
100
AcDbDictionary
  3
ACAD_LAYOUTSELFREF
350
3C8
1001
ACAD
1000
TREAT_AS_HARD
1070
     1
  0
DICTIONARY
  5
308
330
17
100
AcDbDictionary
  3
ACAD_LAYOUTSELFREF
350
3C7
1001
ACAD
1000
TREAT_AS_HARD
1070
     1
  0
DICTIONARY
  5
D
102
{ACAD_REACTORS
330
C
102
}
330
C
100
AcDbDictionary
1001
ACAD
1000
TREAT_AS_HARD
1070
     0
  0
DICTIONARY
  5
14C
102
{ACAD_REACTORS
330
C
102
}
330
C
100
AcDbDictionary
1001
ACAD
1000
TREAT_AS_HARD
1070
     0
  0
DICTIONARY
  5
E
102
{ACAD_REACTORS
330
C
102
}
330
C
100
AcDbDictionary
  3
STANDARD
350
13
1001
ACAD
1000
TREAT_AS_HARD
1070
     0
  0
DICTIONARY
  5
14D
102
{ACAD_REACTORS
330
C
102
}
330
C
100
AcDbDictionary
1001
ACAD
1000
TREAT_AS_HARD
1070
     0
  0
XRECORD
  5
3C8
102
{ACAD_REACTORS
330
30A
102
}
330
30A
100
AcDbXrecord
340
1A
  0
XRECORD
  5
3C7
102
{ACAD_REACTORS
330
308
102
}
330
308
100
AcDbXrecord
340
17
  0
MLINESTYLE
  5
13
102
{ACAD_REACTORS
330
E
102
}
330
E
100
AcDbMlineStyle
  2
STANDARD
 70
     0
  3

 62
     0
 51
90.0
 52
90.0
 71
     2
 49
0.5
 62
   256
  6
BYLAYER
 49
-0.5
 62
   256
  6
BYLAYER
  0
ENDSEC
  0
EOF
