  0
SECTION
  2
HEADER
  9
$ACADVER
  1
AC1015
  9
$ACADMAINTVER
 70
     6
  9
$DWGCODEPAGE
  3
ANSI_932
  9
$INSBASE
 10
0.0
 20
0.0
 30
0.0
  9
$EXTMIN
 10
0.0000000135560185
 20
-0.0000001317113174
 30
0.0
  9
$EXTMAX
 10
797.6000000135562
 20
551.5999998682888
 30
0.0
  9
$LIMMIN
 10
0.0
 20
0.0
  9
$LIMMAX
 10
840.0
 20
594.0
  9
$ORTHOMODE
 70
     0
  9
$REGENMODE
 70
     1
  9
$FILLMODE
 70
     1
  9
$QTEXTMODE
 70
     0
  9
$MIRRTEXT
 70
     1
  9
$LTSCALE
 40
2.0
  9
$ATTMODE
 70
     1
  9
$TEXTSIZE
 40
5.0
  9
$TRACEWID
 40
1.0
  9
$TEXTSTYLE
  7
STANDARD
  9
$CLAYER
  8
ZUWAKU
  9
$CELTYPE
  6
BYLAYER
  9
$CECOLOR
 62
   256
  9
$CELTSCALE
 40
1.0
  9
$DISPSILH
 70
     0
  9
$DIMSCALE
 40
1.0
  9
$DIMASZ
 40
7.0
  9
$DIMEXO
 40
6.0
  9
$DIMDLI
 40
14.0
  9
$DIMRND
 40
0.0
  9
$DIMDLE
 40
0.0
  9
$DIMEXE
 40
3.0
  9
$DIMTP
 40
0.0
  9
$DIMTM
 40
0.0
  9
$DIMTXT
 40
6.0
  9
$DIMCEN
 40
150.0
  9
$DIMTSZ
 40
0.0
  9
$DIMTOL
 70
     0
  9
$DIMLIM
 70
     0
  9
$DIMTIH
 70
     0
  9
$DIMTOH
 70
     0
  9
$DIMSE1
 70
     0
  9
$DIMSE2
 70
     0
  9
$DIMTAD
 70
     3
  9
$DIMZIN
 70
     0
  9
$DIMBLK
  1

  9
$DIMASO
 70
     1
  9
$DIMSHO
 70
     1
  9
$DIMPOST
  1

  9
$DIMAPOST
  1

  9
$DIMALT
 70
     0
  9
$DIMALTD
 70
     2
  9
$DIMALTF
 40
25.4
  9
$DIMLFAC
 40
1.0
  9
$DIMTOFL
 70
     1
  9
$DIMTVP
 40
0.0
  9
$DIMTIX
 70
     0
  9
$DIMSOXD
 70
     0
  9
$DIMSAH
 70
     1
  9
$DIMBLK1
  1
OPEN
  9
$DIMBLK2
  1
OPEN
  9
$DIMSTYLE
  2
STANDARD
  9
$DIMCLRD
 70
   256
  9
$DIMCLRE
 70
   256
  9
$DIMCLRT
 70
   256
  9
$DIMTFAC
 40
1.0
  9
$DIMGAP
 40
2.0
  9
$DIMJUST
 70
     0
  9
$DIMSD1
 70
     0
  9
$DIMSD2
 70
     0
  9
$DIMTOLJ
 70
     1
  9
$DIMTZIN
 70
     0
  9
$DIMALTZ
 70
     0
  9
$DIMALTTZ
 70
     0
  9
$DIMUPT
 70
     0
  9
$DIMDEC
 70
     0
  9
$DIMTDEC
 70
     0
  9
$DIMALTU
 70
     2
  9
$DIMALTTD
 70
     2
  9
$DIMTXSTY
  7
STANDARD
  9
$DIMAUNIT
 70
     0
  9
$DIMADEC
 70
     0
  9
$DIMALTRND
 40
0.0
  9
$DIMAZIN
 70
     0
  9
$DIMDSEP
 70
    46
  9
$DIMATFIT
 70
     3
  9
$DIMFRAC
 70
     0
  9
$DIMLDRBLK
  1
OPEN
  9
$DIMLUNIT
 70
     2
  9
$DIMLWD
 70
    -1
  9
$DIMLWE
 70
    -1
  9
$DIMTMOVE
 70
     0
  9
$LUNITS
 70
     2
  9
$LUPREC
 70
     4
  9
$SKETCHINC
 40
1.0
  9
$FILLETRAD
 40
2.0
  9
$AUNITS
 70
     0
  9
$AUPREC
 70
     0
  9
$MENU
  1
.
  9
$ELEVATION
 40
0.0
  9
$PELEVATION
 40
0.0
  9
$THICKNESS
 40
0.0
  9
$LIMCHECK
 70
     0
  9
$CHAMFERA
 40
20.0
  9
$CHAMFERB
 40
20.0
  9
$CHAMFERC
 40
40.0
  9
$CHAMFERD
 40
0.0
  9
$SKPOLY
 70
     0
  9
$TDCREATE
 40
2451212.496837384
  9
$TDUCREATE
 40
2451212.121837384
  9
$TDUPDATE
 40
2455609.39758125
  9
$TDUUPDATE
 40
2455609.02258125
  9
$TDINDWG
 40
0.1037620486
  9
$TDUSRTIMER
 40
0.1037620486
  9
$USRTIMER
 70
     1
  9
$ANGBASE
 50
0.0
  9
$ANGDIR
 70
     0
  9
$PDMODE
 70
     0
  9
$PDSIZE
 40
0.0
  9
$PLINEWID
 40
0.0
  9
$SPLFRAME
 70
     0
  9
$SPLINETYPE
 70
     6
  9
$SPLINESEGS
 70
     8
  9
$HANDSEED
  5
1BB0
  9
$SURFTAB1
 70
     6
  9
$SURFTAB2
 70
     6
  9
$SURFTYPE
 70
     6
  9
$SURFU
 70
     6
  9
$SURFV
 70
     6
  9
$UCSBASE
  2

  9
$UCSNAME
  2

  9
$UCSORG
 10
0.0
 20
0.0
 30
0.0
  9
$UCSXDIR
 10
1.0
 20
0.0
 30
0.0
  9
$UCSYDIR
 10
0.0
 20
1.0
 30
0.0
  9
$UCSORTHOREF
  2

  9
$UCSORTHOVIEW
 70
     0
  9
$UCSORGTOP
 10
0.0
 20
0.0
 30
0.0
  9
$UCSORGBOTTOM
 10
0.0
 20
0.0
 30
0.0
  9
$UCSORGLEFT
 10
0.0
 20
0.0
 30
0.0
  9
$UCSORGRIGHT
 10
0.0
 20
0.0
 30
0.0
  9
$UCSORGFRONT
 10
0.0
 20
0.0
 30
0.0
  9
$UCSORGBACK
 10
0.0
 20
0.0
 30
0.0
  9
$PUCSBASE
  2

  9
$PUCSNAME
  2

  9
$PUCSORG
 10
0.0
 20
0.0
 30
0.0
  9
$PUCSXDIR
 10
1.0
 20
0.0
 30
0.0
  9
$PUCSYDIR
 10
0.0
 20
1.0
 30
0.0
  9
$PUCSORTHOREF
  2

  9
$PUCSORTHOVIEW
 70
     0
  9
$PUCSORGTOP
 10
0.0
 20
0.0
 30
0.0
  9
$PUCSORGBOTTOM
 10
0.0
 20
0.0
 30
0.0
  9
$PUCSORGLEFT
 10
0.0
 20
0.0
 30
0.0
  9
$PUCSORGRIGHT
 10
0.0
 20
0.0
 30
0.0
  9
$PUCSORGFRONT
 10
0.0
 20
0.0
 30
0.0
  9
$PUCSORGBACK
 10
0.0
 20
0.0
 30
0.0
  9
$USERI1
 70
     0
  9
$USERI2
 70
     0
  9
$USERI3
 70
     0
  9
$USERI4
 70
     0
  9
$USERI5
 70
     0
  9
$USERR1
 40
0.0
  9
$USERR2
 40
0.0
  9
$USERR3
 40
0.0
  9
$USERR4
 40
0.0
  9
$USERR5
 40
0.0
  9
$WORLDVIEW
 70
     1
  9
$SHADEDGE
 70
     3
  9
$SHADEDIF
 70
    70
  9
$TILEMODE
 70
     1
  9
$MAXACTVP
 70
    16
  9
$PINSBASE
 10
0.0
 20
0.0
 30
0.0
  9
$PLIMCHECK
 70
     0
  9
$PEXTMIN
 10
0.0
 20
0.0
 30
0.0
  9
$PEXTMAX
 10
420.0
 20
297.0
 30
0.0
  9
$PLIMMIN
 10
0.0
 20
0.0
  9
$PLIMMAX
 10
420.0
 20
297.0
  9
$UNITMODE
 70
     0
  9
$VISRETAIN
 70
     0
  9
$PLINEGEN
 70
     0
  9
$PSLTSCALE
 70
     1
  9
$TREEDEPTH
 70
  3020
  9
$CMLSTYLE
  2
STANDARD
  9
$CMLJUST
 70
     0
  9
$CMLSCALE
 40
1.0
  9
$PROXYGRAPHICS
 70
     1
  9
$MEASUREMENT
 70
     1
  9
$CELWEIGHT
370
    -1
  9
$ENDCAPS
280
     0
  9
$JOINSTYLE
280
     0
  9
$LWDISPLAY
290
     0
  9
$INSUNITS
 70
     0
  9
$HYPERLINKBASE
  1

  9
$STYLESHEET
  1
systemprinter.ctb
  9
$XEDIT
290
     1
  9
$CEPSNTYPE
380
     0
  9
$PSTYLEMODE
290
     1
  9
$FINGERPRINTGUID
  2
{6B84EFAC-A936-11D5-932D-0050DA99388B}
  9
$VERSIONGUID
  2
{897D90F9-1642-4426-B4D0-CA4657E1125B}
  9
$EXTNAMES
290
     1
  9
$PSVPSCALE
 40
0.0
  9
$OLESTARTUP
290
     0
  0
ENDSEC
  0
SECTION
  2
CLASSES
  0
CLASS
  1
ACDBDICTIONARYWDFLT
  2
AcDbDictionaryWithDefault
  3
ObjectDBX Classes
 90
        0
280
     0
281
     0
  0
CLASS
  1
ACDBPLACEHOLDER
  2
AcDbPlaceHolder
  3
ObjectDBX Classes
 90
        0
280
     0
281
     0
  0
CLASS
  1
LAYOUT
  2
AcDbLayout
  3
ObjectDBX Classes
 90
        0
280
     0
281
     0
  0
CLASS
  1
DUMMY
  2
AcDbLongTransaction
  3
DUMMY
 90
        0
280
     0
281
     0
  0
CLASS
  1
LWPOLYLINE
  2
AcDbPolyline
  3
AutoCAD 2000
 90
        0
280
     0
281
     1
  0
CLASS
  1
HATCH
  2
AcDbHatch
  3
AutoCAD 2000
 90
        0
280
     0
281
     1
  0
CLASS
  1
XRECORD
  2
AcDbXrecord
  3
AutoCAD 2000
 90
        0
280
     0
281
     0
  0
CLASS
  1
DUMMY
  2
AcDbLongTransaction
  3
DUMMY
 90
        0
280
     0
281
     0
  0
CLASS
  1
LWPOLYLINE
  2
AcDbPolyline
  3
AutoCAD 2000
 90
        0
280
     0
281
     1
  0
CLASS
  1
HATCH
  2
AcDbHatch
  3
AutoCAD 2000
 90
        0
280
     0
281
     1
  0
CLASS
  1
XRECORD
  2
AcDbXrecord
  3
AutoCAD 2000
 90
        0
280
     0
281
     0
  0
CLASS
  1
DUMMY
  2
AcDbLongTransaction
  3
DUMMY
 90
        0
280
     0
281
     0
  0
CLASS
  1
LWPOLYLINE
  2
AcDbPolyline
  3
AutoCAD 2000
 90
        0
280
     0
281
     1
  0
CLASS
  1
HATCH
  2
AcDbHatch
  3
AutoCAD 2000
 90
        0
280
     0
281
     1
  0
CLASS
  1
XRECORD
  2
AcDbXrecord
  3
AutoCAD 2000
 90
        0
280
     0
281
     0
  0
CLASS
  1
DUMMY
  2
AcDbLongTransaction
  3
DUMMY
 90
        0
280
     0
281
     0
  0
CLASS
  1
LWPOLYLINE
  2
AcDbPolyline
  3
AutoCAD 2000
 90
        0
280
     0
281
     1
  0
CLASS
  1
HATCH
  2
AcDbHatch
  3
AutoCAD 2000
 90
        0
280
     0
281
     1
  0
CLASS
  1
XRECORD
  2
AcDbXrecord
  3
AutoCAD 2000
 90
        0
280
     0
281
     0
  0
ENDSEC
  0
SECTION
  2
TABLES
  0
TABLE
  2
VPORT
  5
8
330
0
100
AcDbSymbolTable
 70
     2
  0
VPORT
  5
1BAF
330
8
100
AcDbSymbolTableRecord
100
AcDbViewportTableRecord
  2
*Active
 70
     0
 10
0.0
 20
0.0
 11
1.0
 21
1.0
 12
416.6437991857214
 22
300.8759545265202
 13
0.0
 23
0.0
 14
5.0
 24
5.0
 15
0.0
 25
0.0
 16
0.0
 26
0.0
 36
1.0
 17
0.0
 27
0.0
 37
0.0
 40
637.347781985682
 41
1.651537335285505
 42
50.0
 43
0.0
 44
0.0
 50
0.0
 51
0.0
 71
     0
 72
   100
 73
     1
 74
     0
 75
     0
 76
     0
 77
     0
 78
     0
281
     0
 65
     1
110
0.0
120
0.0
130
0.0
111
1.0
121
0.0
131
0.0
112
0.0
122
1.0
132
0.0
 79
     0
146
0.0
  0
ENDTAB
  0
TABLE
  2
LTYPE
  5
5
330
0
100
AcDbSymbolTable
 70
     3
  0
LTYPE
  5
14
330
5
100
AcDbSymbolTableRecord
100
AcDbLinetypeTableRecord
  2
BYBLOCK
 70
     0
  3

 72
    65
 73
     0
 40
0.0
  0
LTYPE
  5
15
330
5
100
AcDbSymbolTableRecord
100
AcDbLinetypeTableRecord
  2
BYLAYER
 70
     0
  3

 72
    65
 73
     0
 40
0.0
  0
LTYPE
  5
16
330
5
100
AcDbSymbolTableRecord
100
AcDbLinetypeTableRecord
  2
CONTINUOUS
 70
     0
  3
Solid line
 72
    65
 73
     0
 40
0.0
  0
LTYPE
  5
135
330
5
100
AcDbSymbolTableRecord
100
AcDbLinetypeTableRecord
  2
CENTER
 70
     0
  3
____ _ ____ _ ____ _ ____ _ ____ _ ____ _ ____ 
 72
    65
 73
     4
 40
2.0
 49
1.25
 74
     0
 49
-0.25
 74
     0
 49
0.25
 74
     0
 49
-0.25
 74
     0
  0
LTYPE
  5
94A
330
5
100
AcDbSymbolTableRecord
100
AcDbLinetypeTableRecord
  2
PHANTOM
 70
     0
  3
______  __  __  ______  __  __  ______  __  __ 
 72
    65
 73
     6
 40
2.5
 49
1.25
 74
     0
 49
-0.25
 74
     0
 49
0.25
 74
     0
 49
-0.25
 74
     0
 49
0.25
 74
     0
 49
-0.25
 74
     0
  0
ENDTAB
  0
TABLE
  2
LAYER
  5
2
330
0
100
AcDbSymbolTable
 70
     9
  0
LAYER
  5
F
330
2
100
AcDbSymbolTableRecord
100
AcDbLayerTableRecord
  2
0
 70
     0
 62
     7
  6
CONTINUOUS
370
    -3
390
4BB
  0
LAYER
  5
62
330
2
100
AcDbSymbolTableRecord
100
AcDbLayerTableRecord
  2
VIEWPORT
 70
     0
 62
     7
  6
CONTINUOUS
370
    -3
390
4BB
  0
LAYER
  5
65
330
2
100
AcDbSymbolTableRecord
100
AcDbLayerTableRecord
  2
ZUWAKU
 70
     0
 62
     7
  6
CONTINUOUS
370
    -3
390
4BB
  0
LAYER
  5
28E
330
2
100
AcDbSymbolTableRecord
100
AcDbLayerTableRecord
  2
SEIHIN
 70
     0
 62
     3
  6
CONTINUOUS
370
    -3
390
4BB
  0
LAYER
  5
28F
330
2
100
AcDbSymbolTableRecord
100
AcDbLayerTableRecord
  2
SUNPOU
 70
     0
 62
     4
  6
CONTINUOUS
370
    -3
390
4BB
  0
LAYER
  5
290
330
2
100
AcDbSymbolTableRecord
100
AcDbLayerTableRecord
  2
CENTER L
 70
     0
 62
     1
  6
CENTER
370
    -3
390
4BB
  0
LAYER
  5
3EF
330
2
100
AcDbSymbolTableRecord
100
AcDbLayerTableRecord
  2
DEFPOINTS
 70
     0
 62
     7
  6
CONTINUOUS
290
     0
370
    -3
390
4BB
  0
LAYER
  5
702
330
2
100
AcDbSymbolTableRecord
100
AcDbLayerTableRecord
  2
moji
 70
     0
 62
     2
  6
CONTINUOUS
370
    -3
390
4BB
  0
LAYER
  5
94B
330
2
100
AcDbSymbolTableRecord
100
AcDbLayerTableRecord
  2
NOKITOI
 70
     0
 62
     9
  6
PHANTOM
370
    -3
390
4BB
  0
ENDTAB
  0
TABLE
  2
STYLE
  5
3
330
0
100
AcDbSymbolTable
 70
     2
  0
STYLE
  5
10
330
3
100
AcDbSymbolTableRecord
100
AcDbTextStyleTableRecord
  2
STANDARD
 70
     0
 40
0.0
 41
1.0
 50
0.0
 71
     0
 42
5.0
  3
TXT
  4
bigfont.shx
  0
STYLE
  5
703
330
3
100
AcDbSymbolTableRecord
100
AcDbTextStyleTableRecord
  2
ｽﾀｲﾙ1
 70
     0
 40
0.0
 41
1.0
 50
0.0
 71
     0
 42
2.5
  3
MS PGothic.ttf
  4

1001
ACAD
1000
MS PGothic
1071
    32818
  0
ENDTAB
  0
TABLE
  2
VIEW
  5
6
330
0
100
AcDbSymbolTable
 70
     0
  0
ENDTAB
  0
TABLE
  2
UCS
  5
7
330
0
100
AcDbSymbolTable
 70
     0
  0
ENDTAB
  0
TABLE
  2
APPID
  5
9
330
0
100
AcDbSymbolTable
 70
     1
  0
APPID
  5
11
330
9
100
AcDbSymbolTableRecord
100
AcDbRegAppTableRecord
  2
ACAD
 70
     0
  0
ENDTAB
  0
TABLE
  2
DIMSTYLE
  5
A
330
0
100
AcDbSymbolTable
 70
     2
100
AcDbDimStyleTable
  0
DIMSTYLE
105
1D
102
{ACAD_REACTORS
330
16D4
330
16D7
330
16D8
330
16F5
330
1724
330
1968
102
}
330
A
100
AcDbSymbolTableRecord
100
AcDbDimStyleTableRecord
  2
STANDARD
 70
     0
340
10
  0
DIMSTYLE
105
1289
102
{ACAD_REACTORS
330
16F6
102
}
330
A
100
AcDbSymbolTableRecord
100
AcDbDimStyleTableRecord
  2
VELDIM2
 70
     0
 41
2.4804975986
 44
1.25
 46
5.0
 73
     0
 74
     0
 78
     8
140
5.997222042100001
271
     3
340
10
  0
ENDTAB
  0
TABLE
  2
BLOCK_RECORD
  5
1
330
0
100
AcDbSymbolTable
 70
     8
  0
BLOCK_RECORD
  5
1A
330
1
100
AcDbSymbolTableRecord
100
AcDbBlockTableRecord
  2
*MODEL_SPACE
340
4BE
  0
BLOCK_RECORD
  5
17
330
1
100
AcDbSymbolTableRecord
100
AcDbBlockTableRecord
  2
*PAPER_SPACE
340
4BF
  0
BLOCK_RECORD
  5
6D
330
1
100
AcDbSymbolTableRecord
100
AcDbBlockTableRecord
  2
_OPEN
340
0
102
{BLKREFS
331
1B6F
331
1B70
331
1B78
331
1B79
331
1B81
331
1B82
331
1B8A
331
1B8B
331
1B9A
331
1B9B
331
1BA3
331
1BA4
102
}
  0
BLOCK_RECORD
  5
1B1A
330
1
100
AcDbSymbolTableRecord
100
AcDbBlockTableRecord
  2
*D1
340
0
  0
BLOCK_RECORD
  5
1B26
330
1
100
AcDbSymbolTableRecord
100
AcDbBlockTableRecord
  2
*D2
340
0
  0
BLOCK_RECORD
  5
1B32
330
1
100
AcDbSymbolTableRecord
100
AcDbBlockTableRecord
  2
*D3
340
0
  0
BLOCK_RECORD
  5
1B3E
330
1
100
AcDbSymbolTableRecord
100
AcDbBlockTableRecord
  2
*D4
340
0
  0
BLOCK_RECORD
  5
1B4A
330
1
100
AcDbSymbolTableRecord
100
AcDbBlockTableRecord
  2
*D5
340
0
  0
BLOCK_RECORD
  5
1B54
330
1
100
AcDbSymbolTableRecord
100
AcDbBlockTableRecord
  2
*D6
340
0
  0
BLOCK_RECORD
  5
1B60
330
1
100
AcDbSymbolTableRecord
100
AcDbBlockTableRecord
  2
*D7
340
0
  0
ENDTAB
  0
ENDSEC
  0
SECTION
  2
BLOCKS
  0
BLOCK
  5
1B
330
1A
100
AcDbEntity
  8
0
100
AcDbBlockBegin
  2
*MODEL_SPACE
 70
     0
 71
     0
 10
0.0
 20
0.0
 30
0.0
  3
*MODEL_SPACE
  1

  0
ENDBLK
  5
1C
330
1A
100
AcDbEntity
  8
0
100
AcDbBlockEnd
  0
BLOCK
  5
18
330
17
100
AcDbEntity
 67
     1
  8
0
100
AcDbBlockBegin
  2
*PAPER_SPACE
 70
     0
 71
     0
 10
0.0
 20
0.0
 30
0.0
  3
*PAPER_SPACE
  1

  0
ENDBLK
  5
19
330
17
100
AcDbEntity
 67
     1
  8
0
100
AcDbBlockEnd
  0
BLOCK
  5
6E
330
6D
100
AcDbEntity
  8
0
100
AcDbBlockBegin
  2
_OPEN
 70
     0
 71
     0
 10
0.0
 20
0.0
 30
0.0
  3
_OPEN
  1

  0
LINE
  5
6F
330
6D
100
AcDbEntity
  8
0
  6
ByBlock
 62
     0
100
AcDbLine
 10
-1.0
 20
0.1666666666666667
 30
0.0
 11
0.0
 21
0.0
 31
0.0
  0
LINE
  5
70
330
6D
100
AcDbEntity
  8
0
  6
ByBlock
 62
     0
100
AcDbLine
 10
0.0
 20
0.0
 30
0.0
 11
-1.0
 21
-0.1666666666666667
 31
0.0
  0
LINE
  5
71
330
6D
100
AcDbEntity
  8
0
  6
ByBlock
 62
     0
100
AcDbLine
 10
0.0
 20
0.0
 30
0.0
 11
-1.0
 21
0.0
 31
0.0
  0
ENDBLK
  5
72
330
6D
100
AcDbEntity
  8
0
100
AcDbBlockEnd
  0
BLOCK
  5
1B24
330
1B1A
100
AcDbEntity
  8
0
100
AcDbBlockBegin
  2
*D1
 70
     1
 71
     0
 10
0.0
 20
0.0
 30
0.0
  3
*D1
  1

  0
LINE
  5
1B6C
330
1B1A
100
AcDbEntity
  8
SUNPOU
100
AcDbLine
 10
354.4923371671045
 20
454.4441341870736
 30
0.0
 11
517.9989707957698
 21
454.4441341870735
 31
0.0
  0
LINE
  5
1B6D
330
1B1A
100
AcDbEntity
  8
SUNPOU
100
AcDbLine
 10
453.9514320938044
 20
270.0561075919737
 30
0.0
 11
517.9989707957698
 21
270.0561075919737
 31
0.0
  0
LINE
  5
1B6E
330
1B1A
100
AcDbEntity
  8
SUNPOU
100
AcDbLine
 10
514.9989707957698
 20
447.4441341870735
 30
0.0
 11
514.9989707957698
 21
277.0561075919737
 31
0.0
  0
INSERT
  5
1B6F
330
1B1A
100
AcDbEntity
  8
SUNPOU
100
AcDbBlockReference
  2
_OPEN
 10
514.9989707957698
 20
454.4441341870735
 30
0.0
 41
7.0
 42
7.0
 43
7.0
 50
90.0
  0
INSERT
  5
1B70
330
1B1A
100
AcDbEntity
  8
SUNPOU
100
AcDbBlockReference
  2
_OPEN
 10
514.9989707957698
 20
270.0561075919737
 30
0.0
 41
7.0
 42
7.0
 43
7.0
 50
270.0
  0
MTEXT
  5
1B71
330
1B1A
100
AcDbEntity
  8
SUNPOU
100
AcDbMText
 10
509.9989707957697
 20
362.2501208895237
 30
0.0
 40
6.0
 41
0.0
 71
     5
 72
     1
  1
\A1;184
 11
6.123031769111886E-17
 21
1.0
 31
0.0
 73
     1
 44
1.0
  0
POINT
  5
1B72
330
1B1A
100
AcDbEntity
  8
DEFPOINTS
 62
     0
100
AcDbPoint
 10
348.4923371671045
 20
454.4441341870736
 30
0.0
  0
POINT
  5
1B73
330
1B1A
100
AcDbEntity
  8
DEFPOINTS
 62
     0
100
AcDbPoint
 10
447.9514320938044
 20
270.0561075919737
 30
0.0
  0
POINT
  5
1B74
330
1B1A
100
AcDbEntity
  8
DEFPOINTS
 62
     0
100
AcDbPoint
 10
514.9989707957698
 20
270.0561075919737
 30
0.0
  0
ENDBLK
  5
1B25
330
1B1A
100
AcDbEntity
  8
0
100
AcDbBlockEnd
  0
BLOCK
  5
1B30
330
1B26
100
AcDbEntity
  8
0
100
AcDbBlockBegin
  2
*D2
 70
     1
 71
     0
 10
0.0
 20
0.0
 30
0.0
  3
*D2
  1

  0
LINE
  5
1B75
330
1B26
100
AcDbEntity
  8
SUNPOU
 62
     4
370
    -2
100
AcDbLine
 10
433.4376387445544
 20
240.6319208001597
 30
0.0
 11
230.866317924013
 21
240.6319208001598
 31
0.0
  0
LINE
  5
1B76
330
1B26
100
AcDbEntity
  8
SUNPOU
 62
     4
370
    -2
100
AcDbLine
 10
271.5634040682044
 20
152.1325479751098
 30
0.0
 11
230.866317924013
 21
152.1325479751098
 31
0.0
  0
LINE
  5
1B77
330
1B26
100
AcDbEntity
  8
SUNPOU
 62
     4
370
    -2
100
AcDbLine
 10
233.866317924013
 20
233.6319208001598
 30
0.0
 11
233.866317924013
 21
159.1325479751098
 31
0.0
  0
INSERT
  5
1B78
330
1B26
100
AcDbEntity
  8
SUNPOU
 62
     4
370
    -2
100
AcDbBlockReference
  2
_OPEN
 10
233.866317924013
 20
240.6319208001598
 30
0.0
 41
7.0
 42
7.0
 43
7.0
 50
90.0
  0
INSERT
  5
1B79
330
1B26
100
AcDbEntity
  8
SUNPOU
 62
     4
370
    -2
100
AcDbBlockReference
  2
_OPEN
 10
233.866317924013
 20
152.1325479751098
 30
0.0
 41
7.0
 42
7.0
 43
7.0
 50
270.0
  0
MTEXT
  5
1B7A
330
1B26
100
AcDbEntity
  8
SUNPOU
 62
     4
100
AcDbMText
 10
228.8663179240129
 20
196.3822343876348
 30
0.0
 40
6.0
 41
0.0
 71
     5
 72
     1
  1
\A1;88
 11
6.123031769111886E-17
 21
1.0
 31
0.0
 73
     1
 44
1.0
  0
POINT
  5
1B7B
330
1B26
100
AcDbEntity
  8
DEFPOINTS
 62
     0
100
AcDbPoint
 10
439.4376387445544
 20
240.6319208001597
 30
0.0
  0
POINT
  5
1B7C
330
1B26
100
AcDbEntity
  8
DEFPOINTS
 62
     0
100
AcDbPoint
 10
277.5634040682044
 20
152.1325479751098
 30
0.0
  0
POINT
  5
1B7D
330
1B26
100
AcDbEntity
  8
DEFPOINTS
 62
     0
100
AcDbPoint
 10
233.866317924013
 20
152.1325479751098
 30
0.0
  0
ENDBLK
  5
1B31
330
1B26
100
AcDbEntity
  8
0
100
AcDbBlockEnd
  0
BLOCK
  5
1B3C
330
1B32
100
AcDbEntity
  8
0
100
AcDbBlockBegin
  2
*D3
 70
     1
 71
     0
 10
0.0
 20
0.0
 30
0.0
  3
*D3
  1

  0
LINE
  5
1B7E
330
1B32
100
AcDbEntity
  8
SUNPOU
 62
     4
370
    -2
100
AcDbLine
 10
277.5634040682044
 20
446.4441356176737
 30
0.0
 11
277.5634040682044
 21
494.7734343496627
 31
0.0
  0
LINE
  5
1B7F
330
1B32
100
AcDbEntity
  8
SUNPOU
 62
     4
370
    -2
100
AcDbLine
 10
461.8370269982044
 20
347.5205753856736
 30
0.0
 11
461.8370269982044
 21
494.7734343496627
 31
0.0
  0
LINE
  5
1B80
330
1B32
100
AcDbEntity
  8
SUNPOU
 62
     4
370
    -2
100
AcDbLine
 10
284.5634040682044
 20
491.7734343496627
 30
0.0
 11
454.8370269982044
 21
491.7734343496627
 31
0.0
  0
INSERT
  5
1B81
330
1B32
100
AcDbEntity
  8
SUNPOU
 62
     4
370
    -2
100
AcDbBlockReference
  2
_OPEN
 10
277.5634040682044
 20
491.7734343496627
 30
0.0
 41
7.0
 42
7.0
 43
7.0
 50
180.0
  0
INSERT
  5
1B82
330
1B32
100
AcDbEntity
  8
SUNPOU
 62
     4
370
    -2
100
AcDbBlockReference
  2
_OPEN
 10
461.8370269982044
 20
491.7734343496627
 30
0.0
 41
7.0
 42
7.0
 43
7.0
  0
MTEXT
  5
1B83
330
1B32
100
AcDbEntity
  8
SUNPOU
 62
     4
100
AcDbMText
 10
369.7002155332044
 20
496.7734343496627
 30
0.0
 40
6.0
 41
0.0
 71
     5
 72
     1
  1
\A1;184
 73
     1
 44
1.0
  0
POINT
  5
1B84
330
1B32
100
AcDbEntity
  8
DEFPOINTS
 62
     0
100
AcDbPoint
 10
277.5634040682044
 20
440.4441356176737
 30
0.0
  0
POINT
  5
1B85
330
1B32
100
AcDbEntity
  8
DEFPOINTS
 62
     0
100
AcDbPoint
 10
461.8370269982044
 20
341.5205753856736
 30
0.0
  0
POINT
  5
1B86
330
1B32
100
AcDbEntity
  8
DEFPOINTS
 62
     0
100
AcDbPoint
 10
461.8370269982044
 20
491.7734343496627
 30
0.0
  0
ENDBLK
  5
1B3D
330
1B32
100
AcDbEntity
  8
0
100
AcDbBlockEnd
  0
BLOCK
  5
1B48
330
1B3E
100
AcDbEntity
  8
0
100
AcDbBlockBegin
  2
*D4
 70
     1
 71
     0
 10
0.0
 20
0.0
 30
0.0
  3
*D4
  1

  0
LINE
  5
1B87
330
1B3E
100
AcDbEntity
  8
SUNPOU
 62
     4
370
    -2
100
AcDbLine
 10
307.5634052603045
 20
146.1001044219098
 30
0.0
 11
307.5634052603045
 21
129.9159748516786
 31
0.0
  0
LINE
  5
1B88
330
1B3E
100
AcDbEntity
  8
SUNPOU
 62
     4
370
    -2
100
AcDbLine
 10
277.5634040682044
 20
146.1325479751098
 30
0.0
 11
277.5634040682044
 21
129.9159748516786
 31
0.0
  0
LINE
  5
1B89
330
1B3E
100
AcDbEntity
  8
SUNPOU
 62
     4
370
    -2
100
AcDbLine
 10
300.5634052603045
 20
132.9159748516786
 30
0.0
 11
284.5634040682044
 21
132.9159748516786
 31
0.0
  0
INSERT
  5
1B8A
330
1B3E
100
AcDbEntity
  8
SUNPOU
 62
     4
370
    -2
100
AcDbBlockReference
  2
_OPEN
 10
307.5634052603045
 20
132.9159748516786
 30
0.0
 41
7.0
 42
7.0
 43
7.0
  0
INSERT
  5
1B8B
330
1B3E
100
AcDbEntity
  8
SUNPOU
 62
     4
370
    -2
100
AcDbBlockReference
  2
_OPEN
 10
277.5634040682044
 20
132.9159748516786
 30
0.0
 41
7.0
 42
7.0
 43
7.0
 50
180.0
  0
MTEXT
  5
1B8C
330
1B3E
100
AcDbEntity
  8
SUNPOU
 62
     4
100
AcDbMText
 10
292.5634046642545
 20
137.9159748516786
 30
0.0
 40
6.0
 41
0.0
 71
     5
 72
     1
  1
\A1;30
 73
     1
 44
1.0
  0
POINT
  5
1B8D
330
1B3E
100
AcDbEntity
  8
DEFPOINTS
 62
     0
100
AcDbPoint
 10
307.5634052603045
 20
152.1001044219098
 30
0.0
  0
POINT
  5
1B8E
330
1B3E
100
AcDbEntity
  8
DEFPOINTS
 62
     0
100
AcDbPoint
 10
277.5634040682044
 20
152.1325479751098
 30
0.0
  0
POINT
  5
1B8F
330
1B3E
100
AcDbEntity
  8
DEFPOINTS
 62
     0
100
AcDbPoint
 10
277.5634040682044
 20
132.9159748516786
 30
0.0
  0
ENDBLK
  5
1B49
330
1B3E
100
AcDbEntity
  8
0
100
AcDbBlockEnd
  0
BLOCK
  5
1B52
330
1B4A
100
AcDbEntity
  8
0
100
AcDbBlockBegin
  2
*D5
 70
     1
 71
     0
 10
0.0
 20
0.0
 30
0.0
  3
*D5
  1

  0
LINE
  5
1B90
330
1B4A
100
AcDbEntity
  8
SUNPOU
 62
     0
370
    -2
100
AcDbLine
 10
292.5278569680108
 20
252.6679818733092
 30
0.0
 11
312.1023221983796
 21
233.0935166415588
 31
0.0
  0
MTEXT
  5
1B91
330
1B4A
100
AcDbEntity
  8
SUNPOU
 62
     0
100
AcDbMText
 10
285.5377792800085
 20
259.6580595618049
 30
0.0
 40
5.997222042100001
 41
0.0
 71
     5
 72
     1
  1
\A1;%%c \U+22052
 11
0.7071067811615931
 21
-0.7071067812115019
 31
0.0
 73
     1
 44
1.0
  0
SOLID
  5
1B92
330
1B4A
100
AcDbEntity
  8
SUNPOU
 62
     0
100
AcDbTrace
 10
312.3946516438378
 20
233.3858460869963
 30
0.0
 11
311.8099927529215
 21
232.8011871961213
 31
0.0
 12
313.8562988710047
 22
231.3395399688099
 32
0.0
 13
313.8562988710047
 23
231.3395399688099
 33
0.0
  0
LINE
  5
1B93
330
1B4A
100
AcDbEntity
  8
SUNPOU
 62
     0
370
    -2
100
AcDbLine
 10
314.4734056521548
 20
230.6324331876099
 30
0.0
 11
314.6534056521547
 21
230.6324331876099
 31
0.0
  0
LINE
  5
1B94
330
1B4A
100
AcDbEntity
  8
SUNPOU
 62
     0
370
    -2
100
AcDbLine
 10
314.5634056521548
 20
230.5424331876099
 30
0.0
 11
314.5634056521547
 21
230.7224331876099
 31
0.0
  0
POINT
  5
1B95
330
1B4A
100
AcDbEntity
  8
DEFPOINTS
 62
     0
100
AcDbPoint
 10
313.8562988710047
 20
231.3395399688099
 30
0.0
  0
POINT
  5
1B96
330
1B4A
100
AcDbEntity
  8
DEFPOINTS
 62
     0
100
AcDbPoint
 10
315.2705124333048
 20
229.92532640641
 30
0.0
  0
ENDBLK
  5
1B53
330
1B4A
100
AcDbEntity
  8
0
100
AcDbBlockEnd
  0
BLOCK
  5
1B5E
330
1B54
100
AcDbEntity
  8
0
100
AcDbBlockBegin
  2
*D6
 70
     1
 71
     0
 10
0.0
 20
0.0
 30
0.0
  3
*D6
  1

  0
LINE
  5
1B97
330
1B54
100
AcDbEntity
  8
SUNPOU
 62
     4
370
    -2
100
AcDbLine
 10
342.5542272253545
 20
155.0697987979598
 30
0.0
 11
342.5542272253545
 21
129.9159748516786
 31
0.0
  0
LINE
  5
1B98
330
1B54
100
AcDbEntity
  8
SUNPOU
 62
     4
370
    -2
100
AcDbLine
 10
322.6164223252044
 20
154.7122547483098
 30
0.0
 11
322.6164223252044
 21
129.9159748516786
 31
0.0
  0
LINE
  5
1B99
330
1B54
100
AcDbEntity
  8
SUNPOU
 62
     4
370
    -2
100
AcDbLine
 10
335.5542272253545
 20
132.9159748516786
 30
0.0
 11
329.6164223252044
 21
132.9159748516786
 31
0.0
  0
INSERT
  5
1B9A
330
1B54
100
AcDbEntity
  8
SUNPOU
 62
     4
370
    -2
100
AcDbBlockReference
  2
_OPEN
 10
342.5542272253545
 20
132.9159748516786
 30
0.0
 41
7.0
 42
7.0
 43
7.0
  0
INSERT
  5
1B9B
330
1B54
100
AcDbEntity
  8
SUNPOU
 62
     4
370
    -2
100
AcDbBlockReference
  2
_OPEN
 10
322.6164223252044
 20
132.9159748516786
 30
0.0
 41
7.0
 42
7.0
 43
7.0
 50
180.0
  0
MTEXT
  5
1B9C
330
1B54
100
AcDbEntity
  8
SUNPOU
 62
     4
100
AcDbMText
 10
332.5853247752795
 20
137.9159748516786
 30
0.0
 40
6.0
 41
0.0
 71
     5
 72
     1
  1
\A1;20
 73
     1
 44
1.0
  0
POINT
  5
1B9D
330
1B54
100
AcDbEntity
  8
DEFPOINTS
 62
     0
100
AcDbPoint
 10
342.5542272253545
 20
161.0697987979598
 30
0.0
  0
POINT
  5
1B9E
330
1B54
100
AcDbEntity
  8
DEFPOINTS
 62
     0
100
AcDbPoint
 10
322.6164223252044
 20
160.7122547483098
 30
0.0
  0
POINT
  5
1B9F
330
1B54
100
AcDbEntity
  8
DEFPOINTS
 62
     0
100
AcDbPoint
 10
322.6164223252044
 20
132.9159748516786
 30
0.0
  0
ENDBLK
  5
1B5F
330
1B54
100
AcDbEntity
  8
0
100
AcDbBlockEnd
  0
BLOCK
  5
1B6A
330
1B60
100
AcDbEntity
  8
0
100
AcDbBlockBegin
  2
*D7
 70
     1
 71
     0
 10
0.0
 20
0.0
 30
0.0
  3
*D7
  1

  0
LINE
  5
1BA0
330
1B60
100
AcDbEntity
  8
SUNPOU
 62
     4
370
    -2
100
AcDbLine
 10
456.7798598870505
 20
170.6324331876103
 30
0.0
 11
518.1035082660549
 21
170.6324331876103
 31
0.0
  0
LINE
  5
1BA1
330
1B60
100
AcDbEntity
  8
SUNPOU
 62
     4
370
    -2
100
AcDbLine
 10
445.1294678299045
 20
240.6324330276098
 30
0.0
 11
518.1035082660549
 21
240.6324330276097
 31
0.0
  0
LINE
  5
1BA2
330
1B60
100
AcDbEntity
  8
SUNPOU
 62
     4
370
    -2
100
AcDbLine
 10
515.1035082660549
 20
177.6324331876103
 30
0.0
 11
515.1035082660549
 21
233.6324330276097
 31
0.0
  0
INSERT
  5
1BA3
330
1B60
100
AcDbEntity
  8
SUNPOU
 62
     4
370
    -2
100
AcDbBlockReference
  2
_OPEN
 10
515.1035082660549
 20
170.6324331876103
 30
0.0
 41
7.0
 42
7.0
 43
7.0
 50
270.0
  0
INSERT
  5
1BA4
330
1B60
100
AcDbEntity
  8
SUNPOU
 62
     4
370
    -2
100
AcDbBlockReference
  2
_OPEN
 10
515.1035082660549
 20
240.6324330276097
 30
0.0
 41
7.0
 42
7.0
 43
7.0
 50
90.0
  0
MTEXT
  5
1BA5
330
1B60
100
AcDbEntity
  8
SUNPOU
 62
     4
100
AcDbMText
 10
510.1035082660549
 20
205.6324331076101
 30
0.0
 40
6.0
 41
0.0
 71
     5
 72
     1
  1
\A1;70
 11
6.123031769111886E-17
 21
1.0
 31
0.0
 73
     1
 44
1.0
  0
POINT
  5
1BA6
330
1B60
100
AcDbEntity
  8
DEFPOINTS
 62
     0
100
AcDbPoint
 10
450.7798598870505
 20
170.6324331876103
 30
0.0
  0
POINT
  5
1BA7
330
1B60
100
AcDbEntity
  8
DEFPOINTS
 62
     0
100
AcDbPoint
 10
439.1294678299045
 20
240.6324330276098
 30
0.0
  0
POINT
  5
1BA8
330
1B60
100
AcDbEntity
  8
DEFPOINTS
 62
     0
100
AcDbPoint
 10
515.1035082660549
 20
240.6324330276097
 30
0.0
  0
ENDBLK
  5
1B6B
330
1B60
100
AcDbEntity
  8
0
100
AcDbBlockEnd
  0
ENDSEC
  0
SECTION
  2
ENTITIES
  0
LINE
  5
7BE
330
1A
100
AcDbEntity
  8
ZUWAKU
100
AcDbLine
 10
208.646601303624
 20
15.19999986828872
 30
0.0
 11
447.4243639845474
 21
15.19999986828871
 31
0.0
  0
LINE
  5
7BF
330
1A
100
AcDbEntity
  8
ZUWAKU
100
AcDbLine
 10
208.646601303624
 20
15.59999986828872
 30
0.0
 11
447.4243639845474
 21
15.59999986828872
 31
0.0
  0
LINE
  5
7C0
330
1A
100
AcDbEntity
  8
ZUWAKU
100
AcDbLine
 10
208.646601303624
 20
15.39999986828872
 30
0.0
 11
447.4243639845474
 21
15.39999986828872
 31
0.0
  0
LINE
  5
7C1
330
1A
100
AcDbEntity
  8
ZUWAKU
100
AcDbLine
 10
0.0000000135560185
 20
30.79999986828869
 30
0.0
 11
797.4000000135559
 21
30.79999986828869
 31
0.0
  0
LINE
  5
7C2
330
1A
100
AcDbEntity
  8
ZUWAKU
100
AcDbLine
 10
0.0000000135560185
 20
30.59999986828869
 30
0.0
 11
797.4000000135559
 21
30.59999986828869
 31
0.0
  0
LINE
  5
7C3
330
1A
100
AcDbEntity
  8
ZUWAKU
100
AcDbLine
 10
0.0000000135560185
 20
30.39999986828869
 30
0.0
 11
797.4000000135559
 21
30.39999986828869
 31
0.0
  0
LINE
  5
7C4
330
1A
100
AcDbEntity
  8
ZUWAKU
100
AcDbLine
 10
0.0000000135560185
 20
30.19999986828869
 30
0.0
 11
797.4000000135559
 21
30.19999986828869
 31
0.0
  0
LINE
  5
7C5
330
1A
100
AcDbEntity
  8
ZUWAKU
100
AcDbLine
 10
0.0000000135560185
 20
29.99999986828868
 30
0.0
 11
797.4000000135559
 21
29.99999986828868
 31
0.0
  0
LWPOLYLINE
  5
7C6
330
1A
100
AcDbEntity
  8
ZUWAKU
100
AcDbPolyline
 90
        4
 70
     1
 43
0.0
 10
0.2000000135559503
 20
551.3999998682888
 10
0.2000000135559503
 20
0.1999998682887281
 10
797.4000000135559
 20
0.1999998682887512
 10
797.4000000135561
 20
551.3999998682888
  0
LWPOLYLINE
  5
7C7
330
1A
100
AcDbEntity
  8
ZUWAKU
100
AcDbPolyline
 90
        4
 70
     1
 43
0.0
 10
0.6000000135559276
 20
550.9999998682888
 10
0.6000000135559276
 20
0.5999998682887053
 10
797.0000000135563
 20
0.5999998682887515
 10
797.000000013556
 20
550.9999998682888
  0
LWPOLYLINE
  5
7C8
330
1A
100
AcDbEntity
  8
ZUWAKU
100
AcDbPolyline
 90
        4
 70
     1
 43
0.0
 10
0.0000000135560185
 20
551.5999998682887
 10
0.0000000135560185
 20
-0.0000001317113174
 10
797.6000000135562
 20
-0.0000001317112499
 10
797.6000000135562
 20
551.5999998682888
  0
LWPOLYLINE
  5
7C9
330
1A
100
AcDbEntity
  8
ZUWAKU
100
AcDbPolyline
 90
        4
 70
     1
 43
0.0
 10
0.4000000135559958
 20
551.1999998682887
 10
0.4000000135559958
 20
0.3999998682887735
 10
797.2000000135561
 20
0.3999998682887505
 10
797.2000000135561
 20
551.1999998682887
  0
LWPOLYLINE
  5
7CA
330
1A
100
AcDbEntity
  8
ZUWAKU
100
AcDbPolyline
 90
        4
 70
     1
 43
0.0
 10
0.8000000135559731
 20
550.7999998682888
 10
0.8000000135559731
 20
0.7999998682887508
 10
796.800000013556
 20
0.7999998682887508
 10
796.800000013556
 20
550.7999998682888
  0
TEXT
  5
7CB
330
1A
100
AcDbEntity
  8
moji
100
AcDbText
 10
92.95778960172515
 20
12.74117799856344
 30
0.0
 40
6.0
  1
アーバントップΣ９０
 41
0.9
  7
ｽﾀｲﾙ1
100
AcDbText
  0
HATCH
  5
7CC
330
1A
100
AcDbEntity
  8
ZUWAKU
100
AcDbHatch
 10
0.0
 20
0.0
 30
0.0
210
0.0
220
0.0
230
1.0
  2
ANSI37
 70
     0
 71
     0
 91
        8
 92
        7
 72
     1
 73
     1
 93
       24
 10
14.50226267467588
 20
17.64484834927227
 42
-0.1989123673796348
 10
14.09221216833714
 20
18.63479784293332
 42
0.0
 10
14.09221216833714
 20
19.92499986828869
 42
-0.4142135623730912
 10
14.61721216833712
 20
20.44999986828869
 42
0.0
 10
17.59221216833703
 20
20.44999986828869
 42
0.4142135623731546
 10
18.11721216833712
 20
20.97499986828868
 42
0.0
 10
18.11721216833712
 20
22.72499986828869
 42
0.4142135623731586
 10
17.59221216833703
 20
23.24999986828869
 42
0.0
 10
14.09221216833714
 20
23.24999986828869
 42
0.4142135623730928
 10
11.29221216833719
 20
20.44999986828871
 42
0.0
 10
11.29221216833719
 20
18.63479784293345
 42
0.1989123673796619
 10
12.52236368735362
 20
15.66494936194984
 42
0.0
 10
15.43216166199829
 20
12.75515138730518
 42
-0.1989123673796613
 10
15.84221216833714
 20
11.76520189364399
 42
0.0
 10
15.84221216833714
 20
10.47499986828868
 42
-0.4142135623730911
 10
15.31721216833716
 20
9.949999868288685
 42
0.0
 10
12.34221216833726
 20
9.949999868288685
 42
0.4142135623731526
 10
11.81721216833716
 20
9.424999868288698
 42
0.0
 10
11.81721216833716
 20
7.674999868288676
 42
0.4142135623731526
 10
12.34221216833726
 20
7.149999868288688
 42
0.0
 10
15.84221216833714
 20
7.149999868288688
 42
0.4142135623731044
 10
18.64221216833721
 20
9.949999868288664
 42
0.0
 10
18.64221216833721
 20
11.76520189364394
 42
0.1989123673796604
 10
17.41206064932067
 20
14.73505037462748
 42
0.0
 97
        0
 92
        7
 72
     1
 73
     1
 93
       16
 10
23.54221216833719
 20
19.04999986828869
 42
-0.4142135623730935
 10
24.94221216833716
 20
20.44999986828869
 42
0.0
 10
26.86721216833712
 20
20.44999986828869
 42
0.4142135623731546
 10
27.39221216833721
 20
20.97499986828868
 42
0.0
 10
27.39221216833721
 20
22.72499986828869
 42
0.4142135623730952
 10
26.86721216833723
 20
23.24999986828869
 42
0.0
 10
24.94221216833705
 20
23.24999986828865
 42
0.4142135623730892
 10
20.74221216833712
 20
19.04999986828862
 42
0.0
 10
20.74221216833712
 20
11.34999986828871
 42
0.4142135623730969
 10
24.94221216833716
 20
7.149999868288688
 42
0.0
 10
26.86721216833712
 20
7.149999868288688
 42
0.4142135623731526
 10
27.39221216833721
 20
7.674999868288676
 42
0.0
 10
27.39221216833721
 20
9.424999868288698
 42
0.414213562373089
 10
26.86721216833723
 20
9.949999868288685
 42
0.0
 10
24.94221216833716
 20
9.949999868288685
 42
-0.4142135623730928
 10
23.54221216833719
 20
11.34999986828867
 42
0.0
 97
        0
 92
        7
 72
     1
 73
     1
 93
        2
 10
24.24221216833712
 20
15.19999986828869
 42
1.0
 10
27.74221216833712
 20
15.19999986828869
 42
1.0
 97
        0
 92
        7
 72
     1
 73
     1
 93
       26
 10
37.31485865051513
 20
19.20504706185211
 42
0.0
 10
38.37649828365295
 20
22.5669059001217
 42
0.5069206636600134
 10
37.87586738445759
 20
23.24999986828869
 42
0.0
 10
36.17697800484837
 20
23.24999986828869
 42
0.3272098845218764
 10
35.67634710565301
 20
22.88309383645566
 42
0.0
 10
33.80807723102123
 20
16.96690590012177
 42
-0.3272098845219541
 10
33.30744633182576
 20
16.59999986828868
 42
0.0
 10
33.1672121683373
 20
16.59999986828868
 42
-0.4142135623731526
 10
32.64221216833721
 20
17.12499986828867
 42
0.0
 10
32.64221216833721
 20
22.72499986828869
 42
0.4142135623730952
 10
32.11721216833723
 20
23.24999986828869
 42
0.0
 10
30.36721216833712
 20
23.24999986828869
 42
0.4142135623730872
 10
29.84221216833714
 20
22.72499986828871
 42
0.0
 10
29.84221216833714
 20
7.674999868288676
 42
0.414213562373089
 10
30.36721216833712
 20
7.149999868288688
 42
0.0
 10
32.11721216833712
 20
7.149999868288688
 42
0.4142135623731526
 10
32.64221216833721
 20
7.674999868288676
 42
0.0
 10
32.64221216833721
 20
13.2749998682887
 42
-0.4142135623731526
 10
33.1672121683373
 20
13.79999986828869
 42
0.0
 10
33.30744633182587
 20
13.79999986828869
 42
-0.3272098845218915
 10
33.80807723102123
 20
13.43309383645561
 42
0.0
 10
35.67634710565301
 20
7.51690590012176
 42
0.3272098845218902
 10
36.17697800484837
 20
7.149999868288688
 42
0.0
 10
37.87586738445759
 20
7.149999868288688
 42
0.5069206636600334
 10
38.37649828365295
 20
7.833093836455696
 42
0.0
 10
36.05010690517929
 20
15.19999986828882
 42
0.0
 97
        0
 92
        7
 72
     1
 73
     1
 93
        8
 10
43.49221216833712
 20
22.7249998682887
 42
0.4142135623731546
 10
42.96721216833703
 20
23.24999986828869
 42
0.0
 10
41.21721216833726
 20
23.24999986828869
 42
0.4142135623731506
 10
40.69221216833716
 20
22.72499986828871
 42
0.0
 10
40.69221216833716
 20
7.674999868288676
 42
0.4142135623731526
 10
41.21721216833726
 20
7.149999868288688
 42
0.0
 10
42.96721216833703
 20
7.149999868288688
 42
0.4142135623731526
 10
43.49221216833712
 20
7.674999868288676
 42
0.0
 97
        0
 92
        7
 72
     1
 73
     1
 93
       24
 10
48.39221216833721
 20
19.92499986828869
 42
-0.4142135623731547
 10
48.9172121683373
 20
20.44999986828869
 42
0.0
 10
51.89221216833721
 20
20.44999986828869
 42
0.4142135623730911
 10
52.41721216833719
 20
20.97499986828868
 42
0.0
 10
52.41721216833719
 20
22.72499986828869
 42
0.4142135623730952
 10
51.89221216833721
 20
23.24999986828869
 42
0.0
 10
48.39221216833721
 20
23.24999986828869
 42
0.4142135623731048
 10
45.59221216833714
 20
20.44999986828871
 42
0.0
 10
45.59221216833714
 20
18.63479784293345
 42
0.1989123673796613
 10
46.82236368735369
 20
15.66494936194989
 42
0.0
 10
49.73216166199836
 20
12.75515138730523
 42
-0.1989123673796402
 10
50.14221216833721
 20
11.76520189364415
 42
0.0
 10
50.14221216833721
 20
10.47499986828868
 42
-0.4142135623730911
 10
49.61721216833723
 20
9.949999868288685
 42
0.0
 10
46.64221216833721
 20
9.949999868288685
 42
0.4142135623731526
 10
46.11721216833712
 20
9.424999868288698
 42
0.0
 10
46.11721216833712
 20
7.674999868288676
 42
0.414213562373089
 10
46.6422121683371
 20
7.149999868288688
 42
0.0
 10
50.14221216833721
 20
7.149999868288688
 42
0.4142135623730925
 10
52.94221216833716
 20
9.949999868288664
 42
0.0
 10
52.94221216833716
 20
11.76520189364394
 42
0.1989123673796675
 10
51.71206064932062
 20
14.73505037462759
 42
0.0
 10
48.80226267467606
 20
17.64484834927211
 42
-0.1989123673796653
 10
48.39221216833721
 20
18.63479784293327
 42
0.0
 97
        0
 92
        7
 72
     1
 73
     1
 93
       16
 10
57.84221216833714
 20
22.72499986828868
 42
0.414213562373103
 10
57.31721216833716
 20
23.24999986828869
 42
0.0
 10
55.56721216833716
 20
23.24999986828869
 42
0.4142135623730872
 10
55.04221216833719
 20
22.72499986828871
 42
0.0
 10
55.04221216833719
 20
9.949999868288664
 42
0.4142135623730925
 10
57.84221216833714
 20
7.149999868288688
 42
0.0
 10
61.34221216833714
 20
7.149999868288688
 42
0.4142135623731044
 10
64.14221216833721
 20
9.949999868288664
 42
0.0
 10
64.14221216833721
 20
22.72499986828869
 42
0.4142135623730952
 10
63.61721216833723
 20
23.24999986828869
 42
0.0
 10
61.86721216833712
 20
23.24999986828869
 42
0.4142135623730872
 10
61.34221216833714
 20
22.72499986828871
 42
0.0
 10
61.34221216833714
 20
10.99999986828866
 42
-0.414213562373088
 10
60.29221216833719
 20
9.949999868288685
 42
0.0
 10
58.89221216833721
 20
9.949999868288685
 42
-0.4142135623731197
 10
57.84221216833714
 20
10.99999986828866
 42
0.0
 97
        0
 92
        7
 72
     1
 73
     1
 93
        8
 10
69.04221216833719
 20
22.72499986828871
 42
0.4142135623730872
 10
68.51721216833721
 20
23.24999986828869
 42
0.0
 10
66.76721216833721
 20
23.24999986828869
 42
0.4142135623731506
 10
66.24221216833712
 20
22.72499986828871
 42
0.0
 10
66.24221216833712
 20
7.674999868288676
 42
0.414213562373089
 10
66.7672121683371
 20
7.149999868288688
 42
0.0
 10
68.51721216833721
 20
7.149999868288688
 42
0.414213562373089
 10
69.04221216833719
 20
7.674999868288676
 42
0.0
 97
        0
 75
     0
 76
     1
 52
0.0
 41
0.2
 77
     0
 78
     2
 53
45.0
 43
-900.942304321123
 44
-13.20000013171125
 45
-0.4490128060534576
 46
0.4490128060534577
 79
     0
 53
135.0
 43
-900.942304321123
 44
-13.20000013171125
 45
-0.4490128060534577
 46
-0.4490128060534576
 79
     0
 47
0.057451373970553
 98
        8
 10
16.07985497657933
 20
15.16717351417424
 10
22.40451501999519
 20
18.84406205073969
 10
25.16436789921568
 20
15.5118815143594
 10
30.91405999519316
 20
16.20129751473019
 10
41.83847203251276
 20
16.6609097822718
 10
46.89820090868557
 20
19.41857618469589
 10
56.55768598595637
 20
18.7291577833837
 10
67.82707963317876
 20
19.18877005092531
  0
LINE
  5
7CD
330
1A
100
AcDbEntity
  8
ZUWAKU
100
AcDbLine
 10
24.94221216833716
 20
23.24999986828865
 30
0.0
 11
26.86721216833712
 21
23.24999986828869
 31
0.0
  0
LINE
  5
7CE
330
1A
100
AcDbEntity
  8
ZUWAKU
100
AcDbLine
 10
26.86721216833712
 20
20.44999986828869
 30
0.0
 11
24.94221216833716
 21
20.44999986828869
 31
0.0
  0
LINE
  5
7CF
330
1A
100
AcDbEntity
  8
ZUWAKU
100
AcDbLine
 10
24.94221216833716
 20
9.949999868288685
 30
0.0
 11
26.86721216833712
 21
9.949999868288685
 31
0.0
  0
LINE
  5
7D0
330
1A
100
AcDbEntity
  8
ZUWAKU
100
AcDbLine
 10
26.86721216833712
 20
7.149999868288688
 30
0.0
 11
24.94221216833716
 21
7.149999868288688
 31
0.0
  0
CIRCLE
  5
7D1
330
1A
100
AcDbEntity
  8
ZUWAKU
100
AcDbCircle
 10
25.99221216833712
 20
15.19999986828869
 30
0.0
 40
1.75
  0
ARC
  5
7D2
330
1A
100
AcDbEntity
  8
ZUWAKU
100
AcDbCircle
 10
15.49221216833712
 20
18.63479784293339
 30
0.0
 40
1.4
100
AcDbArc
 50
180.0000000000016
 51
224.9999999999988
  0
LINE
  5
7D3
330
1A
100
AcDbEntity
  8
ZUWAKU
100
AcDbLine
 10
23.54221216833719
 20
19.04999986828869
 30
0.0
 11
23.54221216833719
 21
11.34999986828869
 31
0.0
  0
LINE
  5
7D4
330
1A
100
AcDbEntity
  8
ZUWAKU
100
AcDbLine
 10
20.74221216833712
 20
11.34999986828869
 30
0.0
 11
20.74221216833712
 21
19.04999986828864
 31
0.0
  0
ARC
  5
7D5
330
1A
100
AcDbEntity
  8
ZUWAKU
100
AcDbCircle
 10
15.49221216833712
 20
18.63479784293339
 30
0.0
 40
4.199999999999999
100
AcDbArc
 50
180.0
 51
225.0
  0
ARC
  5
7D6
330
1A
100
AcDbEntity
  8
ZUWAKU
100
AcDbCircle
 10
15.84221216833714
 20
9.949999868288685
 30
0.0
 40
2.8
100
AcDbArc
 50
270.0
 51
0.0
  0
ARC
  5
7D7
330
1A
100
AcDbEntity
  8
ZUWAKU
100
AcDbCircle
 10
24.94221216833716
 20
11.34999986828869
 30
0.0
 40
4.199999999999999
100
AcDbArc
 50
180.0
 51
270.0
  0
ARC
  5
7D8
330
1A
100
AcDbEntity
  8
ZUWAKU
100
AcDbCircle
 10
14.44221216833716
 20
11.76520189364399
 30
0.0
 40
4.199999999999999
100
AcDbArc
 50
0.0
 51
45.0
  0
LINE
  5
7D9
330
1A
100
AcDbEntity
  8
ZUWAKU
100
AcDbLine
 10
17.41206064932067
 20
14.73505037462751
 30
0.0
 11
14.50226267467599
 21
17.64484834927219
 31
0.0
  0
LINE
  5
7DA
330
1A
100
AcDbEntity
  8
ZUWAKU
100
AcDbLine
 10
15.84221216833714
 20
10.47499986828869
 30
0.0
 11
15.84221216833714
 21
11.76520189364403
 31
0.0
  0
ARC
  5
7DB
330
1A
100
AcDbEntity
  8
ZUWAKU
100
AcDbCircle
 10
15.31721216833716
 20
10.47499986828869
 30
0.0
 40
0.5249999999999999
100
AcDbArc
 50
270.0
 51
0.0
  0
ARC
  5
7DC
330
1A
100
AcDbEntity
  8
ZUWAKU
100
AcDbCircle
 10
14.44221216833716
 20
11.76520189364403
 30
0.0
 40
1.4
100
AcDbArc
 50
0.0
 51
45.0
  0
LINE
  5
7DD
330
1A
100
AcDbEntity
  8
ZUWAKU
100
AcDbLine
 10
11.81721216833716
 20
7.674999868288687
 30
0.0
 11
11.81721216833716
 21
9.424999868288687
 31
0.0
  0
ARC
  5
7DE
330
1A
100
AcDbEntity
  8
ZUWAKU
100
AcDbCircle
 10
12.34221216833714
 20
7.674999868288687
 30
0.0
 40
0.5249999999999999
100
AcDbArc
 50
180.0
 51
270.0
  0
ARC
  5
7DF
330
1A
100
AcDbEntity
  8
ZUWAKU
100
AcDbCircle
 10
12.34221216833714
 20
9.424999868288687
 30
0.0
 40
0.5249999999999999
100
AcDbArc
 50
90.0
 51
180.0
  0
LINE
  5
7E0
330
1A
100
AcDbEntity
  8
ZUWAKU
100
AcDbLine
 10
12.34221216833714
 20
7.149999868288688
 30
0.0
 11
15.84221216833714
 21
7.149999868288688
 31
0.0
  0
LINE
  5
7E1
330
1A
100
AcDbEntity
  8
ZUWAKU
100
AcDbLine
 10
12.34221216833714
 20
9.949999868288685
 30
0.0
 11
15.31721216833716
 21
9.949999868288685
 31
0.0
  0
LINE
  5
7E2
330
1A
100
AcDbEntity
  8
ZUWAKU
100
AcDbLine
 10
12.52236368735362
 20
15.66494936194987
 30
0.0
 11
15.43216166199829
 21
12.7551513873052
 31
0.0
  0
LINE
  5
7E3
330
1A
100
AcDbEntity
  8
ZUWAKU
100
AcDbLine
 10
18.64221216833721
 20
9.949999868288685
 30
0.0
 11
18.64221216833721
 21
11.76520189364403
 31
0.0
  0
ARC
  5
7E4
330
1A
100
AcDbEntity
  8
ZUWAKU
100
AcDbCircle
 10
24.94221216833716
 20
11.34999986828869
 30
0.0
 40
1.4
100
AcDbArc
 50
180.0
 51
270.0
  0
ARC
  5
7E5
330
1A
100
AcDbEntity
  8
ZUWAKU
100
AcDbCircle
 10
17.59221216833714
 20
22.72499986828868
 30
0.0
 40
0.5249999999999999
100
AcDbArc
 50
0.0
 51
90.0
  0
ARC
  5
7E6
330
1A
100
AcDbEntity
  8
ZUWAKU
100
AcDbCircle
 10
17.59221216833714
 20
20.97499986828868
 30
0.0
 40
0.5249999999999999
100
AcDbArc
 50
270.0
 51
0.0
  0
LINE
  5
7E7
330
1A
100
AcDbEntity
  8
ZUWAKU
100
AcDbLine
 10
14.09221216833714
 20
23.24999986828869
 30
0.0
 11
17.59221216833714
 21
23.24999986828869
 31
0.0
  0
ARC
  5
7E8
330
1A
100
AcDbEntity
  8
ZUWAKU
100
AcDbCircle
 10
14.61721216833712
 20
19.92499986828869
 30
0.0
 40
0.5249999999999999
100
AcDbArc
 50
90.0
 51
180.0
  0
LINE
  5
7E9
330
1A
100
AcDbEntity
  8
ZUWAKU
100
AcDbLine
 10
14.09221216833714
 20
19.92499986828869
 30
0.0
 11
14.09221216833714
 21
18.63479784293335
 31
0.0
  0
LINE
  5
7EA
330
1A
100
AcDbEntity
  8
ZUWAKU
100
AcDbLine
 10
17.59221216833714
 20
20.44999986828869
 30
0.0
 11
14.61721216833712
 21
20.44999986828869
 31
0.0
  0
LINE
  5
7EB
330
1A
100
AcDbEntity
  8
ZUWAKU
100
AcDbLine
 10
11.29221216833719
 20
20.44999986828869
 30
0.0
 11
11.29221216833719
 21
18.63479784293335
 31
0.0
  0
ARC
  5
7EC
330
1A
100
AcDbEntity
  8
ZUWAKU
100
AcDbCircle
 10
14.09221216833714
 20
20.44999986828869
 30
0.0
 40
2.8
100
AcDbArc
 50
90.0
 51
180.0
  0
LINE
  5
7ED
330
1A
100
AcDbEntity
  8
ZUWAKU
100
AcDbLine
 10
18.11721216833712
 20
22.72499986828868
 30
0.0
 11
18.11721216833712
 21
20.97499986828868
 31
0.0
  0
ARC
  5
7EE
330
1A
100
AcDbEntity
  8
ZUWAKU
100
AcDbCircle
 10
24.94221216833716
 20
19.04999986828869
 30
0.0
 40
1.4
100
AcDbArc
 50
90.0
 51
180.0
  0
ARC
  5
7EF
330
1A
100
AcDbEntity
  8
ZUWAKU
100
AcDbCircle
 10
24.94221216833716
 20
19.04999986828864
 30
0.0
 40
4.199999999999999
100
AcDbArc
 50
90.0
 51
180.0
  0
LINE
  5
7F0
330
1A
100
AcDbEntity
  8
ZUWAKU
100
AcDbLine
 10
79.32662956154422
 20
29.99999986828868
 30
0.0
 11
79.32662956154445
 21
0.7999998682887508
 31
0.0
  0
LINE
  5
7F1
330
1A
100
AcDbEntity
  8
ZUWAKU
100
AcDbLine
 10
79.52662956154427
 20
29.99999986828868
 30
0.0
 11
79.5266295615445
 21
0.7999998682887508
 31
0.0
  0
LINE
  5
7F2
330
1A
100
AcDbEntity
  8
ZUWAKU
100
AcDbLine
 10
79.12662956154441
 20
29.99999986828868
 30
0.0
 11
79.12662956154441
 21
0.7999998682887508
 31
0.0
  0
LINE
  5
7F3
330
1A
100
AcDbEntity
  8
ZUWAKU
100
AcDbLine
 10
64.14221216833721
 20
9.949999868288685
 30
0.0
 11
64.14221216833721
 21
22.72499986828868
 31
0.0
  0
LINE
  5
7F4
330
1A
100
AcDbEntity
  8
ZUWAKU
100
AcDbLine
 10
61.34221216833714
 20
22.72499986828868
 30
0.0
 11
61.34221216833714
 21
10.99999986828868
 31
0.0
  0
LINE
  5
7F5
330
1A
100
AcDbEntity
  8
ZUWAKU
100
AcDbLine
 10
69.04221216833719
 20
7.674999868288687
 30
0.0
 11
69.04221216833719
 21
22.72499986828868
 31
0.0
  0
LINE
  5
7F6
330
1A
100
AcDbEntity
  8
ZUWAKU
100
AcDbLine
 10
66.24221216833712
 20
22.72499986828868
 30
0.0
 11
66.24221216833712
 21
7.674999868288687
 31
0.0
  0
ARC
  5
7F7
330
1A
100
AcDbEntity
  8
ZUWAKU
100
AcDbCircle
 10
49.79221216833719
 20
18.63479784293339
 30
0.0
 40
1.4
100
AcDbArc
 50
180.0000000000016
 51
224.9999999999988
  0
ARC
  5
7F8
330
1A
100
AcDbEntity
  8
ZUWAKU
100
AcDbCircle
 10
49.79221216833719
 20
18.63479784293339
 30
0.0
 40
4.199999999999999
100
AcDbArc
 50
180.0
 51
225.0
  0
LINE
  5
7F9
330
1A
100
AcDbEntity
  8
ZUWAKU
100
AcDbLine
 10
37.31485865051513
 20
19.20504706185211
 30
0.0
 11
36.05010690517929
 21
15.19999986828871
 31
0.0
  0
LINE
  5
7FA
330
1A
100
AcDbEntity
  8
ZUWAKU
100
AcDbLine
 10
40.69221216833716
 20
22.72499986828868
 30
0.0
 11
40.69221216833716
 21
7.674999868288687
 31
0.0
  0
LINE
  5
7FB
330
1A
100
AcDbEntity
  8
ZUWAKU
100
AcDbLine
 10
43.49221216833712
 20
7.674999868288687
 30
0.0
 11
43.49221216833712
 21
22.72499986828868
 31
0.0
  0
LINE
  5
7FC
330
1A
100
AcDbEntity
  8
ZUWAKU
100
AcDbLine
 10
55.04221216833719
 20
22.72499986828868
 30
0.0
 11
55.04221216833719
 21
9.949999868288685
 31
0.0
  0
LINE
  5
7FD
330
1A
100
AcDbEntity
  8
ZUWAKU
100
AcDbLine
 10
57.84221216833714
 20
10.99999986828868
 30
0.0
 11
57.84221216833714
 21
22.72499986828868
 31
0.0
  0
LINE
  5
7FE
330
1A
100
AcDbEntity
  8
ZUWAKU
100
AcDbLine
 10
32.64221216833721
 20
17.12499986828869
 30
0.0
 11
32.64221216833721
 21
22.72499986828868
 31
0.0
  0
LINE
  5
7FF
330
1A
100
AcDbEntity
  8
ZUWAKU
100
AcDbLine
 10
29.84221216833714
 20
22.72499986828868
 30
0.0
 11
29.84221216833714
 21
7.674999868288687
 31
0.0
  0
LINE
  5
800
330
1A
100
AcDbEntity
  8
ZUWAKU
100
AcDbLine
 10
35.67634710565301
 20
22.88309383645566
 30
0.0
 11
33.80807723102123
 21
16.96690590012172
 31
0.0
  0
LINE
  5
801
330
1A
100
AcDbEntity
  8
ZUWAKU
100
AcDbLine
 10
60.29221216833719
 20
9.949999868288685
 30
0.0
 11
58.89221216833721
 21
9.949999868288685
 31
0.0
  0
LINE
  5
802
330
1A
100
AcDbEntity
  8
ZUWAKU
100
AcDbLine
 10
57.84221216833714
 20
7.149999868288688
 30
0.0
 11
61.34221216833714
 21
7.149999868288688
 31
0.0
  0
LINE
  5
803
330
1A
100
AcDbEntity
  8
ZUWAKU
100
AcDbLine
 10
41.21721216833714
 20
7.149999868288688
 30
0.0
 11
42.96721216833714
 21
7.149999868288688
 31
0.0
  0
LINE
  5
804
330
1A
100
AcDbEntity
  8
ZUWAKU
100
AcDbLine
 10
35.67634710565301
 20
7.516905900121714
 30
0.0
 11
33.80807723102123
 21
13.43309383645565
 31
0.0
  0
ARC
  5
805
330
1A
100
AcDbEntity
  8
ZUWAKU
100
AcDbCircle
 10
33.30744633182587
 20
17.12499986828869
 30
0.0
 40
0.5249999999999999
100
AcDbArc
 50
270.0
 51
342.474431626277
  0
LINE
  5
806
330
1A
100
AcDbEntity
  8
ZUWAKU
100
AcDbLine
 10
33.30744633182587
 20
16.59999986828868
 30
0.0
 11
33.16721216833719
 21
16.59999986828868
 31
0.0
  0
LINE
  5
807
330
1A
100
AcDbEntity
  8
ZUWAKU
100
AcDbLine
 10
33.16721216833719
 20
13.79999986828869
 30
0.0
 11
33.30744633182587
 21
13.79999986828869
 31
0.0
  0
ARC
  5
808
330
1A
100
AcDbEntity
  8
ZUWAKU
100
AcDbCircle
 10
33.16721216833719
 20
17.12499986828869
 30
0.0
 40
0.5249999999999999
100
AcDbArc
 50
180.0
 51
270.0
  0
LINE
  5
809
330
1A
100
AcDbEntity
  8
ZUWAKU
100
AcDbLine
 10
30.36721216833712
 20
7.149999868288688
 30
0.0
 11
32.11721216833712
 21
7.149999868288688
 31
0.0
  0
ARC
  5
80A
330
1A
100
AcDbEntity
  8
ZUWAKU
100
AcDbCircle
 10
32.11721216833712
 20
7.674999868288687
 30
0.0
 40
0.5249999999999999
100
AcDbArc
 50
270.0
 51
0.0
  0
LINE
  5
80B
330
1A
100
AcDbEntity
  8
ZUWAKU
100
AcDbLine
 10
32.64221216833721
 20
7.674999868288687
 30
0.0
 11
32.64221216833721
 21
13.27499986828869
 31
0.0
  0
LINE
  5
80C
330
1A
100
AcDbEntity
  8
ZUWAKU
100
AcDbLine
 10
27.39221216833721
 20
9.424999868288687
 30
0.0
 11
27.39221216833721
 21
7.674999868288687
 31
0.0
  0
ARC
  5
80D
330
1A
100
AcDbEntity
  8
ZUWAKU
100
AcDbCircle
 10
26.86721216833712
 20
7.674999868288687
 30
0.0
 40
0.5249999999999999
100
AcDbArc
 50
270.0
 51
0.0
  0
ARC
  5
80E
330
1A
100
AcDbEntity
  8
ZUWAKU
100
AcDbCircle
 10
26.86721216833712
 20
9.424999868288687
 30
0.0
 40
0.5249999999999999
100
AcDbArc
 50
0.0
 51
90.0
  0
ARC
  5
80F
330
1A
100
AcDbEntity
  8
ZUWAKU
100
AcDbCircle
 10
30.36721216833712
 20
7.674999868288687
 30
0.0
 40
0.5249999999999999
100
AcDbArc
 50
180.0
 51
270.0
  0
ARC
  5
810
330
1A
100
AcDbEntity
  8
ZUWAKU
100
AcDbCircle
 10
33.30744633182587
 20
13.27499986828869
 30
0.0
 40
0.5249999999999999
100
AcDbArc
 50
17.52556837372303
 51
90.0
  0
ARC
  5
811
330
1A
100
AcDbEntity
  8
ZUWAKU
100
AcDbCircle
 10
33.16721216833719
 20
13.27499986828869
 30
0.0
 40
0.5249999999999999
100
AcDbArc
 50
90.0
 51
180.0
  0
ARC
  5
812
330
1A
100
AcDbEntity
  8
ZUWAKU
100
AcDbCircle
 10
41.21721216833714
 20
7.674999868288687
 30
0.0
 40
0.5249999999999999
100
AcDbArc
 50
180.0
 51
270.0
  0
LINE
  5
813
330
1A
100
AcDbEntity
  8
ZUWAKU
100
AcDbLine
 10
36.17697800484848
 20
7.149999868288688
 30
0.0
 11
37.87586738445748
 21
7.149999868288688
 31
0.0
  0
ARC
  5
814
330
1A
100
AcDbEntity
  8
ZUWAKU
100
AcDbCircle
 10
37.87586738445748
 20
7.674999868288687
 30
0.0
 40
0.5249999999999999
100
AcDbArc
 50
270.0
 51
17.52556837372303
  0
LINE
  5
815
330
1A
100
AcDbEntity
  8
ZUWAKU
100
AcDbLine
 10
38.37649828365295
 20
7.83309383645566
 30
0.0
 11
36.05010690517929
 21
15.19999986828871
 31
0.0
  0
ARC
  5
816
330
1A
100
AcDbEntity
  8
ZUWAKU
100
AcDbCircle
 10
36.17697800484848
 20
7.674999868288687
 30
0.0
 40
0.5249999999999999
100
AcDbArc
 50
197.525568373723
 51
270.0
  0
ARC
  5
817
330
1A
100
AcDbEntity
  8
ZUWAKU
100
AcDbCircle
 10
57.84221216833714
 20
9.949999868288685
 30
0.0
 40
2.8
100
AcDbArc
 50
180.0
 51
270.0
  0
ARC
  5
818
330
1A
100
AcDbEntity
  8
ZUWAKU
100
AcDbCircle
 10
50.14221216833721
 20
9.949999868288685
 30
0.0
 40
2.8
100
AcDbArc
 50
270.0
 51
0.0
  0
LINE
  5
819
330
1A
100
AcDbEntity
  8
ZUWAKU
100
AcDbLine
 10
51.71206064932073
 20
14.73505037462751
 30
0.0
 11
48.80226267467594
 21
17.64484834927219
 31
0.0
  0
LINE
  5
81A
330
1A
100
AcDbEntity
  8
ZUWAKU
100
AcDbLine
 10
50.14221216833721
 20
10.47499986828869
 30
0.0
 11
50.14221216833721
 21
11.76520189364403
 31
0.0
  0
ARC
  5
81B
330
1A
100
AcDbEntity
  8
ZUWAKU
100
AcDbCircle
 10
48.74221216833712
 20
11.76520189364403
 30
0.0
 40
1.4
100
AcDbArc
 50
0.0
 51
45.0
  0
ARC
  5
81C
330
1A
100
AcDbEntity
  8
ZUWAKU
100
AcDbCircle
 10
49.61721216833712
 20
10.47499986828869
 30
0.0
 40
0.5249999999999999
100
AcDbArc
 50
270.0
 51
0.0
  0
LINE
  5
81D
330
1A
100
AcDbEntity
  8
ZUWAKU
100
AcDbLine
 10
46.11721216833712
 20
7.674999868288687
 30
0.0
 11
46.11721216833712
 21
9.424999868288687
 31
0.0
  0
ARC
  5
81E
330
1A
100
AcDbEntity
  8
ZUWAKU
100
AcDbCircle
 10
46.64221216833721
 20
7.674999868288687
 30
0.0
 40
0.5249999999999999
100
AcDbArc
 50
180.0
 51
270.0
  0
ARC
  5
81F
330
1A
100
AcDbEntity
  8
ZUWAKU
100
AcDbCircle
 10
42.96721216833714
 20
7.674999868288687
 30
0.0
 40
0.5249999999999999
100
AcDbArc
 50
270.0
 51
0.0
  0
ARC
  5
820
330
1A
100
AcDbEntity
  8
ZUWAKU
100
AcDbCircle
 10
46.64221216833721
 20
9.424999868288687
 30
0.0
 40
0.5249999999999999
100
AcDbArc
 50
90.0
 51
180.0
  0
LINE
  5
821
330
1A
100
AcDbEntity
  8
ZUWAKU
100
AcDbLine
 10
46.64221216833721
 20
9.949999868288685
 30
0.0
 11
49.61721216833712
 21
9.949999868288685
 31
0.0
  0
LINE
  5
822
330
1A
100
AcDbEntity
  8
ZUWAKU
100
AcDbLine
 10
46.64221216833721
 20
7.149999868288688
 30
0.0
 11
50.14221216833721
 21
7.149999868288688
 31
0.0
  0
LINE
  5
823
330
1A
100
AcDbEntity
  8
ZUWAKU
100
AcDbLine
 10
46.82236368735369
 20
15.66494936194987
 30
0.0
 11
49.73216166199836
 21
12.7551513873052
 31
0.0
  0
LINE
  5
824
330
1A
100
AcDbEntity
  8
ZUWAKU
100
AcDbLine
 10
52.94221216833716
 20
9.949999868288685
 30
0.0
 11
52.94221216833716
 21
11.76520189364403
 31
0.0
  0
ARC
  5
825
330
1A
100
AcDbEntity
  8
ZUWAKU
100
AcDbCircle
 10
48.74221216833712
 20
11.76520189364399
 30
0.0
 40
4.199999999999999
100
AcDbArc
 50
0.0
 51
45.0
  0
ARC
  5
826
330
1A
100
AcDbEntity
  8
ZUWAKU
100
AcDbCircle
 10
58.89221216833721
 20
10.99999986828868
 30
0.0
 40
1.05
100
AcDbArc
 50
180.0
 51
270.0
  0
ARC
  5
827
330
1A
100
AcDbEntity
  8
ZUWAKU
100
AcDbCircle
 10
61.34221216833714
 20
9.949999868288685
 30
0.0
 40
2.8
100
AcDbArc
 50
270.0
 51
0.0
  0
LINE
  5
828
330
1A
100
AcDbEntity
  8
ZUWAKU
100
AcDbLine
 10
66.76721216833721
 20
7.149999868288688
 30
0.0
 11
68.51721216833721
 21
7.149999868288688
 31
0.0
  0
ARC
  5
829
330
1A
100
AcDbEntity
  8
ZUWAKU
100
AcDbCircle
 10
66.76721216833721
 20
7.674999868288687
 30
0.0
 40
0.5249999999999999
100
AcDbArc
 50
180.0
 51
270.0
  0
ARC
  5
82A
330
1A
100
AcDbEntity
  8
ZUWAKU
100
AcDbCircle
 10
60.29221216833719
 20
10.99999986828868
 30
0.0
 40
1.05
100
AcDbArc
 50
270.0
 51
0.0
  0
ARC
  5
82B
330
1A
100
AcDbEntity
  8
ZUWAKU
100
AcDbCircle
 10
68.51721216833721
 20
7.674999868288687
 30
0.0
 40
0.5249999999999999
100
AcDbArc
 50
270.0
 51
0.0
  0
LINE
  5
82C
330
1A
100
AcDbEntity
  8
ZUWAKU
100
AcDbLine
 10
42.96721216833714
 20
23.24999986828869
 30
0.0
 11
41.21721216833714
 21
23.24999986828869
 31
0.0
  0
ARC
  5
82D
330
1A
100
AcDbEntity
  8
ZUWAKU
100
AcDbCircle
 10
32.11721216833712
 20
22.72499986828868
 30
0.0
 40
0.5249999999999999
100
AcDbArc
 50
0.0
 51
90.0
  0
LINE
  5
82E
330
1A
100
AcDbEntity
  8
ZUWAKU
100
AcDbLine
 10
32.11721216833712
 20
23.24999986828869
 30
0.0
 11
30.36721216833712
 21
23.24999986828869
 31
0.0
  0
ARC
  5
82F
330
1A
100
AcDbEntity
  8
ZUWAKU
100
AcDbCircle
 10
26.86721216833712
 20
22.72499986828868
 30
0.0
 40
0.5249999999999999
100
AcDbArc
 50
0.0
 51
90.0
  0
ARC
  5
830
330
1A
100
AcDbEntity
  8
ZUWAKU
100
AcDbCircle
 10
30.36721216833712
 20
22.72499986828868
 30
0.0
 40
0.5249999999999999
100
AcDbArc
 50
90.0
 51
180.0
  0
ARC
  5
831
330
1A
100
AcDbEntity
  8
ZUWAKU
100
AcDbCircle
 10
26.86721216833712
 20
20.97499986828868
 30
0.0
 40
0.5249999999999999
100
AcDbArc
 50
270.0
 51
0.0
  0
LINE
  5
832
330
1A
100
AcDbEntity
  8
ZUWAKU
100
AcDbLine
 10
27.39221216833721
 20
22.72499986828868
 30
0.0
 11
27.39221216833721
 21
20.97499986828868
 31
0.0
  0
ARC
  5
833
330
1A
100
AcDbEntity
  8
ZUWAKU
100
AcDbCircle
 10
41.21721216833714
 20
22.72499986828868
 30
0.0
 40
0.5249999999999999
100
AcDbArc
 50
90.0
 51
180.0
  0
LINE
  5
834
330
1A
100
AcDbEntity
  8
ZUWAKU
100
AcDbLine
 10
36.17697800484848
 20
23.24999986828869
 30
0.0
 11
37.87586738445748
 21
23.24999986828869
 31
0.0
  0
ARC
  5
835
330
1A
100
AcDbEntity
  8
ZUWAKU
100
AcDbCircle
 10
37.87586738445748
 20
22.72499986828868
 30
0.0
 40
0.5249999999999999
100
AcDbArc
 50
342.474431626277
 51
90.0
  0
LINE
  5
836
330
1A
100
AcDbEntity
  8
ZUWAKU
100
AcDbLine
 10
38.37649828365295
 20
22.56690590012172
 30
0.0
 11
37.31485865051513
 21
19.20504706185211
 31
0.0
  0
ARC
  5
837
330
1A
100
AcDbEntity
  8
ZUWAKU
100
AcDbCircle
 10
36.17697800484848
 20
22.72499986828868
 30
0.0
 40
0.5249999999999999
100
AcDbArc
 50
90.0
 51
162.474431626277
  0
LINE
  5
838
330
1A
100
AcDbEntity
  8
ZUWAKU
100
AcDbLine
 10
48.39221216833721
 20
23.24999986828869
 30
0.0
 11
51.89221216833721
 21
23.24999986828869
 31
0.0
  0
LINE
  5
839
330
1A
100
AcDbEntity
  8
ZUWAKU
100
AcDbLine
 10
51.89221216833721
 20
20.44999986828869
 30
0.0
 11
48.91721216833719
 21
20.44999986828869
 31
0.0
  0
ARC
  5
83A
330
1A
100
AcDbEntity
  8
ZUWAKU
100
AcDbCircle
 10
48.91721216833719
 20
19.92499986828869
 30
0.0
 40
0.5249999999999999
100
AcDbArc
 50
90.0
 51
180.0
  0
LINE
  5
83B
330
1A
100
AcDbEntity
  8
ZUWAKU
100
AcDbLine
 10
48.39221216833721
 20
19.92499986828869
 30
0.0
 11
48.39221216833721
 21
18.63479784293335
 31
0.0
  0
ARC
  5
83C
330
1A
100
AcDbEntity
  8
ZUWAKU
100
AcDbCircle
 10
42.96721216833714
 20
22.72499986828868
 30
0.0
 40
0.5249999999999999
100
AcDbArc
 50
0.0
 51
90.0
  0
LINE
  5
83D
330
1A
100
AcDbEntity
  8
ZUWAKU
100
AcDbLine
 10
45.59221216833714
 20
20.44999986828869
 30
0.0
 11
45.59221216833714
 21
18.63479784293335
 31
0.0
  0
ARC
  5
83E
330
1A
100
AcDbEntity
  8
ZUWAKU
100
AcDbCircle
 10
48.39221216833721
 20
20.44999986828869
 30
0.0
 40
2.8
100
AcDbArc
 50
90.0
 51
180.0
  0
ARC
  5
83F
330
1A
100
AcDbEntity
  8
ZUWAKU
100
AcDbCircle
 10
57.31721216833716
 20
22.72499986828868
 30
0.0
 40
0.5249999999999999
100
AcDbArc
 50
0.0
 51
90.0
  0
ARC
  5
840
330
1A
100
AcDbEntity
  8
ZUWAKU
100
AcDbCircle
 10
55.56721216833716
 20
22.72499986828868
 30
0.0
 40
0.5249999999999999
100
AcDbArc
 50
90.0
 51
180.0
  0
LINE
  5
841
330
1A
100
AcDbEntity
  8
ZUWAKU
100
AcDbLine
 10
57.31721216833716
 20
23.24999986828869
 30
0.0
 11
55.56721216833716
 21
23.24999986828869
 31
0.0
  0
ARC
  5
842
330
1A
100
AcDbEntity
  8
ZUWAKU
100
AcDbCircle
 10
51.89221216833721
 20
22.72499986828868
 30
0.0
 40
0.5249999999999999
100
AcDbArc
 50
0.0
 51
90.0
  0
ARC
  5
843
330
1A
100
AcDbEntity
  8
ZUWAKU
100
AcDbCircle
 10
51.89221216833721
 20
20.97499986828868
 30
0.0
 40
0.5249999999999999
100
AcDbArc
 50
270.0
 51
0.0
  0
LINE
  5
844
330
1A
100
AcDbEntity
  8
ZUWAKU
100
AcDbLine
 10
52.41721216833719
 20
22.72499986828868
 30
0.0
 11
52.41721216833719
 21
20.97499986828868
 31
0.0
  0
LINE
  5
845
330
1A
100
AcDbEntity
  8
ZUWAKU
100
AcDbLine
 10
68.51721216833721
 20
23.24999986828869
 30
0.0
 11
66.76721216833721
 21
23.24999986828869
 31
0.0
  0
ARC
  5
846
330
1A
100
AcDbEntity
  8
ZUWAKU
100
AcDbCircle
 10
66.76721216833721
 20
22.72499986828868
 30
0.0
 40
0.5249999999999999
100
AcDbArc
 50
90.0
 51
180.0
  0
ARC
  5
847
330
1A
100
AcDbEntity
  8
ZUWAKU
100
AcDbCircle
 10
63.61721216833712
 20
22.72499986828868
 30
0.0
 40
0.5249999999999999
100
AcDbArc
 50
0.0
 51
90.0
  0
LINE
  5
848
330
1A
100
AcDbEntity
  8
ZUWAKU
100
AcDbLine
 10
63.61721216833712
 20
23.24999986828869
 30
0.0
 11
61.86721216833712
 21
23.24999986828869
 31
0.0
  0
ARC
  5
849
330
1A
100
AcDbEntity
  8
ZUWAKU
100
AcDbCircle
 10
61.86721216833712
 20
22.72499986828868
 30
0.0
 40
0.5249999999999999
100
AcDbArc
 50
90.0
 51
180.0
  0
ARC
  5
84A
330
1A
100
AcDbEntity
  8
ZUWAKU
100
AcDbCircle
 10
68.51721216833721
 20
22.72499986828868
 30
0.0
 40
0.5249999999999999
100
AcDbArc
 50
0.0
 51
90.0
  0
TEXT
  5
84B
330
1A
100
AcDbEntity
  8
moji
100
AcDbText
 10
239.8272026944071
 20
18.00492092569607
 30
0.0
 40
5.6
  1
入隅飾り
 41
0.9
  7
ｽﾀｲﾙ1
100
AcDbText
  0
TEXT
  5
84C
330
1A
100
AcDbEntity
  8
moji
100
AcDbText
 10
239.8272026944071
 20
3.204920925696104
 30
0.0
 40
5.6
  1
Σ９０
 41
0.9
  7
ｽﾀｲﾙ1
100
AcDbText
  0
LINE
  5
84D
330
1A
100
AcDbEntity
  8
ZUWAKU
100
AcDbLine
 10
208.246601303624
 20
29.99999986828868
 30
0.0
 11
208.246601303624
 21
0.7999998682887508
 31
0.0
  0
LINE
  5
84E
330
1A
100
AcDbEntity
  8
ZUWAKU
100
AcDbLine
 10
208.6466013036238
 20
29.99999986828868
 30
0.0
 11
208.646601303624
 21
0.7999998682887508
 31
0.0
  0
LINE
  5
84F
330
1A
100
AcDbEntity
  8
ZUWAKU
100
AcDbLine
 10
208.4466013036238
 20
29.99999986828868
 30
0.0
 11
208.446601303624
 21
0.7999998682887508
 31
0.0
  0
TEXT
  5
850
330
1A
100
AcDbEntity
  8
ZUWAKU
100
AcDbText
 10
209.7240463258336
 20
9.655356406674301
 30
0.0
 40
4.0
  1
サイズ
 41
0.9
  7
ｽﾀｲﾙ1
100
AcDbText
  0
TEXT
  5
851
330
1A
100
AcDbEntity
  8
ZUWAKU
100
AcDbText
 10
209.7240463258333
 20
24.05535640667426
 30
0.0
 40
4.0
  1
品名
 41
0.9
  7
ｽﾀｲﾙ1
100
AcDbText
  0
LINE
  5
852
330
1A
100
AcDbEntity
  8
ZUWAKU
100
AcDbLine
 10
648.8172025237602
 20
15.19999986828871
 30
0.0
 11
697.2490105620973
 21
15.19999986828872
 31
0.0
  0
LINE
  5
853
330
1A
100
AcDbEntity
  8
ZUWAKU
100
AcDbLine
 10
648.8172025237604
 20
15.39999986828872
 30
0.0
 11
697.2490105620973
 21
15.39999986828872
 31
0.0
  0
LINE
  5
854
330
1A
100
AcDbEntity
  8
ZUWAKU
100
AcDbLine
 10
648.8172025237602
 20
15.59999986828872
 30
0.0
 11
697.2490105620973
 21
15.59999986828872
 31
0.0
  0
TEXT
  5
855
330
1A
100
AcDbEntity
  8
ZUWAKU
100
AcDbText
 10
658.2039377008584
 20
18.00492092569607
 30
0.0
 40
5.6
  1
　　．　　．　　
 41
0.9
  7
ｽﾀｲﾙ1
100
AcDbText
  0
LINE
  5
856
330
1A
100
AcDbEntity
  8
ZUWAKU
100
AcDbLine
 10
505.1991795116969
 20
15.19999986828872
 30
0.0
 11
552.5269557796685
 21
15.19999986828872
 31
0.0
  0
LINE
  5
857
330
1A
100
AcDbEntity
  8
ZUWAKU
100
AcDbLine
 10
505.1991795116969
 20
15.39999986828872
 30
0.0
 11
552.5269557796685
 21
15.39999986828872
 31
0.0
  0
LINE
  5
858
330
1A
100
AcDbEntity
  8
ZUWAKU
100
AcDbLine
 10
505.1991795116969
 20
15.59999986828872
 30
0.0
 11
552.5269557796685
 21
15.59999986828872
 31
0.0
  0
TEXT
  5
859
330
1A
100
AcDbEntity
  8
moji
100
AcDbText
 10
463.2464320045581
 20
11.94261758994867
 30
0.0
 40
5.6
  1
ＧＳ４９□
 41
0.9
  7
ｽﾀｲﾙ1
100
AcDbText
  0
LINE
  5
85A
330
1A
100
AcDbEntity
  8
ZUWAKU
100
AcDbLine
 10
447.6243639845472
 20
29.99999986828868
 30
0.0
 11
447.6243639845475
 21
0.7999998682887508
 31
0.0
  0
LINE
  5
85B
330
1A
100
AcDbEntity
  8
ZUWAKU
100
AcDbLine
 10
447.8243639845473
 20
29.99999986828868
 30
0.0
 11
447.8243639845475
 21
0.7999998682887508
 31
0.0
  0
LINE
  5
85C
330
1A
100
AcDbEntity
  8
ZUWAKU
100
AcDbLine
 10
447.4243639845474
 20
29.99999986828868
 30
0.0
 11
447.4243639845474
 21
0.7999998682887508
 31
0.0
  0
TEXT
  5
85D
330
1A
100
AcDbEntity
  8
moji
100
AcDbText
 10
528.0409079858689
 20
18.00492092569607
 30
0.0
 40
5.6
  1
Ａ３
 41
0.9
  7
ｽﾀｲﾙ1
100
AcDbText
  0
LINE
  5
85E
330
1A
100
AcDbEntity
  8
ZUWAKU
100
AcDbLine
 10
504.9991795116969
 20
29.99999986828868
 30
0.0
 11
504.9991795116971
 21
0.7999998682887508
 31
0.0
  0
LINE
  5
85F
330
1A
100
AcDbEntity
  8
ZUWAKU
100
AcDbLine
 10
505.1991795116969
 20
29.99999986828868
 30
0.0
 11
505.1991795116971
 21
0.7999998682887508
 31
0.0
  0
LINE
  5
860
330
1A
100
AcDbEntity
  8
ZUWAKU
100
AcDbLine
 10
504.7991795116971
 20
29.99999986828868
 30
0.0
 11
504.7991795116971
 21
0.7999998682887508
 31
0.0
  0
TEXT
  5
861
330
1A
100
AcDbEntity
  8
ZUWAKU
100
AcDbText
 10
462.1716760137122
 20
2.614070779428175
 30
0.0
 40
3.0
  1
□には色品番が入ります
 41
0.9
  7
ｽﾀｲﾙ1
100
AcDbText
  0
TEXT
  5
862
330
1A
100
AcDbEntity
  8
ZUWAKU
100
AcDbText
 10
506.6766245339068
 20
9.655356406674301
 30
0.0
 40
4.0
  1
縮尺
 41
0.9
  7
ｽﾀｲﾙ1
100
AcDbText
  0
TEXT
  5
863
330
1A
100
AcDbEntity
  8
moji
100
AcDbText
 10
528.0409079858689
 20
3.204920925696104
 30
0.0
 40
5.6
  1
１/２
 41
0.9
  7
ｽﾀｲﾙ1
100
AcDbText
  0
TEXT
  5
864
330
1A
100
AcDbEntity
  8
ZUWAKU
100
AcDbText
 10
449.3018090067569
 20
24.05535640667426
 30
0.0
 40
4.0
  1
品番
 41
0.9
  7
ｽﾀｲﾙ1
100
AcDbText
  0
TEXT
  5
865
330
1A
100
AcDbEntity
  8
ZUWAKU
100
AcDbText
 10
506.6766245339065
 20
24.05535640667426
 30
0.0
 40
4.0
  1
用紙
 41
0.9
  7
ｽﾀｲﾙ1
100
AcDbText
  0
LINE
  5
866
330
1A
100
AcDbEntity
  8
ZUWAKU
100
AcDbLine
 10
648.6172025237604
 20
29.99999986828868
 30
0.0
 11
648.6172025237606
 21
0.7999998682887508
 31
0.0
  0
LINE
  5
867
330
1A
100
AcDbEntity
  8
ZUWAKU
100
AcDbLine
 10
648.8172025237604
 20
29.99999986828868
 30
0.0
 11
648.8172025237607
 21
0.7999998682887508
 31
0.0
  0
LINE
  5
868
330
1A
100
AcDbEntity
  8
ZUWAKU
100
AcDbLine
 10
648.4172025237606
 20
29.99999986828868
 30
0.0
 11
648.4172025237606
 21
0.7999998682887508
 31
0.0
  0
LINE
  5
869
330
1A
100
AcDbEntity
  8
ZUWAKU
100
AcDbLine
 10
552.7269557796683
 20
29.99999986828868
 30
0.0
 11
552.7269557796685
 21
0.7999998682887508
 31
0.0
  0
LINE
  5
86A
330
1A
100
AcDbEntity
  8
ZUWAKU
100
AcDbLine
 10
552.9269557796683
 20
29.99999986828868
 30
0.0
 11
552.9269557796686
 21
0.7999998682887508
 31
0.0
  0
LINE
  5
86B
330
1A
100
AcDbEntity
  8
ZUWAKU
100
AcDbLine
 10
552.5269557796685
 20
29.99999986828868
 30
0.0
 11
552.5269557796685
 21
0.7999998682887508
 31
0.0
  0
TEXT
  5
86C
330
1A
100
AcDbEntity
  8
ZUWAKU
100
AcDbText
 10
650.2946475459701
 20
24.05535640667426
 30
0.0
 40
4.0
  1
DATE
 41
0.9
  7
ｽﾀｲﾙ1
100
AcDbText
  0
LINE
  5
86D
330
1A
100
AcDbEntity
  8
ZUWAKU
100
AcDbLine
 10
697.2490105620973
 20
29.99999986828868
 30
0.0
 11
697.2490105620973
 21
0.7999998682887508
 31
0.0
  0
LINE
  5
86E
330
1A
100
AcDbEntity
  8
ZUWAKU
100
AcDbLine
 10
697.4490105620973
 20
29.99999986828868
 30
0.0
 11
697.4490105620973
 21
0.7999998682887508
 31
0.0
  0
LINE
  5
86F
330
1A
100
AcDbEntity
  8
ZUWAKU
100
AcDbLine
 10
697.6490105620972
 20
29.99999986828868
 30
0.0
 11
697.6490105620974
 21
0.7999998682887508
 31
0.0
  0
LINE
  5
870
330
1A
100
AcDbEntity
  8
ZUWAKU
100
AcDbLine
 10
697.8490105620972
 20
29.99999986828868
 30
0.0
 11
697.8490105620974
 21
0.7999998682887508
 31
0.0
  0
TEXT
  5
871
330
1A
100
AcDbEntity
  8
ZUWAKU
100
AcDbText
 10
708.5280842057998
 20
17.55383920397549
 30
0.0
 40
6.0
  1
積水化学工業株式会社
 41
0.9
  7
ｽﾀｲﾙ1
100
AcDbText
  0
TEXT
  5
872
330
1A
100
AcDbEntity
  8
ZUWAKU
100
AcDbText
 10
708.5280842057998
 20
6.648840182142749
 30
0.0
 40
6.0
  1
建材事業部
 41
0.9
  7
ｽﾀｲﾙ1
100
AcDbText
  0
DIMENSION
  5
16D4
330
1A
100
AcDbEntity
  8
SUNPOU
100
AcDbDimension
  2
*D1
 10
514.9989707957698
 20
270.0561075919737
 30
0.0
 11
509.9989707957697
 21
362.2501208895237
 31
0.0
 70
    32
 71
     5
 42
184.3880265950999
  3
STANDARD
100
AcDbAlignedDimension
 13
348.4923371671045
 23
454.4441341870736
 33
0.0
 14
447.9514320938044
 24
270.0561075919737
 34
0.0
 50
90.0
100
AcDbRotatedDimension
1001
ACAD
1000
DSTYLE
1002
{
1070
    41
1040
7.0
1070
    42
1040
6.0
1070
    43
1040
14.0
1070
    44
1040
3.0
1070
    73
1070
     0
1070
    74
1070
     0
1070
    77
1070
     3
1070
   140
1040
6.0
1070
   141
1040
150.0
1070
   147
1040
2.0
1070
   172
1070
     1
1070
   173
1070
     1
1070
   176
1070
   256
1070
   177
1070
   256
1070
   178
1070
   256
1070
   271
1070
     0
1070
   272
1070
     0
1070
   341
1005
6D
1070
     6
1000
OPEN
1070
     7
1000
OPEN
1070
   371
1070
    -1
1070
   372
1070
    -1
1002
}
  0
LINE
  5
16D5
330
1A
100
AcDbEntity
  8
SEIHIN
100
AcDbLine
 10
425.2746736257044
 20
276.0882317537737
 30
0.0
 11
426.3608006386044
 21
274.4689225667736
 31
0.0
  0
LINE
  5
16D6
330
1A
100
AcDbEntity
  8
SEIHIN
100
AcDbLine
 10
425.2746736257044
 20
210.6461688434097
 30
0.0
 11
426.3608006386044
 21
202.8102116218097
 31
0.0
  0
DIMENSION
  5
16D7
330
1A
100
AcDbEntity
  8
SUNPOU
100
AcDbDimension
  2
*D2
 10
233.866317924013
 20
152.1325479751098
 30
0.0
 11
228.8663179240129
 21
196.3822343876348
 31
0.0
 70
    32
 71
     5
 42
88.49937282504999
  3
STANDARD
100
AcDbAlignedDimension
 13
439.4376387445544
 23
240.6319208001597
 33
0.0
 14
277.5634040682044
 24
152.1325479751098
 34
0.0
 50
90.0
100
AcDbRotatedDimension
1001
ACAD
1000
DSTYLE
1002
{
1070
    41
1040
7.0
1070
    42
1040
6.0
1070
    43
1040
14.0
1070
    44
1040
3.0
1070
    73
1070
     0
1070
    74
1070
     0
1070
    77
1070
     3
1070
   140
1040
6.0
1070
   141
1040
150.0
1070
   147
1040
2.0
1070
   172
1070
     1
1070
   173
1070
     1
1070
   176
1070
     4
1070
   177
1070
     4
1070
   178
1070
     4
1070
   271
1070
     0
1070
   272
1070
     0
1070
   341
1005
6D
1070
     6
1000
OPEN
1070
     7
1000
OPEN
1002
}
  0
DIMENSION
  5
16D8
330
1A
100
AcDbEntity
  8
SUNPOU
100
AcDbDimension
  2
*D3
 10
461.8370269982044
 20
491.7734343496627
 30
0.0
 11
369.7002155332044
 21
496.7734343496627
 31
0.0
 70
    32
 71
     5
 42
184.27362293
  3
STANDARD
100
AcDbAlignedDimension
 13
277.5634040682044
 23
440.4441356176737
 33
0.0
 14
461.8370269982044
 24
341.5205753856736
 34
0.0
100
AcDbRotatedDimension
1001
ACAD
1000
DSTYLE
1002
{
1070
    41
1040
7.0
1070
    42
1040
6.0
1070
    43
1040
14.0
1070
    44
1040
3.0
1070
    73
1070
     0
1070
    74
1070
     0
1070
    77
1070
     3
1070
   140
1040
6.0
1070
   141
1040
150.0
1070
   147
1040
2.0
1070
   172
1070
     1
1070
   173
1070
     1
1070
   176
1070
     4
1070
   177
1070
     4
1070
   178
1070
     4
1070
   271
1070
     0
1070
   272
1070
     0
1070
   341
1005
6D
1070
     6
1000
OPEN
1070
     7
1000
OPEN
1002
}
  0
LINE
  5
16D9
330
1A
100
AcDbEntity
  8
SEIHIN
100
AcDbLine
 10
425.9514322130044
 20
441.4441376441736
 30
0.0
 11
445.9514341204044
 21
441.4441376441736
 31
0.0
  0
LINE
  5
16DA
330
1A
100
AcDbEntity
  8
SEIHIN
100
AcDbLine
 10
446.7792606799044
 20
442.2719642037737
 30
0.0
 11
425.9514322130044
 21
442.2719642037737
 31
0.0
  0
LINE
  5
16DB
330
1A
100
AcDbEntity
  8
SEIHIN
100
AcDbLine
 10
425.9514322130044
 20
443.4441342467736
 30
0.0
 11
447.9514307229044
 21
443.4441342467736
 31
0.0
  0
LINE
  5
16DC
330
1A
100
AcDbEntity
  8
SEIHIN
100
AcDbLine
 10
448.4514317362045
 20
443.9441352599737
 30
0.0
 11
425.9514322130044
 21
443.9441352599737
 31
0.0
  0
LINE
  5
16DD
330
1A
100
AcDbEntity
  8
SEIHIN
100
AcDbLine
 10
424.0278711168044
 20
430.6068062299736
 30
0.0
 11
438.1141027062045
 21
416.5205746406737
 31
0.0
  0
LINE
  5
16DE
330
1A
100
AcDbEntity
  8
SEIHIN
100
AcDbLine
 10
378.9514328910045
 20
436.2202599161737
 30
0.0
 11
431.4201956241045
 21
436.2202599161737
 31
0.0
  0
LINE
  5
16DF
330
1A
100
AcDbEntity
  8
CENTER L
  6
CENTER
 62
     1
 48
5.0
100
AcDbLine
 10
470.6027587088009
 20
463.6378831264973
 30
0.0
 11
413.6944771908007
 21
406.7296016085974
 31
0.0
  0
LINE
  5
16E0
330
1A
100
AcDbEntity
  8
SEIHIN
100
AcDbLine
 10
426.4758338778045
 20
304.5049771183737
 30
0.0
 11
424.4730582087045
 21
304.5049771183737
 31
0.0
  0
LINE
  5
16E1
330
1A
100
AcDbEntity
  8
SEIHIN
100
AcDbLine
 10
424.5197733490045
 20
306.0422665888736
 30
0.0
 11
426.5231413393044
 21
306.0422665888736
 31
0.0
  0
LINE
  5
16E2
330
1A
100
AcDbEntity
  8
SEIHIN
100
AcDbLine
 10
424.6461575477044
 20
281.5009593480737
 30
0.0
 11
426.6511311381046
 21
281.5009593480737
 31
0.0
  0
LINE
  5
16E3
330
1A
100
AcDbEntity
  8
SEIHIN
100
AcDbLine
 10
427.2876752166044
 20
276.0882317537737
 30
0.0
 11
425.2746736257045
 21
276.0882317537737
 31
0.0
  0
LINE
  5
16E4
330
1A
100
AcDbEntity
  8
SEIHIN
100
AcDbLine
 10
426.4758338778045
 20
237.0561208134097
 30
0.0
 11
424.4730582087045
 21
237.0561208134097
 31
0.0
  0
LINE
  5
16E5
330
1A
100
AcDbEntity
  8
SEIHIN
100
AcDbLine
 10
424.5197733490045
 20
237.9050362414098
 30
0.0
 11
426.5231413393044
 21
237.9050362414098
 31
0.0
  0
LINE
  5
16E6
330
1A
100
AcDbEntity
  8
SEIHIN
100
AcDbLine
 10
424.6461575477044
 20
217.4950945681097
 30
0.0
 11
426.6511311381046
 21
217.4950945681097
 31
0.0
  0
LINE
  5
16E7
330
1A
100
AcDbEntity
  8
SEIHIN
100
AcDbLine
 10
427.2876752166044
 20
210.6461688434097
 30
0.0
 11
425.2746736257045
 21
210.6461688434097
 31
0.0
  0
ARC
  5
16E8
330
1A
100
AcDbEntity
  8
SEIHIN
100
AcDbCircle
 10
574.3663504171045
 20
227.8339405215098
 30
0.0
 40
150.0767399982
100
AcDbArc
 50
183.9502576943005
 51
190.8681737663001
  0
LINE
  5
16E9
330
1A
100
AcDbEntity
  8
SEIHIN
100
AcDbLine
 10
439.1294678299046
 20
240.6324330276098
 30
0.0
 11
425.7032496481045
 21
240.6324330276098
 31
0.0
  0
LINE
  5
16EA
330
1A
100
AcDbEntity
  8
SEIHIN
100
AcDbLine
 10
354.6344738080045
 20
451.6383870953737
 30
0.0
 11
455.2001094072043
 21
451.6383870953737
 31
0.0
  0
LINE
  5
16EB
330
1A
100
AcDbEntity
  8
SEIHIN
100
AcDbLine
 10
424.4622250645043
 20
178.3386725491098
 30
0.0
 11
431.9750180094045
 21
172.6324330574097
 31
0.0
  0
LINE
  5
16EC
330
1A
100
AcDbEntity
  8
SEIHIN
100
AcDbLine
 10
423.9514318852043
 20
167.1324330872097
 30
0.0
 11
440.1598831265044
 21
167.1324330872097
 31
0.0
  0
LINE
  5
16ED
330
1A
100
AcDbEntity
  8
SEIHIN
100
AcDbLine
 10
432.8670313208045
 20
172.6324330574097
 30
0.0
 11
425.3421609847044
 21
178.3478460764098
 31
0.0
  0
LINE
  5
16EE
330
1A
100
AcDbEntity
  8
SEIHIN
100
AcDbLine
 10
432.3863794653043
 20
178.3281951701098
 30
0.0
 11
425.6020782141045
 21
178.3281951701098
 31
0.0
  0
LINE
  5
16EF
330
1A
100
AcDbEntity
  8
SEIHIN
100
AcDbLine
 10
431.9750180094045
 20
172.6324330574097
 30
0.0
 11
380.9514332189044
 21
172.6324330574097
 31
0.0
  0
LINE
  5
16F0
330
1A
100
AcDbEntity
  8
SEIHIN
100
AcDbLine
 10
440.5841266362045
 20
160.1324338024097
 30
0.0
 11
354.6344738080045
 21
160.1324338024097
 31
0.0
  0
LINE
  5
16F1
330
1A
100
AcDbEntity
  8
SEIHIN
100
AcDbLine
 10
295.1084410398045
 20
207.1228209441098
 30
0.0
 11
293.9021026342044
 21
201.2744569709097
 31
0.0
  0
LINE
  5
16F2
330
1A
100
AcDbEntity
  8
SEIHIN
100
AcDbLine
 10
295.4942619054045
 20
192.0146081155098
 30
0.0
 11
294.7024216501044
 21
187.4390594220097
 31
0.0
  0
LINE
  5
16F3
330
1A
100
AcDbEntity
  8
SEIHIN
100
AcDbLine
 10
293.8260396568044
 20
200.7300332678097
 30
0.0
 11
295.1092233507044
 21
207.1223496949098
 31
0.0
  0
LINE
  5
16F4
330
1A
100
AcDbEntity
  8
SEIHIN
100
AcDbLine
 10
296.5533097832044
 20
221.8447584217097
 30
0.0
 11
292.8595354406045
 21
219.5329308068098
 31
0.0
  0
DIMENSION
  5
16F5
330
1A
100
AcDbEntity
  8
SUNPOU
100
AcDbDimension
  2
*D4
 10
277.5634040682044
 20
132.9159748516786
 30
0.0
 11
292.5634046642545
 21
137.9159748516786
 31
0.0
 70
    32
 71
     5
 42
30.00000119210017
  3
STANDARD
100
AcDbAlignedDimension
 13
307.5634052603045
 23
152.1001044219098
 33
0.0
 14
277.5634040682044
 24
152.1325479751098
 34
0.0
100
AcDbRotatedDimension
1001
ACAD
1000
DSTYLE
1002
{
1070
    41
1040
7.0
1070
    42
1040
6.0
1070
    43
1040
14.0
1070
    44
1040
3.0
1070
    73
1070
     0
1070
    74
1070
     0
1070
    77
1070
     3
1070
   140
1040
6.0
1070
   141
1040
150.0
1070
   147
1040
2.0
1070
   172
1070
     1
1070
   173
1070
     1
1070
   176
1070
     4
1070
   177
1070
     4
1070
   178
1070
     4
1070
   271
1070
     0
1070
   272
1070
     0
1070
   341
1005
6D
1070
     6
1000
OPEN
1070
     7
1000
OPEN
1002
}
  0
DIMENSION
  5
16F6
330
1A
100
AcDbEntity
  8
SUNPOU
 62
     4
100
AcDbDimension
  2
*D5
 10
315.2705124333048
 20
229.92532640641
 30
0.0
 11
285.5377792800085
 21
259.6580595618049
 31
0.0
 70
   163
  1
%%c <>
 71
     5
 42
1.999999999967372
  3
VELDIM2
100
AcDbDiametricDimension
 15
313.8562988710047
 25
231.3395399688099
 35
0.0
 40
0.0
  0
LINE
  5
16F7
330
1A
100
AcDbEntity
  8
SEIHIN
100
AcDbLine
 10
307.5634052603045
 20
152.1002199059097
 30
0.0
 11
277.5634040682044
 21
152.1002199059097
 31
0.0
  0
LINE
  5
16F8
330
1A
100
AcDbEntity
  8
SEIHIN
100
AcDbLine
 10
277.5634040682044
 20
152.1325479751098
 30
0.0
 11
307.5634052603045
 21
152.1325479751098
 31
0.0
  0
LINE
  5
16F9
330
1A
100
AcDbEntity
  8
SEIHIN
100
AcDbLine
 10
277.5634040682044
 20
152.1001044219098
 30
0.0
 11
307.5634052603045
 21
152.1001044219098
 31
0.0
  0
LINE
  5
16FA
330
1A
100
AcDbEntity
  8
SEIHIN
100
AcDbLine
 10
307.5634052603045
 20
175.1983813500098
 30
0.0
 11
293.4555520861045
 21
175.1983813500098
 31
0.0
  0
LINE
  5
16FB
330
1A
100
AcDbEntity
  8
SEIHIN
100
AcDbLine
 10
424.2652279882045
 20
178.3281951701098
 30
0.0
 11
293.3892344682045
 21
178.3281951701098
 31
0.0
  0
LINE
  5
16FC
330
1A
100
AcDbEntity
  8
SEIHIN
100
AcDbLine
 10
291.4609273522045
 20
186.8497464364098
 30
0.0
 11
290.3699760883044
 21
178.3281951701098
 31
0.0
  0
LINE
  5
16FD
330
1A
100
AcDbEntity
  8
SEIHIN
100
AcDbLine
 10
293.9869870989044
 20
182.8736798396097
 30
0.0
 11
293.3892344682045
 21
178.3281951701098
 31
0.0
  0
LINE
  5
16FE
330
1A
100
AcDbEntity
  8
SEIHIN
100
AcDbLine
 10
290.3699760883044
 20
178.3281951701098
 30
0.0
 11
291.4031257479044
 21
186.3201945578098
 31
0.0
  0
LINE
  5
16FF
330
1A
100
AcDbEntity
  8
SEIHIN
100
AcDbLine
 10
279.3120180814045
 20
186.6201921856098
 30
0.0
 11
278.2968243210044
 21
178.3281951701098
 31
0.0
  0
LINE
  5
1700
330
1A
100
AcDbEntity
  8
SEIHIN
100
AcDbLine
 10
277.5634040682044
 20
170.6324327295097
 30
0.0
 11
277.5634040682044
 21
154.0114428406097
 31
0.0
  0
LINE
  5
1701
330
1A
100
AcDbEntity
  8
SEIHIN
100
AcDbLine
 10
277.5634040682044
 20
152.1325479751098
 30
0.0
 11
277.5634040682044
 21
152.1002199059097
 31
0.0
  0
LINE
  5
1702
330
1A
100
AcDbEntity
  8
SEIHIN
100
AcDbLine
 10
277.5634040682044
 20
154.0114428406097
 30
0.0
 11
277.5634040682044
 21
152.1325479751098
 31
0.0
  0
LINE
  5
1703
330
1A
100
AcDbEntity
  8
SEIHIN
100
AcDbLine
 10
278.2968243210044
 20
178.3281951701098
 30
0.0
 11
290.3699760883044
 21
178.3281951701098
 31
0.0
  0
LINE
  5
1704
330
1A
100
AcDbEntity
  8
SEIHIN
100
AcDbLine
 10
277.7347748725044
 20
172.6324330574097
 30
0.0
 11
290.3699760883044
 21
172.6324330574097
 31
0.0
  0
LINE
  5
1705
330
1A
100
AcDbEntity
  8
SEIHIN
100
AcDbLine
 10
277.7347748725044
 20
172.6324330574097
 30
0.0
 11
277.5634040682044
 21
170.6324327295097
 31
0.0
  0
LINE
  5
1706
330
1A
100
AcDbEntity
  8
SEIHIN
100
AcDbLine
 10
277.7347748725044
 20
172.7534230357098
 30
0.0
 11
277.7347748725044
 21
172.6324330574097
 31
0.0
  0
LINE
  5
1707
330
1A
100
AcDbEntity
  8
SEIHIN
100
AcDbLine
 10
277.5634040682044
 20
170.7534227079098
 30
0.0
 11
277.5634040682044
 21
170.6324327295097
 31
0.0
  0
LINE
  5
1708
330
1A
100
AcDbEntity
  8
SEIHIN
100
AcDbLine
 10
277.5634040682044
 20
170.7534227079098
 30
0.0
 11
277.7347748725044
 21
172.7534230357098
 31
0.0
  0
LINE
  5
1709
330
1A
100
AcDbEntity
  8
SEIHIN
100
AcDbLine
 10
277.7347748725044
 20
172.7534230357098
 30
0.0
 11
277.7455782144044
 21
172.7534230357098
 31
0.0
  0
LINE
  5
170A
330
1A
100
AcDbEntity
  8
SEIHIN
100
AcDbLine
 10
278.2968243210044
 20
178.3281951701098
 30
0.0
 11
277.7347748725044
 21
172.6324330574097
 31
0.0
  0
LINE
  5
170B
330
1A
100
AcDbEntity
  8
SEIHIN
100
AcDbLine
 10
293.3892344682045
 20
178.3281951701098
 30
0.0
 11
290.3699760883044
 21
178.3281951701098
 31
0.0
  0
LINE
  5
170C
330
1A
100
AcDbEntity
  8
SEIHIN
100
AcDbLine
 10
293.3892344682045
 20
175.1432284271098
 30
0.0
 11
293.4555520861045
 21
175.1983813500098
 31
0.0
  0
LINE
  5
170D
330
1A
100
AcDbEntity
  8
SEIHIN
100
AcDbLine
 10
290.3699760883044
 20
172.6324330574097
 30
0.0
 11
293.3892344682045
 21
175.1432284271098
 31
0.0
  0
LINE
  5
170E
330
1A
100
AcDbEntity
  8
SEIHIN
100
AcDbLine
 10
290.3699760883044
 20
172.6324330574097
 30
0.0
 11
290.3699760883044
 21
178.3281951701098
 31
0.0
  0
LINE
  5
170F
330
1A
100
AcDbEntity
  8
SEIHIN
100
AcDbLine
 10
293.3892344682045
 20
175.1432284271098
 30
0.0
 11
293.3892344682045
 21
178.3281951701098
 31
0.0
  0
LINE
  5
1710
330
1A
100
AcDbEntity
  8
SEIHIN
100
AcDbLine
 10
293.3892344682045
 20
178.3281951701098
 30
0.0
 11
293.4042324869045
 21
175.1557025617098
 31
0.0
  0
LINE
  5
1711
330
1A
100
AcDbEntity
  8
SEIHIN
100
AcDbLine
 10
283.5955282299044
 20
210.6461688434097
 30
0.0
 11
281.9762190430045
 21
202.8102116218097
 31
0.0
  0
LINE
  5
1712
330
1A
100
AcDbEntity
  8
SEIHIN
100
AcDbLine
 10
292.8219249098044
 20
195.4290377233098
 30
0.0
 11
291.4609273522045
 21
186.8497464364098
 31
0.0
  0
LINE
  5
1713
330
1A
100
AcDbEntity
  8
SEIHIN
100
AcDbLine
 10
291.4031257479044
 20
186.3201945578098
 30
0.0
 11
292.6420827953044
 21
194.3614772079097
 31
0.0
  0
LINE
  5
1714
330
1A
100
AcDbEntity
  8
SEIHIN
100
AcDbLine
 10
280.5727755277044
 20
194.9720402971097
 30
0.0
 11
279.3120180814045
 21
186.6201921856098
 31
0.0
  0
LINE
  5
1715
330
1A
100
AcDbEntity
  8
SEIHIN
100
AcDbLine
 10
294.7024216501044
 20
187.4390594220097
 30
0.0
 11
293.9869870989044
 21
182.8736798396097
 31
0.0
  0
LINE
  5
1716
330
1A
100
AcDbEntity
  8
SEIHIN
100
AcDbLine
 10
281.9762190430045
 20
202.8102116218097
 30
0.0
 11
280.5727755277044
 21
194.9720402971097
 31
0.0
  0
LINE
  5
1717
330
1A
100
AcDbEntity
  8
SEIHIN
100
AcDbLine
 10
293.9021026342044
 20
201.2744569709097
 30
0.0
 11
292.8219249098044
 21
195.4290377233098
 31
0.0
  0
LINE
  5
1718
330
1A
100
AcDbEntity
  8
SEIHIN
100
AcDbLine
 10
292.6420827953044
 20
194.3614772079097
 30
0.0
 11
293.8260396568044
 21
200.7300332678097
 31
0.0
  0
LINE
  5
1719
330
1A
100
AcDbEntity
  8
SEIHIN
100
AcDbLine
 10
284.8571499436044
 20
213.7540109014097
 30
0.0
 11
285.8464454858044
 21
215.0901123440098
 31
0.0
  0
LINE
  5
171A
330
1A
100
AcDbEntity
  8
SEIHIN
100
AcDbLine
 10
284.0856274216044
 20
212.2299108213097
 30
0.0
 11
284.8571499436044
 21
213.7540109014097
 31
0.0
  0
LINE
  5
171B
330
1A
100
AcDbEntity
  8
SEIHIN
100
AcDbLine
 10
283.5955282299044
 20
210.6461688434097
 30
0.0
 11
284.0856274216044
 21
212.2299108213097
 31
0.0
  0
LINE
  5
171C
330
1A
100
AcDbEntity
  8
SEIHIN
100
AcDbLine
 10
285.8464454858044
 20
215.0901123440098
 30
0.0
 11
287.0825862138045
 21
216.2756114756098
 31
0.0
  0
LINE
  5
171D
330
1A
100
AcDbEntity
  8
SEIHIN
100
AcDbLine
 10
287.0825862138045
 20
216.2756114756098
 30
0.0
 11
289.0082558243045
 21
217.4950945681097
 31
0.0
  0
LINE
  5
171E
330
1A
100
AcDbEntity
  8
SEIHIN
100
AcDbLine
 10
292.8595354406045
 20
219.5329308068098
 30
0.0
 11
289.0082558243045
 21
217.4950945681097
 31
0.0
  0
LINE
  5
171F
330
1A
100
AcDbEntity
  8
SEIHIN
100
AcDbLine
 10
423.2176465540044
 20
184.8955923250098
 30
0.0
 11
424.2652279882044
 21
178.3281951701098
 31
0.0
  0
LINE
  5
1720
330
1A
100
AcDbEntity
  8
SEIHIN
100
AcDbLine
 10
425.6020782141044
 20
178.3281951701098
 30
0.0
 11
424.6158746628045
 21
184.6071952512098
 31
0.0
  0
LINE
  5
1721
330
1A
100
AcDbEntity
  8
SEIHIN
100
AcDbLine
 10
313.6924391238044
 20
167.1324330872097
 30
0.0
 11
380.9514332189044
 21
167.1324330872097
 31
0.0
  0
LINE
  5
1722
330
1A
100
AcDbEntity
  8
SEIHIN
100
AcDbLine
 10
307.5634056521044
 20
170.6324331876098
 30
0.0
 11
380.9514332189044
 21
170.6324331876098
 31
0.0
  0
LINE
  5
1723
330
1A
100
AcDbEntity
  8
SEIHIN
100
AcDbLine
 10
380.9514332189044
 20
170.6324327295097
 30
0.0
 11
307.5634052603045
 21
170.6324327295097
 31
0.0
  0
DIMENSION
  5
1724
330
1A
100
AcDbEntity
  8
SUNPOU
100
AcDbDimension
  2
*D6
 10
322.6164223252044
 20
132.9159748516786
 30
0.0
 11
332.5853247752795
 21
137.9159748516786
 31
0.0
 70
    32
 71
     5
 42
19.93780490015001
  3
STANDARD
100
AcDbAlignedDimension
 13
342.5542272253545
 23
161.0697987979598
 33
0.0
 14
322.6164223252044
 24
160.7122547483098
 34
0.0
100
AcDbRotatedDimension
1001
ACAD
1000
DSTYLE
1002
{
1070
    41
1040
7.0
1070
    42
1040
6.0
1070
    43
1040
14.0
1070
    44
1040
3.0
1070
    73
1070
     0
1070
    74
1070
     0
1070
    77
1070
     3
1070
   140
1040
6.0
1070
   141
1040
150.0
1070
   147
1040
2.0
1070
   172
1070
     1
1070
   173
1070
     1
1070
   176
1070
     4
1070
   177
1070
     4
1070
   178
1070
     4
1070
   271
1070
     0
1070
   272
1070
     0
1070
   341
1005
6D
1070
     6
1000
OPEN
1070
     7
1000
OPEN
1002
}
  0
LINE
  5
1725
330
1A
100
AcDbEntity
  8
SEIHIN
100
AcDbLine
 10
321.2042113392045
 20
155.1324348455098
 30
0.0
 11
345.4923385380043
 21
155.1324348455098
 31
0.0
  0
LINE
  5
1726
330
1A
100
AcDbEntity
  8
SEIHIN
100
AcDbLine
 10
340.5634050815045
 20
163.1324324315098
 30
0.0
 11
324.5634061842045
 21
163.1324324315098
 31
0.0
  0
LINE
  5
1727
330
1A
100
AcDbEntity
  8
SEIHIN
100
AcDbLine
 10
324.5634061842045
 20
159.1324317759097
 30
0.0
 11
340.5634050815045
 21
159.1324317759097
 31
0.0
  0
LINE
  5
1728
330
1A
100
AcDbEntity
  8
SEIHIN
100
AcDbLine
 10
317.7799393980044
 20
156.4890328353098
 30
0.0
 11
316.8701639025044
 21
157.6392348414098
 31
0.0
  0
LINE
  5
1729
330
1A
100
AcDbEntity
  8
SEIHIN
100
AcDbLine
 10
307.5634052603045
 20
175.1983813500098
 30
0.0
 11
307.5634052603045
 21
154.0114428406097
 31
0.0
  0
LINE
  5
172A
330
1A
100
AcDbEntity
  8
SEIHIN
100
AcDbLine
 10
307.5634052603045
 20
152.1325479751098
 30
0.0
 11
307.5634052603045
 21
154.0114428406097
 31
0.0
  0
LINE
  5
172B
330
1A
100
AcDbEntity
  8
SEIHIN
100
AcDbLine
 10
307.5634052603045
 20
152.1325479751098
 30
0.0
 11
307.5634052603045
 21
152.1002199059097
 31
0.0
  0
LINE
  5
172C
330
1A
100
AcDbEntity
  8
SEIHIN
100
AcDbLine
 10
321.1930317430044
 20
155.1324460214098
 30
0.0
 11
319.0868680923044
 21
155.6028794056097
 31
0.0
  0
LINE
  5
172D
330
1A
100
AcDbEntity
  8
SEIHIN
100
AcDbLine
 10
319.0868680923044
 20
155.6028794056097
 30
0.0
 11
317.7799393980044
 21
156.4890328353098
 31
0.0
  0
LINE
  5
172E
330
1A
100
AcDbEntity
  8
SEIHIN
100
AcDbLine
 10
321.2042113392045
 20
155.1324348455098
 30
0.0
 11
321.1930317430044
 21
155.1324460214098
 31
0.0
  0
ARC
  5
172F
330
1A
100
AcDbEntity
  8
SEIHIN
100
AcDbCircle
 10
308.9226000150045
 20
165.6324331876098
 30
0.0
 40
5.0
100
AcDbArc
 50
17.87869659579927
 51
90.0
  0
LINE
  5
1730
330
1A
100
AcDbEntity
  8
SEIHIN
100
AcDbLine
 10
316.5646751969044
 20
158.2683730429097
 30
0.0
 11
316.4456670730044
 21
158.5974204844098
 31
0.0
  0
LINE
  5
1731
330
1A
100
AcDbEntity
  8
SEIHIN
100
AcDbLine
 10
316.7064075915044
 20
157.9484562879098
 30
0.0
 11
316.5646751969044
 21
158.2683730429097
 31
0.0
  0
LINE
  5
1732
330
1A
100
AcDbEntity
  8
SEIHIN
100
AcDbLine
 10
316.8701639025044
 20
157.6392348414098
 30
0.0
 11
316.7064075915044
 21
157.9484562879098
 31
0.0
  0
LINE
  5
1733
330
1A
100
AcDbEntity
  8
SEIHIN
100
AcDbLine
 10
313.7172719090044
 20
167.0554499632098
 30
0.0
 11
313.6924391238044
 21
167.1324330872097
 31
0.0
  0
LINE
  5
1734
330
1A
100
AcDbEntity
  8
SEIHIN
100
AcDbLine
 10
313.7910065798045
 20
166.8268717384097
 30
0.0
 11
313.7172719090044
 21
167.0554499632098
 31
0.0
  0
LINE
  5
1735
330
1A
100
AcDbEntity
  8
SEIHIN
100
AcDbLine
 10
313.9113744347044
 20
166.4537354862098
 30
0.0
 11
313.7910065798045
 21
166.8268717384097
 31
0.0
  0
LINE
  5
1736
330
1A
100
AcDbEntity
  8
SEIHIN
100
AcDbLine
 10
314.0746650843045
 20
165.9475337272097
 30
0.0
 11
313.9113744347044
 21
166.4537354862098
 31
0.0
  0
LINE
  5
1737
330
1A
100
AcDbEntity
  8
SEIHIN
100
AcDbLine
 10
314.2758531122045
 20
165.3238512134097
 30
0.0
 11
314.0746650843045
 21
165.9475337272097
 31
0.0
  0
LINE
  5
1738
330
1A
100
AcDbEntity
  8
SEIHIN
100
AcDbLine
 10
314.5087396352045
 20
164.6018955415098
 30
0.0
 11
314.2758531122045
 21
165.3238512134097
 31
0.0
  0
LINE
  5
1739
330
1A
100
AcDbEntity
  8
SEIHIN
100
AcDbLine
 10
314.7661609201044
 20
163.8038973814098
 30
0.0
 11
314.5087396352045
 21
164.6018955415098
 31
0.0
  0
LINE
  5
173A
330
1A
100
AcDbEntity
  8
SEIHIN
100
AcDbLine
 10
315.0401820986045
 20
162.9544268852097
 30
0.0
 11
314.7661609201044
 21
163.8038973814098
 31
0.0
  0
LINE
  5
173B
330
1A
100
AcDbEntity
  8
SEIHIN
100
AcDbLine
 10
313.6811440437045
 20
167.1674470907098
 30
0.0
 11
313.6924391238044
 21
167.1324330872097
 31
0.0
  0
LINE
  5
173C
330
1A
100
AcDbEntity
  8
SEIHIN
100
AcDbLine
 10
316.4456670730044
 20
158.5974204844098
 30
0.0
 11
315.0401820986044
 21
162.9544268852097
 31
0.0
  0
LINE
  5
173D
330
1A
100
AcDbEntity
  8
SEIHIN
100
AcDbLine
 10
324.0865913777045
 20
163.0747649377097
 30
0.0
 11
323.7385822086044
 21
162.9544268852097
 31
0.0
  0
LINE
  5
173E
330
1A
100
AcDbEntity
  8
SEIHIN
100
AcDbLine
 10
324.5634061842044
 20
163.1324324315098
 30
0.0
 11
324.0865913777045
 21
163.0747649377097
 31
0.0
  0
LINE
  5
173F
330
1A
100
AcDbEntity
  8
SEIHIN
100
AcDbLine
 10
324.2031817882044
 20
159.1651398247097
 30
0.0
 11
324.5634061842044
 21
159.1324317759097
 31
0.0
  0
LINE
  5
1740
330
1A
100
AcDbEntity
  8
SEIHIN
100
AcDbLine
 10
323.8547442107044
 20
159.2621948128098
 30
0.0
 11
324.2031817882044
 21
159.1651398247097
 31
0.0
  0
LINE
  5
1741
330
1A
100
AcDbEntity
  8
SEIHIN
100
AcDbLine
 10
323.5294816641044
 20
159.4204153424097
 30
0.0
 11
323.8547442107044
 21
159.2621948128098
 31
0.0
  0
LINE
  5
1742
330
1A
100
AcDbEntity
  8
SEIHIN
100
AcDbLine
 10
323.2380373029044
 20
159.6346344357098
 30
0.0
 11
323.5294816641044
 21
159.4204153424097
 31
0.0
  0
LINE
  5
1743
330
1A
100
AcDbEntity
  8
SEIHIN
100
AcDbLine
 10
322.9899404196045
 20
159.8978448218097
 30
0.0
 11
323.2380373029044
 21
159.6346344357098
 31
0.0
  0
LINE
  5
1744
330
1A
100
AcDbEntity
  8
SEIHIN
100
AcDbLine
 10
322.7933084218044
 20
160.2014336293098
 30
0.0
 11
322.9899404196045
 21
159.8978448218097
 31
0.0
  0
LINE
  5
1745
330
1A
100
AcDbEntity
  8
SEIHIN
100
AcDbLine
 10
322.6545748858044
 20
160.5354729598098
 30
0.0
 11
322.7933084218044
 21
160.2014336293098
 31
0.0
  0
LINE
  5
1746
330
1A
100
AcDbEntity
  8
SEIHIN
100
AcDbLine
 10
322.5782697646044
 20
160.8890365368097
 30
0.0
 11
322.6545748858044
 21
160.5354729598098
 31
0.0
  0
LINE
  5
1747
330
1A
100
AcDbEntity
  8
SEIHIN
100
AcDbLine
 10
322.5668964533044
 20
161.2505610591098
 30
0.0
 11
322.5782697646044
 21
160.8890365368097
 31
0.0
  0
LINE
  5
1748
330
1A
100
AcDbEntity
  8
SEIHIN
100
AcDbLine
 10
322.6208237557044
 20
161.6082261806097
 30
0.0
 11
322.5668964533044
 21
161.2505610591098
 31
0.0
  0
LINE
  5
1749
330
1A
100
AcDbEntity
  8
SEIHIN
100
AcDbLine
 10
322.7382896094044
 20
161.9503233140098
 30
0.0
 11
322.6208237557044
 21
161.6082261806097
 31
0.0
  0
LINE
  5
174A
330
1A
100
AcDbEntity
  8
SEIHIN
100
AcDbLine
 10
322.9154457895045
 20
162.2656728631098
 30
0.0
 11
322.7382896094044
 21
161.9503233140098
 31
0.0
  0
LINE
  5
174B
330
1A
100
AcDbEntity
  8
SEIHIN
100
AcDbLine
 10
323.1465069203045
 20
162.5439557737098
 30
0.0
 11
322.9154457895045
 21
162.2656728631098
 31
0.0
  0
LINE
  5
174C
330
1A
100
AcDbEntity
  8
SEIHIN
100
AcDbLine
 10
323.4239106624045
 20
162.7760711616098
 30
0.0
 11
323.1465069203045
 21
162.5439557737098
 31
0.0
  0
LINE
  5
174D
330
1A
100
AcDbEntity
  8
SEIHIN
100
AcDbLine
 10
323.7385822086044
 20
162.9544268852097
 30
0.0
 11
323.4239106624045
 21
162.7760711616098
 31
0.0
  0
LINE
  5
174E
330
1A
100
AcDbEntity
  8
SEIHIN
100
AcDbLine
 10
349.3585863708044
 20
156.9276149874098
 30
0.0
 11
349.0278718619044
 21
156.5968986159097
 31
0.0
  0
LINE
  5
174F
330
1A
100
AcDbEntity
  8
SEIHIN
100
AcDbLine
 10
345.5035181342045
 20
155.1324460214098
 30
0.0
 11
345.4923385380045
 21
155.1324348455098
 31
0.0
  0
LINE
  5
1750
330
1A
100
AcDbEntity
  8
SEIHIN
100
AcDbLine
 10
347.6096799223045
 20
155.6028794056097
 30
0.0
 11
345.5035181342045
 21
155.1324460214098
 31
0.0
  0
LINE
  5
1751
330
1A
100
AcDbEntity
  8
SEIHIN
100
AcDbLine
 10
348.9166104792045
 20
156.4890328353098
 30
0.0
 11
347.6096799223045
 21
155.6028794056097
 31
0.0
  0
LINE
  5
1752
330
1A
100
AcDbEntity
  8
SEIHIN
100
AcDbLine
 10
349.0278718619044
 20
156.5968986159097
 30
0.0
 11
348.9166104792045
 21
156.4890328353098
 31
0.0
  0
LINE
  5
1753
330
1A
100
AcDbEntity
  8
SEIHIN
100
AcDbLine
 10
340.7479932158044
 20
163.1238977914098
 30
0.0
 11
340.5634050815044
 21
163.1324324315098
 31
0.0
  0
LINE
  5
1754
330
1A
100
AcDbEntity
  8
SEIHIN
100
AcDbLine
 10
341.3882290570044
 20
162.9544268852097
 30
0.0
 11
340.7479932158044
 21
163.1238977914098
 31
0.0
  0
LINE
  5
1755
330
1A
100
AcDbEntity
  8
SEIHIN
100
AcDbLine
 10
341.7029024659045
 20
162.7760711616098
 30
0.0
 11
341.3882290570044
 21
162.9544268852097
 31
0.0
  0
LINE
  5
1756
330
1A
100
AcDbEntity
  8
SEIHIN
100
AcDbLine
 10
341.9803043453045
 20
162.5439557737098
 30
0.0
 11
341.7029024659045
 21
162.7760711616098
 31
0.0
  0
LINE
  5
1757
330
1A
100
AcDbEntity
  8
SEIHIN
100
AcDbLine
 10
342.2113636135045
 20
162.2656728631098
 30
0.0
 11
341.9803043453045
 21
162.5439557737098
 31
0.0
  0
LINE
  5
1758
330
1A
100
AcDbEntity
  8
SEIHIN
100
AcDbLine
 10
342.3885235189045
 20
161.9503233140098
 30
0.0
 11
342.2113636135045
 21
162.2656728631098
 31
0.0
  0
LINE
  5
1759
330
1A
100
AcDbEntity
  8
SEIHIN
100
AcDbLine
 10
342.5059875099045
 20
161.6082261806097
 30
0.0
 11
342.3885235189045
 21
161.9503233140098
 31
0.0
  0
LINE
  5
175A
330
1A
100
AcDbEntity
  8
SEIHIN
100
AcDbLine
 10
342.5599148123044
 20
161.2505610591098
 30
0.0
 11
342.5059875099045
 21
161.6082261806097
 31
0.0
  0
LINE
  5
175B
330
1A
100
AcDbEntity
  8
SEIHIN
100
AcDbLine
 10
342.5485396384045
 20
160.8890365368097
 30
0.0
 11
342.5599148123044
 21
161.2505610591098
 31
0.0
  0
LINE
  5
175C
330
1A
100
AcDbEntity
  8
SEIHIN
100
AcDbLine
 10
342.4722382425044
 20
160.5354729598098
 30
0.0
 11
342.5485396384045
 21
160.8890365368097
 31
0.0
  0
LINE
  5
175D
330
1A
100
AcDbEntity
  8
SEIHIN
100
AcDbLine
 10
342.3335009812045
 20
160.2014336293098
 30
0.0
 11
342.4722382425044
 21
160.5354729598098
 31
0.0
  0
LINE
  5
175E
330
1A
100
AcDbEntity
  8
SEIHIN
100
AcDbLine
 10
342.1368708460045
 20
159.8978448218097
 30
0.0
 11
342.3335009812045
 21
160.2014336293098
 31
0.0
  0
LINE
  5
175F
330
1A
100
AcDbEntity
  8
SEIHIN
100
AcDbLine
 10
341.8887758253045
 20
159.6346344357098
 30
0.0
 11
342.1368708460045
 21
159.8978448218097
 31
0.0
  0
LINE
  5
1760
330
1A
100
AcDbEntity
  8
SEIHIN
100
AcDbLine
 10
341.5973296015044
 20
159.4204153424097
 30
0.0
 11
341.8887758253045
 21
159.6346344357098
 31
0.0
  0
LINE
  5
1761
330
1A
100
AcDbEntity
  8
SEIHIN
100
AcDbLine
 10
341.2720689176044
 20
159.2621948128098
 30
0.0
 11
341.5973296015044
 21
159.4204153424097
 31
0.0
  0
LINE
  5
1762
330
1A
100
AcDbEntity
  8
SEIHIN
100
AcDbLine
 10
340.9236276148045
 20
159.1651398247097
 30
0.0
 11
341.2720689176044
 21
159.2621948128098
 31
0.0
  0
LINE
  5
1763
330
1A
100
AcDbEntity
  8
SEIHIN
100
AcDbLine
 10
340.5634050815044
 20
159.1324317759097
 30
0.0
 11
340.9236276148045
 21
159.1651398247097
 31
0.0
  0
LINE
  5
1764
330
1A
100
AcDbEntity
  8
SEIHIN
100
AcDbLine
 10
352.7210557459044
 20
159.7518320685097
 30
0.0
 11
351.8566226213044
 21
159.2897805875098
 31
0.0
  0
LINE
  5
1765
330
1A
100
AcDbEntity
  8
SEIHIN
100
AcDbLine
 10
349.7078230230044
 20
157.2768497770097
 30
0.0
 11
349.3585863708044
 21
156.9276149874098
 31
0.0
  0
LINE
  5
1766
330
1A
100
AcDbEntity
  8
SEIHIN
100
AcDbLine
 10
350.0702080874045
 20
157.6392348414098
 30
0.0
 11
349.7078230230044
 21
157.2768497770097
 31
0.0
  0
LINE
  5
1767
330
1A
100
AcDbEntity
  8
SEIHIN
100
AcDbLine
 10
351.8566226213044
 20
159.2897805875098
 30
0.0
 11
351.0989395528045
 21
158.6679663067098
 31
0.0
  0
LINE
  5
1768
330
1A
100
AcDbEntity
  8
SEIHIN
100
AcDbLine
 10
351.0989395528045
 20
158.6679663067098
 30
0.0
 11
350.0702080874044
 21
157.6392348414098
 31
0.0
  0
LINE
  5
1769
330
1A
100
AcDbEntity
  8
SEIHIN
100
AcDbLine
 10
353.6590214445045
 20
160.0363585656097
 30
0.0
 11
352.7210557459044
 21
159.7518320685097
 31
0.0
  0
LINE
  5
176A
330
1A
100
AcDbEntity
  8
SEIHIN
100
AcDbLine
 10
354.6344738080044
 20
160.1324338024097
 30
0.0
 11
353.6590214445045
 21
160.0363585656097
 31
0.0
  0
LINE
  5
176B
330
1A
100
AcDbEntity
  8
SEIHIN
100
AcDbLine
 10
423.9514318852043
 20
167.1324330872097
 30
0.0
 11
380.9514332189044
 21
167.1324330872097
 31
0.0
  0
LINE
  5
176C
330
1A
100
AcDbEntity
  8
SEIHIN
100
AcDbLine
 10
380.9514332189044
 20
170.6292401558098
 30
0.0
 11
380.9514332189044
 21
167.1324330872097
 31
0.0
  0
LINE
  5
176D
330
1A
100
AcDbEntity
  8
SEIHIN
100
AcDbLine
 10
380.9514332189044
 20
170.6324327295097
 30
0.0
 11
380.9514332189044
 21
172.6324330574097
 31
0.0
  0
LINE
  5
176E
330
1A
100
AcDbEntity
  8
SEIHIN
100
AcDbLine
 10
380.9514332189044
 20
170.6292401558098
 30
0.0
 11
380.9514332189044
 21
170.6324327295097
 31
0.0
  0
LINE
  5
176F
330
1A
100
AcDbEntity
  8
SEIHIN
100
AcDbLine
 10
378.9514328910045
 20
170.6292401558098
 30
0.0
 11
378.9514328910045
 21
170.6324327295097
 31
0.0
  0
LINE
  5
1770
330
1A
100
AcDbEntity
  8
SEIHIN
100
AcDbLine
 10
380.9514332189044
 20
170.6292401558098
 30
0.0
 11
378.9514328910045
 21
170.6292401558098
 31
0.0
  0
LINE
  5
1771
330
1A
100
AcDbEntity
  8
SEIHIN
100
AcDbLine
 10
423.9514318852043
 20
167.1324330872097
 30
0.0
 11
423.9514318852043
 21
172.6324330574097
 31
0.0
  0
LINE
  5
1772
330
1A
100
AcDbEntity
  8
SEIHIN
100
AcDbLine
 10
424.7351398317045
 20
178.3626298910098
 30
0.0
 11
424.4622250645044
 21
178.3386725491098
 31
0.0
  0
LINE
  5
1773
330
1A
100
AcDbEntity
  8
SEIHIN
100
AcDbLine
 10
425.3421609847044
 20
178.3478460764098
 30
0.0
 11
424.7351398317045
 21
178.3626298910098
 31
0.0
  0
LINE
  5
1774
330
1A
100
AcDbEntity
  8
SEIHIN
100
AcDbLine
 10
424.2652279882045
 20
178.3281951701098
 30
0.0
 11
424.4622250645043
 21
178.3386725491098
 31
0.0
  0
LINE
  5
1775
330
1A
100
AcDbEntity
  8
SEIHIN
100
AcDbLine
 10
425.3421609847044
 20
178.3478460764098
 30
0.0
 11
425.6020782141045
 21
178.3281951701098
 31
0.0
  0
LINE
  5
1776
330
1A
100
AcDbEntity
  8
SEIHIN
100
AcDbLine
 10
385.7152422516044
 20
234.2934231763097
 30
0.0
 11
350.7689607887044
 21
233.4274757212098
 31
0.0
  0
LINE
  5
1777
330
1A
100
AcDbEntity
  8
SEIHIN
100
AcDbLine
 10
350.1442705838044
 20
230.4242360895098
 30
0.0
 11
362.7322020566044
 21
230.8078255063098
 31
0.0
  0
LINE
  5
1778
330
1A
100
AcDbEntity
  8
SEIHIN
100
AcDbLine
 10
383.3012913911044
 20
240.2788731759097
 30
0.0
 11
348.4244828670044
 21
239.3714148110097
 31
0.0
  0
LINE
  5
1779
330
1A
100
AcDbEntity
  8
SEIHIN
100
AcDbLine
 10
321.9399859755044
 20
225.2640720015098
 30
0.0
 11
323.6649183182044
 21
227.5821618294098
 31
0.0
  0
LINE
  5
177A
330
1A
100
AcDbEntity
  8
SEIHIN
100
AcDbLine
 10
303.2572378962045
 20
227.1205517953098
 30
0.0
 11
299.9988158791044
 21
224.3633340603097
 31
0.0
  0
LINE
  5
177B
330
1A
100
AcDbEntity
  8
SEIHIN
100
AcDbLine
 10
322.8887466340043
 20
226.5076521342098
 30
0.0
 11
321.9399859755044
 21
225.2640720015098
 31
0.0
  0
ARC
  5
177C
330
1A
100
AcDbEntity
  8
SEIHIN
100
AcDbCircle
 10
262.8932671902044
 20
271.5136784335098
 30
0.0
 40
72.0
100
AcDbArc
 50
296.5791059274988
 51
327.0629563009015
  0
LINE
  5
177D
330
1A
100
AcDbEntity
  8
SEIHIN
100
AcDbLine
 10
298.1282656638044
 20
205.3057109495097
 30
0.0
 11
297.1814607827045
 21
200.9600345535097
 31
0.0
  0
LINE
  5
177E
330
1A
100
AcDbEntity
  8
SEIHIN
100
AcDbLine
 10
296.3306268303044
 20
196.6111757846098
 30
0.0
 11
295.4942619054045
 21
192.0146081155098
 31
0.0
  0
LINE
  5
177F
330
1A
100
AcDbEntity
  8
SEIHIN
100
AcDbLine
 10
297.1814607827045
 20
200.9600345535097
 30
0.0
 11
296.3306268303044
 21
196.6111757846098
 31
0.0
  0
LINE
  5
1780
330
1A
100
AcDbEntity
  8
SEIHIN
100
AcDbLine
 10
309.5385318248044
 20
212.7834423935097
 30
0.0
 11
313.0349402873044
 21
215.7390187984098
 31
0.0
  0
LINE
  5
1781
330
1A
100
AcDbEntity
  8
SEIHIN
100
AcDbLine
 10
298.1282656638044
 20
205.3057109495097
 30
0.0
 11
303.5402780025045
 21
208.4833630850098
 31
0.0
  0
LINE
  5
1782
330
1A
100
AcDbEntity
  8
SEIHIN
100
AcDbLine
 10
298.1282582132044
 20
205.3057128122097
 30
0.0
 11
295.1084410398045
 21
207.1228237381097
 31
0.0
  0
LINE
  5
1783
330
1A
100
AcDbEntity
  8
SEIHIN
100
AcDbLine
 10
305.8689942209044
 20
210.0475333189098
 30
0.0
 11
309.5385318248044
 21
212.7834423935097
 31
0.0
  0
LINE
  5
1784
330
1A
100
AcDbEntity
  8
SEIHIN
100
AcDbLine
 10
303.5402780025045
 20
208.4833630850098
 30
0.0
 11
305.8689942209044
 21
210.0475333189098
 31
0.0
  0
LINE
  5
1785
330
1A
100
AcDbEntity
  8
SEIHIN
100
AcDbLine
 10
299.9988158791044
 20
224.3633340603097
 30
0.0
 11
296.5533097832044
 21
221.8447584217097
 31
0.0
  0
LINE
  5
1786
330
1A
100
AcDbEntity
  8
SEIHIN
100
AcDbLine
 10
319.3097782879044
 20
222.0952879196098
 30
0.0
 11
322.3222082107044
 21
225.7621638035097
 31
0.0
  0
LINE
  5
1787
330
1A
100
AcDbEntity
  8
SEIHIN
100
AcDbLine
 10
316.0871786623044
 20
218.6420630222098
 30
0.0
 11
319.3097782879044
 21
222.0952879196098
 31
0.0
  0
LINE
  5
1788
330
1A
100
AcDbEntity
  8
SEIHIN
100
AcDbLine
 10
314.5806302874044
 20
217.1683344548098
 30
0.0
 11
316.0871786623044
 21
218.6420630222098
 31
0.0
  0
LINE
  5
1789
330
1A
100
AcDbEntity
  8
SEIHIN
100
AcDbLine
 10
313.0349402873044
 20
215.7390187984098
 30
0.0
 11
314.5806302874044
 21
217.1683344548098
 31
0.0
  0
LINE
  5
178A
330
1A
100
AcDbEntity
  8
SEIHIN
100
AcDbLine
 10
321.9399859755044
 20
225.2640720015098
 30
0.0
 11
322.3222082107045
 21
225.7621638035097
 31
0.0
  0
LINE
  5
178B
330
1A
100
AcDbEntity
  8
SEIHIN
100
AcDbLine
 10
350.7689607887044
 20
233.4274757212098
 30
0.0
 11
323.3206642418044
 21
232.3659318989098
 31
0.0
  0
LINE
  5
178C
330
1A
100
AcDbEntity
  8
SEIHIN
100
AcDbLine
 10
324.9791038780044
 20
229.4381666487097
 30
0.0
 11
337.5600462405045
 21
229.9676831370097
 31
0.0
  0
LINE
  5
178D
330
1A
100
AcDbEntity
  8
SEIHIN
100
AcDbLine
 10
348.4244828670044
 20
239.3714148110097
 30
0.0
 11
313.5495630650045
 21
237.9050362414098
 31
0.0
  0
LINE
  5
178E
330
1A
100
AcDbEntity
  8
SEIHIN
100
AcDbLine
 10
312.0122735946044
 20
237.0561208134097
 30
0.0
 11
307.9389182477045
 21
231.8792338973098
 31
0.0
  0
LINE
  5
178F
330
1A
100
AcDbEntity
  8
SEIHIN
100
AcDbLine
 10
307.9389182477045
 20
231.8792338973098
 30
0.0
 11
303.2572378962045
 21
227.1205517953098
 31
0.0
  0
LINE
  5
1790
330
1A
100
AcDbEntity
  8
SEIHIN
100
AcDbLine
 10
315.5413006990044
 20
230.8415244823098
 30
0.0
 11
315.5634065716045
 21
230.6324313884097
 31
0.0
  0
LINE
  5
1791
330
1A
100
AcDbEntity
  8
SEIHIN
100
AcDbLine
 10
315.4169616847045
 20
231.1534355884097
 30
0.0
 11
315.5413006990044
 21
230.8415244823098
 31
0.0
  0
LINE
  5
1792
330
1A
100
AcDbEntity
  8
SEIHIN
100
AcDbLine
 10
315.1964170484044
 20
231.4065765148098
 30
0.0
 11
315.4169616847045
 21
231.1534355884097
 31
0.0
  0
LINE
  5
1793
330
1A
100
AcDbEntity
  8
SEIHIN
100
AcDbLine
 10
314.9045442788045
 20
231.5724450653098
 30
0.0
 11
315.1964170484044
 21
231.4065765148098
 31
0.0
  0
LINE
  5
1794
330
1A
100
AcDbEntity
  8
SEIHIN
100
AcDbLine
 10
314.5742153375044
 20
231.6323738104097
 30
0.0
 11
314.9045442788045
 21
231.5724450653098
 31
0.0
  0
LINE
  5
1795
330
1A
100
AcDbEntity
  8
SEIHIN
100
AcDbLine
 10
314.2426309733044
 20
231.5795901721098
 30
0.0
 11
314.5742153375044
 21
231.6323738104097
 31
0.0
  0
LINE
  5
1796
330
1A
100
AcDbEntity
  8
SEIHIN
100
AcDbLine
 10
313.9471781997045
 20
231.4199987357098
 30
0.0
 11
314.2426309733044
 21
231.5795901721098
 31
0.0
  0
LINE
  5
1797
330
1A
100
AcDbEntity
  8
SEIHIN
100
AcDbLine
 10
313.7212058155045
 20
231.1716001039098
 30
0.0
 11
313.9471781997045
 21
231.4199987357098
 31
0.0
  0
LINE
  5
1798
330
1A
100
AcDbEntity
  8
SEIHIN
100
AcDbLine
 10
313.5902097075044
 20
230.8624159103098
 30
0.0
 11
313.7212058155045
 21
231.1716001039098
 31
0.0
  0
LINE
  5
1799
330
1A
100
AcDbEntity
  8
SEIHIN
100
AcDbLine
 10
313.5689457504045
 20
230.5273260480097
 30
0.0
 11
313.5902097075044
 21
230.8624159103098
 31
0.0
  0
LINE
  5
179A
330
1A
100
AcDbEntity
  8
SEIHIN
100
AcDbLine
 10
313.6597906797044
 20
230.2040900593098
 30
0.0
 11
313.5689457504045
 21
230.5273260480097
 31
0.0
  0
LINE
  5
179B
330
1A
100
AcDbEntity
  8
SEIHIN
100
AcDbLine
 10
313.8524999468045
 20
229.9291450089098
 30
0.0
 11
313.6597906797044
 21
230.2040900593098
 31
0.0
  0
LINE
  5
179C
330
1A
100
AcDbEntity
  8
SEIHIN
100
AcDbLine
 10
314.1253625600044
 20
229.7334815865098
 30
0.0
 11
313.8524999468045
 21
229.9291450089098
 31
0.0
  0
LINE
  5
179D
330
1A
100
AcDbEntity
  8
SEIHIN
100
AcDbLine
 10
314.4476076214044
 20
229.6391609614097
 30
0.0
 11
314.1253625600044
 21
229.7334815865098
 31
0.0
  0
LINE
  5
179E
330
1A
100
AcDbEntity
  8
SEIHIN
100
AcDbLine
 10
314.7829061000044
 20
229.6568225628097
 30
0.0
 11
314.4476076214044
 21
229.6391609614097
 31
0.0
  0
LINE
  5
179F
330
1A
100
AcDbEntity
  8
SEIHIN
100
AcDbLine
 10
315.0934649257044
 20
229.7844733601098
 30
0.0
 11
314.7829061000044
 21
229.6568225628097
 31
0.0
  0
LINE
  5
17A0
330
1A
100
AcDbEntity
  8
SEIHIN
100
AcDbLine
 10
315.3442663698044
 20
230.0077262824098
 30
0.0
 11
315.0934649257044
 21
229.7844733601098
 31
0.0
  0
LINE
  5
17A1
330
1A
100
AcDbEntity
  8
SEIHIN
100
AcDbLine
 10
315.5070317535044
 20
230.3014244443098
 30
0.0
 11
315.3442663698044
 21
230.0077262824098
 31
0.0
  0
LINE
  5
17A2
330
1A
100
AcDbEntity
  8
SEIHIN
100
AcDbLine
 10
315.5634065716045
 20
230.6324313884097
 30
0.0
 11
315.5070317535044
 21
230.3014244443098
 31
0.0
  0
LINE
  5
17A3
330
1A
100
AcDbEntity
  8
SEIHIN
100
AcDbLine
 10
313.0886328964044
 20
237.8272633558098
 30
0.0
 11
313.5495630650045
 21
237.9050362414098
 31
0.0
  0
LINE
  5
17A4
330
1A
100
AcDbEntity
  8
SEIHIN
100
AcDbLine
 10
312.4846553056045
 20
237.5332559949097
 30
0.0
 11
313.0886328964044
 21
237.8272633558098
 31
0.0
  0
LINE
  5
17A5
330
1A
100
AcDbEntity
  8
SEIHIN
100
AcDbLine
 10
312.0122735946044
 20
237.0561208134097
 30
0.0
 11
312.4846553056045
 21
237.5332559949097
 31
0.0
  0
CIRCLE
  5
17A6
330
1A
100
AcDbEntity
  8
SEIHIN
100
AcDbCircle
 10
314.5634056521044
 20
230.6324331876098
 30
0.0
 40
1.0
  0
LINE
  5
17A7
330
1A
100
AcDbEntity
  8
SEIHIN
100
AcDbLine
 10
323.6649183182044
 20
227.5821618294098
 30
0.0
 11
324.9791076033044
 21
229.4381629234097
 31
0.0
  0
LINE
  5
17A8
330
1A
100
AcDbEntity
  8
SEIHIN
100
AcDbLine
 10
323.3206977694044
 20
232.3658722942097
 30
0.0
 11
323.3206009118044
 21
232.3660399323098
 31
0.0
  0
LINE
  5
17A9
330
1A
100
AcDbEntity
  8
SEIHIN
100
AcDbLine
 10
323.3206642418045
 20
232.3659318989098
 30
0.0
 11
323.3223257212044
 21
232.3629926448098
 31
0.0
  0
LINE
  5
17AA
330
1A
100
AcDbEntity
  8
SEIHIN
100
AcDbLine
 10
322.8887466340043
 20
226.5076521342098
 30
0.0
 11
324.6472438423043
 21
228.9525899594098
 31
0.0
  0
LINE
  5
17AB
330
1A
100
AcDbEntity
  8
SEIHIN
100
AcDbLine
 10
324.9815066902045
 20
229.4339272683097
 30
0.0
 11
324.6472438423043
 21
228.9525899594098
 31
0.0
  0
LINE
  5
17AC
330
1A
100
AcDbEntity
  8
SEIHIN
100
AcDbLine
 10
324.9791038780045
 20
229.4381666487097
 30
0.0
 11
324.9815066902045
 21
229.4339272683097
 31
0.0
  0
LINE
  5
17AD
330
1A
100
AcDbEntity
  8
SEIHIN
100
AcDbLine
 10
323.3905432372044
 20
232.2425651854097
 30
0.0
 11
324.9791076033043
 21
229.4381629234097
 31
0.0
  0
LINE
  5
17AE
330
1A
100
AcDbEntity
  8
SEIHIN
100
AcDbLine
 10
337.5600462405045
 20
229.9676831370097
 30
0.0
 11
350.1442705838044
 21
230.4242360895098
 31
0.0
  0
LINE
  5
17AF
330
1A
100
AcDbEntity
  8
SEIHIN
100
AcDbLine
 10
419.4571522622044
 20
231.6104243999097
 30
0.0
 11
419.6227078883044
 21
224.9550852483097
 31
0.0
  0
LINE
  5
17B0
330
1A
100
AcDbEntity
  8
SEIHIN
100
AcDbLine
 10
421.0470465569044
 20
224.6542661940097
 30
0.0
 11
420.8717977254044
 21
231.6163178092098
 31
0.0
  0
LINE
  5
17B1
330
1A
100
AcDbEntity
  8
SEIHIN
100
AcDbLine
 10
424.2618044464045
 20
227.1205517953098
 30
0.0
 11
424.3124162404044
 21
224.3699706649098
 31
0.0
  0
LINE
  5
17B2
330
1A
100
AcDbEntity
  8
SEIHIN
100
AcDbLine
 10
420.8403749017045
 20
204.9970026618097
 30
0.0
 11
421.5050002186044
 21
198.2452400751097
 31
0.0
  0
LINE
  5
17B3
330
1A
100
AcDbEntity
  8
SEIHIN
100
AcDbLine
 10
422.6238278298044
 20
200.8500188147098
 30
0.0
 11
421.7729566245045
 21
210.8620279958097
 31
0.0
  0
LINE
  5
17B4
330
1A
100
AcDbEntity
  8
SEIHIN
100
AcDbLine
 10
421.5050002186044
 20
198.2452400751097
 30
0.0
 11
422.2990644722044
 21
191.5273247776098
 31
0.0
  0
LINE
  5
17B5
330
1A
100
AcDbEntity
  8
SEIHIN
100
AcDbLine
 10
423.7407965212045
 20
190.9794332949098
 30
0.0
 11
422.6238278298044
 21
200.8500188147098
 31
0.0
  0
LINE
  5
17B6
330
1A
100
AcDbEntity
  8
SEIHIN
100
AcDbLine
 10
422.2990644722044
 20
191.5273247776098
 30
0.0
 11
423.2176465540044
 21
184.8955923250098
 31
0.0
  0
LINE
  5
17B7
330
1A
100
AcDbEntity
  8
SEIHIN
100
AcDbLine
 10
424.6158746628045
 20
184.6071952512098
 30
0.0
 11
423.7407965212045
 21
190.9794332949098
 31
0.0
  0
LINE
  5
17B8
330
1A
100
AcDbEntity
  8
SEIHIN
100
AcDbLine
 10
424.9526669829044
 20
213.7540109014097
 30
0.0
 11
424.8330516367045
 21
215.0901123440098
 31
0.0
  0
LINE
  5
17B9
330
1A
100
AcDbEntity
  8
SEIHIN
100
AcDbLine
 10
419.9067948012045
 20
218.3104414051098
 30
0.0
 11
420.3134921937044
 21
211.6340580886097
 31
0.0
  0
LINE
  5
17BA
330
1A
100
AcDbEntity
  8
SEIHIN
100
AcDbLine
 10
421.7729566245045
 20
210.8620279958097
 30
0.0
 11
421.3484672455044
 21
217.7205565875098
 31
0.0
  0
LINE
  5
17BB
330
1A
100
AcDbEntity
  8
SEIHIN
100
AcDbLine
 10
425.1029153912044
 20
212.2299108213097
 30
0.0
 11
424.9526669829044
 21
213.7540109014097
 31
0.0
  0
LINE
  5
17BC
330
1A
100
AcDbEntity
  8
SEIHIN
100
AcDbLine
 10
425.2746736257044
 20
210.6461688434097
 30
0.0
 11
425.1029153912044
 21
212.2299108213097
 31
0.0
  0
LINE
  5
17BD
330
1A
100
AcDbEntity
  8
SEIHIN
100
AcDbLine
 10
420.3134921937044
 20
211.6340580886097
 30
0.0
 11
420.8403749017045
 21
204.9970026618097
 31
0.0
  0
LINE
  5
17BE
330
1A
100
AcDbEntity
  8
SEIHIN
100
AcDbLine
 10
424.7363654523044
 20
216.2756114756098
 30
0.0
 11
424.6461575477044
 21
217.4950945681097
 31
0.0
  0
LINE
  5
17BF
330
1A
100
AcDbEntity
  8
SEIHIN
100
AcDbLine
 10
424.8330516367045
 20
215.0901123440098
 30
0.0
 11
424.7363654523044
 21
216.2756114756098
 31
0.0
  0
LINE
  5
17C0
330
1A
100
AcDbEntity
  8
SEIHIN
100
AcDbLine
 10
419.6227078883044
 20
224.9550852483097
 30
0.0
 11
419.9067948012045
 21
218.3104414051098
 31
0.0
  0
LINE
  5
17C1
330
1A
100
AcDbEntity
  8
SEIHIN
100
AcDbLine
 10
421.3484672455044
 20
217.7205565875098
 30
0.0
 11
421.0470465569044
 21
224.6542661940097
 31
0.0
  0
LINE
  5
17C2
330
1A
100
AcDbEntity
  8
SEIHIN
100
AcDbLine
 10
424.5159810035045
 20
219.5385112917098
 30
0.0
 11
424.6461575477044
 21
217.4950945681097
 31
0.0
  0
LINE
  5
17C3
330
1A
100
AcDbEntity
  8
SEIHIN
100
AcDbLine
 10
424.4005640595045
 20
221.8447584217097
 30
0.0
 11
424.5159810035045
 21
219.5385112917098
 31
0.0
  0
LINE
  5
17C4
330
1A
100
AcDbEntity
  8
SEIHIN
100
AcDbLine
 10
424.3124162404044
 20
224.3699706649098
 30
0.0
 11
424.4005640595045
 21
221.8447584217097
 31
0.0
  0
LINE
  5
17C5
330
1A
100
AcDbEntity
  8
SEIHIN
100
AcDbLine
 10
418.1799849121045
 20
240.6280260091098
 30
0.0
 11
383.3012913911044
 21
240.2788731759097
 31
0.0
  0
LINE
  5
17C6
330
1A
100
AcDbEntity
  8
SEIHIN
100
AcDbLine
 10
386.5524621306045
 20
234.3057166343098
 30
0.0
 11
394.5545924453045
 21
234.4083111292098
 31
0.0
  0
LINE
  5
17C7
330
1A
100
AcDbEntity
  8
SEIHIN
100
AcDbLine
 10
411.1829062550044
 20
234.5563765174098
 30
0.0
 11
388.4224274753045
 21
234.3317862158098
 31
0.0
  0
LINE
  5
17C8
330
1A
100
AcDbEntity
  8
SEIHIN
100
AcDbLine
 10
411.1829546837045
 20
231.5494637495098
 30
0.0
 11
388.4225168823044
 21
231.3231486385097
 31
0.0
  0
LINE
  5
17C9
330
1A
100
AcDbEntity
  8
SEIHIN
100
AcDbLine
 10
388.4225168823044
 20
231.3231486385097
 30
0.0
 11
375.3225708006045
 21
231.1183917826098
 31
0.0
  0
LINE
  5
17CA
330
1A
100
AcDbEntity
  8
SEIHIN
100
AcDbLine
 10
362.7322020566044
 20
230.8078255063098
 30
0.0
 11
375.3225708006045
 21
231.1183917826098
 31
0.0
  0
LINE
  5
17CB
330
1A
100
AcDbEntity
  8
SEIHIN
100
AcDbLine
 10
385.7152422516044
 20
234.2934231763097
 30
0.0
 11
386.5524621306045
 21
234.3057166343098
 31
0.0
  0
LINE
  5
17CC
330
1A
100
AcDbEntity
  8
SEIHIN
100
AcDbLine
 10
388.4224274753045
 20
234.3317862158098
 30
0.0
 11
385.7152422516044
 21
234.2934231763097
 31
0.0
  0
LINE
  5
17CD
330
1A
100
AcDbEntity
  8
SEIHIN
100
AcDbLine
 10
402.5569779424044
 20
234.4884197717097
 30
0.0
 11
410.5595012753045
 21
234.5524537867098
 31
0.0
  0
LINE
  5
17CE
330
1A
100
AcDbEntity
  8
SEIHIN
100
AcDbLine
 10
394.5545924453045
 20
234.4083111292098
 30
0.0
 11
402.5569779424044
 21
234.4884197717097
 31
0.0
  0
LINE
  5
17CF
330
1A
100
AcDbEntity
  8
SEIHIN
100
AcDbLine
 10
424.5555473117045
 20
238.5076541012098
 30
0.0
 11
424.5197733490044
 21
237.9050362414098
 31
0.0
  0
LINE
  5
17D0
330
1A
100
AcDbEntity
  8
SEIHIN
100
AcDbLine
 10
418.1799849121044
 20
240.6280260091098
 30
0.0
 11
418.1796384601043
 21
234.6280138498098
 31
0.0
  0
LINE
  5
17D1
330
1A
100
AcDbEntity
  8
SEIHIN
100
AcDbLine
 10
419.5937921850045
 20
234.6295263177098
 30
0.0
 11
419.5915644614045
 21
240.6295310264098
 31
0.0
  0
LINE
  5
17D2
330
1A
100
AcDbEntity
  8
SEIHIN
100
AcDbLine
 10
410.5595012753045
 20
234.5524537867098
 30
0.0
 11
418.5620991139045
 21
234.6068430250098
 31
0.0
  0
LINE
  5
17D3
330
1A
100
AcDbEntity
  8
SEIHIN
100
AcDbLine
 10
418.4380506723044
 20
234.6058148449097
 30
0.0
 11
411.1829062550044
 21
234.5563765174098
 31
0.0
  0
LINE
  5
17D4
330
1A
100
AcDbEntity
  8
SEIHIN
100
AcDbLine
 10
419.4571522622044
 20
231.6104243999097
 30
0.0
 11
411.1829546837045
 21
231.5494637495098
 31
0.0
  0
LINE
  5
17D5
330
1A
100
AcDbEntity
  8
SEIHIN
100
AcDbLine
 10
424.5153067259045
 20
237.8272633558098
 30
0.0
 11
424.5197733490044
 21
237.9050362414098
 31
0.0
  0
LINE
  5
17D6
330
1A
100
AcDbEntity
  8
SEIHIN
100
AcDbLine
 10
424.4987589864045
 20
237.5332559949097
 30
0.0
 11
424.5153067259045
 21
237.8272633558098
 31
0.0
  0
LINE
  5
17D7
330
1A
100
AcDbEntity
  8
SEIHIN
100
AcDbLine
 10
424.4730582087045
 20
237.0561208134097
 30
0.0
 11
424.4987589864045
 21
237.5332559949097
 31
0.0
  0
LINE
  5
17D8
330
1A
100
AcDbEntity
  8
SEIHIN
100
AcDbLine
 10
423.9263606815044
 20
234.6301745182097
 30
0.0
 11
423.8186252861044
 21
234.6303496068097
 31
0.0
  0
LINE
  5
17D9
330
1A
100
AcDbEntity
  8
SEIHIN
100
AcDbLine
 10
424.2517089097044
 20
234.6292469209097
 30
0.0
 11
423.9263606815044
 21
234.6301745182097
 31
0.0
  0
LINE
  5
17DA
330
1A
100
AcDbEntity
  8
SEIHIN
100
AcDbLine
 10
424.3643877654044
 20
234.6280138498098
 30
0.0
 11
424.2517089097044
 21
234.6292469209097
 31
0.0
  0
LINE
  5
17DB
330
1A
100
AcDbEntity
  8
SEIHIN
100
AcDbLine
 10
419.0629122405044
 20
233.1089000707098
 30
0.0
 11
419.6820927410045
 21
231.6248636251098
 31
0.0
  0
LINE
  5
17DC
330
1A
100
AcDbEntity
  8
SEIHIN
100
AcDbLine
 10
418.4380506723044
 20
234.6058148449097
 30
0.0
 11
419.0629122405044
 21
233.1089000707098
 31
0.0
  0
LINE
  5
17DD
330
1A
100
AcDbEntity
  8
SEIHIN
100
AcDbLine
 10
418.8748819379044
 20
234.5506917244098
 30
0.0
 11
418.4380506723044
 21
234.6058148449097
 31
0.0
  0
LINE
  5
17DE
330
1A
100
AcDbEntity
  8
SEIHIN
100
AcDbLine
 10
419.6318273990044
 20
234.1925572162098
 30
0.0
 11
418.8748819379044
 21
234.5506917244098
 31
0.0
  0
LINE
  5
17DF
330
1A
100
AcDbEntity
  8
SEIHIN
100
AcDbLine
 10
419.4286053626044
 20
234.6301745182097
 30
0.0
 11
419.5525345950044
 21
234.6303496068097
 31
0.0
  0
LINE
  5
17E0
330
1A
100
AcDbEntity
  8
SEIHIN
100
AcDbLine
 10
418.8414213805044
 20
234.6292469209097
 30
0.0
 11
419.4286053626044
 21
234.6301745182097
 31
0.0
  0
LINE
  5
17E1
330
1A
100
AcDbEntity
  8
SEIHIN
100
AcDbLine
 10
418.1796384601044
 20
234.6280138498098
 30
0.0
 11
418.8414213805044
 21
234.6292469209097
 31
0.0
  0
LINE
  5
17E2
330
1A
100
AcDbEntity
  8
SEIHIN
100
AcDbLine
 10
420.2218239753045
 20
231.6602948611097
 30
0.0
 11
419.6820927410045
 21
231.6248636251098
 31
0.0
  0
LINE
  5
17E3
330
1A
100
AcDbEntity
  8
SEIHIN
100
AcDbLine
 10
420.7019468395044
 20
231.6294122046098
 30
0.0
 11
420.2218239753045
 21
231.6602948611097
 31
0.0
  0
LINE
  5
17E4
330
1A
100
AcDbEntity
  8
SEIHIN
100
AcDbLine
 10
424.2859294264045
 20
231.8792338973098
 30
0.0
 11
424.2618044464045
 21
227.1205517953098
 31
0.0
  0
LINE
  5
17E5
330
1A
100
AcDbEntity
  8
SEIHIN
100
AcDbLine
 10
424.4730582087045
 20
237.0561208134097
 30
0.0
 11
424.2859294264045
 21
231.8792338973098
 31
0.0
  0
LINE
  5
17E6
330
1A
100
AcDbEntity
  8
SEIHIN
100
AcDbLine
 10
418.5620991139045
 20
234.6068430250098
 30
0.0
 11
419.0359113364045
 21
234.6099014884097
 31
0.0
  0
LINE
  5
17E7
330
1A
100
AcDbEntity
  8
SEIHIN
100
AcDbLine
 10
423.8186252861044
 20
234.6303496068097
 30
0.0
 11
423.7785150854045
 21
234.6295263177098
 31
0.0
  0
LINE
  5
17E8
330
1A
100
AcDbEntity
  8
SEIHIN
100
AcDbLine
 10
420.8717977254044
 20
231.6163178092098
 30
0.0
 11
420.7019468395044
 21
231.6294122046098
 31
0.0
  0
LINE
  5
17E9
330
1A
100
AcDbEntity
  8
SEIHIN
100
AcDbLine
 10
420.7019468395044
 20
231.6294122046098
 30
0.0
 11
419.6318273990044
 21
234.1925572162098
 31
0.0
  0
LINE
  5
17EA
330
1A
100
AcDbEntity
  8
SEIHIN
100
AcDbLine
 10
419.0359113364045
 20
234.6099014884097
 30
0.0
 11
419.6318273990044
 21
234.1925572162098
 31
0.0
  0
LINE
  5
17EB
330
1A
100
AcDbEntity
  8
SEIHIN
100
AcDbLine
 10
419.6820927410045
 20
231.6248636251098
 30
0.0
 11
419.4571522622045
 21
231.6104243999097
 31
0.0
  0
LINE
  5
17EC
330
1A
100
AcDbEntity
  8
SEIHIN
100
AcDbLine
 10
419.0359113364045
 20
234.6099014884097
 30
0.0
 11
418.9882052688045
 21
234.6294778889098
 31
0.0
  0
LINE
  5
17ED
330
1A
100
AcDbEntity
  8
SEIHIN
100
AcDbLine
 10
419.5525345950045
 20
234.6303496068097
 30
0.0
 11
419.5937921850045
 21
234.6295263177098
 31
0.0
  0
LINE
  5
17EE
330
1A
100
AcDbEntity
  8
SEIHIN
100
AcDbLine
 10
423.7785150854045
 20
234.6295263177098
 30
0.0
 11
419.5937921850045
 21
234.6295263177098
 31
0.0
  0
LINE
  5
17EF
330
1A
100
AcDbEntity
  8
SEIHIN
100
AcDbLine
 10
424.2845994978045
 20
231.6163178092098
 30
0.0
 11
420.8717977254044
 21
231.6163178092098
 31
0.0
  0
LINE
  5
17F0
330
1A
100
AcDbEntity
  8
SEIHIN
100
AcDbLine
 10
424.6971679477044
 20
240.6282383507098
 30
0.0
 11
424.7001966087044
 21
240.6280260091098
 31
0.0
  0
LINE
  5
17F1
330
1A
100
AcDbEntity
  8
SEIHIN
100
AcDbLine
 10
424.5480781047044
 20
240.6291696733098
 30
0.0
 11
424.6971679477044
 21
240.6282383507098
 31
0.0
  0
LINE
  5
17F2
330
1A
100
AcDbEntity
  8
SEIHIN
100
AcDbLine
 10
424.1152403502044
 20
240.6295310264098
 30
0.0
 11
424.5480781047044
 21
240.6291696733098
 31
0.0
  0
LINE
  5
17F3
330
1A
100
AcDbEntity
  8
SEIHIN
100
AcDbLine
 10
424.5869850366045
 20
239.0084150737098
 30
0.0
 11
424.5555473117045
 21
238.5076541012098
 31
0.0
  0
LINE
  5
17F4
330
1A
100
AcDbEntity
  8
SEIHIN
100
AcDbLine
 10
424.6140827982044
 20
239.4188936358098
 30
0.0
 11
424.5869850366045
 21
239.0084150737098
 31
0.0
  0
LINE
  5
17F5
330
1A
100
AcDbEntity
  8
SEIHIN
100
AcDbLine
 10
424.6368517725044
 20
239.7499974375098
 30
0.0
 11
424.6140827982044
 21
239.4188936358098
 31
0.0
  0
LINE
  5
17F6
330
1A
100
AcDbEntity
  8
SEIHIN
100
AcDbLine
 10
424.6531424670044
 20
239.9816657906097
 30
0.0
 11
424.6368517725044
 21
239.7499974375098
 31
0.0
  0
LINE
  5
17F7
330
1A
100
AcDbEntity
  8
SEIHIN
100
AcDbLine
 10
424.6689041702044
 20
240.2028623527098
 30
0.0
 11
424.6531424670044
 21
239.9816657906097
 31
0.0
  0
LINE
  5
17F8
330
1A
100
AcDbEntity
  8
SEIHIN
100
AcDbLine
 10
424.6814882009044
 20
240.3766583210098
 30
0.0
 11
424.6689041702044
 21
240.2028623527098
 31
0.0
  0
LINE
  5
17F9
330
1A
100
AcDbEntity
  8
SEIHIN
100
AcDbLine
 10
424.6908982842045
 20
240.5044991081098
 30
0.0
 11
424.6814882009044
 21
240.3766583210098
 31
0.0
  0
LINE
  5
17FA
330
1A
100
AcDbEntity
  8
SEIHIN
100
AcDbLine
 10
424.6971306948045
 20
240.5878152257098
 30
0.0
 11
424.6908982842045
 21
240.5044991081098
 31
0.0
  0
LINE
  5
17FB
330
1A
100
AcDbEntity
  8
SEIHIN
100
AcDbLine
 10
424.7001854329044
 20
240.6280260091098
 30
0.0
 11
424.6971306948045
 21
240.5878152257098
 31
0.0
  0
LINE
  5
17FC
330
1A
100
AcDbEntity
  8
SEIHIN
100
AcDbLine
 10
418.2900970428045
 20
240.6282383507098
 30
0.0
 11
418.1799849121045
 21
240.6280260091098
 31
0.0
  0
LINE
  5
17FD
330
1A
100
AcDbEntity
  8
SEIHIN
100
AcDbLine
 10
418.9441760628044
 20
240.6291696733098
 30
0.0
 11
418.2900970428045
 21
240.6282383507098
 31
0.0
  0
LINE
  5
17FE
330
1A
100
AcDbEntity
  8
SEIHIN
100
AcDbLine
 10
419.5915644614045
 20
240.6295310264098
 30
0.0
 11
418.9441760628044
 21
240.6291696733098
 31
0.0
  0
LINE
  5
17FF
330
1A
100
AcDbEntity
  8
SEIHIN
100
AcDbLine
 10
424.7003009169043
 20
240.6295310264098
 30
0.0
 11
424.7001854329044
 21
240.6280260091098
 31
0.0
  0
LINE
  5
1800
330
1A
100
AcDbEntity
  8
SEIHIN
100
AcDbLine
 10
424.7004424779043
 20
240.6313862210097
 30
0.0
 11
424.7003009169043
 21
240.6295310264098
 31
0.0
  0
LINE
  5
1801
330
1A
100
AcDbEntity
  8
SEIHIN
100
AcDbLine
 10
425.7005264609045
 20
240.6301755016098
 30
0.0
 11
424.7004424779043
 21
240.6313862210097
 31
0.0
  0
LINE
  5
1802
330
1A
100
AcDbEntity
  8
SEIHIN
100
AcDbLine
 10
425.7005264609045
 20
240.6324330276098
 30
0.0
 11
424.7004424779043
 21
240.6324330276098
 31
0.0
  0
LINE
  5
1803
330
1A
100
AcDbEntity
  8
SEIHIN
100
AcDbLine
 10
425.7005264609045
 20
240.6324330276098
 30
0.0
 11
425.7005264609045
 21
240.6301755016098
 31
0.0
  0
LINE
  5
1804
330
1A
100
AcDbEntity
  8
SEIHIN
100
AcDbLine
 10
424.7004424779043
 20
240.6324330276098
 30
0.0
 11
424.2536125331044
 21
240.6324330276098
 31
0.0
  0
LINE
  5
1805
330
1A
100
AcDbEntity
  8
SEIHIN
100
AcDbLine
 10
419.4255767016043
 20
240.6324330276098
 30
0.0
 11
420.4256569593044
 21
240.6324330276098
 31
0.0
  0
LINE
  5
1806
330
1A
100
AcDbEntity
  8
SEIHIN
100
AcDbLine
 10
420.4256644098045
 20
240.6313862210097
 30
0.0
 11
419.0065113454043
 21
240.6295310264098
 31
0.0
  0
LINE
  5
1807
330
1A
100
AcDbEntity
  8
SEIHIN
100
AcDbLine
 10
419.0065634994044
 20
240.6295310264098
 30
0.0
 11
418.1799849121044
 21
240.6280260091098
 31
0.0
  0
LINE
  5
1808
330
1A
100
AcDbEntity
  8
SEIHIN
100
AcDbLine
 10
419.4255767016043
 20
240.6324330276098
 30
0.0
 11
419.4255767016043
 21
240.6301755016098
 31
0.0
  0
LINE
  5
1809
330
1A
100
AcDbEntity
  8
SEIHIN
100
AcDbLine
 10
424.1152403502044
 20
240.6295310264098
 30
0.0
 11
419.5915644614045
 21
240.6295310264098
 31
0.0
  0
LINE
  5
180A
330
1A
100
AcDbEntity
  8
SEIHIN
100
AcDbLine
 10
295.0248306243045
 20
420.2792733424736
 30
0.0
 11
293.6449383943045
 21
421.3839001470736
 31
0.0
  0
LINE
  5
180B
330
1A
100
AcDbEntity
  8
SEIHIN
100
AcDbLine
 10
290.3606330602045
 20
419.0973504894737
 30
0.0
 11
295.4981660096044
 21
418.9269072824736
 31
0.0
  0
LINE
  5
180C
330
1A
100
AcDbEntity
  8
SEIHIN
100
AcDbLine
 10
296.5533097832044
 20
416.8932675832737
 30
0.0
 11
292.8595354406045
 21
417.0089862757737
 31
0.0
  0
LINE
  5
180D
330
1A
100
AcDbEntity
  8
SEIHIN
100
AcDbLine
 10
295.2332904188045
 20
425.5810692423737
 30
0.0
 11
293.9184715597045
 21
427.4595990294737
 31
0.0
  0
LINE
  5
180E
330
1A
100
AcDbEntity
  8
SEIHIN
100
AcDbLine
 10
277.5634040682044
 20
435.4441329354737
 30
0.0
 11
307.5634052603045
 21
435.4441329354737
 31
0.0
  0
LINE
  5
180F
330
1A
100
AcDbEntity
  8
SEIHIN
100
AcDbLine
 10
307.5634052603045
 20
434.1033935064737
 30
0.0
 11
293.8855697958045
 21
434.1033935064737
 31
0.0
  0
LINE
  5
1810
330
1A
100
AcDbEntity
  8
SEIHIN
100
AcDbLine
 10
307.5634052603045
 20
440.4441356176737
 30
0.0
 11
277.5634040682044
 21
440.4441356176737
 31
0.0
  0
LINE
  5
1811
330
1A
100
AcDbEntity
  8
SEIHIN
100
AcDbLine
 10
292.8143774717044
 20
429.7211184614737
 30
0.0
 11
323.5634041576045
 21
429.7211184614737
 31
0.0
  0
LINE
  5
1812
330
1A
100
AcDbEntity
  8
SEIHIN
100
AcDbLine
 10
277.5634040682044
 20
435.4441329354737
 30
0.0
 11
277.5634040682044
 21
434.4368069881737
 31
0.0
  0
LINE
  5
1813
330
1A
100
AcDbEntity
  8
SEIHIN
100
AcDbLine
 10
279.3120180814045
 20
422.3763808125736
 30
0.0
 11
278.2968243210044
 21
424.8790829890737
 31
0.0
  0
LINE
  5
1814
330
1A
100
AcDbEntity
  8
SEIHIN
100
AcDbLine
 10
290.7656317203044
 20
434.2606380099737
 30
0.0
 11
277.8280784933045
 21
434.2606380099737
 31
0.0
  0
LINE
  5
1815
330
1A
100
AcDbEntity
  8
SEIHIN
100
AcDbLine
 10
277.8280784933045
 20
434.2606380099737
 30
0.0
 11
278.4377371518044
 21
426.5647917503737
 31
0.0
  0
LINE
  5
1816
330
1A
100
AcDbEntity
  8
SEIHIN
100
AcDbLine
 10
278.2968243210044
 20
424.8790829890737
 30
0.0
 11
278.2968243210044
 21
424.9441340082736
 31
0.0
  0
LINE
  5
1817
330
1A
100
AcDbEntity
  8
SEIHIN
100
AcDbLine
 10
277.7347748725044
 20
434.3155934923737
 30
0.0
 11
277.7455782144044
 21
434.3155934923737
 31
0.0
  0
LINE
  5
1818
330
1A
100
AcDbEntity
  8
SEIHIN
100
AcDbLine
 10
277.5634040682044
 20
434.4368069881737
 30
0.0
 11
277.7347748725044
 21
434.3155934923737
 31
0.0
  0
LINE
  5
1819
330
1A
100
AcDbEntity
  8
SEIHIN
100
AcDbLine
 10
277.7455782144044
 20
434.3155934923737
 30
0.0
 11
277.8280784933045
 21
434.2606380099737
 31
0.0
  0
LINE
  5
181A
330
1A
100
AcDbEntity
  8
SEIHIN
100
AcDbLine
 10
277.7347748725044
 20
432.3192551249737
 30
0.0
 11
277.5634040682044
 21
432.4404686206736
 31
0.0
  0
LINE
  5
181B
330
1A
100
AcDbEntity
  8
SEIHIN
100
AcDbLine
 10
277.5634040682044
 20
434.4368069881737
 30
0.0
 11
277.5634040682044
 21
432.4404686206736
 31
0.0
  0
LINE
  5
181C
330
1A
100
AcDbEntity
  8
SEIHIN
100
AcDbLine
 10
277.7347748725044
 20
434.3155934923737
 30
0.0
 11
277.7347748725044
 21
432.3192551249737
 31
0.0
  0
LINE
  5
181D
330
1A
100
AcDbEntity
  8
SEIHIN
100
AcDbLine
 10
277.7347748725044
 20
432.3192551249737
 30
0.0
 11
277.7455782144044
 21
434.3155934923737
 31
0.0
  0
LINE
  5
181E
330
1A
100
AcDbEntity
  8
SEIHIN
100
AcDbLine
 10
278.2968243210044
 20
424.9441340082736
 30
0.0
 11
277.7347748725044
 21
432.3192551249737
 31
0.0
  0
LINE
  5
181F
330
1A
100
AcDbEntity
  8
SEIHIN
100
AcDbLine
 10
292.4352025239044
 20
422.7945446485737
 30
0.0
 11
291.3907950370045
 21
424.5232358092736
 31
0.0
  0
LINE
  5
1820
330
1A
100
AcDbEntity
  8
SEIHIN
100
AcDbLine
 10
279.3934529273045
 20
424.2880433314737
 30
0.0
 11
280.5645649879045
 21
422.3971269541736
 31
0.0
  0
LINE
  5
1821
330
1A
100
AcDbEntity
  8
SEIHIN
100
AcDbLine
 10
285.8464454858044
 20
417.3257551604737
 30
0.0
 11
287.0825862138045
 21
417.2290689760736
 31
0.0
  0
LINE
  5
1822
330
1A
100
AcDbEntity
  8
SEIHIN
100
AcDbLine
 10
287.5802924482044
 20
419.2059799545737
 30
0.0
 11
286.2778415529045
 21
419.2939601355737
 31
0.0
  0
LINE
  5
1823
330
1A
100
AcDbEntity
  8
SEIHIN
100
AcDbLine
 10
284.8571499436044
 20
417.4453705066736
 30
0.0
 11
285.8464454858044
 21
417.3257551604737
 31
0.0
  0
LINE
  5
1824
330
1A
100
AcDbEntity
  8
SEIHIN
100
AcDbLine
 10
284.0856274216044
 20
417.5956189149736
 30
0.0
 11
284.8571499436044
 21
417.4453705066736
 31
0.0
  0
LINE
  5
1825
330
1A
100
AcDbEntity
  8
SEIHIN
100
AcDbLine
 10
283.5955282299044
 20
417.7673771494737
 30
0.0
 11
284.0856274216044
 21
417.5956189149736
 31
0.0
  0
LINE
  5
1826
330
1A
100
AcDbEntity
  8
SEIHIN
100
AcDbLine
 10
284.3458836524044
 20
419.5457301551737
 30
0.0
 11
283.5955282299044
 21
419.7803787404737
 31
0.0
  0
LINE
  5
1827
330
1A
100
AcDbEntity
  8
SEIHIN
100
AcDbLine
 10
285.2101435511045
 20
419.4046720379737
 30
0.0
 11
284.3458836524044
 21
419.5457301551737
 31
0.0
  0
LINE
  5
1828
330
1A
100
AcDbEntity
  8
SEIHIN
100
AcDbLine
 10
286.2778415529045
 20
419.2939601355737
 30
0.0
 11
285.2101435511045
 21
419.4046720379737
 31
0.0
  0
LINE
  5
1829
330
1A
100
AcDbEntity
  8
SEIHIN
100
AcDbLine
 10
280.5727755277044
 20
420.3397199028736
 30
0.0
 11
279.3120180814045
 21
422.3763808125736
 31
0.0
  0
LINE
  5
182A
330
1A
100
AcDbEntity
  8
SEIHIN
100
AcDbLine
 10
281.9762190430045
 20
418.8535041624737
 30
0.0
 11
280.5727755277044
 21
420.3397199028736
 31
0.0
  0
LINE
  5
182B
330
1A
100
AcDbEntity
  8
SEIHIN
100
AcDbLine
 10
283.5955282299044
 20
417.7673771494737
 30
0.0
 11
281.9762190430045
 21
418.8535041624737
 31
0.0
  0
LINE
  5
182C
330
1A
100
AcDbEntity
  8
SEIHIN
100
AcDbLine
 10
281.9664140789045
 20
420.8889916056737
 30
0.0
 11
283.5955282299044
 21
419.7803787404737
 31
0.0
  0
LINE
  5
182D
330
1A
100
AcDbEntity
  8
SEIHIN
100
AcDbLine
 10
280.5645649879045
 20
422.3971269541736
 30
0.0
 11
281.9664140789045
 21
420.8889916056737
 31
0.0
  0
LINE
  5
182E
330
1A
100
AcDbEntity
  8
SEIHIN
100
AcDbLine
 10
283.5955282299044
 20
419.7803787404737
 30
0.0
 11
283.5955282299044
 21
417.7673771494737
 31
0.0
  0
LINE
  5
182F
330
1A
100
AcDbEntity
  8
SEIHIN
100
AcDbLine
 10
287.0825862138045
 20
417.2290689760736
 30
0.0
 11
289.0082558243045
 21
417.1388610714736
 31
0.0
  0
LINE
  5
1830
330
1A
100
AcDbEntity
  8
SEIHIN
100
AcDbLine
 10
289.0082558243045
 20
419.1438346618737
 30
0.0
 11
287.5802924482044
 21
419.2059799545737
 31
0.0
  0
LINE
  5
1831
330
1A
100
AcDbEntity
  8
SEIHIN
100
AcDbLine
 10
293.6449383943045
 20
421.3839001470736
 30
0.0
 11
292.4352025239044
 21
422.7945446485737
 31
0.0
  0
LINE
  5
1832
330
1A
100
AcDbEntity
  8
SEIHIN
100
AcDbLine
 10
289.0082558243045
 20
419.1438346618737
 30
0.0
 11
290.3606330602045
 21
419.0973504894737
 31
0.0
  0
LINE
  5
1833
330
1A
100
AcDbEntity
  8
SEIHIN
100
AcDbLine
 10
292.8595354406045
 20
417.0089862757737
 30
0.0
 11
289.0082558243045
 21
417.1388610714736
 31
0.0
  0
LINE
  5
1834
330
1A
100
AcDbEntity
  8
SEIHIN
100
AcDbLine
 10
289.0082558243045
 20
417.1388610714736
 30
0.0
 11
289.0082558243045
 21
419.1438346618737
 31
0.0
  0
LINE
  5
1835
330
1A
100
AcDbEntity
  8
SEIHIN
100
AcDbLine
 10
290.5168344824044
 20
426.5647917503737
 30
0.0
 11
278.4377371518044
 21
426.5647917503737
 31
0.0
  0
LINE
  5
1836
330
1A
100
AcDbEntity
  8
SEIHIN
100
AcDbLine
 10
278.4377371518045
 20
426.5647917503737
 30
0.0
 11
279.3934529273045
 21
424.2880433314737
 31
0.0
  0
LINE
  5
1837
330
1A
100
AcDbEntity
  8
SEIHIN
100
AcDbLine
 10
292.8702642767044
 20
429.8092737311737
 30
0.0
 11
293.2586630432044
 21
430.4250046127737
 31
0.0
  0
LINE
  5
1838
330
1A
100
AcDbEntity
  8
SEIHIN
100
AcDbLine
 10
292.8143774717044
 20
429.7211184614737
 30
0.0
 11
292.8702642767044
 21
429.8092737311737
 31
0.0
  0
LINE
  5
1839
330
1A
100
AcDbEntity
  8
SEIHIN
100
AcDbLine
 10
291.3907950370045
 20
424.5232358092736
 30
0.0
 11
290.5168344824044
 21
426.5647917503737
 31
0.0
  0
LINE
  5
183A
330
1A
100
AcDbEntity
  8
SEIHIN
100
AcDbLine
 10
293.9184715597045
 20
427.4595990294737
 30
0.0
 11
292.8143774717044
 21
429.7211184614737
 31
0.0
  0
LINE
  5
183B
330
1A
100
AcDbEntity
  8
SEIHIN
100
AcDbLine
 10
290.6970491259044
 20
434.2640950792737
 30
0.0
 11
290.3699760883044
 21
434.2640950792737
 31
0.0
  0
LINE
  5
183C
330
1A
100
AcDbEntity
  8
SEIHIN
100
AcDbLine
 10
290.3699760883044
 20
434.2805832141737
 30
0.0
 11
290.6970491259044
 21
434.2640950792737
 31
0.0
  0
LINE
  5
183D
330
1A
100
AcDbEntity
  8
SEIHIN
100
AcDbLine
 10
290.3699760883044
 20
434.2640950792737
 30
0.0
 11
290.3699760883044
 21
434.2805832141737
 31
0.0
  0
LINE
  5
183E
330
1A
100
AcDbEntity
  8
SEIHIN
100
AcDbLine
 10
290.7656317203044
 20
434.2606380099737
 30
0.0
 11
293.8855697958045
 21
434.1033935064737
 31
0.0
  0
LINE
  5
183F
330
1A
100
AcDbEntity
  8
SEIHIN
100
AcDbLine
 10
293.2586630432045
 20
430.4250046127737
 30
0.0
 11
293.8578759877045
 21
430.4250046127737
 31
0.0
  0
LINE
  5
1840
330
1A
100
AcDbEntity
  8
SEIHIN
100
AcDbLine
 10
293.8578759877045
 20
430.4250046127737
 30
0.0
 11
293.8651924579044
 21
431.3975587004737
 31
0.0
  0
LINE
  5
1841
330
1A
100
AcDbEntity
  8
SEIHIN
100
AcDbLine
 10
290.4550915210044
 20
427.2511764877737
 30
0.0
 11
290.4550915210044
 21
427.5638401025736
 31
0.0
  0
LINE
  5
1842
330
1A
100
AcDbEntity
  8
SEIHIN
100
AcDbLine
 10
290.5168344824044
 20
426.5647917503737
 30
0.0
 11
290.4550915210044
 21
427.2511764877737
 31
0.0
  0
LINE
  5
1843
330
1A
100
AcDbEntity
  8
SEIHIN
100
AcDbLine
 10
293.2586630432045
 20
430.4250046127737
 30
0.0
 11
290.4550915210044
 21
427.5638401025736
 31
0.0
  0
LINE
  5
1844
330
1A
100
AcDbEntity
  8
SEIHIN
100
AcDbLine
 10
290.7656317203044
 20
434.2606380099737
 30
0.0
 11
290.7656317203044
 21
427.8807579988736
 31
0.0
  0
LINE
  5
1845
330
1A
100
AcDbEntity
  8
SEIHIN
100
AcDbLine
 10
293.8651924579044
 20
431.3975587004737
 30
0.0
 11
293.8855697958045
 21
434.1033935064737
 31
0.0
  0
LINE
  5
1846
330
1A
100
AcDbEntity
  8
SEIHIN
100
AcDbLine
 10
277.5634040682044
 20
440.4441356176737
 30
0.0
 11
277.5634040682044
 21
435.4441329354737
 31
0.0
  0
LINE
  5
1847
330
1A
100
AcDbEntity
  8
SEIHIN
100
AcDbLine
 10
424.3523103742045
 20
378.2079457753737
 30
0.0
 11
424.3276526777045
 21
343.2616643124736
 31
0.0
  0
LINE
  5
1848
330
1A
100
AcDbEntity
  8
SEIHIN
100
AcDbLine
 10
424.3643877654044
 20
410.6723419839736
 30
0.0
 11
424.3427922575044
 21
363.2417768688736
 31
0.0
  0
LINE
  5
1849
330
1A
100
AcDbEntity
  8
SEIHIN
100
AcDbLine
 10
424.6689041702044
 20
371.7808160448737
 30
0.0
 11
424.6531424670044
 21
361.7932898426737
 31
0.0
  0
LINE
  5
184A
330
1A
100
AcDbEntity
  8
SEIHIN
100
AcDbLine
 10
424.3276526777045
 20
343.2616643124736
 30
0.0
 11
424.2991467564045
 21
315.8133677655737
 31
0.0
  0
LINE
  5
184B
330
1A
100
AcDbEntity
  8
SEIHIN
100
AcDbLine
 10
424.3427922575044
 20
363.2417768688736
 30
0.0
 11
424.2963825910045
 21
315.8133044356736
 31
0.0
  0
LINE
  5
184C
330
1A
100
AcDbEntity
  8
SEIHIN
100
AcDbLine
 10
424.5869850366045
 20
330.9248122835737
 30
0.0
 11
424.5555473117045
 21
318.8296980673737
 31
0.0
  0
LINE
  5
184D
330
1A
100
AcDbEntity
  8
SEIHIN
100
AcDbLine
 10
424.2859294264045
 20
300.4316217714737
 30
0.0
 11
424.2618044464045
 21
295.7499414199737
 31
0.0
  0
LINE
  5
184E
330
1A
100
AcDbEntity
  8
SEIHIN
100
AcDbLine
 10
424.5159810035045
 20
285.3623270505737
 30
0.0
 11
424.6461575477044
 21
281.5009593480737
 31
0.0
  0
LINE
  5
184F
330
1A
100
AcDbEntity
  8
SEIHIN
100
AcDbLine
 10
424.7363654523044
 20
279.5752897375737
 30
0.0
 11
424.6461575477044
 21
281.5009593480737
 31
0.0
  0
LINE
  5
1850
330
1A
100
AcDbEntity
  8
SEIHIN
100
AcDbLine
 10
424.8330516367045
 20
278.3391490095737
 30
0.0
 11
424.7363654523044
 21
279.5752897375737
 31
0.0
  0
LINE
  5
1851
330
1A
100
AcDbEntity
  8
SEIHIN
100
AcDbLine
 10
424.9526669829044
 20
277.3498534673737
 30
0.0
 11
424.8330516367045
 21
278.3391490095737
 31
0.0
  0
LINE
  5
1852
330
1A
100
AcDbEntity
  8
SEIHIN
100
AcDbLine
 10
425.1029153912044
 20
276.5783309453736
 30
0.0
 11
424.9526669829044
 21
277.3498534673737
 31
0.0
  0
LINE
  5
1853
330
1A
100
AcDbEntity
  8
SEIHIN
100
AcDbLine
 10
425.2746736257044
 20
276.0882317537737
 30
0.0
 11
425.1029153912044
 21
276.5783309453736
 31
0.0
  0
LINE
  5
1854
330
1A
100
AcDbEntity
  8
SEIHIN
100
AcDbLine
 10
424.4005640595045
 20
289.0460133069737
 30
0.0
 11
424.5159810035045
 21
285.3623270505737
 31
0.0
  0
LINE
  5
1855
330
1A
100
AcDbEntity
  8
SEIHIN
100
AcDbLine
 10
424.3124162404044
 20
292.5002663844737
 30
0.0
 11
424.4005640595045
 21
289.0460133069737
 31
0.0
  0
LINE
  5
1856
330
1A
100
AcDbEntity
  8
SEIHIN
100
AcDbLine
 10
424.2618044464045
 20
295.7499414199737
 30
0.0
 11
424.3124162404044
 21
292.5002663844737
 31
0.0
  0
LINE
  5
1857
330
1A
100
AcDbEntity
  8
SEIHIN
100
AcDbLine
 10
424.2801067977044
 20
307.3972478026737
 30
0.0
 11
424.2772010712044
 21
307.6891205722737
 31
0.0
  0
LINE
  5
1858
330
1A
100
AcDbEntity
  8
SEIHIN
100
AcDbLine
 10
424.2595543711044
 20
307.8369698935737
 30
0.0
 11
424.2578705399045
 21
307.5861684495736
 31
0.0
  0
LINE
  5
1859
330
1A
100
AcDbEntity
  8
SEIHIN
100
AcDbLine
 10
424.5555473117045
 20
318.8296980673737
 30
0.0
 11
424.5197733490044
 21
306.0422665888736
 31
0.0
  0
LINE
  5
185A
330
1A
100
AcDbEntity
  8
SEIHIN
100
AcDbLine
 10
424.2541191725045
 20
313.0721501523737
 30
0.0
 11
424.2541191725045
 21
297.2927182429737
 31
0.0
  0
LINE
  5
185B
330
1A
100
AcDbEntity
  8
SEIHIN
100
AcDbLine
 10
424.2811983077045
 20
307.0669188612737
 30
0.0
 11
424.2801067977044
 21
307.3972478026737
 31
0.0
  0
LINE
  5
185C
330
1A
100
AcDbEntity
  8
SEIHIN
100
AcDbLine
 10
424.2802371828045
 20
306.7353344970736
 30
0.0
 11
424.2811983077045
 21
307.0669188612737
 31
0.0
  0
LINE
  5
185D
330
1A
100
AcDbEntity
  8
SEIHIN
100
AcDbLine
 10
424.2774320392045
 20
306.4398817235737
 30
0.0
 11
424.2802371828045
 21
306.7353344970736
 31
0.0
  0
LINE
  5
185E
330
1A
100
AcDbEntity
  8
SEIHIN
100
AcDbLine
 10
424.2733826487045
 20
306.2139093393737
 30
0.0
 11
424.2774320392045
 21
306.4398817235737
 31
0.0
  0
LINE
  5
185F
330
1A
100
AcDbEntity
  8
SEIHIN
100
AcDbLine
 10
424.2688824980044
 20
306.0829132312737
 30
0.0
 11
424.2733826487045
 21
306.2139093393737
 31
0.0
  0
LINE
  5
1860
330
1A
100
AcDbEntity
  8
SEIHIN
100
AcDbLine
 10
424.2646840958044
 20
306.0616492742736
 30
0.0
 11
424.2688824980044
 21
306.0829132312737
 31
0.0
  0
LINE
  5
1861
330
1A
100
AcDbEntity
  8
SEIHIN
100
AcDbLine
 10
424.2612940817045
 20
306.1524942034736
 30
0.0
 11
424.2646840958044
 21
306.0616492742736
 31
0.0
  0
LINE
  5
1862
330
1A
100
AcDbEntity
  8
SEIHIN
100
AcDbLine
 10
424.2589247970045
 20
306.3452034705737
 30
0.0
 11
424.2612940817045
 21
306.1524942034736
 31
0.0
  0
LINE
  5
1863
330
1A
100
AcDbEntity
  8
SEIHIN
100
AcDbLine
 10
424.2575278132044
 20
306.6180660837737
 30
0.0
 11
424.2589247970045
 21
306.3452034705737
 31
0.0
  0
LINE
  5
1864
330
1A
100
AcDbEntity
  8
SEIHIN
100
AcDbLine
 10
424.2569429426044
 20
306.9403111451737
 30
0.0
 11
424.2575278132044
 21
306.6180660837737
 31
0.0
  0
LINE
  5
1865
330
1A
100
AcDbEntity
  8
SEIHIN
100
AcDbLine
 10
424.2570472507044
 20
307.2756096237737
 30
0.0
 11
424.2569429426044
 21
306.9403111451737
 31
0.0
  0
LINE
  5
1866
330
1A
100
AcDbEntity
  8
SEIHIN
100
AcDbLine
 10
424.2578705399045
 20
307.5861684495736
 30
0.0
 11
424.2570472507044
 21
307.2756096237737
 31
0.0
  0
LINE
  5
1867
330
1A
100
AcDbEntity
  8
SEIHIN
100
AcDbLine
 10
424.5153067259045
 20
305.5813364201737
 30
0.0
 11
424.5197733490044
 21
306.0422665888736
 31
0.0
  0
LINE
  5
1868
330
1A
100
AcDbEntity
  8
SEIHIN
100
AcDbLine
 10
424.4987589864045
 20
304.9773588293737
 30
0.0
 11
424.5153067259045
 21
305.5813364201737
 31
0.0
  0
LINE
  5
1869
330
1A
100
AcDbEntity
  8
SEIHIN
100
AcDbLine
 10
424.4730582087045
 20
304.5049771183737
 30
0.0
 11
424.4987589864045
 21
304.9773588293737
 31
0.0
  0
LINE
  5
186A
330
1A
100
AcDbEntity
  8
SEIHIN
100
AcDbLine
 10
424.4730582087045
 20
304.5049771183737
 30
0.0
 11
424.2859294264045
 21
300.4316217714737
 31
0.0
  0
LINE
  5
186B
330
1A
100
AcDbEntity
  8
SEIHIN
100
AcDbLine
 10
424.2686031012044
 20
308.0340042227736
 30
0.0
 11
424.2659246175044
 21
308.0561100953736
 31
0.0
  0
LINE
  5
186C
330
1A
100
AcDbEntity
  8
SEIHIN
100
AcDbLine
 10
424.2731032519044
 20
307.9096652084736
 30
0.0
 11
424.2686031012044
 21
308.0340042227736
 31
0.0
  0
LINE
  5
186D
330
1A
100
AcDbEntity
  8
SEIHIN
100
AcDbLine
 10
424.2772010712044
 20
307.6891205722737
 30
0.0
 11
424.2731032519044
 21
307.9096652084736
 31
0.0
  0
LINE
  5
186E
330
1A
100
AcDbEntity
  8
SEIHIN
100
AcDbLine
 10
424.2622440307044
 20
307.9997352772737
 30
0.0
 11
424.2595543711044
 21
307.8369698935737
 31
0.0
  0
LINE
  5
186F
330
1A
100
AcDbEntity
  8
SEIHIN
100
AcDbLine
 10
424.2659246175044
 20
308.0561100953736
 30
0.0
 11
424.2622440307044
 21
307.9997352772737
 31
0.0
  0
LINE
  5
1870
330
1A
100
AcDbEntity
  8
SEIHIN
100
AcDbLine
 10
424.2963788657044
 20
315.8134012931736
 30
0.0
 11
424.2963825910044
 21
315.8133044356736
 31
0.0
  0
LINE
  5
1871
330
1A
100
AcDbEntity
  8
SEIHIN
100
AcDbLine
 10
424.2963788657044
 20
315.8134012931736
 30
0.0
 11
424.2554192989046
 21
313.0721501523737
 31
0.0
  0
LINE
  5
1872
330
1A
100
AcDbEntity
  8
SEIHIN
100
AcDbLine
 10
424.6368517725044
 20
353.0348069483737
 30
0.0
 11
424.6140827982044
 21
342.3267505580737
 31
0.0
  0
LINE
  5
1873
330
1A
100
AcDbEntity
  8
SEIHIN
100
AcDbLine
 10
424.6140827982044
 20
342.3267505580737
 30
0.0
 11
424.5869850366045
 21
330.9248122835737
 31
0.0
  0
LINE
  5
1874
330
1A
100
AcDbEntity
  8
SEIHIN
100
AcDbLine
 10
424.6531424670044
 20
361.7932898426737
 30
0.0
 11
424.6368517725044
 21
353.0348069483737
 31
0.0
  0
LINE
  5
1875
330
1A
100
AcDbEntity
  8
SEIHIN
100
AcDbLine
 10
385.7152422516044
 20
416.8450138980737
 30
0.0
 11
350.7689607887044
 21
416.8203562015737
 31
0.0
  0
LINE
  5
1876
330
1A
100
AcDbEntity
  8
SEIHIN
100
AcDbLine
 10
383.3012913911044
 20
417.1671546512737
 30
0.0
 11
348.4244828670044
 21
417.1038396173737
 31
0.0
  0
LINE
  5
1877
330
1A
100
AcDbEntity
  8
SEIHIN
100
AcDbLine
 10
370.7490733451044
 20
416.8354957812737
 30
0.0
 11
347.0317495613045
 21
416.8138592952736
 31
0.0
  0
LINE
  5
1878
330
1A
100
AcDbEntity
  8
SEIHIN
100
AcDbLine
 10
323.5634041576045
 20
432.0712700003737
 30
0.0
 11
420.4923396556044
 21
432.0712700003737
 31
0.0
  0
LINE
  5
1879
330
1A
100
AcDbEntity
  8
SEIHIN
100
AcDbLine
 10
324.5634061842045
 20
444.2085042113737
 30
0.0
 11
378.9514328910045
 21
444.2085042113737
 31
0.0
  0
LINE
  5
187A
330
1A
100
AcDbEntity
  8
SEIHIN
100
AcDbLine
 10
378.9514328910045
 20
443.9441352599737
 30
0.0
 11
324.5634061842045
 21
443.9441352599737
 31
0.0
  0
LINE
  5
187B
330
1A
100
AcDbEntity
  8
SEIHIN
100
AcDbLine
 10
324.5634061842045
 20
440.4441356176737
 30
0.0
 11
378.9514328910045
 21
440.4441356176737
 31
0.0
  0
LINE
  5
187C
330
1A
100
AcDbEntity
  8
SEIHIN
100
AcDbLine
 10
378.9514328910045
 20
443.4441342467736
 30
0.0
 11
324.5634061842045
 21
443.4441342467736
 31
0.0
  0
LINE
  5
187D
330
1A
100
AcDbEntity
  8
SEIHIN
100
AcDbLine
 10
324.5634061842045
 20
438.8301163428736
 30
0.0
 11
378.9514328910045
 21
438.8301163428736
 31
0.0
  0
LINE
  5
187E
330
1A
100
AcDbEntity
  8
SEIHIN
100
AcDbLine
 10
350.7689607887044
 20
416.8203562015737
 30
0.0
 11
323.3206642418044
 21
416.7918502801737
 31
0.0
  0
LINE
  5
187F
330
1A
100
AcDbEntity
  8
SEIHIN
100
AcDbLine
 10
348.4244828670044
 20
417.1038396173737
 30
0.0
 11
313.5495630650045
 21
417.0124768727736
 31
0.0
  0
LINE
  5
1880
330
1A
100
AcDbEntity
  8
SEIHIN
100
AcDbLine
 10
347.0317495613045
 20
416.8138592952736
 30
0.0
 11
323.3206009118044
 21
416.7890861147737
 31
0.0
  0
LINE
  5
1881
330
1A
100
AcDbEntity
  8
SEIHIN
100
AcDbLine
 10
349.5634065567044
 20
452.9855191224737
 30
0.0
 11
317.2042106836043
 21
452.9855191224737
 31
0.0
  0
LINE
  5
1882
330
1A
100
AcDbEntity
  8
SEIHIN
100
AcDbLine
 10
317.2042106836043
 20
453.4441396111737
 30
0.0
 11
349.5634065567044
 21
453.4441396111737
 31
0.0
  0
LINE
  5
1883
330
1A
100
AcDbEntity
  8
SEIHIN
100
AcDbLine
 10
324.5634061842045
 20
451.1383935326737
 30
0.0
 11
340.5634050815045
 21
451.1383935326737
 31
0.0
  0
LINE
  5
1884
330
1A
100
AcDbEntity
  8
SEIHIN
100
AcDbLine
 10
340.5634050815045
 20
451.8050565832737
 30
0.0
 11
324.5634061842045
 21
451.8050565832737
 31
0.0
  0
LINE
  5
1885
330
1A
100
AcDbEntity
  8
SEIHIN
100
AcDbLine
 10
348.4923371671046
 20
454.4441341870736
 30
0.0
 11
318.2042127101045
 21
454.4441341870736
 31
0.0
  0
LINE
  5
1886
330
1A
100
AcDbEntity
  8
SEIHIN
100
AcDbLine
 10
323.5634041576045
 20
432.0712700003737
 30
0.0
 11
323.5634041576045
 21
444.5459484571736
 31
0.0
  0
LINE
  5
1887
330
1A
100
AcDbEntity
  8
SEIHIN
100
AcDbLine
 10
324.5634061842045
 20
444.5459484571736
 30
0.0
 11
324.5634061842045
 21
432.0712700003737
 31
0.0
  0
LINE
  5
1888
330
1A
100
AcDbEntity
  8
SEIHIN
100
AcDbLine
 10
307.5634052603045
 20
434.1033935064737
 30
0.0
 11
307.5634052603045
 21
438.8301163428736
 31
0.0
  0
LINE
  5
1889
330
1A
100
AcDbEntity
  8
SEIHIN
100
AcDbLine
 10
309.4016683845044
 20
418.8234410697737
 30
0.0
 11
312.0122735946044
 21
418.9685374015737
 31
0.0
  0
LINE
  5
188A
330
1A
100
AcDbEntity
  8
SEIHIN
100
AcDbLine
 10
312.0122735946044
 20
416.9657617324737
 30
0.0
 11
307.9389182477045
 21
416.7786329501737
 31
0.0
  0
LINE
  5
188B
330
1A
100
AcDbEntity
  8
SEIHIN
100
AcDbLine
 10
312.0928739755045
 20
422.2237631195736
 30
0.0
 11
305.3493609278044
 21
422.7263904625737
 31
0.0
  0
LINE
  5
188C
330
1A
100
AcDbEntity
  8
SEIHIN
100
AcDbLine
 10
304.8000147192045
 20
416.7468226963736
 30
0.0
 11
320.5794466285045
 21
416.7468226963736
 31
0.0
  0
LINE
  5
188D
330
1A
100
AcDbEntity
  8
SEIHIN
100
AcDbLine
 10
297.5443487613044
 20
423.4675332421737
 30
0.0
 11
296.3130062072045
 21
424.4167372101737
 31
0.0
  0
LINE
  5
188E
330
1A
100
AcDbEntity
  8
SEIHIN
100
AcDbLine
 10
300.3179391472045
 20
418.7993235403736
 30
0.0
 11
303.5342504828045
 21
418.7523178273737
 31
0.0
  0
LINE
  5
188F
330
1A
100
AcDbEntity
  8
SEIHIN
100
AcDbLine
 10
303.2572378962045
 20
416.7545079702736
 30
0.0
 11
299.9988158791044
 21
416.8053097540737
 31
0.0
  0
LINE
  5
1890
330
1A
100
AcDbEntity
  8
SEIHIN
100
AcDbLine
 10
300.2053236215044
 20
419.7557024174736
 30
0.0
 11
304.8546200244044
 21
419.4329469913736
 31
0.0
  0
LINE
  5
1891
330
1A
100
AcDbEntity
  8
SEIHIN
100
AcDbLine
 10
305.3493609278044
 20
422.7263904625737
 30
0.0
 11
298.0479856579045
 21
423.2912189775736
 31
0.0
  0
LINE
  5
1892
330
1A
100
AcDbEntity
  8
SEIHIN
100
AcDbLine
 10
295.4981660096044
 20
418.9269072824736
 30
0.0
 11
300.3179391472045
 21
418.7993235403736
 31
0.0
  0
LINE
  5
1893
330
1A
100
AcDbEntity
  8
SEIHIN
100
AcDbLine
 10
299.9988158791044
 20
416.8053097540737
 30
0.0
 11
296.5533097832044
 21
416.8932675832737
 31
0.0
  0
LINE
  5
1894
330
1A
100
AcDbEntity
  8
SEIHIN
100
AcDbLine
 10
295.3264450280045
 20
420.0915894919737
 30
0.0
 11
300.2053236215044
 21
419.7557024174736
 31
0.0
  0
LINE
  5
1895
330
1A
100
AcDbEntity
  8
SEIHIN
100
AcDbLine
 10
298.0479584672045
 20
423.2912420448737
 30
0.0
 11
297.8883714518045
 21
423.2904452954737
 31
0.0
  0
LINE
  5
1896
330
1A
100
AcDbEntity
  8
SEIHIN
100
AcDbLine
 10
297.5443498341044
 20
423.4675343875737
 30
0.0
 11
297.8883714518045
 21
423.2904452954737
 31
0.0
  0
LINE
  5
1897
330
1A
100
AcDbEntity
  8
SEIHIN
100
AcDbLine
 10
295.1517587154044
 20
420.1371386164736
 30
0.0
 11
295.0248306243045
 21
420.2792733424736
 31
0.0
  0
LINE
  5
1898
330
1A
100
AcDbEntity
  8
SEIHIN
100
AcDbLine
 10
295.1517568645045
 20
420.1371383759736
 30
0.0
 11
295.1886182184044
 21
420.1059988968736
 31
0.0
  0
LINE
  5
1899
330
1A
100
AcDbEntity
  8
SEIHIN
100
AcDbLine
 10
295.3264431809045
 20
420.0915894021737
 30
0.0
 11
295.1886182184044
 21
420.1059988968736
 31
0.0
  0
LINE
  5
189A
330
1A
100
AcDbEntity
  8
SEIHIN
100
AcDbLine
 10
295.1517568645045
 20
420.1371383759736
 30
0.0
 11
297.8883714518045
 21
423.2904452954737
 31
0.0
  0
LINE
  5
189B
330
1A
100
AcDbEntity
  8
SEIHIN
100
AcDbLine
 10
306.5483009069044
 20
418.7555811816736
 30
0.0
 11
309.4016683845044
 21
418.8234410697737
 31
0.0
  0
LINE
  5
189C
330
1A
100
AcDbEntity
  8
SEIHIN
100
AcDbLine
 10
303.5342504828045
 20
418.7523178273737
 30
0.0
 11
306.5483009069044
 21
418.7555811816736
 31
0.0
  0
LINE
  5
189D
330
1A
100
AcDbEntity
  8
SEIHIN
100
AcDbLine
 10
307.9389182477045
 20
416.7786329501737
 30
0.0
 11
303.2572378962045
 21
416.7545079702736
 31
0.0
  0
LINE
  5
189E
330
1A
100
AcDbEntity
  8
SEIHIN
100
AcDbLine
 10
309.3559292702045
 20
419.1399640852736
 30
0.0
 11
310.8828028290044
 21
419.0569906943737
 31
0.0
  0
LINE
  5
189F
330
1A
100
AcDbEntity
  8
SEIHIN
100
AcDbLine
 10
304.8546200244044
 20
419.4329469913736
 30
0.0
 11
309.3559292702045
 21
419.1399640852736
 31
0.0
  0
LINE
  5
18A0
330
1A
100
AcDbEntity
  8
SEIHIN
100
AcDbLine
 10
296.3130062072045
 20
424.4167372101737
 30
0.0
 11
295.2332904188045
 21
425.5810692423737
 31
0.0
  0
LINE
  5
18A1
330
1A
100
AcDbEntity
  8
SEIHIN
100
AcDbLine
 10
323.5634041576045
 20
419.0445221477737
 30
0.0
 11
323.5634041576045
 21
432.0712700003737
 31
0.0
  0
LINE
  5
18A2
330
1A
100
AcDbEntity
  8
SEIHIN
100
AcDbLine
 10
323.5634153335045
 20
421.7477976793737
 30
0.0
 11
318.2186593859045
 21
421.8677483016736
 31
0.0
  0
LINE
  5
18A3
330
1A
100
AcDbEntity
  8
SEIHIN
100
AcDbLine
 10
313.5495630650044
 20
419.0158448630737
 30
0.0
 11
323.5634041576045
 21
419.0445221477737
 31
0.0
  0
LINE
  5
18A4
330
1A
100
AcDbEntity
  8
SEIHIN
100
AcDbLine
 10
312.3250042646044
 20
418.9874805027736
 30
0.0
 11
312.0122735946044
 21
418.9685374015737
 31
0.0
  0
LINE
  5
18A5
330
1A
100
AcDbEntity
  8
SEIHIN
100
AcDbLine
 10
312.8947240858044
 20
419.0074182563736
 30
0.0
 11
312.3250042646044
 21
418.9874805027736
 31
0.0
  0
LINE
  5
18A6
330
1A
100
AcDbEntity
  8
SEIHIN
100
AcDbLine
 10
313.5495630650045
 20
419.0158448630737
 30
0.0
 11
312.8947240858044
 21
419.0074182563736
 31
0.0
  0
LINE
  5
18A7
330
1A
100
AcDbEntity
  8
SEIHIN
100
AcDbLine
 10
315.5413006990044
 20
416.7613066250736
 30
0.0
 11
315.5634065716045
 21
416.7586281412737
 31
0.0
  0
LINE
  5
18A8
330
1A
100
AcDbEntity
  8
SEIHIN
100
AcDbLine
 10
315.4169616847045
 20
416.7658067756736
 30
0.0
 11
315.5413006990044
 21
416.7613066250736
 31
0.0
  0
LINE
  5
18A9
330
1A
100
AcDbEntity
  8
SEIHIN
100
AcDbLine
 10
315.1964170484044
 20
416.7699045950737
 30
0.0
 11
315.4169616847045
 21
416.7658067756736
 31
0.0
  0
LINE
  5
18AA
330
1A
100
AcDbEntity
  8
SEIHIN
100
AcDbLine
 10
314.9045442788045
 20
416.7728103214736
 30
0.0
 11
315.1964170484044
 21
416.7699045950737
 31
0.0
  0
LINE
  5
18AB
330
1A
100
AcDbEntity
  8
SEIHIN
100
AcDbLine
 10
314.5742153375044
 20
416.7739018315737
 30
0.0
 11
314.9045442788045
 21
416.7728103214736
 31
0.0
  0
LINE
  5
18AC
330
1A
100
AcDbEntity
  8
SEIHIN
100
AcDbLine
 10
314.2426309733044
 20
416.7729407066736
 30
0.0
 11
314.5742153375044
 21
416.7739018315737
 31
0.0
  0
LINE
  5
18AD
330
1A
100
AcDbEntity
  8
SEIHIN
100
AcDbLine
 10
313.9471781997045
 20
416.7701355630737
 30
0.0
 11
314.2426309733044
 21
416.7729407066736
 31
0.0
  0
LINE
  5
18AE
330
1A
100
AcDbEntity
  8
SEIHIN
100
AcDbLine
 10
313.7212058155045
 20
416.7660861724737
 30
0.0
 11
313.9471781997045
 21
416.7701355630737
 31
0.0
  0
LINE
  5
18AF
330
1A
100
AcDbEntity
  8
SEIHIN
100
AcDbLine
 10
313.5902097075044
 20
416.7615860217737
 30
0.0
 11
313.7212058155045
 21
416.7660861724737
 31
0.0
  0
LINE
  5
18B0
330
1A
100
AcDbEntity
  8
SEIHIN
100
AcDbLine
 10
313.5689457504045
 20
416.7573876196736
 30
0.0
 11
313.5902097075044
 21
416.7615860217737
 31
0.0
  0
LINE
  5
18B1
330
1A
100
AcDbEntity
  8
SEIHIN
100
AcDbLine
 10
313.6597906797044
 20
416.7539976054737
 30
0.0
 11
313.5689457504045
 21
416.7573876196736
 31
0.0
  0
LINE
  5
18B2
330
1A
100
AcDbEntity
  8
SEIHIN
100
AcDbLine
 10
313.8524999468045
 20
416.7516283208737
 30
0.0
 11
313.6597906797044
 21
416.7539976054737
 31
0.0
  0
LINE
  5
18B3
330
1A
100
AcDbEntity
  8
SEIHIN
100
AcDbLine
 10
314.1253625600044
 20
416.7502313369737
 30
0.0
 11
313.8524999468045
 21
416.7516283208737
 31
0.0
  0
LINE
  5
18B4
330
1A
100
AcDbEntity
  8
SEIHIN
100
AcDbLine
 10
314.4476076214044
 20
416.7496464663736
 30
0.0
 11
314.1253625600044
 21
416.7502313369737
 31
0.0
  0
LINE
  5
18B5
330
1A
100
AcDbEntity
  8
SEIHIN
100
AcDbLine
 10
314.7829061000044
 20
416.7497507744737
 30
0.0
 11
314.4476076214044
 21
416.7496464663736
 31
0.0
  0
LINE
  5
18B6
330
1A
100
AcDbEntity
  8
SEIHIN
100
AcDbLine
 10
315.0934649257044
 20
416.7505740636736
 30
0.0
 11
314.7829061000044
 21
416.7497507744737
 31
0.0
  0
LINE
  5
18B7
330
1A
100
AcDbEntity
  8
SEIHIN
100
AcDbLine
 10
315.3442663698044
 20
416.7522578948737
 30
0.0
 11
315.0934649257044
 21
416.7505740636736
 31
0.0
  0
LINE
  5
18B8
330
1A
100
AcDbEntity
  8
SEIHIN
100
AcDbLine
 10
315.5070317535044
 20
416.7549475544737
 30
0.0
 11
315.3442663698044
 21
416.7522578948737
 31
0.0
  0
LINE
  5
18B9
330
1A
100
AcDbEntity
  8
SEIHIN
100
AcDbLine
 10
315.5634065716045
 20
416.7586281412737
 30
0.0
 11
315.5070317535044
 21
416.7549475544737
 31
0.0
  0
LINE
  5
18BA
330
1A
100
AcDbEntity
  8
SEIHIN
100
AcDbLine
 10
313.0886328964044
 20
417.0080102497737
 30
0.0
 11
313.5495630650045
 21
417.0124768727736
 31
0.0
  0
LINE
  5
18BB
330
1A
100
AcDbEntity
  8
SEIHIN
100
AcDbLine
 10
312.4846553056045
 20
416.9914625102736
 30
0.0
 11
313.0886328964044
 21
417.0080102497737
 31
0.0
  0
LINE
  5
18BC
330
1A
100
AcDbEntity
  8
SEIHIN
100
AcDbLine
 10
312.0122735946044
 20
416.9657617324737
 30
0.0
 11
312.4846553056045
 21
416.9914625102736
 31
0.0
  0
LINE
  5
18BD
330
1A
100
AcDbEntity
  8
SEIHIN
100
AcDbLine
 10
318.2186593859045
 20
421.8677483016736
 30
0.0
 11
312.0928739755045
 21
422.2237631195736
 31
0.0
  0
LINE
  5
18BE
330
1A
100
AcDbEntity
  8
SEIHIN
100
AcDbLine
 10
312.0122735946045
 20
418.9685374015737
 30
0.0
 11
312.0122735946045
 21
416.9657617324737
 31
0.0
  0
LINE
  5
18BF
330
1A
100
AcDbEntity
  8
SEIHIN
100
AcDbLine
 10
313.5495630650044
 20
417.0124768727736
 30
0.0
 11
313.5495630650044
 21
419.0158448630737
 31
0.0
  0
LINE
  5
18C0
330
1A
100
AcDbEntity
  8
SEIHIN
100
AcDbLine
 10
323.3206977694044
 20
416.7890823894737
 30
0.0
 11
323.3206009118044
 21
416.7890861147737
 31
0.0
  0
LINE
  5
18C1
330
1A
100
AcDbEntity
  8
SEIHIN
100
AcDbLine
 10
323.3206977694044
 20
416.7890823894737
 30
0.0
 11
320.5794466285045
 21
416.7481228226737
 31
0.0
  0
LINE
  5
18C2
330
1A
100
AcDbEntity
  8
SEIHIN
100
AcDbLine
 10
311.2886583058044
 20
443.4167086595736
 30
0.0
 11
310.5844182520045
 21
443.3574988955737
 31
0.0
  0
LINE
  5
18C3
330
1A
100
AcDbEntity
  8
SEIHIN
100
AcDbLine
 10
307.5634052603045
 20
438.8301163428736
 30
0.0
 11
323.5634041576045
 21
438.8301163428736
 31
0.0
  0
LINE
  5
18C4
330
1A
100
AcDbEntity
  8
SEIHIN
100
AcDbLine
 10
307.5634052603045
 20
440.4441356176737
 30
0.0
 11
323.5634041576045
 21
440.4441356176737
 31
0.0
  0
LINE
  5
18C5
330
1A
100
AcDbEntity
  8
SEIHIN
100
AcDbLine
 10
309.7790589182044
 20
443.2976111286737
 30
0.0
 11
308.9225997774044
 21
443.2725622767737
 31
0.0
  0
LINE
  5
18C6
330
1A
100
AcDbEntity
  8
SEIHIN
100
AcDbLine
 10
310.5844182520045
 20
443.3574988955737
 30
0.0
 11
309.7790589182044
 21
443.2976111286737
 31
0.0
  0
LINE
  5
18C7
330
1A
100
AcDbEntity
  8
SEIHIN
100
AcDbLine
 10
307.5634052603045
 20
438.8301163428736
 30
0.0
 11
307.5634052603045
 21
440.4441356176737
 31
0.0
  0
LINE
  5
18C8
330
1A
100
AcDbEntity
  8
SEIHIN
100
AcDbLine
 10
307.5634052603045
 20
443.2725622767737
 30
0.0
 11
307.5634052603045
 21
440.4441356176737
 31
0.0
  0
LINE
  5
18C9
330
1A
100
AcDbEntity
  8
SEIHIN
100
AcDbLine
 10
308.9225997774045
 20
443.2725622767737
 30
0.0
 11
307.5634052603045
 21
443.2725622767737
 31
0.0
  0
LINE
  5
18CA
330
1A
100
AcDbEntity
  8
SEIHIN
100
AcDbLine
 10
312.7341268210045
 20
446.1124777311736
 30
0.0
 11
313.0474013834045
 21
447.2055524104736
 31
0.0
  0
LINE
  5
18CB
330
1A
100
AcDbEntity
  8
SEIHIN
100
AcDbLine
 10
323.5634041576045
 20
443.9441352599737
 30
0.0
 11
312.4933128802045
 21
443.9441352599737
 31
0.0
  0
LINE
  5
18CC
330
1A
100
AcDbEntity
  8
SEIHIN
100
AcDbLine
 10
312.4933128802045
 20
444.2085042113737
 30
0.0
 11
323.5634041576045
 21
444.2085042113737
 31
0.0
  0
LINE
  5
18CD
330
1A
100
AcDbEntity
  8
SEIHIN
100
AcDbLine
 10
323.5634041576045
 20
443.4441342467736
 30
0.0
 11
311.9225984065045
 21
443.4441342467736
 31
0.0
  0
LINE
  5
18CE
330
1A
100
AcDbEntity
  8
SEIHIN
100
AcDbLine
 10
312.1563640980044
 20
443.4802174085736
 30
0.0
 11
311.9225984065044
 21
443.4441342467736
 31
0.0
  0
LINE
  5
18CF
330
1A
100
AcDbEntity
  8
SEIHIN
100
AcDbLine
 10
312.3323468117044
 20
443.5803383105737
 30
0.0
 11
312.1563640980044
 21
443.4802174085736
 31
0.0
  0
LINE
  5
18D0
330
1A
100
AcDbEntity
  8
SEIHIN
100
AcDbLine
 10
312.4296811967045
 20
443.6998158210737
 30
0.0
 11
312.3323468117044
 21
443.5803383105737
 31
0.0
  0
LINE
  5
18D1
330
1A
100
AcDbEntity
  8
SEIHIN
100
AcDbLine
 10
312.4763404576044
 20
443.8140034192736
 30
0.0
 11
312.4296811967045
 21
443.6998158210737
 31
0.0
  0
LINE
  5
18D2
330
1A
100
AcDbEntity
  8
SEIHIN
100
AcDbLine
 10
312.4933128802044
 20
443.9441352599737
 30
0.0
 11
312.4763404576044
 21
443.8140034192736
 31
0.0
  0
LINE
  5
18D3
330
1A
100
AcDbEntity
  8
SEIHIN
100
AcDbLine
 10
311.9225984065044
 20
443.4441342467736
 30
0.0
 11
311.2886583058044
 21
443.4167086595736
 31
0.0
  0
LINE
  5
18D4
330
1A
100
AcDbEntity
  8
SEIHIN
100
AcDbLine
 10
312.5559201090044
 20
445.1604872459736
 30
0.0
 11
312.7341268210045
 21
446.1124777311736
 31
0.0
  0
LINE
  5
18D5
330
1A
100
AcDbEntity
  8
SEIHIN
100
AcDbLine
 10
312.4933128802044
 20
444.2085042113737
 30
0.0
 11
312.5559201090044
 21
445.1604872459736
 31
0.0
  0
LINE
  5
18D6
330
1A
100
AcDbEntity
  8
SEIHIN
100
AcDbLine
 10
312.4933128802045
 20
443.9441352599737
 30
0.0
 11
312.4933128802045
 21
444.2085042113737
 31
0.0
  0
LINE
  5
18D7
330
1A
100
AcDbEntity
  8
SEIHIN
100
AcDbLine
 10
324.5634061842045
 20
444.5459484571736
 30
0.0
 11
323.5634041576045
 21
444.5459484571736
 31
0.0
  0
LINE
  5
18D8
330
1A
100
AcDbEntity
  8
SEIHIN
100
AcDbLine
 10
316.6037311403044
 20
451.9648044818737
 30
0.0
 11
316.6969528048044
 21
451.9991218560737
 31
0.0
  0
LINE
  5
18D9
330
1A
100
AcDbEntity
  8
SEIHIN
100
AcDbLine
 10
316.5199121086044
 20
451.9298091047737
 30
0.0
 11
316.6037311403044
 21
451.9648044818737
 31
0.0
  0
LINE
  5
18DA
330
1A
100
AcDbEntity
  8
SEIHIN
100
AcDbLine
 10
316.4456670730044
 20
451.8942251318737
 30
0.0
 11
316.5199121086044
 21
451.9298091047737
 31
0.0
  0
LINE
  5
18DB
330
1A
100
AcDbEntity
  8
SEIHIN
100
AcDbLine
 10
317.2150736301044
 20
453.6134093517736
 30
0.0
 11
317.2042106836044
 21
453.4441396111737
 31
0.0
  0
LINE
  5
18DC
330
1A
100
AcDbEntity
  8
SEIHIN
100
AcDbLine
 10
317.2974248974045
 20
453.9198815339737
 30
0.0
 11
317.2150736301044
 21
453.6134093517736
 31
0.0
  0
LINE
  5
18DD
330
1A
100
AcDbEntity
  8
SEIHIN
100
AcDbLine
 10
317.4469990282044
 20
454.1572942846736
 30
0.0
 11
317.2974248974045
 21
453.9198815339737
 31
0.0
  0
LINE
  5
18DE
330
1A
100
AcDbEntity
  8
SEIHIN
100
AcDbLine
 10
317.6881854980044
 20
454.3396323436737
 30
0.0
 11
317.4469990282044
 21
454.1572942846736
 31
0.0
  0
LINE
  5
18DF
330
1A
100
AcDbEntity
  8
SEIHIN
100
AcDbLine
 10
318.2042127101044
 20
454.4441341870736
 30
0.0
 11
317.6881854980044
 21
454.3396323436737
 31
0.0
  0
LINE
  5
18E0
330
1A
100
AcDbEntity
  8
SEIHIN
100
AcDbLine
 10
316.7957288770044
 20
452.0522146934736
 30
0.0
 11
316.6969528048044
 21
451.9991218560737
 31
0.0
  0
LINE
  5
18E1
330
1A
100
AcDbEntity
  8
SEIHIN
100
AcDbLine
 10
316.9638586788045
 20
452.2250830644737
 30
0.0
 11
316.7957288770044
 21
452.0522146934736
 31
0.0
  0
LINE
  5
18E2
330
1A
100
AcDbEntity
  8
SEIHIN
100
AcDbLine
 10
317.0899411289045
 20
452.4448975437737
 30
0.0
 11
316.9638586788045
 21
452.2250830644737
 31
0.0
  0
LINE
  5
18E3
330
1A
100
AcDbEntity
  8
SEIHIN
100
AcDbLine
 10
317.1729331462045
 20
452.6982098334736
 30
0.0
 11
317.0899411289045
 21
452.4448975437737
 31
0.0
  0
LINE
  5
18E4
330
1A
100
AcDbEntity
  8
SEIHIN
100
AcDbLine
 10
317.2042106836044
 20
452.9855191224737
 30
0.0
 11
317.1729331462045
 21
452.6982098334736
 31
0.0
  0
LINE
  5
18E5
330
1A
100
AcDbEntity
  8
SEIHIN
100
AcDbLine
 10
313.3999107031045
 20
448.2354685181737
 30
0.0
 11
313.6811440437044
 21
449.0714907163737
 31
0.0
  0
LINE
  5
18E6
330
1A
100
AcDbEntity
  8
SEIHIN
100
AcDbLine
 10
313.0474013834045
 20
447.2055524104736
 30
0.0
 11
313.3999107031045
 21
448.2354685181737
 31
0.0
  0
LINE
  5
18E7
330
1A
100
AcDbEntity
  8
SEIHIN
100
AcDbLine
 10
314.4726229458044
 20
450.7151334994737
 30
0.0
 11
314.9341193585044
 21
451.1132552736736
 31
0.0
  0
LINE
  5
18E8
330
1A
100
AcDbEntity
  8
SEIHIN
100
AcDbLine
 10
314.0486029534044
 20
450.0241741055737
 30
0.0
 11
314.4726229458044
 21
450.7151334994737
 31
0.0
  0
LINE
  5
18E9
330
1A
100
AcDbEntity
  8
SEIHIN
100
AcDbLine
 10
313.6811440437044
 20
449.0714907163737
 30
0.0
 11
314.0486029534044
 21
450.0241741055737
 31
0.0
  0
LINE
  5
18EA
330
1A
100
AcDbEntity
  8
SEIHIN
100
AcDbLine
 10
317.2042106836043
 20
452.9855191224737
 30
0.0
 11
317.2042106836043
 21
453.4441396111737
 31
0.0
  0
LINE
  5
18EB
330
1A
100
AcDbEntity
  8
SEIHIN
100
AcDbLine
 10
314.9341193585044
 20
451.1132552736736
 30
0.0
 11
316.4456670730044
 21
451.8942251318737
 31
0.0
  0
LINE
  5
18EC
330
1A
100
AcDbEntity
  8
SEIHIN
100
AcDbLine
 10
324.2161085455044
 20
451.1434524768737
 30
0.0
 11
324.5634061842044
 21
451.1383935326737
 31
0.0
  0
LINE
  5
18ED
330
1A
100
AcDbEntity
  8
SEIHIN
100
AcDbLine
 10
323.8793646543044
 20
451.1584951990736
 30
0.0
 11
324.2161085455044
 21
451.1434524768737
 31
0.0
  0
LINE
  5
18EE
330
1A
100
AcDbEntity
  8
SEIHIN
100
AcDbLine
 10
323.5634041576045
 20
451.1830523127736
 30
0.0
 11
323.8793646543044
 21
451.1584951990736
 31
0.0
  0
LINE
  5
18EF
330
1A
100
AcDbEntity
  8
SEIHIN
100
AcDbLine
 10
323.2778308539045
 20
451.2163787597737
 30
0.0
 11
323.5634041576045
 21
451.1830523127736
 31
0.0
  0
LINE
  5
18F0
330
1A
100
AcDbEntity
  8
SEIHIN
100
AcDbLine
 10
323.0313172190044
 20
451.2574612611737
 30
0.0
 11
323.2778308539045
 21
451.2163787597737
 31
0.0
  0
LINE
  5
18F1
330
1A
100
AcDbEntity
  8
SEIHIN
100
AcDbLine
 10
322.8313548116045
 20
451.3050555700737
 30
0.0
 11
323.0313172190044
 21
451.2574612611737
 31
0.0
  0
LINE
  5
18F2
330
1A
100
AcDbEntity
  8
SEIHIN
100
AcDbLine
 10
322.6840195803045
 20
451.3577162736737
 30
0.0
 11
322.8313548116045
 21
451.3050555700737
 31
0.0
  0
LINE
  5
18F3
330
1A
100
AcDbEntity
  8
SEIHIN
100
AcDbLine
 10
322.5937893240044
 20
451.4138414972737
 30
0.0
 11
322.6840195803045
 21
451.3577162736737
 31
0.0
  0
LINE
  5
18F4
330
1A
100
AcDbEntity
  8
SEIHIN
100
AcDbLine
 10
322.5634058563044
 20
451.4717250579737
 30
0.0
 11
322.5937893240044
 21
451.4138414972737
 31
0.0
  0
LINE
  5
18F5
330
1A
100
AcDbEntity
  8
SEIHIN
100
AcDbLine
 10
322.5937893240044
 20
451.5296086186737
 30
0.0
 11
322.5634058563044
 21
451.4717250579737
 31
0.0
  0
LINE
  5
18F6
330
1A
100
AcDbEntity
  8
SEIHIN
100
AcDbLine
 10
322.6840195803045
 20
451.5857338422737
 30
0.0
 11
322.5937893240044
 21
451.5296086186737
 31
0.0
  0
LINE
  5
18F7
330
1A
100
AcDbEntity
  8
SEIHIN
100
AcDbLine
 10
322.8313548116045
 20
451.6383870953737
 30
0.0
 11
322.6840195803045
 21
451.5857338422737
 31
0.0
  0
LINE
  5
18F8
330
1A
100
AcDbEntity
  8
SEIHIN
100
AcDbLine
 10
323.0313172190044
 20
451.6859888547737
 30
0.0
 11
322.8313548116045
 21
451.6383870953737
 31
0.0
  0
LINE
  5
18F9
330
1A
100
AcDbEntity
  8
SEIHIN
100
AcDbLine
 10
323.2778308539045
 20
451.7270713561736
 30
0.0
 11
323.0313172190044
 21
451.6859888547737
 31
0.0
  0
LINE
  5
18FA
330
1A
100
AcDbEntity
  8
SEIHIN
100
AcDbLine
 10
323.5634041576045
 20
451.7603978031737
 30
0.0
 11
323.2778308539045
 21
451.7270713561736
 31
0.0
  0
LINE
  5
18FB
330
1A
100
AcDbEntity
  8
SEIHIN
100
AcDbLine
 10
323.8793646543044
 20
451.7849549168736
 30
0.0
 11
323.5634041576045
 21
451.7603978031737
 31
0.0
  0
LINE
  5
18FC
330
1A
100
AcDbEntity
  8
SEIHIN
100
AcDbLine
 10
324.2161085455044
 20
451.7999901884737
 30
0.0
 11
323.8793646543044
 21
451.7849549168736
 31
0.0
  0
LINE
  5
18FD
330
1A
100
AcDbEntity
  8
SEIHIN
100
AcDbLine
 10
324.5634061842044
 20
451.8050565832737
 30
0.0
 11
324.2161085455044
 21
451.7999901884737
 31
0.0
  0
LINE
  5
18FE
330
1A
100
AcDbEntity
  8
SEIHIN
100
AcDbLine
 10
340.9107027201044
 20
451.7999901884737
 30
0.0
 11
340.5634050815044
 21
451.8050565832737
 31
0.0
  0
LINE
  5
18FF
330
1A
100
AcDbEntity
  8
SEIHIN
100
AcDbLine
 10
341.2474466114045
 20
451.7849549168736
 30
0.0
 11
340.9107027201044
 21
451.7999901884737
 31
0.0
  0
LINE
  5
1900
330
1A
100
AcDbEntity
  8
SEIHIN
100
AcDbLine
 10
341.5634052454044
 20
451.7603978031737
 30
0.0
 11
341.2474466114045
 21
451.7849549168736
 31
0.0
  0
LINE
  5
1901
330
1A
100
AcDbEntity
  8
SEIHIN
100
AcDbLine
 10
341.8489804117045
 20
451.7270713561736
 30
0.0
 11
341.5634052454044
 21
451.7603978031737
 31
0.0
  0
LINE
  5
1902
330
1A
100
AcDbEntity
  8
SEIHIN
100
AcDbLine
 10
342.0954940467045
 20
451.6859888547737
 30
0.0
 11
341.8489804117045
 21
451.7270713561736
 31
0.0
  0
LINE
  5
1903
330
1A
100
AcDbEntity
  8
SEIHIN
100
AcDbLine
 10
342.2954564540044
 20
451.6383870953737
 30
0.0
 11
342.0954940467045
 21
451.6859888547737
 31
0.0
  0
LINE
  5
1904
330
1A
100
AcDbEntity
  8
SEIHIN
100
AcDbLine
 10
342.4427916853045
 20
451.5857338422737
 30
0.0
 11
342.2954564540044
 21
451.6383870953737
 31
0.0
  0
LINE
  5
1905
330
1A
100
AcDbEntity
  8
SEIHIN
100
AcDbLine
 10
342.5330219416044
 20
451.5296086186737
 30
0.0
 11
342.4427916853045
 21
451.5857338422737
 31
0.0
  0
LINE
  5
1906
330
1A
100
AcDbEntity
  8
SEIHIN
100
AcDbLine
 10
342.5634054093044
 20
451.4717250579737
 30
0.0
 11
342.5330219416044
 21
451.5296086186737
 31
0.0
  0
LINE
  5
1907
330
1A
100
AcDbEntity
  8
SEIHIN
100
AcDbLine
 10
342.5330219416044
 20
451.4138414972737
 30
0.0
 11
342.5634054093044
 21
451.4717250579737
 31
0.0
  0
LINE
  5
1908
330
1A
100
AcDbEntity
  8
SEIHIN
100
AcDbLine
 10
342.4427916853045
 20
451.3577162736737
 30
0.0
 11
342.5330219416044
 21
451.4138414972737
 31
0.0
  0
LINE
  5
1909
330
1A
100
AcDbEntity
  8
SEIHIN
100
AcDbLine
 10
342.2954564540044
 20
451.3050555700737
 30
0.0
 11
342.4427916853045
 21
451.3577162736737
 31
0.0
  0
LINE
  5
190A
330
1A
100
AcDbEntity
  8
SEIHIN
100
AcDbLine
 10
342.0954940467045
 20
451.2574612611737
 30
0.0
 11
342.2954564540044
 21
451.3050555700737
 31
0.0
  0
LINE
  5
190B
330
1A
100
AcDbEntity
  8
SEIHIN
100
AcDbLine
 10
341.8489804117045
 20
451.2163787597737
 30
0.0
 11
342.0954940467045
 21
451.2574612611737
 31
0.0
  0
LINE
  5
190C
330
1A
100
AcDbEntity
  8
SEIHIN
100
AcDbLine
 10
341.5634052454044
 20
451.1830523127736
 30
0.0
 11
341.8489804117045
 21
451.2163787597737
 31
0.0
  0
LINE
  5
190D
330
1A
100
AcDbEntity
  8
SEIHIN
100
AcDbLine
 10
341.2474466114045
 20
451.1584951990736
 30
0.0
 11
341.5634052454044
 21
451.1830523127736
 31
0.0
  0
LINE
  5
190E
330
1A
100
AcDbEntity
  8
SEIHIN
100
AcDbLine
 10
340.9107027201044
 20
451.1434524768737
 30
0.0
 11
341.2474466114045
 21
451.1584951990736
 31
0.0
  0
LINE
  5
190F
330
1A
100
AcDbEntity
  8
SEIHIN
100
AcDbLine
 10
340.5634050815044
 20
451.1383935326737
 30
0.0
 11
340.9107027201044
 21
451.1434524768737
 31
0.0
  0
LINE
  5
1910
330
1A
100
AcDbEntity
  8
SEIHIN
100
AcDbLine
 10
351.8566226213044
 20
451.7788305395736
 30
0.0
 11
352.7210557459044
 21
451.7018213385736
 31
0.0
  0
LINE
  5
1911
330
1A
100
AcDbEntity
  8
SEIHIN
100
AcDbLine
 10
349.1799344866045
 20
454.2314722651737
 30
0.0
 11
349.0278718619044
 21
454.3297305220737
 31
0.0
  0
LINE
  5
1912
330
1A
100
AcDbEntity
  8
SEIHIN
100
AcDbLine
 10
349.3117874114045
 20
454.1074051970736
 30
0.0
 11
349.1799344866045
 21
454.2314722651737
 31
0.0
  0
LINE
  5
1913
330
1A
100
AcDbEntity
  8
SEIHIN
100
AcDbLine
 10
349.4191111623044
 20
453.9615973347737
 30
0.0
 11
349.3117874114045
 21
454.1074051970736
 31
0.0
  0
LINE
  5
1914
330
1A
100
AcDbEntity
  8
SEIHIN
100
AcDbLine
 10
349.4983872025044
 20
453.7988319510737
 30
0.0
 11
349.4191111623044
 21
453.9615973347737
 31
0.0
  0
LINE
  5
1915
330
1A
100
AcDbEntity
  8
SEIHIN
100
AcDbLine
 10
349.5470171420045
 20
453.6244362109736
 30
0.0
 11
349.4983872025044
 21
453.7988319510737
 31
0.0
  0
LINE
  5
1916
330
1A
100
AcDbEntity
  8
SEIHIN
100
AcDbLine
 10
349.5634065567045
 20
453.4441396111737
 30
0.0
 11
349.5470171420045
 21
453.6244362109736
 31
0.0
  0
LINE
  5
1917
330
1A
100
AcDbEntity
  8
SEIHIN
100
AcDbLine
 10
349.5788031815044
 20
452.8107136005737
 30
0.0
 11
349.5634065567045
 21
452.9855191224737
 31
0.0
  0
LINE
  5
1918
330
1A
100
AcDbEntity
  8
SEIHIN
100
AcDbLine
 10
349.6245180814045
 20
452.6412948483737
 30
0.0
 11
349.5788031815044
 21
452.8107136005737
 31
0.0
  0
LINE
  5
1919
330
1A
100
AcDbEntity
  8
SEIHIN
100
AcDbLine
 10
349.6991449593044
 20
452.4824708217736
 30
0.0
 11
349.6245180814045
 21
452.6412948483737
 31
0.0
  0
LINE
  5
191A
330
1A
100
AcDbEntity
  8
SEIHIN
100
AcDbLine
 10
349.8003853111044
 20
452.3391440027737
 30
0.0
 11
349.6991449593044
 21
452.4824708217736
 31
0.0
  0
LINE
  5
191B
330
1A
100
AcDbEntity
  8
SEIHIN
100
AcDbLine
 10
349.9251229314045
 20
452.2157176846737
 30
0.0
 11
349.8003853111044
 21
452.3391440027737
 31
0.0
  0
LINE
  5
191C
330
1A
100
AcDbEntity
  8
SEIHIN
100
AcDbLine
 10
350.0695133208045
 20
452.1159916633737
 30
0.0
 11
349.9251229314045
 21
452.2157176846737
 31
0.0
  0
LINE
  5
191D
330
1A
100
AcDbEntity
  8
SEIHIN
100
AcDbLine
 10
350.2291122077044
 20
452.0430504792737
 30
0.0
 11
350.0695133208045
 21
452.1159916633737
 31
0.0
  0
LINE
  5
191E
330
1A
100
AcDbEntity
  8
SEIHIN
100
AcDbLine
 10
350.3990059344044
 20
451.9991218560737
 30
0.0
 11
350.2291122077044
 21
452.0430504792737
 31
0.0
  0
LINE
  5
191F
330
1A
100
AcDbEntity
  8
SEIHIN
100
AcDbLine
 10
351.0989395528045
 20
451.8824681156737
 30
0.0
 11
351.8566226213044
 21
451.7788305395736
 31
0.0
  0
LINE
  5
1920
330
1A
100
AcDbEntity
  8
SEIHIN
100
AcDbLine
 10
348.6611766367045
 20
454.4353350514737
 30
0.0
 11
348.4923371671045
 21
454.4441341870736
 31
0.0
  0
LINE
  5
1921
330
1A
100
AcDbEntity
  8
SEIHIN
100
AcDbLine
 10
349.0278718619044
 20
454.3297305220737
 30
0.0
 11
348.6611766367045
 21
454.4353350514737
 31
0.0
  0
LINE
  5
1922
330
1A
100
AcDbEntity
  8
SEIHIN
100
AcDbLine
 10
350.3990059344044
 20
451.9991218560737
 30
0.0
 11
351.0989395528045
 21
451.8824681156737
 31
0.0
  0
LINE
  5
1923
330
1A
100
AcDbEntity
  8
SEIHIN
100
AcDbLine
 10
349.5634065567044
 20
453.4441396111737
 30
0.0
 11
349.5634065567044
 21
452.9855191224737
 31
0.0
  0
LINE
  5
1924
330
1A
100
AcDbEntity
  8
SEIHIN
100
AcDbLine
 10
353.6590214445045
 20
451.6544058436737
 30
0.0
 11
354.6344738080044
 21
451.6383870953737
 31
0.0
  0
LINE
  5
1925
330
1A
100
AcDbEntity
  8
SEIHIN
100
AcDbLine
 10
352.7210557459044
 20
451.7018213385736
 30
0.0
 11
353.6590214445045
 21
451.6544058436737
 31
0.0
  0
LINE
  5
1926
330
1A
100
AcDbEntity
  8
SEIHIN
100
AcDbLine
 10
424.1152403502044
 20
412.0842679852736
 30
0.0
 11
424.5480781047044
 21
411.4368795865737
 31
0.0
  0
LINE
  5
1927
330
1A
100
AcDbEntity
  8
SEIHIN
100
AcDbLine
 10
423.8186252861044
 20
412.0452381187737
 30
0.0
 11
423.7785150854045
 21
412.0864957088737
 31
0.0
  0
LINE
  5
1928
330
1A
100
AcDbEntity
  8
SEIHIN
100
AcDbLine
 10
424.3617428093044
 20
403.6756097787737
 30
0.0
 11
424.3536589293044
 21
380.9151309990737
 31
0.0
  0
LINE
  5
1929
330
1A
100
AcDbEntity
  8
SEIHIN
100
AcDbLine
 10
424.3563783912044
 20
387.0472959691736
 30
0.0
 11
424.3592654912044
 21
395.0496814662737
 31
0.0
  0
LINE
  5
192A
330
1A
100
AcDbEntity
  8
SEIHIN
100
AcDbLine
 10
424.6908982842045
 20
391.4388376736737
 30
0.0
 11
424.6814882009044
 21
381.6627408826737
 31
0.0
  0
LINE
  5
192B
330
1A
100
AcDbEntity
  8
SEIHIN
100
AcDbLine
 10
424.6814882009044
 20
381.6627408826737
 30
0.0
 11
424.6689041702044
 21
371.7808160448737
 31
0.0
  0
LINE
  5
192C
330
1A
100
AcDbEntity
  8
SEIHIN
100
AcDbLine
 10
424.3536589293044
 20
380.9151309990737
 30
0.0
 11
424.3523103742045
 21
378.2079457753737
 31
0.0
  0
LINE
  5
192D
330
1A
100
AcDbEntity
  8
SEIHIN
100
AcDbLine
 10
424.3527425079044
 20
379.0451656544737
 30
0.0
 11
424.3563783912044
 21
387.0472959691736
 31
0.0
  0
LINE
  5
192E
330
1A
100
AcDbEntity
  8
SEIHIN
100
AcDbLine
 10
424.3523103742045
 20
378.2079457753737
 30
0.0
 11
424.3527425079044
 21
379.0451656544737
 31
0.0
  0
LINE
  5
192F
330
1A
100
AcDbEntity
  8
SEIHIN
100
AcDbLine
 10
424.3592654912044
 20
395.0496814662737
 30
0.0
 11
424.3616012482044
 21
403.0522047990737
 31
0.0
  0
LINE
  5
1930
330
1A
100
AcDbEntity
  8
SEIHIN
100
AcDbLine
 10
424.6971306948045
 20
401.1088884884736
 30
0.0
 11
424.6908982842045
 21
391.4388376736737
 31
0.0
  0
LINE
  5
1931
330
1A
100
AcDbEntity
  8
SEIHIN
100
AcDbLine
 10
424.6971679477044
 20
410.7828005665737
 30
0.0
 11
424.7001966087044
 21
410.6726884359736
 31
0.0
  0
LINE
  5
1932
330
1A
100
AcDbEntity
  8
SEIHIN
100
AcDbLine
 10
424.5480781047044
 20
411.4368795865737
 30
0.0
 11
424.6971679477044
 21
410.7828005665737
 31
0.0
  0
LINE
  5
1933
330
1A
100
AcDbEntity
  8
SEIHIN
100
AcDbLine
 10
423.9263606815044
 20
411.9213088864736
 30
0.0
 11
423.8186252861044
 21
412.0452381187737
 31
0.0
  0
LINE
  5
1934
330
1A
100
AcDbEntity
  8
SEIHIN
100
AcDbLine
 10
424.2517089097044
 20
411.3341249042737
 30
0.0
 11
423.9263606815044
 21
411.9213088864736
 31
0.0
  0
LINE
  5
1935
330
1A
100
AcDbEntity
  8
SEIHIN
100
AcDbLine
 10
424.3643877654044
 20
410.6723419839736
 30
0.0
 11
424.2517089097044
 21
411.3341249042737
 31
0.0
  0
LINE
  5
1936
330
1A
100
AcDbEntity
  8
SEIHIN
100
AcDbLine
 10
424.3635682015044
 20
410.9307541960736
 30
0.0
 11
424.3617428093044
 21
403.6756097787737
 31
0.0
  0
LINE
  5
1937
330
1A
100
AcDbEntity
  8
SEIHIN
100
AcDbLine
 10
424.3616012482044
 20
403.0522047990737
 30
0.0
 11
424.3635085969044
 21
410.6775052362737
 31
0.0
  0
LINE
  5
1938
330
1A
100
AcDbEntity
  8
SEIHIN
100
AcDbLine
 10
424.7001854329044
 20
410.6726884359736
 30
0.0
 11
424.6971306948045
 21
401.1088884884736
 31
0.0
  0
LINE
  5
1939
330
1A
100
AcDbEntity
  8
SEIHIN
100
AcDbLine
 10
424.7001966087044
 20
410.6726884359736
 30
0.0
 11
424.3643877654044
 21
410.6723419839736
 31
0.0
  0
LINE
  5
193A
330
1A
100
AcDbEntity
  8
SEIHIN
100
AcDbLine
 10
424.7003009169043
 20
411.4992670232737
 30
0.0
 11
424.7001854329044
 21
410.6726884359736
 31
0.0
  0
LINE
  5
193B
330
1A
100
AcDbEntity
  8
SEIHIN
100
AcDbLine
 10
418.1799849121045
 20
417.1929001325736
 30
0.0
 11
383.3012913911044
 21
417.1671546512737
 31
0.0
  0
LINE
  5
193C
330
1A
100
AcDbEntity
  8
SEIHIN
100
AcDbLine
 10
394.4640939681045
 20
416.8506092840737
 30
0.0
 11
370.7490733451044
 21
416.8354957812737
 31
0.0
  0
LINE
  5
193D
330
1A
100
AcDbEntity
  8
SEIHIN
100
AcDbLine
 10
386.5524621306045
 20
416.8454460316737
 30
0.0
 11
394.5545924453045
 21
416.8490819150737
 31
0.0
  0
LINE
  5
193E
330
1A
100
AcDbEntity
  8
SEIHIN
100
AcDbLine
 10
411.1829062550044
 20
416.8544463330737
 30
0.0
 11
388.4224274753045
 21
416.8463624530737
 31
0.0
  0
LINE
  5
193F
330
1A
100
AcDbEntity
  8
SEIHIN
100
AcDbLine
 10
378.9514328910045
 20
445.4441382998737
 30
0.0
 11
425.9514322130044
 21
445.4441382998737
 31
0.0
  0
LINE
  5
1940
330
1A
100
AcDbEntity
  8
SEIHIN
100
AcDbLine
 10
378.9514328910045
 20
442.4441396707737
 30
0.0
 11
425.9514322130044
 21
442.4441396707737
 31
0.0
  0
LINE
  5
1941
330
1A
100
AcDbEntity
  8
SEIHIN
100
AcDbLine
 10
385.7152422516044
 20
416.8450138980737
 30
0.0
 11
386.5524621306045
 21
416.8454460316737
 31
0.0
  0
LINE
  5
1942
330
1A
100
AcDbEntity
  8
SEIHIN
100
AcDbLine
 10
388.4224274753045
 20
416.8463624530737
 30
0.0
 11
385.7152422516044
 21
416.8450138980737
 31
0.0
  0
LINE
  5
1943
330
1A
100
AcDbEntity
  8
SEIHIN
100
AcDbLine
 10
378.9514328910045
 20
442.4441396707737
 30
0.0
 11
378.9514328910045
 21
436.2202599161737
 31
0.0
  0
LINE
  5
1944
330
1A
100
AcDbEntity
  8
SEIHIN
100
AcDbLine
 10
378.9514328910045
 20
445.4441382998737
 30
0.0
 11
378.9514328910045
 21
442.4441396707737
 31
0.0
  0
LINE
  5
1945
330
1A
100
AcDbEntity
  8
SEIHIN
100
AcDbLine
 10
418.1796384601044
 20
416.8570912891736
 30
0.0
 11
394.4640939681045
 21
416.8506092840737
 31
0.0
  0
LINE
  5
1946
330
1A
100
AcDbEntity
  8
SEIHIN
100
AcDbLine
 10
402.5569779424044
 20
416.8519690149736
 30
0.0
 11
410.5595012753045
 21
416.8543047720737
 31
0.0
  0
LINE
  5
1947
330
1A
100
AcDbEntity
  8
SEIHIN
100
AcDbLine
 10
394.5545924453045
 20
416.8490819150737
 30
0.0
 11
402.5569779424044
 21
416.8519690149736
 31
0.0
  0
LINE
  5
1948
330
1A
100
AcDbEntity
  8
SEIHIN
100
AcDbLine
 10
410.5595012753045
 20
416.8543047720737
 30
0.0
 11
418.1848017125044
 21
416.8562121206737
 31
0.0
  0
LINE
  5
1949
330
1A
100
AcDbEntity
  8
SEIHIN
100
AcDbLine
 10
418.4380506723044
 20
416.8562717252736
 30
0.0
 11
411.1829062550044
 21
416.8544463330737
 31
0.0
  0
LINE
  5
194A
330
1A
100
AcDbEntity
  8
SEIHIN
100
AcDbLine
 10
419.4286053626044
 20
416.4190642052736
 30
0.0
 11
419.5525345950044
 21
416.3113288098737
 31
0.0
  0
LINE
  5
194B
330
1A
100
AcDbEntity
  8
SEIHIN
100
AcDbLine
 10
418.8414213805044
 20
416.7444124335736
 30
0.0
 11
419.4286053626044
 21
416.4190642052736
 31
0.0
  0
LINE
  5
194C
330
1A
100
AcDbEntity
  8
SEIHIN
100
AcDbLine
 10
418.1796384601044
 20
416.8570912891736
 30
0.0
 11
418.8414213805044
 21
416.7444124335736
 31
0.0
  0
LINE
  5
194D
330
1A
100
AcDbEntity
  8
SEIHIN
100
AcDbLine
 10
418.2900970428045
 20
417.1898714715737
 30
0.0
 11
418.1799849121045
 21
417.1929001325736
 31
0.0
  0
LINE
  5
194E
330
1A
100
AcDbEntity
  8
SEIHIN
100
AcDbLine
 10
418.9441760628044
 20
417.0407816284736
 30
0.0
 11
418.2900970428045
 21
417.1898714715737
 31
0.0
  0
LINE
  5
194F
330
1A
100
AcDbEntity
  8
SEIHIN
100
AcDbLine
 10
419.5915644614045
 20
416.6079438739737
 30
0.0
 11
418.9441760628044
 21
417.0407816284736
 31
0.0
  0
LINE
  5
1950
330
1A
100
AcDbEntity
  8
SEIHIN
100
AcDbLine
 10
423.7785150854045
 20
412.0864957088737
 30
0.0
 11
424.1152403502044
 21
412.0842679852736
 31
0.0
  0
LINE
  5
1951
330
1A
100
AcDbEntity
  8
SEIHIN
100
AcDbLine
 10
419.0065634994044
 20
417.1930044406736
 30
0.0
 11
418.1799849121044
 21
417.1928889566736
 31
0.0
  0
LINE
  5
1952
330
1A
100
AcDbEntity
  8
SEIHIN
100
AcDbLine
 10
419.5937921850045
 20
416.2712186092737
 30
0.0
 11
419.5915644614045
 21
416.6079438739737
 31
0.0
  0
LINE
  5
1953
330
1A
100
AcDbEntity
  8
SEIHIN
100
AcDbLine
 10
419.5525345950045
 20
416.3113288098737
 30
0.0
 11
419.5937921850045
 21
416.2712186092737
 31
0.0
  0
LINE
  5
1954
330
1A
100
AcDbEntity
  8
SEIHIN
100
AcDbLine
 10
418.1799849121044
 20
417.1929001325736
 30
0.0
 11
418.1796384601043
 21
416.8570912891736
 31
0.0
  0
LINE
  5
1955
330
1A
100
AcDbEntity
  8
SEIHIN
100
AcDbLine
 10
423.7785150854045
 20
412.0864957088737
 30
0.0
 11
419.5937921850045
 21
416.2712186092737
 31
0.0
  0
LINE
  5
1956
330
1A
100
AcDbEntity
  8
SEIHIN
100
AcDbLine
 10
424.1152403502044
 20
412.0842679852736
 30
0.0
 11
419.5915644614045
 21
416.6079438739737
 31
0.0
  0
LINE
  5
1957
330
1A
100
AcDbEntity
  8
SEIHIN
100
AcDbLine
 10
422.1473632006045
 20
431.7894145363736
 30
0.0
 11
422.5634073465044
 21
431.6221713536737
 31
0.0
  0
LINE
  5
1958
330
1A
100
AcDbEntity
  8
SEIHIN
100
AcDbLine
 10
421.3198495655045
 20
432.0023148769737
 30
0.0
 11
422.1473632006045
 21
431.7894145363736
 31
0.0
  0
LINE
  5
1959
330
1A
100
AcDbEntity
  8
SEIHIN
100
AcDbLine
 10
420.4923396556044
 20
432.0712700003737
 30
0.0
 11
421.3198495655045
 21
432.0023148769737
 31
0.0
  0
ARC
  5
195A
330
1A
100
AcDbEntity
  8
SEIHIN
100
AcDbCircle
 10
420.4923378403046
 20
427.0712692416736
 30
0.0
 40
5.0
100
AcDbArc
 50
44.99999999999942
 51
65.53019947950446
  0
LINE
  5
195B
330
1A
100
AcDbEntity
  8
SEIHIN
100
AcDbLine
 10
425.9514322130044
 20
442.4441396707737
 30
0.0
 11
425.9514322130044
 21
441.4441376441736
 31
0.0
  0
LINE
  5
195C
330
1A
100
AcDbEntity
  8
SEIHIN
100
AcDbLine
 10
425.9514322130044
 20
445.4441382998737
 30
0.0
 11
425.9514322130044
 21
442.4441396707737
 31
0.0
  0
LINE
  5
195D
330
1A
100
AcDbEntity
  8
SEIHIN
100
AcDbLine
 10
427.8470163791045
 20
273.0654790514736
 30
0.0
 11
429.8836772887044
 21
271.8047216051737
 31
0.0
  0
LINE
  5
195E
330
1A
100
AcDbEntity
  8
SEIHIN
100
AcDbLine
 10
431.7953398077045
 20
271.8861564511737
 30
0.0
 11
429.9044234304044
 21
273.0572685116736
 31
0.0
  0
LINE
  5
195F
330
1A
100
AcDbEntity
  8
SEIHIN
100
AcDbLine
 10
441.7679344861044
 20
283.2583352440737
 30
0.0
 11
441.7679344861044
 21
270.3207820171737
 31
0.0
  0
LINE
  5
1960
330
1A
100
AcDbEntity
  8
SEIHIN
100
AcDbLine
 10
434.0720882265046
 20
283.0095380061737
 30
0.0
 11
434.0720882265046
 21
270.9304406756737
 31
0.0
  0
LINE
  5
1961
330
1A
100
AcDbEntity
  8
SEIHIN
100
AcDbLine
 10
447.9514320938044
 20
300.0561087840737
 30
0.0
 11
447.9514320938044
 21
270.0561075919737
 31
0.0
  0
LINE
  5
1962
330
1A
100
AcDbEntity
  8
SEIHIN
100
AcDbLine
 10
442.9514294116045
 20
270.0561075919737
 30
0.0
 11
442.9514294116045
 21
300.0561087840737
 31
0.0
  0
LINE
  5
1963
330
1A
100
AcDbEntity
  8
NOKITOI
  6
PHANTOM
 62
     8
 48
5.0
100
AcDbLine
 10
477.7505954485343
 20
91.56061156948996
 30
0.0
 11
559.4121954485344
 21
91.56061156948996
 31
0.0
  0
LINE
  5
1964
330
1A
100
AcDbEntity
  8
NOKITOI
  6
PHANTOM
 62
     8
 48
5.0
100
AcDbLine
 10
475.7557954485344
 20
90.26061156948995
 30
0.0
 11
561.6099954485345
 21
90.26061156948995
 31
0.0
  0
LINE
  5
1965
330
1A
100
AcDbEntity
  8
SEIHIN
100
AcDbLine
 10
434.0720882265044
 20
179.6035762435097
 30
0.0
 11
431.7953398077045
 21
187.2120420938097
 31
0.0
  0
LINE
  5
1966
330
1A
100
AcDbEntity
  8
SEIHIN
100
AcDbLine
 10
429.8836772887044
 20
186.6201921856098
 30
0.0
 11
432.3863794653045
 21
178.3281951701098
 31
0.0
  0
LINE
  5
1967
330
1A
100
AcDbEntity
  8
SEIHIN
100
AcDbLine
 10
434.9668955056044
 20
186.9955636119097
 30
0.0
 11
437.2284149377044
 21
179.6128876066098
 31
0.0
  0
DIMENSION
  5
1968
330
1A
100
AcDbEntity
  8
SUNPOU
100
AcDbDimension
  2
*D7
 10
515.1035082660549
 20
240.6324330276097
 30
0.0
 11
510.1035082660549
 21
205.6324331076101
 31
0.0
 70
    32
 71
     5
 42
69.99999983999948
  3
STANDARD
100
AcDbAlignedDimension
 13
450.7798598870505
 23
170.6324331876103
 33
0.0
 14
439.1294678299045
 24
240.6324330276098
 34
0.0
 50
90.0
100
AcDbRotatedDimension
1001
ACAD
1000
DSTYLE
1002
{
1070
    41
1040
7.0
1070
    42
1040
6.0
1070
    43
1040
14.0
1070
    44
1040
3.0
1070
    73
1070
     0
1070
    74
1070
     0
1070
    77
1070
     3
1070
   140
1040
6.0
1070
   141
1040
150.0
1070
   147
1040
2.0
1070
   172
1070
     1
1070
   173
1070
     1
1070
   176
1070
     4
1070
   177
1070
     4
1070
   178
1070
     4
1070
   271
1070
     0
1070
   272
1070
     0
1070
   341
1005
6D
1070
     6
1000
OPEN
1070
     7
1000
OPEN
1002
}
  0
ARC
  5
1969
330
1A
100
AcDbEntity
  8
SEIHIN
100
AcDbCircle
 10
584.2541186848043
 20
228.6887833992097
 30
0.0
 40
145.0
100
AcDbArc
 50
176.1664022089996
 51
204.2544443559013
  0
ARC
  5
196A
330
1A
100
AcDbEntity
  8
NOKITOI
  6
PHANTOM
 62
     8
 48
5.0
100
AcDbCircle
 10
478.5510586820911
 20
136.0709616357887
 30
0.0
 40
17.49998460705382
100
AcDbArc
 50
187.9696597232924
 51
244.6144785993175
  0
LINE
  5
196B
330
1A
100
AcDbEntity
  8
NOKITOI
  6
PHANTOM
 62
     8
 48
5.0
100
AcDbLine
 10
458.2270954485346
 20
145.64711156949
 30
0.0
 11
462.1442954485344
 21
117.66741156949
 31
0.0
  0
ARC
  5
196C
330
1A
100
AcDbEntity
  8
NOKITOI
  6
PHANTOM
 62
     8
 48
5.0
100
AcDbCircle
 10
479.4752507182807
 20
120.0937722863469
 30
0.0
 40
17.49996433219532
100
AcDbArc
 50
187.9693736291693
 51
244.7893872175519
  0
ARC
  5
196D
330
1A
100
AcDbEntity
  8
NOKITOI
  6
PHANTOM
 62
     8
 48
5.0
100
AcDbCircle
 10
479.4752197987027
 20
120.0938202580725
 30
0.0
 40
16.19999005602697
100
AcDbArc
 50
187.9696639128037
 51
241.7088364731414
  0
LINE
  5
196E
330
1A
100
AcDbEntity
  8
NOKITOI
  6
PHANTOM
 62
     8
 48
5.0
100
AcDbLine
 10
469.8582954485345
 20
119.40141156949
 30
0.0
 11
471.7971954485345
 21
105.82881156949
 31
0.0
  0
LINE
  5
196F
330
1A
100
AcDbEntity
  8
NOKITOI
  6
PHANTOM
 62
     8
 48
5.0
100
AcDbLine
 10
474.7807954485345
 20
94.13631156948995
 30
0.0
 11
471.0486954485345
 21
120.26071156949
 31
0.0
  0
ARC
  5
1970
330
1A
100
AcDbEntity
  8
NOKITOI
  6
PHANTOM
 62
     8
 48
5.0
100
AcDbCircle
 10
475.7557901993198
 20
92.26061612197952
 30
0.0
 40
2.000004552496454
100
AcDbArc
 50
188.1318732947256
 51
270.0001503785762
  0
ARC
  5
1971
330
1A
100
AcDbEntity
  8
NOKITOI
  6
PHANTOM
 62
     8
 48
5.0
100
AcDbCircle
 10
477.7506201878484
 20
94.56059011350308
 30
0.0
 40
2.99997854411512
100
AcDbArc
 50
188.130440160957
 51
269.9995275105243
  0
LINE
  5
1972
330
1A
100
AcDbEntity
  8
NOKITOI
  6
PHANTOM
 62
     8
 48
5.0
100
AcDbLine
 10
472.0211954485344
 20
104.26061156949
 30
0.0
 11
473.7758954485345
 21
91.97771156948994
 31
0.0
  0
ARC
  5
1973
330
1A
100
AcDbEntity
  8
NOKITOI
  6
PHANTOM
 62
     8
 48
5.0
100
AcDbCircle
 10
478.5510306171182
 20
136.0709743289234
 30
0.0
 40
18.7999459388005
100
AcDbArc
 50
209.4020944837773
 51
242.4591529343774
  0
LINE
  5
1974
330
1A
100
AcDbEntity
  8
NOKITOI
  6
PHANTOM
 62
     8
 48
5.0
100
AcDbLine
 10
462.1725954485345
 20
126.84141156949
 30
0.0
 11
463.4316954485344
 21
117.84771156949
 31
0.0
  0
ARC
  5
1975
330
1A
100
AcDbEntity
  8
NOKITOI
  6
PHANTOM
 62
     8
 48
5.0
100
AcDbCircle
 10
448.323679252072
 20
144.2607256565098
 30
0.0
 40
9.999985912993367
100
AcDbArc
 50
7.969086351825171
 51
89.9999072009758
  0
LINE
  5
1976
330
1A
100
AcDbEntity
  8
NOKITOI
  6
PHANTOM
 62
     8
 48
5.0
100
AcDbLine
 10
458.1518954485346
 20
155.56071156949
 30
0.0
 11
461.2200954485345
 21
133.64461156949
 31
0.0
  0
LINE
  5
1977
330
1A
100
AcDbEntity
  8
SEIHIN
100
AcDbLine
 10
458.8799437134044
 20
155.6028794056097
 30
0.0
 11
457.9829832165044
 21
156.4890328353098
 31
0.0
  0
LINE
  5
1978
330
1A
100
AcDbEntity
  8
SEIHIN
100
AcDbLine
 10
459.4015216081045
 20
158.5974204844098
 30
0.0
 11
457.3739355056046
 21
158.5974204844098
 31
0.0
  0
LINE
  5
1979
330
1A
100
AcDbEntity
  8
SEIHIN
100
AcDbLine
 10
458.6205517499045
 20
163.2832247322097
 30
0.0
 11
459.4015216081045
 21
158.5974204844098
 31
0.0
  0
ARC
  5
197A
330
1A
100
AcDbEntity
  8
NOKITOI
  6
PHANTOM
 62
     8
 48
5.0
100
AcDbCircle
 10
450.5211954485344
 20
157.56071156949
 30
0.0
 40
2.0
100
AcDbArc
 50
180.0
 51
270.0
  0
LINE
  5
197B
330
1A
100
AcDbEntity
  8
NOKITOI
  6
PHANTOM
 62
     8
 48
5.0
100
AcDbLine
 10
447.2211954485344
 20
168.96071156949
 30
0.0
 11
447.2211954485344
 21
155.56071156949
 31
0.0
  0
LINE
  5
197C
330
1A
100
AcDbEntity
  8
NOKITOI
  6
PHANTOM
 62
     8
 48
5.0
100
AcDbLine
 10
443.2747954485344
 20
166.71261156949
 30
0.0
 11
444.6687954485344
 21
155.56071156949
 31
0.0
  0
LINE
  5
197D
330
1A
100
AcDbEntity
  8
NOKITOI
  6
PHANTOM
 62
     8
 48
5.0
100
AcDbLine
 10
441.9426954485346
 20
166.88861156949
 30
0.0
 11
443.5211954485344
 21
154.26071156949
 31
0.0
  0
LINE
  5
197E
330
1A
100
AcDbEntity
  8
SEIHIN
100
AcDbLine
 10
457.9829832165044
 20
156.4890328353098
 30
0.0
 11
457.5336312501044
 21
157.6392348414098
 31
0.0
  0
LINE
  5
197F
330
1A
100
AcDbEntity
  8
SEIHIN
100
AcDbLine
 10
439.9477650969045
 20
170.6324327295097
 30
0.0
 11
440.9550984947045
 21
154.0114428406097
 31
0.0
  0
LINE
  5
1980
330
1A
100
AcDbEntity
  8
SEIHIN
100
AcDbLine
 10
442.9514294116045
 20
154.1324328189098
 30
0.0
 11
441.9441034643044
 21
170.7534227079098
 31
0.0
  0
ARC
  5
1981
330
1A
100
AcDbEntity
  8
SEIHIN
100
AcDbCircle
 10
442.9514327623044
 20
154.1324331876098
 30
0.0
 40
2.0
100
AcDbArc
 50
183.4682292589
 51
269.382612478902
  0
LINE
  5
1982
330
1A
100
AcDbEntity
  8
NOKITOI
  6
PHANTOM
 62
     8
 48
5.0
100
AcDbLine
 10
458.1518954485346
 20
155.56071156949
 30
0.0
 11
450.5211954485344
 21
155.56071156949
 31
0.0
  0
LINE
  5
1983
330
1A
100
AcDbEntity
  8
NOKITOI
  6
PHANTOM
 62
     8
 48
5.0
100
AcDbLine
 10
447.2211954485344
 20
155.56071156949
 30
0.0
 11
444.6687954485344
 21
155.56071156949
 31
0.0
  0
LINE
  5
1984
330
1A
100
AcDbEntity
  8
NOKITOI
  6
PHANTOM
 62
     8
 48
5.0
100
AcDbLine
 10
443.5211954485344
 20
154.26071156949
 30
0.0
 11
448.3236954485344
 21
154.26071156949
 31
0.0
  0
LINE
  5
1985
330
1A
100
AcDbEntity
  8
SEIHIN
100
AcDbLine
 10
444.1585128753045
 20
152.1324324911097
 30
0.0
 11
445.9514354913044
 21
152.1324324911097
 31
0.0
  0
ARC
  5
1986
330
1A
100
AcDbEntity
  8
SEIHIN
100
AcDbCircle
 10
443.9512005542044
 20
154.1216598277098
 30
0.0
 40
2.0
100
AcDbArc
 50
269.382612478902
 51
275.9496765788026
  0
LINE
  5
1987
330
1A
100
AcDbEntity
  8
SEIHIN
100
AcDbLine
 10
442.9298823325044
 20
152.1325479751098
 30
0.0
 11
443.9296533911045
 21
152.1217744356098
 31
0.0
  0
LINE
  5
1988
330
1A
100
AcDbEntity
  8
SEIHIN
100
AcDbLine
 10
447.9514320938044
 20
154.1324328189098
 30
0.0
 11
442.9514294116045
 21
154.1324328189098
 31
0.0
  0
ARC
  5
1989
330
1A
100
AcDbEntity
  8
SEIHIN
100
AcDbCircle
 10
445.9514327623044
 20
154.1324331876098
 30
0.0
 40
2.0
100
AcDbArc
 50
270.0
 51
0.0
  0
LINE
  5
198A
330
1A
100
AcDbEntity
  8
NOKITOI
  6
PHANTOM
 62
     8
 48
5.0
100
AcDbLine
 10
453.5857954485346
 20
154.26071156949
 30
0.0
 11
457.0211954485344
 21
154.26071156949
 31
0.0
  0
ARC
  5
198B
330
1A
100
AcDbEntity
  8
NOKITOI
  6
PHANTOM
 62
     8
 48
5.0
100
AcDbCircle
 10
448.3166893300554
 20
144.3115169425722
 30
0.0
 40
11.30001845330598
100
AcDbArc
 50
35.72477995922544
 51
61.69769299069552
  0
LINE
  5
198C
330
1A
100
AcDbEntity
  8
NOKITOI
  6
PHANTOM
 62
     8
 48
5.0
100
AcDbLine
 10
457.0211954485344
 20
154.26071156949
 30
0.0
 11
457.4974954485344
 21
150.8584115694899
 31
0.0
  0
ARC
  5
198D
330
1A
100
AcDbEntity
  8
NOKITOI
  6
PHANTOM
 62
     8
 48
5.0
100
AcDbCircle
 10
444.9196104080993
 20
167.260728515419
 30
0.0
 40
2.999983054108306
100
AcDbArc
 50
90.00028570825199
 51
187.1253020571568
  0
LINE
  5
198E
330
1A
100
AcDbEntity
  8
SEIHIN
100
AcDbLine
 10
442.7316596357043
 20
172.6324330574097
 30
0.0
 11
441.8302213399045
 21
172.6324330574097
 31
0.0
  0
LINE
  5
198F
330
1A
100
AcDbEntity
  8
SEIHIN
100
AcDbLine
 10
442.7316596357043
 20
172.6324330574097
 30
0.0
 11
441.7867248504044
 21
173.3501493489098
 31
0.0
  0
LINE
  5
1990
330
1A
100
AcDbEntity
  8
SEIHIN
100
AcDbLine
 10
443.0493449418045
 20
172.6324330574097
 30
0.0
 11
441.7713915555044
 21
173.6030853843097
 31
0.0
  0
LINE
  5
1991
330
1A
100
AcDbEntity
  8
SEIHIN
100
AcDbLine
 10
442.1635528652046
 20
167.1324330872097
 30
0.0
 11
446.9514300673045
 21
167.1324330872097
 31
0.0
  0
LINE
  5
1992
330
1A
100
AcDbEntity
  8
SEIHIN
100
AcDbLine
 10
445.6592040649045
 20
170.6324331876098
 30
0.0
 11
441.5155877864045
 21
170.6324331876098
 31
0.0
  0
LINE
  5
1993
330
1A
100
AcDbEntity
  8
SEIHIN
100
AcDbLine
 10
441.6106899826045
 20
176.2546389853098
 30
0.0
 11
446.3374128191044
 21
172.6324330574097
 31
0.0
  0
LINE
  5
1994
330
1A
100
AcDbEntity
  8
SEIHIN
100
AcDbLine
 10
439.8265516011045
 20
172.6324330574097
 30
0.0
 11
432.8670313208045
 21
172.6324330574097
 31
0.0
  0
LINE
  5
1995
330
1A
100
AcDbEntity
  8
SEIHIN
100
AcDbLine
 10
432.4514304845045
 20
178.3281951701098
 30
0.0
 11
439.8265516011045
 21
172.6324330574097
 31
0.0
  0
LINE
  5
1996
330
1A
100
AcDbEntity
  8
SEIHIN
100
AcDbLine
 10
441.7679344861044
 20
173.6601177161097
 30
0.0
 11
434.0720882265046
 21
179.6035762435097
 31
0.0
  0
LINE
  5
1997
330
1A
100
AcDbEntity
  8
SEIHIN
100
AcDbLine
 10
432.3863794653043
 20
178.3281951701098
 30
0.0
 11
432.4514304845045
 21
178.3281951701098
 31
0.0
  0
LINE
  5
1998
330
1A
100
AcDbEntity
  8
SEIHIN
100
AcDbLine
 10
431.9750180094045
 20
172.6324330574097
 30
0.0
 11
432.8670313208045
 21
172.6324330574097
 31
0.0
  0
LINE
  5
1999
330
1A
100
AcDbEntity
  8
SEIHIN
100
AcDbLine
 10
437.3165702073044
 20
179.5453331923098
 30
0.0
 11
437.9323010890044
 21
179.0734879231097
 31
0.0
  0
LINE
  5
199A
330
1A
100
AcDbEntity
  8
SEIHIN
100
AcDbLine
 10
437.2284149377044
 20
179.6128876066098
 30
0.0
 11
437.3165702073044
 21
179.5453331923098
 31
0.0
  0
LINE
  5
199B
330
1A
100
AcDbEntity
  8
SEIHIN
100
AcDbLine
 10
437.9323010890043
 20
179.0734879231097
 30
0.0
 11
438.9048551767046
 21
178.3281951701098
 31
0.0
  0
LINE
  5
199C
330
1A
100
AcDbEntity
  8
SEIHIN
100
AcDbLine
 10
438.9048551767046
 20
178.3281951701098
 30
0.0
 11
441.6106899826045
 21
176.2546389853098
 31
0.0
  0
LINE
  5
199D
330
1A
100
AcDbEntity
  8
SEIHIN
100
AcDbLine
 10
434.7584729640043
 20
179.0734879231097
 30
0.0
 11
435.0711365788045
 21
179.0734879231097
 31
0.0
  0
LINE
  5
199E
330
1A
100
AcDbEntity
  8
SEIHIN
100
AcDbLine
 10
437.9323010890043
 20
179.0734879231097
 30
0.0
 11
435.0711365788045
 21
179.0734879231097
 31
0.0
  0
LINE
  5
199F
330
1A
100
AcDbEntity
  8
SEIHIN
100
AcDbLine
 10
441.9441034643044
 20
170.7534227079098
 30
0.0
 11
441.8228899686044
 21
172.7534230357098
 31
0.0
  0
LINE
  5
19A0
330
1A
100
AcDbEntity
  8
SEIHIN
100
AcDbLine
 10
441.8919200414046
 20
171.6143930828098
 30
0.0
 11
442.0485574090044
 21
169.0298765171098
 31
0.0
  0
LINE
  5
19A1
330
1A
100
AcDbEntity
  8
SEIHIN
100
AcDbLine
 10
441.8228899686044
 20
172.7534230357098
 30
0.0
 11
441.7679344861044
 21
173.6601177161097
 31
0.0
  0
LINE
  5
19A2
330
1A
100
AcDbEntity
  8
SEIHIN
100
AcDbLine
 10
439.8265516011045
 20
172.6324330574097
 30
0.0
 11
439.9477650969045
 21
170.6324327295097
 31
0.0
  0
LINE
  5
19A3
330
1A
100
AcDbEntity
  8
NOKITOI
  6
PHANTOM
 62
     8
 48
5.0
100
AcDbLine
 10
448.5211954485344
 20
170.26071156949
 30
0.0
 11
448.5211954485344
 21
167.76071156949
 31
0.0
  0
ARC
  5
19A4
330
1A
100
AcDbEntity
  8
NOKITOI
  6
PHANTOM
 62
     8
 48
5.0
100
AcDbCircle
 10
445.2593743980031
 20
166.9606877235243
 30
0.0
 40
2.000023846076517
100
AcDbArc
 50
89.99939695388299
 51
187.1251239525234
  0
LINE
  5
19A5
330
1A
100
AcDbEntity
  8
SEIHIN
100
AcDbLine
 10
453.6197742073044
 20
168.8685189491098
 30
0.0
 11
455.7427649943044
 21
167.8581233626098
 31
0.0
  0
LINE
  5
19A6
330
1A
100
AcDbEntity
  8
SEIHIN
100
AcDbLine
 10
448.9514341204044
 20
170.6324327295097
 30
0.0
 11
448.9514341204044
 21
167.1674470907098
 31
0.0
  0
LINE
  5
19A7
330
1A
100
AcDbEntity
  8
SEIHIN
100
AcDbLine
 10
446.9514300673045
 20
170.6324327295097
 30
0.0
 11
446.9514300673045
 21
167.1324330872097
 31
0.0
  0
LINE
  5
19A8
330
1A
100
AcDbEntity
  8
NOKITOI
  6
PHANTOM
 62
     8
 48
5.0
100
AcDbLine
 10
453.5211954485344
 20
167.26071156949
 30
0.0
 11
449.0211954485344
 21
167.26071156949
 31
0.0
  0
LINE
  5
19A9
330
1A
100
AcDbEntity
  8
NOKITOI
  6
PHANTOM
 62
     8
 48
5.0
100
AcDbLine
 10
452.2211954485344
 20
165.96071156949
 30
0.0
 11
450.5211954485344
 21
165.96071156949
 31
0.0
  0
LINE
  5
19AA
330
1A
100
AcDbEntity
  8
SEIHIN
100
AcDbLine
 10
455.1453103869044
 20
160.1324338024097
 30
0.0
 11
442.5877963750045
 21
160.1324338024097
 31
0.0
  0
LINE
  5
19AB
330
1A
100
AcDbEntity
  8
SEIHIN
100
AcDbLine
 10
456.5787871925045
 20
167.1674470907098
 30
0.0
 11
448.9514341204044
 21
167.1674470907098
 31
0.0
  0
LINE
  5
19AC
330
1A
100
AcDbEntity
  8
SEIHIN
100
AcDbLine
 10
451.7158006875043
 20
167.1324330872097
 30
0.0
 11
448.9514341204044
 21
167.1324330872097
 31
0.0
  0
ARC
  5
19AD
330
1A
100
AcDbEntity
  8
NOKITOI
  6
PHANTOM
 62
     8
 48
5.0
100
AcDbCircle
 10
449.0211954485344
 20
167.76071156949
 30
0.0
 40
0.5
100
AcDbArc
 50
180.0
 51
270.0
  0
LINE
  5
19AE
330
1A
100
AcDbEntity
  8
NOKITOI
  6
PHANTOM
 62
     8
 48
5.0
100
AcDbLine
 10
448.5211954485344
 20
163.96071156949
 30
0.0
 11
448.5211954485344
 21
157.56071156949
 31
0.0
  0
ARC
  5
19AF
330
1A
100
AcDbEntity
  8
NOKITOI
  6
PHANTOM
 62
     8
 48
5.0
100
AcDbCircle
 10
450.5211954485344
 20
163.96071156949
 30
0.0
 40
2.0
100
AcDbArc
 50
90.0
 51
180.0
  0
LINE
  5
19B0
330
1A
100
AcDbEntity
  8
SEIHIN
100
AcDbLine
 10
448.9514341204044
 20
167.1674470907098
 30
0.0
 11
448.9514341204044
 21
167.1324330872097
 31
0.0
  0
LINE
  5
19B1
330
1A
100
AcDbEntity
  8
SEIHIN
100
AcDbLine
 10
448.9514341204044
 20
167.1324330872097
 30
0.0
 11
446.9514300673045
 21
167.1324330872097
 31
0.0
  0
ARC
  5
19B2
330
1A
100
AcDbEntity
  8
NOKITOI
  6
PHANTOM
 62
     8
 48
5.0
100
AcDbCircle
 10
453.5211954485344
 20
165.26071156949
 30
0.0
 40
2.0
100
AcDbArc
 50
0.0
 51
90.0
  0
LINE
  5
19B3
330
1A
100
AcDbEntity
  8
NOKITOI
  6
PHANTOM
 62
     8
 48
5.0
100
AcDbLine
 10
454.2211954485344
 20
163.16081156949
 30
0.0
 11
454.2211954485344
 21
163.96071156949
 31
0.0
  0
ARC
  5
19B4
330
1A
100
AcDbEntity
  8
NOKITOI
  6
PHANTOM
 62
     8
 48
5.0
100
AcDbCircle
 10
454.2211954485344
 20
161.86081156949
 30
0.0
 40
1.300000000000011
100
AcDbArc
 50
90.0
 51
270.0
  0
LINE
  5
19B5
330
1A
100
AcDbEntity
  8
NOKITOI
  6
PHANTOM
 62
     8
 48
5.0
100
AcDbLine
 10
454.2211954485344
 20
160.56071156949
 30
0.0
 11
455.5211954485344
 21
160.56071156949
 31
0.0
  0
ARC
  5
19B6
330
1A
100
AcDbEntity
  8
NOKITOI
  6
PHANTOM
 62
     8
 48
5.0
100
AcDbCircle
 10
452.2211954485344
 20
163.96071156949
 30
0.0
 40
2.0
100
AcDbArc
 50
0.0
 51
90.0
  0
LINE
  5
19B7
330
1A
100
AcDbEntity
  8
NOKITOI
  6
PHANTOM
 62
     8
 48
5.0
100
AcDbLine
 10
455.5211954485344
 20
165.26071156949
 30
0.0
 11
455.5211954485344
 21
160.56071156949
 31
0.0
  0
LINE
  5
19B8
330
1A
100
AcDbEntity
  8
SEIHIN
100
AcDbLine
 10
458.2224299757044
 20
164.7138628667098
 30
0.0
 11
458.6205517499045
 21
163.2832247322097
 31
0.0
  0
LINE
  5
19B9
330
1A
100
AcDbEntity
  8
SEIHIN
100
AcDbLine
 10
457.5314705817045
 20
166.0283203726098
 30
0.0
 11
458.2224299757044
 21
164.7138628667098
 31
0.0
  0
LINE
  5
19BA
330
1A
100
AcDbEntity
  8
SEIHIN
100
AcDbLine
 10
456.5787871925044
 20
167.1674470907098
 30
0.0
 11
457.5314705817045
 21
166.0283203726098
 31
0.0
  0
LINE
  5
19BB
330
1A
100
AcDbEntity
  8
SEIHIN
100
AcDbLine
 10
454.5432066171045
 20
163.8038973814098
 30
0.0
 11
454.6749775855045
 21
162.9544268852097
 31
0.0
  0
LINE
  5
19BC
330
1A
100
AcDbEntity
  8
SEIHIN
100
AcDbLine
 10
454.3243681638045
 20
164.6018955415098
 30
0.0
 11
454.5432066171045
 21
163.8038973814098
 31
0.0
  0
LINE
  5
19BD
330
1A
100
AcDbEntity
  8
SEIHIN
100
AcDbLine
 10
454.0251975505045
 20
165.3238512134097
 30
0.0
 11
454.3243681638045
 21
164.6018955415098
 31
0.0
  0
LINE
  5
19BE
330
1A
100
AcDbEntity
  8
SEIHIN
100
AcDbLine
 10
453.6549185960045
 20
165.9475337272097
 30
0.0
 11
454.0251975505045
 21
165.3238512134097
 31
0.0
  0
LINE
  5
19BF
330
1A
100
AcDbEntity
  8
SEIHIN
100
AcDbLine
 10
453.2249306886044
 20
166.4537354862098
 30
0.0
 11
453.6549185960045
 21
165.9475337272097
 31
0.0
  0
LINE
  5
19C0
330
1A
100
AcDbEntity
  8
SEIHIN
100
AcDbLine
 10
452.7484660594045
 20
166.8268717384097
 30
0.0
 11
453.2249306886044
 21
166.4537354862098
 31
0.0
  0
LINE
  5
19C1
330
1A
100
AcDbEntity
  8
SEIHIN
100
AcDbLine
 10
452.2402098028045
 20
167.0554499632098
 30
0.0
 11
452.7484660594045
 21
166.8268717384097
 31
0.0
  0
LINE
  5
19C2
330
1A
100
AcDbEntity
  8
SEIHIN
100
AcDbLine
 10
451.7158006875044
 20
167.1324330872097
 30
0.0
 11
452.2402098028045
 21
167.0554499632098
 31
0.0
  0
LINE
  5
19C3
330
1A
100
AcDbEntity
  8
SEIHIN
100
AcDbLine
 10
452.5898133962044
 20
167.0554499632098
 30
0.0
 11
451.7158006875044
 21
167.1324330872097
 31
0.0
  0
LINE
  5
19C4
330
1A
100
AcDbEntity
  8
SEIHIN
100
AcDbLine
 10
453.4369146077045
 20
166.8268717384097
 30
0.0
 11
452.5898133962044
 21
167.0554499632098
 31
0.0
  0
LINE
  5
19C5
330
1A
100
AcDbEntity
  8
SEIHIN
100
AcDbLine
 10
454.2310198395044
 20
166.4537354862098
 30
0.0
 11
453.4369146077045
 21
166.8268717384097
 31
0.0
  0
LINE
  5
19C6
330
1A
100
AcDbEntity
  8
SEIHIN
100
AcDbLine
 10
454.9476688354044
 20
165.9475337272097
 30
0.0
 11
454.2310198395044
 21
166.4537354862098
 31
0.0
  0
LINE
  5
19C7
330
1A
100
AcDbEntity
  8
SEIHIN
100
AcDbLine
 10
455.5648004262044
 20
165.3238512134097
 30
0.0
 11
454.9476688354044
 21
165.9475337272097
 31
0.0
  0
LINE
  5
19C8
330
1A
100
AcDbEntity
  8
SEIHIN
100
AcDbLine
 10
456.0634156315044
 20
164.6018955415098
 30
0.0
 11
455.5648004262044
 21
165.3238512134097
 31
0.0
  0
LINE
  5
19C9
330
1A
100
AcDbEntity
  8
SEIHIN
100
AcDbLine
 10
456.4281439035045
 20
163.8038973814098
 30
0.0
 11
456.0634156315044
 21
164.6018955415098
 31
0.0
  0
LINE
  5
19CA
330
1A
100
AcDbEntity
  8
SEIHIN
100
AcDbLine
 10
456.6477646677045
 20
162.9544268852097
 30
0.0
 11
456.4281439035045
 21
163.8038973814098
 31
0.0
  0
LINE
  5
19CB
330
1A
100
AcDbEntity
  8
SEIHIN
100
AcDbLine
 10
455.0534521787045
 20
163.0096990173098
 30
0.0
 11
454.6749775855045
 21
162.9544268852097
 31
0.0
  0
LINE
  5
19CC
330
1A
100
AcDbEntity
  8
SEIHIN
100
AcDbLine
 10
455.4178675263045
 20
163.0507107382098
 30
0.0
 11
455.0534521787045
 21
163.0096990173098
 31
0.0
  0
LINE
  5
19CD
330
1A
100
AcDbEntity
  8
SEIHIN
100
AcDbLine
 10
455.7547157256045
 20
163.0759458547097
 30
0.0
 11
455.4178675263045
 21
163.0507107382098
 31
0.0
  0
LINE
  5
19CE
330
1A
100
AcDbEntity
  8
SEIHIN
100
AcDbLine
 10
456.0514723508044
 20
163.0844618683098
 30
0.0
 11
455.7547157256045
 21
163.0759458547097
 31
0.0
  0
LINE
  5
19CF
330
1A
100
AcDbEntity
  8
SEIHIN
100
AcDbLine
 10
456.2971328942045
 20
163.0759458547097
 30
0.0
 11
456.0514723508044
 21
163.0844618683098
 31
0.0
  0
LINE
  5
19D0
330
1A
100
AcDbEntity
  8
SEIHIN
100
AcDbLine
 10
456.4825778453045
 20
163.0507107382098
 30
0.0
 11
456.2971328942045
 21
163.0759458547097
 31
0.0
  0
LINE
  5
19D1
330
1A
100
AcDbEntity
  8
SEIHIN
100
AcDbLine
 10
456.6009228675044
 20
163.0096990173098
 30
0.0
 11
456.4825778453045
 21
163.0507107382098
 31
0.0
  0
LINE
  5
19D2
330
1A
100
AcDbEntity
  8
SEIHIN
100
AcDbLine
 10
456.6477646677045
 20
162.9544268852097
 30
0.0
 11
456.6009228675044
 21
163.0096990173098
 31
0.0
  0
LINE
  5
19D3
330
1A
100
AcDbEntity
  8
SEIHIN
100
AcDbLine
 10
455.7427649943044
 20
167.8581233626098
 30
0.0
 11
456.5787871925044
 21
167.1674470907098
 31
0.0
  0
LINE
  5
19D4
330
1A
100
AcDbEntity
  8
SEIHIN
100
AcDbLine
 10
457.4287792294044
 20
158.2683730429097
 30
0.0
 11
457.3739355056044
 21
158.5974204844098
 31
0.0
  0
LINE
  5
19D5
330
1A
100
AcDbEntity
  8
SEIHIN
100
AcDbLine
 10
457.4820955841045
 20
157.9484562879098
 30
0.0
 11
457.4287792294044
 21
158.2683730429097
 31
0.0
  0
LINE
  5
19D6
330
1A
100
AcDbEntity
  8
SEIHIN
100
AcDbLine
 10
457.5336312501044
 20
157.6392348414098
 30
0.0
 11
457.4820955841045
 21
157.9484562879098
 31
0.0
  0
LINE
  5
19D7
330
1A
100
AcDbEntity
  8
SEIHIN
100
AcDbLine
 10
457.3739355056046
 20
158.5974204844098
 30
0.0
 11
456.6477646677045
 21
162.9544268852097
 31
0.0
  0
LINE
  5
19D8
330
1A
100
AcDbEntity
  8
SEIHIN
100
AcDbLine
 10
454.6749775855044
 20
162.9544268852097
 30
0.0
 11
455.1453103869044
 21
160.1324338024097
 31
0.0
  0
LINE
  5
19D9
330
1A
100
AcDbEntity
  8
SEIHIN
100
AcDbLine
 10
457.1180974691044
 20
160.1324338024097
 30
0.0
 11
455.1453103869044
 21
160.1324338024097
 31
0.0
  0
LINE
  5
19DA
330
1A
100
AcDbEntity
  8
SEIHIN
100
AcDbLine
 10
449.7070571034044
 20
174.6324333852097
 30
0.0
 11
450.9514307229044
 21
174.6324333852097
 31
0.0
  0
ARC
  5
19DB
330
1A
100
AcDbEntity
  8
SEIHIN
100
AcDbCircle
 10
447.9514327623044
 20
169.6324331876098
 30
0.0
 40
3.0
100
AcDbArc
 50
19.47122063450095
 51
90.0
  0
LINE
  5
19DC
330
1A
100
AcDbEntity
  8
SEIHIN
100
AcDbLine
 10
450.7798587529044
 20
170.6324327295097
 30
0.0
 11
445.6592013685045
 21
170.6324327295097
 31
0.0
  0
LINE
  5
19DD
330
1A
100
AcDbEntity
  8
NOKITOI
  6
PHANTOM
 62
     8
 48
5.0
100
AcDbLine
 10
445.2593954485344
 20
168.96071156949
 30
0.0
 11
447.2211954485344
 21
168.96071156949
 31
0.0
  0
LINE
  5
19DE
330
1A
100
AcDbEntity
  8
NOKITOI
  6
PHANTOM
 62
     8
 48
5.0
100
AcDbLine
 10
444.9195954485344
 20
170.26071156949
 30
0.0
 11
448.5211954485344
 21
170.26071156949
 31
0.0
  0
LINE
  5
19DF
330
1A
100
AcDbEntity
  8
SEIHIN
100
AcDbLine
 10
448.9472617952044
 20
170.6324327295097
 30
0.0
 11
448.9514341204044
 21
170.6292401558098
 31
0.0
  0
LINE
  5
19E0
330
1A
100
AcDbEntity
  8
SEIHIN
100
AcDbLine
 10
443.0493449418045
 20
172.6324330574097
 30
0.0
 11
445.6592013685045
 21
170.6324327295097
 31
0.0
  0
LINE
  5
19E1
330
1A
100
AcDbEntity
  8
SEIHIN
100
AcDbLine
 10
443.0493449418045
 20
172.6324330574097
 30
0.0
 11
442.7316596357043
 21
172.6324330574097
 31
0.0
  0
LINE
  5
19E2
330
1A
100
AcDbEntity
  8
SEIHIN
100
AcDbLine
 10
446.3374128191044
 20
172.6324330574097
 30
0.0
 11
447.9514320938044
 21
172.6324330574097
 31
0.0
  0
LINE
  5
19E3
330
1A
100
AcDbEntity
  8
SEIHIN
100
AcDbLine
 10
450.9875138847044
 20
169.4459314948098
 30
0.0
 11
450.9514307229044
 21
169.6324325656098
 31
0.0
  0
LINE
  5
19E4
330
1A
100
AcDbEntity
  8
SEIHIN
100
AcDbLine
 10
451.0876347868044
 20
169.2894283240098
 30
0.0
 11
450.9875138847044
 21
169.4459314948098
 31
0.0
  0
LINE
  5
19E5
330
1A
100
AcDbEntity
  8
SEIHIN
100
AcDbLine
 10
451.2071122973044
 20
169.1961917585097
 30
0.0
 11
451.0876347868044
 21
169.2894283240098
 31
0.0
  0
LINE
  5
19E6
330
1A
100
AcDbEntity
  8
SEIHIN
100
AcDbLine
 10
451.3212998955044
 20
169.1496647453098
 30
0.0
 11
451.2071122973044
 21
169.1961917585097
 31
0.0
  0
LINE
  5
19E7
330
1A
100
AcDbEntity
  8
SEIHIN
100
AcDbLine
 10
451.4514317362044
 20
169.1324334150098
 30
0.0
 11
451.3212998955044
 21
169.1496647453098
 31
0.0
  0
LINE
  5
19E8
330
1A
100
AcDbEntity
  8
SEIHIN
100
AcDbLine
 10
450.8647953717045
 20
170.3481893545097
 30
0.0
 11
450.7798587529044
 21
170.6324327295097
 31
0.0
  0
LINE
  5
19E9
330
1A
100
AcDbEntity
  8
SEIHIN
100
AcDbLine
 10
450.9514307229044
 20
169.6324325656098
 30
0.0
 11
450.8647953717045
 21
170.3481893545097
 31
0.0
  0
LINE
  5
19EA
330
1A
100
AcDbEntity
  8
SEIHIN
100
AcDbLine
 10
451.7158006875044
 20
169.1324334150098
 30
0.0
 11
453.6197742073044
 21
168.8685189491098
 31
0.0
  0
LINE
  5
19EB
330
1A
100
AcDbEntity
  8
SEIHIN
100
AcDbLine
 10
453.9514293520044
 20
171.6324328935098
 30
0.0
 11
453.9514293520044
 21
168.7658294594098
 31
0.0
  0
LINE
  5
19EC
330
1A
100
AcDbEntity
  8
SEIHIN
100
AcDbLine
 10
451.4514317362045
 20
169.1324334150098
 30
0.0
 11
451.7158006875043
 21
169.1324334150098
 31
0.0
  0
ARC
  5
19ED
330
1A
100
AcDbEntity
  8
SEIHIN
100
AcDbCircle
 10
450.9514327623044
 20
171.6324331876098
 30
0.0
 40
3.0
100
AcDbArc
 50
0.0
 51
90.0
  0
LINE
  5
19EE
330
1A
100
AcDbEntity
  8
SEIHIN
100
AcDbLine
 10
461.8469288199045
 20
156.5774973040097
 30
0.0
 11
461.6645907609045
 21
156.8334396487098
 31
0.0
  0
LINE
  5
19EF
330
1A
100
AcDbEntity
  8
SEIHIN
100
AcDbLine
 10
460.4841505735045
 20
155.1324460214098
 30
0.0
 11
458.8799437134044
 21
155.6028794056097
 31
0.0
  0
LINE
  5
19F0
330
1A
100
AcDbEntity
  8
SEIHIN
100
AcDbLine
 10
460.4928155987045
 20
155.1324348455098
 30
0.0
 11
460.4841505735045
 21
155.1324460214098
 31
0.0
  0
LINE
  5
19F1
330
1A
100
AcDbEntity
  8
SEIHIN
100
AcDbLine
 10
461.9514306633044
 20
156.1324331468098
 30
0.0
 11
461.8469288199045
 21
156.5774973040097
 31
0.0
  0
LINE
  5
19F2
330
1A
100
AcDbEntity
  8
SEIHIN
100
AcDbLine
 10
461.9176571815044
 20
155.8747399157098
 30
0.0
 11
461.9514306633044
 21
156.1324331468098
 31
0.0
  0
LINE
  5
19F3
330
1A
100
AcDbEntity
  8
SEIHIN
100
AcDbLine
 10
461.7009123413044
 20
155.4704043573098
 30
0.0
 11
461.9176571815044
 21
155.8747399157098
 31
0.0
  0
LINE
  5
19F4
330
1A
100
AcDbEntity
  8
SEIHIN
100
AcDbLine
 10
460.9572028367045
 20
155.1324497467097
 30
0.0
 11
461.7009123413044
 21
155.4704043573098
 31
0.0
  0
LINE
  5
19F5
330
1A
100
AcDbEntity
  8
SEIHIN
100
AcDbLine
 10
460.9514360873044
 20
155.1324348455098
 30
0.0
 11
460.9572028367045
 21
155.1324497467097
 31
0.0
  0
LINE
  5
19F6
330
1A
100
AcDbEntity
  8
SEIHIN
100
AcDbLine
 10
460.9514360873045
 20
155.1324348455098
 30
0.0
 11
460.4928155987045
 21
155.1324348455098
 31
0.0
  0
LINE
  5
19F7
330
1A
100
AcDbEntity
  8
SEIHIN
100
AcDbLine
 10
459.4721009581045
 20
158.1739704614098
 30
0.0
 11
459.5064183323045
 21
157.9680326884097
 31
0.0
  0
LINE
  5
19F8
330
1A
100
AcDbEntity
  8
SEIHIN
100
AcDbLine
 10
459.4371055810045
 20
158.3839054709097
 30
0.0
 11
459.4721009581045
 21
158.1739704614098
 31
0.0
  0
LINE
  5
19F9
330
1A
100
AcDbEntity
  8
SEIHIN
100
AcDbLine
 10
459.4015216081045
 20
158.5974204844098
 30
0.0
 11
459.4371055810045
 21
158.3839054709097
 31
0.0
  0
LINE
  5
19FA
330
1A
100
AcDbEntity
  8
SEIHIN
100
AcDbLine
 10
459.5595111696045
 20
157.7733490174097
 30
0.0
 11
459.5064183323045
 21
157.9680326884097
 31
0.0
  0
LINE
  5
19FB
330
1A
100
AcDbEntity
  8
SEIHIN
100
AcDbLine
 10
459.7323795406044
 20
157.4830185180098
 30
0.0
 11
459.5595111696045
 21
157.7733490174097
 31
0.0
  0
LINE
  5
19FC
330
1A
100
AcDbEntity
  8
SEIHIN
100
AcDbLine
 10
459.9521940200044
 20
157.2911660677097
 30
0.0
 11
459.7323795406044
 21
157.4830185180098
 31
0.0
  0
LINE
  5
19FD
330
1A
100
AcDbEntity
  8
SEIHIN
100
AcDbLine
 10
460.2055063097044
 20
157.1745942836097
 30
0.0
 11
459.9521940200044
 21
157.2911660677097
 31
0.0
  0
LINE
  5
19FE
330
1A
100
AcDbEntity
  8
SEIHIN
100
AcDbLine
 10
460.4928155987045
 20
157.1324314480098
 30
0.0
 11
460.2055063097044
 21
157.1745942836097
 31
0.0
  0
LINE
  5
19FF
330
1A
100
AcDbEntity
  8
SEIHIN
100
AcDbLine
 10
461.1207058279044
 20
157.1180033987098
 30
0.0
 11
460.9514360873044
 21
157.1324314480098
 31
0.0
  0
LINE
  5
1A00
330
1A
100
AcDbEntity
  8
SEIHIN
100
AcDbLine
 10
461.4271780102044
 20
157.0120151644098
 30
0.0
 11
461.1207058279044
 21
157.1180033987098
 31
0.0
  0
LINE
  5
1A01
330
1A
100
AcDbEntity
  8
SEIHIN
100
AcDbLine
 10
461.6645907609045
 20
156.8334396487098
 30
0.0
 11
461.4271780102044
 21
157.0120151644098
 31
0.0
  0
LINE
  5
1A02
330
1A
100
AcDbEntity
  8
SEIHIN
100
AcDbLine
 10
460.4928155987045
 20
157.1324314480098
 30
0.0
 11
460.9514360873045
 21
157.1324314480098
 31
0.0
  0
LINE
  5
1A03
330
1A
100
AcDbEntity
  8
SEIHIN
100
AcDbLine
 10
429.2550941555044
 20
229.2384389346098
 30
0.0
 11
429.3750447778045
 21
222.5672896510097
 31
0.0
  0
LINE
  5
1A04
330
1A
100
AcDbEntity
  8
SEIHIN
100
AcDbLine
 10
426.3066200165044
 20
224.6159832483098
 30
0.0
 11
426.2596143036044
 21
227.3742775922098
 31
0.0
  0
LINE
  5
1A05
330
1A
100
AcDbEntity
  8
SEIHIN
100
AcDbLine
 10
428.3962880819044
 20
202.7593316069098
 30
0.0
 11
427.2876752166044
 21
210.6461688434097
 31
0.0
  0
LINE
  5
1A06
330
1A
100
AcDbEntity
  8
SEIHIN
100
AcDbLine
 10
430.9748297183044
 20
205.6570682233098
 30
0.0
 11
431.9240336864045
 21
200.0436173310097
 31
0.0
  0
LINE
  5
1A07
330
1A
100
AcDbEntity
  8
SEIHIN
100
AcDbLine
 10
431.7953398077045
 20
187.2120420938097
 30
0.0
 11
429.9044234304044
 21
194.9223496975098
 31
0.0
  0
LINE
  5
1A08
330
1A
100
AcDbEntity
  8
SEIHIN
100
AcDbLine
 10
427.8470163791045
 20
194.9720402971097
 30
0.0
 11
429.8836772887044
 21
186.6201921856098
 31
0.0
  0
LINE
  5
1A09
330
1A
100
AcDbEntity
  8
SEIHIN
100
AcDbLine
 10
433.0883657186044
 20
194.4263275271098
 30
0.0
 11
434.9668955056044
 21
186.9955636119097
 31
0.0
  0
LINE
  5
1A0A
330
1A
100
AcDbEntity
  8
SEIHIN
100
AcDbLine
 10
429.9044234304044
 20
194.9223496975098
 30
0.0
 11
428.3962880819044
 21
202.7593316069098
 31
0.0
  0
LINE
  5
1A0B
330
1A
100
AcDbEntity
  8
SEIHIN
100
AcDbLine
 10
426.3608006386044
 20
202.8102116218097
 30
0.0
 11
427.8470163791045
 21
194.9720402971097
 31
0.0
  0
LINE
  5
1A0C
330
1A
100
AcDbEntity
  8
SEIHIN
100
AcDbLine
 10
431.9240336864045
 20
200.0436173310097
 30
0.0
 11
433.0883657186044
 21
194.4263275271098
 31
0.0
  0
LINE
  5
1A0D
330
1A
100
AcDbEntity
  8
SEIHIN
100
AcDbLine
 10
426.8012566118044
 20
215.5512027001097
 30
0.0
 11
426.9119685142045
 21
214.2857495254098
 31
0.0
  0
LINE
  5
1A0E
330
1A
100
AcDbEntity
  8
SEIHIN
100
AcDbLine
 10
429.7310595958044
 20
216.5387101030098
 30
0.0
 11
430.2336869387044
 21
211.2903115829097
 31
0.0
  0
LINE
  5
1A0F
330
1A
100
AcDbEntity
  8
SEIHIN
100
AcDbLine
 10
427.1634926645045
 20
211.7614229699098
 30
0.0
 11
427.2876752166044
 21
210.6461688434097
 31
0.0
  0
LINE
  5
1A10
330
1A
100
AcDbEntity
  8
SEIHIN
100
AcDbLine
 10
427.0530266313045
 20
212.8200675851098
 30
0.0
 11
427.1634926645045
 21
211.7614229699098
 31
0.0
  0
LINE
  5
1A11
330
1A
100
AcDbEntity
  8
SEIHIN
100
AcDbLine
 10
426.9119685142045
 20
214.2857495254098
 30
0.0
 11
427.0530266313045
 21
212.8200675851098
 31
0.0
  0
LINE
  5
1A12
330
1A
100
AcDbEntity
  8
SEIHIN
100
AcDbLine
 10
430.2336869387044
 20
211.2903115829097
 30
0.0
 11
430.7985154538044
 21
206.8626978924098
 31
0.0
  0
LINE
  5
1A13
330
1A
100
AcDbEntity
  8
SEIHIN
100
AcDbLine
 10
428.4258780627044
 20
206.6154270923097
 30
0.0
 11
430.3158184139045
 21
206.0236479645097
 31
0.0
  0
LINE
  5
1A14
330
1A
100
AcDbEntity
  8
SEIHIN
100
AcDbLine
 10
430.9748297183044
 20
205.6570682233098
 30
0.0
 11
430.3158184139045
 21
206.0236479645097
 31
0.0
  0
LINE
  5
1A15
330
1A
100
AcDbEntity
  8
SEIHIN
100
AcDbLine
 10
430.9748297183044
 20
205.6570682233098
 30
0.0
 11
430.7985191791045
 21
206.8626671588098
 31
0.0
  0
LINE
  5
1A16
330
1A
100
AcDbEntity
  8
SEIHIN
100
AcDbLine
 10
428.4258776172044
 20
206.6154273792097
 30
0.0
 11
427.8035931056045
 21
206.6154273792097
 31
0.0
  0
LINE
  5
1A17
330
1A
100
AcDbEntity
  8
SEIHIN
100
AcDbLine
 10
426.7132764308044
 20
216.6520390218097
 30
0.0
 11
426.8012566118044
 21
215.5512027001097
 31
0.0
  0
LINE
  5
1A18
330
1A
100
AcDbEntity
  8
SEIHIN
100
AcDbLine
 10
426.6511311381045
 20
217.4950945681097
 30
0.0
 11
426.7132764308044
 21
216.6520390218097
 31
0.0
  0
LINE
  5
1A19
330
1A
100
AcDbEntity
  8
SEIHIN
100
AcDbLine
 10
429.3750447778045
 20
222.5672896510097
 30
0.0
 11
429.7310595958044
 21
216.5387101030098
 31
0.0
  0
LINE
  5
1A1A
330
1A
100
AcDbEntity
  8
SEIHIN
100
AcDbLine
 10
426.4342037587044
 20
221.1466744100098
 30
0.0
 11
426.3066200165044
 21
224.6159832483098
 31
0.0
  0
LINE
  5
1A1B
330
1A
100
AcDbEntity
  8
SEIHIN
100
AcDbLine
 10
426.6046469657044
 20
218.1700389391098
 30
0.0
 11
426.4342037587044
 21
221.1466744100098
 31
0.0
  0
LINE
  5
1A1C
330
1A
100
AcDbEntity
  8
SEIHIN
100
AcDbLine
 10
426.6511311381045
 20
217.4950945681097
 30
0.0
 11
426.6046469657044
 21
218.1700389391098
 31
0.0
  0
LINE
  5
1A1D
330
1A
100
AcDbEntity
  8
SEIHIN
100
AcDbLine
 10
426.5231413393044
 20
237.9050362414098
 30
0.0
 11
426.5518186240045
 21
238.3833374386097
 31
0.0
  0
LINE
  5
1A1E
330
1A
100
AcDbEntity
  8
SEIHIN
100
AcDbLine
 10
426.4947769789045
 20
237.4060410565098
 30
0.0
 11
426.4758338778045
 21
237.0561208134097
 31
0.0
  0
LINE
  5
1A1F
330
1A
100
AcDbEntity
  8
SEIHIN
100
AcDbLine
 10
426.5147147326044
 20
237.7596158093097
 30
0.0
 11
426.4947769789045
 21
237.4060410565098
 31
0.0
  0
LINE
  5
1A20
330
1A
100
AcDbEntity
  8
SEIHIN
100
AcDbLine
 10
426.5231413393044
 20
237.9050362414098
 30
0.0
 11
426.5147147326044
 21
237.7596158093097
 31
0.0
  0
LINE
  5
1A21
330
1A
100
AcDbEntity
  8
SEIHIN
100
AcDbLine
 10
428.1828140466045
 20
231.0857172614097
 30
0.0
 11
427.8114249556045
 21
231.7480366235097
 31
0.0
  0
LINE
  5
1A22
330
1A
100
AcDbEntity
  8
SEIHIN
100
AcDbLine
 10
429.2551239578045
 20
229.2384203082098
 30
0.0
 11
428.1828140466045
 21
231.0857172614097
 31
0.0
  0
LINE
  5
1A23
330
1A
100
AcDbEntity
  8
SEIHIN
100
AcDbLine
 10
426.3307375459045
 20
233.6066733604097
 30
0.0
 11
426.4758338778045
 21
237.0561208134097
 31
0.0
  0
LINE
  5
1A24
330
1A
100
AcDbEntity
  8
SEIHIN
100
AcDbLine
 10
426.2628776579044
 20
230.3525540536098
 30
0.0
 11
426.3307375459045
 21
233.6066733604097
 31
0.0
  0
LINE
  5
1A25
330
1A
100
AcDbEntity
  8
SEIHIN
100
AcDbLine
 10
426.2596143036044
 20
227.3742775922098
 30
0.0
 11
426.2628776579044
 21
230.3525540536098
 31
0.0
  0
LINE
  5
1A26
330
1A
100
AcDbEntity
  8
SEIHIN
100
AcDbLine
 10
426.4567976443045
 20
233.1362884050098
 30
0.0
 11
426.6384129970045
 21
232.8231367772098
 31
0.0
  0
LINE
  5
1A27
330
1A
100
AcDbEntity
  8
SEIHIN
100
AcDbLine
 10
426.6384129970045
 20
232.8231367772098
 30
0.0
 11
427.8118533640045
 21
231.7476417428098
 31
0.0
  0
LINE
  5
1A28
330
1A
100
AcDbEntity
  8
SEIHIN
100
AcDbLine
 10
426.6026688366044
 20
232.8847717052097
 30
0.0
 11
427.8105346112045
 21
231.7482713168097
 31
0.0
  0
LINE
  5
1A29
330
1A
100
AcDbEntity
  8
SEIHIN
100
AcDbLine
 10
426.5518186240045
 20
238.3833374386097
 30
0.0
 11
439.5785664765044
 21
238.3833374386097
 31
0.0
  0
LINE
  5
1A2A
330
1A
100
AcDbEntity
  8
SEIHIN
100
AcDbLine
 10
439.2967110126044
 20
240.6323920494098
 30
0.0
 11
439.1294678299045
 21
240.6324330276098
 31
0.0
  0
LINE
  5
1A2B
330
1A
100
AcDbEntity
  8
SEIHIN
100
AcDbLine
 10
439.5785664765044
 20
240.6314495509097
 30
0.0
 11
439.2967110126044
 21
240.6323920494098
 31
0.0
  0
LINE
  5
1A2C
330
1A
100
AcDbEntity
  8
SEIHIN
100
AcDbLine
 10
439.5785664765044
 20
238.3833374386097
 30
0.0
 11
439.5785664765044
 21
240.6314495509097
 31
0.0
  0
LINE
  5
1A2D
330
1A
100
AcDbEntity
  8
SEIHIN
100
AcDbLine
 10
442.9514294116045
 20
270.0561075919737
 30
0.0
 11
441.9441034643044
 21
270.0561075919737
 31
0.0
  0
LINE
  5
1A2E
330
1A
100
AcDbEntity
  8
SEIHIN
100
AcDbLine
 10
432.4514304845045
 20
270.7895278447737
 30
0.0
 11
439.8265516011045
 21
270.2274783962736
 31
0.0
  0
LINE
  5
1A2F
330
1A
100
AcDbEntity
  8
SEIHIN
100
AcDbLine
 10
441.7679344861044
 20
270.3207820171737
 30
0.0
 11
434.0720882265046
 21
270.9304406756737
 31
0.0
  0
LINE
  5
1A30
330
1A
100
AcDbEntity
  8
SEIHIN
100
AcDbLine
 10
429.8836772887044
 20
271.8047216051737
 30
0.0
 11
432.3863794653045
 21
270.7895278447737
 31
0.0
  0
LINE
  5
1A31
330
1A
100
AcDbEntity
  8
SEIHIN
100
AcDbLine
 10
434.0720882265044
 20
270.9304406756737
 30
0.0
 11
431.7953398077045
 21
271.8861564511737
 31
0.0
  0
LINE
  5
1A32
330
1A
100
AcDbEntity
  8
SEIHIN
100
AcDbLine
 10
432.3863794653043
 20
270.7895278447737
 30
0.0
 11
432.4514304845045
 21
270.7895278447737
 31
0.0
  0
LINE
  5
1A33
330
1A
100
AcDbEntity
  8
SEIHIN
100
AcDbLine
 10
441.8228899686044
 20
270.2382817381737
 30
0.0
 11
441.7679344861044
 21
270.3207820171737
 31
0.0
  0
LINE
  5
1A34
330
1A
100
AcDbEntity
  8
SEIHIN
100
AcDbLine
 10
441.9441034643044
 20
270.0561075919737
 30
0.0
 11
441.8228899686044
 21
270.2274783962736
 31
0.0
  0
LINE
  5
1A35
330
1A
100
AcDbEntity
  8
SEIHIN
100
AcDbLine
 10
441.8228899686044
 20
270.2274783962736
 30
0.0
 11
441.8228899686044
 21
270.2382817381737
 31
0.0
  0
LINE
  5
1A36
330
1A
100
AcDbEntity
  8
SEIHIN
100
AcDbLine
 10
439.8265516011045
 20
270.2274783962736
 30
0.0
 11
439.9477650969045
 21
270.0561075919737
 31
0.0
  0
LINE
  5
1A37
330
1A
100
AcDbEntity
  8
SEIHIN
100
AcDbLine
 10
439.8265516011045
 20
270.2274783962736
 30
0.0
 11
441.8228899686044
 21
270.2382817381737
 31
0.0
  0
LINE
  5
1A38
330
1A
100
AcDbEntity
  8
SEIHIN
100
AcDbLine
 10
441.8228899686044
 20
270.2274783962736
 30
0.0
 11
439.8265516011045
 21
270.2274783962736
 31
0.0
  0
LINE
  5
1A39
330
1A
100
AcDbEntity
  8
SEIHIN
100
AcDbLine
 10
441.9441034643044
 20
270.0561075919737
 30
0.0
 11
439.9477650969045
 21
270.0561075919737
 31
0.0
  0
LINE
  5
1A3A
330
1A
100
AcDbEntity
  8
SEIHIN
100
AcDbLine
 10
447.9514320938044
 20
270.0561075919737
 30
0.0
 11
442.9514294116045
 21
270.0561075919737
 31
0.0
  0
ARC
  5
1A3B
330
1A
100
AcDbEntity
  8
NOKITOI
  6
PHANTOM
 62
     8
 48
5.0
100
AcDbCircle
 10
571.021184808761
 20
133.6438055443887
 30
0.0
 40
0.500010639809949
100
AcDbArc
 50
239.0447944605788
 51
0.0006904110642984
  0
LINE
  5
1A3C
330
1A
100
AcDbEntity
  8
NOKITOI
  6
PHANTOM
 62
     8
 48
5.0
100
AcDbLine
 10
569.0211954485344
 20
134.2607115694899
 30
0.0
 11
570.7639954485345
 21
133.2150115694899
 31
0.0
  0
LINE
  5
1A3D
330
1A
100
AcDbEntity
  8
NOKITOI
  6
PHANTOM
 62
     8
 48
5.0
100
AcDbLine
 10
564.9254954485346
 20
149.78341156949
 30
0.0
 11
562.4090954485343
 21
94.42441156948996
 31
0.0
  0
LINE
  5
1A3E
330
1A
100
AcDbEntity
  8
NOKITOI
  6
PHANTOM
 62
     8
 48
5.0
100
AcDbLine
 10
565.5211954485344
 20
134.2607115694899
 30
0.0
 11
563.6079954485346
 21
92.16981156949004
 31
0.0
  0
ARC
  5
1A3F
330
1A
100
AcDbEntity
  8
NOKITOI
  6
PHANTOM
 62
     8
 48
5.0
100
AcDbCircle
 10
559.412191964627
 20
94.56060824031962
 30
0.0
 40
2.999996670831683
100
AcDbArc
 50
270.0000665378049
 51
357.397937947487
  0
ARC
  5
1A40
330
1A
100
AcDbEntity
  8
NOKITOI
  6
PHANTOM
 62
     8
 48
5.0
100
AcDbCircle
 10
561.6100279725515
 20
92.26064264900703
 30
0.0
 40
2.000031079781521
100
AcDbArc
 50
269.9990682700233
 51
357.3970263848204
  0
LINE
  5
1A41
330
1A
100
AcDbEntity
  8
NOKITOI
  6
PHANTOM
 62
     8
 48
5.0
100
AcDbLine
 10
571.5211954485345
 20
148.26071156949
 30
0.0
 11
571.5211954485345
 21
133.64381156949
 31
0.0
  0
LINE
  5
1A42
330
1A
100
AcDbEntity
  8
NOKITOI
  6
PHANTOM
 62
     8
 48
5.0
100
AcDbLine
 10
570.2211954485346
 20
135.56071156949
 30
0.0
 11
570.2211954485346
 21
147.54331156949
 31
0.0
  0
LINE
  5
1A43
330
1A
100
AcDbEntity
  8
NOKITOI
  6
PHANTOM
 62
     8
 48
5.0
100
AcDbLine
 10
566.1893954485345
 20
148.9607115694899
 30
0.0
 11
565.5802954485343
 21
135.56071156949
 31
0.0
  0
LINE
  5
1A44
330
1A
100
AcDbEntity
  8
NOKITOI
  6
PHANTOM
 62
     8
 48
5.0
100
AcDbLine
 10
565.5211954485344
 20
134.2607115694899
 30
0.0
 11
569.0211954485344
 21
134.2607115694899
 31
0.0
  0
LINE
  5
1A45
330
1A
100
AcDbEntity
  8
NOKITOI
  6
PHANTOM
 62
     8
 48
5.0
100
AcDbLine
 10
565.5802954485343
 20
135.56071156949
 30
0.0
 11
570.2211954485346
 21
135.56071156949
 31
0.0
  0
ARC
  5
1A46
330
1A
100
AcDbEntity
  8
NOKITOI
  6
PHANTOM
 62
     8
 48
5.0
100
AcDbCircle
 10
565.4248873175302
 20
149.7607037996108
 30
0.0
 40
0.5000077699453767
100
AcDbArc
 50
89.99906827002333
 51
177.3970263848204
  0
LINE
  5
1A47
330
1A
100
AcDbEntity
  8
NOKITOI
  6
PHANTOM
 62
     8
 48
5.0
100
AcDbLine
 10
568.3471954485345
 20
150.26071156949
 30
0.0
 11
571.5211954485345
 21
148.26071156949
 31
0.0
  0
LINE
  5
1A48
330
1A
100
AcDbEntity
  8
NOKITOI
  6
PHANTOM
 62
     8
 48
5.0
100
AcDbLine
 10
570.2211954485346
 20
147.54331156949
 30
0.0
 11
567.9716954485346
 21
148.9607115694899
 31
0.0
  0
LINE
  5
1A49
330
1A
100
AcDbEntity
  8
NOKITOI
  6
PHANTOM
 62
     8
 48
5.0
100
AcDbLine
 10
567.9716954485346
 20
148.9607115694899
 30
0.0
 11
566.1893954485345
 21
148.9607115694899
 31
0.0
  0
LINE
  5
1A4A
330
1A
100
AcDbEntity
  8
NOKITOI
  6
PHANTOM
 62
     8
 48
5.0
100
AcDbLine
 10
565.4248954485345
 20
150.26071156949
 30
0.0
 11
568.3471954485345
 21
150.26071156949
 31
0.0
  0
LINE
  5
1A4B
330
1A
100
AcDbEntity
  8
SEIHIN
100
AcDbLine
 10
451.7158006875043
 20
317.0561097079737
 30
0.0
 11
451.7158006875043
 21
371.4441364148737
 31
0.0
  0
LINE
  5
1A4C
330
1A
100
AcDbEntity
  8
SEIHIN
100
AcDbLine
 10
451.4514317362045
 20
371.4441364148737
 30
0.0
 11
451.4514317362045
 21
317.0561097079737
 31
0.0
  0
LINE
  5
1A4D
330
1A
100
AcDbEntity
  8
SEIHIN
100
AcDbLine
 10
450.9514307229044
 20
371.4441364148737
 30
0.0
 11
450.9514307229044
 21
317.0561097079737
 31
0.0
  0
LINE
  5
1A4E
330
1A
100
AcDbEntity
  8
SEIHIN
100
AcDbLine
 10
447.9514320938044
 20
317.0561097079737
 30
0.0
 11
447.9514320938044
 21
371.4441364148737
 31
0.0
  0
LINE
  5
1A4F
330
1A
100
AcDbEntity
  8
SEIHIN
100
AcDbLine
 10
446.3374128191044
 20
317.0561097079737
 30
0.0
 11
446.3374128191044
 21
371.4441364148737
 31
0.0
  0
LINE
  5
1A50
330
1A
100
AcDbEntity
  8
SEIHIN
100
AcDbLine
 10
459.1456835715044
 20
347.1271773317736
 30
0.0
 11
459.1456835715044
 21
447.6928129309737
 31
0.0
  0
LINE
  5
1A51
330
1A
100
AcDbEntity
  8
SEIHIN
100
AcDbLine
 10
439.5785664765044
 20
316.0561076813737
 30
0.0
 11
439.5785664765044
 21
412.9850431793737
 31
0.0
  0
LINE
  5
1A52
330
1A
100
AcDbEntity
  8
SEIHIN
100
AcDbLine
 10
458.6456900088044
 20
317.0561097079737
 30
0.0
 11
458.6456900088044
 21
333.0561086052736
 31
0.0
  0
LINE
  5
1A53
330
1A
100
AcDbEntity
  8
SEIHIN
100
AcDbLine
 10
459.3123530595044
 20
333.0561086052736
 30
0.0
 11
459.3123530595044
 21
317.0561097079737
 31
0.0
  0
LINE
  5
1A54
330
1A
100
AcDbEntity
  8
SEIHIN
100
AcDbLine
 10
460.4928155987045
 20
342.0561100804737
 30
0.0
 11
460.4928155987045
 21
309.6969142073737
 31
0.0
  0
LINE
  5
1A55
330
1A
100
AcDbEntity
  8
SEIHIN
100
AcDbLine
 10
460.9514360873045
 20
309.6969142073737
 30
0.0
 11
460.9514360873045
 21
342.0561100804737
 31
0.0
  0
LINE
  5
1A56
330
1A
100
AcDbEntity
  8
SEIHIN
100
AcDbLine
 10
461.9514306633043
 20
310.6969162338737
 30
0.0
 11
461.9514306633043
 21
340.9850406908737
 31
0.0
  0
LINE
  5
1A57
330
1A
100
AcDbEntity
  8
SEIHIN
100
AcDbLine
 10
458.8123520462044
 20
315.3240583354737
 30
0.0
 11
458.7647577374045
 21
315.5240207427736
 31
0.0
  0
LINE
  5
1A58
330
1A
100
AcDbEntity
  8
SEIHIN
100
AcDbLine
 10
458.6205517499045
 20
307.4268228822737
 30
0.0
 11
459.4015216081045
 21
308.9383705967737
 31
0.0
  0
LINE
  5
1A59
330
1A
100
AcDbEntity
  8
SEIHIN
100
AcDbLine
 10
427.2640792279044
 20
292.6834687107736
 30
0.0
 11
426.9402434675044
 21
297.3473235481736
 31
0.0
  0
LINE
  5
1A5A
330
1A
100
AcDbEntity
  8
SEIHIN
100
AcDbLine
 10
426.2596143036044
 20
296.0269540065737
 30
0.0
 11
426.2628776579044
 21
299.0410044306736
 31
0.0
  0
LINE
  5
1A5B
330
1A
100
AcDbEntity
  8
SEIHIN
100
AcDbLine
 10
430.2336869387044
 20
297.8420644515737
 30
0.0
 11
430.7985154538044
 21
290.5406891816736
 31
0.0
  0
LINE
  5
1A5C
330
1A
100
AcDbEntity
  8
SEIHIN
100
AcDbLine
 10
437.2284149377044
 20
285.3070809954737
 30
0.0
 11
437.2284149377044
 21
316.0561076813737
 31
0.0
  0
LINE
  5
1A5D
330
1A
100
AcDbEntity
  8
SEIHIN
100
AcDbLine
 10
441.6106899826045
 20
300.0561087840737
 30
0.0
 11
441.6106899826045
 21
286.3782733195736
 31
0.0
  0
LINE
  5
1A5E
330
1A
100
AcDbEntity
  8
SEIHIN
100
AcDbLine
 10
426.6046469657044
 20
282.8533365839737
 30
0.0
 11
426.4342037587044
 21
287.9908695334736
 31
0.0
  0
LINE
  5
1A5F
330
1A
100
AcDbEntity
  8
SEIHIN
100
AcDbLine
 10
430.3018411247044
 20
284.9279060476737
 30
0.0
 11
432.0305322854044
 21
283.8834985607737
 31
0.0
  0
LINE
  5
1A60
330
1A
100
AcDbEntity
  8
SEIHIN
100
AcDbLine
 10
437.9323010890043
 20
285.7513665670736
 30
0.0
 11
435.0711365788045
 21
282.9477950447737
 31
0.0
  0
LINE
  5
1A61
330
1A
100
AcDbEntity
  8
SEIHIN
100
AcDbLine
 10
441.7679344861044
 20
283.2583352440737
 30
0.0
 11
441.6106899826045
 21
286.3782733195736
 31
0.0
  0
LINE
  5
1A62
330
1A
100
AcDbEntity
  8
SEIHIN
100
AcDbLine
 10
434.0720882265046
 20
283.0095380061737
 30
0.0
 11
434.7584729640043
 21
282.9477950447737
 31
0.0
  0
LINE
  5
1A63
330
1A
100
AcDbEntity
  8
SEIHIN
100
AcDbLine
 10
427.1634926645045
 20
276.4030113333737
 30
0.0
 11
427.2876752166044
 21
276.0882317537737
 31
0.0
  0
LINE
  5
1A64
330
1A
100
AcDbEntity
  8
SEIHIN
100
AcDbLine
 10
427.0530266313045
 20
276.8385871761737
 30
0.0
 11
427.1634926645045
 21
276.4030113333737
 31
0.0
  0
LINE
  5
1A65
330
1A
100
AcDbEntity
  8
SEIHIN
100
AcDbLine
 10
426.9119685142045
 20
277.7028470748737
 30
0.0
 11
427.0530266313045
 21
276.8385871761737
 31
0.0
  0
LINE
  5
1A66
330
1A
100
AcDbEntity
  8
SEIHIN
100
AcDbLine
 10
426.8012566118044
 20
278.7705450767737
 30
0.0
 11
426.9119685142045
 21
277.7028470748737
 31
0.0
  0
LINE
  5
1A67
330
1A
100
AcDbEntity
  8
SEIHIN
100
AcDbLine
 10
426.7132764308044
 20
280.0729959720736
 30
0.0
 11
426.8012566118044
 21
278.7705450767737
 31
0.0
  0
LINE
  5
1A68
330
1A
100
AcDbEntity
  8
SEIHIN
100
AcDbLine
 10
426.6511311381045
 20
281.5009593480737
 30
0.0
 11
426.7132764308044
 21
280.0729959720736
 31
0.0
  0
LINE
  5
1A69
330
1A
100
AcDbEntity
  8
SEIHIN
100
AcDbLine
 10
426.3608006386044
 20
274.4689225667736
 30
0.0
 11
427.8470163791045
 21
273.0654790514736
 31
0.0
  0
LINE
  5
1A6A
330
1A
100
AcDbEntity
  8
SEIHIN
100
AcDbLine
 10
428.3962880819044
 20
274.4591176027736
 30
0.0
 11
427.2876752166044
 21
276.0882317537737
 31
0.0
  0
LINE
  5
1A6B
330
1A
100
AcDbEntity
  8
SEIHIN
100
AcDbLine
 10
429.9044234304044
 20
273.0572685116736
 30
0.0
 11
428.3962880819044
 21
274.4591176027736
 31
0.0
  0
LINE
  5
1A6C
330
1A
100
AcDbEntity
  8
SEIHIN
100
AcDbLine
 10
426.6511311381045
 20
281.5009593480737
 30
0.0
 11
426.6046469657044
 21
282.8533365839737
 31
0.0
  0
LINE
  5
1A6D
330
1A
100
AcDbEntity
  8
SEIHIN
100
AcDbLine
 10
432.0305322854044
 20
283.8834985607737
 30
0.0
 11
434.0720882265044
 21
283.0095380061737
 31
0.0
  0
LINE
  5
1A6E
330
1A
100
AcDbEntity
  8
SEIHIN
100
AcDbLine
 10
434.7584729640043
 20
282.9477950447737
 30
0.0
 11
435.0711365788045
 21
282.9477950447737
 31
0.0
  0
LINE
  5
1A6F
330
1A
100
AcDbEntity
  8
SEIHIN
100
AcDbLine
 10
441.7679344861044
 20
283.2583352440737
 30
0.0
 11
435.3880544750045
 21
283.2583352440737
 31
0.0
  0
LINE
  5
1A70
330
1A
100
AcDbEntity
  8
SEIHIN
100
AcDbLine
 10
433.0883657186044
 20
287.7259939426737
 30
0.0
 11
434.9668955056044
 21
286.4111750835737
 31
0.0
  0
LINE
  5
1A71
330
1A
100
AcDbEntity
  8
SEIHIN
100
AcDbLine
 10
427.5988859682044
 20
287.8191485518736
 30
0.0
 11
427.2640792279044
 21
292.6834687107736
 31
0.0
  0
LINE
  5
1A72
330
1A
100
AcDbEntity
  8
SEIHIN
100
AcDbLine
 10
426.3066200165044
 20
292.8106426709736
 30
0.0
 11
426.2596143036044
 21
296.0269540065737
 31
0.0
  0
LINE
  5
1A73
330
1A
100
AcDbEntity
  8
SEIHIN
100
AcDbLine
 10
426.4342037587044
 20
287.9908695334736
 30
0.0
 11
426.3066200165044
 21
292.8106426709736
 31
0.0
  0
LINE
  5
1A74
330
1A
100
AcDbEntity
  8
SEIHIN
100
AcDbLine
 10
428.8911966233044
 20
286.1376419180737
 30
0.0
 11
430.3018411247044
 21
284.9279060476737
 31
0.0
  0
LINE
  5
1A75
330
1A
100
AcDbEntity
  8
SEIHIN
100
AcDbLine
 10
427.7865698187044
 20
287.5175341480737
 30
0.0
 11
428.8911966233044
 21
286.1376419180737
 31
0.0
  0
LINE
  5
1A76
330
1A
100
AcDbEntity
  8
SEIHIN
100
AcDbLine
 10
431.9240336864045
 20
288.8057097309736
 30
0.0
 11
433.0883657186044
 21
287.7259939426737
 31
0.0
  0
LINE
  5
1A77
330
1A
100
AcDbEntity
  8
SEIHIN
100
AcDbLine
 10
430.9748297183044
 20
290.0370522850737
 30
0.0
 11
431.9240336864045
 21
288.8057097309736
 31
0.0
  0
LINE
  5
1A78
330
1A
100
AcDbEntity
  8
SEIHIN
100
AcDbLine
 10
430.9748297183044
 20
290.0370522850737
 30
0.0
 11
430.7985191791045
 21
290.5406295770736
 31
0.0
  0
LINE
  5
1A79
330
1A
100
AcDbEntity
  8
SEIHIN
100
AcDbLine
 10
427.5988859682043
 20
287.8191485518736
 30
0.0
 11
427.6459736375045
 21
287.7408951038736
 31
0.0
  0
LINE
  5
1A7A
330
1A
100
AcDbEntity
  8
SEIHIN
100
AcDbLine
 10
427.6444350927045
 20
287.6444622391736
 30
0.0
 11
427.6459736375045
 21
287.7408951038736
 31
0.0
  0
LINE
  5
1A7B
330
1A
100
AcDbEntity
  8
SEIHIN
100
AcDbLine
 10
427.6444350927045
 20
287.6444622391736
 30
0.0
 11
427.7865698187045
 21
287.5175341480737
 31
0.0
  0
LINE
  5
1A7C
330
1A
100
AcDbEntity
  8
SEIHIN
100
AcDbLine
 10
430.9748308638045
 20
290.0370533579737
 30
0.0
 11
427.6325311932044
 21
287.6493191992736
 31
0.0
  0
LINE
  5
1A7D
330
1A
100
AcDbEntity
  8
SEIHIN
100
AcDbLine
 10
437.3165702073044
 20
285.3629678004737
 30
0.0
 11
437.9323010890044
 21
285.7513665670736
 31
0.0
  0
LINE
  5
1A7E
330
1A
100
AcDbEntity
  8
SEIHIN
100
AcDbLine
 10
437.2284149377044
 20
285.3070809954737
 30
0.0
 11
437.3165702073044
 21
285.3629678004737
 31
0.0
  0
LINE
  5
1A7F
330
1A
100
AcDbEntity
  8
SEIHIN
100
AcDbLine
 10
434.9668955056044
 20
286.4111750835737
 30
0.0
 11
437.2284149377044
 21
285.3070809954737
 31
0.0
  0
LINE
  5
1A80
330
1A
100
AcDbEntity
  8
SEIHIN
100
AcDbLine
 10
438.9048551767046
 20
286.3578959816736
 30
0.0
 11
441.6106899826045
 21
286.3782733195736
 31
0.0
  0
LINE
  5
1A81
330
1A
100
AcDbEntity
  8
SEIHIN
100
AcDbLine
 10
437.9323010890043
 20
286.3505795115737
 30
0.0
 11
438.9048551767046
 21
286.3578959816736
 31
0.0
  0
LINE
  5
1A82
330
1A
100
AcDbEntity
  8
SEIHIN
100
AcDbLine
 10
437.9323010890043
 20
285.7513665670736
 30
0.0
 11
437.9323010890043
 21
286.3505795115737
 31
0.0
  0
LINE
  5
1A83
330
1A
100
AcDbEntity
  8
SEIHIN
100
AcDbLine
 10
441.6106899826045
 20
300.0561087840737
 30
0.0
 11
446.3374128191044
 21
300.0561087840737
 31
0.0
  0
LINE
  5
1A84
330
1A
100
AcDbEntity
  8
SEIHIN
100
AcDbLine
 10
439.5785664765044
 20
316.0561076813737
 30
0.0
 11
452.0532449333045
 21
316.0561076813737
 31
0.0
  0
LINE
  5
1A85
330
1A
100
AcDbEntity
  8
SEIHIN
100
AcDbLine
 10
452.0532449333045
 20
317.0561097079737
 30
0.0
 11
439.5785664765044
 21
317.0561097079737
 31
0.0
  0
LINE
  5
1A86
330
1A
100
AcDbEntity
  8
SEIHIN
100
AcDbLine
 10
429.3750447778045
 20
310.7113629096737
 30
0.0
 11
429.7310595958044
 21
304.5855774992737
 31
0.0
  0
LINE
  5
1A87
330
1A
100
AcDbEntity
  8
SEIHIN
100
AcDbLine
 10
426.5231413393044
 20
306.0422665888736
 30
0.0
 11
426.5518186240045
 21
316.0561076813737
 31
0.0
  0
LINE
  5
1A88
330
1A
100
AcDbEntity
  8
SEIHIN
100
AcDbLine
 10
426.4947769789045
 20
304.8177077883737
 30
0.0
 11
426.4758338778045
 21
304.5049771183737
 31
0.0
  0
LINE
  5
1A89
330
1A
100
AcDbEntity
  8
SEIHIN
100
AcDbLine
 10
426.5147147326044
 20
305.3874276095737
 30
0.0
 11
426.4947769789045
 21
304.8177077883737
 31
0.0
  0
LINE
  5
1A8A
330
1A
100
AcDbEntity
  8
SEIHIN
100
AcDbLine
 10
426.5231413393044
 20
306.0422665888736
 30
0.0
 11
426.5147147326044
 21
305.3874276095737
 31
0.0
  0
LINE
  5
1A8B
330
1A
100
AcDbEntity
  8
SEIHIN
100
AcDbLine
 10
426.6481136529044
 20
301.8344096356736
 30
0.0
 11
426.5643206982044
 21
303.3758379036736
 31
0.0
  0
LINE
  5
1A8C
330
1A
100
AcDbEntity
  8
SEIHIN
100
AcDbLine
 10
426.9402434675044
 20
297.3473235481736
 30
0.0
 11
426.6481136529044
 21
301.8344096356736
 31
0.0
  0
LINE
  5
1A8D
330
1A
100
AcDbEntity
  8
SEIHIN
100
AcDbLine
 10
426.3307375459045
 20
301.8943719083737
 30
0.0
 11
426.4758338778045
 21
304.5049771183737
 31
0.0
  0
LINE
  5
1A8E
330
1A
100
AcDbEntity
  8
SEIHIN
100
AcDbLine
 10
426.2628776579044
 20
299.0410044306736
 30
0.0
 11
426.3307375459045
 21
301.8943719083737
 31
0.0
  0
LINE
  5
1A8F
330
1A
100
AcDbEntity
  8
SEIHIN
100
AcDbLine
 10
429.7310595958044
 20
304.5855774992737
 30
0.0
 11
430.2336869387044
 21
297.8420644515737
 31
0.0
  0
LINE
  5
1A90
330
1A
100
AcDbEntity
  8
SEIHIN
100
AcDbLine
 10
426.5518186240045
 20
316.0561076813737
 30
0.0
 11
439.5785664765044
 21
316.0561076813737
 31
0.0
  0
LINE
  5
1A91
330
1A
100
AcDbEntity
  8
SEIHIN
100
AcDbLine
 10
429.2550941555044
 20
316.0561188572737
 30
0.0
 11
429.3750447778045
 21
310.7113629096737
 31
0.0
  0
LINE
  5
1A92
330
1A
100
AcDbEntity
  8
SEIHIN
100
AcDbLine
 10
451.7158006875043
 20
304.9860164040737
 30
0.0
 11
451.7158006875043
 21
316.0561076813737
 31
0.0
  0
LINE
  5
1A93
330
1A
100
AcDbEntity
  8
SEIHIN
100
AcDbLine
 10
451.4514317362045
 20
316.0561076813737
 30
0.0
 11
451.4514317362045
 21
304.9860164040737
 31
0.0
  0
LINE
  5
1A94
330
1A
100
AcDbEntity
  8
SEIHIN
100
AcDbLine
 10
450.9514307229044
 20
316.0561076813737
 30
0.0
 11
450.9514307229044
 21
304.4153019303736
 31
0.0
  0
LINE
  5
1A95
330
1A
100
AcDbEntity
  8
SEIHIN
100
AcDbLine
 10
447.9514320938044
 20
300.0561087840737
 30
0.0
 11
447.9514320938044
 21
316.0561076813737
 31
0.0
  0
LINE
  5
1A96
330
1A
100
AcDbEntity
  8
SEIHIN
100
AcDbLine
 10
446.3374128191044
 20
300.0561087840737
 30
0.0
 11
446.3374128191044
 21
316.0561076813737
 31
0.0
  0
LINE
  5
1A97
330
1A
100
AcDbEntity
  8
SEIHIN
100
AcDbLine
 10
450.7798587529044
 20
300.0561087840737
 30
0.0
 11
447.9514320938044
 21
300.0561087840737
 31
0.0
  0
LINE
  5
1A98
330
1A
100
AcDbEntity
  8
SEIHIN
100
AcDbLine
 10
446.3374128191044
 20
300.0561087840737
 30
0.0
 11
447.9514320938044
 21
300.0561087840737
 31
0.0
  0
LINE
  5
1A99
330
1A
100
AcDbEntity
  8
SEIHIN
100
AcDbLine
 10
458.2224299757044
 20
306.9653264695737
 30
0.0
 11
458.6205517499045
 21
307.4268228822737
 31
0.0
  0
LINE
  5
1A9A
330
1A
100
AcDbEntity
  8
SEIHIN
100
AcDbLine
 10
457.5314705817045
 20
306.5413064771736
 30
0.0
 11
458.2224299757044
 21
306.9653264695737
 31
0.0
  0
LINE
  5
1A9B
330
1A
100
AcDbEntity
  8
SEIHIN
100
AcDbLine
 10
456.5787871925044
 20
306.1738475674736
 30
0.0
 11
457.5314705817045
 21
306.5413064771736
 31
0.0
  0
LINE
  5
1A9C
330
1A
100
AcDbEntity
  8
SEIHIN
100
AcDbLine
 10
450.9875138847044
 20
304.6490676218737
 30
0.0
 11
450.9514307229044
 21
304.4153019303736
 31
0.0
  0
LINE
  5
1A9D
330
1A
100
AcDbEntity
  8
SEIHIN
100
AcDbLine
 10
451.0876347868044
 20
304.8250503355737
 30
0.0
 11
450.9875138847044
 21
304.6490676218737
 31
0.0
  0
LINE
  5
1A9E
330
1A
100
AcDbEntity
  8
SEIHIN
100
AcDbLine
 10
451.2071122973044
 20
304.9223847204736
 30
0.0
 11
451.0876347868044
 21
304.8250503355737
 31
0.0
  0
LINE
  5
1A9F
330
1A
100
AcDbEntity
  8
SEIHIN
100
AcDbLine
 10
451.3212998955044
 20
304.9690439814737
 30
0.0
 11
451.2071122973044
 21
304.9223847204736
 31
0.0
  0
LINE
  5
1AA0
330
1A
100
AcDbEntity
  8
SEIHIN
100
AcDbLine
 10
451.4514317362044
 20
304.9860164040737
 30
0.0
 11
451.3212998955044
 21
304.9690439814737
 31
0.0
  0
LINE
  5
1AA1
330
1A
100
AcDbEntity
  8
SEIHIN
100
AcDbLine
 10
450.8647953717045
 20
303.0771217757737
 30
0.0
 11
450.7798587529044
 21
301.4153033012737
 31
0.0
  0
LINE
  5
1AA2
330
1A
100
AcDbEntity
  8
SEIHIN
100
AcDbLine
 10
450.9514307229044
 20
304.4153019303736
 30
0.0
 11
450.8647953717045
 21
303.0771217757737
 31
0.0
  0
LINE
  5
1AA3
330
1A
100
AcDbEntity
  8
SEIHIN
100
AcDbLine
 10
455.7427649943044
 20
305.8926142269737
 30
0.0
 11
456.5787871925044
 21
306.1738475674736
 31
0.0
  0
LINE
  5
1AA4
330
1A
100
AcDbEntity
  8
SEIHIN
100
AcDbLine
 10
453.6197742073044
 20
305.2268303447737
 30
0.0
 11
455.7427649943044
 21
305.8926142269737
 31
0.0
  0
LINE
  5
1AA5
330
1A
100
AcDbEntity
  8
SEIHIN
100
AcDbLine
 10
451.7158006875044
 20
304.9860164040737
 30
0.0
 11
453.6197742073044
 21
305.2268303447737
 31
0.0
  0
LINE
  5
1AA6
330
1A
100
AcDbEntity
  8
SEIHIN
100
AcDbLine
 10
451.4514317362045
 20
304.9860164040737
 30
0.0
 11
451.7158006875043
 21
304.9860164040737
 31
0.0
  0
LINE
  5
1AA7
330
1A
100
AcDbEntity
  8
SEIHIN
100
AcDbLine
 10
450.7798587529044
 20
301.4153033012737
 30
0.0
 11
450.7798587529044
 21
300.0561087840737
 31
0.0
  0
LINE
  5
1AA8
330
1A
100
AcDbEntity
  8
SEIHIN
100
AcDbLine
 10
458.6507489531045
 20
316.7088120692736
 30
0.0
 11
458.6456900088045
 21
317.0561097079737
 31
0.0
  0
LINE
  5
1AA9
330
1A
100
AcDbEntity
  8
SEIHIN
100
AcDbLine
 10
458.6657916753045
 20
316.3720681780737
 30
0.0
 11
458.6507489531045
 21
316.7088120692736
 31
0.0
  0
LINE
  5
1AAA
330
1A
100
AcDbEntity
  8
SEIHIN
100
AcDbLine
 10
458.6903487889045
 20
316.0561076813737
 30
0.0
 11
458.6657916753045
 21
316.3720681780737
 31
0.0
  0
LINE
  5
1AAB
330
1A
100
AcDbEntity
  8
SEIHIN
100
AcDbLine
 10
458.7236752360045
 20
315.7705343776737
 30
0.0
 11
458.6903487889045
 21
316.0561076813737
 31
0.0
  0
LINE
  5
1AAC
330
1A
100
AcDbEntity
  8
SEIHIN
100
AcDbLine
 10
458.7647577374045
 20
315.5240207427736
 30
0.0
 11
458.7236752360045
 21
315.7705343776737
 31
0.0
  0
LINE
  5
1AAD
330
1A
100
AcDbEntity
  8
SEIHIN
100
AcDbLine
 10
452.0532449333045
 20
317.0561097079737
 30
0.0
 11
452.0532449333045
 21
316.0561076813737
 31
0.0
  0
LINE
  5
1AAE
330
1A
100
AcDbEntity
  8
SEIHIN
100
AcDbLine
 10
458.8650127499045
 20
315.1767231041736
 30
0.0
 11
458.8123520462044
 21
315.3240583354737
 31
0.0
  0
LINE
  5
1AAF
330
1A
100
AcDbEntity
  8
SEIHIN
100
AcDbLine
 10
458.9211379735045
 20
315.0864928477736
 30
0.0
 11
458.8650127499045
 21
315.1767231041736
 31
0.0
  0
LINE
  5
1AB0
330
1A
100
AcDbEntity
  8
SEIHIN
100
AcDbLine
 10
458.9790215342044
 20
315.0561093801737
 30
0.0
 11
458.9211379735045
 21
315.0864928477736
 31
0.0
  0
LINE
  5
1AB1
330
1A
100
AcDbEntity
  8
SEIHIN
100
AcDbLine
 10
459.0369050948044
 20
315.0864928477736
 30
0.0
 11
458.9790215342044
 21
315.0561093801737
 31
0.0
  0
LINE
  5
1AB2
330
1A
100
AcDbEntity
  8
SEIHIN
100
AcDbLine
 10
459.0930303185045
 20
315.1767231041736
 30
0.0
 11
459.0369050948044
 21
315.0864928477736
 31
0.0
  0
LINE
  5
1AB3
330
1A
100
AcDbEntity
  8
SEIHIN
100
AcDbLine
 10
459.1456835715044
 20
315.3240583354737
 30
0.0
 11
459.0930303185045
 21
315.1767231041736
 31
0.0
  0
LINE
  5
1AB4
330
1A
100
AcDbEntity
  8
SEIHIN
100
AcDbLine
 10
459.1932853310045
 20
315.5240207427736
 30
0.0
 11
459.1456835715044
 21
315.3240583354737
 31
0.0
  0
LINE
  5
1AB5
330
1A
100
AcDbEntity
  8
SEIHIN
100
AcDbLine
 10
459.2343678324045
 20
315.7705343776737
 30
0.0
 11
459.1932853310045
 21
315.5240207427736
 31
0.0
  0
LINE
  5
1AB6
330
1A
100
AcDbEntity
  8
SEIHIN
100
AcDbLine
 10
459.2676942794045
 20
316.0561076813737
 30
0.0
 11
459.2343678324045
 21
315.7705343776737
 31
0.0
  0
LINE
  5
1AB7
330
1A
100
AcDbEntity
  8
SEIHIN
100
AcDbLine
 10
459.2922513930045
 20
316.3720681780737
 30
0.0
 11
459.2676942794045
 21
316.0561076813737
 31
0.0
  0
LINE
  5
1AB8
330
1A
100
AcDbEntity
  8
SEIHIN
100
AcDbLine
 10
459.3072866647044
 20
316.7088120692736
 30
0.0
 11
459.2922513930045
 21
316.3720681780737
 31
0.0
  0
LINE
  5
1AB9
330
1A
100
AcDbEntity
  8
SEIHIN
100
AcDbLine
 10
459.3123530595045
 20
317.0561097079737
 30
0.0
 11
459.3072866647044
 21
316.7088120692736
 31
0.0
  0
LINE
  5
1ABA
330
1A
100
AcDbEntity
  8
SEIHIN
100
AcDbLine
 10
459.4721009581045
 20
309.0964346641736
 30
0.0
 11
459.5064183323045
 21
309.1896563285736
 31
0.0
  0
LINE
  5
1ABB
330
1A
100
AcDbEntity
  8
SEIHIN
100
AcDbLine
 10
459.4371055810045
 20
309.0126156324736
 30
0.0
 11
459.4721009581045
 21
309.0964346641736
 31
0.0
  0
LINE
  5
1ABC
330
1A
100
AcDbEntity
  8
SEIHIN
100
AcDbLine
 10
459.4015216081045
 20
308.9383705967737
 30
0.0
 11
459.4371055810045
 21
309.0126156324736
 31
0.0
  0
LINE
  5
1ABD
330
1A
100
AcDbEntity
  8
SEIHIN
100
AcDbLine
 10
459.5595111696045
 20
309.2884324008737
 30
0.0
 11
459.5064183323045
 21
309.1896563285736
 31
0.0
  0
LINE
  5
1ABE
330
1A
100
AcDbEntity
  8
SEIHIN
100
AcDbLine
 10
459.7323795406044
 20
309.4565622025737
 30
0.0
 11
459.5595111696045
 21
309.2884324008737
 31
0.0
  0
LINE
  5
1ABF
330
1A
100
AcDbEntity
  8
SEIHIN
100
AcDbLine
 10
459.9521940200044
 20
309.5826446527736
 30
0.0
 11
459.7323795406044
 21
309.4565622025737
 31
0.0
  0
LINE
  5
1AC0
330
1A
100
AcDbEntity
  8
SEIHIN
100
AcDbLine
 10
460.2055063097044
 20
309.6656366699737
 30
0.0
 11
459.9521940200044
 21
309.5826446527736
 31
0.0
  0
LINE
  5
1AC1
330
1A
100
AcDbEntity
  8
SEIHIN
100
AcDbLine
 10
460.4928155987045
 20
309.6969142073737
 30
0.0
 11
460.2055063097044
 21
309.6656366699737
 31
0.0
  0
LINE
  5
1AC2
330
1A
100
AcDbEntity
  8
SEIHIN
100
AcDbLine
 10
461.1207058279044
 20
309.7077771538736
 30
0.0
 11
460.9514360873044
 21
309.6969142073737
 31
0.0
  0
LINE
  5
1AC3
330
1A
100
AcDbEntity
  8
SEIHIN
100
AcDbLine
 10
461.4271780102044
 20
309.7901284211737
 30
0.0
 11
461.1207058279044
 21
309.7077771538736
 31
0.0
  0
LINE
  5
1AC4
330
1A
100
AcDbEntity
  8
SEIHIN
100
AcDbLine
 10
461.6645907609045
 20
309.9397025519737
 30
0.0
 11
461.4271780102044
 21
309.7901284211737
 31
0.0
  0
LINE
  5
1AC5
330
1A
100
AcDbEntity
  8
SEIHIN
100
AcDbLine
 10
461.8469288199045
 20
310.1808890217736
 30
0.0
 11
461.6645907609045
 21
309.9397025519737
 31
0.0
  0
LINE
  5
1AC6
330
1A
100
AcDbEntity
  8
SEIHIN
100
AcDbLine
 10
461.9514306633044
 20
310.6969162338737
 30
0.0
 11
461.8469288199045
 21
310.1808890217736
 31
0.0
  0
LINE
  5
1AC7
330
1A
100
AcDbEntity
  8
SEIHIN
100
AcDbLine
 10
460.4928155987045
 20
309.6969142073737
 30
0.0
 11
460.9514360873045
 21
309.6969142073737
 31
0.0
  0
LINE
  5
1AC8
330
1A
100
AcDbEntity
  8
SEIHIN
100
AcDbLine
 10
458.7647577374045
 20
334.5881975704737
 30
0.0
 11
458.8123520462044
 21
334.7881599777736
 31
0.0
  0
LINE
  5
1AC9
330
1A
100
AcDbEntity
  8
SEIHIN
100
AcDbLine
 10
458.7236752360045
 20
334.3416839355737
 30
0.0
 11
458.7647577374045
 21
334.5881975704737
 31
0.0
  0
LINE
  5
1ACA
330
1A
100
AcDbEntity
  8
SEIHIN
100
AcDbLine
 10
458.6903487889045
 20
334.0561087691737
 30
0.0
 11
458.7236752360045
 21
334.3416839355737
 31
0.0
  0
LINE
  5
1ACB
330
1A
100
AcDbEntity
  8
SEIHIN
100
AcDbLine
 10
458.6657916753045
 20
333.7401501351737
 30
0.0
 11
458.6903487889045
 21
334.0561087691737
 31
0.0
  0
LINE
  5
1ACC
330
1A
100
AcDbEntity
  8
SEIHIN
100
AcDbLine
 10
458.6507489531045
 20
333.4034062439737
 30
0.0
 11
458.6657916753045
 21
333.7401501351737
 31
0.0
  0
LINE
  5
1ACD
330
1A
100
AcDbEntity
  8
SEIHIN
100
AcDbLine
 10
458.6456900088045
 20
333.0561086052736
 30
0.0
 11
458.6507489531045
 21
333.4034062439737
 31
0.0
  0
LINE
  5
1ACE
330
1A
100
AcDbEntity
  8
SEIHIN
100
AcDbLine
 10
459.6232881395044
 20
342.5622168445736
 30
0.0
 11
459.7230141608044
 21
342.4178264552736
 31
0.0
  0
LINE
  5
1ACF
330
1A
100
AcDbEntity
  8
SEIHIN
100
AcDbLine
 10
460.3180100767045
 20
342.0715067052736
 30
0.0
 11
460.4928155987045
 21
342.0561100804737
 31
0.0
  0
LINE
  5
1AD0
330
1A
100
AcDbEntity
  8
SEIHIN
100
AcDbLine
 10
460.1485913245044
 20
342.1172216051737
 30
0.0
 11
460.3180100767045
 21
342.0715067052736
 31
0.0
  0
LINE
  5
1AD1
330
1A
100
AcDbEntity
  8
SEIHIN
100
AcDbLine
 10
459.9897672979044
 20
342.1918484830737
 30
0.0
 11
460.1485913245044
 21
342.1172216051737
 31
0.0
  0
LINE
  5
1AD2
330
1A
100
AcDbEntity
  8
SEIHIN
100
AcDbLine
 10
459.8464404790044
 20
342.2930888348737
 30
0.0
 11
459.9897672979044
 21
342.1918484830737
 31
0.0
  0
LINE
  5
1AD3
330
1A
100
AcDbEntity
  8
SEIHIN
100
AcDbLine
 10
459.7230141608044
 20
342.4178264552736
 30
0.0
 11
459.8464404790044
 21
342.2930888348737
 31
0.0
  0
LINE
  5
1AD4
330
1A
100
AcDbEntity
  8
SEIHIN
100
AcDbLine
 10
461.7387687413045
 20
341.6726380103737
 30
0.0
 11
461.8370269982044
 21
341.5205753856736
 31
0.0
  0
LINE
  5
1AD5
330
1A
100
AcDbEntity
  8
SEIHIN
100
AcDbLine
 10
461.6147016732044
 20
341.8044909352736
 30
0.0
 11
461.7387687413045
 21
341.6726380103737
 31
0.0
  0
LINE
  5
1AD6
330
1A
100
AcDbEntity
  8
SEIHIN
100
AcDbLine
 10
461.4688938110045
 20
341.9118146860736
 30
0.0
 11
461.6147016732044
 21
341.8044909352736
 31
0.0
  0
LINE
  5
1AD7
330
1A
100
AcDbEntity
  8
SEIHIN
100
AcDbLine
 10
461.3061284272044
 20
341.9910907262737
 30
0.0
 11
461.4688938110045
 21
341.9118146860736
 31
0.0
  0
LINE
  5
1AD8
330
1A
100
AcDbEntity
  8
SEIHIN
100
AcDbLine
 10
461.1317326872044
 20
342.0397206658737
 30
0.0
 11
461.3061284272044
 21
341.9910907262737
 31
0.0
  0
LINE
  5
1AD9
330
1A
100
AcDbEntity
  8
SEIHIN
100
AcDbLine
 10
460.9514360873044
 20
342.0561100804737
 30
0.0
 11
461.1317326872044
 21
342.0397206658737
 31
0.0
  0
LINE
  5
1ADA
330
1A
100
AcDbEntity
  8
SEIHIN
100
AcDbLine
 10
461.9426315276044
 20
341.1538801604737
 30
0.0
 11
461.9514306633044
 21
340.9850406908737
 31
0.0
  0
LINE
  5
1ADB
330
1A
100
AcDbEntity
  8
SEIHIN
100
AcDbLine
 10
461.8370269982044
 20
341.5205753856736
 30
0.0
 11
461.9426315276044
 21
341.1538801604737
 31
0.0
  0
LINE
  5
1ADC
330
1A
100
AcDbEntity
  8
SEIHIN
100
AcDbLine
 10
459.3072866647044
 20
333.4034062439737
 30
0.0
 11
459.3123530595045
 21
333.0561086052736
 31
0.0
  0
LINE
  5
1ADD
330
1A
100
AcDbEntity
  8
SEIHIN
100
AcDbLine
 10
459.2922513930045
 20
333.7401501351737
 30
0.0
 11
459.3072866647044
 21
333.4034062439737
 31
0.0
  0
LINE
  5
1ADE
330
1A
100
AcDbEntity
  8
SEIHIN
100
AcDbLine
 10
459.2676942794045
 20
334.0561087691737
 30
0.0
 11
459.2922513930045
 21
333.7401501351737
 31
0.0
  0
LINE
  5
1ADF
330
1A
100
AcDbEntity
  8
SEIHIN
100
AcDbLine
 10
459.2343678324045
 20
334.3416839355737
 30
0.0
 11
459.2676942794045
 21
334.0561087691737
 31
0.0
  0
LINE
  5
1AE0
330
1A
100
AcDbEntity
  8
SEIHIN
100
AcDbLine
 10
459.1932853310045
 20
334.5881975704737
 30
0.0
 11
459.2343678324045
 21
334.3416839355737
 31
0.0
  0
LINE
  5
1AE1
330
1A
100
AcDbEntity
  8
SEIHIN
100
AcDbLine
 10
459.1456835715044
 20
334.7881599777736
 30
0.0
 11
459.1932853310045
 21
334.5881975704737
 31
0.0
  0
LINE
  5
1AE2
330
1A
100
AcDbEntity
  8
SEIHIN
100
AcDbLine
 10
459.0930303185045
 20
334.9354952090737
 30
0.0
 11
459.1456835715044
 21
334.7881599777736
 31
0.0
  0
LINE
  5
1AE3
330
1A
100
AcDbEntity
  8
SEIHIN
100
AcDbLine
 10
459.0369050948044
 20
335.0257254654737
 30
0.0
 11
459.0930303185045
 21
334.9354952090737
 31
0.0
  0
LINE
  5
1AE4
330
1A
100
AcDbEntity
  8
SEIHIN
100
AcDbLine
 10
458.9790215342044
 20
335.0561089330737
 30
0.0
 11
459.0369050948044
 21
335.0257254654737
 31
0.0
  0
LINE
  5
1AE5
330
1A
100
AcDbEntity
  8
SEIHIN
100
AcDbLine
 10
458.9211379735045
 20
335.0257254654737
 30
0.0
 11
458.9790215342044
 21
335.0561089330737
 31
0.0
  0
LINE
  5
1AE6
330
1A
100
AcDbEntity
  8
SEIHIN
100
AcDbLine
 10
458.8650127499045
 20
334.9354952090737
 30
0.0
 11
458.9211379735045
 21
335.0257254654737
 31
0.0
  0
LINE
  5
1AE7
330
1A
100
AcDbEntity
  8
SEIHIN
100
AcDbLine
 10
458.8123520462044
 20
334.7881599777736
 30
0.0
 11
458.8650127499045
 21
334.9354952090737
 31
0.0
  0
LINE
  5
1AE8
330
1A
100
AcDbEntity
  8
SEIHIN
100
AcDbLine
 10
460.9514360873045
 20
342.0561100804737
 30
0.0
 11
460.4928155987045
 21
342.0561100804737
 31
0.0
  0
LINE
  5
1AE9
330
1A
100
AcDbEntity
  8
SEIHIN
100
AcDbLine
 10
459.5503469555044
 20
342.7218157315737
 30
0.0
 11
459.6232881395044
 21
342.5622168445736
 31
0.0
  0
LINE
  5
1AEA
330
1A
100
AcDbEntity
  8
SEIHIN
100
AcDbLine
 10
459.5064183323045
 20
342.8917094582737
 30
0.0
 11
459.5503469555044
 21
342.7218157315737
 31
0.0
  0
LINE
  5
1AEB
330
1A
100
AcDbEntity
  8
SEIHIN
100
AcDbLine
 10
459.1617023198044
 20
346.1517249682736
 30
0.0
 11
459.1456835715044
 21
347.1271773317736
 31
0.0
  0
LINE
  5
1AEC
330
1A
100
AcDbEntity
  8
SEIHIN
100
AcDbLine
 10
459.2091178147044
 20
345.2137592697737
 30
0.0
 11
459.1617023198044
 21
346.1517249682736
 31
0.0
  0
LINE
  5
1AED
330
1A
100
AcDbEntity
  8
SEIHIN
100
AcDbLine
 10
459.2861270158044
 20
344.3493261450736
 30
0.0
 11
459.2091178147044
 21
345.2137592697737
 31
0.0
  0
LINE
  5
1AEE
330
1A
100
AcDbEntity
  8
SEIHIN
100
AcDbLine
 10
459.3897645919045
 20
343.5916430765737
 30
0.0
 11
459.2861270158044
 21
344.3493261450736
 31
0.0
  0
LINE
  5
1AEF
330
1A
100
AcDbEntity
  8
SEIHIN
100
AcDbLine
 10
459.5064183323045
 20
342.8917094582737
 30
0.0
 11
459.3897645919044
 21
343.5916430765737
 31
0.0
  0
LINE
  5
1AF0
330
1A
100
AcDbEntity
  8
SEIHIN
100
AcDbLine
 10
450.9514307229044
 20
371.4441364148737
 30
0.0
 11
450.9514307229044
 21
418.4441357368737
 31
0.0
  0
LINE
  5
1AF1
330
1A
100
AcDbEntity
  8
SEIHIN
100
AcDbLine
 10
453.9514293520044
 20
371.4441364148737
 30
0.0
 11
453.9514293520044
 21
418.4441357368737
 31
0.0
  0
LINE
  5
1AF2
330
1A
100
AcDbEntity
  8
SEIHIN
100
AcDbLine
 10
443.7275563924045
 20
371.4441364148737
 30
0.0
 11
443.7275563924045
 21
423.9128991478737
 31
0.0
  0
LINE
  5
1AF3
330
1A
100
AcDbEntity
  8
SEIHIN
100
AcDbLine
 10
443.7275563924045
 20
371.4441364148737
 30
0.0
 11
450.9514307229044
 21
371.4441364148737
 31
0.0
  0
LINE
  5
1AF4
330
1A
100
AcDbEntity
  8
SEIHIN
100
AcDbLine
 10
450.9514307229044
 20
371.4441364148737
 30
0.0
 11
453.9514293520044
 21
371.4441364148737
 31
0.0
  0
LINE
  5
1AF5
330
1A
100
AcDbEntity
  8
SEIHIN
100
AcDbLine
 10
458.4849288313044
 20
449.8927905672737
 30
0.0
 11
458.8474070279044
 21
449.2106899136737
 31
0.0
  0
LINE
  5
1AF6
330
1A
100
AcDbEntity
  8
SEIHIN
100
AcDbLine
 10
451.7158006875043
 20
430.6383870953737
 30
0.0
 11
451.7158006875043
 21
441.2085042113737
 31
0.0
  0
LINE
  5
1AF7
330
1A
100
AcDbEntity
  8
SEIHIN
100
AcDbLine
 10
457.1456835715044
 20
430.6383870953737
 30
0.0
 11
457.1456835715044
 21
447.6383870953737
 31
0.0
  0
LINE
  5
1AF8
330
1A
100
AcDbEntity
  8
SEIHIN
100
AcDbLine
 10
451.4514317362045
 20
440.9441352599737
 30
0.0
 11
451.4514317362045
 21
418.4441357368737
 31
0.0
  0
LINE
  5
1AF9
330
1A
100
AcDbEntity
  8
SEIHIN
100
AcDbLine
 10
432.5826193118044
 20
436.2202572080737
 30
0.0
 11
443.7275536842044
 21
425.0753228355737
 31
0.0
  0
LINE
  5
1AFA
330
1A
100
AcDbEntity
  8
SEIHIN
100
AcDbLine
 10
443.0881699173044
 20
425.7147028559736
 30
0.0
 11
433.2219993322044
 21
435.5808734410737
 31
0.0
  0
LINE
  5
1AFB
330
1A
100
AcDbEntity
  8
SEIHIN
100
AcDbLine
 10
450.9514307229044
 20
418.4441357368737
 30
0.0
 11
450.9514307229044
 21
440.4441342467736
 31
0.0
  0
LINE
  5
1AFC
330
1A
100
AcDbEntity
  8
SEIHIN
100
AcDbLine
 10
449.7792606799044
 20
439.2719642037737
 30
0.0
 11
449.7792606799044
 21
418.4441357368737
 31
0.0
  0
LINE
  5
1AFD
330
1A
100
AcDbEntity
  8
SEIHIN
100
AcDbLine
 10
448.9514341204044
 20
418.4441357368737
 30
0.0
 11
448.9514341204044
 21
438.4441376441736
 31
0.0
  0
LINE
  5
1AFE
330
1A
100
AcDbEntity
  8
SEIHIN
100
AcDbLine
 10
439.2967110126044
 20
414.6400667244737
 30
0.0
 11
439.1294678299045
 21
415.0561108702736
 31
0.0
  0
LINE
  5
1AFF
330
1A
100
AcDbEntity
  8
SEIHIN
100
AcDbLine
 10
439.5785664765044
 20
412.9850431793737
 30
0.0
 11
439.2967110126044
 21
414.6400667244737
 31
0.0
  0
ARC
  5
1B00
330
1A
100
AcDbEntity
  8
SEIHIN
100
AcDbCircle
 10
434.5785657179044
 20
412.9850413640737
 30
0.0
 40
5.0
100
AcDbArc
 50
24.46980052049959
 51
44.99999999999942
  0
LINE
  5
1B01
330
1A
100
AcDbEntity
  8
SEIHIN
100
AcDbLine
 10
448.9514341204044
 20
418.4441357368737
 30
0.0
 11
450.9514307229044
 21
418.4441357368737
 31
0.0
  0
LINE
  5
1B02
330
1A
100
AcDbEntity
  8
SEIHIN
100
AcDbLine
 10
450.9514307229044
 20
418.4441357368737
 30
0.0
 11
453.9514293520044
 21
418.4441357368737
 31
0.0
  0
LINE
  5
1B03
330
1A
100
AcDbEntity
  8
SEIHIN
100
AcDbLine
 10
443.6554645745044
 20
424.6260240191736
 30
0.0
 11
443.7275563924044
 21
423.9128991478737
 31
0.0
  0
LINE
  5
1B04
330
1A
100
AcDbEntity
  8
SEIHIN
100
AcDbLine
 10
443.4407686441044
 20
425.2310409659737
 30
0.0
 11
443.6554645745044
 21
424.6260240191736
 31
0.0
  0
LINE
  5
1B05
330
1A
100
AcDbEntity
  8
SEIHIN
100
AcDbLine
 10
443.0881699173044
 20
425.7147028559736
 30
0.0
 11
443.4407686441044
 21
425.2310409659737
 31
0.0
  0
LINE
  5
1B06
330
1A
100
AcDbEntity
  8
SEIHIN
100
AcDbLine
 10
451.7158006875043
 20
430.6383870953737
 30
0.0
 11
457.1456835715044
 21
430.6383870953737
 31
0.0
  0
LINE
  5
1B07
330
1A
100
AcDbEntity
  8
SEIHIN
100
AcDbLine
 10
438.1456835715044
 20
444.2085042113737
 30
0.0
 11
448.7158006875043
 21
444.2085042113737
 31
0.0
  0
LINE
  5
1B08
330
1A
100
AcDbEntity
  8
SEIHIN
100
AcDbLine
 10
438.1456835715044
 20
449.6383870953737
 30
0.0
 11
455.1456835715044
 21
449.6383870953737
 31
0.0
  0
LINE
  5
1B09
330
1A
100
AcDbEntity
  8
SEIHIN
100
AcDbLine
 10
438.1456835715044
 20
444.2085042113737
 30
0.0
 11
438.1456835715044
 21
449.6383870953737
 31
0.0
  0
LINE
  5
1B0A
330
1A
100
AcDbEntity
  8
SEIHIN
100
AcDbLine
 10
432.1333204953045
 20
436.1481680983737
 30
0.0
 11
431.4201956241045
 21
436.2202599161737
 31
0.0
  0
LINE
  5
1B0B
330
1A
100
AcDbEntity
  8
SEIHIN
100
AcDbLine
 10
432.7383374421045
 20
435.9334721678737
 30
0.0
 11
432.1333204953045
 21
436.1481680983737
 31
0.0
  0
LINE
  5
1B0C
330
1A
100
AcDbEntity
  8
SEIHIN
100
AcDbLine
 10
433.2219993322044
 20
435.5808734410737
 30
0.0
 11
432.7383374421045
 21
435.9334721678737
 31
0.0
  0
ARC
  5
1B0D
330
1A
100
AcDbEntity
  8
SEIHIN
100
AcDbCircle
 10
-447.9514307229044
 20
440.4441342467736
 30
0.0
 40
3.0
210
0.0
220
0.0
230
-1.0
100
AcDbArc
 50
90.0
 51
180.0
  0
ARC
  5
1B0E
330
1A
100
AcDbEntity
  8
SEIHIN
100
AcDbCircle
 10
-448.4514317362045
 20
440.9441352599737
 30
0.0
 40
3.0
210
0.0
220
0.0
230
-1.0
100
AcDbArc
 50
90.0
 51
180.0
  0
ARC
  5
1B0F
330
1A
100
AcDbEntity
  8
SEIHIN
100
AcDbCircle
 10
-448.7158006875043
 20
441.2085042113737
 30
0.0
 40
3.0
210
0.0
220
0.0
230
-1.0
100
AcDbArc
 50
90.0
 51
180.0
  0
ARC
  5
1B10
330
1A
100
AcDbEntity
  8
SEIHIN
100
AcDbCircle
 10
-446.7792606799044
 20
439.2719642037737
 30
0.0
 40
3.0
210
0.0
220
0.0
230
-1.0
100
AcDbArc
 50
90.0
 51
180.0
  0
ARC
  5
1B11
330
1A
100
AcDbEntity
  8
SEIHIN
100
AcDbCircle
 10
-445.9514341204044
 20
438.4441376441736
 30
0.0
 40
3.0
210
0.0
220
0.0
230
-1.0
100
AcDbArc
 50
90.0
 51
180.0
  0
LINE
  5
1B12
330
1A
100
AcDbEntity
  8
SEIHIN
100
AcDbLine
 10
457.9964464156045
 20
450.4891499394737
 30
0.0
 11
458.4849288313044
 21
449.8927905672737
 31
0.0
  0
LINE
  5
1B13
330
1A
100
AcDbEntity
  8
SEIHIN
100
AcDbLine
 10
457.4000870435045
 20
450.9776323550736
 30
0.0
 11
457.9964464156045
 21
450.4891499394737
 31
0.0
  0
LINE
  5
1B14
330
1A
100
AcDbEntity
  8
SEIHIN
100
AcDbLine
 10
456.7179863898044
 20
451.3401105517736
 30
0.0
 11
457.4000870435045
 21
450.9776323550736
 31
0.0
  0
LINE
  5
1B15
330
1A
100
AcDbEntity
  8
SEIHIN
100
AcDbLine
 10
455.9754764287044
 20
451.5631213301737
 30
0.0
 11
456.7179863898044
 21
451.3401105517736
 31
0.0
  0
LINE
  5
1B16
330
1A
100
AcDbEntity
  8
SEIHIN
100
AcDbLine
 10
455.2001094072044
 20
451.6383870953737
 30
0.0
 11
455.9754764287044
 21
451.5631213301737
 31
0.0
  0
ARC
  5
1B17
330
1A
100
AcDbEntity
  8
SEIHIN
100
AcDbCircle
 10
-455.1456835715044
 20
447.6383870953737
 30
0.0
 40
2.0
210
0.0
220
0.0
230
-1.0
100
AcDbArc
 50
90.0
 51
180.0
  0
LINE
  5
1B18
330
1A
100
AcDbEntity
  8
SEIHIN
100
AcDbLine
 10
459.0704178064045
 20
448.4681799524736
 30
0.0
 11
459.1456835715044
 21
447.6928129309737
 31
0.0
  0
LINE
  5
1B19
330
1A
100
AcDbEntity
  8
SEIHIN
100
AcDbLine
 10
458.8474070279044
 20
449.2106899136737
 30
0.0
 11
459.0704178064045
 21
448.4681799524736
 31
0.0
  0
VIEWPORT
  5
22
330
17
100
AcDbEntity
 67
     1
  8
0
100
AcDbViewport
 10
313.6808219178083
 20
148.5
 30
0.0
 40
627.3616438356165
 41
297.0
 68
     2
 69
     1
 12
313.6808219178083
 22
148.5
 13
0.0
 23
0.0
 14
1.0
 24
1.0
 15
10.0
 25
10.0
 16
0.0
 26
0.0
 36
1.0
 17
0.0
 27
0.0
 37
0.0
 42
50.0
 43
0.0
 44
0.0
 45
297.0
 50
0.0
 51
0.0
 72
   100
 90
    32768
  1

281
     0
 71
     1
 74
     0
110
0.0
120
0.0
130
0.0
111
1.0
121
0.0
131
0.0
112
0.0
122
1.0
132
0.0
 79
     0
146
0.0
  0
VIEWPORT
  5
64
330
17
100
AcDbEntity
 67
     1
  8
VIEWPORT
100
AcDbViewport
 10
210.0
 20
148.5
 30
0.0
 40
420.0
 41
297.0
 68
     1
 69
     2
 12
420.0
 22
297.0
 13
0.0
 23
0.0
 14
10.0
 24
10.0
 15
0.0
 25
0.0
 16
0.0
 26
0.0
 36
1.0
 17
0.0
 27
0.0
 37
0.0
 42
50.0
 43
0.0
 44
0.0
 45
605.8799999999999
 50
0.0
 51
0.0
 72
   100
 90
    32768
  1

281
     0
 71
     1
 74
     0
110
0.0
120
0.0
130
0.0
111
1.0
121
0.0
131
0.0
112
0.0
122
1.0
132
0.0
 79
     0
146
0.0
  0
ENDSEC
  0
SECTION
  2
OBJECTS
  0
DICTIONARY
  5
C
330
0
100
AcDbDictionary
281
     1
  3
ACAD_GROUP
350
D
  3
ACAD_LAYOUT
350
4BC
  3
ACAD_MLINESTYLE
350
E
  3
ACAD_PLOTSETTINGS
350
4BD
  3
ACAD_PLOTSTYLENAME
350
4BA
  0
DICTIONARY
  5
D
102
{ACAD_REACTORS
330
C
102
}
330
C
100
AcDbDictionary
281
     1
  0
DICTIONARY
  5
4BC
102
{ACAD_REACTORS
330
C
102
}
330
C
100
AcDbDictionary
281
     1
  3
Model
350
4BE
  3
ﾚｲｱｳﾄ1
350
4BF
  0
DICTIONARY
  5
E
102
{ACAD_REACTORS
330
C
102
}
330
C
100
AcDbDictionary
281
     1
  3
STANDARD
350
13
  0
DICTIONARY
  5
4BD
102
{ACAD_REACTORS
330
C
102
}
330
C
100
AcDbDictionary
281
     1
  0
ACDBDICTIONARYWDFLT
  5
4BA
102
{ACAD_REACTORS
330
C
102
}
330
C
100
AcDbDictionary
281
     1
  3
Normal
350
4BB
100
AcDbDictionaryWithDefault
340
4BB
1001
ACAD
1000
TREAT_AS_HARD
1070
     0
1000
TREAT_AS_HARD
1070
     0
1000
TREAT_AS_HARD
1070
     0
1000
TREAT_AS_HARD
1070
     0
  0
LAYOUT
  5
4BE
102
{ACAD_REACTORS
330
4BC
102
}
330
4BC
100
AcDbPlotSettings
  1

  2
Canon LASER SHOT LBP-2360
  4
A3
  6

 40
5.873749732971191
 41
5.873747825622559
 42
5.873748779296875
 43
5.873748779296875
 44
296.9259948730469
 45
419.9466552734375
 46
0.0
 47
0.0
 48
0.0
 49
0.0
140
0.0
141
0.0
142
1.0
143
2.0
 70
 28336
 72
     1
 73
     1
 74
     2
  7
systemprinter.ctb
 75
    17
147
0.5
148
0.0
149
0.0
100
AcDbLayout
  1
Model
 70
     1
 71
     0
 10
0.0
 20
0.0
 11
12.0
 21
9.0
 12
0.0
 22
0.0
 32
0.0
 14
0.0
 24
0.0
 34
0.0
 15
0.0
 25
0.0
 35
0.0
146
0.0
 13
0.0
 23
0.0
 33
0.0
 16
1.0
 26
0.0
 36
0.0
 17
0.0
 27
1.0
 37
0.0
 76
     0
330
1A
  0
LAYOUT
  5
4BF
102
{ACAD_REACTORS
330
4BC
102
}
330
4BC
100
AcDbPlotSettings
  1

  2
Canon LBP-730 LIPS4
  4

  6

 40
0.0
 41
0.0
 42
0.0
 43
0.0
 44
0.0
 45
0.0
 46
0.0
 47
0.0
 48
0.0
 49
0.0
140
0.0
141
0.0
142
1.0
143
1.0
 70
   688
 72
     0
 73
     0
 74
     5
  7
systemprinter.ctb
 75
    16
147
1.0
148
0.0
149
0.0
100
AcDbLayout
  1
ﾚｲｱｳﾄ1
 70
     1
 71
     1
 10
0.0
 20
0.0
 11
420.0
 21
297.0
 12
0.0
 22
0.0
 32
0.0
 14
0.0
 24
0.0
 34
0.0
 15
420.0
 25
297.0
 35
0.0
146
0.0
 13
0.0
 23
0.0
 33
0.0
 16
1.0
 26
0.0
 36
0.0
 17
0.0
 27
1.0
 37
0.0
 76
     0
330
17
331
64
  0
MLINESTYLE
  5
13
102
{ACAD_REACTORS
330
E
102
}
330
E
100
AcDbMlineStyle
  2
STANDARD
 70
     0
  3

 62
     0
 51
90.0
 52
90.0
 71
     2
 49
0.5
 62
   256
  6
BYLAYER
 49
-0.5
 62
   256
  6
BYLAYER
  0
ACDBPLACEHOLDER
  5
4BB
102
{ACAD_REACTORS
330
4BA
102
}
330
4BA
  0
ENDSEC
  0
EOF
