  0
SECTION
  2
HEADER
  9
$ACADVER
  1
AC1015
  9
$ACADMAINTVER
 70
     6
  9
$DWGCODEPAGE
  3
ANSI_932
  9
$INSBASE
 10
0.0
 20
0.0
 30
0.0
  9
$EXTMIN
 10
10.05047808566086
 20
13.78258628282265
 30
0.0
  9
$EXTMAX
 10
807.6504780856607
 20
565.3825862828227
 30
0.0
  9
$LIMMIN
 10
0.0
 20
0.0
  9
$LIMMAX
 10
840.0
 20
594.0
  9
$ORTHOMODE
 70
     1
  9
$REGENMODE
 70
     1
  9
$FILLMODE
 70
     1
  9
$QTEXTMODE
 70
     0
  9
$MIRRTEXT
 70
     1
  9
$LTSCALE
 40
2.0
  9
$ATTMODE
 70
     1
  9
$TEXTSIZE
 40
5.0
  9
$TRACEWID
 40
1.0
  9
$TEXTSTYLE
  7
STANDARD
  9
$CLAYER
  8
SEIHIN
  9
$CELTYPE
  6
BYLAYER
  9
$CECOLOR
 62
   256
  9
$CELTSCALE
 40
1.0
  9
$DISPSILH
 70
     0
  9
$DIMSCALE
 40
1.0
  9
$DIMASZ
 40
7.0
  9
$DIMEXO
 40
6.0
  9
$DIMDLI
 40
14.0
  9
$DIMRND
 40
0.0
  9
$DIMDLE
 40
0.0
  9
$DIMEXE
 40
3.0
  9
$DIMTP
 40
0.0
  9
$DIMTM
 40
0.0
  9
$DIMTXT
 40
6.0
  9
$DIMCEN
 40
150.0
  9
$DIMTSZ
 40
0.0
  9
$DIMTOL
 70
     0
  9
$DIMLIM
 70
     0
  9
$DIMTIH
 70
     0
  9
$DIMTOH
 70
     0
  9
$DIMSE1
 70
     0
  9
$DIMSE2
 70
     0
  9
$DIMTAD
 70
     3
  9
$DIMZIN
 70
     0
  9
$DIMBLK
  1

  9
$DIMASO
 70
     1
  9
$DIMSHO
 70
     1
  9
$DIMPOST
  1

  9
$DIMAPOST
  1

  9
$DIMALT
 70
     0
  9
$DIMALTD
 70
     2
  9
$DIMALTF
 40
25.4
  9
$DIMLFAC
 40
1.0
  9
$DIMTOFL
 70
     1
  9
$DIMTVP
 40
0.0
  9
$DIMTIX
 70
     0
  9
$DIMSOXD
 70
     0
  9
$DIMSAH
 70
     1
  9
$DIMBLK1
  1
OPEN
  9
$DIMBLK2
  1
OPEN
  9
$DIMSTYLE
  2
STANDARD
  9
$DIMCLRD
 70
   256
  9
$DIMCLRE
 70
   256
  9
$DIMCLRT
 70
   256
  9
$DIMTFAC
 40
1.0
  9
$DIMGAP
 40
2.0
  9
$DIMJUST
 70
     0
  9
$DIMSD1
 70
     0
  9
$DIMSD2
 70
     0
  9
$DIMTOLJ
 70
     1
  9
$DIMTZIN
 70
     0
  9
$DIMALTZ
 70
     0
  9
$DIMALTTZ
 70
     0
  9
$DIMUPT
 70
     0
  9
$DIMDEC
 70
     0
  9
$DIMTDEC
 70
     0
  9
$DIMALTU
 70
     2
  9
$DIMALTTD
 70
     2
  9
$DIMTXSTY
  7
STANDARD
  9
$DIMAUNIT
 70
     0
  9
$DIMADEC
 70
     0
  9
$DIMALTRND
 40
0.0
  9
$DIMAZIN
 70
     0
  9
$DIMDSEP
 70
    46
  9
$DIMATFIT
 70
     3
  9
$DIMFRAC
 70
     0
  9
$DIMLDRBLK
  1
OPEN
  9
$DIMLUNIT
 70
     2
  9
$DIMLWD
 70
    -1
  9
$DIMLWE
 70
    -1
  9
$DIMTMOVE
 70
     0
  9
$LUNITS
 70
     2
  9
$LUPREC
 70
     4
  9
$SKETCHINC
 40
1.0
  9
$FILLETRAD
 40
1.0
  9
$AUNITS
 70
     0
  9
$AUPREC
 70
     0
  9
$MENU
  1
.
  9
$ELEVATION
 40
0.0
  9
$PELEVATION
 40
0.0
  9
$THICKNESS
 40
0.0
  9
$LIMCHECK
 70
     0
  9
$CHAMFERA
 40
20.0
  9
$CHAMFERB
 40
20.0
  9
$CHAMFERC
 40
40.0
  9
$CHAMFERD
 40
0.0
  9
$SKPOLY
 70
     0
  9
$TDCREATE
 40
2454866.469916053
  9
$TDUCREATE
 40
2454866.094916053
  9
$TDUPDATE
 40
2454876.402583507
  9
$TDUUPDATE
 40
2454876.027583507
  9
$TDINDWG
 40
0.0193650463
  9
$TDUSRTIMER
 40
0.0193650463
  9
$USRTIMER
 70
     1
  9
$ANGBASE
 50
0.0
  9
$ANGDIR
 70
     0
  9
$PDMODE
 70
     0
  9
$PDSIZE
 40
0.0
  9
$PLINEWID
 40
0.0
  9
$SPLFRAME
 70
     0
  9
$SPLINETYPE
 70
     6
  9
$SPLINESEGS
 70
     8
  9
$HANDSEED
  5
4535
  9
$SURFTAB1
 70
     6
  9
$SURFTAB2
 70
     6
  9
$SURFTYPE
 70
     6
  9
$SURFU
 70
     6
  9
$SURFV
 70
     6
  9
$UCSBASE
  2

  9
$UCSNAME
  2

  9
$UCSORG
 10
0.0
 20
0.0
 30
0.0
  9
$UCSXDIR
 10
1.0
 20
0.0
 30
0.0
  9
$UCSYDIR
 10
0.0
 20
1.0
 30
0.0
  9
$UCSORTHOREF
  2

  9
$UCSORTHOVIEW
 70
     0
  9
$UCSORGTOP
 10
0.0
 20
0.0
 30
0.0
  9
$UCSORGBOTTOM
 10
0.0
 20
0.0
 30
0.0
  9
$UCSORGLEFT
 10
0.0
 20
0.0
 30
0.0
  9
$UCSORGRIGHT
 10
0.0
 20
0.0
 30
0.0
  9
$UCSORGFRONT
 10
0.0
 20
0.0
 30
0.0
  9
$UCSORGBACK
 10
0.0
 20
0.0
 30
0.0
  9
$PUCSBASE
  2

  9
$PUCSNAME
  2

  9
$PUCSORG
 10
0.0
 20
0.0
 30
0.0
  9
$PUCSXDIR
 10
1.0
 20
0.0
 30
0.0
  9
$PUCSYDIR
 10
0.0
 20
1.0
 30
0.0
  9
$PUCSORTHOREF
  2

  9
$PUCSORTHOVIEW
 70
     0
  9
$PUCSORGTOP
 10
0.0
 20
0.0
 30
0.0
  9
$PUCSORGBOTTOM
 10
0.0
 20
0.0
 30
0.0
  9
$PUCSORGLEFT
 10
0.0
 20
0.0
 30
0.0
  9
$PUCSORGRIGHT
 10
0.0
 20
0.0
 30
0.0
  9
$PUCSORGFRONT
 10
0.0
 20
0.0
 30
0.0
  9
$PUCSORGBACK
 10
0.0
 20
0.0
 30
0.0
  9
$USERI1
 70
     0
  9
$USERI2
 70
     0
  9
$USERI3
 70
     0
  9
$USERI4
 70
     0
  9
$USERI5
 70
     0
  9
$USERR1
 40
0.0
  9
$USERR2
 40
0.0
  9
$USERR3
 40
0.0
  9
$USERR4
 40
0.0
  9
$USERR5
 40
0.0
  9
$WORLDVIEW
 70
     1
  9
$SHADEDGE
 70
     3
  9
$SHADEDIF
 70
    70
  9
$TILEMODE
 70
     1
  9
$MAXACTVP
 70
    16
  9
$PINSBASE
 10
0.0
 20
0.0
 30
0.0
  9
$PLIMCHECK
 70
     0
  9
$PEXTMIN
 10
0.0
 20
0.0
 30
0.0
  9
$PEXTMAX
 10
420.0
 20
297.0
 30
0.0
  9
$PLIMMIN
 10
0.0
 20
0.0
  9
$PLIMMAX
 10
420.0
 20
297.0
  9
$UNITMODE
 70
     0
  9
$VISRETAIN
 70
     0
  9
$PLINEGEN
 70
     0
  9
$PSLTSCALE
 70
     1
  9
$TREEDEPTH
 70
  3020
  9
$CMLSTYLE
  2
STANDARD
  9
$CMLJUST
 70
     0
  9
$CMLSCALE
 40
1.0
  9
$PROXYGRAPHICS
 70
     1
  9
$MEASUREMENT
 70
     1
  9
$CELWEIGHT
370
    -1
  9
$ENDCAPS
280
     0
  9
$JOINSTYLE
280
     0
  9
$LWDISPLAY
290
     0
  9
$INSUNITS
 70
     0
  9
$HYPERLINKBASE
  1

  9
$STYLESHEET
  1
print.ctb
  9
$XEDIT
290
     1
  9
$CEPSNTYPE
380
     0
  9
$PSTYLEMODE
290
     1
  9
$FINGERPRINTGUID
  2
{8D6CB018-5425-46D7-BA3D-129D74F567FA}
  9
$VERSIONGUID
  2
{4D302D33-E857-4308-9A47-D9283C88F195}
  9
$EXTNAMES
290
     1
  9
$PSVPSCALE
 40
0.0
  9
$OLESTARTUP
290
     0
  0
ENDSEC
  0
SECTION
  2
CLASSES
  0
CLASS
  1
ACDBDICTIONARYWDFLT
  2
AcDbDictionaryWithDefault
  3
AutoCAD 2000
 90
        0
280
     0
281
     0
  0
CLASS
  1
ACDBPLACEHOLDER
  2
AcDbPlaceHolder
  3
AutoCAD 2000
 90
        0
280
     0
281
     0
  0
CLASS
  1
LAYOUT
  2
AcDbLayout
  3
AutoCAD 2000
 90
        0
280
     0
281
     0
  0
CLASS
  1
LONG_TRANSACTION
  2
AcDbLongTransaction
  3
AutoCAD 2000
 90
    32768
280
     0
281
     0
  0
CLASS
  1
LWPOLYLINE
  2
AcDbPolyline
  3
AutoCAD 2000
 90
    32768
280
     0
281
     1
  0
CLASS
  1
HATCH
  2
AcDbHatch
  3
AutoCAD 2000
 90
    32768
280
     0
281
     1
  0
CLASS
  1
XRECORD
  2
AcDbXrecord
  3
AutoCAD 2000
 90
    32768
280
     0
281
     0
  0
CLASS
  1
LONG_TRANSACTION
  2
AcDbLongTransaction
  3
AutoCAD 2000
 90
    32768
280
     0
281
     0
  0
CLASS
  1
LWPOLYLINE
  2
AcDbPolyline
  3
AutoCAD 2000
 90
    32768
280
     0
281
     1
  0
CLASS
  1
HATCH
  2
AcDbHatch
  3
AutoCAD 2000
 90
    32768
280
     0
281
     1
  0
CLASS
  1
XRECORD
  2
AcDbXrecord
  3
AutoCAD 2000
 90
    32768
280
     0
281
     0
  0
CLASS
  1
LONG_TRANSACTION
  2
AcDbLongTransaction
  3
AutoCAD 2000
 90
    32768
280
     0
281
     0
  0
CLASS
  1
LWPOLYLINE
  2
AcDbPolyline
  3
AutoCAD 2000
 90
    32768
280
     0
281
     1
  0
CLASS
  1
HATCH
  2
AcDbHatch
  3
AutoCAD 2000
 90
    32768
280
     0
281
     1
  0
CLASS
  1
XRECORD
  2
AcDbXrecord
  3
AutoCAD 2000
 90
    32768
280
     0
281
     0
  0
CLASS
  1
LONG_TRANSACTION
  2
AcDbLongTransaction
  3
AutoCAD 2000
 90
    32768
280
     0
281
     0
  0
CLASS
  1
LWPOLYLINE
  2
AcDbPolyline
  3
AutoCAD 2000
 90
    32768
280
     0
281
     1
  0
CLASS
  1
HATCH
  2
AcDbHatch
  3
AutoCAD 2000
 90
    32768
280
     0
281
     1
  0
CLASS
  1
XRECORD
  2
AcDbXrecord
  3
AutoCAD 2000
 90
    32768
280
     0
281
     0
  0
CLASS
  1
DICTIONARYVAR
  2
AcDbDictionaryVar
  3
AutoCAD 2000
 90
        0
280
     0
281
     0
  0
CLASS
  1
LONG_TRANSACTION
  2
AcDbLongTransaction
  3
AutoCAD 2000
 90
    32768
280
     0
281
     0
  0
CLASS
  1
LWPOLYLINE
  2
AcDbPolyline
  3
AutoCAD 2000
 90
    32768
280
     0
281
     1
  0
CLASS
  1
HATCH
  2
AcDbHatch
  3
AutoCAD 2000
 90
    32768
280
     0
281
     1
  0
CLASS
  1
XRECORD
  2
AcDbXrecord
  3
AutoCAD 2000
 90
    32768
280
     0
281
     0
  0
CLASS
  1
LONG_TRANSACTION
  2
AcDbLongTransaction
  3
AutoCAD 2000
 90
    32768
280
     0
281
     0
  0
CLASS
  1
LWPOLYLINE
  2
AcDbPolyline
  3
AutoCAD 2000
 90
    32768
280
     0
281
     1
  0
CLASS
  1
HATCH
  2
AcDbHatch
  3
AutoCAD 2000
 90
    32768
280
     0
281
     1
  0
CLASS
  1
XRECORD
  2
AcDbXrecord
  3
AutoCAD 2000
 90
    32768
280
     0
281
     0
  0
CLASS
  1
LONG_TRANSACTION
  2
AcDbLongTransaction
  3
AutoCAD 2000
 90
    32768
280
     0
281
     0
  0
CLASS
  1
LWPOLYLINE
  2
AcDbPolyline
  3
AutoCAD 2000
 90
    32768
280
     0
281
     1
  0
CLASS
  1
HATCH
  2
AcDbHatch
  3
AutoCAD 2000
 90
    32768
280
     0
281
     1
  0
CLASS
  1
XRECORD
  2
AcDbXrecord
  3
AutoCAD 2000
 90
    32768
280
     0
281
     0
  0
CLASS
  1
LONG_TRANSACTION
  2
AcDbLongTransaction
  3
AutoCAD 2000
 90
    32768
280
     0
281
     0
  0
CLASS
  1
LWPOLYLINE
  2
AcDbPolyline
  3
AutoCAD 2000
 90
    32768
280
     0
281
     1
  0
CLASS
  1
HATCH
  2
AcDbHatch
  3
AutoCAD 2000
 90
    32768
280
     0
281
     1
  0
CLASS
  1
XRECORD
  2
AcDbXrecord
  3
AutoCAD 2000
 90
    32768
280
     0
281
     0
  0
CLASS
  1
LONG_TRANSACTION
  2
AcDbLongTransaction
  3
AutoCAD 2000
 90
    32768
280
     0
281
     0
  0
CLASS
  1
LWPOLYLINE
  2
AcDbPolyline
  3
AutoCAD 2000
 90
    32768
280
     0
281
     1
  0
CLASS
  1
HATCH
  2
AcDbHatch
  3
AutoCAD 2000
 90
    32768
280
     0
281
     1
  0
CLASS
  1
XRECORD
  2
AcDbXrecord
  3
AutoCAD 2000
 90
    32768
280
     0
281
     0
  0
CLASS
  1
LONG_TRANSACTION
  2
AcDbLongTransaction
  3
AutoCAD 2000
 90
    32768
280
     0
281
     0
  0
CLASS
  1
LWPOLYLINE
  2
AcDbPolyline
  3
AutoCAD 2000
 90
    32768
280
     0
281
     1
  0
CLASS
  1
HATCH
  2
AcDbHatch
  3
AutoCAD 2000
 90
    32768
280
     0
281
     1
  0
CLASS
  1
XRECORD
  2
AcDbXrecord
  3
AutoCAD 2000
 90
    32768
280
     0
281
     0
  0
ENDSEC
  0
SECTION
  2
TABLES
  0
TABLE
  2
VPORT
  5
8
330
0
100
AcDbSymbolTable
 70
     2
  0
VPORT
  5
4534
330
8
100
AcDbSymbolTableRecord
100
AcDbViewportTableRecord
  2
*Active
 70
     0
 10
0.0
 20
0.0
 11
1.0
 21
1.0
 12
419.9999999999999
 22
311.3136066706732
 13
0.0
 23
0.0
 14
5.0
 24
5.0
 15
0.0
 25
0.0
 16
0.0
 26
0.0
 36
1.0
 17
0.0
 27
0.0
 37
0.0
 40
627.0435702186698
 41
1.553475935828877
 42
50.0
 43
0.0
 44
0.0
 50
0.0
 51
0.0
 71
     0
 72
   100
 73
     1
 74
     0
 75
     0
 76
     0
 77
     0
 78
     0
281
     0
 65
     1
110
0.0
120
0.0
130
0.0
111
1.0
121
0.0
131
0.0
112
0.0
122
1.0
132
0.0
 79
     0
146
0.0
  0
ENDTAB
  0
TABLE
  2
LTYPE
  5
5
330
0
100
AcDbSymbolTable
 70
     4
  0
LTYPE
  5
14
330
5
100
AcDbSymbolTableRecord
100
AcDbLinetypeTableRecord
  2
BYBLOCK
 70
     0
  3

 72
    65
 73
     0
 40
0.0
  0
LTYPE
  5
15
330
5
100
AcDbSymbolTableRecord
100
AcDbLinetypeTableRecord
  2
BYLAYER
 70
     0
  3

 72
    65
 73
     0
 40
0.0
  0
LTYPE
  5
16
330
5
100
AcDbSymbolTableRecord
100
AcDbLinetypeTableRecord
  2
CONTINUOUS
 70
     0
  3
Solid line
 72
    65
 73
     0
 40
0.0
  0
LTYPE
  5
135
330
5
100
AcDbSymbolTableRecord
100
AcDbLinetypeTableRecord
  2
CENTER
 70
     0
  3
____ _ ____ _ ____ _ ____ _ ____ _ ____ _ ____ 
 72
    65
 73
     4
 40
2.0
 49
1.25
 74
     0
 49
-0.25
 74
     0
 49
0.25
 74
     0
 49
-0.25
 74
     0
  0
LTYPE
  5
1527
330
5
100
AcDbSymbolTableRecord
100
AcDbLinetypeTableRecord
  2
SLDSECTION0
 70
     0
  3

 72
    65
 73
     4
 40
10.16
 49
6.349999999999999
 74
     0
 49
-1.27
 74
     0
 49
1.27
 74
     0
 49
-1.27
 74
     0
  0
LTYPE
  5
38B0
330
5
100
AcDbSymbolTableRecord
100
AcDbLinetypeTableRecord
  2
PHANTOM
 70
     0
  3
______  __  __  ______  __  __  ______  __  __ 
 72
    65
 73
     6
 40
2.5
 49
1.25
 74
     0
 49
-0.25
 74
     0
 49
0.25
 74
     0
 49
-0.25
 74
     0
 49
0.25
 74
     0
 49
-0.25
 74
     0
  0
ENDTAB
  0
TABLE
  2
LAYER
  5
2
330
0
100
AcDbSymbolTable
 70
    10
  0
LAYER
  5
F
330
2
100
AcDbSymbolTableRecord
100
AcDbLayerTableRecord
  2
0
 70
     0
 62
     7
  6
CONTINUOUS
370
    -3
390
33F
  0
LAYER
  5
62
330
2
100
AcDbSymbolTableRecord
100
AcDbLayerTableRecord
  2
VIEWPORT
 70
     0
 62
     7
  6
CONTINUOUS
370
    -3
390
33F
  0
LAYER
  5
65
330
2
100
AcDbSymbolTableRecord
100
AcDbLayerTableRecord
  2
ZUWAKU
 70
     0
 62
     7
  6
CONTINUOUS
370
    -3
390
33F
  0
LAYER
  5
153
330
2
100
AcDbSymbolTableRecord
100
AcDbLayerTableRecord
  2
SEIHIN
 70
     0
 62
     3
  6
CONTINUOUS
370
    -3
390
33F
  0
LAYER
  5
154
330
2
100
AcDbSymbolTableRecord
100
AcDbLayerTableRecord
  2
SUNPOU
 70
     0
 62
     4
  6
CONTINUOUS
370
    -3
390
33F
  0
LAYER
  5
155
330
2
100
AcDbSymbolTableRecord
100
AcDbLayerTableRecord
  2
CENTER L
 70
     0
 62
     1
  6
CENTER
370
    -3
390
33F
  0
LAYER
  5
24D
330
2
100
AcDbSymbolTableRecord
100
AcDbLayerTableRecord
  2
DEFPOINTS
 70
     0
 62
     7
  6
CONTINUOUS
290
     0
370
    -3
390
33F
  0
LAYER
  5
59A
330
2
100
AcDbSymbolTableRecord
100
AcDbLayerTableRecord
  2
moji
 70
     0
 62
     2
  6
CONTINUOUS
370
    -3
390
33F
  0
LAYER
  5
1528
330
2
100
AcDbSymbolTableRecord
100
AcDbLayerTableRecord
  2
NOKITOI
 70
     0
 62
     9
  6
SLDSECTION0
370
    -3
390
33F
  0
LAYER
  5
38B1
330
2
100
AcDbSymbolTableRecord
100
AcDbLayerTableRecord
  2
STOPPER
 70
     0
 62
     2
  6
CONTINUOUS
370
    -3
390
33F
  0
ENDTAB
  0
TABLE
  2
STYLE
  5
3
330
0
100
AcDbSymbolTable
 70
     2
  0
STYLE
  5
10
330
3
100
AcDbSymbolTableRecord
100
AcDbTextStyleTableRecord
  2
STANDARD
 70
     0
 40
0.0
 41
1.0
 50
0.0
 71
     0
 42
5.0
  3
TXT
  4
bigfont.shx
  0
STYLE
  5
59B
330
3
100
AcDbSymbolTableRecord
100
AcDbTextStyleTableRecord
  2
ｽﾀｲﾙ1
 70
     0
 40
0.0
 41
1.0
 50
0.0
 71
     0
 42
2.5
  3
MS PGothic.ttf
  4

1001
ACAD
1000
MS PGothic
1071
    32818
  0
ENDTAB
  0
TABLE
  2
VIEW
  5
6
330
0
100
AcDbSymbolTable
 70
     0
  0
ENDTAB
  0
TABLE
  2
UCS
  5
7
330
0
100
AcDbSymbolTable
 70
     0
  0
ENDTAB
  0
TABLE
  2
APPID
  5
9
330
0
100
AcDbSymbolTable
 70
     1
  0
APPID
  5
11
330
9
100
AcDbSymbolTableRecord
100
AcDbRegAppTableRecord
  2
ACAD
 70
     0
  0
ENDTAB
  0
TABLE
  2
DIMSTYLE
  5
A
330
0
100
AcDbSymbolTable
 70
     1
100
AcDbDimStyleTable
 71
     0
  0
DIMSTYLE
105
1D
102
{ACAD_REACTORS
330
3D4E
330
3D4F
330
3E67
330
3F7A
330
3F7B
330
4047
330
4048
330
4049
330
4077
330
4078
330
40EA
102
}
330
A
100
AcDbSymbolTableRecord
100
AcDbDimStyleTableRecord
  2
STANDARD
 70
     0
340
10
  0
ENDTAB
  0
TABLE
  2
BLOCK_RECORD
  5
1
330
0
100
AcDbSymbolTable
 70
    13
  0
BLOCK_RECORD
  5
1A
102
{ACAD_XDICTIONARY
360
385
102
}
330
1
100
AcDbSymbolTableRecord
100
AcDbBlockTableRecord
  2
*MODEL_SPACE
340
342
  0
BLOCK_RECORD
  5
17
102
{ACAD_XDICTIONARY
360
383
102
}
330
1
100
AcDbSymbolTableRecord
100
AcDbBlockTableRecord
  2
*PAPER_SPACE
340
343
  0
BLOCK_RECORD
  5
6D
330
1
100
AcDbSymbolTableRecord
100
AcDbBlockTableRecord
  2
_OPEN
340
0
102
{BLKREFS
331
44AE
331
44AF
331
44A5
331
44A6
331
44B7
331
44B8
331
430C
331
430D
331
44C0
331
44C1
331
44DB
331
44DC
331
44D2
331
44D3
331
44C9
331
44CA
331
435D
331
435E
331
434B
331
434C
331
4354
331
4355
102
}
  0
BLOCK_RECORD
  5
3A4
330
1
100
AcDbSymbolTableRecord
100
AcDbBlockTableRecord
  2
*X1
340
0
102
{BLKREFS
331
6D8
102
}
  0
BLOCK_RECORD
  5
41DA
330
1
100
AcDbSymbolTableRecord
100
AcDbBlockTableRecord
  2
*D2
340
0
  0
BLOCK_RECORD
  5
41E6
330
1
100
AcDbSymbolTableRecord
100
AcDbBlockTableRecord
  2
*D3
340
0
  0
BLOCK_RECORD
  5
41F2
330
1
100
AcDbSymbolTableRecord
100
AcDbBlockTableRecord
  2
*D4
340
0
  0
BLOCK_RECORD
  5
41FE
330
1
100
AcDbSymbolTableRecord
100
AcDbBlockTableRecord
  2
*D5
340
0
  0
BLOCK_RECORD
  5
420A
330
1
100
AcDbSymbolTableRecord
100
AcDbBlockTableRecord
  2
*D6
340
0
  0
BLOCK_RECORD
  5
4216
330
1
100
AcDbSymbolTableRecord
100
AcDbBlockTableRecord
  2
*D7
340
0
  0
BLOCK_RECORD
  5
4222
330
1
100
AcDbSymbolTableRecord
100
AcDbBlockTableRecord
  2
*D8
340
0
  0
BLOCK_RECORD
  5
422E
330
1
100
AcDbSymbolTableRecord
100
AcDbBlockTableRecord
  2
*D9
340
0
  0
BLOCK_RECORD
  5
423A
330
1
100
AcDbSymbolTableRecord
100
AcDbBlockTableRecord
  2
*D10
340
0
  0
BLOCK_RECORD
  5
4246
330
1
100
AcDbSymbolTableRecord
100
AcDbBlockTableRecord
  2
*D11
340
0
  0
BLOCK_RECORD
  5
4252
330
1
100
AcDbSymbolTableRecord
100
AcDbBlockTableRecord
  2
*D12
340
0
  0
ENDTAB
  0
ENDSEC
  0
SECTION
  2
BLOCKS
  0
BLOCK
  5
1B
330
1A
100
AcDbEntity
  8
0
100
AcDbBlockBegin
  2
*MODEL_SPACE
 70
     0
 10
0.0
 20
0.0
 30
0.0
  3
*MODEL_SPACE
  1

  0
ENDBLK
  5
1C
330
1A
100
AcDbEntity
  8
0
100
AcDbBlockEnd
  0
BLOCK
  5
18
330
17
100
AcDbEntity
 67
     1
  8
0
100
AcDbBlockBegin
  2
*PAPER_SPACE
 70
     0
 10
0.0
 20
0.0
 30
0.0
  3
*PAPER_SPACE
  1

  0
ENDBLK
  5
19
330
17
100
AcDbEntity
 67
     1
  8
0
100
AcDbBlockEnd
  0
BLOCK
  5
6E
330
6D
100
AcDbEntity
  8
0
100
AcDbBlockBegin
  2
_OPEN
 70
     0
 10
0.0
 20
0.0
 30
0.0
  3
_OPEN
  1

  0
LINE
  5
6F
330
6D
100
AcDbEntity
  8
0
  6
ByBlock
 62
     0
100
AcDbLine
 10
-1.0
 20
0.1666666666666666
 30
0.0
 11
0.0
 21
0.0
 31
0.0
  0
LINE
  5
70
330
6D
100
AcDbEntity
  8
0
  6
ByBlock
 62
     0
100
AcDbLine
 10
0.0
 20
0.0
 30
0.0
 11
-1.0
 21
-0.1666666666666666
 31
0.0
  0
LINE
  5
71
330
6D
100
AcDbEntity
  8
0
  6
ByBlock
 62
     0
100
AcDbLine
 10
0.0
 20
0.0
 30
0.0
 11
-1.0
 21
0.0
 31
0.0
  0
ENDBLK
  5
72
330
6D
100
AcDbEntity
  8
0
100
AcDbBlockEnd
  0
BLOCK
  5
538
330
3A4
100
AcDbEntity
  8
0
100
AcDbBlockBegin
  2
*X1
 70
     1
 10
0.0
 20
0.0
 30
0.0
  3
*X1
  1

  0
LINE
  5
3A5
330
3A4
100
AcDbEntity
  8
0
 62
     0
100
AcDbLine
 10
66.75047808566091
 20
28.71175535310772
 30
0.0
 11
66.10464715594599
 21
29.35758628282269
 31
0.0
  0
LINE
  5
3A6
330
3A4
100
AcDbEntity
  8
0
 62
     0
100
AcDbLine
 10
66.75047808566091
 20
27.81372974100082
 30
0.0
 11
65.20662154383905
 21
29.35758628282269
 31
0.0
  0
LINE
  5
3A7
330
3A4
100
AcDbEntity
  8
0
 62
     0
100
AcDbLine
 10
66.75047808566086
 20
26.91570412889388
 30
0.0
 11
64.32934413964591
 21
29.33683807490882
 31
0.0
  0
LINE
  5
3A8
330
3A4
100
AcDbEntity
  8
0
 62
     0
100
AcDbLine
 10
66.75047808566091
 20
26.01767851678704
 30
0.0
 11
63.95047808566085
 21
28.81767851678705
 31
0.0
  0
LINE
  5
3A9
330
3A4
100
AcDbEntity
  8
0
 62
     0
100
AcDbLine
 10
66.75047808566091
 20
25.11965290468009
 30
0.0
 11
63.95047808566085
 21
27.91965290468016
 31
0.0
  0
LINE
  5
3AA
330
3A4
100
AcDbEntity
  8
0
 62
     0
100
AcDbLine
 10
66.75047808566086
 20
24.22162729257314
 30
0.0
 11
63.95047808566079
 21
27.02162729257321
 31
0.0
  0
LINE
  5
3AB
330
3A4
100
AcDbEntity
  8
0
 62
     0
100
AcDbLine
 10
61.85047808566082
 20
28.22360168046634
 30
0.0
 11
60.71649348330453
 21
29.35758628282269
 31
0.0
  0
LINE
  5
3AC
330
3A4
100
AcDbEntity
  8
0
 62
     0
100
AcDbLine
 10
66.75047808566091
 20
23.32360168046631
 30
0.0
 11
63.95047808566085
 21
26.12360168046638
 31
0.0
  0
LINE
  5
3AD
330
3A4
100
AcDbEntity
  8
0
 62
     0
100
AcDbLine
 10
61.85047808566082
 20
27.32557606835945
 30
0.0
 11
59.81846787119758
 21
29.35758628282263
 31
0.0
  0
LINE
  5
3AE
330
3A4
100
AcDbEntity
  8
0
 62
     0
100
AcDbLine
 10
66.75047808566086
 20
22.42557606835936
 30
0.0
 11
63.95047808566085
 21
25.22557606835943
 31
0.0
  0
LINE
  5
3AF
330
3A4
100
AcDbEntity
  8
0
 62
     0
100
AcDbLine
 10
61.85047808566082
 20
26.4275504562525
 30
0.0
 11
59.14496712052375
 21
29.13306142138958
 31
0.0
  0
LINE
  5
3B0
330
3A4
100
AcDbEntity
  8
0
 62
     0
100
AcDbLine
 10
66.75047808566086
 20
21.52755045625247
 30
0.0
 11
63.95047808566079
 21
24.32755045625248
 31
0.0
  0
LINE
  5
3B1
330
3A4
100
AcDbEntity
  8
0
 62
     0
100
AcDbLine
 10
61.85047808566094
 20
25.5295248441455
 30
0.0
 11
59.05047808566076
 21
28.32952484414562
 31
0.0
  0
LINE
  5
3B2
330
3A4
100
AcDbEntity
  8
0
 62
     0
100
AcDbLine
 10
66.75047808566091
 20
20.62952484414552
 30
0.0
 11
63.95047808566085
 21
23.42952484414559
 31
0.0
  0
LINE
  5
3B3
330
3A4
100
AcDbEntity
  8
0
 62
     0
100
AcDbLine
 10
61.85047808566088
 20
24.6314992320386
 30
0.0
 11
59.05047808566076
 21
27.43149923203878
 31
0.0
  0
LINE
  5
3B4
330
3A4
100
AcDbEntity
  8
0
 62
     0
100
AcDbLine
 10
66.75047808566086
 20
19.73149923203862
 30
0.0
 11
63.95047808566079
 21
22.53149923203869
 31
0.0
  0
LINE
  5
3B5
330
3A4
100
AcDbEntity
  8
0
 62
     0
100
AcDbLine
 10
61.85047808566088
 20
23.73347361993171
 30
0.0
 11
59.05047808566076
 21
26.53347361993183
 31
0.0
  0
LINE
  5
3B6
330
3A4
100
AcDbEntity
  8
0
 62
     0
100
AcDbLine
 10
66.75047808566086
 20
18.83347361993173
 30
0.0
 11
63.95047808566079
 21
21.6334736199318
 31
0.0
  0
LINE
  5
3B7
330
3A4
100
AcDbEntity
  8
0
 62
     0
100
AcDbLine
 10
61.85047808566082
 20
22.83544800782476
 30
0.0
 11
59.0504780856607
 21
25.63544800782489
 31
0.0
  0
LINE
  5
3B8
330
3A4
100
AcDbEntity
  8
0
 62
     0
100
AcDbLine
 10
66.7504780856608
 20
17.93544800782479
 30
0.0
 11
63.95047808566079
 21
20.73544800782485
 31
0.0
  0
LINE
  5
3B9
330
3A4
100
AcDbEntity
  8
0
 62
     0
100
AcDbLine
 10
61.85047808566088
 20
21.93742239571793
 30
0.0
 11
59.05047808566076
 21
24.73742239571805
 31
0.0
  0
LINE
  5
3BA
330
3A4
100
AcDbEntity
  8
0
 62
     0
100
AcDbLine
 10
55.55047808566081
 20
28.23742239571799
 30
0.0
 11
54.43031419855618
 21
29.35758628282263
 31
0.0
  0
LINE
  5
3BB
330
3A4
100
AcDbEntity
  8
0
 62
     0
100
AcDbLine
 10
66.75047808566086
 20
17.03742239571795
 30
0.0
 11
63.95047808566079
 21
19.83742239571796
 31
0.0
  0
LINE
  5
3BC
330
3A4
100
AcDbEntity
  8
0
 62
     0
100
AcDbLine
 10
61.85047808566088
 20
21.03939678361098
 30
0.0
 11
59.0504780856607
 21
23.8393967836111
 31
0.0
  0
LINE
  5
3BD
330
3A4
100
AcDbEntity
  8
0
 62
     0
100
AcDbLine
 10
55.55047808566076
 20
27.33939678361105
 30
0.0
 11
53.53228858644922
 21
29.35758628282263
 31
0.0
  0
LINE
  5
3BE
330
3A4
100
AcDbEntity
  8
0
 62
     0
100
AcDbLine
 10
66.75047808566086
 20
16.139396783611
 30
0.0
 11
63.95047808566079
 21
18.93939678361107
 31
0.0
  0
LINE
  5
3BF
330
3A4
100
AcDbEntity
  8
0
 62
     0
100
AcDbLine
 10
61.85047808566082
 20
20.14137117150409
 30
0.0
 11
59.05047808566076
 21
22.9413711715041
 31
0.0
  0
LINE
  5
3C0
330
3A4
100
AcDbEntity
  8
0
 62
     0
100
AcDbLine
 10
55.55047808566076
 20
26.44137117150416
 30
0.0
 11
52.85071536233676
 21
29.14113389482816
 31
0.0
  0
LINE
  5
3C1
330
3A4
100
AcDbEntity
  8
0
 62
     0
100
AcDbLine
 10
66.7504780856608
 20
15.24137117150411
 30
0.0
 11
63.95047808566073
 21
18.04137117150412
 31
0.0
  0
LINE
  5
3C2
330
3A4
100
AcDbEntity
  8
0
 62
     0
100
AcDbLine
 10
61.85047808566088
 20
19.24334555939714
 30
0.0
 11
59.05047808566081
 21
22.04334555939721
 31
0.0
  0
LINE
  5
3C3
330
3A4
100
AcDbEntity
  8
0
 62
     0
100
AcDbLine
 10
55.55047808566081
 20
25.54334555939721
 30
0.0
 11
52.7504780856608
 21
28.34334555939722
 31
0.0
  0
LINE
  5
3C4
330
3A4
100
AcDbEntity
  8
0
 62
     0
100
AcDbLine
 10
66.75047808566086
 20
14.34334555939716
 30
0.0
 11
63.95047808566079
 21
17.14334555939723
 31
0.0
  0
LINE
  5
3C5
330
3A4
100
AcDbEntity
  8
0
 62
     0
100
AcDbLine
 10
61.85047808566082
 20
18.34531994729024
 30
0.0
 11
59.05047808566081
 21
21.14531994729031
 31
0.0
  0
LINE
  5
3C6
330
3A4
100
AcDbEntity
  8
0
 62
     0
100
AcDbLine
 10
55.55047808566087
 20
24.64531994729026
 30
0.0
 11
52.7504780856608
 21
27.44531994729033
 31
0.0
  0
LINE
  5
3C7
330
3A4
100
AcDbEntity
  8
0
 62
     0
100
AcDbLine
 10
66.67851273077104
 20
13.51728530218008
 30
0.0
 11
63.95047808566079
 21
16.24531994729034
 31
0.0
  0
LINE
  5
3C8
330
3A4
100
AcDbEntity
  8
0
 62
     0
100
AcDbLine
 10
61.85047808566088
 20
17.44729433518324
 30
0.0
 11
59.05047808566076
 21
20.24729433518337
 31
0.0
  0
LINE
  5
3C9
330
3A4
100
AcDbEntity
  8
0
 62
     0
100
AcDbLine
 10
55.55047808566081
 20
23.74729433518337
 30
0.0
 11
52.75047808566075
 21
26.54729433518338
 31
0.0
  0
LINE
  5
3CA
330
3A4
100
AcDbEntity
  8
0
 62
     0
100
AcDbLine
 10
66.04018613802157
 20
13.25758628282261
 30
0.0
 11
63.95047808566073
 21
15.34729433518345
 31
0.0
  0
LINE
  5
3CB
330
3A4
100
AcDbEntity
  8
0
 62
     0
100
AcDbLine
 10
55.55047808566081
 20
22.84926872307642
 30
0.0
 11
52.75047808566075
 21
25.64926872307649
 31
0.0
  0
LINE
  5
3CC
330
3A4
100
AcDbEntity
  8
0
 62
     0
100
AcDbLine
 10
61.85047808566088
 20
16.54926872307635
 30
0.0
 11
59.05047808566076
 21
19.34926872307647
 31
0.0
  0
LINE
  5
3CD
330
3A4
100
AcDbEntity
  8
0
 62
     0
100
AcDbLine
 10
50.1254780856608
 20
28.27426872307643
 30
0.0
 11
49.04216052591465
 21
29.35758628282252
 31
0.0
  0
LINE
  5
3CE
330
3A4
100
AcDbEntity
  8
0
 62
     0
100
AcDbLine
 10
65.14216052591468
 20
13.2575862828225
 30
0.0
 11
63.95047808566073
 21
14.4492687230765
 31
0.0
  0
LINE
  5
3CF
330
3A4
100
AcDbEntity
  8
0
 62
     0
100
AcDbLine
 10
55.55047808566081
 20
21.95124311096952
 30
0.0
 11
52.75047808566085
 21
24.75124311096954
 31
0.0
  0
LINE
  5
3D0
330
3A4
100
AcDbEntity
  8
0
 62
     0
100
AcDbLine
 10
50.1254780856608
 20
27.37624311096954
 30
0.0
 11
48.14413491380782
 21
29.35758628282258
 31
0.0
  0
LINE
  5
3D1
330
3A4
100
AcDbEntity
  8
0
 62
     0
100
AcDbLine
 10
61.82451978501529
 20
15.6772014116151
 30
0.0
 11
59.05047808566076
 21
18.45124311096958
 31
0.0
  0
LINE
  5
3D2
330
3A4
100
AcDbEntity
  8
0
 62
     0
100
AcDbLine
 10
55.55047808566081
 20
21.05321749886263
 30
0.0
 11
52.75047808566085
 21
23.85321749886259
 31
0.0
  0
LINE
  5
3D3
330
3A4
100
AcDbEntity
  8
0
 62
     0
100
AcDbLine
 10
49.92989753954697
 20
26.67379804497647
 30
0.0
 11
47.24610930170081
 21
29.35758628282263
 31
0.0
  0
LINE
  5
3D4
330
3A4
100
AcDbEntity
  8
0
 62
     0
100
AcDbLine
 10
61.63153448975805
 20
14.97216109476534
 30
0.0
 11
59.05047808566076
 21
17.55321749886269
 31
0.0
  0
LINE
  5
3D5
330
3A4
100
AcDbEntity
  8
0
 62
     0
100
AcDbLine
 10
55.55047808566081
 20
20.15519188675568
 30
0.0
 11
52.7504780856608
 21
22.95519188675569
 31
0.0
  0
LINE
  5
3D6
330
3A4
100
AcDbEntity
  8
0
 62
     0
100
AcDbLine
 10
49.14808368959382
 20
26.55758628282262
 30
0.0
 11
46.34808368959392
 21
29.35758628282252
 31
0.0
  0
LINE
  5
3D7
330
3A4
100
AcDbEntity
  8
0
 62
     0
100
AcDbLine
 10
61.30650261383448
 20
14.39916735858196
 30
0.0
 11
58.97896234650125
 21
16.72670762591525
 31
0.0
  0
LINE
  5
3D8
330
3A4
100
AcDbEntity
  8
0
 62
     0
100
AcDbLine
 10
55.55047808566081
 20
19.25716627464885
 30
0.0
 11
52.75047808566085
 21
22.0571662746488
 31
0.0
  0
LINE
  5
3D9
330
3A4
100
AcDbEntity
  8
0
 62
     0
100
AcDbLine
 10
48.25005807748704
 20
26.55758628282256
 30
0.0
 11
45.5124913483096
 21
29.29515301200007
 31
0.0
  0
LINE
  5
3DA
330
3A4
100
AcDbEntity
  8
0
 62
     0
100
AcDbLine
 10
60.87446081650944
 20
13.93318354380016
 30
0.0
 11
58.57737670803373
 21
16.23026765227587
 31
0.0
  0
LINE
  5
3DB
330
3A4
100
AcDbEntity
  8
0
 62
     0
100
AcDbLine
 10
55.55047808566081
 20
18.3591406625419
 30
0.0
 11
52.7504780856608
 21
21.15914066254185
 31
0.0
  0
LINE
  5
3DC
330
3A4
100
AcDbEntity
  8
0
 62
     0
100
AcDbLine
 10
47.35203246538015
 20
26.55758628282256
 30
0.0
 11
44.8478509237762
 21
29.06176782442645
 31
0.0
  0
LINE
  5
3DD
330
3A4
100
AcDbEntity
  8
0
 62
     0
100
AcDbLine
 10
60.33829847158341
 20
13.5713202766193
 30
0.0
 11
57.85203246538014
 21
16.05758628282257
 31
0.0
  0
LINE
  5
3DE
330
3A4
100
AcDbEntity
  8
0
 62
     0
100
AcDbLine
 10
55.55047808566076
 20
17.46111505043495
 30
0.0
 11
52.7504780856608
 21
20.26111505043496
 31
0.0
  0
LINE
  5
3DF
330
3A4
100
AcDbEntity
  8
0
 62
     0
100
AcDbLine
 10
46.47579668129123
 20
26.53579645480448
 30
0.0
 11
44.30524998656602
 21
28.70634314952969
 31
0.0
  0
LINE
  5
3E0
330
3A4
100
AcDbEntity
  8
0
 62
     0
100
AcDbLine
 10
59.68188591167211
 20
13.32970722442365
 30
0.0
 11
56.95400685327314
 21
16.05758628282262
 31
0.0
  0
LINE
  5
3E1
330
3A4
100
AcDbEntity
  8
0
 62
     0
100
AcDbLine
 10
46.10047808566088
 20
26.01308943832788
 30
0.0
 11
43.86713792752146
 21
28.24642959646729
 31
0.0
  0
LINE
  5
3E2
330
3A4
100
AcDbEntity
  8
0
 62
     0
100
AcDbLine
 10
58.85598124116626
 20
13.25758628282255
 30
0.0
 11
52.7504780856608
 21
19.36308943832801
 31
0.0
  0
LINE
  5
3E3
330
3A4
100
AcDbEntity
  8
0
 62
     0
100
AcDbLine
 10
46.10047808566088
 20
25.1150638262211
 30
0.0
 11
43.53536701516844
 21
27.68017489671354
 31
0.0
  0
LINE
  5
3E4
330
3A4
100
AcDbEntity
  8
0
 62
     0
100
AcDbLine
 10
57.95795562905937
 20
13.25758628282255
 30
0.0
 11
52.7504780856608
 21
18.46506382622118
 31
0.0
  0
LINE
  5
3E5
330
3A4
100
AcDbEntity
  8
0
 62
     0
100
AcDbLine
 10
46.30702236676467
 20
24.01049393301036
 30
0.0
 11
43.33318849580433
 21
26.98432780397064
 31
0.0
  0
LINE
  5
3E6
330
3A4
100
AcDbEntity
  8
0
 62
     0
100
AcDbLine
 10
57.05993001695247
 20
13.25758628282255
 30
0.0
 11
52.7504780856608
 21
17.56703821411423
 31
0.0
  0
LINE
  5
3E7
330
3A4
100
AcDbEntity
  8
0
 62
     0
100
AcDbLine
 10
50.52408178835225
 20
18.89540889931583
 30
0.0
 11
43.30047808566075
 21
26.11901260200733
 31
0.0
  0
LINE
  5
3E8
330
3A4
100
AcDbEntity
  8
0
 62
     0
100
AcDbLine
 10
41.20047808566073
 20
28.21901260200729
 30
0.0
 11
40.06190440484544
 21
29.35758628282263
 31
0.0
  0
LINE
  5
3E9
330
3A4
100
AcDbEntity
  8
0
 62
     0
100
AcDbLine
 10
56.16190440484553
 20
13.25758628282255
 30
0.0
 11
52.75047808566075
 21
16.66901260200728
 31
0.0
  0
LINE
  5
3EA
330
3A4
100
AcDbEntity
  8
0
 62
     0
100
AcDbLine
 10
50.65047808566089
 20
17.87098698990035
 30
0.0
 11
43.30047808566081
 21
25.22098698990044
 31
0.0
  0
LINE
  5
3EB
330
3A4
100
AcDbEntity
  8
0
 62
     0
100
AcDbLine
 10
41.20047808566084
 20
27.32098698990034
 30
0.0
 11
39.16387879273855
 21
29.35758628282269
 31
0.0
  0
LINE
  5
3EC
330
3A4
100
AcDbEntity
  8
0
 62
     0
100
AcDbLine
 10
55.24743091399376
 20
13.2740341615675
 30
0.0
 11
52.76692596440574
 21
15.7545391111555
 31
0.0
  0
LINE
  5
3ED
330
3A4
100
AcDbEntity
  8
0
 62
     0
100
AcDbLine
 10
41.20047808566084
 20
26.42296137779345
 30
0.0
 11
38.49308819788552
 21
29.13035126556872
 31
0.0
  0
LINE
  5
3EE
330
3A4
100
AcDbEntity
  8
0
 62
     0
100
AcDbLine
 10
50.65047808566084
 20
16.97296137779341
 30
0.0
 11
43.3238887535432
 21
24.2995507099111
 31
0.0
  0
LINE
  5
3EF
330
3A4
100
AcDbEntity
  8
0
 62
     0
100
AcDbLine
 10
41.20047808566084
 20
25.5249357656865
 30
0.0
 11
38.40047808566078
 21
28.32493576568657
 31
0.0
  0
LINE
  5
3F0
330
3A4
100
AcDbEntity
  8
0
 62
     0
100
AcDbLine
 10
50.65047808566072
 20
16.07493576568657
 30
0.0
 11
43.64200817138322
 21
23.08340567996413
 31
0.0
  0
LINE
  5
3F1
330
3A4
100
AcDbEntity
  8
0
 62
     0
100
AcDbLine
 10
41.20047808566084
 20
24.62691015357961
 30
0.0
 11
38.40047808566078
 21
27.42691015357962
 31
0.0
  0
LINE
  5
3F2
330
3A4
100
AcDbEntity
  8
0
 62
     0
100
AcDbLine
 10
50.54191626807176
 20
15.2854719711687
 30
0.0
 11
47.84628147903345
 21
17.98110676020701
 31
0.0
  0
LINE
  5
3F3
330
3A4
100
AcDbEntity
  8
0
 62
     0
100
AcDbLine
 10
41.20047808566084
 20
23.72888454147272
 30
0.0
 11
38.40047808566078
 21
26.52888454147279
 31
0.0
  0
LINE
  5
3F4
330
3A4
100
AcDbEntity
  8
0
 62
     0
100
AcDbLine
 10
36.10899118508382
 20
28.82037144204969
 30
0.0
 11
35.57177634431093
 21
29.35758628282263
 31
0.0
  0
LINE
  5
3F5
330
3A4
100
AcDbEntity
  8
0
 62
     0
100
AcDbLine
 10
50.2740405603102
 20
14.65532206682337
 30
0.0
 11
47.85047808566088
 21
17.07888454147268
 31
0.0
  0
LINE
  5
3F6
330
3A4
100
AcDbEntity
  8
0
 62
     0
100
AcDbLine
 10
41.20047808566079
 20
22.83085892936577
 30
0.0
 11
38.40047808566078
 21
25.63085892936584
 31
0.0
  0
LINE
  5
3F7
330
3A4
100
AcDbEntity
  8
0
 62
     0
100
AcDbLine
 10
35.91006352083121
 20
28.12127349419535
 30
0.0
 11
34.67375073220398
 21
29.35758628282263
 31
0.0
  0
LINE
  5
3F8
330
3A4
100
AcDbEntity
  8
0
 62
     0
100
AcDbLine
 10
49.8910537621349
 20
14.14028325289172
 30
0.0
 11
47.75319290277439
 21
16.27814411225222
 31
0.0
  0
LINE
  5
3F9
330
3A4
100
AcDbEntity
  8
0
 62
     0
100
AcDbLine
 10
41.20047808566079
 20
21.93283331725888
 30
0.0
 11
38.40047808566072
 21
24.73283331725889
 31
0.0
  0
LINE
  5
3FA
330
3A4
100
AcDbEntity
  8
0
 62
     0
100
AcDbLine
 10
35.69453737392553
 20
27.43877402899409
 30
0.0
 11
33.78532181045494
 21
29.34798959246473
 31
0.0
  0
LINE
  5
3FB
330
3A4
100
AcDbEntity
  8
0
 62
     0
100
AcDbLine
 10
49.40473479701927
 20
13.72857660590034
 30
0.0
 11
47.07572512009704
 21
16.05758628282262
 31
0.0
  0
LINE
  5
3FC
330
3A4
100
AcDbEntity
  8
0
 62
     0
100
AcDbLine
 10
41.20047808566084
 20
21.03480770515198
 30
0.0
 11
38.40047808566078
 21
23.83480770515205
 31
0.0
  0
LINE
  5
3FD
330
3A4
100
AcDbEntity
  8
0
 62
     0
100
AcDbLine
 10
35.47901122702
 20
26.75627456379283
 30
0.0
 11
33.35101122701996
 21
28.88427456379287
 31
0.0
  0
LINE
  5
3FE
330
3A4
100
AcDbEntity
  8
0
 62
     0
100
AcDbLine
 10
48.8086508485589
 20
13.42663494225388
 30
0.0
 11
46.17769950799015
 21
16.05758628282268
 31
0.0
  0
LINE
  5
3FF
330
3A4
100
AcDbEntity
  8
0
 62
     0
100
AcDbLine
 10
41.20047808566079
 20
20.13678209304509
 30
0.0
 11
38.40047808566072
 21
22.9367820930451
 31
0.0
  0
LINE
  5
400
330
3A4
100
AcDbEntity
  8
0
 62
     0
100
AcDbLine
 10
35.26348508011415
 20
26.07377509859174
 30
0.0
 11
33.13548508011416
 21
28.20177509859172
 31
0.0
  0
LINE
  5
401
330
3A4
100
AcDbEntity
  8
0
 62
     0
100
AcDbLine
 10
48.07097819691143
 20
13.26628198179446
 30
0.0
 11
45.27967389588326
 21
16.05758628282262
 31
0.0
  0
LINE
  5
402
330
3A4
100
AcDbEntity
  8
0
 62
     0
100
AcDbLine
 10
41.20047808566079
 20
19.23875648093815
 30
0.0
 11
38.40047808566078
 21
22.0387564809381
 31
0.0
  0
LINE
  5
403
330
3A4
100
AcDbEntity
  8
0
 62
     0
100
AcDbLine
 10
35.04795893320857
 20
25.39127563339036
 30
0.0
 11
32.91995893320847
 21
27.5192756333904
 31
0.0
  0
LINE
  5
404
330
3A4
100
AcDbEntity
  8
0
 62
     0
100
AcDbLine
 10
47.18164828377638
 20
13.25758628282255
 30
0.0
 11
44.38164828377631
 21
16.05758628282262
 31
0.0
  0
LINE
  5
405
330
3A4
100
AcDbEntity
  8
0
 62
     0
100
AcDbLine
 10
41.20047808566079
 20
18.34073086883125
 30
0.0
 11
38.40047808566083
 21
21.14073086883127
 31
0.0
  0
LINE
  5
406
330
3A4
100
AcDbEntity
  8
0
 62
     0
100
AcDbLine
 10
34.83243278630294
 20
24.70877616818916
 30
0.0
 11
32.70443278630284
 21
26.8367761681892
 31
0.0
  0
LINE
  5
407
330
3A4
100
AcDbEntity
  8
0
 62
     0
100
AcDbLine
 10
46.28362267166949
 20
13.25758628282261
 30
0.0
 11
43.8500109743731
 21
15.691197980119
 31
0.0
  0
LINE
  5
408
330
3A4
100
AcDbEntity
  8
0
 62
     0
100
AcDbLine
 10
34.61690663939731
 20
24.02627670298778
 30
0.0
 11
32.48890663939721
 21
26.15427670298794
 31
0.0
  0
LINE
  5
409
330
3A4
100
AcDbEntity
  8
0
 62
     0
100
AcDbLine
 10
41.20047808566079
 20
17.44270525672436
 30
0.0
 11
38.40047808566083
 21
20.24270525672432
 31
0.0
  0
LINE
  5
40A
330
3A4
100
AcDbEntity
  8
0
 62
     0
100
AcDbLine
 10
30.35047808566082
 20
28.29270525672433
 30
0.0
 11
29.28559705956251
 21
29.35758628282258
 31
0.0
  0
LINE
  5
40B
330
3A4
100
AcDbEntity
  8
0
 62
     0
100
AcDbLine
 10
45.38559705956259
 20
13.25758628282255
 30
0.0
 11
43.82547808566084
 21
14.8177052567243
 31
0.0
  0
LINE
  5
40C
330
3A4
100
AcDbEntity
  8
0
 62
     0
100
AcDbLine
 10
34.40138049249151
 20
23.34377723778669
 30
0.0
 11
32.27338049249158
 21
25.47177723778662
 31
0.0
  0
LINE
  5
40D
330
3A4
100
AcDbEntity
  8
0
 62
     0
100
AcDbLine
 10
41.20047808566079
 20
16.54467964461741
 30
0.0
 11
38.40047808566078
 21
19.34467964461743
 31
0.0
  0
LINE
  5
40E
330
3A4
100
AcDbEntity
  8
0
 62
     0
100
AcDbLine
 10
30.35047808566082
 20
27.39467964461738
 30
0.0
 11
28.38757144745562
 21
29.35758628282258
 31
0.0
  0
LINE
  5
40F
330
3A4
100
AcDbEntity
  8
0
 62
     0
100
AcDbLine
 10
44.48757144745559
 20
13.25758628282261
 30
0.0
 11
43.82547808566079
 21
13.91967964461736
 31
0.0
  0
LINE
  5
410
330
3A4
100
AcDbEntity
  8
0
 62
     0
100
AcDbLine
 10
34.18585434558588
 20
22.66127777258537
 30
0.0
 11
32.05785434558583
 21
24.78927777258542
 31
0.0
  0
LINE
  5
411
330
3A4
100
AcDbEntity
  8
0
 62
     0
100
AcDbLine
 10
30.35047808566076
 20
26.49665403251043
 30
0.0
 11
27.67503315676316
 21
29.17209896140809
 31
0.0
  0
LINE
  5
412
330
3A4
100
AcDbEntity
  8
0
 62
     0
100
AcDbLine
 10
41.20047808566073
 20
15.64665403251052
 30
0.0
 11
38.40047808566078
 21
18.44665403251048
 31
0.0
  0
LINE
  5
413
330
3A4
100
AcDbEntity
  8
0
 62
     0
100
AcDbLine
 10
33.97032819868025
 20
21.97877830738417
 30
0.0
 11
31.84232819868026
 21
24.10677830738416
 31
0.0
  0
LINE
  5
414
330
3A4
100
AcDbEntity
  8
0
 62
     0
100
AcDbLine
 10
30.35047808566082
 20
25.59862842040359
 30
0.0
 11
27.55047808566075
 21
28.39862842040361
 31
0.0
  0
LINE
  5
415
330
3A4
100
AcDbEntity
  8
0
 62
     0
100
AcDbLine
 10
41.20047808566079
 20
14.74862842040363
 30
0.0
 11
38.40047808566078
 21
17.54862842040358
 31
0.0
  0
LINE
  5
416
330
3A4
100
AcDbEntity
  8
0
 62
     0
100
AcDbLine
 10
33.76523968928819
 20
21.28584120466928
 30
0.0
 11
31.62680205177451
 21
23.42427884218295
 31
0.0
  0
LINE
  5
417
330
3A4
100
AcDbEntity
  8
0
 62
     0
100
AcDbLine
 10
30.35047808566082
 20
24.70060280829665
 30
0.0
 11
27.55047808566075
 21
27.50060280829671
 31
0.0
  0
LINE
  5
418
330
3A4
100
AcDbEntity
  8
0
 62
     0
100
AcDbLine
 10
41.20047808566073
 20
13.85060280829668
 30
0.0
 11
38.40047808566078
 21
16.65060280829669
 31
0.0
  0
LINE
  5
419
330
3A4
100
AcDbEntity
  8
0
 62
     0
100
AcDbLine
 10
34.17971304872219
 20
19.97334223312833
 30
0.0
 11
31.33625455608989
 21
22.81680072576063
 31
0.0
  0
LINE
  5
41A
330
3A4
100
AcDbEntity
  8
0
 62
     0
100
AcDbLine
 10
30.35047808566088
 20
23.80257719618964
 30
0.0
 11
27.5504780856607
 21
26.60257719618977
 31
0.0
  0
LINE
  5
41B
330
3A4
100
AcDbEntity
  8
0
 62
     0
100
AcDbLine
 10
40.8614330883284
 20
13.29162219352207
 30
0.0
 11
38.40047808566078
 21
15.75257719618974
 31
0.0
  0
LINE
  5
41C
330
3A4
100
AcDbEntity
  8
0
 62
     0
100
AcDbLine
 10
34.59418640815619
 20
18.6608432615875
 30
0.0
 11
27.55047808566075
 21
25.70455158408293
 31
0.0
  0
LINE
  5
41D
330
3A4
100
AcDbEntity
  8
0
 62
     0
100
AcDbLine
 10
25.10047808566088
 20
28.15455158408281
 30
0.0
 11
23.89744338692111
 21
29.35758628282258
 31
0.0
  0
LINE
  5
41E
330
3A4
100
AcDbEntity
  8
0
 62
     0
100
AcDbLine
 10
39.99744338692113
 20
13.25758628282255
 30
0.0
 11
38.40047808566089
 21
14.8545515840828
 31
0.0
  0
LINE
  5
41F
330
3A4
100
AcDbEntity
  8
0
 62
     0
100
AcDbLine
 10
35.00865976759024
 20
17.34834429004649
 30
0.0
 11
27.55047808566075
 21
24.80652597197599
 31
0.0
  0
LINE
  5
420
330
3A4
100
AcDbEntity
  8
0
 62
     0
100
AcDbLine
 10
25.10047808566088
 20
27.25652597197586
 30
0.0
 11
22.9994177748141
 21
29.35758628282263
 31
0.0
  0
LINE
  5
421
330
3A4
100
AcDbEntity
  8
0
 62
     0
100
AcDbLine
 10
39.09941777481418
 20
13.2575862828225
 30
0.0
 11
38.40047808566083
 21
13.9565259719759
 31
0.0
  0
LINE
  5
422
330
3A4
100
AcDbEntity
  8
0
 62
     0
100
AcDbLine
 10
24.83357139027077
 20
26.62540705525902
 30
0.0
 11
22.13334967205935
 21
29.32562877347038
 31
0.0
  0
LINE
  5
423
330
3A4
100
AcDbEntity
  8
0
 62
     0
100
AcDbLine
 10
35.42313312702418
 20
16.0358453185056
 30
0.0
 11
27.55047808566081
 21
23.90850035986898
 31
0.0
  0
LINE
  5
424
330
3A4
100
AcDbEntity
  8
0
 62
     0
100
AcDbLine
 10
30.68798700800243
 20
19.87296582542046
 30
0.0
 11
27.55047808566081
 21
23.01047474776209
 31
0.0
  0
LINE
  5
425
330
3A4
100
AcDbEntity
  8
0
 62
     0
100
AcDbLine
 10
24.00336655060033
 20
26.55758628282251
 30
0.0
 11
21.39530660247209
 21
29.16564623095081
 31
0.0
  0
LINE
  5
426
330
3A4
100
AcDbEntity
  8
0
 62
     0
100
AcDbLine
 10
35.83760648645824
 20
14.72334634696466
 30
0.0
 11
31.74529879415013
 21
18.81565403927277
 31
0.0
  0
LINE
  5
427
330
3A4
100
AcDbEntity
  8
0
 62
     0
100
AcDbLine
 10
30.35047808566088
 20
19.31244913565512
 30
0.0
 11
27.55047808566081
 21
22.11244913565519
 31
0.0
  0
LINE
  5
428
330
3A4
100
AcDbEntity
  8
0
 62
     0
100
AcDbLine
 10
23.10534093849332
 20
26.55758628282262
 30
0.0
 11
20.75658518664135
 21
28.90634203467459
 31
0.0
  0
LINE
  5
429
330
3A4
100
AcDbEntity
  8
0
 62
     0
100
AcDbLine
 10
36.07264534416884
 20
13.5902818771471
 30
0.0
 11
32.15977215358407
 21
17.50315506773193
 31
0.0
  0
LINE
  5
42A
330
3A4
100
AcDbEntity
  8
0
 62
     0
100
AcDbLine
 10
30.35047808566082
 20
18.41442352354823
 30
0.0
 11
27.55047808566075
 21
21.21442352354824
 31
0.0
  0
LINE
  5
42B
330
3A4
100
AcDbEntity
  8
0
 62
     0
100
AcDbLine
 10
22.26222743594979
 20
26.50267417325926
 30
0.0
 11
20.19783621130682
 21
28.56706539790224
 31
0.0
  0
LINE
  5
42C
330
3A4
100
AcDbEntity
  8
0
 62
     0
100
AcDbLine
 10
35.5073153263865
 20
13.25758628282255
 30
0.0
 11
32.57424551301812
 21
16.19065609619087
 31
0.0
  0
LINE
  5
42D
330
3A4
100
AcDbEntity
  8
0
 62
     0
100
AcDbLine
 10
30.35047808566082
 20
17.51639791144128
 30
0.0
 11
27.55047808566075
 21
20.31639791144135
 31
0.0
  0
LINE
  5
42E
330
3A4
100
AcDbEntity
  8
0
 62
     0
100
AcDbLine
 10
21.6903712431108
 20
26.1765047539913
 30
0.0
 11
19.71018100269503
 21
28.15669499440707
 31
0.0
  0
LINE
  5
42F
330
3A4
100
AcDbEntity
  8
0
 62
     0
100
AcDbLine
 10
34.60928971427955
 20
13.25758628282255
 30
0.0
 11
32.98871887245207
 21
14.87815712465004
 31
0.0
  0
LINE
  5
430
330
3A4
100
AcDbEntity
  8
0
 62
     0
100
AcDbLine
 10
25.43590721845856
 20
21.53294316653671
 30
0.0
 11
23.92583496937481
 21
23.04301541562046
 31
0.0
  0
LINE
  5
431
330
3A4
100
AcDbEntity
  8
0
 62
     0
100
AcDbLine
 10
30.35047808566094
 20
16.61837229933434
 30
0.0
 11
27.55047808566081
 21
19.41837229933446
 31
0.0
  0
LINE
  5
432
330
3A4
100
AcDbEntity
  8
0
 62
     0
100
AcDbLine
 10
21.33424967298185
 20
25.63460071201342
 30
0.0
 11
19.2908149766838
 21
27.67803540831147
 31
0.0
  0
LINE
  5
433
330
3A4
100
AcDbEntity
  8
0
 62
     0
100
AcDbLine
 10
33.66093109796804
 20
13.30791928702723
 30
0.0
 11
33.41057692637673
 21
13.55827345861854
 31
0.0
  0
LINE
  5
434
330
3A4
100
AcDbEntity
  8
0
 62
     0
100
AcDbLine
 10
25.34939355831665
 20
20.72143121457167
 30
0.0
 11
23.11432301740978
 21
22.95650175547854
 31
0.0
  0
LINE
  5
435
330
3A4
100
AcDbEntity
  8
0
 62
     0
100
AcDbLine
 10
21.25047808566091
 20
24.82034668722741
 30
0.0
 11
18.94187595572214
 21
27.12894881716619
 31
0.0
  0
LINE
  5
436
330
3A4
100
AcDbEntity
  8
0
 62
     0
100
AcDbLine
 10
30.35047808566088
 20
15.72034668722739
 30
0.0
 11
27.55047808566075
 21
18.52034668722757
 31
0.0
  0
LINE
  5
437
330
3A4
100
AcDbEntity
  8
0
 62
     0
100
AcDbLine
 10
25.0175379990186
 20
20.15526116176272
 30
0.0
 11
22.54815296460083
 21
22.62464619618049
 31
0.0
  0
LINE
  5
438
330
3A4
100
AcDbEntity
  8
0
 62
     0
100
AcDbLine
 10
21.25047808566091
 20
23.92232107512046
 30
0.0
 11
18.67129624851196
 21
26.50150291226941
 31
0.0
  0
LINE
  5
439
330
3A4
100
AcDbEntity
  8
0
 62
     0
100
AcDbLine
 10
30.35047808566088
 20
14.82232107512049
 30
0.0
 11
27.55047808566081
 21
17.62232107512056
 31
0.0
  0
LINE
  5
43A
330
3A4
100
AcDbEntity
  8
0
 62
     0
100
AcDbLine
 10
21.25047808566091
 20
23.02429546301357
 30
0.0
 11
18.49658237558611
 21
25.77819117308843
 31
0.0
  0
LINE
  5
43B
330
3A4
100
AcDbEntity
  8
0
 62
     0
100
AcDbLine
 10
24.51570455688215
 20
19.75906899179238
 30
0.0
 11
22.15196079463049
 21
22.12281275404405
 31
0.0
  0
LINE
  5
43C
330
3A4
100
AcDbEntity
  8
0
 62
     0
100
AcDbLine
 10
15.82547808566073
 20
28.44929546301375
 30
0.0
 11
14.91718726585185
 21
29.35758628282269
 31
0.0
  0
LINE
  5
43D
330
3A4
100
AcDbEntity
  8
0
 62
     0
100
AcDbLine
 10
30.35047808566094
 20
13.9242954630136
 30
0.0
 11
27.55047808566087
 21
16.72429546301367
 31
0.0
  0
LINE
  5
43E
330
3A4
100
AcDbEntity
  8
0
 62
     0
100
AcDbLine
 10
21.25047808566091
 20
22.12626985090668
 30
0.0
 11
18.45047808566084
 21
24.92626985090675
 31
0.0
  0
LINE
  5
43F
330
3A4
100
AcDbEntity
  8
0
 62
     0
100
AcDbLine
 10
23.81538511445473
 20
19.56136282211287
 30
0.0
 11
21.95425462495097
 21
21.42249331161662
 31
0.0
  0
LINE
  5
440
330
3A4
100
AcDbEntity
  8
0
 62
     0
100
AcDbLine
 10
15.82547808566073
 20
27.55126985090686
 30
0.0
 11
14.0191616537449
 21
29.35758628282263
 31
0.0
  0
LINE
  5
441
330
3A4
100
AcDbEntity
  8
0
 62
     0
100
AcDbLine
 10
30.06257428439022
 20
13.31417365217737
 30
0.0
 11
27.55047808566081
 21
15.82626985090672
 31
0.0
  0
LINE
  5
442
330
3A4
100
AcDbEntity
  8
0
 62
     0
100
AcDbLine
 10
21.25047808566091
 20
21.22824423879973
 30
0.0
 11
18.45047808566084
 21
24.0282442387998
 31
0.0
  0
LINE
  5
443
330
3A4
100
AcDbEntity
  8
0
 62
     0
100
AcDbLine
 10
15.71644411539045
 20
26.76227820907019
 30
0.0
 11
13.12113604163789
 21
29.35758628282269
 31
0.0
  0
LINE
  5
444
330
3A4
100
AcDbEntity
  8
0
 62
     0
100
AcDbLine
 10
29.22113604163809
 20
13.2575862828225
 30
0.0
 11
27.55047808566081
 21
14.92824423879983
 31
0.0
  0
LINE
  5
445
330
3A4
100
AcDbEntity
  8
0
 62
     0
100
AcDbLine
 10
21.25047808566085
 20
20.33021862669284
 30
0.0
 11
18.45047808566079
 21
23.13021862669285
 31
0.0
  0
LINE
  5
446
330
3A4
100
AcDbEntity
  8
0
 62
     0
100
AcDbLine
 10
15.02311042953112
 20
26.55758628282256
 30
0.0
 11
12.223110429531
 21
29.35758628282269
 31
0.0
  0
LINE
  5
447
330
3A4
100
AcDbEntity
  8
0
 62
     0
100
AcDbLine
 10
28.32311042953108
 20
13.25758628282255
 30
0.0
 11
27.55047808566081
 21
14.03021862669288
 31
0.0
  0
LINE
  5
448
330
3A4
100
AcDbEntity
  8
0
 62
     0
100
AcDbLine
 10
21.25047808566091
 20
19.43219301458595
 30
0.0
 11
18.45047808566084
 21
22.23219301458601
 31
0.0
  0
LINE
  5
449
330
3A4
100
AcDbEntity
  8
0
 62
     0
100
AcDbLine
 10
14.12508481742423
 20
26.55758628282256
 30
0.0
 11
11.35995554531933
 21
29.32271555492752
 31
0.0
  0
LINE
  5
44A
330
3A4
100
AcDbEntity
  8
0
 62
     0
100
AcDbLine
 10
25.09787563682391
 20
15.58479546342289
 30
0.0
 11
24.6276872662612
 21
16.05498383398566
 31
0.0
  0
LINE
  5
44B
330
3A4
100
AcDbEntity
  8
0
 62
     0
100
AcDbLine
 10
21.25047808566085
 20
18.53416740247899
 30
0.0
 11
18.45047808566084
 21
21.33416740247906
 31
0.0
  0
LINE
  5
44C
330
3A4
100
AcDbEntity
  8
0
 62
     0
100
AcDbLine
 10
13.22705920531734
 20
26.55758628282256
 30
0.0
 11
10.66682073684086
 21
29.11782475129905
 31
0.0
  0
LINE
  5
44D
330
3A4
100
AcDbEntity
  8
0
 62
     0
100
AcDbLine
 10
25.10047808566082
 20
14.68416740247903
 30
0.0
 11
23.72705920531728
 21
16.05758628282262
 31
0.0
  0
LINE
  5
44E
330
3A4
100
AcDbEntity
  8
0
 62
     0
100
AcDbLine
 10
21.25047808566085
 20
17.6361417903721
 30
0.0
 11
18.4504780856609
 21
20.43614179037206
 31
0.0
  0
LINE
  5
44F
330
3A4
100
AcDbEntity
  8
0
 62
     0
100
AcDbLine
 10
12.32903359321039
 20
26.55758628282251
 30
0.0
 11
10.10257407699362
 21
28.78404579903929
 31
0.0
  0
LINE
  5
450
330
3A4
100
AcDbEntity
  8
0
 62
     0
100
AcDbLine
 10
25.10047808566082
 20
13.78614179037214
 30
0.0
 11
22.82903359321039
 21
16.05758628282251
 31
0.0
  0
LINE
  5
451
330
3A4
100
AcDbEntity
  8
0
 62
     0
100
AcDbLine
 10
11.8187407655958
 20
26.16985349833032
 30
0.0
 11
9.644481264752869
 21
28.34411299917326
 31
0.0
  0
LINE
  5
452
330
3A4
100
AcDbEntity
  8
0
 62
     0
100
AcDbLine
 10
24.71274530116852
 20
13.2758489627576
 30
0.0
 11
18.4504780856609
 21
19.53811617826522
 31
0.0
  0
LINE
  5
453
330
3A4
100
AcDbEntity
  8
0
 62
     0
100
AcDbLine
 10
11.80047808566087
 20
25.29009056615831
 30
0.0
 11
9.291000062283785
 21
27.79956858953539
 31
0.0
  0
LINE
  5
454
330
3A4
100
AcDbEntity
  8
0
 62
     0
100
AcDbLine
 10
23.83298236899662
 20
13.25758628282255
 30
0.0
 11
18.4504780856609
 21
18.64009056615827
 31
0.0
  0
LINE
  5
455
330
3A4
100
AcDbEntity
  8
0
 62
     0
100
AcDbLine
 10
11.86261379379629
 20
24.32992924591587
 30
0.0
 11
9.060119959990061
 21
27.13242307972217
 31
0.0
  0
LINE
  5
456
330
3A4
100
AcDbEntity
  8
0
 62
     0
100
AcDbLine
 10
22.93495675688962
 20
13.25758628282261
 30
0.0
 11
18.45047808566084
 21
17.74206495405133
 31
0.0
  0
LINE
  5
457
330
3A4
100
AcDbEntity
  8
0
 62
     0
100
AcDbLine
 10
16.15485417688353
 20
19.13966325072181
 30
0.0
 11
9.000478085660915
 21
26.29403934194442
 31
0.0
  0
LINE
  5
458
330
3A4
100
AcDbEntity
  8
0
 62
     0
100
AcDbLine
 10
21.98365905772607
 20
13.31085836987927
 30
0.0
 11
18.5037501727175
 21
16.79076725488783
 31
0.0
  0
LINE
  5
459
330
3A4
100
AcDbEntity
  8
0
 62
     0
100
AcDbLine
 10
16.34674869096875
 20
18.04974312452969
 30
0.0
 11
9.000478085660802
 21
25.39601372983764
 31
0.0
  0
LINE
  5
45A
330
3A4
100
AcDbEntity
  8
0
 62
     0
100
AcDbLine
 10
20.60985114512448
 20
13.78664067037391
 30
0.0
 11
18.97953247321209
 21
15.41695934228636
 31
0.0
  0
LINE
  5
45B
330
3A4
100
AcDbEntity
  8
0
 62
     0
100
AcDbLine
 10
16.35047808566088
 20
17.14798811773062
 30
0.0
 11
9.008042533083198
 21
24.49042367030824
 31
0.0
  0
LINE
  5
45C
330
3A4
100
AcDbEntity
  8
0
 62
     0
100
AcDbLine
 10
16.35047808566082
 20
16.24996250562372
 30
0.0
 11
9.231333291407054
 21
23.36910729987744
 31
0.0
  0
LINE
  5
45D
330
3A4
100
AcDbEntity
  8
0
 62
     0
100
AcDbLine
 10
16.27795808952891
 20
15.4244568896488
 30
0.0
 11
13.51456644590985
 21
18.18784853326786
 31
0.0
  0
LINE
  5
45E
330
3A4
100
AcDbEntity
  8
0
 62
     0
100
AcDbLine
 10
16.03602015050006
 20
14.7683692165707
 30
0.0
 11
13.55047808566081
 21
17.25391128140995
 31
0.0
  0
LINE
  5
45F
330
3A4
100
AcDbEntity
  8
0
 62
     0
100
AcDbLine
 10
15.67390090311829
 20
14.23246285184552
 30
0.0
 11
13.51457905336013
 21
16.39178470160368
 31
0.0
  0
LINE
  5
460
330
3A4
100
AcDbEntity
  8
0
 62
     0
100
AcDbLine
 10
15.20767453085142
 20
13.8006636120055
 30
0.0
 11
12.9507518600343
 21
16.05758628282268
 31
0.0
  0
LINE
  5
461
330
3A4
100
AcDbEntity
  8
0
 62
     0
100
AcDbLine
 10
14.6344100831186
 20
13.47590244763142
 30
0.0
 11
12.05272624792735
 21
16.05758628282262
 31
0.0
  0
LINE
  5
462
330
3A4
100
AcDbEntity
  8
0
 62
     0
100
AcDbLine
 10
13.92899749403267
 20
13.28328942461041
 30
0.0
 11
11.15470063582046
 21
16.05758628282262
 31
0.0
  0
LINE
  5
463
330
3A4
100
AcDbEntity
  8
0
 62
     0
100
AcDbLine
 10
13.05667502371363
 20
13.25758628282244
 30
0.0
 11
10.25667502371351
 21
16.05758628282262
 31
0.0
  0
LINE
  5
464
330
3A4
100
AcDbEntity
  8
0
 62
     0
100
AcDbLine
 10
12.15864941160669
 20
13.25758628282255
 30
0.0
 11
9.605325516788809
 21
15.81091017764049
 31
0.0
  0
LINE
  5
465
330
3A4
100
AcDbEntity
  8
0
 62
     0
100
AcDbLine
 10
11.26062379949979
 20
13.25758628282255
 30
0.0
 11
9.525478085660836
 21
14.99273199666151
 31
0.0
  0
LINE
  5
466
330
3A4
100
AcDbEntity
  8
0
 62
     0
100
AcDbLine
 10
10.36259818739284
 20
13.25758628282255
 30
0.0
 11
9.525478085660836
 21
14.09470638455457
 31
0.0
  0
LINE
  5
467
330
3A4
100
AcDbEntity
  8
0
 62
     0
100
AcDbLine
 10
66.34216537032779
 20
13.27071805994012
 30
0.0
 11
66.73734630854358
 21
13.66589899815591
 31
0.0
  0
LINE
  5
468
330
3A4
100
AcDbEntity
  8
0
 62
     0
100
AcDbLine
 10
65.43100798110334
 20
13.2575862828225
 30
0.0
 11
66.75047808566103
 21
14.57705638738019
 31
0.0
  0
LINE
  5
469
330
3A4
100
AcDbEntity
  8
0
 62
     0
100
AcDbLine
 10
64.53298236899644
 20
13.2575862828225
 30
0.0
 11
66.75047808566103
 21
15.47508199948708
 31
0.0
  0
LINE
  5
46A
330
3A4
100
AcDbEntity
  8
0
 62
     0
100
AcDbLine
 10
63.9816756489127
 20
13.6043051748457
 30
0.0
 11
66.75047808566097
 21
16.37310761159403
 31
0.0
  0
LINE
  5
46B
330
3A4
100
AcDbEntity
  8
0
 62
     0
100
AcDbLine
 10
63.9504780856609
 20
14.47113322370086
 30
0.0
 11
66.75047808566097
 21
17.27113322370087
 31
0.0
  0
LINE
  5
46C
330
3A4
100
AcDbEntity
  8
0
 62
     0
100
AcDbLine
 10
63.95047808566096
 20
15.36915883580775
 30
0.0
 11
66.75047808566097
 21
18.16915883580782
 31
0.0
  0
LINE
  5
46D
330
3A4
100
AcDbEntity
  8
0
 62
     0
100
AcDbLine
 10
63.9504780856609
 20
16.2671844479147
 30
0.0
 11
66.75047808566097
 21
19.06718444791477
 31
0.0
  0
LINE
  5
46E
330
3A4
100
AcDbEntity
  8
0
 62
     0
100
AcDbLine
 10
63.9504780856609
 20
17.16521006002159
 30
0.0
 11
66.75047808566097
 21
19.96521006002166
 31
0.0
  0
LINE
  5
46F
330
3A4
100
AcDbEntity
  8
0
 62
     0
100
AcDbLine
 10
60.37704294772618
 20
13.59177492208686
 30
0.0
 11
61.51628944639674
 21
14.73102142075748
 31
0.0
  0
LINE
  5
470
330
3A4
100
AcDbEntity
  8
0
 62
     0
100
AcDbLine
 10
63.9504780856609
 20
18.06323567212848
 30
0.0
 11
66.75047808566097
 21
20.86323567212855
 31
0.0
  0
LINE
  5
471
330
3A4
100
AcDbEntity
  8
0
 62
     0
100
AcDbLine
 10
59.14647478120338
 20
13.25923236767096
 30
0.0
 11
61.8488320008127
 21
15.96158958728023
 31
0.0
  0
LINE
  5
472
330
3A4
100
AcDbEntity
  8
0
 62
     0
100
AcDbLine
 10
63.9504780856609
 20
18.96126128423543
 30
0.0
 11
66.75047808566097
 21
21.76126128423544
 31
0.0
  0
LINE
  5
473
330
3A4
100
AcDbEntity
  8
0
 62
     0
100
AcDbLine
 10
58.24680308424797
 20
13.2575862828225
 30
0.0
 11
61.850478085661
 21
16.86126128423546
 31
0.0
  0
LINE
  5
474
330
3A4
100
AcDbEntity
  8
0
 62
     0
100
AcDbLine
 10
63.9504780856609
 20
19.85928689634232
 30
0.0
 11
66.75047808566091
 21
22.65928689634239
 31
0.0
  0
LINE
  5
475
330
3A4
100
AcDbEntity
  8
0
 62
     0
100
AcDbLine
 10
57.34877747214108
 20
13.2575862828225
 30
0.0
 11
61.85047808566094
 21
17.75928689634241
 31
0.0
  0
LINE
  5
476
330
3A4
100
AcDbEntity
  8
0
 62
     0
100
AcDbLine
 10
63.9504780856609
 20
20.75731250844921
 30
0.0
 11
66.75047808566097
 21
23.55731250844928
 31
0.0
  0
LINE
  5
477
330
3A4
100
AcDbEntity
  8
0
 62
     0
100
AcDbLine
 10
56.45075186003424
 20
13.25758628282255
 30
0.0
 11
61.850478085661
 21
18.6573125084493
 31
0.0
  0
LINE
  5
478
330
3A4
100
AcDbEntity
  8
0
 62
     0
100
AcDbLine
 10
58.94588688357988
 20
16.65074691847513
 30
0.0
 11
61.850478085661
 21
19.5553381205562
 31
0.0
  0
LINE
  5
479
330
3A4
100
AcDbEntity
  8
0
 62
     0
100
AcDbLine
 10
63.9504780856609
 20
21.65533812055611
 30
0.0
 11
66.75047808566097
 21
24.45533812055618
 31
0.0
  0
LINE
  5
47A
330
3A4
100
AcDbEntity
  8
0
 62
     0
100
AcDbLine
 10
55.55272624792724
 20
13.2575862828225
 30
0.0
 11
58.45731745000836
 21
16.16217748490356
 31
0.0
  0
LINE
  5
47B
330
3A4
100
AcDbEntity
  8
0
 62
     0
100
AcDbLine
 10
59.05047808566087
 20
17.65336373266308
 30
0.0
 11
61.85047808566094
 21
20.45336373266315
 31
0.0
  0
LINE
  5
47C
330
3A4
100
AcDbEntity
  8
0
 62
     0
100
AcDbLine
 10
63.95047808566085
 20
22.55336373266306
 30
0.0
 11
66.75047808566091
 21
25.35336373266313
 31
0.0
  0
LINE
  5
47D
330
3A4
100
AcDbEntity
  8
0
 62
     0
100
AcDbLine
 10
54.76665038719755
 20
13.36953603419971
 30
0.0
 11
57.45470063582041
 21
16.05758628282257
 31
0.0
  0
LINE
  5
47E
330
3A4
100
AcDbEntity
  8
0
 62
     0
100
AcDbLine
 10
59.05047808566092
 20
18.55138934477008
 30
0.0
 11
61.85047808566094
 21
21.35138934477004
 31
0.0
  0
LINE
  5
47F
330
3A4
100
AcDbEntity
  8
0
 62
     0
100
AcDbLine
 10
63.95047808566085
 20
23.45138934477
 30
0.0
 11
66.75047808566091
 21
26.25138934477002
 31
0.0
  0
LINE
  5
480
330
3A4
100
AcDbEntity
  8
0
 62
     0
100
AcDbLine
 10
54.1386635199874
 20
13.63957477909656
 30
0.0
 11
56.55755280935784
 21
16.058464068467
 31
0.0
  0
LINE
  5
481
330
3A4
100
AcDbEntity
  8
0
 62
     0
100
AcDbLine
 10
59.05047808566099
 20
19.44941495687698
 30
0.0
 11
61.85047808566094
 21
22.24941495687693
 31
0.0
  0
LINE
  5
482
330
3A4
100
AcDbEntity
  8
0
 62
     0
100
AcDbLine
 10
63.9504780856609
 20
24.34941495687684
 30
0.0
 11
66.75047808566091
 21
27.14941495687691
 31
0.0
  0
LINE
  5
483
330
3A4
100
AcDbEntity
  8
0
 62
     0
100
AcDbLine
 10
53.62540363862234
 20
14.02434050983828
 30
0.0
 11
55.91407422064515
 21
16.31301109186114
 31
0.0
  0
LINE
  5
484
330
3A4
100
AcDbEntity
  8
0
 62
     0
100
AcDbLine
 10
59.05047808566099
 20
20.34744056898387
 30
0.0
 11
61.85047808566094
 21
23.14744056898388
 31
0.0
  0
LINE
  5
485
330
3A4
100
AcDbEntity
  8
0
 62
     0
100
AcDbLine
 10
63.95047808566085
 20
25.24744056898379
 30
0.0
 11
66.75047808566091
 21
28.04744056898385
 31
0.0
  0
LINE
  5
486
330
3A4
100
AcDbEntity
  8
0
 62
     0
100
AcDbLine
 10
53.21543946339722
 20
14.5124019467201
 30
0.0
 11
55.57683594223573
 21
16.87379842555867
 31
0.0
  0
LINE
  5
487
330
3A4
100
AcDbEntity
  8
0
 62
     0
100
AcDbLine
 10
59.05047808566092
 20
21.24546618109082
 30
0.0
 11
61.850478085661
 21
24.04546618109089
 31
0.0
  0
LINE
  5
488
330
3A4
100
AcDbEntity
  8
0
 62
     0
100
AcDbLine
 10
63.95047808566085
 20
26.14546618109068
 30
0.0
 11
66.74032893211045
 21
28.93531702754035
 31
0.0
  0
LINE
  5
489
330
3A4
100
AcDbEntity
  8
0
 62
     0
100
AcDbLine
 10
52.91551458496321
 20
15.11050268039309
 30
0.0
 11
55.55047808566093
 21
17.74546618109076
 31
0.0
  0
LINE
  5
48A
330
3A4
100
AcDbEntity
  8
0
 62
     0
100
AcDbLine
 10
59.05047808566099
 20
22.14349179319765
 30
0.0
 11
61.85047808566105
 21
24.94349179319772
 31
0.0
  0
LINE
  5
48B
330
3A4
100
AcDbEntity
  8
0
 62
     0
100
AcDbLine
 10
63.95047808566085
 20
27.04349179319757
 30
0.0
 11
66.26321458703097
 21
29.3562282945677
 31
0.0
  0
LINE
  5
48C
330
3A4
100
AcDbEntity
  8
0
 62
     0
100
AcDbLine
 10
52.75810105000676
 20
15.85111475754348
 30
0.0
 11
55.55047808566093
 21
18.64349179319765
 31
0.0
  0
LINE
  5
48D
330
3A4
100
AcDbEntity
  8
0
 62
     0
100
AcDbLine
 10
59.05047808566092
 20
23.0415174053046
 30
0.0
 11
61.850478085661
 21
25.84151740530467
 31
0.0
  0
LINE
  5
48E
330
3A4
100
AcDbEntity
  8
0
 62
     0
100
AcDbLine
 10
63.9504780856609
 20
27.94151740530458
 30
0.0
 11
65.3665469631789
 21
29.35758628282258
 31
0.0
  0
LINE
  5
48F
330
3A4
100
AcDbEntity
  8
0
 62
     0
100
AcDbLine
 10
52.75047808566097
 20
16.74151740530459
 30
0.0
 11
55.55047808566098
 21
19.54151740530465
 31
0.0
  0
LINE
  5
490
330
3A4
100
AcDbEntity
  8
0
 62
     0
100
AcDbLine
 10
59.05047808566092
 20
23.93954301741155
 30
0.0
 11
61.850478085661
 21
26.73954301741156
 31
0.0
  0
LINE
  5
491
330
3A4
100
AcDbEntity
  8
0
 62
     0
100
AcDbLine
 10
52.75047808566092
 20
17.63954301741154
 30
0.0
 11
55.55047808566098
 21
20.4395430174116
 31
0.0
  0
LINE
  5
492
330
3A4
100
AcDbEntity
  8
0
 62
     0
100
AcDbLine
 10
63.95052480040835
 20
28.83958973215897
 30
0.0
 11
64.46847463632463
 21
29.3575395680752
 31
0.0
  0
LINE
  5
493
330
3A4
100
AcDbEntity
  8
0
 62
     0
100
AcDbLine
 10
48.42892245494891
 20
13.31798738669948
 30
0.0
 11
50.59007698178408
 21
15.4791419135347
 31
0.0
  0
LINE
  5
494
330
3A4
100
AcDbEntity
  8
0
 62
     0
100
AcDbLine
 10
52.75047808566092
 20
18.53756862951843
 30
0.0
 11
55.55047808566098
 21
21.33756862951849
 31
0.0
  0
LINE
  5
495
330
3A4
100
AcDbEntity
  8
0
 62
     0
100
AcDbLine
 10
59.05047808566092
 20
24.83756862951844
 30
0.0
 11
61.85047808566094
 21
27.63756862951851
 31
0.0
  0
LINE
  5
496
330
3A4
100
AcDbEntity
  8
0
 62
     0
100
AcDbLine
 10
47.47049573896504
 20
13.25758628282261
 30
0.0
 11
50.65047808566089
 21
16.43756862951846
 31
0.0
  0
LINE
  5
497
330
3A4
100
AcDbEntity
  8
0
 62
     0
100
AcDbLine
 10
52.75047808566092
 20
19.43559424162532
 30
0.0
 11
55.55047808566098
 21
22.23559424162539
 31
0.0
  0
LINE
  5
498
330
3A4
100
AcDbEntity
  8
0
 62
     0
100
AcDbLine
 10
59.05047808566092
 20
25.73559424162533
 30
0.0
 11
61.850478085661
 21
28.5355942416254
 31
0.0
  0
LINE
  5
499
330
3A4
100
AcDbEntity
  8
0
 62
     0
100
AcDbLine
 10
46.57247012685814
 20
13.25758628282255
 30
0.0
 11
50.65047808566095
 21
17.3355942416253
 31
0.0
  0
LINE
  5
49A
330
3A4
100
AcDbEntity
  8
0
 62
     0
100
AcDbLine
 10
52.75047808566092
 20
20.33361985373227
 30
0.0
 11
55.55047808566098
 21
23.13361985373228
 31
0.0
  0
LINE
  5
49B
330
3A4
100
AcDbEntity
  8
0
 62
     0
100
AcDbLine
 10
59.05047808566092
 20
26.63361985373223
 30
0.0
 11
61.65674063082684
 21
29.2398823988982
 31
0.0
  0
LINE
  5
49C
330
3A4
100
AcDbEntity
  8
0
 62
     0
100
AcDbLine
 10
45.67444451475125
 20
13.25758628282261
 30
0.0
 11
50.63615948524807
 21
18.21930125331937
 31
0.0
  0
LINE
  5
49D
330
3A4
100
AcDbEntity
  8
0
 62
     0
100
AcDbLine
 10
52.75047808566092
 20
21.23164546583916
 30
0.0
 11
55.55047808566093
 21
24.03164546583923
 31
0.0
  0
LINE
  5
49E
330
3A4
100
AcDbEntity
  8
0
 62
     0
100
AcDbLine
 10
59.05047808566087
 20
27.53164546583917
 30
0.0
 11
60.87641890264433
 21
29.35758628282263
 31
0.0
  0
LINE
  5
49F
330
3A4
100
AcDbEntity
  8
0
 62
     0
100
AcDbLine
 10
44.77641890264431
 20
13.25758628282261
 30
0.0
 11
50.50124711461927
 21
18.98241449479758
 31
0.0
  0
LINE
  5
4A0
330
3A4
100
AcDbEntity
  8
0
 62
     0
100
AcDbLine
 10
52.75047808566092
 20
22.12967107794605
 30
0.0
 11
55.55047808566098
 21
24.92967107794612
 31
0.0
  0
LINE
  5
4A1
330
3A4
100
AcDbEntity
  8
0
 62
     0
100
AcDbLine
 10
47.85047808566105
 20
17.22967107794613
 30
0.0
 11
50.26065965770072
 21
19.63985264998586
 31
0.0
  0
LINE
  5
4A2
330
3A4
100
AcDbEntity
  8
0
 62
     0
100
AcDbLine
 10
59.05047808566092
 20
28.42967107794606
 30
0.0
 11
59.9783932905375
 21
29.35758628282263
 31
0.0
  0
LINE
  5
4A3
330
3A4
100
AcDbEntity
  8
0
 62
     0
100
AcDbLine
 10
44.00664864366854
 20
13.38584163595368
 30
0.0
 11
46.67839329053743
 21
16.05758628282257
 31
0.0
  0
LINE
  5
4A4
330
3A4
100
AcDbEntity
  8
0
 62
     0
100
AcDbLine
 10
47.83060751053364
 20
18.10782611492567
 30
0.0
 11
49.93716035284013
 21
20.21437895723215
 31
0.0
  0
LINE
  5
4A5
330
3A4
100
AcDbEntity
  8
0
 62
     0
100
AcDbLine
 10
52.75047808566092
 20
23.02769669005294
 30
0.0
 11
55.55047808566093
 21
25.82769669005301
 31
0.0
  0
LINE
  5
4A6
330
3A4
100
AcDbEntity
  8
0
 62
     0
100
AcDbLine
 10
43.82547808566096
 20
14.10269669005299
 30
0.0
 11
45.78036767843047
 21
16.05758628282257
 31
0.0
  0
LINE
  5
4A7
330
3A4
100
AcDbEntity
  8
0
 62
     0
100
AcDbLine
 10
47.55622267339475
 20
18.73146688989379
 30
0.0
 11
49.54128923491231
 21
20.71653345141135
 31
0.0
  0
LINE
  5
4A8
330
3A4
100
AcDbEntity
  8
0
 62
     0
100
AcDbLine
 10
52.75047808566085
 20
23.92572230215989
 30
0.0
 11
55.55047808566093
 21
26.72572230215996
 31
0.0
  0
LINE
  5
4A9
330
3A4
100
AcDbEntity
  8
0
 62
     0
100
AcDbLine
 10
43.8254780856609
 20
15.00072230215994
 30
0.0
 11
44.88234206632358
 21
16.05758628282262
 31
0.0
  0
LINE
  5
4AA
330
3A4
100
AcDbEntity
  8
0
 62
     0
100
AcDbLine
 10
52.75047808566092
 20
24.82374791426678
 30
0.0
 11
55.55047808566098
 21
27.6237479142668
 31
0.0
  0
LINE
  5
4AB
330
3A4
100
AcDbEntity
  8
0
 62
     0
100
AcDbLine
 10
47.11494777627769
 20
19.1882176048835
 30
0.0
 11
49.09484676360006
 21
21.16811659220593
 31
0.0
  0
LINE
  5
4AC
330
3A4
100
AcDbEntity
  8
0
 62
     0
100
AcDbLine
 10
46.66593497022421
 20
19.63723041093698
 30
0.0
 11
48.64583395754658
 21
21.6171293982594
 31
0.0
  0
LINE
  5
4AD
330
3A4
100
AcDbEntity
  8
0
 62
     0
100
AcDbLine
 10
52.75047808566085
 20
25.72177352637368
 30
0.0
 11
55.55047808566093
 21
28.52177352637374
 31
0.0
  0
LINE
  5
4AE
330
3A4
100
AcDbEntity
  8
0
 62
     0
100
AcDbLine
 10
40.28629084210973
 20
13.25758628282255
 30
0.0
 11
41.2004780856609
 21
14.17177352637366
 31
0.0
  0
LINE
  5
4AF
330
3A4
100
AcDbEntity
  8
0
 62
     0
100
AcDbLine
 10
46.21692216417073
 20
20.08624321699045
 30
0.0
 11
48.19682115149311
 21
22.06614220431288
 31
0.0
  0
LINE
  5
4B0
330
3A4
100
AcDbEntity
  8
0
 62
     0
100
AcDbLine
 10
52.75047808566085
 20
26.61979913848063
 30
0.0
 11
55.36429717756226
 21
29.23361823038197
 31
0.0
  0
LINE
  5
4B1
330
3A4
100
AcDbEntity
  8
0
 62
     0
100
AcDbLine
 10
39.38826523000278
 20
13.25758628282255
 30
0.0
 11
41.20047808566096
 21
15.06979913848067
 31
0.0
  0
LINE
  5
4B2
330
3A4
100
AcDbEntity
  8
0
 62
     0
100
AcDbLine
 10
45.76790935811726
 20
20.53525602304393
 30
0.0
 11
47.74780834543963
 21
22.51515501036635
 31
0.0
  0
LINE
  5
4B3
330
3A4
100
AcDbEntity
  8
0
 62
     0
100
AcDbLine
 10
52.75047808566085
 20
27.51782475058752
 30
0.0
 11
54.59023961789597
 21
29.35758628282269
 31
0.0
  0
LINE
  5
4B4
330
3A4
100
AcDbEntity
  8
0
 62
     0
100
AcDbLine
 10
38.60185075575788
 20
13.36919742068454
 30
0.0
 11
41.2004780856609
 21
15.96782475058762
 31
0.0
  0
LINE
  5
4B5
330
3A4
100
AcDbEntity
  8
0
 62
     0
100
AcDbLine
 10
45.31889655206384
 20
20.98426882909734
 30
0.0
 11
47.29879553938622
 21
22.96416781641977
 31
0.0
  0
LINE
  5
4B6
330
3A4
100
AcDbEntity
  8
0
 62
     0
100
AcDbLine
 10
52.75047808566085
 20
28.41585036269441
 30
0.0
 11
53.69221400578914
 21
29.35758628282263
 31
0.0
  0
LINE
  5
4B7
330
3A4
100
AcDbEntity
  8
0
 62
     0
100
AcDbLine
 10
38.40047808566095
 20
14.0658503626945
 30
0.0
 11
41.20047808566096
 21
16.86585036269446
 31
0.0
  0
LINE
  5
4B8
330
3A4
100
AcDbEntity
  8
0
 62
     0
100
AcDbLine
 10
44.86988374601037
 20
21.43328163515082
 30
0.0
 11
46.84978273333274
 21
23.41318062247324
 31
0.0
  0
LINE
  5
4B9
330
3A4
100
AcDbEntity
  8
0
 62
     0
100
AcDbLine
 10
38.40047808566095
 20
14.96387597480145
 30
0.0
 11
41.2004780856609
 21
17.7638759748014
 31
0.0
  0
LINE
  5
4BA
330
3A4
100
AcDbEntity
  8
0
 62
     0
100
AcDbLine
 10
44.42289984496904
 20
21.88432334621649
 30
0.0
 11
46.40687337835106
 21
23.86829687959846
 31
0.0
  0
LINE
  5
4BB
330
3A4
100
AcDbEntity
  8
0
 62
     0
100
AcDbLine
 10
38.40047808566095
 20
15.86190158690834
 30
0.0
 11
41.2004780856609
 21
18.66190158690835
 31
0.0
  0
LINE
  5
4BC
330
3A4
100
AcDbEntity
  8
0
 62
     0
100
AcDbLine
 10
49.09616278157511
 20
26.55758628282256
 30
0.0
 11
50.12547808566097
 21
27.58690158690837
 31
0.0
  0
LINE
  5
4BD
330
3A4
100
AcDbEntity
  8
0
 62
     0
100
AcDbLine
 10
35.90782186095072
 20
13.36924536219811
 30
0.0
 11
35.99747422240574
 21
13.45889772365319
 31
0.0
  0
LINE
  5
4BE
330
3A4
100
AcDbEntity
  8
0
 62
     0
100
AcDbLine
 10
44.02489766614706
 20
22.38434677950135
 30
0.0
 11
46.12453194356567
 21
24.48398105691996
 31
0.0
  0
LINE
  5
4BF
330
3A4
100
AcDbEntity
  8
0
 62
     0
100
AcDbLine
 10
38.40047808566095
 20
16.75992719901523
 30
0.0
 11
41.20047808566096
 21
19.55992719901519
 31
0.0
  0
LINE
  5
4C0
330
3A4
100
AcDbEntity
  8
0
 62
     0
100
AcDbLine
 10
48.19813716946834
 20
26.55758628282262
 30
0.0
 11
50.12547808566097
 21
28.48492719901526
 31
0.0
  0
LINE
  5
4C1
330
3A4
100
AcDbEntity
  8
0
 62
     0
100
AcDbLine
 10
34.89813716946827
 20
13.25758628282255
 30
0.0
 11
35.9639162657748
 21
14.32336537912908
 31
0.0
  0
LINE
  5
4C2
330
3A4
100
AcDbEntity
  8
0
 62
     0
100
AcDbLine
 10
43.69906340175037
 20
22.95653812721161
 30
0.0
 11
46.10047808566105
 21
25.35795281112228
 31
0.0
  0
LINE
  5
4C3
330
3A4
100
AcDbEntity
  8
0
 62
     0
100
AcDbLine
 10
38.40047808566095
 20
17.65795281112213
 30
0.0
 11
41.2004780856609
 21
20.45795281112213
 31
0.0
  0
LINE
  5
4C4
330
3A4
100
AcDbEntity
  8
0
 62
     0
100
AcDbLine
 10
47.30011155736133
 20
26.55758628282256
 30
0.0
 11
49.95880915386305
 21
29.21628387932429
 31
0.0
  0
LINE
  5
4C5
330
3A4
100
AcDbEntity
  8
0
 62
     0
100
AcDbLine
 10
34.00011155736126
 20
13.2575862828225
 30
0.0
 11
35.74839011886911
 21
15.00586484433034
 31
0.0
  0
LINE
  5
4C6
330
3A4
100
AcDbEntity
  8
0
 62
     0
100
AcDbLine
 10
38.40047808566089
 20
18.55597842322907
 30
0.0
 11
41.2004780856609
 21
21.35597842322903
 31
0.0
  0
LINE
  5
4C7
330
3A4
100
AcDbEntity
  8
0
 62
     0
100
AcDbLine
 10
43.45568133908028
 20
23.61118167664847
 30
0.0
 11
49.20208594525445
 21
29.35758628282263
 31
0.0
  0
LINE
  5
4C8
330
3A4
100
AcDbEntity
  8
0
 62
     0
100
AcDbLine
 10
33.40809724670629
 20
13.56359758427447
 30
0.0
 11
35.53286397196342
 21
15.6883643095316
 31
0.0
  0
LINE
  5
4C9
330
3A4
100
AcDbEntity
  8
0
 62
     0
100
AcDbLine
 10
38.40047808566089
 20
19.45400403533602
 30
0.0
 11
41.20047808566084
 21
22.25400403533598
 31
0.0
  0
LINE
  5
4CA
330
3A4
100
AcDbEntity
  8
0
 62
     0
100
AcDbLine
 10
43.31697447999459
 20
24.37050042966973
 30
0.0
 11
48.30406033314756
 21
29.35758628282263
 31
0.0
  0
LINE
  5
4CB
330
3A4
100
AcDbEntity
  8
0
 62
     0
100
AcDbLine
 10
33.18933782505769
 20
14.24286377473282
 30
0.0
 11
35.31733782505773
 21
16.37086377473286
 31
0.0
  0
LINE
  5
4CC
330
3A4
100
AcDbEntity
  8
0
 62
     0
100
AcDbLine
 10
38.40047808566095
 20
20.35202964744286
 30
0.0
 11
41.2004780856609
 21
23.15202964744287
 31
0.0
  0
LINE
  5
4CD
330
3A4
100
AcDbEntity
  8
0
 62
     0
100
AcDbLine
 10
43.30047808566092
 20
25.25202964744284
 30
0.0
 11
47.40603472104067
 21
29.35758628282263
 31
0.0
  0
LINE
  5
4CE
330
3A4
100
AcDbEntity
  8
0
 62
     0
100
AcDbLine
 10
32.97381167815206
 20
14.92536323993403
 30
0.0
 11
35.10181167815216
 21
17.05336323993407
 31
0.0
  0
LINE
  5
4CF
330
3A4
100
AcDbEntity
  8
0
 62
     0
100
AcDbLine
 10
38.40047808566089
 20
21.25005525954981
 30
0.0
 11
41.2004780856609
 21
24.05005525954976
 31
0.0
  0
LINE
  5
4D0
330
3A4
100
AcDbEntity
  8
0
 62
     0
100
AcDbLine
 10
43.30047808566098
 20
26.15005525954984
 30
0.0
 11
46.50800910893377
 21
29.35758628282263
 31
0.0
  0
LINE
  5
4D1
330
3A4
100
AcDbEntity
  8
0
 62
     0
100
AcDbLine
 10
32.75828553124631
 20
15.60786270513523
 30
0.0
 11
34.88628553124653
 21
17.73586270513544
 31
0.0
  0
LINE
  5
4D2
330
3A4
100
AcDbEntity
  8
0
 62
     0
100
AcDbLine
 10
38.40047808566089
 20
22.1480808716567
 30
0.0
 11
41.20047808566096
 21
24.94808087165677
 31
0.0
  0
LINE
  5
4D3
330
3A4
100
AcDbEntity
  8
0
 62
     0
100
AcDbLine
 10
32.54275938434068
 20
16.29036217033655
 30
0.0
 11
34.67075938434078
 21
18.41836217033659
 31
0.0
  0
LINE
  5
4D4
330
3A4
100
AcDbEntity
  8
0
 62
     0
100
AcDbLine
 10
43.35379475578213
 20
27.101397541778
 30
0.0
 11
45.55666682670545
 21
29.30426961270132
 31
0.0
  0
LINE
  5
4D5
330
3A4
100
AcDbEntity
  8
0
 62
     0
100
AcDbLine
 10
29.50998349682669
 20
13.25758628282255
 30
0.0
 11
30.35047808566088
 21
14.09808087165674
 31
0.0
  0
LINE
  5
4D6
330
3A4
100
AcDbEntity
  8
0
 62
     0
100
AcDbLine
 10
32.32723323743511
 20
16.97286163553775
 30
0.0
 11
34.45523323743515
 21
19.10086163553785
 31
0.0
  0
LINE
  5
4D7
330
3A4
100
AcDbEntity
  8
0
 62
     0
100
AcDbLine
 10
38.40047808566089
 20
23.04610648376359
 30
0.0
 11
41.20047808566096
 21
25.84610648376366
 31
0.0
  0
LINE
  5
4D8
330
3A4
100
AcDbEntity
  8
0
 62
     0
100
AcDbLine
 10
28.61195788471985
 20
13.2575862828225
 30
0.0
 11
30.35047808566094
 21
14.99610648376363
 31
0.0
  0
LINE
  5
4D9
330
3A4
100
AcDbEntity
  8
0
 62
     0
100
AcDbLine
 10
32.11170709052942
 20
17.65536110073901
 30
0.0
 11
34.23970709052946
 21
19.78336110073911
 31
0.0
  0
LINE
  5
4DA
330
3A4
100
AcDbEntity
  8
0
 62
     0
100
AcDbLine
 10
38.40047808566089
 20
23.94413209587054
 30
0.0
 11
41.20047808566096
 21
26.74413209587055
 31
0.0
  0
LINE
  5
4DB
330
3A4
100
AcDbEntity
  8
0
 62
     0
100
AcDbLine
 10
27.7950820202642
 20
13.33873603047385
 30
0.0
 11
30.35047808566094
 21
15.89413209587053
 31
0.0
  0
LINE
  5
4DC
330
3A4
100
AcDbEntity
  8
0
 62
     0
100
AcDbLine
 10
31.89618094362373
 20
18.33786056594027
 30
0.0
 11
34.02418094362377
 21
20.46586056594037
 31
0.0
  0
LINE
  5
4DD
330
3A4
100
AcDbEntity
  8
0
 62
     0
100
AcDbLine
 10
38.40047808566089
 20
24.84215770797743
 30
0.0
 11
41.2004780856609
 21
27.6421577079775
 31
0.0
  0
LINE
  5
4DE
330
3A4
100
AcDbEntity
  8
0
 62
     0
100
AcDbLine
 10
27.55047808566092
 20
13.99215770797747
 30
0.0
 11
30.35047808566099
 21
16.79215770797753
 31
0.0
  0
LINE
  5
4DF
330
3A4
100
AcDbEntity
  8
0
 62
     0
100
AcDbLine
 10
31.6806547967181
 20
19.02036003114147
 30
0.0
 11
33.80865479671825
 21
21.14836003114163
 31
0.0
  0
LINE
  5
4E0
330
3A4
100
AcDbEntity
  8
0
 62
     0
100
AcDbLine
 10
38.40047808566089
 20
25.74018332008432
 30
0.0
 11
41.20047808566096
 21
28.54018332008439
 31
0.0
  0
LINE
  5
4E1
330
3A4
100
AcDbEntity
  8
0
 62
     0
100
AcDbLine
 10
27.55047808566092
 20
14.89018332008436
 30
0.0
 11
30.35047808566099
 21
17.69018332008442
 31
0.0
  0
LINE
  5
4E2
330
3A4
100
AcDbEntity
  8
0
 62
     0
100
AcDbLine
 10
31.44585600974636
 20
19.68358685627674
 30
0.0
 11
34.07615007767736
 21
22.31388092420769
 31
0.0
  0
LINE
  5
4E3
330
3A4
100
AcDbEntity
  8
0
 62
     0
100
AcDbLine
 10
38.40047808566095
 20
26.63820893219133
 30
0.0
 11
41.00420266316251
 21
29.24193350969284
 31
0.0
  0
LINE
  5
4E4
330
3A4
100
AcDbEntity
  8
0
 62
     0
100
AcDbLine
 10
27.55047808566092
 20
15.7882089321913
 30
0.0
 11
30.35047808566099
 21
18.58820893219132
 31
0.0
  0
LINE
  5
4E5
330
3A4
100
AcDbEntity
  8
0
 62
     0
100
AcDbLine
 10
30.75867063987897
 20
19.8944270985163
 30
0.0
 11
34.49062343711125
 21
23.62637989574858
 31
0.0
  0
LINE
  5
4E6
330
3A4
100
AcDbEntity
  8
0
 62
     0
100
AcDbLine
 10
27.55047808566092
 20
16.6862345442982
 30
0.0
 11
30.36363726996722
 21
19.4993937286045
 31
0.0
  0
LINE
  5
4E7
330
3A4
100
AcDbEntity
  8
0
 62
     0
100
AcDbLine
 10
38.40047808566095
 20
27.53623454429822
 30
0.0
 11
40.2218298241853
 21
29.35758628282263
 31
0.0
  0
LINE
  5
4E8
330
3A4
100
AcDbEntity
  8
0
 62
     0
100
AcDbLine
 10
24.12182982418528
 20
13.25758628282255
 30
0.0
 11
25.10047808566094
 21
14.23623454429827
 31
0.0
  0
LINE
  5
4E9
330
3A4
100
AcDbEntity
  8
0
 62
     0
100
AcDbLine
 10
27.55047808566087
 20
17.58426015640515
 30
0.0
 11
34.90509679654519
 21
24.93887886728947
 31
0.0
  0
LINE
  5
4EA
330
3A4
100
AcDbEntity
  8
0
 62
     0
100
AcDbLine
 10
38.40047808566089
 20
28.43426015640517
 30
0.0
 11
39.3238042120783
 21
29.35758628282258
 31
0.0
  0
LINE
  5
4EB
330
3A4
100
AcDbEntity
  8
0
 62
     0
100
AcDbLine
 10
23.22380421207833
 20
13.25758628282261
 30
0.0
 11
25.10047808566099
 21
15.13426015640527
 31
0.0
  0
LINE
  5
4EC
330
3A4
100
AcDbEntity
  8
0
 62
     0
100
AcDbLine
 10
27.55047808566092
 20
18.48228576851198
 30
0.0
 11
35.3195701559793
 21
26.25137783883042
 31
0.0
  0
LINE
  5
4ED
330
3A4
100
AcDbEntity
  8
0
 62
     0
100
AcDbLine
 10
22.33745922432154
 20
13.26926690717266
 30
0.0
 11
24.95914380205476
 21
15.89095148490582
 31
0.0
  0
LINE
  5
4EE
330
3A4
100
AcDbEntity
  8
0
 62
     0
100
AcDbLine
 10
27.55047808566087
 20
19.38031138061893
 30
0.0
 11
30.87775298786453
 21
22.7075862828226
 31
0.0
  0
LINE
  5
4EF
330
3A4
100
AcDbEntity
  8
0
 62
     0
100
AcDbLine
 10
31.64173582310542
 20
23.47156911806348
 30
0.0
 11
35.73404351541324
 21
27.56387681037131
 31
0.0
  0
LINE
  5
4F0
330
3A4
100
AcDbEntity
  8
0
 62
     0
100
AcDbLine
 10
21.56929870687457
 20
13.39913200183258
 30
0.0
 11
24.2277529878645
 21
16.05758628282257
 31
0.0
  0
LINE
  5
4F1
330
3A4
100
AcDbEntity
  8
0
 62
     0
100
AcDbLine
 10
27.55047808566087
 20
20.27833699272588
 30
0.0
 11
30.3684686563692
 21
23.09632756343416
 31
0.0
  0
LINE
  5
4F2
330
3A4
100
AcDbEntity
  8
0
 62
     0
100
AcDbLine
 10
32.05620918253936
 20
24.78406808960432
 30
0.0
 11
36.10911496721456
 21
28.83697387427957
 31
0.0
  0
LINE
  5
4F3
330
3A4
100
AcDbEntity
  8
0
 62
     0
100
AcDbLine
 10
20.90816445004816
 20
13.63602335711317
 30
0.0
 11
23.32972737575761
 21
16.05758628282257
 31
0.0
  0
LINE
  5
4F4
330
3A4
100
AcDbEntity
  8
0
 62
     0
100
AcDbLine
 10
27.55047808566092
 20
21.17636260483271
 30
0.0
 11
30.35047808566094
 21
23.97636260483278
 31
0.0
  0
LINE
  5
4F5
330
3A4
100
AcDbEntity
  8
0
 62
     0
100
AcDbLine
 10
32.4706825419733
 20
26.09656706114515
 30
0.0
 11
35.71510309464537
 21
29.34098761381722
 31
0.0
  0
LINE
  5
4F6
330
3A4
100
AcDbEntity
  8
0
 62
     0
100
AcDbLine
 10
20.33056116588386
 20
13.95644568505565
 30
0.0
 11
22.44662302437672
 21
16.07250754354856
 31
0.0
  0
LINE
  5
4F7
330
3A4
100
AcDbEntity
  8
0
 62
     0
100
AcDbLine
 10
27.55047808566087
 20
22.07438821693966
 30
0.0
 11
30.35047808566094
 21
24.87438821693973
 31
0.0
  0
LINE
  5
4F8
330
3A4
100
AcDbEntity
  8
0
 62
     0
100
AcDbLine
 10
32.88515590140724
 20
27.40906603268598
 30
0.0
 11
34.83367615154378
 21
29.35758628282258
 31
0.0
  0
LINE
  5
4F9
330
3A4
100
AcDbEntity
  8
0
 62
     0
100
AcDbLine
 10
19.8256061995018
 20
14.34951633078054
 30
0.0
 11
21.81230688335841
 21
16.33621701463715
 31
0.0
  0
LINE
  5
4FA
330
3A4
100
AcDbEntity
  8
0
 62
     0
100
AcDbLine
 10
27.55047808566087
 20
22.97241382904656
 30
0.0
 11
30.35047808566094
 21
25.77241382904662
 31
0.0
  0
LINE
  5
4FB
330
3A4
100
AcDbEntity
  8
0
 62
     0
100
AcDbLine
 10
24.21211221743738
 20
19.63404796082312
 30
0.0
 11
25.37401640766046
 21
20.79595215104621
 31
0.0
  0
LINE
  5
4FC
330
3A4
100
AcDbEntity
  8
0
 62
     0
100
AcDbLine
 10
33.29962926084113
 20
28.72156500422687
 30
0.0
 11
33.93565053943683
 21
29.35758628282258
 31
0.0
  0
LINE
  5
4FD
330
3A4
100
AcDbEntity
  8
0
 62
     0
100
AcDbLine
 10
19.38916912617196
 20
14.8111048695577
 30
0.0
 11
21.40205593208623
 21
16.82399167547197
 31
0.0
  0
LINE
  5
4FE
330
3A4
100
AcDbEntity
  8
0
 62
     0
100
AcDbLine
 10
23.28713937580755
 20
19.60710073130025
 30
0.0
 11
25.40096363718333
 21
21.72092499267597
 31
0.0
  0
LINE
  5
4FF
330
3A4
100
AcDbEntity
  8
0
 62
     0
100
AcDbLine
 10
27.55047808566092
 20
23.87043944115356
 30
0.0
 11
30.35047808566099
 21
26.67043944115363
 31
0.0
  0
LINE
  5
500
330
3A4
100
AcDbEntity
  8
0
 62
     0
100
AcDbLine
 10
19.02214990122899
 20
15.34211125672163
 30
0.0
 11
21.25047808566091
 21
17.57043944115361
 31
0.0
  0
LINE
  5
501
330
3A4
100
AcDbEntity
  8
0
 62
     0
100
AcDbLine
 10
22.67299280638735
 20
19.89097977398682
 30
0.0
 11
25.1170845944967
 21
22.33507156209623
 31
0.0
  0
LINE
  5
502
330
3A4
100
AcDbEntity
  8
0
 62
     0
100
AcDbLine
 10
27.55047808566092
 20
24.76846505326045
 30
0.0
 11
30.35047808566099
 21
27.56846505326052
 31
0.0
  0
LINE
  5
503
330
3A4
100
AcDbEntity
  8
0
 62
     0
100
AcDbLine
 10
18.73083239130426
 20
15.94881935890379
 30
0.0
 11
21.25047808566091
 21
18.46846505326044
 31
0.0
  0
LINE
  5
504
330
3A4
100
AcDbEntity
  8
0
 62
     0
100
AcDbLine
 10
22.23503287939763
 20
20.35104545910411
 30
0.0
 11
24.65701890937947
 21
22.77303148908589
 31
0.0
  0
LINE
  5
505
330
3A4
100
AcDbEntity
  8
0
 62
     0
100
AcDbLine
 10
27.55047808566092
 20
25.6664906653674
 30
0.0
 11
30.35047808566099
 21
28.46649066536741
 31
0.0
  0
LINE
  5
506
330
3A4
100
AcDbEntity
  8
0
 62
     0
100
AcDbLine
 10
18.5296950271296
 20
16.64570760683608
 30
0.0
 11
21.25047808566091
 21
19.36649066536739
 31
0.0
  0
LINE
  5
507
330
3A4
100
AcDbEntity
  8
0
 62
     0
100
AcDbLine
 10
21.97898214698926
 20
20.99302033880263
 30
0.0
 11
24.01504402968089
 21
23.02908222149432
 31
0.0
  0
LINE
  5
508
330
3A4
100
AcDbEntity
  8
0
 62
     0
100
AcDbLine
 10
18.45047808566084
 20
17.46451627747427
 30
0.0
 11
21.25047808566091
 21
20.26451627747428
 31
0.0
  0
LINE
  5
509
330
3A4
100
AcDbEntity
  8
0
 62
     0
100
AcDbLine
 10
27.55047808566092
 20
26.56451627747429
 30
0.0
 11
30.1932279773058
 21
29.20726616911924
 31
0.0
  0
LINE
  5
50A
330
3A4
100
AcDbEntity
  8
0
 62
     0
100
AcDbLine
 10
14.36448132778525
 20
13.37851951959868
 30
0.0
 11
16.22954484888498
 21
15.24358304069841
 31
0.0
  0
LINE
  5
50B
330
3A4
100
AcDbEntity
  8
0
 62
     0
100
AcDbLine
 10
22.09739523047005
 20
22.00945903439031
 30
0.0
 11
22.99860533409327
 21
22.91066913801353
 31
0.0
  0
LINE
  5
50C
330
3A4
100
AcDbEntity
  8
0
 62
     0
100
AcDbLine
 10
18.45047808566084
 20
18.3625418895811
 30
0.0
 11
21.25047808566091
 21
21.16254188958117
 31
0.0
  0
LINE
  5
50D
330
3A4
100
AcDbEntity
  8
0
 62
     0
100
AcDbLine
 10
27.55047808566092
 20
27.46254188958118
 30
0.0
 11
29.44552247890232
 21
29.35758628282258
 31
0.0
  0
LINE
  5
50E
330
3A4
100
AcDbEntity
  8
0
 62
     0
100
AcDbLine
 10
13.34552247890229
 20
13.25758628282255
 30
0.0
 11
16.35047808566105
 21
16.26254188958125
 31
0.0
  0
LINE
  5
50F
330
3A4
100
AcDbEntity
  8
0
 62
     0
100
AcDbLine
 10
18.45047808566084
 20
19.26056750168805
 30
0.0
 11
21.25047808566091
 21
22.06056750168812
 31
0.0
  0
LINE
  5
510
330
3A4
100
AcDbEntity
  8
0
 62
     0
100
AcDbLine
 10
27.55047808566092
 20
28.36056750168808
 30
0.0
 11
28.54749686679543
 21
29.35758628282263
 31
0.0
  0
LINE
  5
511
330
3A4
100
AcDbEntity
  8
0
 62
     0
100
AcDbLine
 10
12.44749686679529
 20
13.2575862828225
 30
0.0
 11
16.35047808566099
 21
17.1605675016882
 31
0.0
  0
LINE
  5
512
330
3A4
100
AcDbEntity
  8
0
 62
     0
100
AcDbLine
 10
18.45047808566084
 20
20.15859311379494
 30
0.0
 11
21.25047808566085
 21
22.95859311379501
 31
0.0
  0
LINE
  5
513
330
3A4
100
AcDbEntity
  8
0
 62
     0
100
AcDbLine
 10
11.54947125468845
 20
13.25758628282261
 30
0.0
 11
16.34653873309974
 21
18.0546537612339
 31
0.0
  0
LINE
  5
514
330
3A4
100
AcDbEntity
  8
0
 62
     0
100
AcDbLine
 10
18.45047808566084
 20
21.05661872590189
 30
0.0
 11
21.25047808566091
 21
23.85661872590196
 31
0.0
  0
LINE
  5
515
330
3A4
100
AcDbEntity
  8
0
 62
     0
100
AcDbLine
 10
23.95144564258163
 20
26.55758628282268
 30
0.0
 11
25.10047808566105
 21
27.7066187259021
 31
0.0
  0
LINE
  5
516
330
3A4
100
AcDbEntity
  8
0
 62
     0
100
AcDbLine
 10
10.6514456425815
 20
13.25758628282255
 30
0.0
 11
16.23687689677842
 21
18.84301753701947
 31
0.0
  0
LINE
  5
517
330
3A4
100
AcDbEntity
  8
0
 62
     0
100
AcDbLine
 10
18.45047808566084
 20
21.95464433800879
 30
0.0
 11
21.25047808566091
 21
24.7546443380088
 31
0.0
  0
LINE
  5
518
330
3A4
100
AcDbEntity
  8
0
 62
     0
100
AcDbLine
 10
13.55047808566092
 20
17.05464433800887
 30
0.0
 11
16.0145381527343
 21
19.51870440508224
 31
0.0
  0
LINE
  5
519
330
3A4
100
AcDbEntity
  8
0
 62
     0
100
AcDbLine
 10
23.05342003047462
 20
26.55758628282256
 30
0.0
 11
25.10047808566105
 21
28.60464433800894
 31
0.0
  0
LINE
  5
51A
330
3A4
100
AcDbEntity
  8
0
 62
     0
100
AcDbLine
 10
9.811145905734576
 20
13.31531215808252
 30
0.0
 11
12.55342003047462
 21
16.05758628282257
 31
0.0
  0
LINE
  5
51B
330
3A4
100
AcDbEntity
  8
0
 62
     0
100
AcDbLine
 10
18.45047808566079
 20
22.85266995011568
 30
0.0
 11
21.41629279144058
 21
25.81848465589547
 31
0.0
  0
LINE
  5
51C
330
3A4
100
AcDbEntity
  8
0
 62
     0
100
AcDbLine
 10
13.54831899405167
 20
17.9505108585065
 30
0.0
 11
15.70610661806227
 21
20.10829848251717
 31
0.0
  0
LINE
  5
51D
330
3A4
100
AcDbEntity
  8
0
 62
     0
100
AcDbLine
 10
21.98957971258812
 20
26.39177157704301
 30
0.0
 11
24.86701067074113
 21
29.26920253519597
 31
0.0
  0
LINE
  5
51E
330
3A4
100
AcDbEntity
  8
0
 62
     0
100
AcDbLine
 10
9.52547808566095
 20
13.92766995011578
 30
0.0
 11
11.65539441836773
 21
16.05758628282257
 31
0.0
  0
LINE
  5
51F
330
3A4
100
AcDbEntity
  8
0
 62
     0
100
AcDbLine
 10
13.32871597455095
 20
18.6289334511128
 30
0.0
 11
15.32386465322338
 21
20.62408212978522
 31
0.0
  0
LINE
  5
520
330
3A4
100
AcDbEntity
  8
0
 62
     0
100
AcDbLine
 10
18.45047808566079
 20
23.75069556222263
 30
0.0
 11
24.05736880626085
 21
29.35758628282269
 31
0.0
  0
LINE
  5
521
330
3A4
100
AcDbEntity
  8
0
 62
     0
100
AcDbLine
 10
9.525478085660893
 20
14.82569556222273
 30
0.0
 11
10.75736880626078
 21
16.05758628282262
 31
0.0
  0
LINE
  5
522
330
3A4
100
AcDbEntity
  8
0
 62
     0
100
AcDbLine
 10
12.90246114624625
 20
19.10070423491492
 30
0.0
 11
14.88236013356862
 21
21.08060322223729
 31
0.0
  0
LINE
  5
523
330
3A4
100
AcDbEntity
  8
0
 62
     0
100
AcDbLine
 10
18.45047808566084
 20
24.64872117432946
 30
0.0
 11
23.15934319415379
 21
29.35758628282247
 31
0.0
  0
LINE
  5
524
330
3A4
100
AcDbEntity
  8
0
 62
     0
100
AcDbLine
 10
9.594430007680671
 20
15.79267309634934
 30
0.0
 11
9.790391272134286
 21
15.98863436080296
 31
0.0
  0
LINE
  5
525
330
3A4
100
AcDbEntity
  8
0
 62
     0
100
AcDbLine
 10
18.47045319981742
 20
25.56672190059299
 30
0.0
 11
22.24134246789043
 21
29.33761116866605
 31
0.0
  0
LINE
  5
526
330
3A4
100
AcDbEntity
  8
0
 62
     0
100
AcDbLine
 10
12.45344834019277
 20
19.5497170409684
 30
0.0
 11
14.43334732751515
 21
21.52961602829077
 31
0.0
  0
LINE
  5
527
330
3A4
100
AcDbEntity
  8
0
 62
     0
100
AcDbLine
 10
18.7699166320832
 20
26.76421094496578
 30
0.0
 11
21.0438534235177
 21
29.03814773640027
 31
0.0
  0
LINE
  5
528
330
3A4
100
AcDbEntity
  8
0
 62
     0
100
AcDbLine
 10
12.0044355341393
 20
19.99872984702187
 30
0.0
 11
13.98433452146167
 21
21.97862883434424
 31
0.0
  0
LINE
  5
529
330
3A4
100
AcDbEntity
  8
0
 62
     0
100
AcDbLine
 10
11.55542272808588
 20
20.44774265307529
 30
0.0
 11
13.5353217154082
 21
22.42764164039755
 31
0.0
  0
LINE
  5
52A
330
3A4
100
AcDbEntity
  8
0
 62
     0
100
AcDbLine
 10
11.10640992203241
 20
20.89675545912876
 30
0.0
 11
13.08630890935472
 21
22.87665444645103
 31
0.0
  0
LINE
  5
52B
330
3A4
100
AcDbEntity
  8
0
 62
     0
100
AcDbLine
 10
10.65739711597893
 20
21.34576826518224
 30
0.0
 11
12.63729610330125
 21
23.3256672525045
 31
0.0
  0
LINE
  5
52C
330
3A4
100
AcDbEntity
  8
0
 62
     0
100
AcDbLine
 10
14.97118952151237
 20
26.55758628282256
 30
0.0
 11
15.82547808566084
 21
27.4118748469711
 31
0.0
  0
LINE
  5
52D
330
3A4
100
AcDbEntity
  8
0
 62
     0
100
AcDbLine
 10
10.20846762395359
 20
21.79486438526385
 30
0.0
 11
12.18853326738605
 21
23.7749300286963
 31
0.0
  0
LINE
  5
52E
330
3A4
100
AcDbEntity
  8
0
 62
     0
100
AcDbLine
 10
14.07316390940548
 20
26.55758628282256
 30
0.0
 11
15.8254780856609
 21
28.30990045907799
 31
0.0
  0
LINE
  5
52F
330
3A4
100
AcDbEntity
  8
0
 62
     0
100
AcDbLine
 10
9.796999699402022
 20
22.28142207281905
 30
0.0
 11
11.85863638609811
 21
24.3430587595152
 31
0.0
  0
LINE
  5
530
330
3A4
100
AcDbEntity
  8
0
 62
     0
100
AcDbLine
 10
13.17513829729853
 20
26.55758628282256
 30
0.0
 11
15.73891918589976
 21
29.12136717142379
 31
0.0
  0
LINE
  5
531
330
3A4
100
AcDbEntity
  8
0
 62
     0
100
AcDbLine
 10
9.456539093139554
 20
22.83898707866353
 30
0.0
 11
11.80047808566098
 21
25.18292607118496
 31
0.0
  0
LINE
  5
532
330
3A4
100
AcDbEntity
  8
0
 62
     0
100
AcDbLine
 10
12.27464603602152
 20
26.55511963365245
 30
0.0
 11
15.0771126851917
 21
29.35758628282263
 31
0.0
  0
LINE
  5
533
330
3A4
100
AcDbEntity
  8
0
 62
     0
100
AcDbLine
 10
9.195845797407457
 20
23.47631939503838
 30
0.0
 11
11.80294473483104
 21
26.08341833246203
 31
0.0
  0
LINE
  5
534
330
3A4
100
AcDbEntity
  8
0
 62
     0
100
AcDbLine
 10
9.034033835159391
 20
24.21253304489721
 30
0.0
 11
14.17908707308481
 21
29.35758628282263
 31
0.0
  0
LINE
  5
535
330
3A4
100
AcDbEntity
  8
0
 62
     0
100
AcDbLine
 10
9.000478085660972
 20
25.07700290750574
 30
0.0
 11
13.2810614609778
 21
29.35758628282258
 31
0.0
  0
LINE
  5
536
330
3A4
100
AcDbEntity
  8
0
 62
     0
100
AcDbLine
 10
9.000478085660972
 20
25.97502851961263
 30
0.0
 11
12.38303584887086
 21
29.35758628282258
 31
0.0
  0
LINE
  5
537
330
3A4
100
AcDbEntity
  8
0
 62
     0
100
AcDbLine
 10
9.020670096099195
 20
26.8932461421578
 30
0.0
 11
11.4648182263258
 21
29.33739427238441
 31
0.0
  0
ENDBLK
  5
539
330
3A4
100
AcDbEntity
  8
0
100
AcDbBlockEnd
  0
BLOCK
  5
41E4
330
41DA
100
AcDbEntity
  8
0
100
AcDbBlockBegin
  2
*D2
 70
     1
 10
0.0
 20
0.0
 30
0.0
  3
*D2
  1

  0
LINE
  5
44AB
330
41DA
100
AcDbEntity
  8
SUNPOU
100
AcDbLine
 10
282.1142756339929
 20
212.5870671576087
 30
0.0
 11
282.1142756339929
 21
238.3335451086181
 31
0.0
  0
LINE
  5
44AC
330
41DA
100
AcDbEntity
  8
SUNPOU
100
AcDbLine
 10
60.56180819910128
 20
212.4893491086181
 30
0.0
 11
60.56180819910128
 21
238.3335451086181
 31
0.0
  0
LINE
  5
44AD
330
41DA
100
AcDbEntity
  8
SUNPOU
100
AcDbLine
 10
275.1142756339929
 20
235.3335451086181
 30
0.0
 11
67.56180819910127
 21
235.3335451086181
 31
0.0
  0
INSERT
  5
44AE
330
41DA
100
AcDbEntity
  8
SUNPOU
100
AcDbBlockReference
  2
_OPEN
 10
282.1142756339929
 20
235.3335451086181
 30
0.0
 41
7.0
 42
7.0
 43
7.0
  0
INSERT
  5
44AF
330
41DA
100
AcDbEntity
  8
SUNPOU
100
AcDbBlockReference
  2
_OPEN
 10
60.56180819910128
 20
235.3335451086181
 30
0.0
 41
7.0
 42
7.0
 43
7.0
 50
180.0
  0
MTEXT
  5
44B0
330
41DA
100
AcDbEntity
  8
SUNPOU
100
AcDbMText
 10
171.3380419165471
 20
240.3335451086181
 30
0.0
 40
6.0
 41
0.0
 71
     5
 72
     5
  1
\A1;222
 73
     1
 44
1.0
1001
ACAD
1000
MTEXTBEGIN
1070
    73
1070
     1
1070
    44
1040
1.0
1070
    74
1070
     0
1000
MTEXTEND
  0
POINT
  5
44B1
330
41DA
100
AcDbEntity
  8
DEFPOINTS
 62
     0
100
AcDbPoint
 10
282.1142756339929
 20
206.5870671576087
 30
0.0
  0
POINT
  5
44B2
330
41DA
100
AcDbEntity
  8
DEFPOINTS
 62
     0
100
AcDbPoint
 10
60.56180819910128
 20
206.4893491086181
 30
0.0
  0
POINT
  5
44B3
330
41DA
100
AcDbEntity
  8
DEFPOINTS
 62
     0
100
AcDbPoint
 10
60.56180819910128
 20
235.3335451086181
 30
0.0
  0
ENDBLK
  5
41E5
330
41DA
100
AcDbEntity
  8
0
100
AcDbBlockEnd
  0
BLOCK
  5
41F0
330
41E6
100
AcDbEntity
  8
0
100
AcDbBlockBegin
  2
*D3
 70
     1
 10
0.0
 20
0.0
 30
0.0
  3
*D3
  1

  0
LINE
  5
44A2
330
41E6
100
AcDbEntity
  8
SUNPOU
100
AcDbLine
 10
252.4834061991011
 20
70.94168710861811
 30
0.0
 11
252.4834061991011
 21
57.04351707214378
 31
0.0
  0
LINE
  5
44A3
330
41E6
100
AcDbEntity
  8
SUNPOU
100
AcDbLine
 10
90.08740019910124
 20
70.94168710861811
 30
0.0
 11
90.08740019910124
 21
57.04351707214378
 31
0.0
  0
LINE
  5
44A4
330
41E6
100
AcDbEntity
  8
SUNPOU
100
AcDbLine
 10
245.4834061991011
 20
60.04351707214379
 30
0.0
 11
97.08740019910123
 21
60.04351707214379
 31
0.0
  0
INSERT
  5
44A5
330
41E6
100
AcDbEntity
  8
SUNPOU
100
AcDbBlockReference
  2
_OPEN
 10
252.4834061991011
 20
60.04351707214379
 30
0.0
 41
7.0
 42
7.0
 43
7.0
  0
INSERT
  5
44A6
330
41E6
100
AcDbEntity
  8
SUNPOU
100
AcDbBlockReference
  2
_OPEN
 10
90.08740019910124
 20
60.04351707214379
 30
0.0
 41
7.0
 42
7.0
 43
7.0
 50
180.0
  0
MTEXT
  5
44A7
330
41E6
100
AcDbEntity
  8
SUNPOU
100
AcDbMText
 10
171.2854031991012
 20
65.04351707214379
 30
0.0
 40
6.0
 41
0.0
 71
     5
 72
     5
  1
\A1;162
 73
     1
 44
1.0
1001
ACAD
1000
MTEXTBEGIN
1070
    73
1070
     1
1070
    44
1040
1.0
1070
    74
1070
     0
1000
MTEXTEND
  0
POINT
  5
44A8
330
41E6
100
AcDbEntity
  8
DEFPOINTS
 62
     0
100
AcDbPoint
 10
252.4834061991011
 20
76.94168710861811
 30
0.0
  0
POINT
  5
44A9
330
41E6
100
AcDbEntity
  8
DEFPOINTS
 62
     0
100
AcDbPoint
 10
90.08740019910124
 20
76.94168710861811
 30
0.0
  0
POINT
  5
44AA
330
41E6
100
AcDbEntity
  8
DEFPOINTS
 62
     0
100
AcDbPoint
 10
90.08740019910124
 20
60.04351707214379
 30
0.0
  0
ENDBLK
  5
41F1
330
41E6
100
AcDbEntity
  8
0
100
AcDbBlockEnd
  0
BLOCK
  5
41FC
330
41F2
100
AcDbEntity
  8
0
100
AcDbBlockBegin
  2
*D4
 70
     1
 10
0.0
 20
0.0
 30
0.0
  3
*D4
  1

  0
LINE
  5
44B4
330
41F2
100
AcDbEntity
  8
SUNPOU
100
AcDbLine
 10
284.3598761991013
 20
207.4770781086181
 30
0.0
 11
356.3781161991014
 21
207.4770781086181
 31
0.0
  0
LINE
  5
44B5
330
41F2
100
AcDbEntity
  8
SUNPOU
100
AcDbLine
 10
258.4834061991011
 20
76.94168710861811
 30
0.0
 11
356.3781161991014
 21
76.94168710861808
 31
0.0
  0
LINE
  5
44B6
330
41F2
100
AcDbEntity
  8
SUNPOU
100
AcDbLine
 10
353.3781161991015
 20
200.477078108618
 30
0.0
 11
353.3781161991014
 21
83.94168710861809
 31
0.0
  0
INSERT
  5
44B7
330
41F2
100
AcDbEntity
  8
SUNPOU
100
AcDbBlockReference
  2
_OPEN
 10
353.3781161991015
 20
207.4770781086181
 30
0.0
 41
7.0
 42
7.0
 43
7.0
 50
90.0
  0
INSERT
  5
44B8
330
41F2
100
AcDbEntity
  8
SUNPOU
100
AcDbBlockReference
  2
_OPEN
 10
353.3781161991014
 20
76.94168710861808
 30
0.0
 41
7.0
 42
7.0
 43
7.0
 50
270.0
  0
MTEXT
  5
44B9
330
41F2
100
AcDbEntity
  8
SUNPOU
100
AcDbMText
 10
348.3781161991014
 20
142.2093826086181
 30
0.0
 40
6.0
 41
0.0
 71
     5
 72
     5
  1
\A1;131
 11
0.0000000000000001
 21
1.0
 31
0.0
 73
     1
 44
1.0
1001
ACAD
1000
MTEXTBEGIN
1070
    73
1070
     1
1070
    44
1040
1.0
1070
    74
1070
     0
1000
MTEXTEND
  0
POINT
  5
44BA
330
41F2
100
AcDbEntity
  8
DEFPOINTS
 62
     0
100
AcDbPoint
 10
278.3598761991013
 20
207.4770781086181
 30
0.0
  0
POINT
  5
44BB
330
41F2
100
AcDbEntity
  8
DEFPOINTS
 62
     0
100
AcDbPoint
 10
252.4834061991011
 20
76.94168710861811
 30
0.0
  0
POINT
  5
44BC
330
41F2
100
AcDbEntity
  8
DEFPOINTS
 62
     0
100
AcDbPoint
 10
353.3781161991014
 20
76.94168710861808
 30
0.0
  0
ENDBLK
  5
41FD
330
41F2
100
AcDbEntity
  8
0
100
AcDbBlockEnd
  0
BLOCK
  5
4208
330
41FE
100
AcDbEntity
  8
0
100
AcDbBlockBegin
  2
*D5
 70
     1
 10
0.0
 20
0.0
 30
0.0
  3
*D5
  1

  0
LINE
  5
4309
330
41FE
100
AcDbEntity
  8
SUNPOU
100
AcDbLine
 10
714.6630461991015
 20
302.0963667334005
 30
0.0
 11
714.6630461991015
 21
277.3758062867768
 31
0.0
  0
LINE
  5
430A
330
41FE
100
AcDbEntity
  8
SUNPOU
100
AcDbLine
 10
455.6630561991016
 20
302.1211167334005
 30
0.0
 11
455.6630561991016
 21
277.3758062867768
 31
0.0
  0
LINE
  5
430B
330
41FE
100
AcDbEntity
  8
SUNPOU
100
AcDbLine
 10
707.6630461991014
 20
280.3758062867768
 30
0.0
 11
462.6630561991016
 21
280.3758062867768
 31
0.0
  0
INSERT
  5
430C
330
41FE
100
AcDbEntity
  8
SUNPOU
100
AcDbBlockReference
  2
_OPEN
 10
714.6630461991015
 20
280.3758062867768
 30
0.0
 41
7.0
 42
7.0
 43
7.0
  0
INSERT
  5
430D
330
41FE
100
AcDbEntity
  8
SUNPOU
100
AcDbBlockReference
  2
_OPEN
 10
455.6630561991016
 20
280.3758062867768
 30
0.0
 41
7.0
 42
7.0
 43
7.0
 50
180.0
  0
MTEXT
  5
430E
330
41FE
100
AcDbEntity
  8
SUNPOU
100
AcDbMText
 10
585.1630511991015
 20
285.3758062867768
 30
0.0
 40
6.0
 41
0.0
 71
     5
 72
     5
  1
\A1;259
 73
     1
 44
1.0
1001
ACAD
1000
MTEXTBEGIN
1070
    73
1070
     1
1070
    44
1040
1.0
1070
    74
1070
     0
1000
MTEXTEND
  0
POINT
  5
430F
330
41FE
100
AcDbEntity
  8
DEFPOINTS
 62
     0
100
AcDbPoint
 10
714.6630461991015
 20
308.0963667334005
 30
0.0
  0
POINT
  5
4310
330
41FE
100
AcDbEntity
  8
DEFPOINTS
 62
     0
100
AcDbPoint
 10
455.6630561991016
 20
308.1211167334005
 30
0.0
  0
POINT
  5
4311
330
41FE
100
AcDbEntity
  8
DEFPOINTS
 62
     0
100
AcDbPoint
 10
455.6630561991016
 20
280.3758062867768
 30
0.0
  0
ENDBLK
  5
4209
330
41FE
100
AcDbEntity
  8
0
100
AcDbBlockEnd
  0
BLOCK
  5
4214
330
420A
100
AcDbEntity
  8
0
100
AcDbBlockBegin
  2
*D6
 70
     1
 10
0.0
 20
0.0
 30
0.0
  3
*D6
  1

  0
LINE
  5
44BD
330
420A
100
AcDbEntity
  8
SUNPOU
100
AcDbLine
 10
445.6630361991015
 20
213.0416851086181
 30
0.0
 11
445.6630361991015
 21
263.4813456793231
 31
0.0
  0
LINE
  5
44BE
330
420A
100
AcDbEntity
  8
SUNPOU
100
AcDbLine
 10
724.6630361991012
 20
213.0416851086181
 30
0.0
 11
724.6630361991012
 21
263.4813456793231
 31
0.0
  0
LINE
  5
44BF
330
420A
100
AcDbEntity
  8
SUNPOU
100
AcDbLine
 10
452.6630361991014
 20
260.4813456793231
 30
0.0
 11
717.6630361991012
 21
260.4813456793231
 31
0.0
  0
INSERT
  5
44C0
330
420A
100
AcDbEntity
  8
SUNPOU
100
AcDbBlockReference
  2
_OPEN
 10
445.6630361991015
 20
260.4813456793231
 30
0.0
 41
7.0
 42
7.0
 43
7.0
 50
180.0
  0
INSERT
  5
44C1
330
420A
100
AcDbEntity
  8
SUNPOU
100
AcDbBlockReference
  2
_OPEN
 10
724.6630361991012
 20
260.4813456793231
 30
0.0
 41
7.0
 42
7.0
 43
7.0
  0
MTEXT
  5
44C2
330
420A
100
AcDbEntity
  8
SUNPOU
100
AcDbMText
 10
585.1630361991014
 20
265.4813456793231
 30
0.0
 40
6.0
 41
0.0
 71
     5
 72
     5
  1
\A1;279
 73
     1
 44
1.0
1001
ACAD
1000
MTEXTBEGIN
1070
    73
1070
     1
1070
    44
1040
1.0
1070
    74
1070
     0
1000
MTEXTEND
  0
POINT
  5
44C3
330
420A
100
AcDbEntity
  8
DEFPOINTS
 62
     0
100
AcDbPoint
 10
445.6630361991015
 20
207.0416851086181
 30
0.0
  0
POINT
  5
44C4
330
420A
100
AcDbEntity
  8
DEFPOINTS
 62
     0
100
AcDbPoint
 10
724.6630361991012
 20
207.0416851086181
 30
0.0
  0
POINT
  5
44C5
330
420A
100
AcDbEntity
  8
DEFPOINTS
 62
     0
100
AcDbPoint
 10
724.6630361991012
 20
260.4813456793231
 30
0.0
  0
ENDBLK
  5
4215
330
420A
100
AcDbEntity
  8
0
100
AcDbBlockEnd
  0
BLOCK
  5
4220
330
4216
100
AcDbEntity
  8
0
100
AcDbBlockBegin
  2
*D7
 70
     1
 10
0.0
 20
0.0
 30
0.0
  3
*D7
  1

  0
LINE
  5
44D8
330
4216
100
AcDbEntity
  8
SUNPOU
100
AcDbLine
 10
698.6630261991012
 20
213.5416861086181
 30
0.0
 11
698.6630261991012
 21
243.7296865209164
 31
0.0
  0
LINE
  5
44D9
330
4216
100
AcDbEntity
  8
SUNPOU
100
AcDbLine
 10
766.6630361991012
 20
213.5416861086181
 30
0.0
 11
766.6630361991012
 21
243.7296865209164
 31
0.0
  0
LINE
  5
44DA
330
4216
100
AcDbEntity
  8
SUNPOU
100
AcDbLine
 10
705.6630261991013
 20
240.7296865209163
 30
0.0
 11
759.6630361991012
 21
240.7296865209163
 31
0.0
  0
INSERT
  5
44DB
330
4216
100
AcDbEntity
  8
SUNPOU
100
AcDbBlockReference
  2
_OPEN
 10
698.6630261991012
 20
240.7296865209163
 30
0.0
 41
7.0
 42
7.0
 43
7.0
 50
180.0
  0
INSERT
  5
44DC
330
4216
100
AcDbEntity
  8
SUNPOU
100
AcDbBlockReference
  2
_OPEN
 10
766.6630361991012
 20
240.7296865209163
 30
0.0
 41
7.0
 42
7.0
 43
7.0
  0
MTEXT
  5
44DD
330
4216
100
AcDbEntity
  8
SUNPOU
100
AcDbMText
 10
732.6630311991013
 20
245.7296865209164
 30
0.0
 40
6.0
 41
0.0
 71
     5
 72
     5
  1
\A1;68
 73
     1
 44
1.0
1001
ACAD
1000
MTEXTBEGIN
1070
    73
1070
     1
1070
    44
1040
1.0
1070
    74
1070
     0
1000
MTEXTEND
  0
POINT
  5
44DE
330
4216
100
AcDbEntity
  8
DEFPOINTS
 62
     0
100
AcDbPoint
 10
698.6630261991012
 20
207.5416861086181
 30
0.0
  0
POINT
  5
44DF
330
4216
100
AcDbEntity
  8
DEFPOINTS
 62
     0
100
AcDbPoint
 10
766.6630361991012
 20
207.5416861086181
 30
0.0
  0
POINT
  5
44E0
330
4216
100
AcDbEntity
  8
DEFPOINTS
 62
     0
100
AcDbPoint
 10
766.6630361991012
 20
240.7296865209163
 30
0.0
  0
ENDBLK
  5
4221
330
4216
100
AcDbEntity
  8
0
100
AcDbBlockEnd
  0
BLOCK
  5
422C
330
4222
100
AcDbEntity
  8
0
100
AcDbBlockBegin
  2
*D8
 70
     1
 10
0.0
 20
0.0
 30
0.0
  3
*D8
  1

  0
LINE
  5
44CF
330
4222
100
AcDbEntity
  8
SUNPOU
100
AcDbLine
 10
724.663036199101
 20
213.5416861086181
 30
0.0
 11
724.663036199101
 21
230.9898151086181
 31
0.0
  0
LINE
  5
44D0
330
4222
100
AcDbEntity
  8
SUNPOU
100
AcDbLine
 10
698.6630261991012
 20
213.5416861086181
 30
0.0
 11
698.6630261991012
 21
230.9898151086181
 31
0.0
  0
LINE
  5
44D1
330
4222
100
AcDbEntity
  8
SUNPOU
100
AcDbLine
 10
717.663036199101
 20
227.9898151086181
 30
0.0
 11
705.6630261991013
 21
227.9898151086181
 31
0.0
  0
INSERT
  5
44D2
330
4222
100
AcDbEntity
  8
SUNPOU
100
AcDbBlockReference
  2
_OPEN
 10
724.663036199101
 20
227.9898151086181
 30
0.0
 41
7.0
 42
7.0
 43
7.0
  0
INSERT
  5
44D3
330
4222
100
AcDbEntity
  8
SUNPOU
100
AcDbBlockReference
  2
_OPEN
 10
698.6630261991012
 20
227.9898151086181
 30
0.0
 41
7.0
 42
7.0
 43
7.0
 50
180.0
  0
MTEXT
  5
44D4
330
4222
100
AcDbEntity
  8
SUNPOU
100
AcDbMText
 10
711.6630311991011
 20
232.9898151086181
 30
0.0
 40
6.0
 41
0.0
 71
     5
 72
     5
  1
\A1;26
 73
     1
 44
1.0
1001
ACAD
1000
MTEXTBEGIN
1070
    73
1070
     1
1070
    44
1040
1.0
1070
    74
1070
     0
1000
MTEXTEND
  0
POINT
  5
44D5
330
4222
100
AcDbEntity
  8
DEFPOINTS
 62
     0
100
AcDbPoint
 10
724.663036199101
 20
207.5416861086181
 30
0.0
  0
POINT
  5
44D6
330
4222
100
AcDbEntity
  8
DEFPOINTS
 62
     0
100
AcDbPoint
 10
698.6630261991012
 20
207.5416861086181
 30
0.0
  0
POINT
  5
44D7
330
4222
100
AcDbEntity
  8
DEFPOINTS
 62
     0
100
AcDbPoint
 10
698.6630261991012
 20
227.9898151086181
 30
0.0
  0
ENDBLK
  5
422D
330
4222
100
AcDbEntity
  8
0
100
AcDbBlockEnd
  0
BLOCK
  5
4238
330
422E
100
AcDbEntity
  8
0
100
AcDbBlockBegin
  2
*D9
 70
     1
 10
0.0
 20
0.0
 30
0.0
  3
*D9
  1

  0
LINE
  5
44C6
330
422E
100
AcDbEntity
  8
SUNPOU
100
AcDbLine
 10
766.6630361991011
 20
213.5416861086181
 30
0.0
 11
766.6630361991011
 21
231.2504251086181
 31
0.0
  0
LINE
  5
44C7
330
422E
100
AcDbEntity
  8
SUNPOU
100
AcDbLine
 10
724.6630361991012
 20
213.0416851086181
 30
0.0
 11
724.6630361991012
 21
231.2504251086181
 31
0.0
  0
LINE
  5
44C8
330
422E
100
AcDbEntity
  8
SUNPOU
100
AcDbLine
 10
759.663036199101
 20
228.2504251086181
 30
0.0
 11
731.6630361991013
 21
228.2504251086181
 31
0.0
  0
INSERT
  5
44C9
330
422E
100
AcDbEntity
  8
SUNPOU
100
AcDbBlockReference
  2
_OPEN
 10
766.6630361991011
 20
228.2504251086181
 30
0.0
 41
7.0
 42
7.0
 43
7.0
  0
INSERT
  5
44CA
330
422E
100
AcDbEntity
  8
SUNPOU
100
AcDbBlockReference
  2
_OPEN
 10
724.6630361991012
 20
228.2504251086181
 30
0.0
 41
7.0
 42
7.0
 43
7.0
 50
180.0
  0
MTEXT
  5
44CB
330
422E
100
AcDbEntity
  8
SUNPOU
100
AcDbMText
 10
745.6630361991011
 20
233.2504251086181
 30
0.0
 40
6.0
 41
0.0
 71
     5
 72
     5
  1
\A1;42
 73
     1
 44
1.0
1001
ACAD
1000
MTEXTBEGIN
1070
    73
1070
     1
1070
    44
1040
1.0
1070
    74
1070
     0
1000
MTEXTEND
  0
POINT
  5
44CC
330
422E
100
AcDbEntity
  8
DEFPOINTS
 62
     0
100
AcDbPoint
 10
766.6630361991011
 20
207.5416861086181
 30
0.0
  0
POINT
  5
44CD
330
422E
100
AcDbEntity
  8
DEFPOINTS
 62
     0
100
AcDbPoint
 10
724.6630361991012
 20
207.0416851086181
 30
0.0
  0
POINT
  5
44CE
330
422E
100
AcDbEntity
  8
DEFPOINTS
 62
     0
100
AcDbPoint
 10
724.6630361991012
 20
228.2504251086181
 30
0.0
  0
ENDBLK
  5
4239
330
422E
100
AcDbEntity
  8
0
100
AcDbBlockEnd
  0
BLOCK
  5
4244
330
423A
100
AcDbEntity
  8
0
100
AcDbBlockBegin
  2
*D10
 70
     1
 10
0.0
 20
0.0
 30
0.0
  3
*D10
  1

  0
LINE
  5
435A
330
423A
100
AcDbEntity
  8
SUNPOU
100
AcDbLine
 10
671.1630461991017
 20
421.3151667334007
 30
0.0
 11
671.1630461991017
 21
449.5105645049145
 31
0.0
  0
LINE
  5
435B
330
423A
100
AcDbEntity
  8
SUNPOU
100
AcDbLine
 10
724.6630361991015
 20
421.3151667334007
 30
0.0
 11
724.6630361991015
 21
449.5105645049145
 31
0.0
  0
LINE
  5
435C
330
423A
100
AcDbEntity
  8
SUNPOU
100
AcDbLine
 10
678.1630461991016
 20
446.5105645049145
 30
0.0
 11
717.6630361991015
 21
446.5105645049145
 31
0.0
  0
INSERT
  5
435D
330
423A
100
AcDbEntity
  8
SUNPOU
100
AcDbBlockReference
  2
_OPEN
 10
671.1630461991017
 20
446.5105645049145
 30
0.0
 41
7.0
 42
7.0
 43
7.0
 50
180.0
  0
INSERT
  5
435E
330
423A
100
AcDbEntity
  8
SUNPOU
100
AcDbBlockReference
  2
_OPEN
 10
724.6630361991015
 20
446.5105645049145
 30
0.0
 41
7.0
 42
7.0
 43
7.0
  0
MTEXT
  5
435F
330
423A
100
AcDbEntity
  8
SUNPOU
100
AcDbMText
 10
697.9130411991016
 20
451.5105645049145
 30
0.0
 40
6.0
 41
0.0
 71
     5
 72
     5
  1
\A1;\U+203B53
 73
     1
 44
1.0
1001
ACAD
1000
MTEXTBEGIN
1070
    73
1070
     1
1070
    44
1040
1.0
1070
    74
1070
     0
1000
MTEXTEND
  0
POINT
  5
4360
330
423A
100
AcDbEntity
  8
DEFPOINTS
 62
     0
100
AcDbPoint
 10
671.1630461991017
 20
415.3151667334007
 30
0.0
  0
POINT
  5
4361
330
423A
100
AcDbEntity
  8
DEFPOINTS
 62
     0
100
AcDbPoint
 10
724.6630361991015
 20
415.3151667334006
 30
0.0
  0
POINT
  5
4362
330
423A
100
AcDbEntity
  8
DEFPOINTS
 62
     0
100
AcDbPoint
 10
724.6630361991015
 20
446.5105645049145
 30
0.0
  0
ENDBLK
  5
4245
330
423A
100
AcDbEntity
  8
0
100
AcDbBlockEnd
  0
BLOCK
  5
4250
330
4246
100
AcDbEntity
  8
0
100
AcDbBlockBegin
  2
*D11
 70
     1
 10
0.0
 20
0.0
 30
0.0
  3
*D11
  1

  0
LINE
  5
4348
330
4246
100
AcDbEntity
  8
SUNPOU
100
AcDbLine
 10
724.6630361991015
 20
528.5353347334007
 30
0.0
 11
724.6630361991015
 21
549.2181243163188
 31
0.0
  0
LINE
  5
4349
330
4246
100
AcDbEntity
  8
SUNPOU
100
AcDbLine
 10
445.6630361991017
 20
528.5091987334007
 30
0.0
 11
445.6630361991017
 21
549.2181243163188
 31
0.0
  0
LINE
  5
434A
330
4246
100
AcDbEntity
  8
SUNPOU
100
AcDbLine
 10
717.6630361991015
 20
546.2181243163188
 30
0.0
 11
452.6630361991017
 21
546.2181243163188
 31
0.0
  0
INSERT
  5
434B
330
4246
100
AcDbEntity
  8
SUNPOU
100
AcDbBlockReference
  2
_OPEN
 10
724.6630361991015
 20
546.2181243163188
 30
0.0
 41
7.0
 42
7.0
 43
7.0
  0
INSERT
  5
434C
330
4246
100
AcDbEntity
  8
SUNPOU
100
AcDbBlockReference
  2
_OPEN
 10
445.6630361991017
 20
546.2181243163188
 30
0.0
 41
7.0
 42
7.0
 43
7.0
 50
180.0
  0
MTEXT
  5
434D
330
4246
100
AcDbEntity
  8
SUNPOU
100
AcDbMText
 10
585.1630361991015
 20
551.2181243163188
 30
0.0
 40
6.0
 41
0.0
 71
     5
 72
     5
  1
\A1;279
 73
     1
 44
1.0
1001
ACAD
1000
MTEXTBEGIN
1070
    73
1070
     1
1070
    44
1040
1.0
1070
    74
1070
     0
1000
MTEXTEND
  0
POINT
  5
434E
330
4246
100
AcDbEntity
  8
DEFPOINTS
 62
     0
100
AcDbPoint
 10
724.6630361991015
 20
522.5353347334007
 30
0.0
  0
POINT
  5
434F
330
4246
100
AcDbEntity
  8
DEFPOINTS
 62
     0
100
AcDbPoint
 10
445.6630361991017
 20
522.5091987334008
 30
0.0
  0
POINT
  5
4350
330
4246
100
AcDbEntity
  8
DEFPOINTS
 62
     0
100
AcDbPoint
 10
445.6630361991017
 20
546.2181243163188
 30
0.0
  0
ENDBLK
  5
4251
330
4246
100
AcDbEntity
  8
0
100
AcDbBlockEnd
  0
BLOCK
  5
425C
330
4252
100
AcDbEntity
  8
0
100
AcDbBlockBegin
  2
*D12
 70
     1
 10
0.0
 20
0.0
 30
0.0
  3
*D12
  1

  0
LINE
  5
4351
330
4252
100
AcDbEntity
  8
SUNPOU
100
AcDbLine
 10
499.1630561991014
 20
421.3151667334008
 30
0.0
 11
499.1630561991014
 21
449.5105645049145
 31
0.0
  0
LINE
  5
4352
330
4252
100
AcDbEntity
  8
SUNPOU
100
AcDbLine
 10
445.6630361991015
 20
421.3151667334009
 30
0.0
 11
445.6630361991015
 21
449.5105645049145
 31
0.0
  0
LINE
  5
4353
330
4252
100
AcDbEntity
  8
SUNPOU
100
AcDbLine
 10
492.1630561991015
 20
446.5105645049145
 30
0.0
 11
452.6630361991014
 21
446.5105645049145
 31
0.0
  0
INSERT
  5
4354
330
4252
100
AcDbEntity
  8
SUNPOU
100
AcDbBlockReference
  2
_OPEN
 10
499.1630561991014
 20
446.5105645049145
 30
0.0
 41
7.0
 42
7.0
 43
7.0
  0
INSERT
  5
4355
330
4252
100
AcDbEntity
  8
SUNPOU
100
AcDbBlockReference
  2
_OPEN
 10
445.6630361991015
 20
446.5105645049145
 30
0.0
 41
7.0
 42
7.0
 43
7.0
 50
180.0
  0
MTEXT
  5
4356
330
4252
100
AcDbEntity
  8
SUNPOU
100
AcDbMText
 10
472.4130461991014
 20
451.5105645049145
 30
0.0
 40
6.0
 41
0.0
 71
     5
 72
     5
  1
\A1;\U+203B54
 73
     1
 44
1.0
1001
ACAD
1000
MTEXTBEGIN
1070
    73
1070
     1
1070
    44
1040
1.0
1070
    74
1070
     0
1000
MTEXTEND
  0
POINT
  5
4357
330
4252
100
AcDbEntity
  8
DEFPOINTS
 62
     0
100
AcDbPoint
 10
499.1630561991014
 20
415.3151667334008
 30
0.0
  0
POINT
  5
4358
330
4252
100
AcDbEntity
  8
DEFPOINTS
 62
     0
100
AcDbPoint
 10
445.6630361991015
 20
415.3151667334009
 30
0.0
  0
POINT
  5
4359
330
4252
100
AcDbEntity
  8
DEFPOINTS
 62
     0
100
AcDbPoint
 10
445.6630361991015
 20
446.5105645049145
 30
0.0
  0
ENDBLK
  5
425D
330
4252
100
AcDbEntity
  8
0
100
AcDbBlockEnd
  0
ENDSEC
  0
SECTION
  2
ENTITIES
  0
LWPOLYLINE
  5
6C0
330
1A
100
AcDbEntity
  8
ZUWAKU
100
AcDbPolyline
 90
        4
 70
     1
 43
0.0
 10
10.85047808566059
 20
564.5825862828226
 10
10.85047808566059
 20
14.58258628282271
 10
806.8504780856606
 20
14.58258628282271
 10
806.8504780856606
 20
564.5825862828226
  0
LWPOLYLINE
  5
6C1
330
1A
100
AcDbEntity
  8
ZUWAKU
100
AcDbPolyline
 90
        4
 70
     1
 43
0.0
 10
10.45047808566073
 20
564.9825862828227
 10
10.45047808566073
 20
14.18258628282274
 10
807.2504780856606
 20
14.18258628282272
 10
807.2504780856606
 20
564.9825862828227
  0
LWPOLYLINE
  5
6C2
330
1A
100
AcDbEntity
  8
ZUWAKU
100
AcDbPolyline
 90
        4
 70
     1
 43
0.0
 10
10.05047808566086
 20
565.3825862828226
 10
10.05047808566086
 20
13.78258628282265
 10
807.6504780856607
 20
13.78258628282271
 10
807.6504780856607
 20
565.3825862828227
  0
LWPOLYLINE
  5
6C3
330
1A
100
AcDbEntity
  8
ZUWAKU
100
AcDbPolyline
 90
        4
 70
     1
 43
0.0
 10
10.65047808566077
 20
564.7825862828227
 10
10.65047808566077
 20
14.38258628282267
 10
807.0504780856609
 20
14.38258628282271
 10
807.0504780856609
 20
564.7825862828227
  0
LWPOLYLINE
  5
6C4
330
1A
100
AcDbEntity
  8
ZUWAKU
100
AcDbPolyline
 90
        4
 70
     1
 43
0.0
 10
10.25047808566068
 20
565.1825862828227
 10
10.25047808566068
 20
13.98258628282269
 10
807.4504780856605
 20
13.98258628282271
 10
807.450478085661
 20
565.1825862828227
  0
LINE
  5
6C5
330
1A
100
AcDbEntity
  8
ZUWAKU
100
AcDbLine
 10
10.05047808566086
 20
43.78258628282265
 30
0.0
 11
807.4504780856605
 21
43.78258628282265
 31
0.0
  0
LINE
  5
6C6
330
1A
100
AcDbEntity
  8
ZUWAKU
100
AcDbLine
 10
10.05047808566086
 20
43.98258628282265
 30
0.0
 11
807.4504780856605
 21
43.98258628282265
 31
0.0
  0
LINE
  5
6C7
330
1A
100
AcDbEntity
  8
ZUWAKU
100
AcDbLine
 10
10.05047808566086
 20
44.18258628282266
 30
0.0
 11
807.4504780856605
 21
44.18258628282266
 31
0.0
  0
LINE
  5
6C8
330
1A
100
AcDbEntity
  8
ZUWAKU
100
AcDbLine
 10
10.05047808566086
 20
44.38258628282265
 30
0.0
 11
807.4504780856605
 21
44.38258628282265
 31
0.0
  0
LINE
  5
6C9
330
1A
100
AcDbEntity
  8
ZUWAKU
100
AcDbLine
 10
10.05047808566086
 20
44.58258628282266
 30
0.0
 11
807.4504780856605
 21
44.58258628282266
 31
0.0
  0
LINE
  5
6CA
330
1A
100
AcDbEntity
  8
ZUWAKU
100
AcDbLine
 10
218.6970793757286
 20
29.18258628282268
 30
0.0
 11
457.474842056652
 21
29.18258628282268
 31
0.0
  0
LINE
  5
6CB
330
1A
100
AcDbEntity
  8
ZUWAKU
100
AcDbLine
 10
218.6970793757286
 20
29.38258628282268
 30
0.0
 11
457.474842056652
 21
29.38258628282268
 31
0.0
  0
LINE
  5
6CC
330
1A
100
AcDbEntity
  8
ZUWAKU
100
AcDbLine
 10
218.6970793757286
 20
28.98258628282269
 30
0.0
 11
457.474842056652
 21
28.98258628282268
 31
0.0
  0
LINE
  5
6D2
330
1A
100
AcDbEntity
  8
ZUWAKU
100
AcDbLine
 10
22.57284175945824
 20
29.44753577648383
 30
0.0
 11
25.48263973410303
 21
26.53773780183917
 31
0.0
  0
LINE
  5
6D3
330
1A
100
AcDbEntity
  8
ZUWAKU
100
AcDbLine
 10
27.46253872142551
 20
28.51763678916148
 30
0.0
 11
24.55274074678072
 21
31.42743476380615
 31
0.0
  0
ARC
  5
6D4
330
1A
100
AcDbEntity
  8
ZUWAKU
100
AcDbCircle
 10
24.66769024044197
 20
33.70758628282265
 30
0.0
 40
0.525
100
AcDbArc
 50
90.0
 51
180.0
  0
LINE
  5
6D5
330
1A
100
AcDbEntity
  8
ZUWAKU
100
AcDbLine
 10
24.14269024044187
 20
37.03258628282265
 30
0.0
 11
27.64269024044188
 21
37.03258628282265
 31
0.0
  0
LINE
  5
6D6
330
1A
100
AcDbEntity
  8
ZUWAKU
100
AcDbLine
 10
22.39269024044188
 20
23.73258628282265
 30
0.0
 11
25.36769024044179
 21
23.73258628282265
 31
0.0
  0
LINE
  5
6D7
330
1A
100
AcDbEntity
  8
ZUWAKU
100
AcDbLine
 10
22.39269024044188
 20
20.93258628282265
 30
0.0
 11
25.89269024044188
 21
20.93258628282265
 31
0.0
  0
INSERT
  5
6D8
330
1A
100
AcDbEntity
  8
ZUWAKU
  6
Continuous
100
AcDbBlockReference
  2
*X1
 10
12.342212154781
 20
7.675000000000004
 30
0.0
1001
ACAD
1000
HATCH
1002
{
1070
    19
1000
ANSI37
1040
0.2
1040
0.0
1000
R14_HATCH_DATA
1000
4E4
1011
13.34221215478101
1021
7.675000000000004
1031
0.0
1011
12.342212154781
1021
8.675000000000004
1031
0.0
1011
12.342212154781
1021
7.675000000000004
1031
1.0
1040
0.0
1010
0.0
1020
0.0
1030
1.0
1000
ANSI37
1070
     0
1070
     0
1071
        8
1071
        7
1070
     1
1070
     1
1071
       24
1040
12.2105285919996
1040
23.75243476380622
1040
-0.1989123673796348
1040
11.80047808566087
1040
24.74238425746728
1040
0.0
1040
11.80047808566087
1040
26.03258628282265
1040
-0.4142135623730912
1040
12.32547808566084
1040
26.55758628282264
1040
0.0
1040
15.30047808566075
1040
26.55758628282264
1040
0.4142135623731546
1040
15.82547808566084
1040
27.08258628282264
1040
0.0
1040
15.82547808566084
1040
28.83258628282265
1040
0.4142135623731586
1040
15.30047808566075
1040
29.35758628282265
1040
0.0
1040
11.80047808566087
1040
29.35758628282265
1040
0.4142135623730928
1040
9.000478085660915
1040
26.55758628282267
1040
0.0
1040
9.000478085660915
1040
24.7423842574674
1040
0.1989123673796619
1040
10.23062960467734
1040
21.7725357764838
1040
0.0
1040
13.14042757932202
1040
18.86273780183914
1040
-0.1989123673796613
1040
13.55047808566087
1040
17.87278830817795
1040
0.0
1040
13.55047808566087
1040
16.58258628282264
1040
-0.4142135623730911
1040
13.02547808566089
1040
16.05758628282264
1040
0.0
1040
10.05047808566098
1040
16.05758628282264
1040
0.4142135623731526
1040
9.525478085660893
1040
15.53258628282265
1040
0.0
1040
9.525478085660893
1040
13.78258628282263
1040
0.4142135623731526
1040
10.05047808566098
1040
13.25758628282265
1040
0.0
1040
13.55047808566087
1040
13.25758628282265
1040
0.4142135623731044
1040
16.35047808566094
1040
16.05758628282262
1040
0.0
1040
16.35047808566094
1040
17.87278830817789
1040
0.1989123673796604
1040
15.12032656664439
1040
20.84263678916144
1040
0.0
1071
        0
1071
        7
1070
     1
1070
     1
1071
       16
1040
21.25047808566091
1040
25.15758628282265
1040
-0.4142135623730935
1040
22.65047808566089
1040
26.55758628282264
1040
0.0
1040
24.57547808566085
1040
26.55758628282264
1040
0.4142135623731546
1040
25.10047808566094
1040
27.08258628282264
1040
0.0
1040
25.10047808566094
1040
28.83258628282265
1040
0.4142135623730951
1040
24.57547808566096
1040
29.35758628282265
1040
0.0
1040
22.65047808566078
1040
29.35758628282261
1040
0.4142135623730892
1040
18.45047808566084
1040
25.15758628282258
1040
0.0
1040
18.45047808566084
1040
17.45758628282267
1040
0.4142135623730969
1040
22.65047808566089
1040
13.25758628282265
1040
0.0
1040
24.57547808566085
1040
13.25758628282265
1040
0.4142135623731526
1040
25.10047808566094
1040
13.78258628282263
1040
0.0
1040
25.10047808566094
1040
15.53258628282265
1040
0.4142135623730891
1040
24.57547808566096
1040
16.05758628282264
1040
0.0
1040
22.65047808566089
1040
16.05758628282264
1040
-0.4142135623730928
1040
21.25047808566091
1040
17.45758628282263
1040
0.0
1071
        0
1071
        7
1070
     1
1070
     1
1071
        2
1040
21.95047808566084
1040
21.30758628282265
1040
1.0
1040
25.45047808566085
1040
21.30758628282265
1040
1.0
1071
        0
1071
        7
1070
     1
1070
     1
1071
       26
1040
35.02312456783886
1040
25.31263347638607
1040
0.0
1040
36.08476420097668
1040
28.67449231465566
1040
0.5069206636600134
1040
35.58413330178132
1040
29.35758628282265
1040
0.0
1040
33.88524392217209
1040
29.35758628282265
1040
0.3272098845218764
1040
33.38461302297673
1040
28.99068025098962
1040
0.0
1040
31.51634314834495
1040
23.07449231465573
1040
-0.3272098845219541
1040
31.01571224914948
1040
22.70758628282264
1040
0.0
1040
30.87547808566103
1040
22.70758628282264
1040
-0.4142135623731526
1040
30.35047808566094
1040
23.23258628282263
1040
0.0
1040
30.35047808566094
1040
28.83258628282265
1040
0.4142135623730951
1040
29.82547808566096
1040
29.35758628282265
1040
0.0
1040
28.07547808566084
1040
29.35758628282265
1040
0.4142135623730871
1040
27.55047808566087
1040
28.83258628282266
1040
0.0
1040
27.55047808566087
1040
13.78258628282263
1040
0.4142135623730891
1040
28.07547808566084
1040
13.25758628282265
1040
0.0
1040
29.82547808566085
1040
13.25758628282265
1040
0.4142135623731526
1040
30.35047808566094
1040
13.78258628282263
1040
0.0
1040
30.35047808566094
1040
19.38258628282266
1040
-0.4142135623731526
1040
30.87547808566103
1040
19.90758628282264
1040
0.0
1040
31.0157122491496
1040
19.90758628282264
1040
-0.3272098845218915
1040
31.51634314834495
1040
19.54068025098957
1040
0.0
1040
33.38461302297673
1040
13.62449231465572
1040
0.3272098845218902
1040
33.88524392217209
1040
13.25758628282265
1040
0.0
1040
35.58413330178132
1040
13.25758628282265
1040
0.5069206636600335
1040
36.08476420097668
1040
13.94068025098965
1040
0.0
1040
33.75837282250301
1040
21.30758628282279
1040
0.0
1071
        0
1071
        7
1070
     1
1070
     1
1071
        8
1040
41.20047808566084
1040
28.83258628282266
1040
0.4142135623731546
1040
40.67547808566075
1040
29.35758628282265
1040
0.0
1040
38.92547808566098
1040
29.35758628282265
1040
0.4142135623731507
1040
38.40047808566089
1040
28.83258628282266
1040
0.0
1040
38.40047808566089
1040
13.78258628282263
1040
0.4142135623731526
1040
38.92547808566098
1040
13.25758628282265
1040
0.0
1040
40.67547808566075
1040
13.25758628282265
1040
0.4142135623731526
1040
41.20047808566084
1040
13.78258628282263
1040
0.0
1071
        0
1071
        7
1070
     1
1070
     1
1071
       24
1040
46.10047808566093
1040
26.03258628282265
1040
-0.4142135623731546
1040
46.62547808566102
1040
26.55758628282264
1040
0.0
1040
49.60047808566094
1040
26.55758628282264
1040
0.4142135623730911
1040
50.12547808566091
1040
27.08258628282264
1040
0.0
1040
50.12547808566091
1040
28.83258628282265
1040
0.4142135623730952
1040
49.60047808566094
1040
29.35758628282265
1040
0.0
1040
46.10047808566093
1040
29.35758628282265
1040
0.4142135623731048
1040
43.30047808566087
1040
26.55758628282267
1040
0.0
1040
43.30047808566087
1040
24.7423842574674
1040
0.1989123673796613
1040
44.53062960467741
1040
21.77253577648385
1040
0.0
1040
47.44042757932208
1040
18.86273780183918
1040
-0.1989123673796402
1040
47.85047808566093
1040
17.87278830817811
1040
0.0
1040
47.85047808566093
1040
16.58258628282264
1040
-0.4142135623730911
1040
47.32547808566096
1040
16.05758628282264
1040
0.0
1040
44.35047808566094
1040
16.05758628282264
1040
0.4142135623731526
1040
43.82547808566084
1040
15.53258628282265
1040
0.0
1040
43.82547808566084
1040
13.78258628282263
1040
0.4142135623730891
1040
44.35047808566082
1040
13.25758628282265
1040
0.0
1040
47.85047808566093
1040
13.25758628282265
1040
0.4142135623730925
1040
50.65047808566089
1040
16.05758628282262
1040
0.0
1040
50.65047808566089
1040
17.87278830817789
1040
0.1989123673796675
1040
49.42032656664435
1040
20.84263678916155
1040
0.0
1040
46.51052859199978
1040
23.75243476380607
1040
-0.1989123673796652
1040
46.10047808566093
1040
24.74238425746723
1040
0.0
1071
        0
1071
        7
1070
     1
1070
     1
1071
       16
1040
55.55047808566087
1040
28.83258628282264
1040
0.414213562373103
1040
55.02547808566089
1040
29.35758628282265
1040
0.0
1040
53.27547808566089
1040
29.35758628282265
1040
0.4142135623730871
1040
52.75047808566092
1040
28.83258628282266
1040
0.0
1040
52.75047808566092
1040
16.05758628282262
1040
0.4142135623730926
1040
55.55047808566087
1040
13.25758628282265
1040
0.0
1040
59.05047808566087
1040
13.25758628282265
1040
0.4142135623731044
1040
61.85047808566094
1040
16.05758628282262
1040
0.0
1040
61.85047808566094
1040
28.83258628282265
1040
0.4142135623730951
1040
61.32547808566096
1040
29.35758628282265
1040
0.0
1040
59.57547808566085
1040
29.35758628282265
1040
0.4142135623730871
1040
59.05047808566087
1040
28.83258628282266
1040
0.0
1040
59.05047808566087
1040
17.10758628282262
1040
-0.414213562373088
1040
58.00047808566091
1040
16.05758628282264
1040
0.0
1040
56.60047808566094
1040
16.05758628282264
1040
-0.4142135623731197
1040
55.55047808566087
1040
17.10758628282262
1040
0.0
1071
        0
1071
        7
1070
     1
1070
     1
1071
        8
1040
66.75047808566091
1040
28.83258628282266
1040
0.4142135623730871
1040
66.22547808566094
1040
29.35758628282265
1040
0.0
1040
64.47547808566094
1040
29.35758628282265
1040
0.4142135623731507
1040
63.95047808566085
1040
28.83258628282266
1040
0.0
1040
63.95047808566085
1040
13.78258628282263
1040
0.4142135623730891
1040
64.47547808566082
1040
13.25758628282265
1040
0.0
1040
66.22547808566094
1040
13.25758628282265
1040
0.4142135623730891
1040
66.75047808566091
1040
13.78258628282263
1040
0.0
1071
        0
1070
     0
1070
     1
1040
0.0
1040
0.2
1070
     0
1070
     2
1040
0.7853981633974483
1040
-903.2340384037992
1040
-7.092413717177286
1040
-0.4490128060534576
1040
0.4490128060534577
1070
     0
1040
2.356194490192344
1040
-903.2340384037992
1040
-7.092413717177286
1040
-0.4490128060534577
1040
-0.4490128060534576
1070
     0
1040
0.057451373970553
1071
        8
1040
13.78812089390305
1040
21.2747599287082
1040
0.0
1040
20.11278093731891
1040
24.95164846527365
1040
0.0
1040
22.8726338165394
1040
21.61946792889336
1040
0.0
1040
28.62232591251688
1040
22.30888392926414
1040
0.0
1040
39.54673794983648
1040
22.76849619680576
1040
0.0
1040
44.6064668260093
1040
25.52616259922985
1040
0.0
1040
54.2659519032801
1040
24.83674419791766
1040
0.0
1040
65.53534555050248
1040
25.29635646545927
1040
0.0
1002
}
  0
ARC
  5
6D9
330
1A
100
AcDbEntity
  8
ZUWAKU
100
AcDbCircle
 10
22.39269024044188
 20
23.20758628282265
 30
0.0
 40
0.525
100
AcDbArc
 50
90.0
 51
180.0
  0
ARC
  5
6DA
330
1A
100
AcDbEntity
  8
ZUWAKU
100
AcDbCircle
 10
22.39269024044188
 20
21.45758628282265
 30
0.0
 40
0.525
100
AcDbArc
 50
180.0
 51
270.0
  0
LINE
  5
6DB
330
1A
100
AcDbEntity
  8
ZUWAKU
100
AcDbLine
 10
21.86769024044179
 20
21.45758628282265
 30
0.0
 11
21.86769024044179
 21
23.20758628282265
 31
0.0
  0
ARC
  5
6DC
330
1A
100
AcDbEntity
  8
ZUWAKU
100
AcDbCircle
 10
25.54269024044197
 20
32.41738425746735
 30
0.0
 40
4.199999999999999
100
AcDbArc
 50
180.0
 51
224.9999999999996
  0
ARC
  5
6DD
330
1A
100
AcDbEntity
  8
ZUWAKU
100
AcDbCircle
 10
25.54269024044197
 20
32.41738425746735
 30
0.0
 40
1.399999999999999
100
AcDbArc
 50
180.0000000000016
 51
224.9999999999993
  0
ARC
  5
6DE
330
1A
100
AcDbEntity
  8
ZUWAKU
100
AcDbCircle
 10
24.14269024044187
 20
34.23258628282265
 30
0.0
 40
2.799999999999999
100
AcDbArc
 50
90.0
 51
180.0
  0
LINE
  5
6DF
330
1A
100
AcDbEntity
  8
ZUWAKU
100
AcDbLine
 10
21.34269024044192
 20
34.23258628282265
 30
0.0
 11
21.34269024044192
 21
32.41738425746731
 31
0.0
  0
LINE
  5
6E0
330
1A
100
AcDbEntity
  8
ZUWAKU
100
AcDbLine
 10
24.14269024044187
 20
33.70758628282265
 30
0.0
 11
24.14269024044187
 21
32.41738425746731
 31
0.0
  0
LINE
  5
6E1
330
1A
100
AcDbEntity
  8
ZUWAKU
100
AcDbLine
 10
89.17710763364903
 20
43.78258628282265
 30
0.0
 11
89.17710763364903
 21
14.58258628282271
 31
0.0
  0
LINE
  5
6E2
330
1A
100
AcDbEntity
  8
ZUWAKU
100
AcDbLine
 10
89.57710763364913
 20
43.78258628282265
 30
0.0
 11
89.57710763364913
 21
14.58258628282271
 31
0.0
  0
LINE
  5
6E3
330
1A
100
AcDbEntity
  8
ZUWAKU
100
AcDbLine
 10
89.37710763364885
 20
43.78258628282265
 30
0.0
 11
89.37710763364931
 21
14.58258628282271
 31
0.0
  0
LINE
  5
6E4
330
1A
100
AcDbEntity
  8
ZUWAKU
100
AcDbLine
 10
56.87284175945842
 20
29.44753577648383
 30
0.0
 11
59.78263973410321
 21
26.53773780183917
 31
0.0
  0
ARC
  5
6E5
330
1A
100
AcDbEntity
  8
ZUWAKU
100
AcDbCircle
 10
58.44269024044206
 20
34.23258628282265
 30
0.0
 40
2.799999999999999
100
AcDbArc
 50
90.0
 51
180.0
  0
LINE
  5
6E6
330
1A
100
AcDbEntity
  8
ZUWAKU
100
AcDbLine
 10
56.69269024044206
 20
20.93258628282265
 30
0.0
 11
60.19269024044206
 21
20.93258628282265
 31
0.0
  0
LINE
  5
6E7
330
1A
100
AcDbEntity
  8
ZUWAKU
100
AcDbLine
 10
56.69269024044206
 20
23.73258628282265
 30
0.0
 11
59.66769024044197
 21
23.73258628282265
 31
0.0
  0
LINE
  5
6E8
330
1A
100
AcDbEntity
  8
ZUWAKU
100
AcDbLine
 10
42.16769024044197
 20
37.03258628282265
 30
0.0
 11
40.41769024044197
 21
37.03258628282265
 31
0.0
  0
LINE
  5
6E9
330
1A
100
AcDbEntity
  8
ZUWAKU
100
AcDbLine
 10
40.41769024044197
 20
20.93258628282265
 30
0.0
 11
42.16769024044197
 21
20.93258628282265
 31
0.0
  0
LINE
  5
6EA
330
1A
100
AcDbEntity
  8
ZUWAKU
100
AcDbLine
 10
39.89269024044188
 20
36.50758628282265
 30
0.0
 11
39.89269024044188
 21
21.45758628282265
 31
0.0
  0
LINE
  5
6EB
330
1A
100
AcDbEntity
  8
ZUWAKU
100
AcDbLine
 10
30.79269024044197
 20
25.13258628282265
 30
0.0
 11
30.79269024044197
 21
32.83258628282261
 31
0.0
  0
LINE
  5
6EC
330
1A
100
AcDbEntity
  8
ZUWAKU
100
AcDbLine
 10
33.59269024044192
 20
32.83258628282265
 30
0.0
 11
33.59269024044192
 21
25.13258628282265
 31
0.0
  0
ARC
  5
6ED
330
1A
100
AcDbEntity
  8
ZUWAKU
100
AcDbCircle
 10
24.49269024044179
 20
25.54778830817795
 30
0.0
 40
4.199999999999999
100
AcDbArc
 50
0.0
 51
44.9999999999996
  0
CIRCLE
  5
6EE
330
1A
100
AcDbEntity
  8
ZUWAKU
100
AcDbCircle
 10
36.04269024044197
 20
28.98258628282265
 30
0.0
 40
1.75
  0
ARC
  5
6EF
330
1A
100
AcDbEntity
  8
ZUWAKU
100
AcDbCircle
 10
34.99269024044179
 20
25.13258628282265
 30
0.0
 40
4.199999999999999
100
AcDbArc
 50
180.0
 51
270.0
  0
LINE
  5
6F0
330
1A
100
AcDbEntity
  8
ZUWAKU
100
AcDbLine
 10
28.69269024044206
 20
23.73258628282265
 30
0.0
 11
28.69269024044206
 21
25.547788308178
 31
0.0
  0
ARC
  5
6F1
330
1A
100
AcDbEntity
  8
ZUWAKU
100
AcDbCircle
 10
25.36769024044179
 20
24.25758628282265
 30
0.0
 40
0.525
100
AcDbArc
 50
270.0
 51
0.0
  0
LINE
  5
6F2
330
1A
100
AcDbEntity
  8
ZUWAKU
100
AcDbLine
 10
25.89269024044188
 20
24.25758628282265
 30
0.0
 11
25.89269024044188
 21
25.547788308178
 31
0.0
  0
ARC
  5
6F3
330
1A
100
AcDbEntity
  8
ZUWAKU
100
AcDbCircle
 10
25.89269024044188
 20
23.73258628282265
 30
0.0
 40
2.799999999999999
100
AcDbArc
 50
270.0
 51
0.0
  0
ARC
  5
6F4
330
1A
100
AcDbEntity
  8
ZUWAKU
100
AcDbCircle
 10
24.49269024044179
 20
25.547788308178
 30
0.0
 40
1.399999999999999
100
AcDbArc
 50
0.0
 51
44.9999999999996
  0
ARC
  5
6F5
330
1A
100
AcDbEntity
  8
ZUWAKU
100
AcDbCircle
 10
40.41769024044197
 20
21.45758628282265
 30
0.0
 40
0.525
100
AcDbArc
 50
180.0
 51
270.0
  0
ARC
  5
6F6
330
1A
100
AcDbEntity
  8
ZUWAKU
100
AcDbCircle
 10
36.91769024044197
 20
23.20758628282265
 30
0.0
 40
0.525
100
AcDbArc
 50
0.0
 51
90.0
  0
ARC
  5
6F7
330
1A
100
AcDbEntity
  8
ZUWAKU
100
AcDbCircle
 10
36.91769024044197
 20
21.45758628282265
 30
0.0
 40
0.525
100
AcDbArc
 50
270.0
 51
0.0
  0
LINE
  5
6F8
330
1A
100
AcDbEntity
  8
ZUWAKU
100
AcDbLine
 10
37.44269024044206
 20
23.20758628282265
 30
0.0
 11
37.44269024044206
 21
21.45758628282265
 31
0.0
  0
ARC
  5
6F9
330
1A
100
AcDbEntity
  8
ZUWAKU
100
AcDbCircle
 10
34.99269024044179
 20
25.13258628282265
 30
0.0
 40
1.399999999999999
100
AcDbArc
 50
180.0
 51
270.0
  0
LINE
  5
6FA
330
1A
100
AcDbEntity
  8
ZUWAKU
100
AcDbLine
 10
36.91769024044197
 20
20.93258628282265
 30
0.0
 11
34.99269024044179
 21
20.93258628282265
 31
0.0
  0
LINE
  5
6FB
330
1A
100
AcDbEntity
  8
ZUWAKU
100
AcDbLine
 10
34.99269024044179
 20
23.73258628282265
 30
0.0
 11
36.91769024044197
 21
23.73258628282265
 31
0.0
  0
ARC
  5
6FC
330
1A
100
AcDbEntity
  8
ZUWAKU
100
AcDbCircle
 10
34.99269024044179
 20
32.83258628282261
 30
0.0
 40
4.199999999999999
100
AcDbArc
 50
90.0
 51
180.0
  0
LINE
  5
6FD
330
1A
100
AcDbEntity
  8
ZUWAKU
100
AcDbLine
 10
28.16769024044197
 20
36.50758628282265
 30
0.0
 11
28.16769024044197
 21
34.75758628282265
 31
0.0
  0
LINE
  5
6FE
330
1A
100
AcDbEntity
  8
ZUWAKU
100
AcDbLine
 10
27.64269024044188
 20
34.23258628282265
 30
0.0
 11
24.66769024044197
 21
34.23258628282265
 31
0.0
  0
ARC
  5
6FF
330
1A
100
AcDbEntity
  8
ZUWAKU
100
AcDbCircle
 10
27.64269024044188
 20
34.75758628282265
 30
0.0
 40
0.525
100
AcDbArc
 50
270.0
 51
0.0
  0
ARC
  5
700
330
1A
100
AcDbEntity
  8
ZUWAKU
100
AcDbCircle
 10
27.64269024044188
 20
36.50758628282265
 30
0.0
 40
0.525
100
AcDbArc
 50
0.0
 51
90.0
  0
LINE
  5
701
330
1A
100
AcDbEntity
  8
ZUWAKU
100
AcDbLine
 10
37.44269024044206
 20
36.50758628282265
 30
0.0
 11
37.44269024044206
 21
34.75758628282265
 31
0.0
  0
ARC
  5
702
330
1A
100
AcDbEntity
  8
ZUWAKU
100
AcDbCircle
 10
36.91769024044197
 20
34.75758628282265
 30
0.0
 40
0.525
100
AcDbArc
 50
270.0
 51
0.0
  0
ARC
  5
703
330
1A
100
AcDbEntity
  8
ZUWAKU
100
AcDbCircle
 10
40.41769024044197
 20
36.50758628282265
 30
0.0
 40
0.525
100
AcDbArc
 50
90.0
 51
180.0
  0
ARC
  5
704
330
1A
100
AcDbEntity
  8
ZUWAKU
100
AcDbCircle
 10
36.91769024044197
 20
36.50758628282265
 30
0.0
 40
0.525
100
AcDbArc
 50
0.0
 51
90.0
  0
ARC
  5
705
330
1A
100
AcDbEntity
  8
ZUWAKU
100
AcDbCircle
 10
34.99269024044179
 20
32.83258628282265
 30
0.0
 40
1.399999999999999
100
AcDbArc
 50
90.0
 51
180.0
  0
LINE
  5
706
330
1A
100
AcDbEntity
  8
ZUWAKU
100
AcDbLine
 10
36.91769024044197
 20
34.23258628282265
 30
0.0
 11
34.99269024044179
 21
34.23258628282265
 31
0.0
  0
LINE
  5
707
330
1A
100
AcDbEntity
  8
ZUWAKU
100
AcDbLine
 10
34.99269024044179
 20
37.03258628282261
 30
0.0
 11
36.91769024044197
 21
37.03258628282265
 31
0.0
  0
ARC
  5
708
330
1A
100
AcDbEntity
  8
ZUWAKU
100
AcDbCircle
 10
43.21769024044215
 20
27.05758628282265
 30
0.0
 40
0.525
100
AcDbArc
 50
90.0
 51
180.0
  0
ARC
  5
709
330
1A
100
AcDbEntity
  8
ZUWAKU
100
AcDbCircle
 10
43.35792440393061
 20
27.05758628282265
 30
0.0
 40
0.525
100
AcDbArc
 50
17.52556837372255
 51
90.0
  0
LINE
  5
70A
330
1A
100
AcDbEntity
  8
ZUWAKU
100
AcDbLine
 10
53.54269024044197
 20
21.45758628282265
 30
0.0
 11
53.54269024044197
 21
36.50758628282265
 31
0.0
  0
LINE
  5
70B
330
1A
100
AcDbEntity
  8
ZUWAKU
100
AcDbLine
 10
50.74269024044179
 20
36.50758628282265
 30
0.0
 11
50.74269024044179
 21
21.45758628282265
 31
0.0
  0
LINE
  5
70C
330
1A
100
AcDbEntity
  8
ZUWAKU
100
AcDbLine
 10
48.42697635575769
 20
21.61568025098962
 30
0.0
 11
46.10058497728414
 21
28.98258628282267
 31
0.0
  0
LINE
  5
70D
330
1A
100
AcDbEntity
  8
ZUWAKU
100
AcDbLine
 10
43.21769024044215
 20
27.58258628282265
 30
0.0
 11
43.35792440393061
 21
27.58258628282265
 31
0.0
  0
ARC
  5
70E
330
1A
100
AcDbEntity
  8
ZUWAKU
100
AcDbCircle
 10
46.22745607695333
 20
21.45758628282265
 30
0.0
 40
0.525
100
AcDbArc
 50
197.5255683737225
 51
270.0
  0
ARC
  5
70F
330
1A
100
AcDbEntity
  8
ZUWAKU
100
AcDbCircle
 10
47.9263454565621
 20
21.45758628282265
 30
0.0
 40
0.525
100
AcDbArc
 50
270.0
 51
17.52556837372255
  0
LINE
  5
710
330
1A
100
AcDbEntity
  8
ZUWAKU
100
AcDbLine
 10
46.22745607695333
 20
20.93258628282265
 30
0.0
 11
47.9263454565621
 21
20.93258628282265
 31
0.0
  0
ARC
  5
711
330
1A
100
AcDbEntity
  8
ZUWAKU
100
AcDbCircle
 10
42.16769024044197
 20
21.45758628282265
 30
0.0
 40
0.525
100
AcDbArc
 50
270.0
 51
0.0
  0
LINE
  5
712
330
1A
100
AcDbEntity
  8
ZUWAKU
100
AcDbLine
 10
45.72682517775774
 20
21.29949231465567
 30
0.0
 11
43.85855530312574
 21
27.21568025098962
 31
0.0
  0
LINE
  5
713
330
1A
100
AcDbEntity
  8
ZUWAKU
100
AcDbLine
 10
42.69269024044206
 20
21.45758628282265
 30
0.0
 11
42.69269024044206
 21
27.05758628282265
 31
0.0
  0
ARC
  5
714
330
1A
100
AcDbEntity
  8
ZUWAKU
100
AcDbCircle
 10
56.69269024044206
 20
23.20758628282265
 30
0.0
 40
0.525
100
AcDbArc
 50
90.0
 51
180.0
  0
ARC
  5
715
330
1A
100
AcDbEntity
  8
ZUWAKU
100
AcDbCircle
 10
53.01769024044188
 20
21.45758628282265
 30
0.0
 40
0.525
100
AcDbArc
 50
270.0
 51
0.0
  0
ARC
  5
716
330
1A
100
AcDbEntity
  8
ZUWAKU
100
AcDbCircle
 10
56.69269024044206
 20
21.45758628282265
 30
0.0
 40
0.525
100
AcDbArc
 50
180.0
 51
270.0
  0
LINE
  5
717
330
1A
100
AcDbEntity
  8
ZUWAKU
100
AcDbLine
 10
56.16769024044197
 20
21.45758628282265
 30
0.0
 11
56.16769024044197
 21
23.20758628282265
 31
0.0
  0
ARC
  5
718
330
1A
100
AcDbEntity
  8
ZUWAKU
100
AcDbCircle
 10
51.26769024044188
 20
21.45758628282265
 30
0.0
 40
0.525
100
AcDbArc
 50
180.0
 51
270.0
  0
LINE
  5
719
330
1A
100
AcDbEntity
  8
ZUWAKU
100
AcDbLine
 10
51.26769024044188
 20
20.93258628282265
 30
0.0
 11
53.01769024044188
 21
20.93258628282265
 31
0.0
  0
LINE
  5
71A
330
1A
100
AcDbEntity
  8
ZUWAKU
100
AcDbLine
 10
47.36533672261976
 20
32.98763347638608
 30
0.0
 11
46.10058497728414
 21
28.98258628282267
 31
0.0
  0
ARC
  5
71B
330
1A
100
AcDbEntity
  8
ZUWAKU
100
AcDbCircle
 10
46.22745607695333
 20
36.50758628282265
 30
0.0
 40
0.525
100
AcDbArc
 50
90.0
 51
162.4744316262773
  0
LINE
  5
71C
330
1A
100
AcDbEntity
  8
ZUWAKU
100
AcDbLine
 10
48.42697635575769
 20
36.34949231465568
 30
0.0
 11
47.36533672261976
 21
32.98763347638608
 31
0.0
  0
ARC
  5
71D
330
1A
100
AcDbEntity
  8
ZUWAKU
100
AcDbCircle
 10
47.9263454565621
 20
36.50758628282265
 30
0.0
 40
0.525
100
AcDbArc
 50
342.4744316262774
 51
90.0
  0
LINE
  5
71E
330
1A
100
AcDbEntity
  8
ZUWAKU
100
AcDbLine
 10
46.22745607695333
 20
37.03258628282265
 30
0.0
 11
47.9263454565621
 21
37.03258628282265
 31
0.0
  0
LINE
  5
71F
330
1A
100
AcDbEntity
  8
ZUWAKU
100
AcDbLine
 10
42.69269024044206
 20
30.90758628282265
 30
0.0
 11
42.69269024044206
 21
36.50758628282265
 31
0.0
  0
ARC
  5
720
330
1A
100
AcDbEntity
  8
ZUWAKU
100
AcDbCircle
 10
43.21769024044215
 20
30.90758628282265
 30
0.0
 40
0.525
100
AcDbArc
 50
180.0
 51
270.0
  0
LINE
  5
721
330
1A
100
AcDbEntity
  8
ZUWAKU
100
AcDbLine
 10
43.35792440393061
 20
30.38258628282265
 30
0.0
 11
43.21769024044215
 21
30.38258628282265
 31
0.0
  0
ARC
  5
722
330
1A
100
AcDbEntity
  8
ZUWAKU
100
AcDbCircle
 10
43.35792440393061
 20
30.90758628282265
 30
0.0
 40
0.525
100
AcDbArc
 50
270.0
 51
342.4744316262774
  0
ARC
  5
723
330
1A
100
AcDbEntity
  8
ZUWAKU
100
AcDbCircle
 10
42.16769024044197
 20
36.50758628282265
 30
0.0
 40
0.525
100
AcDbArc
 50
0.0
 51
90.0
  0
LINE
  5
724
330
1A
100
AcDbEntity
  8
ZUWAKU
100
AcDbLine
 10
45.72682517775774
 20
36.66568025098962
 30
0.0
 11
43.85855530312574
 21
30.74949231465568
 31
0.0
  0
ARC
  5
725
330
1A
100
AcDbEntity
  8
ZUWAKU
100
AcDbCircle
 10
59.84269024044215
 20
32.41738425746735
 30
0.0
 40
4.199999999999999
100
AcDbArc
 50
180.0
 51
224.9999999999996
  0
LINE
  5
726
330
1A
100
AcDbEntity
  8
ZUWAKU
100
AcDbLine
 10
55.64269024044188
 20
34.23258628282265
 30
0.0
 11
55.64269024044188
 21
32.41738425746731
 31
0.0
  0
ARC
  5
727
330
1A
100
AcDbEntity
  8
ZUWAKU
100
AcDbCircle
 10
53.01769024044188
 20
36.50758628282265
 30
0.0
 40
0.525
100
AcDbArc
 50
0.0
 51
90.0
  0
ARC
  5
728
330
1A
100
AcDbEntity
  8
ZUWAKU
100
AcDbCircle
 10
51.26769024044188
 20
36.50758628282265
 30
0.0
 40
0.525
100
AcDbArc
 50
90.0
 51
180.0
  0
LINE
  5
729
330
1A
100
AcDbEntity
  8
ZUWAKU
100
AcDbLine
 10
53.01769024044188
 20
37.03258628282265
 30
0.0
 11
51.26769024044188
 21
37.03258628282265
 31
0.0
  0
ARC
  5
72A
330
1A
100
AcDbEntity
  8
ZUWAKU
100
AcDbCircle
 10
73.66769024044197
 20
36.50758628282265
 30
0.0
 40
0.525
100
AcDbArc
 50
0.0
 51
90.0
  0
ARC
  5
72B
330
1A
100
AcDbEntity
  8
ZUWAKU
100
AcDbCircle
 10
71.39269024044188
 20
23.73258628282265
 30
0.0
 40
2.799999999999999
100
AcDbArc
 50
270.0
 51
0.0
  0
LINE
  5
72C
330
1A
100
AcDbEntity
  8
ZUWAKU
100
AcDbLine
 10
67.89269024044187
 20
24.78258628282265
 30
0.0
 11
67.89269024044187
 21
36.50758628282265
 31
0.0
  0
LINE
  5
72D
330
1A
100
AcDbEntity
  8
ZUWAKU
100
AcDbLine
 10
65.09269024044215
 20
36.50758628282265
 30
0.0
 11
65.09269024044215
 21
23.73258628282265
 31
0.0
  0
LINE
  5
72E
330
1A
100
AcDbEntity
  8
ZUWAKU
100
AcDbLine
 10
71.39269024044188
 20
36.50758628282265
 30
0.0
 11
71.39269024044188
 21
24.78258628282265
 31
0.0
  0
ARC
  5
72F
330
1A
100
AcDbEntity
  8
ZUWAKU
100
AcDbCircle
 10
58.79269024044197
 20
25.54778830817795
 30
0.0
 40
4.199999999999999
100
AcDbArc
 50
0.0
 51
44.9999999999996
  0
ARC
  5
730
330
1A
100
AcDbEntity
  8
ZUWAKU
100
AcDbCircle
 10
67.89269024044187
 20
23.73258628282265
 30
0.0
 40
2.799999999999999
100
AcDbArc
 50
180.0
 51
270.0
  0
LINE
  5
731
330
1A
100
AcDbEntity
  8
ZUWAKU
100
AcDbLine
 10
62.99269024044178
 20
23.73258628282265
 30
0.0
 11
62.99269024044178
 21
25.547788308178
 31
0.0
  0
ARC
  5
732
330
1A
100
AcDbEntity
  8
ZUWAKU
100
AcDbCircle
 10
59.66769024044197
 20
24.25758628282265
 30
0.0
 40
0.525
100
AcDbArc
 50
270.0
 51
0.0
  0
LINE
  5
733
330
1A
100
AcDbEntity
  8
ZUWAKU
100
AcDbLine
 10
60.19269024044206
 20
24.25758628282265
 30
0.0
 11
60.19269024044206
 21
25.547788308178
 31
0.0
  0
ARC
  5
734
330
1A
100
AcDbEntity
  8
ZUWAKU
100
AcDbCircle
 10
60.19269024044206
 20
23.73258628282265
 30
0.0
 40
2.799999999999999
100
AcDbArc
 50
270.0
 51
0.0
  0
ARC
  5
735
330
1A
100
AcDbEntity
  8
ZUWAKU
100
AcDbCircle
 10
58.79269024044197
 20
25.547788308178
 30
0.0
 40
1.399999999999999
100
AcDbArc
 50
0.0
 51
44.9999999999996
  0
ARC
  5
736
330
1A
100
AcDbEntity
  8
ZUWAKU
100
AcDbCircle
 10
70.34269024044215
 20
24.78258628282265
 30
0.0
 40
1.049999999999999
100
AcDbArc
 50
270.0
 51
0.0
  0
ARC
  5
737
330
1A
100
AcDbEntity
  8
ZUWAKU
100
AcDbCircle
 10
68.94269024044206
 20
24.78258628282265
 30
0.0
 40
1.049999999999999
100
AcDbArc
 50
180.0
 51
270.0
  0
LINE
  5
738
330
1A
100
AcDbEntity
  8
ZUWAKU
100
AcDbLine
 10
67.89269024044187
 20
20.93258628282265
 30
0.0
 11
71.39269024044188
 21
20.93258628282265
 31
0.0
  0
LINE
  5
739
330
1A
100
AcDbEntity
  8
ZUWAKU
100
AcDbLine
 10
70.34269024044215
 20
23.73258628282265
 30
0.0
 11
68.94269024044206
 21
23.73258628282265
 31
0.0
  0
LINE
  5
73A
330
1A
100
AcDbEntity
  8
ZUWAKU
100
AcDbLine
 10
67.36769024044178
 20
37.03258628282265
 30
0.0
 11
65.61769024044179
 21
37.03258628282265
 31
0.0
  0
LINE
  5
73B
330
1A
100
AcDbEntity
  8
ZUWAKU
100
AcDbLine
 10
62.46769024044215
 20
36.50758628282265
 30
0.0
 11
62.46769024044215
 21
34.75758628282265
 31
0.0
  0
ARC
  5
73C
330
1A
100
AcDbEntity
  8
ZUWAKU
100
AcDbCircle
 10
61.94269024044206
 20
34.75758628282265
 30
0.0
 40
0.525
100
AcDbArc
 50
270.0
 51
0.0
  0
ARC
  5
73D
330
1A
100
AcDbEntity
  8
ZUWAKU
100
AcDbCircle
 10
61.94269024044206
 20
36.50758628282265
 30
0.0
 40
0.525
100
AcDbArc
 50
0.0
 51
90.0
  0
ARC
  5
73E
330
1A
100
AcDbEntity
  8
ZUWAKU
100
AcDbCircle
 10
65.61769024044179
 20
36.50758628282265
 30
0.0
 40
0.525
100
AcDbArc
 50
90.0
 51
180.0
  0
ARC
  5
73F
330
1A
100
AcDbEntity
  8
ZUWAKU
100
AcDbCircle
 10
59.84269024044215
 20
32.41738425746735
 30
0.0
 40
1.399999999999999
100
AcDbArc
 50
180.0000000000016
 51
224.9999999999993
  0
LINE
  5
740
330
1A
100
AcDbEntity
  8
ZUWAKU
100
AcDbLine
 10
58.44269024044206
 20
33.70758628282265
 30
0.0
 11
58.44269024044206
 21
32.41738425746731
 31
0.0
  0
ARC
  5
741
330
1A
100
AcDbEntity
  8
ZUWAKU
100
AcDbCircle
 10
58.96769024044215
 20
33.70758628282265
 30
0.0
 40
0.525
100
AcDbArc
 50
90.0
 51
180.0
  0
LINE
  5
742
330
1A
100
AcDbEntity
  8
ZUWAKU
100
AcDbLine
 10
61.76253872142524
 20
28.51763678916148
 30
0.0
 11
58.85274074678045
 21
31.42743476380615
 31
0.0
  0
LINE
  5
743
330
1A
100
AcDbEntity
  8
ZUWAKU
100
AcDbLine
 10
61.94269024044206
 20
34.23258628282265
 30
0.0
 11
58.96769024044215
 21
34.23258628282265
 31
0.0
  0
LINE
  5
744
330
1A
100
AcDbEntity
  8
ZUWAKU
100
AcDbLine
 10
58.44269024044206
 20
37.03258628282265
 30
0.0
 11
61.94269024044206
 21
37.03258628282265
 31
0.0
  0
ARC
  5
745
330
1A
100
AcDbEntity
  8
ZUWAKU
100
AcDbCircle
 10
71.91769024044197
 20
36.50758628282265
 30
0.0
 40
0.525
100
AcDbArc
 50
90.0
 51
180.0
  0
LINE
  5
746
330
1A
100
AcDbEntity
  8
ZUWAKU
100
AcDbLine
 10
73.66769024044197
 20
37.03258628282265
 30
0.0
 11
71.91769024044197
 21
37.03258628282265
 31
0.0
  0
ARC
  5
747
330
1A
100
AcDbEntity
  8
ZUWAKU
100
AcDbCircle
 10
67.36769024044178
 20
36.50758628282265
 30
0.0
 40
0.525
100
AcDbArc
 50
0.0
 51
90.0
  0
LINE
  5
748
330
1A
100
AcDbEntity
  8
ZUWAKU
100
AcDbLine
 10
76.29269024044197
 20
36.50758628282265
 30
0.0
 11
76.29269024044197
 21
21.45758628282265
 31
0.0
  0
LINE
  5
749
330
1A
100
AcDbEntity
  8
ZUWAKU
100
AcDbLine
 10
79.09269024044215
 20
21.45758628282265
 30
0.0
 11
79.09269024044215
 21
36.50758628282265
 31
0.0
  0
LINE
  5
74A
330
1A
100
AcDbEntity
  8
ZUWAKU
100
AcDbLine
 10
74.19269024044206
 20
23.73258628282265
 30
0.0
 11
74.19269024044206
 21
36.50758628282265
 31
0.0
  0
ARC
  5
74B
330
1A
100
AcDbEntity
  8
ZUWAKU
100
AcDbCircle
 10
78.56769024044206
 20
21.45758628282265
 30
0.0
 40
0.525
100
AcDbArc
 50
270.0
 51
0.0
  0
ARC
  5
74C
330
1A
100
AcDbEntity
  8
ZUWAKU
100
AcDbCircle
 10
76.81769024044206
 20
21.45758628282265
 30
0.0
 40
0.525
100
AcDbArc
 50
180.0
 51
270.0
  0
LINE
  5
74D
330
1A
100
AcDbEntity
  8
ZUWAKU
100
AcDbLine
 10
76.81769024044206
 20
20.93258628282265
 30
0.0
 11
78.56769024044206
 21
20.93258628282265
 31
0.0
  0
ARC
  5
74E
330
1A
100
AcDbEntity
  8
ZUWAKU
100
AcDbCircle
 10
78.56769024044206
 20
36.50758628282265
 30
0.0
 40
0.525
100
AcDbArc
 50
0.0
 51
90.0
  0
ARC
  5
74F
330
1A
100
AcDbEntity
  8
ZUWAKU
100
AcDbCircle
 10
76.81769024044206
 20
36.50758628282265
 30
0.0
 40
0.525
100
AcDbArc
 50
90.0
 51
180.0
  0
LINE
  5
750
330
1A
100
AcDbEntity
  8
ZUWAKU
100
AcDbLine
 10
78.56769024044206
 20
37.03258628282265
 30
0.0
 11
76.81769024044206
 21
37.03258628282265
 31
0.0
  0
TEXT
  5
751
330
1A
100
AcDbEntity
  8
moji
100
AcDbText
 10
103.0082676738297
 20
26.52376441309741
 30
0.0
 40
6.0
  1
大型　のきとい
 41
0.9
  7
ｽﾀｲﾙ1
100
AcDbText
  0
TEXT
  5
756
330
1A
100
AcDbEntity
  8
moji
100
AcDbText
 10
249.8776807665117
 20
16.98750734023007
 30
0.0
 40
5.599999999999999
  1
Ｐ２５０
 41
0.9
  7
ｽﾀｲﾙ1
100
AcDbText
  0
LINE
  5
757
330
1A
100
AcDbEntity
  8
ZUWAKU
100
AcDbLine
 10
218.4970793757283
 20
43.78258628282265
 30
0.0
 11
218.4970793757288
 21
14.58258628282271
 31
0.0
  0
LINE
  5
758
330
1A
100
AcDbEntity
  8
ZUWAKU
100
AcDbLine
 10
218.6970793757286
 20
43.78258628282265
 30
0.0
 11
218.6970793757286
 21
14.58258628282271
 31
0.0
  0
LINE
  5
759
330
1A
100
AcDbEntity
  8
ZUWAKU
100
AcDbLine
 10
218.2970793757285
 20
43.78258628282265
 30
0.0
 11
218.2970793757285
 21
14.58258628282271
 31
0.0
  0
TEXT
  5
75A
330
1A
100
AcDbEntity
  8
ZUWAKU
100
AcDbText
 10
219.7745243979379
 20
37.83794282120823
 30
0.0
 40
4.0
  1
品名
 41
0.9
  7
ｽﾀｲﾙ1
100
AcDbText
  0
TEXT
  5
75B
330
1A
100
AcDbEntity
  8
ZUWAKU
100
AcDbText
 10
219.7745243979384
 20
23.43794282120826
 30
0.0
 40
4.0
  1
サイズ
 41
0.9
  7
ｽﾀｲﾙ1
100
AcDbText
  0
TEXT
  5
75C
330
1A
100
AcDbEntity
  8
moji
100
AcDbText
 10
249.8776807665117
 20
31.78750734023003
 30
0.0
 40
5.599999999999999
  1
伸縮ジョイント
 41
0.9
  7
ｽﾀｲﾙ1
100
AcDbText
  0
TEXT
  5
792
330
1A
100
AcDbEntity
  8
ZUWAKU
100
AcDbText
 10
668.254415772963
 20
31.78750734023003
 30
0.0
 40
5.599999999999999
  1
　　．　　．　　
 41
0.9
  7
ｽﾀｲﾙ1
100
AcDbText
  0
LINE
  5
793
330
1A
100
AcDbEntity
  8
ZUWAKU
100
AcDbLine
 10
658.8676805958648
 20
29.38258628282268
 30
0.0
 11
707.2994886342021
 21
29.38258628282268
 31
0.0
  0
LINE
  5
794
330
1A
100
AcDbEntity
  8
ZUWAKU
100
AcDbLine
 10
658.8676805958653
 20
29.18258628282268
 30
0.0
 11
707.2994886342021
 21
29.18258628282268
 31
0.0
  0
LINE
  5
795
330
1A
100
AcDbEntity
  8
ZUWAKU
100
AcDbLine
 10
658.8676805958648
 20
28.98258628282268
 30
0.0
 11
707.2994886342021
 21
28.98258628282268
 31
0.0
  0
LINE
  5
79A
330
1A
100
AcDbEntity
  8
ZUWAKU
100
AcDbLine
 10
515.2496575838017
 20
29.38258628282268
 30
0.0
 11
562.5774338517731
 21
29.38258628282268
 31
0.0
  0
LINE
  5
79B
330
1A
100
AcDbEntity
  8
ZUWAKU
100
AcDbLine
 10
515.2496575838017
 20
29.18258628282268
 30
0.0
 11
562.5774338517731
 21
29.18258628282268
 31
0.0
  0
LINE
  5
79C
330
1A
100
AcDbEntity
  8
ZUWAKU
100
AcDbLine
 10
515.2496575838017
 20
28.98258628282269
 30
0.0
 11
562.5774338517731
 21
28.98258628282269
 31
0.0
  0
TEXT
  5
79D
330
1A
100
AcDbEntity
  8
moji
100
AcDbText
 10
538.0913860579735
 20
16.98750734023007
 30
0.0
 40
5.599999999999999
  1
１/２
 41
0.9
  7
ｽﾀｲﾙ1
100
AcDbText
  0
LINE
  5
79E
330
1A
100
AcDbEntity
  8
ZUWAKU
100
AcDbLine
 10
514.8496575838017
 20
43.78258628282265
 30
0.0
 11
514.8496575838017
 21
14.58258628282271
 31
0.0
  0
LINE
  5
79F
330
1A
100
AcDbEntity
  8
ZUWAKU
100
AcDbLine
 10
515.2496575838017
 20
43.78258628282265
 30
0.0
 11
515.2496575838017
 21
14.58258628282271
 31
0.0
  0
LINE
  5
7A0
330
1A
100
AcDbEntity
  8
ZUWAKU
100
AcDbLine
 10
515.0496575838015
 20
43.78258628282265
 30
0.0
 11
515.0496575838019
 21
14.58258628282271
 31
0.0
  0
LINE
  5
7A1
330
1A
100
AcDbEntity
  8
ZUWAKU
100
AcDbLine
 10
457.474842056652
 20
43.78258628282265
 30
0.0
 11
457.474842056652
 21
14.58258628282271
 31
0.0
  0
LINE
  5
7A2
330
1A
100
AcDbEntity
  8
ZUWAKU
100
AcDbLine
 10
457.8748420566521
 20
43.78258628282265
 30
0.0
 11
457.8748420566521
 21
14.58258628282271
 31
0.0
  0
LINE
  5
7A3
330
1A
100
AcDbEntity
  8
ZUWAKU
100
AcDbLine
 10
457.6748420566518
 20
43.78258628282265
 30
0.0
 11
457.6748420566523
 21
14.58258628282271
 31
0.0
  0
TEXT
  5
7A4
330
1A
100
AcDbEntity
  8
moji
100
AcDbText
 10
472.1486881474166
 20
25.56402850121991
 30
0.0
 40
5.599999999999999
  1
ＧＳ７７
 41
0.9
  7
ｽﾀｲﾙ1
100
AcDbText
  0
TEXT
  5
7A5
330
1A
100
AcDbEntity
  8
ZUWAKU
100
AcDbText
 10
459.3522870788615
 20
37.83794282120823
 30
0.0
 40
4.0
  1
品番
 41
0.9
  7
ｽﾀｲﾙ1
100
AcDbText
  0
TEXT
  5
7A6
330
1A
100
AcDbEntity
  8
ZUWAKU
100
AcDbText
 10
516.7271026060111
 20
37.83794282120823
 30
0.0
 40
4.0
  1
用紙
 41
0.9
  7
ｽﾀｲﾙ1
100
AcDbText
  0
TEXT
  5
7A7
330
1A
100
AcDbEntity
  8
ZUWAKU
100
AcDbText
 10
516.7271026060116
 20
23.43794282120826
 30
0.0
 40
4.0
  1
縮尺
 41
0.9
  7
ｽﾀｲﾙ1
100
AcDbText
  0
TEXT
  5
7A8
330
1A
100
AcDbEntity
  8
moji
100
AcDbText
 10
538.0913860579735
 20
31.78750734023003
 30
0.0
 40
5.599999999999999
  1
Ａ３
 41
0.9
  7
ｽﾀｲﾙ1
100
AcDbText
  0
LINE
  5
7A9
330
1A
100
AcDbEntity
  8
ZUWAKU
100
AcDbLine
 10
562.9774338517732
 20
43.78258628282265
 30
0.0
 11
562.9774338517732
 21
14.58258628282271
 31
0.0
  0
LINE
  5
7AA
330
1A
100
AcDbEntity
  8
ZUWAKU
100
AcDbLine
 10
658.4676805958651
 20
43.78258628282265
 30
0.0
 11
658.4676805958651
 21
14.58258628282271
 31
0.0
  0
LINE
  5
7AB
330
1A
100
AcDbEntity
  8
ZUWAKU
100
AcDbLine
 10
658.8676805958653
 20
43.78258628282265
 30
0.0
 11
658.8676805958653
 21
14.58258628282271
 31
0.0
  0
LINE
  5
7AC
330
1A
100
AcDbEntity
  8
ZUWAKU
100
AcDbLine
 10
658.667680595865
 20
43.78258628282265
 30
0.0
 11
658.6676805958655
 21
14.58258628282271
 31
0.0
  0
LINE
  5
7AD
330
1A
100
AcDbEntity
  8
ZUWAKU
100
AcDbLine
 10
562.5774338517731
 20
43.78258628282265
 30
0.0
 11
562.5774338517731
 21
14.58258628282271
 31
0.0
  0
LINE
  5
7AE
330
1A
100
AcDbEntity
  8
ZUWAKU
100
AcDbLine
 10
562.7774338517729
 20
43.78258628282265
 30
0.0
 11
562.7774338517733
 21
14.58258628282271
 31
0.0
  0
TEXT
  5
7AF
330
1A
100
AcDbEntity
  8
ZUWAKU
100
AcDbText
 10
660.3451256180747
 20
37.83794282120823
 30
0.0
 40
4.0
  1
DATE
 41
0.9
  7
ｽﾀｲﾙ1
100
AcDbText
  0
LINE
  5
7BB
330
1A
100
AcDbEntity
  8
ZUWAKU
100
AcDbLine
 10
707.899488634202
 20
43.78258628282265
 30
0.0
 11
707.899488634202
 21
14.58258628282271
 31
0.0
  0
LINE
  5
7BC
330
1A
100
AcDbEntity
  8
ZUWAKU
100
AcDbLine
 10
707.6994886342017
 20
43.78258628282265
 30
0.0
 11
707.6994886342022
 21
14.58258628282271
 31
0.0
  0
LINE
  5
7BD
330
1A
100
AcDbEntity
  8
ZUWAKU
100
AcDbLine
 10
707.4994886342019
 20
43.78258628282265
 30
0.0
 11
707.4994886342019
 21
14.58258628282271
 31
0.0
  0
LINE
  5
7BE
330
1A
100
AcDbEntity
  8
ZUWAKU
100
AcDbLine
 10
707.2994886342021
 20
43.78258628282265
 30
0.0
 11
707.2994886342021
 21
14.58258628282271
 31
0.0
  0
TEXT
  5
7BF
330
1A
100
AcDbEntity
  8
ZUWAKU
100
AcDbText
 10
718.5785622779044
 20
31.33642561850945
 30
0.0
 40
6.0
  1
積水化学工業株式会社
 41
0.9
  7
ｽﾀｲﾙ1
100
AcDbText
  0
TEXT
  5
7C0
330
1A
100
AcDbEntity
  8
ZUWAKU
100
AcDbText
 10
718.5785622779044
 20
20.43142659667671
 30
0.0
 40
6.0
  1
建材事業部
 41
0.9
  7
ｽﾀｲﾙ1
100
AcDbText
  0
LINE
  5
3D48
330
1A
100
AcDbEntity
  8
CENTER L
  6
CENTER
 48
5.0
100
AcDbLine
 10
421.0879954611066
 20
415.3151667334009
 30
0.0
 11
749.6855489273068
 21
415.3151667334006
 31
0.0
  0
LINE
  5
3D4B
330
1A
100
AcDbEntity
  8
NOKITOI
100
AcDbLine
 10
98.00081845023328
 20
84.84168510861806
 30
0.0
 11
243.2224539303053
 21
84.84168510861806
 31
0.0
  0
LINE
  5
3D4C
330
1A
100
AcDbEntity
  8
NOKITOI
100
AcDbLine
 10
96.89183123271517
 20
84.04168510861811
 30
0.0
 11
244.3317171278331
 21
84.04168510861811
 31
0.0
  0
LINE
  5
3D4D
330
1A
100
AcDbEntity
  8
NOKITOI
100
AcDbLine
 10
100.81664045064
 20
85.64168510861813
 30
0.0
 11
240.4066319660262
 21
85.64168510861813
 31
0.0
  0
DIMENSION
  5
3D4E
330
1A
100
AcDbEntity
  8
SUNPOU
100
AcDbDimension
  2
*D2
 10
60.56180819910128
 20
235.3335451086181
 30
0.0
 11
171.3380419165471
 21
240.3335451086181
 31
0.0
 70
    32
 71
     5
 42
-1.0
  3
STANDARD
100
AcDbAlignedDimension
 13
282.1142756339929
 23
206.5870671576087
 33
0.0
 14
60.56180819910128
 24
206.4893491086181
 34
0.0
100
AcDbRotatedDimension
1001
ACAD
1000
DSTYLE
1002
{
1070
    41
1040
7.0
1070
    42
1040
6.0
1070
    43
1040
14.0
1070
    44
1040
3.0
1070
    73
1070
     0
1070
    74
1070
     0
1070
    77
1070
     3
1070
   140
1040
6.0
1070
   141
1040
150.0
1070
   147
1040
2.0
1070
   172
1070
     1
1070
   173
1070
     1
1070
   176
1070
   256
1070
   177
1070
   256
1070
   178
1070
   256
1070
   271
1070
     0
1070
   272
1070
     0
1070
   341
1005
6D
1070
     6
1000
OPEN
1070
     7
1000
OPEN
1070
   371
1070
    -1
1070
   372
1070
    -1
1002
}
  0
DIMENSION
  5
3D4F
330
1A
100
AcDbEntity
  8
SUNPOU
100
AcDbDimension
  2
*D3
 10
90.08740019910124
 20
60.04351707214379
 30
0.0
 11
171.2854031991012
 21
65.04351707214379
 31
0.0
 70
    32
 71
     5
 42
-1.0
  3
STANDARD
100
AcDbAlignedDimension
 13
252.4834061991011
 23
76.94168710861811
 33
0.0
 14
90.08740019910124
 24
76.94168710861811
 34
0.0
100
AcDbRotatedDimension
1001
ACAD
1000
DSTYLE
1002
{
1070
    41
1040
7.0
1070
    42
1040
6.0
1070
    43
1040
14.0
1070
    44
1040
3.0
1070
    73
1070
     0
1070
    74
1070
     0
1070
    77
1070
     3
1070
   140
1040
6.0
1070
   141
1040
150.0
1070
   147
1040
2.0
1070
   172
1070
     1
1070
   173
1070
     1
1070
   176
1070
   256
1070
   177
1070
   256
1070
   178
1070
   256
1070
   271
1070
     0
1070
   272
1070
     0
1070
   341
1005
6D
1070
     6
1000
OPEN
1070
     7
1000
OPEN
1070
   371
1070
    -1
1070
   372
1070
    -1
1002
}
  0
LINE
  5
3D50
330
1A
100
AcDbEntity
  8
SEIHIN
100
AcDbLine
 10
182.8841561991012
 20
85.84168510861813
 30
0.0
 11
159.6866561991012
 21
85.84168510861813
 31
0.0
  0
ARC
  5
3D51
330
1A
100
AcDbEntity
  8
SEIHIN
100
AcDbCircle
 10
171.2854061991013
 20
172.6416871086181
 30
0.0
 40
86.499999
100
AcDbArc
 50
261.6911700000016
 51
278.3088200000023
  0
LINE
  5
3D52
330
1A
100
AcDbEntity
  8
SEIHIN
100
AcDbLine
 10
245.5835561991011
 20
76.94168710861811
 30
0.0
 11
96.98725019910126
 21
76.94168710861811
 31
0.0
  0
LINE
  5
3D53
330
1A
100
AcDbEntity
  8
SEIHIN
100
AcDbLine
 10
97.4131661991014
 20
81.54168610861811
 30
0.0
 11
170.6116361991012
 21
81.54168610861811
 31
0.0
  0
LINE
  5
3D54
330
1A
100
AcDbEntity
  8
SEIHIN
100
AcDbLine
 10
171.2854061991013
 20
84.04168510861811
 30
0.0
 11
97.4131661991014
 21
84.04168510861811
 31
0.0
  0
LINE
  5
3D55
330
1A
100
AcDbEntity
  8
SEIHIN
100
AcDbLine
 10
245.5835561991011
 20
76.94168710861811
 30
0.0
 11
96.98725019910126
 21
76.94168710861811
 31
0.0
  0
LINE
  5
3D56
330
1A
100
AcDbEntity
  8
NOKITOI
100
AcDbLine
 10
81.03677605408632
 20
180.599035114676
 30
0.0
 11
96.02573265402748
 21
86.52698509650221
 31
0.0
  0
LINE
  5
3D57
330
1A
100
AcDbEntity
  8
NOKITOI
100
AcDbLine
 10
78.31303150483325
 20
202.7777102086181
 30
0.0
 11
96.37269740895646
 21
89.43361008274004
 31
0.0
  0
LINE
  5
3D58
330
1A
100
AcDbEntity
  8
NOKITOI
100
AcDbLine
 10
80.38262170483324
 20
179.6203601086181
 30
0.0
 11
95.41024090483324
 21
85.30566010861807
 31
0.0
  0
LINE
  5
3D59
330
1A
100
AcDbEntity
  8
SEIHIN
100
AcDbLine
 10
88.99029835176406
 20
83.75375740540846
 30
0.0
 11
75.08059619910136
 21
170.1211891086181
 31
0.0
  0
LINE
  5
3D5A
330
1A
100
AcDbEntity
  8
SEIHIN
100
AcDbLine
 10
78.77355419910123
 20
176.1211891086181
 30
0.0
 11
93.46405319910127
 21
84.90567010861813
 31
0.0
  0
LINE
  5
3D5B
330
1A
100
AcDbEntity
  8
SEIHIN
100
AcDbLine
 10
95.93224919910131
 20
85.30317910861814
 30
0.0
 11
80.97085919910114
 21
178.2006901086181
 31
0.0
  0
LINE
  5
3D5C
330
1A
100
AcDbEntity
  8
SEIHIN
100
AcDbLine
 10
98.33125319910118
 20
92.41946410861814
 30
0.0
 11
85.28472419910121
 21
173.4273241086181
 31
0.0
  0
LINE
  5
3D5D
330
1A
100
AcDbEntity
  8
SEIHIN
100
AcDbLine
 10
86.28480719910113
 20
173.5068241086181
 30
0.0
 11
99.31853219910136
 21
92.57846710861812
 31
0.0
  0
LINE
  5
3D5E
330
1A
100
AcDbEntity
  8
SEIHIN
100
AcDbLine
 10
96.65287919910134
 20
92.14915810861814
 30
0.0
 11
82.67848619910138
 21
178.9182751086181
 31
0.0
  0
LINE
  5
3D5F
330
1A
100
AcDbEntity
  8
SEIHIN
100
AcDbLine
 10
88.99029719910117
 20
83.75375710861812
 30
0.0
 11
75.08059619910136
 21
170.1211891086181
 31
0.0
  0
ARC
  5
3D60
330
1A
100
AcDbEntity
  8
SEIHIN
100
AcDbCircle
 10
171.2854061991013
 20
172.6416871086181
 30
0.0
 40
86.499999
100
AcDbArc
 50
203.5511300000003
 51
256.4716599999997
  0
ARC
  5
3D61
330
1A
100
AcDbEntity
  8
SEIHIN
100
AcDbCircle
 10
171.2854061991013
 20
172.6416871086181
 30
0.0
 40
90.499998
100
AcDbArc
 50
211.3651799999998
 51
248.3231300000036
  0
ARC
  5
3D65
330
1A
100
AcDbEntity
  8
NOKITOI
100
AcDbCircle
 10
98.00081845023328
 20
86.84168510861807
 30
0.0
 40
2.0
100
AcDbArc
 50
189.0531144217471
 51
270.0
  0
ARC
  5
3D66
330
1A
100
AcDbEntity
  8
NOKITOI
100
AcDbCircle
 10
96.89155530483322
 20
85.54168510861812
 30
0.0
 40
1.500000025378728
100
AcDbArc
 50
189.0531137613563
 51
270.0
  0
ARC
  5
3D67
330
1A
100
AcDbEntity
  8
NOKITOI
100
AcDbCircle
 10
100.81664045064
 20
90.14168510861813
 30
0.0
 40
4.5
100
AcDbArc
 50
189.0531144039197
 51
270.0
  0
ARC
  5
3D68
330
1A
100
AcDbEntity
  8
SEIHIN
100
AcDbCircle
 10
97.4131661991014
 20
85.54168510861812
 30
0.0
 40
3.9999999
100
AcDbArc
 50
189.1490699999994
 51
270.0
  0
ARC
  5
3D69
330
1A
100
AcDbEntity
  8
SEIHIN
100
AcDbCircle
 10
96.98725019910126
 20
85.04168710861813
 30
0.0
 40
8.100000000000001
100
AcDbArc
 50
189.1490699999994
 51
270.0
  0
ARC
  5
3D6A
330
1A
100
AcDbEntity
  8
SEIHIN
100
AcDbCircle
 10
97.4131661991014
 20
85.54168510861812
 30
0.0
 40
1.5
100
AcDbArc
 50
189.1490699999994
 51
270.0
  0
ARC
  5
3D6B
330
1A
100
AcDbEntity
  8
SEIHIN
100
AcDbCircle
 10
104.0574641991013
 20
93.34168510861813
 30
0.0
 40
7.5
100
AcDbArc
 50
189.1490699999994
 51
270.0
  0
ARC
  5
3D6C
330
1A
100
AcDbEntity
  8
SEIHIN
100
AcDbCircle
 10
160.6929161991013
 20
160.5416851086181
 30
0.0
 40
78.999999
100
AcDbArc
 50
214.4872599999975
 51
245.6984800000002
  0
LINE
  5
3D6D
330
1A
100
AcDbEntity
  8
SEIHIN
100
AcDbLine
 10
154.4829281991012
 20
87.5416861086181
 30
0.0
 11
104.0574641991013
 21
87.5416861086181
 31
0.0
  0
LINE
  5
3D6E
330
1A
100
AcDbEntity
  8
SEIHIN
100
AcDbLine
 10
104.0574641991013
 20
88.54168510861811
 30
0.0
 11
154.4829281991012
 21
88.54168510861811
 31
0.0
  0
LINE
  5
3D6F
330
1A
100
AcDbEntity
  8
SEIHIN
100
AcDbLine
 10
159.6866561991012
 20
85.84168510861813
 30
0.0
 11
104.0574641991013
 21
85.84168510861813
 31
0.0
  0
ARC
  5
3D70
330
1A
100
AcDbEntity
  8
SEIHIN
100
AcDbCircle
 10
104.0574641991013
 20
93.34168510861813
 30
0.0
 40
5.799999899999999
100
AcDbArc
 50
189.1490699999994
 51
270.0
  0
ARC
  5
3D71
330
1A
100
AcDbEntity
  8
SEIHIN
100
AcDbCircle
 10
104.0574641991013
 20
93.34168510861813
 30
0.0
 40
4.8
100
AcDbArc
 50
189.1490699999994
 51
270.0
  0
LINE
  5
3D72
330
1A
100
AcDbEntity
  8
SEIHIN
100
AcDbLine
 10
157.0598261991012
 20
86.67436810861815
 30
0.0
 11
156.9761261991011
 21
86.75772910861814
 31
0.0
  0
LINE
  5
3D73
330
1A
100
AcDbEntity
  8
SEIHIN
100
AcDbLine
 10
158.8046261991012
 20
86.64659710861812
 30
0.0
 11
158.7853961991013
 21
86.84168710861815
 31
0.0
  0
LINE
  5
3D74
330
1A
100
AcDbEntity
  8
SEIHIN
100
AcDbLine
 10
159.7854161991012
 20
85.84168510861813
 30
0.0
 11
159.5903261991013
 21
85.86090010861813
 31
0.0
  0
LINE
  5
3D75
330
1A
100
AcDbEntity
  8
SEIHIN
100
AcDbLine
 10
159.5903261991013
 20
85.86090010861813
 30
0.0
 11
159.4027061991011
 21
85.9178071086181
 31
0.0
  0
LINE
  5
3D76
330
1A
100
AcDbEntity
  8
SEIHIN
100
AcDbLine
 10
159.6866561991012
 20
85.84168510861813
 30
0.0
 11
159.5175461991011
 21
85.85240110861816
 31
0.0
  0
LINE
  5
3D77
330
1A
100
AcDbEntity
  8
SEIHIN
100
AcDbLine
 10
157.1494961991013
 20
86.59218610861811
 30
0.0
 11
157.0598261991012
 21
86.67436810861815
 31
0.0
  0
LINE
  5
3D78
330
1A
100
AcDbEntity
  8
SEIHIN
100
AcDbLine
 10
159.2298461991012
 20
86.0102161086181
 30
0.0
 11
159.0782861991012
 21
86.13457810861811
 31
0.0
  0
LINE
  5
3D79
330
1A
100
AcDbEntity
  8
SEIHIN
100
AcDbLine
 10
159.0782861991012
 20
86.13457810861811
 30
0.0
 11
158.9539361991012
 21
86.28611710861813
 31
0.0
  0
LINE
  5
3D7A
330
1A
100
AcDbEntity
  8
SEIHIN
100
AcDbLine
 10
158.9539361991012
 20
86.28611710861813
 30
0.0
 11
158.8615361991012
 21
86.45900410861816
 31
0.0
  0
LINE
  5
3D7B
330
1A
100
AcDbEntity
  8
SEIHIN
100
AcDbLine
 10
158.8615361991012
 20
86.45900410861816
 30
0.0
 11
158.8046261991012
 21
86.64659710861812
 31
0.0
  0
LINE
  5
3D7C
330
1A
100
AcDbEntity
  8
SEIHIN
100
AcDbLine
 10
159.3074261991012
 20
85.88431210861816
 30
0.0
 11
159.0607961991013
 21
85.93674010861812
 31
0.0
  0
LINE
  5
3D7D
330
1A
100
AcDbEntity
  8
SEIHIN
100
AcDbLine
 10
159.0607961991013
 20
85.93674010861812
 30
0.0
 11
158.7829061991012
 21
86.00856010861809
 31
0.0
  0
LINE
  5
3D7E
330
1A
100
AcDbEntity
  8
SEIHIN
100
AcDbLine
 10
158.7829061991012
 20
86.00856010861809
 30
0.0
 11
158.4797861991012
 21
86.09823010861815
 31
0.0
  0
LINE
  5
3D7F
330
1A
100
AcDbEntity
  8
SEIHIN
100
AcDbLine
 10
158.4797861991012
 20
86.09823010861815
 30
0.0
 11
158.1578561991013
 21
86.20383310861814
 31
0.0
  0
LINE
  5
3D80
330
1A
100
AcDbEntity
  8
SEIHIN
100
AcDbLine
 10
158.1578561991013
 20
86.20383310861814
 30
0.0
 11
157.8240461991013
 21
86.32310110861812
 31
0.0
  0
LINE
  5
3D81
330
1A
100
AcDbEntity
  8
SEIHIN
100
AcDbLine
 10
157.8240461991013
 20
86.32310110861812
 30
0.0
 11
157.4854961991013
 21
86.45348410861814
 31
0.0
  0
LINE
  5
3D82
330
1A
100
AcDbEntity
  8
SEIHIN
100
AcDbLine
 10
157.4854961991013
 20
86.45348410861814
 30
0.0
 11
157.1494961991013
 21
86.59218610861811
 31
0.0
  0
LINE
  5
3D83
330
1A
100
AcDbEntity
  8
SEIHIN
100
AcDbLine
 10
159.4027061991011
 20
85.9178071086181
 30
0.0
 11
159.2298461991012
 21
86.0102161086181
 31
0.0
  0
LINE
  5
3D84
330
1A
100
AcDbEntity
  8
SEIHIN
100
AcDbLine
 10
159.5175461991011
 20
85.85240110861816
 30
0.0
 11
159.3074261991012
 21
85.88431210861816
 31
0.0
  0
LINE
  5
3D85
330
1A
100
AcDbEntity
  8
SEIHIN
100
AcDbLine
 10
156.4721651991012
 20
87.32863810861813
 30
0.0
 11
156.4010261991011
 21
87.37133110861813
 31
0.0
  0
LINE
  5
3D86
330
1A
100
AcDbEntity
  8
SEIHIN
100
AcDbLine
 10
156.4010261991011
 20
87.37133110861813
 30
0.0
 11
156.2655701991011
 21
87.41176810861816
 31
0.0
  0
LINE
  5
3D87
330
1A
100
AcDbEntity
  8
SEIHIN
100
AcDbLine
 10
156.2655701991011
 20
87.41176810861816
 30
0.0
 11
156.0703391991012
 21
87.44859010861814
 31
0.0
  0
LINE
  5
3D88
330
1A
100
AcDbEntity
  8
SEIHIN
100
AcDbLine
 10
156.0703391991012
 20
87.44859010861814
 30
0.0
 11
155.8218761991013
 21
87.4805641086181
 31
0.0
  0
LINE
  5
3D89
330
1A
100
AcDbEntity
  8
SEIHIN
100
AcDbLine
 10
155.8218761991013
 20
87.4805641086181
 30
0.0
 11
155.5285181991012
 21
87.50661910861811
 31
0.0
  0
LINE
  5
3D8A
330
1A
100
AcDbEntity
  8
SEIHIN
100
AcDbLine
 10
155.5285181991012
 20
87.50661910861811
 30
0.0
 11
155.2000961991011
 21
87.5258791086181
 31
0.0
  0
LINE
  5
3D8B
330
1A
100
AcDbEntity
  8
SEIHIN
100
AcDbLine
 10
155.2000961991011
 20
87.5258791086181
 30
0.0
 11
154.8476261991013
 21
87.5377021086181
 31
0.0
  0
LINE
  5
3D8C
330
1A
100
AcDbEntity
  8
SEIHIN
100
AcDbLine
 10
154.8476261991013
 20
87.5377021086181
 30
0.0
 11
154.4829281991012
 21
87.5416861086181
 31
0.0
  0
LINE
  5
3D8D
330
1A
100
AcDbEntity
  8
SEIHIN
100
AcDbLine
 10
156.9761261991011
 20
86.75772910861814
 30
0.0
 11
156.8989961991012
 21
86.84168710861815
 31
0.0
  0
LINE
  5
3D8E
330
1A
100
AcDbEntity
  8
SEIHIN
100
AcDbLine
 10
156.8989961991012
 20
86.84168710861815
 30
0.0
 11
156.4721651991012
 21
87.32863810861813
 31
0.0
  0
LINE
  5
3D8F
330
1A
100
AcDbEntity
  8
SEIHIN
100
AcDbLine
 10
154.4829281991012
 20
88.54168510861811
 30
0.0
 11
155.9748551991012
 21
88.54168510861811
 31
0.0
  0
LINE
  5
3D90
330
1A
100
AcDbEntity
  8
SEIHIN
100
AcDbLine
 10
158.7853961991013
 20
86.84168710861815
 30
0.0
 11
158.7853961991013
 21
88.04168710861814
 31
0.0
  0
LINE
  5
3D91
330
1A
100
AcDbEntity
  8
SEIHIN
100
AcDbLine
 10
158.7853961991013
 20
88.34643610861808
 30
0.0
 11
158.7853961991013
 21
88.04168710861814
 31
0.0
  0
LINE
  5
3D92
330
1A
100
AcDbEntity
  8
SEIHIN
100
AcDbLine
 10
158.3868761991011
 20
88.54168510861811
 30
0.0
 11
158.4783761991011
 21
88.53333010861808
 31
0.0
  0
LINE
  5
3D93
330
1A
100
AcDbEntity
  8
SEIHIN
100
AcDbLine
 10
158.4783761991011
 20
88.53333010861808
 30
0.0
 11
158.5668461991012
 21
88.50854410861813
 31
0.0
  0
LINE
  5
3D94
330
1A
100
AcDbEntity
  8
SEIHIN
100
AcDbLine
 10
158.5668461991012
 20
88.50854410861813
 30
0.0
 11
158.6492861991014
 21
88.46815210861809
 31
0.0
  0
LINE
  5
3D95
330
1A
100
AcDbEntity
  8
SEIHIN
100
AcDbLine
 10
158.6492861991014
 20
88.46815210861809
 30
0.0
 11
158.7229661991013
 21
88.41350710861808
 31
0.0
  0
LINE
  5
3D96
330
1A
100
AcDbEntity
  8
SEIHIN
100
AcDbLine
 10
158.7229661991013
 20
88.41350710861808
 30
0.0
 11
158.7853961991013
 21
88.34643610861808
 31
0.0
  0
LINE
  5
3D97
330
1A
100
AcDbEntity
  8
SEIHIN
100
AcDbLine
 10
155.9748551991012
 20
88.54168510861811
 30
0.0
 11
158.3868761991011
 21
88.54168510861811
 31
0.0
  0
LINE
  5
3D98
330
1A
100
AcDbEntity
  8
SEIHIN
100
AcDbLine
 10
61.56043619910133
 20
207.5416861086181
 30
0.0
 11
64.56455519910128
 21
207.5416861086181
 31
0.0
  0
LINE
  5
3D99
330
1A
100
AcDbEntity
  8
SEIHIN
100
AcDbLine
 10
62.5951217939687
 20
170.6325219030127
 30
0.0
 11
65.28479279396856
 21
176.6325219030127
 31
0.0
  0
LINE
  5
3D9A
330
1A
100
AcDbEntity
  8
SEIHIN
100
AcDbLine
 10
74.58695519910134
 20
170.5416871086181
 30
0.0
 11
62.9202281991013
 21
170.5416871086181
 31
0.0
  0
LINE
  5
3D9B
330
1A
100
AcDbEntity
  8
SEIHIN
100
AcDbLine
 10
62.42091119910128
 20
171.0155191086181
 30
0.0
 11
60.56180819910128
 21
206.4893491086181
 31
0.0
  0
LINE
  5
3D9C
330
1A
100
AcDbEntity
  8
SEIHIN
100
AcDbLine
 10
62.90023019910131
 20
170.5420861086181
 30
0.0
 11
62.73865019910136
 21
170.5758211086181
 31
0.0
  0
LINE
  5
3D9D
330
1A
100
AcDbEntity
  8
SEIHIN
100
AcDbLine
 10
62.73865019910136
 20
170.5758211086181
 30
0.0
 11
62.59645619910134
 21
170.6606701086181
 31
0.0
  0
LINE
  5
3D9E
330
1A
100
AcDbEntity
  8
SEIHIN
100
AcDbLine
 10
62.59645619910134
 20
170.6606701086181
 30
0.0
 11
62.48992019910133
 21
170.7870601086181
 31
0.0
  0
LINE
  5
3D9F
330
1A
100
AcDbEntity
  8
SEIHIN
100
AcDbLine
 10
62.48992019910133
 20
170.7870601086181
 30
0.0
 11
62.43016619910122
 21
170.9424841086181
 31
0.0
  0
LINE
  5
3DA0
330
1A
100
AcDbEntity
  8
SEIHIN
100
AcDbLine
 10
62.43016619910122
 20
170.9424841086181
 30
0.0
 11
62.42091419910138
 21
171.0154771086181
 31
0.0
  0
LINE
  5
3DA1
330
1A
100
AcDbEntity
  8
SEIHIN
100
AcDbLine
 10
62.90023019910131
 20
170.5420861086181
 30
0.0
 11
62.91022619910132
 21
170.5417861086181
 31
0.0
  0
LINE
  5
3DA2
330
1A
100
AcDbEntity
  8
SEIHIN
100
AcDbLine
 10
62.91022619910132
 20
170.5417861086181
 30
0.0
 11
62.9202281991013
 21
170.5416871086181
 31
0.0
  0
LINE
  5
3DA3
330
1A
100
AcDbEntity
  8
SEIHIN
100
AcDbLine
 10
62.42091419910138
 20
171.0154771086181
 30
0.0
 11
62.42091119910128
 21
171.0155191086181
 31
0.0
  0
LINE
  5
3DA4
330
1A
100
AcDbEntity
  8
SEIHIN
100
AcDbLine
 10
61.56043619910133
 20
207.5416861086181
 30
0.0
 11
61.38115019910128
 21
207.5254831086181
 31
0.0
  0
LINE
  5
3DA5
330
1A
100
AcDbEntity
  8
SEIHIN
100
AcDbLine
 10
61.38115019910128
 20
207.5254831086181
 30
0.0
 11
61.20767219910135
 21
207.4773991086181
 31
0.0
  0
LINE
  5
3DA6
330
1A
100
AcDbEntity
  8
SEIHIN
100
AcDbLine
 10
61.20767219910135
 20
207.4773991086181
 30
0.0
 11
61.04562719910131
 21
207.3989911086181
 31
0.0
  0
LINE
  5
3DA7
330
1A
100
AcDbEntity
  8
SEIHIN
100
AcDbLine
 10
61.04562719910131
 20
207.3989911086181
 30
0.0
 11
60.90026519910134
 21
207.2928001086181
 31
0.0
  0
LINE
  5
3DA8
330
1A
100
AcDbEntity
  8
SEIHIN
100
AcDbLine
 10
60.90026519910134
 20
207.2928001086181
 30
0.0
 11
60.77629619910112
 21
207.1622701086181
 31
0.0
  0
LINE
  5
3DA9
330
1A
100
AcDbEntity
  8
SEIHIN
100
AcDbLine
 10
60.77629619910112
 20
207.1622701086181
 30
0.0
 11
60.67774019910121
 21
207.0116281086181
 31
0.0
  0
LINE
  5
3DAA
330
1A
100
AcDbEntity
  8
SEIHIN
100
AcDbLine
 10
60.67774019910121
 20
207.0116281086181
 30
0.0
 11
60.60778619910116
 21
206.8457551086181
 31
0.0
  0
LINE
  5
3DAB
330
1A
100
AcDbEntity
  8
SEIHIN
100
AcDbLine
 10
60.60778619910116
 20
206.8457551086181
 30
0.0
 11
60.56870819910137
 21
206.6700301086181
 31
0.0
  0
LINE
  5
3DAC
330
1A
100
AcDbEntity
  8
SEIHIN
100
AcDbLine
 10
60.56870819910137
 20
206.6700301086181
 30
0.0
 11
60.56176619910139
 21
206.4901471086181
 31
0.0
  0
LINE
  5
3DAD
330
1A
100
AcDbEntity
  8
SEIHIN
100
AcDbLine
 10
60.56180819910128
 20
206.4893491086181
 30
0.0
 11
60.56176619910139
 21
206.4901471086181
 31
0.0
  0
LINE
  5
3DAE
330
1A
100
AcDbEntity
  8
NOKITOI
100
AcDbLine
 10
69.51163620483317
 20
200.9416851086181
 30
0.0
 11
69.51163620483317
 21
183.1416851086181
 31
0.0
  0
LINE
  5
3DAF
330
1A
100
AcDbEntity
  8
NOKITOI
100
AcDbLine
 10
76.94778450483318
 20
201.1777102086181
 30
0.0
 11
79.78394490483322
 21
183.3777102086181
 31
0.0
  0
LINE
  5
3DB0
330
1A
100
AcDbEntity
  8
NOKITOI
100
AcDbLine
 10
68.11163620483319
 20
202.5416851086181
 30
0.0
 11
68.11163620483319
 21
181.5416851086181
 31
0.0
  0
LINE
  5
3DB1
330
1A
100
AcDbEntity
  8
NOKITOI
100
AcDbLine
 10
69.71163620483321
 20
200.9416851086181
 30
0.0
 11
69.71163620483321
 21
183.1416851086181
 31
0.0
  0
LINE
  5
3DB2
330
1A
100
AcDbEntity
  8
SEIHIN
100
AcDbLine
 10
76.05104519910128
 20
184.0416871086181
 30
0.0
 11
68.1354161991012
 21
194.1059641086181
 31
0.0
  0
LINE
  5
3DB3
330
1A
100
AcDbEntity
  8
SEIHIN
100
AcDbLine
 10
63.56592419910135
 20
206.4893491086181
 30
0.0
 11
65.11058219910137
 21
177.0155191086181
 31
0.0
  0
LINE
  5
3DB4
330
1A
100
AcDbEntity
  8
SEIHIN
100
AcDbLine
 10
67.63541519910131
 20
179.5416871086181
 30
0.0
 11
67.63541519910131
 21
207.0416851086181
 31
0.0
  0
ARC
  5
3DB5
330
1A
100
AcDbEntity
  8
NOKITOI
100
AcDbCircle
 10
78.30263060483321
 20
183.1416851086181
 30
0.0
 40
1.499999983869087
100
AcDbArc
 50
270.0
 51
9.05311813452522
  0
LINE
  5
3DB6
330
1A
100
AcDbEntity
  8
NOKITOI
100
AcDbLine
 10
71.21163620483321
 20
181.4416851086181
 30
0.0
 11
80.04923315598331
 21
181.4416851086181
 31
0.0
  0
LINE
  5
3DB7
330
1A
100
AcDbEntity
  8
NOKITOI
100
AcDbLine
 10
69.61163620483318
 20
180.0416851086181
 30
0.0
 11
79.88885030483323
 21
180.0416851086181
 31
0.0
  0
ARC
  5
3DB8
330
1A
100
AcDbEntity
  8
SEIHIN
100
AcDbCircle
 10
78.83541419910125
 20
182.0416861086181
 30
0.0
 40
1.999999799999999
100
AcDbArc
 50
0.0
 51
90.0
  0
LINE
  5
3DB9
330
1A
100
AcDbEntity
  8
SEIHIN
100
AcDbLine
 10
79.9835831991013
 20
179.0416861086181
 30
0.0
 11
68.1354161991012
 21
179.0416861086181
 31
0.0
  0
ARC
  5
3DBA
330
1A
100
AcDbEntity
  8
SEIHIN
100
AcDbCircle
 10
68.1354161991012
 20
179.5416871086181
 30
0.0
 40
0.4999998000000002
100
AcDbArc
 50
180.0
 51
270.0
  0
LINE
  5
3DBB
330
1A
100
AcDbEntity
  8
SEIHIN
100
AcDbLine
 10
65.60989919910117
 20
176.5416871086181
 30
0.0
 11
78.27991619910131
 21
176.5416871086181
 31
0.0
  0
LINE
  5
3DBC
330
1A
100
AcDbEntity
  8
SEIHIN
100
AcDbLine
 10
65.60930519910129
 20
176.5416871086181
 30
0.0
 11
65.60989919910117
 21
176.5416871086181
 31
0.0
  0
LINE
  5
3DBD
330
1A
100
AcDbEntity
  8
SEIHIN
100
AcDbLine
 10
65.11058219910137
 20
177.0155191086181
 30
0.0
 11
65.11061519910118
 21
177.0149281086181
 31
0.0
  0
LINE
  5
3DBE
330
1A
100
AcDbEntity
  8
SEIHIN
100
AcDbLine
 10
65.60930519910129
 20
176.5416871086181
 30
0.0
 11
65.51512919910123
 21
176.5507501086181
 31
0.0
  0
LINE
  5
3DBF
330
1A
100
AcDbEntity
  8
SEIHIN
100
AcDbLine
 10
65.51512919910123
 20
176.5507501086181
 30
0.0
 11
65.42434319910126
 21
176.5773901086181
 31
0.0
  0
LINE
  5
3DC0
330
1A
100
AcDbEntity
  8
SEIHIN
100
AcDbLine
 10
65.42434319910126
 20
176.5773901086181
 30
0.0
 11
65.34020519910132
 21
176.6206561086181
 31
0.0
  0
LINE
  5
3DC1
330
1A
100
AcDbEntity
  8
SEIHIN
100
AcDbLine
 10
65.34020519910132
 20
176.6206561086181
 30
0.0
 11
65.26572119910134
 21
176.6790001086181
 31
0.0
  0
LINE
  5
3DC2
330
1A
100
AcDbEntity
  8
SEIHIN
100
AcDbLine
 10
65.26572119910134
 20
176.6790001086181
 30
0.0
 11
65.20356119910139
 21
176.7503281086181
 31
0.0
  0
LINE
  5
3DC3
330
1A
100
AcDbEntity
  8
SEIHIN
100
AcDbLine
 10
65.20356119910139
 20
176.7503281086181
 30
0.0
 11
65.1559511991013
 21
176.8320871086181
 31
0.0
  0
LINE
  5
3DC4
330
1A
100
AcDbEntity
  8
SEIHIN
100
AcDbLine
 10
65.1559511991013
 20
176.8320871086181
 30
0.0
 11
65.12459519910135
 21
176.9213521086181
 31
0.0
  0
LINE
  5
3DC5
330
1A
100
AcDbEntity
  8
SEIHIN
100
AcDbLine
 10
65.12459519910135
 20
176.9213521086181
 30
0.0
 11
65.11061519910118
 21
177.0149281086181
 31
0.0
  0
LINE
  5
3DC6
330
1A
100
AcDbEntity
  8
SEIHIN
100
AcDbLine
 10
78.27991619910131
 20
176.5416871086181
 30
0.0
 11
78.28044719910121
 21
176.5416871086181
 31
0.0
  0
LINE
  5
3DC7
330
1A
100
AcDbEntity
  8
SEIHIN
100
AcDbLine
 10
78.77347019910121
 20
176.1217111086181
 30
0.0
 11
78.77355419910123
 21
176.1211891086181
 31
0.0
  0
LINE
  5
3DC8
330
1A
100
AcDbEntity
  8
SEIHIN
100
AcDbLine
 10
78.28044719910121
 20
176.5416871086181
 30
0.0
 11
78.36804719910128
 21
176.5338571086181
 31
0.0
  0
LINE
  5
3DC9
330
1A
100
AcDbEntity
  8
SEIHIN
100
AcDbLine
 10
78.36804719910128
 20
176.5338571086181
 30
0.0
 11
78.45291719910119
 21
176.5108021086181
 31
0.0
  0
LINE
  5
3DCA
330
1A
100
AcDbEntity
  8
SEIHIN
100
AcDbLine
 10
78.45291719910119
 20
176.5108021086181
 30
0.0
 11
78.5324381991013
 21
176.4732331086181
 31
0.0
  0
LINE
  5
3DCB
330
1A
100
AcDbEntity
  8
SEIHIN
100
AcDbLine
 10
78.5324381991013
 20
176.4732331086181
 30
0.0
 11
78.60414419910125
 21
176.4223111086181
 31
0.0
  0
LINE
  5
3DCC
330
1A
100
AcDbEntity
  8
SEIHIN
100
AcDbLine
 10
78.60414419910125
 20
176.4223111086181
 30
0.0
 11
78.66582119910117
 21
176.3596141086182
 31
0.0
  0
LINE
  5
3DCD
330
1A
100
AcDbEntity
  8
SEIHIN
100
AcDbLine
 10
78.66582119910117
 20
176.3596141086182
 30
0.0
 11
78.71555519910135
 21
176.2870801086181
 31
0.0
  0
LINE
  5
3DCE
330
1A
100
AcDbEntity
  8
SEIHIN
100
AcDbLine
 10
78.71555519910135
 20
176.2870801086181
 30
0.0
 11
78.75181319910121
 21
176.2069531086181
 31
0.0
  0
LINE
  5
3DCF
330
1A
100
AcDbEntity
  8
SEIHIN
100
AcDbLine
 10
78.75181319910121
 20
176.2069531086181
 30
0.0
 11
78.77347019910121
 21
176.1217111086181
 31
0.0
  0
LINE
  5
3DD0
330
1A
100
AcDbEntity
  8
SEIHIN
100
AcDbLine
 10
74.60944919910116
 20
170.5411801086181
 30
0.0
 11
74.77222619910117
 21
170.5060951086181
 31
0.0
  0
LINE
  5
3DD1
330
1A
100
AcDbEntity
  8
SEIHIN
100
AcDbLine
 10
74.77222619910117
 20
170.5060951086181
 30
0.0
 11
74.91390119910125
 21
170.4199801086181
 31
0.0
  0
LINE
  5
3DD2
330
1A
100
AcDbEntity
  8
SEIHIN
100
AcDbLine
 10
74.91390119910125
 20
170.4199801086181
 30
0.0
 11
75.02051819910139
 21
170.2907341086181
 31
0.0
  0
LINE
  5
3DD3
330
1A
100
AcDbEntity
  8
SEIHIN
100
AcDbLine
 10
75.02051819910139
 20
170.2907341086181
 30
0.0
 11
75.07834619910136
 21
170.1340711086181
 31
0.0
  0
LINE
  5
3DD4
330
1A
100
AcDbEntity
  8
SEIHIN
100
AcDbLine
 10
74.58695519910134
 20
170.5416871086181
 30
0.0
 11
74.59820519910135
 21
170.5415581086181
 31
0.0
  0
LINE
  5
3DD5
330
1A
100
AcDbEntity
  8
SEIHIN
100
AcDbLine
 10
74.59820519910135
 20
170.5415581086181
 30
0.0
 11
74.60944919910116
 21
170.5411801086181
 31
0.0
  0
LINE
  5
3DD6
330
1A
100
AcDbEntity
  8
SEIHIN
100
AcDbLine
 10
75.07834619910136
 20
170.1340711086181
 30
0.0
 11
75.08059619910136
 21
170.1211891086181
 31
0.0
  0
LINE
  5
3DD7
330
1A
100
AcDbEntity
  8
SEIHIN
100
AcDbLine
 10
74.88818265201325
 20
170.4019235013279
 30
0.0
 11
78.58114365201345
 21
176.4019235013279
 31
0.0
  0
LINE
  5
3DD8
330
1A
100
AcDbEntity
  8
NOKITOI
100
AcDbLine
 10
71.21163620483321
 20
181.6416851086181
 30
0.0
 11
78.30263060483321
 21
181.6416851086181
 31
0.0
  0
LINE
  5
3DD9
330
1A
100
AcDbEntity
  8
SEIHIN
100
AcDbLine
 10
68.1354161991012
 20
184.0416871086181
 30
0.0
 11
78.83541419910125
 21
184.0416871086181
 31
0.0
  0
ARC
  5
3DDA
330
1A
100
AcDbEntity
  8
NOKITOI
100
AcDbCircle
 10
71.21163620483321
 20
183.1416851086181
 30
0.0
 40
1.7
100
AcDbArc
 50
180.0
 51
270.0
  0
ARC
  5
3DDB
330
1A
100
AcDbEntity
  8
NOKITOI
100
AcDbCircle
 10
71.21163620483321
 20
183.1416851086181
 30
0.0
 40
1.5
100
AcDbArc
 50
180.0
 51
270.0
  0
ARC
  5
3DDC
330
1A
100
AcDbEntity
  8
NOKITOI
100
AcDbCircle
 10
69.61163620483318
 20
181.5416851086181
 30
0.0
 40
1.5
100
AcDbArc
 50
180.0
 51
270.0
  0
LINE
  5
3DDD
330
1A
100
AcDbEntity
  8
SEIHIN
100
AcDbLine
 10
68.1354161991012
 20
184.0416871086181
 30
0.0
 11
68.03787119910134
 21
184.0512931086181
 31
0.0
  0
LINE
  5
3DDE
330
1A
100
AcDbEntity
  8
SEIHIN
100
AcDbLine
 10
68.03787119910134
 20
184.0512931086181
 30
0.0
 11
67.94407319910124
 21
184.0797451086181
 31
0.0
  0
LINE
  5
3DDF
330
1A
100
AcDbEntity
  8
SEIHIN
100
AcDbLine
 10
67.94407319910124
 20
184.0797451086181
 30
0.0
 11
67.85763119910121
 21
184.1259511086181
 31
0.0
  0
LINE
  5
3DE0
330
1A
100
AcDbEntity
  8
SEIHIN
100
AcDbLine
 10
67.85763119910121
 20
184.1259511086181
 30
0.0
 11
67.78186319910128
 21
184.188132108618
 31
0.0
  0
LINE
  5
3DE1
330
1A
100
AcDbEntity
  8
SEIHIN
100
AcDbLine
 10
67.78186319910128
 20
184.188132108618
 30
0.0
 11
67.71967919910139
 21
184.2639001086181
 31
0.0
  0
LINE
  5
3DE2
330
1A
100
AcDbEntity
  8
SEIHIN
100
AcDbLine
 10
67.71967919910139
 20
184.2639001086181
 30
0.0
 11
67.67347619910129
 21
184.3503451086181
 31
0.0
  0
LINE
  5
3DE3
330
1A
100
AcDbEntity
  8
SEIHIN
100
AcDbLine
 10
67.67347619910129
 20
184.3503451086181
 30
0.0
 11
67.64502419910127
 21
184.4441401086181
 31
0.0
  0
LINE
  5
3DE4
330
1A
100
AcDbEntity
  8
SEIHIN
100
AcDbLine
 10
67.64502419910127
 20
184.4441401086181
 30
0.0
 11
67.63541519910131
 21
184.5416851086181
 31
0.0
  0
LINE
  5
3DE5
330
1A
100
AcDbEntity
  8
SEIHIN
100
AcDbLine
 10
80.83541519910113
 20
182.0416861086181
 30
0.0
 11
80.83541519910113
 21
179.2763431086181
 31
0.0
  0
ARC
  5
3DE6
330
1A
100
AcDbEntity
  8
SEIHIN
100
AcDbCircle
 10
79.9835831991013
 20
178.0416871086181
 30
0.0
 40
0.9999998999999998
100
AcDbArc
 50
9.149073099999226
 51
90.0
  0
LINE
  5
3DE7
330
1A
100
AcDbEntity
  8
SEIHIN
100
AcDbLine
 10
85.79116619910132
 20
173.4273241086181
 30
0.0
 11
85.28472419910121
 21
173.4273241086181
 31
0.0
  0
LINE
  5
3DE8
330
1A
100
AcDbEntity
  8
SEIHIN
100
AcDbLine
 10
84.48832919910136
 20
176.4047341086181
 30
0.0
 11
83.73698519910135
 21
177.0658981086181
 31
0.0
  0
LINE
  5
3DE9
330
1A
100
AcDbEntity
  8
SEIHIN
100
AcDbLine
 10
85.28472419910121
 20
173.4273241086181
 30
0.0
 11
85.19185019910128
 21
173.9673661086181
 31
0.0
  0
LINE
  5
3DEA
330
1A
100
AcDbEntity
  8
SEIHIN
100
AcDbLine
 10
85.19185019910128
 20
173.9673661086181
 30
0.0
 11
85.0902131991013
 21
174.4897651086181
 31
0.0
  0
LINE
  5
3DEB
330
1A
100
AcDbEntity
  8
SEIHIN
100
AcDbLine
 10
85.0902131991013
 20
174.4897651086181
 30
0.0
 11
84.98313119910131
 21
174.9774511086181
 31
0.0
  0
LINE
  5
3DEC
330
1A
100
AcDbEntity
  8
SEIHIN
100
AcDbLine
 10
84.98313119910131
 20
174.9774511086181
 30
0.0
 11
84.87410819910133
 21
175.4144911086181
 31
0.0
  0
LINE
  5
3DED
330
1A
100
AcDbEntity
  8
SEIHIN
100
AcDbLine
 10
84.87410819910133
 20
175.4144911086181
 30
0.0
 11
84.76669919910136
 21
175.7866081086181
 31
0.0
  0
LINE
  5
3DEE
330
1A
100
AcDbEntity
  8
SEIHIN
100
AcDbLine
 10
84.76669919910136
 20
175.7866081086181
 30
0.0
 11
84.66442019910118
 21
176.0816401086181
 31
0.0
  0
LINE
  5
3DEF
330
1A
100
AcDbEntity
  8
SEIHIN
100
AcDbLine
 10
84.66442019910118
 20
176.0816401086181
 30
0.0
 11
84.57060719910122
 21
176.2899511086181
 31
0.0
  0
LINE
  5
3DF0
330
1A
100
AcDbEntity
  8
SEIHIN
100
AcDbLine
 10
84.57060719910122
 20
176.2899511086181
 30
0.0
 11
84.48832919910136
 21
176.4047341086181
 31
0.0
  0
LINE
  5
3DF1
330
1A
100
AcDbEntity
  8
SEIHIN
100
AcDbLine
 10
85.39156619910135
 20
176.4047341086181
 30
0.0
 11
85.47936419910138
 21
176.3972341086181
 31
0.0
  0
LINE
  5
3DF2
330
1A
100
AcDbEntity
  8
SEIHIN
100
AcDbLine
 10
85.47936419910138
 20
176.3972341086181
 30
0.0
 11
85.56442919910137
 21
176.3745421086181
 31
0.0
  0
LINE
  5
3DF3
330
1A
100
AcDbEntity
  8
SEIHIN
100
AcDbLine
 10
85.56442919910137
 20
176.3745421086181
 30
0.0
 11
85.64412119910139
 21
176.3373601086181
 31
0.0
  0
LINE
  5
3DF4
330
1A
100
AcDbEntity
  8
SEIHIN
100
AcDbLine
 10
85.64412119910139
 20
176.3373601086181
 30
0.0
 11
85.71596519910121
 21
176.2868491086181
 31
0.0
  0
LINE
  5
3DF5
330
1A
100
AcDbEntity
  8
SEIHIN
100
AcDbLine
 10
85.71596519910121
 20
176.2868491086181
 30
0.0
 11
85.77772019910117
 21
176.2245751086181
 31
0.0
  0
LINE
  5
3DF6
330
1A
100
AcDbEntity
  8
SEIHIN
100
AcDbLine
 10
85.77772019910117
 20
176.2245751086181
 30
0.0
 11
85.82747519910117
 21
176.1524761086181
 31
0.0
  0
LINE
  5
3DF7
330
1A
100
AcDbEntity
  8
SEIHIN
100
AcDbLine
 10
85.82747519910117
 20
176.1524761086181
 30
0.0
 11
85.86367919910117
 21
176.0727931086181
 31
0.0
  0
LINE
  5
3DF8
330
1A
100
AcDbEntity
  8
SEIHIN
100
AcDbLine
 10
85.86367919910117
 20
176.0727931086181
 30
0.0
 11
85.88520719910139
 21
175.9880011086181
 31
0.0
  0
LINE
  5
3DF9
330
1A
100
AcDbEntity
  8
SEIHIN
100
AcDbLine
 10
85.88520719910139
 20
175.9880011086181
 30
0.0
 11
86.28480719910113
 21
173.5068241086181
 31
0.0
  0
LINE
  5
3DFA
330
1A
100
AcDbEntity
  8
SEIHIN
100
AcDbLine
 10
85.79116619910132
 20
173.4273241086181
 30
0.0
 11
86.28480719910113
 21
173.5068241086181
 31
0.0
  0
LINE
  5
3DFB
330
1A
100
AcDbEntity
  8
SEIHIN
100
AcDbLine
 10
84.48832919910136
 20
176.4047341086181
 30
0.0
 11
85.39156619910135
 21
176.4047341086181
 31
0.0
  0
LINE
  5
3DFC
330
1A
100
AcDbEntity
  8
SEIHIN
100
AcDbLine
 10
85.27520519910126
 20
179.0416861086181
 30
0.0
 11
85.35356819910134
 21
178.9553761086181
 31
0.0
  0
LINE
  5
3DFD
330
1A
100
AcDbEntity
  8
SEIHIN
100
AcDbLine
 10
85.35356819910134
 20
178.9553761086181
 30
0.0
 11
85.41013319910121
 21
178.8532501086181
 31
0.0
  0
LINE
  5
3DFE
330
1A
100
AcDbEntity
  8
SEIHIN
100
AcDbLine
 10
85.41013319910121
 20
178.8532501086181
 30
0.0
 11
85.44186119910136
 21
178.7408041086181
 31
0.0
  0
LINE
  5
3DFF
330
1A
100
AcDbEntity
  8
SEIHIN
100
AcDbLine
 10
84.96688019910129
 20
179.0416861086181
 30
0.0
 11
85.27520519910126
 21
179.0416861086181
 31
0.0
  0
LINE
  5
3E00
330
1A
100
AcDbEntity
  8
SEIHIN
100
AcDbLine
 10
85.44186119910136
 20
178.7408041086181
 30
0.0
 11
85.88520719910139
 21
175.9880011086181
 31
0.0
  0
LINE
  5
3E01
330
1A
100
AcDbEntity
  8
SEIHIN
100
AcDbLine
 10
83.73698519910135
 20
177.0658981086181
 30
0.0
 11
82.67848619910138
 21
178.9182751086181
 31
0.0
  0
LINE
  5
3E02
330
1A
100
AcDbEntity
  8
SEIHIN
100
AcDbLine
 10
81.3617351991013
 20
178.9182751086181
 30
0.0
 11
82.67848619910138
 21
178.9182751086181
 31
0.0
  0
LINE
  5
3E03
330
1A
100
AcDbEntity
  8
SEIHIN
100
AcDbLine
 10
80.86522919910136
 20
178.8565711086181
 30
0.0
 11
80.87302019910135
 21
178.868610108618
 31
0.0
  0
LINE
  5
3E04
330
1A
100
AcDbEntity
  8
SEIHIN
100
AcDbLine
 10
80.87302019910135
 20
178.868610108618
 30
0.0
 11
80.8999751991014
 21
178.8801841086181
 31
0.0
  0
LINE
  5
3E05
330
1A
100
AcDbEntity
  8
SEIHIN
100
AcDbLine
 10
80.8999751991014
 20
178.8801841086181
 30
0.0
 11
80.94505919910124
 21
178.8908521086181
 31
0.0
  0
LINE
  5
3E06
330
1A
100
AcDbEntity
  8
SEIHIN
100
AcDbLine
 10
80.94505919910124
 20
178.8908521086181
 30
0.0
 11
81.00653519910133
 21
178.9002031086181
 31
0.0
  0
LINE
  5
3E07
330
1A
100
AcDbEntity
  8
SEIHIN
100
AcDbLine
 10
81.00653519910133
 20
178.9002031086181
 30
0.0
 11
81.08204519910122
 21
178.9078771086181
 31
0.0
  0
LINE
  5
3E08
330
1A
100
AcDbEntity
  8
SEIHIN
100
AcDbLine
 10
81.08204519910122
 20
178.9078771086181
 30
0.0
 11
81.16868219910134
 21
178.9135801086181
 31
0.0
  0
LINE
  5
3E09
330
1A
100
AcDbEntity
  8
SEIHIN
100
AcDbLine
 10
81.16868219910134
 20
178.9135801086181
 30
0.0
 11
81.26312219910142
 21
178.9170901086181
 31
0.0
  0
LINE
  5
3E0A
330
1A
100
AcDbEntity
  8
SEIHIN
100
AcDbLine
 10
81.26312219910142
 20
178.9170901086181
 30
0.0
 11
81.3617351991013
 21
178.9182751086181
 31
0.0
  0
LINE
  5
3E0B
330
1A
100
AcDbEntity
  8
SEIHIN
100
AcDbLine
 10
84.96688019910129
 20
179.0416861086181
 30
0.0
 11
80.83541519910113
 21
179.0416861086181
 31
0.0
  0
LINE
  5
3E0C
330
1A
100
AcDbEntity
  8
SEIHIN
100
AcDbLine
 10
80.83541519910113
 20
179.2763431086181
 30
0.0
 11
80.83541519910113
 21
179.0416861086181
 31
0.0
  0
LINE
  5
3E0D
330
1A
100
AcDbEntity
  8
SEIHIN
100
AcDbLine
 10
80.83541519910113
 20
179.0416861086181
 30
0.0
 11
80.97085919910114
 21
178.2006901086181
 31
0.0
  0
ARC
  5
3E0E
330
1A
100
AcDbEntity
  8
NOKITOI
100
AcDbCircle
 10
80.04923315598331
 20
180.4416851086181
 30
0.0
 40
1.0
100
AcDbArc
 50
9.053114421747128
 51
90.0
  0
ARC
  5
3E0F
330
1A
100
AcDbEntity
  8
NOKITOI
100
AcDbCircle
 10
79.88885030483323
 20
179.5416851086181
 30
0.0
 40
0.4999999755414839
100
AcDbArc
 50
9.05311496341941
 51
90.0
  0
LINE
  5
3E10
330
1A
100
AcDbEntity
  8
SEIHIN
100
AcDbLine
 10
68.6354141991012
 20
206.0416861086181
 30
0.0
 11
79.63541519910132
 21
206.0416861086181
 31
0.0
  0
LINE
  5
3E11
330
1A
100
AcDbEntity
  8
SEIHIN
100
AcDbLine
 10
79.63541519910132
 20
205.0416871086181
 30
0.0
 11
68.1354161991012
 21
205.0416871086181
 31
0.0
  0
LINE
  5
3E12
330
1A
100
AcDbEntity
  8
SEIHIN
100
AcDbLine
 10
68.6354141991012
 20
207.5416861086181
 30
0.0
 11
81.6354161991012
 21
207.5416861086181
 31
0.0
  0
ARC
  5
3E13
330
1A
100
AcDbEntity
  8
NOKITOI
100
AcDbCircle
 10
71.21163620483321
 20
200.9416851086181
 30
0.0
 40
1.5
100
AcDbArc
 50
90.0
 51
180.0
  0
ARC
  5
3E14
330
1A
100
AcDbEntity
  8
NOKITOI
100
AcDbCircle
 10
75.4664701048332
 20
200.9416851086181
 30
0.0
 40
1.700000033246229
100
AcDbArc
 50
9.05311753349108
 51
90.0
  0
ARC
  5
3E15
330
1A
100
AcDbEntity
  8
NOKITOI
100
AcDbCircle
 10
71.21163620483321
 20
200.9416851086181
 30
0.0
 40
1.7
100
AcDbArc
 50
90.0
 51
180.0
  0
ARC
  5
3E16
330
1A
100
AcDbEntity
  8
NOKITOI
100
AcDbCircle
 10
69.61163620483318
 20
202.5416851086181
 30
0.0
 40
1.5
100
AcDbArc
 50
90.0
 51
180.0
  0
ARC
  5
3E17
330
1A
100
AcDbEntity
  8
SEIHIN
100
AcDbCircle
 10
68.15026919910133
 20
204.9977851086181
 30
0.0
 40
1.999999799999999
100
AcDbArc
 50
272.9999999999991
 51
1.257799300000096
  0
LINE
  5
3E18
330
1A
100
AcDbEntity
  8
NOKITOI
100
AcDbLine
 10
71.21163620483321
 20
202.6416851086181
 30
0.0
 11
75.4664701048332
 21
202.6416851086181
 31
0.0
  0
LINE
  5
3E19
330
1A
100
AcDbEntity
  8
NOKITOI
100
AcDbLine
 10
71.21163620483321
 20
202.4416851086181
 30
0.0
 11
75.4664701048332
 21
202.4416851086181
 31
0.0
  0
LINE
  5
3E1A
330
1A
100
AcDbEntity
  8
SEIHIN
100
AcDbLine
 10
67.74240719910131
 20
194.6056501086181
 30
0.0
 11
68.1354161991012
 21
194.1059641086181
 31
0.0
  0
LINE
  5
3E1B
330
1A
100
AcDbEntity
  8
SEIHIN
100
AcDbLine
 10
67.63541519910131
 20
194.9147551086181
 30
0.0
 11
67.64770319910121
 21
194.8045891086182
 31
0.0
  0
LINE
  5
3E1C
330
1A
100
AcDbEntity
  8
SEIHIN
100
AcDbLine
 10
67.64770319910121
 20
194.8045891086182
 30
0.0
 11
67.6839611991013
 21
194.6998381086181
 31
0.0
  0
LINE
  5
3E1D
330
1A
100
AcDbEntity
  8
SEIHIN
100
AcDbLine
 10
67.6839611991013
 20
194.6998381086181
 30
0.0
 11
67.74240719910131
 21
194.6056501086181
 31
0.0
  0
ARC
  5
3E1E
330
1A
100
AcDbEntity
  8
NOKITOI
100
AcDbCircle
 10
75.4664701048332
 20
200.9416851086181
 30
0.0
 40
1.500000033246229
100
AcDbArc
 50
9.05311753349108
 51
90.0
  0
LINE
  5
3E1F
330
1A
100
AcDbEntity
  8
NOKITOI
100
AcDbLine
 10
69.61163620483318
 20
204.0416851086181
 30
0.0
 11
76.83171710483316
 21
204.0416851086181
 31
0.0
  0
LINE
  5
3E20
330
1A
100
AcDbEntity
  8
SEIHIN
100
AcDbLine
 10
68.25494110111981
 20
203.0005262388348
 30
0.0
 11
67.63541519910131
 21
203.0005262388348
 31
0.0
  0
LINE
  5
3E21
330
1A
100
AcDbEntity
  8
SEIHIN
100
AcDbLine
 10
64.56324119910141
 20
207.5416861086181
 30
0.0
 11
64.38417419910138
 21
207.5252821086181
 31
0.0
  0
LINE
  5
3E22
330
1A
100
AcDbEntity
  8
SEIHIN
100
AcDbLine
 10
64.38417419910138
 20
207.5252821086181
 30
0.0
 11
64.21094219910128
 21
207.4770781086181
 31
0.0
  0
LINE
  5
3E23
330
1A
100
AcDbEntity
  8
SEIHIN
100
AcDbLine
 10
64.21094219910128
 20
207.4770781086181
 30
0.0
 11
64.0491401991012
 21
207.3986281086181
 31
0.0
  0
LINE
  5
3E24
330
1A
100
AcDbEntity
  8
SEIHIN
100
AcDbLine
 10
64.0491401991012
 20
207.3986281086181
 30
0.0
 11
63.90400619910133
 21
207.2924701086181
 31
0.0
  0
LINE
  5
3E25
330
1A
100
AcDbEntity
  8
SEIHIN
100
AcDbLine
 10
63.90400619910133
 20
207.2924701086181
 30
0.0
 11
63.78022919910131
 21
207.1620361086181
 31
0.0
  0
LINE
  5
3E26
330
1A
100
AcDbEntity
  8
SEIHIN
100
AcDbLine
 10
63.78022919910131
 20
207.1620361086181
 30
0.0
 11
63.68181119910127
 21
207.0115441086181
 31
0.0
  0
LINE
  5
3E27
330
1A
100
AcDbEntity
  8
SEIHIN
100
AcDbLine
 10
63.68181119910127
 20
207.0115441086181
 30
0.0
 11
63.61193819910136
 21
206.8458601086181
 31
0.0
  0
LINE
  5
3E28
330
1A
100
AcDbEntity
  8
SEIHIN
100
AcDbLine
 10
63.61193819910136
 20
206.8458601086181
 30
0.0
 11
63.57286619910133
 21
206.670342108618
 31
0.0
  0
LINE
  5
3E29
330
1A
100
AcDbEntity
  8
SEIHIN
100
AcDbLine
 10
63.57286619910133
 20
206.670342108618
 30
0.0
 11
63.56585819910129
 21
206.4906631086181
 31
0.0
  0
LINE
  5
3E2A
330
1A
100
AcDbEntity
  8
SEIHIN
100
AcDbLine
 10
63.56585819910129
 20
206.4906631086181
 30
0.0
 11
63.56592419910135
 21
206.4893491086181
 31
0.0
  0
LINE
  5
3E2B
330
1A
100
AcDbEntity
  8
SEIHIN
100
AcDbLine
 10
67.13541419910121
 20
207.5416861086181
 30
0.0
 11
64.56455519910128
 21
207.5416861086181
 31
0.0
  0
LINE
  5
3E2C
330
1A
100
AcDbEntity
  8
SEIHIN
100
AcDbLine
 10
64.56455519910128
 20
207.5416861086181
 30
0.0
 11
64.56324119910141
 21
207.5416861086181
 31
0.0
  0
LINE
  5
3E2D
330
1A
100
AcDbEntity
  8
SEIHIN
100
AcDbLine
 10
67.63541519910131
 20
207.0416851086181
 30
0.0
 11
67.62580919910124
 21
207.1392301086181
 31
0.0
  0
LINE
  5
3E2E
330
1A
100
AcDbEntity
  8
SEIHIN
100
AcDbLine
 10
67.62580919910124
 20
207.1392301086181
 30
0.0
 11
67.59735419910112
 21
207.2330281086181
 31
0.0
  0
LINE
  5
3E2F
330
1A
100
AcDbEntity
  8
SEIHIN
100
AcDbLine
 10
67.59735419910112
 20
207.2330281086181
 30
0.0
 11
67.55115119910124
 21
207.3194701086181
 31
0.0
  0
LINE
  5
3E30
330
1A
100
AcDbEntity
  8
SEIHIN
100
AcDbLine
 10
67.55115119910124
 20
207.3194701086181
 30
0.0
 11
67.48897019910123
 21
207.3952381086181
 31
0.0
  0
LINE
  5
3E31
330
1A
100
AcDbEntity
  8
SEIHIN
100
AcDbLine
 10
67.48897019910123
 20
207.3952381086181
 30
0.0
 11
67.4131991991012
 21
207.4574221086181
 31
0.0
  0
LINE
  5
3E32
330
1A
100
AcDbEntity
  8
SEIHIN
100
AcDbLine
 10
67.4131991991012
 20
207.4574221086181
 30
0.0
 11
67.32675719910116
 21
207.5036251086181
 31
0.0
  0
LINE
  5
3E33
330
1A
100
AcDbEntity
  8
SEIHIN
100
AcDbLine
 10
67.32675719910116
 20
207.5036251086181
 30
0.0
 11
67.23295919910128
 21
207.532080108618
 31
0.0
  0
LINE
  5
3E34
330
1A
100
AcDbEntity
  8
SEIHIN
100
AcDbLine
 10
67.23295919910128
 20
207.532080108618
 30
0.0
 11
67.13541419910121
 21
207.5416861086181
 31
0.0
  0
LINE
  5
3E35
330
1A
100
AcDbEntity
  8
SEIHIN
100
AcDbLine
 10
68.6354141991012
 20
206.0416861086181
 30
0.0
 11
68.46176819910124
 21
206.0447251086181
 31
0.0
  0
LINE
  5
3E36
330
1A
100
AcDbEntity
  8
SEIHIN
100
AcDbLine
 10
68.46176819910124
 20
206.0447251086181
 30
0.0
 11
68.29339619910115
 21
206.053746108618
 31
0.0
  0
LINE
  5
3E37
330
1A
100
AcDbEntity
  8
SEIHIN
100
AcDbLine
 10
68.29339619910115
 20
206.053746108618
 30
0.0
 11
68.1354161991012
 21
206.0684821086181
 31
0.0
  0
LINE
  5
3E38
330
1A
100
AcDbEntity
  8
SEIHIN
100
AcDbLine
 10
67.63541519910131
 20
205.7317831086181
 30
0.0
 11
67.63543019910139
 21
205.7347441086181
 31
0.0
  0
LINE
  5
3E39
330
1A
100
AcDbEntity
  8
SEIHIN
100
AcDbLine
 10
67.63543019910139
 20
205.7347441086181
 30
0.0
 11
67.64935319910136
 21
205.8180661086181
 31
0.0
  0
LINE
  5
3E3A
330
1A
100
AcDbEntity
  8
SEIHIN
100
AcDbLine
 10
67.64935319910136
 20
205.8180661086181
 30
0.0
 11
67.76325719910119
 21
205.9744651086181
 31
0.0
  0
LINE
  5
3E3B
330
1A
100
AcDbEntity
  8
SEIHIN
100
AcDbLine
 10
67.76325719910119
 20
205.9744651086181
 30
0.0
 11
67.93292519910119
 21
206.0556601086181
 31
0.0
  0
LINE
  5
3E3C
330
1A
100
AcDbEntity
  8
SEIHIN
100
AcDbLine
 10
67.93292519910119
 20
206.0556601086181
 30
0.0
 11
68.1354161991012
 21
206.0684821086181
 31
0.0
  0
LINE
  5
3E3D
330
1A
100
AcDbEntity
  8
SEIHIN
100
AcDbLine
 10
68.6354141991012
 20
207.0416851086181
 30
0.0
 11
68.6354141991012
 21
206.0416861086181
 31
0.0
  0
LINE
  5
3E3E
330
1A
100
AcDbEntity
  8
SEIHIN
100
AcDbLine
 10
67.63541519910131
 20
204.5416861086181
 30
0.0
 11
67.64301119910124
 21
204.6285091086181
 31
0.0
  0
LINE
  5
3E3F
330
1A
100
AcDbEntity
  8
SEIHIN
100
AcDbLine
 10
67.64301119910124
 20
204.6285091086181
 30
0.0
 11
67.66556819910125
 21
204.7126951086181
 31
0.0
  0
LINE
  5
3E40
330
1A
100
AcDbEntity
  8
SEIHIN
100
AcDbLine
 10
67.66556819910125
 20
204.7126951086181
 30
0.0
 11
67.70240219910125
 21
204.7916851086181
 31
0.0
  0
LINE
  5
3E41
330
1A
100
AcDbEntity
  8
SEIHIN
100
AcDbLine
 10
67.70240219910125
 20
204.7916851086181
 30
0.0
 11
67.75239419910121
 21
204.8630791086181
 31
0.0
  0
LINE
  5
3E42
330
1A
100
AcDbEntity
  8
SEIHIN
100
AcDbLine
 10
67.75239419910121
 20
204.8630791086181
 30
0.0
 11
67.81402019910138
 21
204.9247081086181
 31
0.0
  0
LINE
  5
3E43
330
1A
100
AcDbEntity
  8
SEIHIN
100
AcDbLine
 10
67.81402019910138
 20
204.9247081086181
 30
0.0
 11
67.88541419910121
 21
204.9747001086181
 31
0.0
  0
LINE
  5
3E44
330
1A
100
AcDbEntity
  8
SEIHIN
100
AcDbLine
 10
67.88541419910121
 20
204.9747001086181
 30
0.0
 11
67.9644041991014
 21
205.0115311086181
 31
0.0
  0
LINE
  5
3E45
330
1A
100
AcDbEntity
  8
SEIHIN
100
AcDbLine
 10
67.9644041991014
 20
205.0115311086181
 30
0.0
 11
68.04859019910122
 21
205.034091108618
 31
0.0
  0
LINE
  5
3E46
330
1A
100
AcDbEntity
  8
SEIHIN
100
AcDbLine
 10
68.04859019910122
 20
205.034091108618
 30
0.0
 11
68.1354161991012
 21
205.0416871086181
 31
0.0
  0
LINE
  5
3E47
330
1A
100
AcDbEntity
  8
SEIHIN
100
AcDbLine
 10
68.6354141991012
 20
207.5416861086181
 30
0.0
 11
68.6354141991012
 21
207.0416851086181
 31
0.0
  0
LINE
  5
3E48
330
1A
100
AcDbEntity
  8
SEIHIN
100
AcDbLine
 10
67.13541419910121
 20
207.5416861086181
 30
0.0
 11
68.6354141991012
 21
207.5416861086181
 31
0.0
  0
LINE
  5
3E49
330
1A
100
AcDbEntity
  8
SEIHIN
100
AcDbLine
 10
68.25494219910115
 20
203.0005261086181
 30
0.0
 11
68.14796819910134
 21
205.0416871086181
 31
0.0
  0
ARC
  5
3E4A
330
1A
100
AcDbEntity
  8
NOKITOI
100
AcDbCircle
 10
76.83171710483316
 20
202.5416851086181
 30
0.0
 40
1.500000033246229
100
AcDbArc
 50
9.05311753349108
 51
90.0
  0
LINE
  5
3E4B
330
1A
100
AcDbEntity
  8
SEIHIN
100
AcDbLine
 10
82.1354141991012
 20
207.0416851086181
 30
0.0
 11
82.1354141991012
 21
202.0416871086181
 31
0.0
  0
LINE
  5
3E4C
330
1A
100
AcDbEntity
  8
SEIHIN
100
AcDbLine
 10
80.13541619910119
 20
205.5317851086181
 30
0.0
 11
80.13541619910119
 21
202.0416871086181
 31
0.0
  0
ARC
  5
3E4D
330
1A
100
AcDbEntity
  8
SEIHIN
100
AcDbCircle
 10
81.6354161991012
 20
202.0416871086181
 30
0.0
 40
0.4999998000000002
100
AcDbArc
 50
270.0
 51
0.0
  0
LINE
  5
3E4E
330
1A
100
AcDbEntity
  8
SEIHIN
100
AcDbLine
 10
81.6354161991012
 20
201.5416861086181
 30
0.0
 11
80.13541619910119
 21
201.5416861086181
 31
0.0
  0
LINE
  5
3E4F
330
1A
100
AcDbEntity
  8
SEIHIN
100
AcDbLine
 10
80.13541619910119
 20
201.5416861086181
 30
0.0
 11
80.13541619910119
 21
202.0416871086181
 31
0.0
  0
LINE
  5
3E50
330
1A
100
AcDbEntity
  8
SEIHIN
100
AcDbLine
 10
82.1354141991012
 20
202.0416871086181
 30
0.0
 11
82.1354141991012
 21
202.0403454693171
 31
0.0
  0
LINE
  5
3E51
330
1A
100
AcDbEntity
  8
SEIHIN
100
AcDbLine
 10
79.63541519910132
 20
205.0416871086181
 30
0.0
 11
79.63541519910132
 21
206.0416861086181
 31
0.0
  0
LINE
  5
3E52
330
1A
100
AcDbEntity
  8
SEIHIN
100
AcDbLine
 10
79.63541519910132
 20
205.0416871086181
 30
0.0
 11
79.72223819910118
 21
205.034091108618
 31
0.0
  0
LINE
  5
3E53
330
1A
100
AcDbEntity
  8
SEIHIN
100
AcDbLine
 10
79.72223819910118
 20
205.034091108618
 30
0.0
 11
79.80642419910123
 21
205.0115311086181
 31
0.0
  0
LINE
  5
3E54
330
1A
100
AcDbEntity
  8
SEIHIN
100
AcDbLine
 10
79.80642419910123
 20
205.0115311086181
 30
0.0
 11
79.8854141991012
 21
204.9747001086181
 31
0.0
  0
LINE
  5
3E55
330
1A
100
AcDbEntity
  8
SEIHIN
100
AcDbLine
 10
79.8854141991012
 20
204.9747001086181
 30
0.0
 11
79.95680819910126
 21
204.9247081086181
 31
0.0
  0
LINE
  5
3E56
330
1A
100
AcDbEntity
  8
SEIHIN
100
AcDbLine
 10
79.95680819910126
 20
204.9247081086181
 30
0.0
 11
80.0184371991013
 21
204.8630791086181
 31
0.0
  0
LINE
  5
3E57
330
1A
100
AcDbEntity
  8
SEIHIN
100
AcDbLine
 10
80.0184371991013
 20
204.8630791086181
 30
0.0
 11
80.06842919910127
 21
204.7916851086181
 31
0.0
  0
LINE
  5
3E58
330
1A
100
AcDbEntity
  8
SEIHIN
100
AcDbLine
 10
80.06842919910127
 20
204.7916851086181
 30
0.0
 11
80.10526319910127
 21
204.7126951086181
 31
0.0
  0
LINE
  5
3E59
330
1A
100
AcDbEntity
  8
SEIHIN
100
AcDbLine
 10
80.10526319910127
 20
204.7126951086181
 30
0.0
 11
80.12782019910128
 21
204.6285091086181
 31
0.0
  0
LINE
  5
3E5A
330
1A
100
AcDbEntity
  8
SEIHIN
100
AcDbLine
 10
80.12782019910128
 20
204.6285091086181
 30
0.0
 11
80.13541619910119
 21
204.5416861086181
 31
0.0
  0
LINE
  5
3E5B
330
1A
100
AcDbEntity
  8
SEIHIN
100
AcDbLine
 10
79.63541519910132
 20
206.0416861086181
 30
0.0
 11
79.73296019910117
 21
206.0318881086181
 31
0.0
  0
LINE
  5
3E5C
330
1A
100
AcDbEntity
  8
SEIHIN
100
AcDbLine
 10
79.73296019910117
 20
206.0318881086181
 30
0.0
 11
79.82675819910127
 21
206.0028721086181
 31
0.0
  0
LINE
  5
3E5D
330
1A
100
AcDbEntity
  8
SEIHIN
100
AcDbLine
 10
79.82675819910127
 20
206.0028721086181
 30
0.0
 11
79.91320019910131
 21
205.9557511086182
 31
0.0
  0
LINE
  5
3E5E
330
1A
100
AcDbEntity
  8
SEIHIN
100
AcDbLine
 10
79.91320019910131
 20
205.9557511086182
 30
0.0
 11
79.98896819910124
 21
205.8923401086181
 31
0.0
  0
LINE
  5
3E5F
330
1A
100
AcDbEntity
  8
SEIHIN
100
AcDbLine
 10
79.98896819910124
 20
205.8923401086181
 30
0.0
 11
80.05114919910125
 21
205.8150691086181
 31
0.0
  0
LINE
  5
3E60
330
1A
100
AcDbEntity
  8
SEIHIN
100
AcDbLine
 10
80.05114919910125
 20
205.8150691086181
 30
0.0
 11
80.09735519910123
 21
205.7269141086181
 31
0.0
  0
LINE
  5
3E61
330
1A
100
AcDbEntity
  8
SEIHIN
100
AcDbLine
 10
80.09735519910123
 20
205.7269141086181
 30
0.0
 11
80.12580719910124
 21
205.6312621086181
 31
0.0
  0
LINE
  5
3E62
330
1A
100
AcDbEntity
  8
SEIHIN
100
AcDbLine
 10
80.12580719910124
 20
205.6312621086181
 30
0.0
 11
80.13541619910119
 21
205.5317851086181
 31
0.0
  0
ARC
  5
3E63
330
1A
100
AcDbEntity
  8
SEIHIN
100
AcDbCircle
 10
81.6354161991012
 20
207.0416851086181
 30
0.0
 40
0.4999998000000002
100
AcDbArc
 50
0.0
 51
90.0
  0
LINE
  5
3E64
330
1A
100
AcDbEntity
  8
NOKITOI
100
AcDbLine
 10
260.1864963154628
 20
180.5990351145637
 30
0.0
 11
245.1975397265468
 21
86.5269850967268
 31
0.0
  0
LINE
  5
3E65
330
1A
100
AcDbEntity
  8
NOKITOI
100
AcDbLine
 10
262.9102409248332
 20
202.7777102086181
 30
0.0
 11
244.8505750076305
 21
89.4336100822429
 31
0.0
  0
LINE
  5
3E66
330
1A
100
AcDbEntity
  8
NOKITOI
100
AcDbLine
 10
260.8406506648332
 20
179.6203601086181
 30
0.0
 11
245.8130314758331
 21
85.30566010861807
 31
0.0
  0
DIMENSION
  5
3E67
330
1A
100
AcDbEntity
  8
SUNPOU
100
AcDbDimension
  2
*D4
 10
353.3781161991014
 20
76.94168710861808
 30
0.0
 11
348.3781161991014
 21
142.2093826086181
 31
0.0
 70
    32
 71
     5
 42
-1.0
  3
STANDARD
100
AcDbAlignedDimension
 13
278.3598761991013
 23
207.4770781086181
 33
0.0
 14
252.4834061991011
 24
76.94168710861811
 34
0.0
 50
90.0
100
AcDbRotatedDimension
1001
ACAD
1000
DSTYLE
1002
{
1070
    41
1040
7.0
1070
    42
1040
6.0
1070
    43
1040
14.0
1070
    44
1040
3.0
1070
    73
1070
     0
1070
    74
1070
     0
1070
    77
1070
     3
1070
   140
1040
6.0
1070
   141
1040
150.0
1070
   147
1040
2.0
1070
   172
1070
     1
1070
   173
1070
     1
1070
   176
1070
   256
1070
   177
1070
   256
1070
   178
1070
   256
1070
   271
1070
     0
1070
   272
1070
     0
1070
   341
1005
6D
1070
     6
1000
OPEN
1070
     7
1000
OPEN
1070
   371
1070
    -1
1070
   372
1070
    -1
1002
}
  0
LINE
  5
3E68
330
1A
100
AcDbEntity
  8
SEIHIN
100
AcDbLine
 10
267.4902161991012
 20
170.1211891086181
 30
0.0
 11
253.5805083481632
 21
83.75375655527196
 31
0.0
  0
LINE
  5
3E69
330
1A
100
AcDbEntity
  8
SEIHIN
100
AcDbLine
 10
261.5999561991011
 20
178.2006901086181
 30
0.0
 11
246.6385661991012
 21
85.30317910861814
 31
0.0
  0
LINE
  5
3E6A
330
1A
100
AcDbEntity
  8
SEIHIN
100
AcDbLine
 10
249.1067561991012
 20
84.90567010861813
 30
0.0
 11
263.7972761991013
 21
176.1211891086181
 31
0.0
  0
LINE
  5
3E6B
330
1A
100
AcDbEntity
  8
SEIHIN
100
AcDbLine
 10
257.2861061991013
 20
173.4273241086181
 30
0.0
 11
244.2395561991011
 21
92.41946410861814
 31
0.0
  0
LINE
  5
3E6C
330
1A
100
AcDbEntity
  8
SEIHIN
100
AcDbLine
 10
243.2522861991012
 20
92.57846710861812
 30
0.0
 11
256.2860261991013
 21
173.5068241086181
 31
0.0
  0
LINE
  5
3E6D
330
1A
100
AcDbEntity
  8
SEIHIN
100
AcDbLine
 10
259.8923261991012
 20
178.9182751086181
 30
0.0
 11
245.9179361991014
 21
92.14915810861814
 31
0.0
  0
LINE
  5
3E6E
330
1A
100
AcDbEntity
  8
SEIHIN
100
AcDbLine
 10
267.4902161991012
 20
170.1211891086181
 30
0.0
 11
253.5805061991013
 21
83.75375710861812
 31
0.0
  0
ARC
  5
3E6F
330
1A
100
AcDbEntity
  8
SEIHIN
100
AcDbCircle
 10
171.2854061991013
 20
172.6416871086181
 30
0.0
 40
86.499999
100
AcDbArc
 50
283.5283300000036
 51
336.4488599999989
  0
ARC
  5
3E70
330
1A
100
AcDbEntity
  8
SEIHIN
100
AcDbCircle
 10
171.2854061991013
 20
172.6416871086181
 30
0.0
 40
90.499998
100
AcDbArc
 50
291.6768600000011
 51
328.6348099999982
  0
LINE
  5
3E75
330
1A
100
AcDbEntity
  8
SEIHIN
100
AcDbLine
 10
170.6116361991012
 20
81.54168610861811
 30
0.0
 11
245.1576461991012
 21
81.54168610861811
 31
0.0
  0
LINE
  5
3E76
330
1A
100
AcDbEntity
  8
SEIHIN
100
AcDbLine
 10
245.1576461991012
 20
84.04168510861811
 30
0.0
 11
171.2854061991013
 21
84.04168510861811
 31
0.0
  0
LINE
  5
3E77
330
1A
100
AcDbEntity
  8
SEIHIN
100
AcDbLine
 10
238.5133661991012
 20
87.5416861086181
 30
0.0
 11
188.0878961991013
 21
87.5416861086181
 31
0.0
  0
LINE
  5
3E78
330
1A
100
AcDbEntity
  8
SEIHIN
100
AcDbLine
 10
188.0878961991013
 20
88.54168510861811
 30
0.0
 11
238.5133661991012
 21
88.54168510861811
 31
0.0
  0
LINE
  5
3E79
330
1A
100
AcDbEntity
  8
SEIHIN
100
AcDbLine
 10
238.5133661991012
 20
85.84168510861813
 30
0.0
 11
182.8841561991012
 21
85.84168510861813
 31
0.0
  0
ARC
  5
3E7A
330
1A
100
AcDbEntity
  8
SEIHIN
100
AcDbCircle
 10
181.8778961991013
 20
160.5416851086181
 30
0.0
 40
78.999999
100
AcDbArc
 50
294.301509999998
 51
325.5127300000026
  0
LINE
  5
3E7B
330
1A
100
AcDbEntity
  8
CENTER L
  6
CENTER
 48
5.0
100
AcDbLine
 10
170.6116362102366
 20
103.2705535393734
 30
0.0
 11
170.6116361920978
 21
69.56968226885749
 31
0.0
  0
LINE
  5
3E7C
330
1A
100
AcDbEntity
  8
SEIHIN
100
AcDbLine
 10
185.5946561991013
 20
86.75772910861814
 30
0.0
 11
185.5109861991013
 21
86.67436810861815
 31
0.0
  0
LINE
  5
3E7D
330
1A
100
AcDbEntity
  8
SEIHIN
100
AcDbLine
 10
183.7661861991014
 20
86.64659710861812
 30
0.0
 11
183.7854161991012
 21
86.84168710861815
 31
0.0
  0
LINE
  5
3E7E
330
1A
100
AcDbEntity
  8
SEIHIN
100
AcDbLine
 10
185.5109861991013
 20
86.67436810861815
 30
0.0
 11
185.4213161991012
 21
86.59218610861811
 31
0.0
  0
LINE
  5
3E7F
330
1A
100
AcDbEntity
  8
SEIHIN
100
AcDbLine
 10
185.4213161991012
 20
86.59218610861811
 30
0.0
 11
185.0852861991013
 21
86.45348410861814
 31
0.0
  0
LINE
  5
3E80
330
1A
100
AcDbEntity
  8
SEIHIN
100
AcDbLine
 10
185.0852861991013
 20
86.45348410861814
 30
0.0
 11
184.7467661991013
 21
86.32310110861812
 31
0.0
  0
LINE
  5
3E81
330
1A
100
AcDbEntity
  8
SEIHIN
100
AcDbLine
 10
184.7467661991013
 20
86.32310110861812
 30
0.0
 11
184.4129561991012
 21
86.20383310861814
 31
0.0
  0
LINE
  5
3E82
330
1A
100
AcDbEntity
  8
SEIHIN
100
AcDbLine
 10
184.4129561991012
 20
86.20383310861814
 30
0.0
 11
184.0910261991011
 21
86.09823010861815
 31
0.0
  0
LINE
  5
3E83
330
1A
100
AcDbEntity
  8
SEIHIN
100
AcDbLine
 10
184.0910261991011
 20
86.09823010861815
 30
0.0
 11
183.7878761991012
 21
86.00856010861809
 31
0.0
  0
LINE
  5
3E84
330
1A
100
AcDbEntity
  8
SEIHIN
100
AcDbLine
 10
183.7878761991012
 20
86.00856010861809
 30
0.0
 11
183.5100161991013
 21
85.93674010861812
 31
0.0
  0
LINE
  5
3E85
330
1A
100
AcDbEntity
  8
SEIHIN
100
AcDbLine
 10
183.3409661991013
 20
86.0102161086181
 30
0.0
 11
183.4924961991012
 21
86.13457810861811
 31
0.0
  0
LINE
  5
3E86
330
1A
100
AcDbEntity
  8
SEIHIN
100
AcDbLine
 10
183.4924961991012
 20
86.13457810861811
 30
0.0
 11
183.6168761991011
 21
86.28611710861813
 31
0.0
  0
LINE
  5
3E87
330
1A
100
AcDbEntity
  8
SEIHIN
100
AcDbLine
 10
183.6168761991011
 20
86.28611710861813
 30
0.0
 11
183.7092761991011
 21
86.45900410861816
 31
0.0
  0
LINE
  5
3E88
330
1A
100
AcDbEntity
  8
SEIHIN
100
AcDbLine
 10
183.7092761991011
 20
86.45900410861816
 30
0.0
 11
183.7661861991014
 21
86.64659710861812
 31
0.0
  0
LINE
  5
3E89
330
1A
100
AcDbEntity
  8
SEIHIN
100
AcDbLine
 10
183.2633861991012
 20
85.88431210861816
 30
0.0
 11
183.0532661991012
 21
85.85240110861816
 31
0.0
  0
LINE
  5
3E8A
330
1A
100
AcDbEntity
  8
SEIHIN
100
AcDbLine
 10
183.0532661991012
 20
85.85240110861816
 30
0.0
 11
182.8841561991012
 21
85.84168510861813
 31
0.0
  0
LINE
  5
3E8B
330
1A
100
AcDbEntity
  8
SEIHIN
100
AcDbLine
 10
182.7853961991013
 20
85.84168510861813
 30
0.0
 11
182.9804861991012
 21
85.86090010861813
 31
0.0
  0
LINE
  5
3E8C
330
1A
100
AcDbEntity
  8
SEIHIN
100
AcDbLine
 10
182.9804861991012
 20
85.86090010861813
 30
0.0
 11
183.1680761991012
 21
85.9178071086181
 31
0.0
  0
LINE
  5
3E8D
330
1A
100
AcDbEntity
  8
SEIHIN
100
AcDbLine
 10
183.5100161991013
 20
85.93674010861812
 30
0.0
 11
183.2633861991012
 21
85.88431210861816
 31
0.0
  0
LINE
  5
3E8E
330
1A
100
AcDbEntity
  8
SEIHIN
100
AcDbLine
 10
183.1680761991012
 20
85.9178071086181
 30
0.0
 11
183.3409661991013
 21
86.0102161086181
 31
0.0
  0
LINE
  5
3E8F
330
1A
100
AcDbEntity
  8
SEIHIN
100
AcDbLine
 10
186.1697861991012
 20
87.37133110861813
 30
0.0
 11
186.0986561991012
 21
87.32863810861813
 31
0.0
  0
LINE
  5
3E90
330
1A
100
AcDbEntity
  8
SEIHIN
100
AcDbLine
 10
184.1839361991012
 20
88.54168510861811
 30
0.0
 11
186.5959661991012
 21
88.54168510861811
 31
0.0
  0
LINE
  5
3E91
330
1A
100
AcDbEntity
  8
SEIHIN
100
AcDbLine
 10
185.6718161991011
 20
86.84168710861815
 30
0.0
 11
185.5946561991013
 21
86.75772910861814
 31
0.0
  0
LINE
  5
3E92
330
1A
100
AcDbEntity
  8
SEIHIN
100
AcDbLine
 10
186.0986561991012
 20
87.32863810861813
 30
0.0
 11
185.6718161991011
 21
86.84168710861815
 31
0.0
  0
LINE
  5
3E93
330
1A
100
AcDbEntity
  8
SEIHIN
100
AcDbLine
 10
183.7854161991012
 20
86.84168710861815
 30
0.0
 11
183.7854161991012
 21
88.04168710861814
 31
0.0
  0
LINE
  5
3E94
330
1A
100
AcDbEntity
  8
SEIHIN
100
AcDbLine
 10
183.7854161991012
 20
88.34643610861808
 30
0.0
 11
183.8478461991012
 21
88.41350710861808
 31
0.0
  0
LINE
  5
3E95
330
1A
100
AcDbEntity
  8
SEIHIN
100
AcDbLine
 10
183.8478461991012
 20
88.41350710861808
 30
0.0
 11
183.9215261991012
 21
88.46815210861809
 31
0.0
  0
LINE
  5
3E96
330
1A
100
AcDbEntity
  8
SEIHIN
100
AcDbLine
 10
183.9215261991012
 20
88.46815210861809
 30
0.0
 11
184.0039661991013
 21
88.50854410861813
 31
0.0
  0
LINE
  5
3E97
330
1A
100
AcDbEntity
  8
SEIHIN
100
AcDbLine
 10
184.0039661991013
 20
88.50854410861813
 30
0.0
 11
184.0924361991012
 21
88.53333010861808
 31
0.0
  0
LINE
  5
3E98
330
1A
100
AcDbEntity
  8
SEIHIN
100
AcDbLine
 10
184.0924361991012
 20
88.53333010861808
 30
0.0
 11
184.1839361991012
 21
88.54168510861811
 31
0.0
  0
LINE
  5
3E99
330
1A
100
AcDbEntity
  8
SEIHIN
100
AcDbLine
 10
183.7854161991012
 20
88.04168710861814
 30
0.0
 11
183.7854161991012
 21
88.34643610861808
 31
0.0
  0
LINE
  5
3E9A
330
1A
100
AcDbEntity
  8
SEIHIN
100
AcDbLine
 10
186.5959661991012
 20
88.54168510861811
 30
0.0
 11
188.0878961991013
 21
88.54168510861811
 31
0.0
  0
LINE
  5
3E9B
330
1A
100
AcDbEntity
  8
SEIHIN
100
AcDbLine
 10
188.0878961991013
 20
87.5416861086181
 30
0.0
 11
187.7231861991012
 21
87.5377021086181
 31
0.0
  0
LINE
  5
3E9C
330
1A
100
AcDbEntity
  8
SEIHIN
100
AcDbLine
 10
187.7231861991012
 20
87.5377021086181
 30
0.0
 11
187.3707161991012
 21
87.5258791086181
 31
0.0
  0
LINE
  5
3E9D
330
1A
100
AcDbEntity
  8
SEIHIN
100
AcDbLine
 10
187.3707161991012
 20
87.5258791086181
 30
0.0
 11
187.0423061991014
 21
87.50661910861811
 31
0.0
  0
LINE
  5
3E9E
330
1A
100
AcDbEntity
  8
SEIHIN
100
AcDbLine
 10
187.0423061991014
 20
87.50661910861811
 30
0.0
 11
186.7489361991013
 21
87.4805641086181
 31
0.0
  0
LINE
  5
3E9F
330
1A
100
AcDbEntity
  8
SEIHIN
100
AcDbLine
 10
186.7489361991013
 20
87.4805641086181
 30
0.0
 11
186.5004761991012
 21
87.44859010861814
 31
0.0
  0
LINE
  5
3EA0
330
1A
100
AcDbEntity
  8
SEIHIN
100
AcDbLine
 10
186.5004761991012
 20
87.44859010861814
 30
0.0
 11
186.3052361991012
 21
87.41176810861816
 31
0.0
  0
LINE
  5
3EA1
330
1A
100
AcDbEntity
  8
SEIHIN
100
AcDbLine
 10
186.3052361991012
 20
87.41176810861816
 30
0.0
 11
186.1697861991012
 21
87.37133110861813
 31
0.0
  0
ARC
  5
3EA2
330
1A
100
AcDbEntity
  8
NOKITOI
100
AcDbCircle
 10
243.2224539303053
 20
86.84168510861807
 30
0.0
 40
2.0
100
AcDbArc
 50
270.0
 51
350.9468855847686
  0
ARC
  5
3EA3
330
1A
100
AcDbEntity
  8
NOKITOI
100
AcDbCircle
 10
240.4066319660262
 20
90.14168510861813
 30
0.0
 40
4.5
100
AcDbArc
 50
270.0
 51
350.9468855896718
  0
ARC
  5
3EA4
330
1A
100
AcDbEntity
  8
SEIHIN
100
AcDbCircle
 10
238.5133661991012
 20
93.34168510861813
 30
0.0
 40
5.799999899999999
100
AcDbArc
 50
270.0
 51
350.8509200000003
  0
ARC
  5
3EA5
330
1A
100
AcDbEntity
  8
SEIHIN
100
AcDbCircle
 10
238.5133661991012
 20
93.34168510861813
 30
0.0
 40
4.8
100
AcDbArc
 50
270.0
 51
350.8509200000003
  0
ARC
  5
3EA6
330
1A
100
AcDbEntity
  8
SEIHIN
100
AcDbCircle
 10
238.5133661991012
 20
93.34168510861813
 30
0.0
 40
7.5
100
AcDbArc
 50
270.0
 51
350.8509200000003
  0
ARC
  5
3EA7
330
1A
100
AcDbEntity
  8
SEIHIN
100
AcDbCircle
 10
245.5835561991011
 20
85.04168710861813
 30
0.0
 40
8.100000000000001
100
AcDbArc
 50
270.0
 51
350.8509200000003
  0
ARC
  5
3EA8
330
1A
100
AcDbEntity
  8
NOKITOI
100
AcDbCircle
 10
244.3317171278331
 20
85.54168510861812
 30
0.0
 40
1.499999999702612
100
AcDbArc
 50
270.0
 51
350.9468859261064
  0
ARC
  5
3EA9
330
1A
100
AcDbEntity
  8
SEIHIN
100
AcDbCircle
 10
245.1576461991012
 20
85.54168510861812
 30
0.0
 40
3.9999999
100
AcDbArc
 50
267.6335199999975
 51
350.8509200000003
  0
ARC
  5
3EAA
330
1A
100
AcDbEntity
  8
SEIHIN
100
AcDbCircle
 10
245.1576461991012
 20
85.54168510861812
 30
0.0
 40
1.5
100
AcDbArc
 50
270.0
 51
350.8509200000003
  0
ARC
  5
3EAB
330
1A
100
AcDbEntity
  8
STOPPER
100
AcDbCircle
 10
271.7708861991013
 20
166.4394031086181
 30
0.0
 40
1.999999799999999
100
AcDbArc
 50
90.0
 51
182.4918999999999
  0
ARC
  5
3EAC
330
1A
100
AcDbEntity
  8
STOPPER
100
AcDbCircle
 10
274.6389161991012
 20
167.9394031086181
 30
0.0
 40
2.4999999
100
AcDbArc
 50
168.4630399999983
 51
11.53695899999897
  0
ARC
  5
3EAD
330
1A
100
AcDbEntity
  8
STOPPER
100
AcDbCircle
 10
271.7708861991013
 20
166.4394031086181
 30
0.0
 40
3.9999999
100
AcDbArc
 50
90.0
 51
182.4918999999999
  0
ARC
  5
3EAE
330
1A
100
AcDbEntity
  8
STOPPER
100
AcDbCircle
 10
274.4087261991012
 20
148.9321861086181
 30
0.0
 40
2.4999999
100
AcDbArc
 50
118.1969700000031
 51
326.3994899999987
  0
ARC
  5
3EAF
330
1A
100
AcDbEntity
  8
STOPPER
100
AcDbCircle
 10
294.7491461991012
 20
167.4394051086181
 30
0.0
 40
24.9999999
100
AcDbArc
 50
182.4918999999999
 51
234.2523999999979
  0
ARC
  5
3EB0
330
1A
100
AcDbEntity
  8
STOPPER
100
AcDbCircle
 10
294.7491461991012
 20
167.4394051086181
 30
0.0
 40
27.0
100
AcDbArc
 50
182.4918999999999
 51
217.145980000002
  0
ARC
  5
3EB1
330
1A
100
AcDbEntity
  8
STOPPER
100
AcDbCircle
 10
279.5595461991013
 20
146.3378431086181
 30
0.0
 40
0.9999998999999998
100
AcDbArc
 50
326.4566300000025
 51
54.25240799999863
  0
ARC
  5
3EB2
330
1A
100
AcDbEntity
  8
STOPPER
100
AcDbCircle
 10
294.7491461991012
 20
167.4394051086181
 30
0.0
 40
27.0
100
AcDbArc
 50
227.4504700000011
 51
234.2523999999979
  0
ARC
  5
3EB3
330
1A
100
AcDbEntity
  8
STOPPER
100
AcDbCircle
 10
279.5595461991013
 20
146.3378431086181
 30
0.0
 40
0.9999998999999998
100
AcDbArc
 50
234.2523999999979
 51
326.4566300000025
  0
LINE
  5
3EB4
330
1A
100
AcDbEntity
  8
SEIHIN
100
AcDbLine
 10
259.8923261991012
 20
178.9182751086181
 30
0.0
 11
261.3700361991013
 21
178.9182751086181
 31
0.0
  0
LINE
  5
3EB5
330
1A
100
AcDbEntity
  8
SEIHIN
100
AcDbLine
 10
257.6039261991013
 20
179.0416861086181
 30
0.0
 11
261.7354061991013
 21
179.0416861086181
 31
0.0
  0
LINE
  5
3EB6
330
1A
100
AcDbEntity
  8
SEIHIN
100
AcDbLine
 10
257.2861061991013
 20
173.4273241086181
 30
0.0
 11
256.7796461991012
 21
173.4273241086181
 31
0.0
  0
LINE
  5
3EB7
330
1A
100
AcDbEntity
  8
SEIHIN
100
AcDbLine
 10
258.0824861991013
 20
176.4047341086181
 30
0.0
 11
258.0001961991013
 21
176.2899511086181
 31
0.0
  0
LINE
  5
3EB8
330
1A
100
AcDbEntity
  8
SEIHIN
100
AcDbLine
 10
258.0001961991013
 20
176.2899511086181
 30
0.0
 11
257.9063861991012
 21
176.0816401086181
 31
0.0
  0
LINE
  5
3EB9
330
1A
100
AcDbEntity
  8
SEIHIN
100
AcDbLine
 10
257.9063861991012
 20
176.0816401086181
 30
0.0
 11
257.8041161991013
 21
175.7866081086181
 31
0.0
  0
LINE
  5
3EBA
330
1A
100
AcDbEntity
  8
SEIHIN
100
AcDbLine
 10
257.8041161991013
 20
175.7866081086181
 30
0.0
 11
257.6967161991012
 21
175.4144911086181
 31
0.0
  0
LINE
  5
3EBB
330
1A
100
AcDbEntity
  8
SEIHIN
100
AcDbLine
 10
257.6967161991012
 20
175.4144911086181
 30
0.0
 11
257.5876961991011
 21
174.9774511086181
 31
0.0
  0
LINE
  5
3EBC
330
1A
100
AcDbEntity
  8
SEIHIN
100
AcDbLine
 10
257.5876961991011
 20
174.9774511086181
 30
0.0
 11
257.4805961991012
 21
174.4897651086181
 31
0.0
  0
LINE
  5
3EBD
330
1A
100
AcDbEntity
  8
SEIHIN
100
AcDbLine
 10
257.4805961991012
 20
174.4897651086181
 30
0.0
 11
257.3789561991011
 21
173.9673661086181
 31
0.0
  0
LINE
  5
3EBE
330
1A
100
AcDbEntity
  8
SEIHIN
100
AcDbLine
 10
257.3789561991011
 20
173.9673661086181
 30
0.0
 11
257.2861061991013
 21
173.4273241086181
 31
0.0
  0
LINE
  5
3EBF
330
1A
100
AcDbEntity
  8
SEIHIN
100
AcDbLine
 10
257.1792461991012
 20
176.4047341086181
 30
0.0
 11
258.0824861991013
 21
176.4047341086181
 31
0.0
  0
LINE
  5
3EC0
330
1A
100
AcDbEntity
  8
SEIHIN
100
AcDbLine
 10
256.2860261991013
 20
173.5068241086181
 30
0.0
 11
256.6856261991012
 21
175.9880011086181
 31
0.0
  0
LINE
  5
3EC1
330
1A
100
AcDbEntity
  8
SEIHIN
100
AcDbLine
 10
256.6856261991012
 20
175.9880011086181
 30
0.0
 11
256.7071361991013
 21
176.0727931086181
 31
0.0
  0
LINE
  5
3EC2
330
1A
100
AcDbEntity
  8
SEIHIN
100
AcDbLine
 10
256.7071361991013
 20
176.0727931086181
 30
0.0
 11
256.7433461991013
 21
176.1524761086181
 31
0.0
  0
LINE
  5
3EC3
330
1A
100
AcDbEntity
  8
SEIHIN
100
AcDbLine
 10
256.7433461991013
 20
176.1524761086181
 30
0.0
 11
256.7930861991012
 21
176.2245751086181
 31
0.0
  0
LINE
  5
3EC4
330
1A
100
AcDbEntity
  8
SEIHIN
100
AcDbLine
 10
256.7930861991012
 20
176.2245751086181
 30
0.0
 11
256.8548561991012
 21
176.2868491086181
 31
0.0
  0
LINE
  5
3EC5
330
1A
100
AcDbEntity
  8
SEIHIN
100
AcDbLine
 10
256.8548561991012
 20
176.2868491086181
 30
0.0
 11
256.9267061991013
 21
176.3373601086181
 31
0.0
  0
LINE
  5
3EC6
330
1A
100
AcDbEntity
  8
SEIHIN
100
AcDbLine
 10
256.9267061991013
 20
176.3373601086181
 30
0.0
 11
257.0063861991011
 21
176.3745421086181
 31
0.0
  0
LINE
  5
3EC7
330
1A
100
AcDbEntity
  8
SEIHIN
100
AcDbLine
 10
257.0063861991011
 20
176.3745421086181
 30
0.0
 11
257.0914661991011
 21
176.3972341086181
 31
0.0
  0
LINE
  5
3EC8
330
1A
100
AcDbEntity
  8
SEIHIN
100
AcDbLine
 10
257.0914661991011
 20
176.3972341086181
 30
0.0
 11
257.1792461991012
 21
176.4047341086181
 31
0.0
  0
LINE
  5
3EC9
330
1A
100
AcDbEntity
  8
SEIHIN
100
AcDbLine
 10
256.2860261991013
 20
173.5068241086181
 30
0.0
 11
256.7796461991012
 21
173.4273241086181
 31
0.0
  0
LINE
  5
3ECA
330
1A
100
AcDbEntity
  8
SEIHIN
100
AcDbLine
 10
258.8338361991013
 20
177.0658981086181
 30
0.0
 11
258.0824861991013
 21
176.4047341086181
 31
0.0
  0
LINE
  5
3ECB
330
1A
100
AcDbEntity
  8
SEIHIN
100
AcDbLine
 10
259.8923261991012
 20
178.9182751086181
 30
0.0
 11
258.8338361991013
 21
177.0658981086181
 31
0.0
  0
LINE
  5
3ECC
330
1A
100
AcDbEntity
  8
SEIHIN
100
AcDbLine
 10
257.1289661991013
 20
178.7408041086181
 30
0.0
 11
257.1606761991013
 21
178.8532501086181
 31
0.0
  0
LINE
  5
3ECD
330
1A
100
AcDbEntity
  8
SEIHIN
100
AcDbLine
 10
257.1606761991013
 20
178.8532501086181
 30
0.0
 11
257.2172561991012
 21
178.9553761086181
 31
0.0
  0
LINE
  5
3ECE
330
1A
100
AcDbEntity
  8
SEIHIN
100
AcDbLine
 10
257.2172561991012
 20
178.9553761086181
 30
0.0
 11
257.2956161991012
 21
179.0416861086181
 31
0.0
  0
LINE
  5
3ECF
330
1A
100
AcDbEntity
  8
SEIHIN
100
AcDbLine
 10
257.2956161991012
 20
179.0416861086181
 30
0.0
 11
257.6039261991013
 21
179.0416861086181
 31
0.0
  0
LINE
  5
3ED0
330
1A
100
AcDbEntity
  8
SEIHIN
100
AcDbLine
 10
256.6856261991012
 20
175.9880011086181
 30
0.0
 11
257.1289661991013
 21
178.7408041086181
 31
0.0
  0
LINE
  5
3ED1
330
1A
100
AcDbEntity
  8
NOKITOI
100
AcDbLine
 10
271.7116362048332
 20
200.9416851086181
 30
0.0
 11
271.7116362048332
 21
183.1416851086181
 31
0.0
  0
LINE
  5
3ED2
330
1A
100
AcDbEntity
  8
NOKITOI
100
AcDbLine
 10
273.1116362048333
 20
202.5416851086181
 30
0.0
 11
273.1116362048333
 21
181.5416851086181
 31
0.0
  0
LINE
  5
3ED3
330
1A
100
AcDbEntity
  8
NOKITOI
100
AcDbLine
 10
271.5116362048331
 20
200.9416851086181
 30
0.0
 11
271.5116362048331
 21
183.1416851086181
 31
0.0
  0
LINE
  5
3ED4
330
1A
100
AcDbEntity
  8
NOKITOI
100
AcDbLine
 10
264.2754879348331
 20
201.1777102086181
 30
0.0
 11
261.4393274948331
 21
183.3777102086181
 31
0.0
  0
LINE
  5
3ED5
330
1A
100
AcDbEntity
  8
SEIHIN
100
AcDbLine
 10
265.6536161991011
 20
198.0545581086181
 30
0.0
 11
264.1841861991013
 21
184.0416871086181
 31
0.0
  0
LINE
  5
3ED6
330
1A
100
AcDbEntity
  8
SEIHIN
100
AcDbLine
 10
274.9354061991011
 20
207.0416851086181
 30
0.0
 11
274.9354061991011
 21
179.5416871086181
 31
0.0
  0
LINE
  5
3ED7
330
1A
100
AcDbEntity
  8
SEIHIN
100
AcDbLine
 10
277.4602361991012
 20
177.0155191086181
 30
0.0
 11
279.0049061991012
 21
206.4893491086181
 31
0.0
  0
LINE
  5
3ED8
330
1A
100
AcDbEntity
  8
SEIHIN
100
AcDbLine
 10
282.0090161991013
 20
206.4893491086181
 30
0.0
 11
280.1499161991011
 21
171.0155191086181
 31
0.0
  0
LINE
  5
3ED9
330
1A
100
AcDbEntity
  8
STOPPER
100
AcDbLine
 10
282.2419361991014
 20
170.8085641086181
 30
0.0
 11
284.1115361991014
 21
206.4823951086181
 31
0.0
  0
LINE
  5
3EDA
330
1A
100
AcDbEntity
  8
STOPPER
100
AcDbLine
 10
280.2446861991013
 20
170.9132371086181
 30
0.0
 11
282.1142561991014
 21
206.5870681086181
 31
0.0
  0
LINE
  5
3EDB
330
1A
100
AcDbEntity
  8
SEIHIN
100
AcDbLine
 10
279.6505961991012
 20
170.5416871086181
 30
0.0
 11
267.9838661991011
 21
170.5416871086181
 31
0.0
  0
LINE
  5
3EDC
330
1A
100
AcDbEntity
  8
STOPPER
100
AcDbLine
 10
271.7708861991013
 20
170.4394051086181
 30
0.0
 11
279.7453661991012
 21
170.4394051086181
 31
0.0
  0
LINE
  5
3EDD
330
1A
100
AcDbEntity
  8
SEIHIN
100
AcDbLine
 10
264.2908961991013
 20
176.5416871086181
 30
0.0
 11
276.9609161991013
 21
176.5416871086181
 31
0.0
  0
ARC
  5
3EDE
330
1A
100
AcDbEntity
  8
SEIHIN
100
AcDbCircle
 10
274.4353961991014
 20
179.5416871086181
 30
0.0
 40
0.4999998000000002
100
AcDbArc
 50
270.0
 51
0.0
  0
LINE
  5
3EDF
330
1A
100
AcDbEntity
  8
SEIHIN
100
AcDbLine
 10
261.7354061991013
 20
179.0416861086181
 30
0.0
 11
261.7354061991013
 21
179.5416871086181
 31
0.0
  0
LINE
  5
3EE0
330
1A
100
AcDbEntity
  8
SEIHIN
100
AcDbLine
 10
274.4353961991014
 20
179.0416861086181
 30
0.0
 11
262.5872261991014
 21
179.0416861086181
 31
0.0
  0
ARC
  5
3EE1
330
1A
100
AcDbEntity
  8
SEIHIN
100
AcDbCircle
 10
262.5872597365669
 20
178.0416571810165
 30
0.0
 40
1.000029873130798
100
AcDbArc
 50
90.07878956014799
 51
170.8495073522776
  0
ARC
  5
3EE2
330
1A
100
AcDbEntity
  8
SEIHIN
100
AcDbCircle
 10
267.9838954570429
 20
170.0416407347518
 30
0.0
 40
0.5000471512834207
100
AcDbArc
 50
92.58229348706739
 51
170.8463984990677
  0
ARC
  5
3EE3
330
1A
100
AcDbEntity
  8
SEIHIN
100
AcDbCircle
 10
264.2909060535937
 20
176.0416981682304
 30
0.0
 40
0.4999892427341688
100
AcDbArc
 50
90.06301005185875
 51
170.8519956035667
  0
ARC
  5
3EE4
330
1A
100
AcDbEntity
  8
SEIHIN
100
AcDbCircle
 10
262.5872261991014
 20
178.0416871086181
 30
0.0
 40
0.9999998999999998
100
AcDbArc
 50
90.0
 51
170.8509199999995
  0
LINE
  5
3EE5
330
1A
100
AcDbEntity
  8
SEIHIN
100
AcDbLine
 10
261.3700361991013
 20
178.9182751086181
 30
0.0
 11
261.6200261991014
 21
178.9132291086181
 31
0.0
  0
LINE
  5
3EE6
330
1A
100
AcDbEntity
  8
SEIHIN
100
AcDbLine
 10
261.6200261991014
 20
178.9132291086181
 30
0.0
 11
261.8527061991012
 21
178.8978061086181
 31
0.0
  0
LINE
  5
3EE7
330
1A
100
AcDbEntity
  8
SEIHIN
100
AcDbLine
 10
261.8527061991012
 20
178.8978061086181
 30
0.0
 11
261.9512861991013
 21
178.8850021086181
 31
0.0
  0
LINE
  5
3EE8
330
1A
100
AcDbEntity
  8
SEIHIN
100
AcDbLine
 10
261.9512861991013
 20
178.8850021086181
 30
0.0
 11
262.0004261991013
 21
178.8726451086181
 31
0.0
  0
LINE
  5
3EE9
330
1A
100
AcDbEntity
  8
SEIHIN
100
AcDbLine
 10
262.0004261991013
 20
178.8726451086181
 30
0.0
 11
262.0102361991011
 21
178.8588481086181
 31
0.0
  0
LINE
  5
3EEA
330
1A
100
AcDbEntity
  8
SEIHIN
100
AcDbLine
 10
262.0102361991011
 20
178.8588481086181
 30
0.0
 11
262.0076261991012
 21
178.8565711086181
 31
0.0
  0
LINE
  5
3EEB
330
1A
100
AcDbEntity
  8
SEIHIN
100
AcDbLine
 10
262.5872261991014
 20
179.0416861086181
 30
0.0
 11
261.7354061991013
 21
179.0416861086181
 31
0.0
  0
LINE
  5
3EEC
330
1A
100
AcDbEntity
  8
SEIHIN
100
AcDbLine
 10
263.956467800607
 20
176.3935412415314
 30
0.0
 11
267.649437800607
 21
170.3935412415314
 31
0.0
  0
LINE
  5
3EED
330
1A
100
AcDbEntity
  8
STOPPER
100
AcDbLine
 10
271.7708861991013
 20
168.4394041086181
 30
0.0
 11
272.1894161991012
 21
168.4394041086181
 31
0.0
  0
LINE
  5
3EEE
330
1A
100
AcDbEntity
  8
NOKITOI
100
AcDbLine
 10
271.6116362048333
 20
180.0416851086181
 30
0.0
 11
261.3344221148331
 21
180.0416851086181
 31
0.0
  0
LINE
  5
3EEF
330
1A
100
AcDbEntity
  8
NOKITOI
100
AcDbLine
 10
270.0116362048331
 20
181.4416851086181
 30
0.0
 11
261.1740392135836
 21
181.4416851086181
 31
0.0
  0
LINE
  5
3EF0
330
1A
100
AcDbEntity
  8
NOKITOI
100
AcDbLine
 10
270.0116362048331
 20
181.6416851086181
 30
0.0
 11
262.9206418448331
 21
181.6416851086181
 31
0.0
  0
LINE
  5
3EF1
330
1A
100
AcDbEntity
  8
SEIHIN
100
AcDbLine
 10
274.4353961991014
 20
184.0416871086181
 30
0.0
 11
263.7354161991013
 21
184.0416871086181
 31
0.0
  0
ARC
  5
3EF2
330
1A
100
AcDbEntity
  8
NOKITOI
100
AcDbCircle
 10
261.1740392135836
 20
180.4416851086181
 30
0.0
 40
1.0
100
AcDbArc
 50
90.0
 51
170.9468855847686
  0
ARC
  5
3EF3
330
1A
100
AcDbEntity
  8
NOKITOI
100
AcDbCircle
 10
262.9206418448331
 20
183.1416851086181
 30
0.0
 40
1.500000008557656
100
AcDbArc
 50
170.9468821659906
 51
270.0
  0
ARC
  5
3EF4
330
1A
100
AcDbEntity
  8
NOKITOI
100
AcDbCircle
 10
261.3344221148331
 20
179.5416851086181
 30
0.0
 40
0.5000000002300496
100
AcDbArc
 50
90.0
 51
170.9468859381293
  0
LINE
  5
3EF5
330
1A
100
AcDbEntity
  8
SEIHIN
100
AcDbLine
 10
261.7354061991013
 20
182.0416861086181
 30
0.0
 11
261.7354061991013
 21
179.5416871086181
 31
0.0
  0
ARC
  5
3EF6
330
1A
100
AcDbEntity
  8
SEIHIN
100
AcDbCircle
 10
263.7354161991013
 20
182.0416861086181
 30
0.0
 40
1.999999799999999
100
AcDbArc
 50
90.0
 51
180.0
  0
ARC
  5
3EF7
330
1A
100
AcDbEntity
  8
NOKITOI
100
AcDbCircle
 10
270.0116362048331
 20
183.1416851086181
 30
0.0
 40
1.7
100
AcDbArc
 50
270.0
 51
0.0
  0
ARC
  5
3EF8
330
1A
100
AcDbEntity
  8
NOKITOI
100
AcDbCircle
 10
270.0116362048331
 20
183.1416851086181
 30
0.0
 40
1.5
100
AcDbArc
 50
270.0
 51
0.0
  0
ARC
  5
3EF9
330
1A
100
AcDbEntity
  8
NOKITOI
100
AcDbCircle
 10
271.6116362048333
 20
181.5416851086181
 30
0.0
 40
1.5
100
AcDbArc
 50
270.0
 51
0.0
  0
LINE
  5
3EFA
330
1A
100
AcDbEntity
  8
SEIHIN
100
AcDbLine
 10
274.9354061991011
 20
184.5416851086181
 30
0.0
 11
274.9278161991012
 21
184.4548621086181
 31
0.0
  0
LINE
  5
3EFB
330
1A
100
AcDbEntity
  8
SEIHIN
100
AcDbLine
 10
274.9278161991012
 20
184.4548621086181
 30
0.0
 11
274.9052561991013
 21
184.3706761086181
 31
0.0
  0
LINE
  5
3EFC
330
1A
100
AcDbEntity
  8
SEIHIN
100
AcDbLine
 10
274.9052561991013
 20
184.3706761086181
 30
0.0
 11
274.8684161991013
 21
184.2916861086181
 31
0.0
  0
LINE
  5
3EFD
330
1A
100
AcDbEntity
  8
SEIHIN
100
AcDbLine
 10
274.8684161991013
 20
184.2916861086181
 30
0.0
 11
274.8184361991013
 21
184.2202921086181
 31
0.0
  0
LINE
  5
3EFE
330
1A
100
AcDbEntity
  8
SEIHIN
100
AcDbLine
 10
274.8184361991013
 20
184.2202921086181
 30
0.0
 11
274.7567861991012
 21
184.1586631086181
 31
0.0
  0
LINE
  5
3EFF
330
1A
100
AcDbEntity
  8
SEIHIN
100
AcDbLine
 10
274.7567861991012
 20
184.1586631086181
 30
0.0
 11
274.6854161991013
 21
184.1086741086181
 31
0.0
  0
LINE
  5
3F00
330
1A
100
AcDbEntity
  8
SEIHIN
100
AcDbLine
 10
274.6854161991013
 20
184.1086741086181
 30
0.0
 11
274.6064261991014
 21
184.0718401086181
 31
0.0
  0
LINE
  5
3F01
330
1A
100
AcDbEntity
  8
SEIHIN
100
AcDbLine
 10
274.6064261991014
 20
184.0718401086181
 30
0.0
 11
274.5222161991012
 21
184.0492831086181
 31
0.0
  0
LINE
  5
3F02
330
1A
100
AcDbEntity
  8
SEIHIN
100
AcDbLine
 10
274.5222161991012
 20
184.0492831086181
 30
0.0
 11
274.4353961991014
 21
184.0416871086181
 31
0.0
  0
ARC
  5
3F03
330
1A
100
AcDbEntity
  8
SEIHIN
100
AcDbCircle
 10
279.6278459110496
 20
171.0617367861879
 30
0.0
 40
0.5241157729310807
100
AcDbArc
 50
262.8584256310147
 51
354.9363521172714
  0
ARC
  5
3F04
330
1A
100
AcDbEntity
  8
SEIHIN
100
AcDbCircle
 10
276.9609330466991
 20
177.041676252106
 30
0.0
 40
0.4999891437717282
100
AcDbArc
 50
269.9980693655786
 51
356.9333580197524
  0
ARC
  5
3F05
330
1A
100
AcDbEntity
  8
STOPPER
100
AcDbCircle
 10
279.7453661991012
 20
170.9394031086181
 30
0.0
 40
0.4999998000000002
100
AcDbArc
 50
270.0
 51
357.0000000000005
  0
ARC
  5
3F06
330
1A
100
AcDbEntity
  8
STOPPER
100
AcDbCircle
 10
279.7453661991012
 20
170.9394031086181
 30
0.0
 40
2.4999999
100
AcDbArc
 50
270.0
 51
357.0000000000005
  0
LINE
  5
3F07
330
1A
100
AcDbEntity
  8
SEIHIN
100
AcDbLine
 10
277.4602061991013
 20
177.0149281086181
 30
0.0
 11
277.4462261991013
 21
176.9213521086181
 31
0.0
  0
LINE
  5
3F08
330
1A
100
AcDbEntity
  8
SEIHIN
100
AcDbLine
 10
277.4602061991013
 20
177.0149281086181
 30
0.0
 11
277.4602361991012
 21
177.0155191086181
 31
0.0
  0
LINE
  5
3F09
330
1A
100
AcDbEntity
  8
SEIHIN
100
AcDbLine
 10
277.3081704949329
 20
176.6508023632075
 30
0.0
 11
279.9978504949328
 21
170.6508023632075
 31
0.0
  0
LINE
  5
3F0A
330
1A
100
AcDbEntity
  8
STOPPER
100
AcDbLine
 10
277.0884161991011
 20
168.4394041086181
 30
0.0
 11
279.7453661991012
 21
168.4394041086181
 31
0.0
  0
LINE
  5
3F0B
330
1A
100
AcDbEntity
  8
SEIHIN
100
AcDbLine
 10
278.0062661991012
 20
207.5416861086181
 30
0.0
 11
275.4354161991013
 21
207.5416861086181
 31
0.0
  0
ARC
  5
3F0C
330
1A
100
AcDbEntity
  8
STOPPER
100
AcDbCircle
 10
277.3127561991013
 20
210.1387081086181
 30
0.0
 40
2.4993033
100
AcDbArc
 50
348.4760699999996
 51
191.5239199999988
  0
LINE
  5
3F0D
330
1A
100
AcDbEntity
  8
STOPPER
100
AcDbLine
 10
281.1156461991013
 20
207.6394051086181
 30
0.0
 11
273.4050761991013
 21
207.6394051086181
 31
0.0
  0
ARC
  5
3F0E
330
1A
100
AcDbEntity
  8
NOKITOI
100
AcDbCircle
 10
270.0116362048331
 20
200.9416851086181
 30
0.0
 40
1.5
100
AcDbArc
 50
0.0
 51
90.0
  0
ARC
  5
3F0F
330
1A
100
AcDbEntity
  8
NOKITOI
100
AcDbCircle
 10
265.7568022848331
 20
200.9416851086181
 30
0.0
 40
1.700000008557656
100
AcDbArc
 50
90.0
 51
170.9468821659906
  0
ARC
  5
3F10
330
1A
100
AcDbEntity
  8
NOKITOI
100
AcDbCircle
 10
270.0116362048331
 20
200.9416851086181
 30
0.0
 40
1.7
100
AcDbArc
 50
0.0
 51
90.0
  0
ARC
  5
3F11
330
1A
100
AcDbEntity
  8
NOKITOI
100
AcDbCircle
 10
271.6116362048333
 20
202.5416851086181
 30
0.0
 40
1.5
100
AcDbArc
 50
0.0
 51
90.0
  0
ARC
  5
3F12
330
1A
100
AcDbEntity
  8
SEIHIN
100
AcDbCircle
 10
274.4228561991012
 20
205.0416871086181
 30
0.0
 40
1.999999799999999
100
AcDbArc
 50
180.0
 51
267.0000000000009
  0
LINE
  5
3F13
330
1A
100
AcDbEntity
  8
STOPPER
100
AcDbLine
 10
270.3172361991012
 20
205.0416871086181
 30
0.0
 11
270.0918761991013
 21
200.7416851086181
 31
0.0
  0
LINE
  5
3F14
330
1A
100
AcDbEntity
  8
STOPPER
100
AcDbLine
 10
272.3199761991013
 20
205.0416871086181
 30
0.0
 11
272.0946161991012
 21
200.7416851086181
 31
0.0
  0
LINE
  5
3F15
330
1A
100
AcDbEntity
  8
SEIHIN
100
AcDbLine
 10
262.4353961991014
 20
205.5317851086181
 30
0.0
 11
262.4353961991014
 21
202.0416871086181
 31
0.0
  0
LINE
  5
3F16
330
1A
100
AcDbEntity
  8
SEIHIN
100
AcDbLine
 10
260.4354161991013
 20
202.0416871086181
 30
0.0
 11
260.4354161991013
 21
207.0416851086181
 31
0.0
  0
LINE
  5
3F17
330
1A
100
AcDbEntity
  8
NOKITOI
100
AcDbLine
 10
270.0116362048331
 20
202.6416851086181
 30
0.0
 11
265.7568022848331
 21
202.6416851086181
 31
0.0
  0
LINE
  5
3F18
330
1A
100
AcDbEntity
  8
NOKITOI
100
AcDbLine
 10
270.0116362048331
 20
202.4416851086181
 30
0.0
 11
265.7568022848331
 21
202.4416851086181
 31
0.0
  0
ARC
  5
3F19
330
1A
100
AcDbEntity
  8
SEIHIN
100
AcDbCircle
 10
268.6372661991013
 20
197.7416851086181
 30
0.0
 40
3.0
100
AcDbArc
 50
90.0
 51
174.01369
  0
ARC
  5
3F1A
330
1A
100
AcDbEntity
  8
NOKITOI
100
AcDbCircle
 10
265.7568022848331
 20
200.9416851086181
 30
0.0
 40
1.500000008557656
100
AcDbArc
 50
90.0
 51
170.9468821659906
  0
LINE
  5
3F1B
330
1A
100
AcDbEntity
  8
SEIHIN
100
AcDbLine
 10
262.4353961991014
 20
201.5416861086181
 30
0.0
 11
260.9353961991014
 21
201.5416861086181
 31
0.0
  0
LINE
  5
3F1C
330
1A
100
AcDbEntity
  8
SEIHIN
100
AcDbLine
 10
262.4353961991014
 20
202.0416871086181
 30
0.0
 11
262.4353961991014
 21
201.5416861086181
 31
0.0
  0
ARC
  5
3F1D
330
1A
100
AcDbEntity
  8
SEIHIN
100
AcDbCircle
 10
260.9353961991014
 20
202.0416871086181
 30
0.0
 40
0.4999998000000002
100
AcDbArc
 50
180.0
 51
270.0
  0
LINE
  5
3F1E
330
1A
100
AcDbEntity
  8
SEIHIN
100
AcDbLine
 10
274.9354061991011
 20
200.7416851086181
 30
0.0
 11
268.6372661991013
 21
200.7416851086181
 31
0.0
  0
LINE
  5
3F1F
330
1A
100
AcDbEntity
  8
SEIHIN
100
AcDbLine
 10
274.9354061991011
 20
201.2416861086181
 30
0.0
 11
274.9278161991012
 21
201.1548631086181
 31
0.0
  0
LINE
  5
3F20
330
1A
100
AcDbEntity
  8
SEIHIN
100
AcDbLine
 10
274.9278161991012
 20
201.1548631086181
 30
0.0
 11
274.9052561991013
 21
201.0706771086181
 31
0.0
  0
LINE
  5
3F21
330
1A
100
AcDbEntity
  8
SEIHIN
100
AcDbLine
 10
274.9052561991013
 20
201.0706771086181
 30
0.0
 11
274.8684161991013
 21
200.9916871086181
 31
0.0
  0
LINE
  5
3F22
330
1A
100
AcDbEntity
  8
SEIHIN
100
AcDbLine
 10
274.8684161991013
 20
200.9916871086181
 30
0.0
 11
274.8184361991013
 21
200.9202931086181
 31
0.0
  0
LINE
  5
3F23
330
1A
100
AcDbEntity
  8
SEIHIN
100
AcDbLine
 10
274.8184361991013
 20
200.9202931086181
 30
0.0
 11
274.7567861991012
 21
200.8586641086181
 31
0.0
  0
LINE
  5
3F24
330
1A
100
AcDbEntity
  8
SEIHIN
100
AcDbLine
 10
274.7567861991012
 20
200.8586641086181
 30
0.0
 11
274.6854161991013
 21
200.8086721086181
 31
0.0
  0
LINE
  5
3F25
330
1A
100
AcDbEntity
  8
SEIHIN
100
AcDbLine
 10
274.6854161991013
 20
200.8086721086181
 30
0.0
 11
274.6064261991014
 21
200.7718411086181
 31
0.0
  0
LINE
  5
3F26
330
1A
100
AcDbEntity
  8
SEIHIN
100
AcDbLine
 10
274.6064261991014
 20
200.7718411086181
 30
0.0
 11
274.5222161991012
 21
200.749281108618
 31
0.0
  0
LINE
  5
3F27
330
1A
100
AcDbEntity
  8
SEIHIN
100
AcDbLine
 10
274.5222161991012
 20
200.749281108618
 30
0.0
 11
274.4353961991014
 21
200.7416851086181
 31
0.0
  0
LINE
  5
3F28
330
1A
100
AcDbEntity
  8
NOKITOI
100
AcDbLine
 10
271.6116362048333
 20
204.0416851086181
 30
0.0
 11
264.391555274833
 21
204.0416851086181
 31
0.0
  0
LINE
  5
3F29
330
1A
100
AcDbEntity
  8
SEIHIN
100
AcDbLine
 10
274.4353961991014
 20
205.0416871086181
 30
0.0
 11
262.9354061991012
 21
205.0416871086181
 31
0.0
  0
LINE
  5
3F2A
330
1A
100
AcDbEntity
  8
SEIHIN
100
AcDbLine
 10
262.9354061991012
 20
206.0416861086181
 30
0.0
 11
273.9354161991014
 21
206.0416861086181
 31
0.0
  0
LINE
  5
3F2B
330
1A
100
AcDbEntity
  8
SEIHIN
100
AcDbLine
 10
260.9353961991014
 20
207.5416861086181
 30
0.0
 11
273.9354161991014
 21
207.5416861086181
 31
0.0
  0
ARC
  5
3F2C
330
1A
100
AcDbEntity
  8
NOKITOI
100
AcDbCircle
 10
264.391555274833
 20
202.5416851086181
 30
0.0
 40
1.500000008557655
100
AcDbArc
 50
90.0
 51
170.9468821659906
  0
ARC
  5
3F2D
330
1A
100
AcDbEntity
  8
SEIHIN
100
AcDbCircle
 10
260.9353961991014
 20
207.0416851086181
 30
0.0
 40
0.4999998000000002
100
AcDbArc
 50
90.0
 51
180.0
  0
LINE
  5
3F2E
330
1A
100
AcDbEntity
  8
SEIHIN
100
AcDbLine
 10
262.4353961991014
 20
205.5317851086181
 30
0.0
 11
262.4449961991012
 21
205.6312621086181
 31
0.0
  0
LINE
  5
3F2F
330
1A
100
AcDbEntity
  8
SEIHIN
100
AcDbLine
 10
262.4449961991012
 20
205.6312621086181
 30
0.0
 11
262.4734661991012
 21
205.7269141086181
 31
0.0
  0
LINE
  5
3F30
330
1A
100
AcDbEntity
  8
SEIHIN
100
AcDbLine
 10
262.4734661991012
 20
205.7269141086181
 30
0.0
 11
262.5196661991012
 21
205.8150691086181
 31
0.0
  0
LINE
  5
3F31
330
1A
100
AcDbEntity
  8
SEIHIN
100
AcDbLine
 10
262.5196661991012
 20
205.8150691086181
 30
0.0
 11
262.5818561991013
 21
205.8923401086181
 31
0.0
  0
LINE
  5
3F32
330
1A
100
AcDbEntity
  8
SEIHIN
100
AcDbLine
 10
262.5818561991013
 20
205.8923401086181
 30
0.0
 11
262.6576061991013
 21
205.9557511086182
 31
0.0
  0
LINE
  5
3F33
330
1A
100
AcDbEntity
  8
SEIHIN
100
AcDbLine
 10
262.6576061991013
 20
205.9557511086182
 30
0.0
 11
262.7440661991013
 21
206.0028721086181
 31
0.0
  0
LINE
  5
3F34
330
1A
100
AcDbEntity
  8
SEIHIN
100
AcDbLine
 10
262.7440661991013
 20
206.0028721086181
 30
0.0
 11
262.8378461991012
 21
206.0318881086181
 31
0.0
  0
LINE
  5
3F35
330
1A
100
AcDbEntity
  8
SEIHIN
100
AcDbLine
 10
262.8378461991012
 20
206.0318881086181
 30
0.0
 11
262.9354061991012
 21
206.0416861086181
 31
0.0
  0
LINE
  5
3F36
330
1A
100
AcDbEntity
  8
SEIHIN
100
AcDbLine
 10
262.4353961991014
 20
204.5416861086181
 30
0.0
 11
262.4449961991012
 21
204.6392311086181
 31
0.0
  0
LINE
  5
3F37
330
1A
100
AcDbEntity
  8
SEIHIN
100
AcDbLine
 10
262.4449961991012
 20
204.6392311086181
 30
0.0
 11
262.4734661991012
 21
204.7330291086181
 31
0.0
  0
LINE
  5
3F38
330
1A
100
AcDbEntity
  8
SEIHIN
100
AcDbLine
 10
262.4734661991012
 20
204.7330291086181
 30
0.0
 11
262.5196661991012
 21
204.8194711086181
 31
0.0
  0
LINE
  5
3F39
330
1A
100
AcDbEntity
  8
SEIHIN
100
AcDbLine
 10
262.5196661991012
 20
204.8194711086181
 30
0.0
 11
262.5818561991013
 21
204.8952391086181
 31
0.0
  0
LINE
  5
3F3A
330
1A
100
AcDbEntity
  8
SEIHIN
100
AcDbLine
 10
262.5818561991013
 20
204.8952391086181
 30
0.0
 11
262.6576061991013
 21
204.9574201086181
 31
0.0
  0
LINE
  5
3F3B
330
1A
100
AcDbEntity
  8
SEIHIN
100
AcDbLine
 10
262.6576061991013
 20
204.9574201086181
 30
0.0
 11
262.7440661991013
 21
205.0036261086181
 31
0.0
  0
LINE
  5
3F3C
330
1A
100
AcDbEntity
  8
SEIHIN
100
AcDbLine
 10
262.7440661991013
 20
205.0036261086181
 30
0.0
 11
262.8378461991012
 21
205.0320781086181
 31
0.0
  0
LINE
  5
3F3D
330
1A
100
AcDbEntity
  8
SEIHIN
100
AcDbLine
 10
262.8378461991012
 20
205.0320781086181
 30
0.0
 11
262.9354061991012
 21
205.0416871086181
 31
0.0
  0
LINE
  5
3F3E
330
1A
100
AcDbEntity
  8
SEIHIN
100
AcDbLine
 10
275.4354161991013
 20
207.5416861086181
 30
0.0
 11
275.3378561991012
 21
207.532080108618
 31
0.0
  0
LINE
  5
3F3F
330
1A
100
AcDbEntity
  8
SEIHIN
100
AcDbLine
 10
275.3378561991012
 20
207.532080108618
 30
0.0
 11
275.2440461991013
 21
207.5036251086181
 31
0.0
  0
LINE
  5
3F40
330
1A
100
AcDbEntity
  8
SEIHIN
100
AcDbLine
 10
275.2440461991013
 20
207.5036251086181
 30
0.0
 11
275.1576161991013
 21
207.4574221086181
 31
0.0
  0
LINE
  5
3F41
330
1A
100
AcDbEntity
  8
SEIHIN
100
AcDbLine
 10
275.1576161991013
 20
207.4574221086181
 30
0.0
 11
275.0818361991014
 21
207.3952381086181
 31
0.0
  0
LINE
  5
3F42
330
1A
100
AcDbEntity
  8
SEIHIN
100
AcDbLine
 10
275.0818361991014
 20
207.3952381086181
 30
0.0
 11
275.0196761991014
 21
207.3194701086181
 31
0.0
  0
LINE
  5
3F43
330
1A
100
AcDbEntity
  8
SEIHIN
100
AcDbLine
 10
275.0196761991014
 20
207.3194701086181
 30
0.0
 11
274.9734761991012
 21
207.2330281086181
 31
0.0
  0
LINE
  5
3F44
330
1A
100
AcDbEntity
  8
SEIHIN
100
AcDbLine
 10
274.9734761991012
 20
207.2330281086181
 30
0.0
 11
274.9450061991012
 21
207.1392301086181
 31
0.0
  0
LINE
  5
3F45
330
1A
100
AcDbEntity
  8
SEIHIN
100
AcDbLine
 10
274.9450061991012
 20
207.1392301086181
 30
0.0
 11
274.9354061991011
 21
207.0416851086181
 31
0.0
  0
LINE
  5
3F46
330
1A
100
AcDbEntity
  8
SEIHIN
100
AcDbLine
 10
274.4353961991014
 20
206.0684821086181
 30
0.0
 11
274.6378961991013
 21
206.0556601086181
 31
0.0
  0
LINE
  5
3F47
330
1A
100
AcDbEntity
  8
SEIHIN
100
AcDbLine
 10
274.6378961991013
 20
206.0556601086181
 30
0.0
 11
274.8075461991013
 21
205.9744651086181
 31
0.0
  0
LINE
  5
3F48
330
1A
100
AcDbEntity
  8
SEIHIN
100
AcDbLine
 10
274.8075461991013
 20
205.9744651086181
 30
0.0
 11
274.9214561991013
 21
205.8180661086181
 31
0.0
  0
LINE
  5
3F49
330
1A
100
AcDbEntity
  8
SEIHIN
100
AcDbLine
 10
274.9214561991013
 20
205.8180661086181
 30
0.0
 11
274.9353761991014
 21
205.7347441086181
 31
0.0
  0
LINE
  5
3F4A
330
1A
100
AcDbEntity
  8
SEIHIN
100
AcDbLine
 10
274.9353761991014
 20
205.7347441086181
 30
0.0
 11
274.9354061991011
 21
205.7317831086181
 31
0.0
  0
LINE
  5
3F4B
330
1A
100
AcDbEntity
  8
SEIHIN
100
AcDbLine
 10
274.4353961991014
 20
206.0684821086181
 30
0.0
 11
274.2774161991012
 21
206.053746108618
 31
0.0
  0
LINE
  5
3F4C
330
1A
100
AcDbEntity
  8
SEIHIN
100
AcDbLine
 10
274.2774161991012
 20
206.053746108618
 30
0.0
 11
274.1090561991013
 21
206.0447251086181
 31
0.0
  0
LINE
  5
3F4D
330
1A
100
AcDbEntity
  8
SEIHIN
100
AcDbLine
 10
274.1090561991013
 20
206.0447251086181
 30
0.0
 11
273.9354161991014
 21
206.0416861086181
 31
0.0
  0
LINE
  5
3F4E
330
1A
100
AcDbEntity
  8
SEIHIN
100
AcDbLine
 10
273.9354161991014
 20
206.0416861086181
 30
0.0
 11
273.9354161991014
 21
207.0416851086181
 31
0.0
  0
LINE
  5
3F4F
330
1A
100
AcDbEntity
  8
SEIHIN
100
AcDbLine
 10
274.4353961991014
 20
205.0416871086181
 30
0.0
 11
274.5222161991012
 21
205.034091108618
 31
0.0
  0
LINE
  5
3F50
330
1A
100
AcDbEntity
  8
SEIHIN
100
AcDbLine
 10
274.5222161991012
 20
205.034091108618
 30
0.0
 11
274.6064261991014
 21
205.0115311086181
 31
0.0
  0
LINE
  5
3F51
330
1A
100
AcDbEntity
  8
SEIHIN
100
AcDbLine
 10
274.6064261991014
 20
205.0115311086181
 30
0.0
 11
274.6854161991013
 21
204.9747001086181
 31
0.0
  0
LINE
  5
3F52
330
1A
100
AcDbEntity
  8
SEIHIN
100
AcDbLine
 10
274.6854161991013
 20
204.9747001086181
 30
0.0
 11
274.7567861991012
 21
204.9247081086181
 31
0.0
  0
LINE
  5
3F53
330
1A
100
AcDbEntity
  8
SEIHIN
100
AcDbLine
 10
274.7567861991012
 20
204.9247081086181
 30
0.0
 11
274.8184361991013
 21
204.8630791086181
 31
0.0
  0
LINE
  5
3F54
330
1A
100
AcDbEntity
  8
SEIHIN
100
AcDbLine
 10
274.8184361991013
 20
204.8630791086181
 30
0.0
 11
274.8684161991013
 21
204.7916851086181
 31
0.0
  0
LINE
  5
3F55
330
1A
100
AcDbEntity
  8
SEIHIN
100
AcDbLine
 10
274.8684161991013
 20
204.7916851086181
 30
0.0
 11
274.9052561991013
 21
204.7126951086181
 31
0.0
  0
LINE
  5
3F56
330
1A
100
AcDbEntity
  8
SEIHIN
100
AcDbLine
 10
274.9052561991013
 20
204.7126951086181
 30
0.0
 11
274.9278161991012
 21
204.6285091086181
 31
0.0
  0
LINE
  5
3F57
330
1A
100
AcDbEntity
  8
SEIHIN
100
AcDbLine
 10
274.9278161991012
 20
204.6285091086181
 30
0.0
 11
274.9354061991011
 21
204.5416861086181
 31
0.0
  0
LINE
  5
3F58
330
1A
100
AcDbEntity
  8
SEIHIN
100
AcDbLine
 10
274.4353961991014
 20
205.0416871086181
 30
0.0
 11
274.4353961991014
 21
206.0684821086181
 31
0.0
  0
LINE
  5
3F59
330
1A
100
AcDbEntity
  8
SEIHIN
100
AcDbLine
 10
273.9354161991014
 20
207.0416851086181
 30
0.0
 11
273.9354161991014
 21
207.5416861086181
 31
0.0
  0
LINE
  5
3F5A
330
1A
100
AcDbEntity
  8
SEIHIN
100
AcDbLine
 10
273.9354161991014
 20
207.5416861086181
 30
0.0
 11
275.4354161991013
 21
207.5416861086181
 31
0.0
  0
LINE
  5
3F5B
330
1A
100
AcDbEntity
  8
SEIHIN
100
AcDbLine
 10
274.4228561991012
 20
205.0416871086181
 30
0.0
 11
274.3181861991013
 21
203.0444281086181
 31
0.0
  0
LINE
  5
3F5C
330
1A
100
AcDbEntity
  8
SEIHIN
100
AcDbLine
 10
272.6329361991013
 20
207.5416861086181
 30
0.0
 11
273.9745661991012
 21
207.5416861086181
 31
0.0
  0
LINE
  5
3F5D
330
1A
100
AcDbEntity
  8
SEIHIN
100
AcDbLine
 10
269.7766361991014
 20
207.5416861086181
 30
0.0
 11
272.6329361991013
 21
207.5416861086181
 31
0.0
  0
LINE
  5
3F5E
330
1A
100
AcDbEntity
  8
SEIHIN
100
AcDbLine
 10
269.7766361991014
 20
207.5416861086181
 30
0.0
 11
270.5439761991012
 21
207.5416861086181
 31
0.0
  0
LINE
  5
3F5F
330
1A
100
AcDbEntity
  8
STOPPER
100
AcDbLine
 10
274.8638561991012
 20
209.6394031086181
 30
0.0
 11
273.4050761991013
 21
209.6394031086181
 31
0.0
  0
ARC
  5
3F60
330
1A
100
AcDbEntity
  8
STOPPER
100
AcDbCircle
 10
273.4050761991013
 20
206.6394031086181
 30
0.0
 40
3.0
100
AcDbArc
 50
90.0
 51
162.4967000000003
  0
ARC
  5
3F61
330
1A
100
AcDbEntity
  8
STOPPER
100
AcDbCircle
 10
281.1156461991013
 20
206.6394031086181
 30
0.0
 40
3.0
100
AcDbArc
 50
357.0000000000005
 51
90.0
  0
LINE
  5
3F62
330
1A
100
AcDbEntity
  8
SEIHIN
100
AcDbLine
 10
282.0090461991012
 20
206.4901471086181
 30
0.0
 11
282.0021161991012
 21
206.6700301086181
 31
0.0
  0
LINE
  5
3F63
330
1A
100
AcDbEntity
  8
SEIHIN
100
AcDbLine
 10
282.0021161991012
 20
206.6700301086181
 30
0.0
 11
281.9630261991012
 21
206.8457551086181
 31
0.0
  0
LINE
  5
3F64
330
1A
100
AcDbEntity
  8
SEIHIN
100
AcDbLine
 10
281.9630261991012
 20
206.8457551086181
 30
0.0
 11
281.8930661991012
 21
207.0116281086181
 31
0.0
  0
LINE
  5
3F65
330
1A
100
AcDbEntity
  8
SEIHIN
100
AcDbLine
 10
281.8930661991012
 20
207.0116281086181
 30
0.0
 11
281.7945161991012
 21
207.1622701086181
 31
0.0
  0
LINE
  5
3F66
330
1A
100
AcDbEntity
  8
SEIHIN
100
AcDbLine
 10
281.7945161991012
 20
207.1622701086181
 30
0.0
 11
281.6705561991011
 21
207.2928001086181
 31
0.0
  0
LINE
  5
3F67
330
1A
100
AcDbEntity
  8
SEIHIN
100
AcDbLine
 10
281.6705561991011
 20
207.2928001086181
 30
0.0
 11
281.5251761991012
 21
207.3989911086181
 31
0.0
  0
LINE
  5
3F68
330
1A
100
AcDbEntity
  8
SEIHIN
100
AcDbLine
 10
281.5251761991012
 20
207.3989911086181
 30
0.0
 11
281.3631461991012
 21
207.4773991086181
 31
0.0
  0
LINE
  5
3F69
330
1A
100
AcDbEntity
  8
SEIHIN
100
AcDbLine
 10
281.3631461991012
 20
207.4773991086181
 30
0.0
 11
281.1896561991013
 21
207.5254831086181
 31
0.0
  0
LINE
  5
3F6A
330
1A
100
AcDbEntity
  8
SEIHIN
100
AcDbLine
 10
281.1896561991013
 20
207.5254831086181
 30
0.0
 11
281.0103761991013
 21
207.5416861086181
 31
0.0
  0
LINE
  5
3F6B
330
1A
100
AcDbEntity
  8
SEIHIN
100
AcDbLine
 10
282.0090461991012
 20
206.4901471086181
 30
0.0
 11
282.0090161991013
 21
206.4893491086181
 31
0.0
  0
LINE
  5
3F6C
330
1A
100
AcDbEntity
  8
STOPPER
100
AcDbLine
 10
281.1156461991013
 20
209.6394031086181
 30
0.0
 11
279.7616861991014
 21
209.6394031086181
 31
0.0
  0
ARC
  5
3F6D
330
1A
100
AcDbEntity
  8
STOPPER
100
AcDbCircle
 10
281.1156461991013
 20
206.6394031086181
 30
0.0
 40
0.9999998999999998
100
AcDbArc
 50
357.0000000000005
 51
90.0
  0
LINE
  5
3F6E
330
1A
100
AcDbEntity
  8
SEIHIN
100
AcDbLine
 10
278.0075861991012
 20
207.5416861086181
 30
0.0
 11
278.0062661991012
 21
207.5416861086181
 31
0.0
  0
LINE
  5
3F6F
330
1A
100
AcDbEntity
  8
SEIHIN
100
AcDbLine
 10
279.0049661991013
 20
206.4906631086181
 30
0.0
 11
278.9979461991013
 21
206.670342108618
 31
0.0
  0
LINE
  5
3F70
330
1A
100
AcDbEntity
  8
SEIHIN
100
AcDbLine
 10
278.9979461991013
 20
206.670342108618
 30
0.0
 11
278.9588861991012
 21
206.8458601086181
 31
0.0
  0
LINE
  5
3F71
330
1A
100
AcDbEntity
  8
SEIHIN
100
AcDbLine
 10
278.9588861991012
 20
206.8458601086181
 30
0.0
 11
278.8890161991012
 21
207.0115441086181
 31
0.0
  0
LINE
  5
3F72
330
1A
100
AcDbEntity
  8
SEIHIN
100
AcDbLine
 10
278.8890161991012
 20
207.0115441086181
 30
0.0
 11
278.7905861991014
 21
207.1620361086181
 31
0.0
  0
LINE
  5
3F73
330
1A
100
AcDbEntity
  8
SEIHIN
100
AcDbLine
 10
278.7905861991014
 20
207.1620361086181
 30
0.0
 11
278.6668061991012
 21
207.2924701086181
 31
0.0
  0
LINE
  5
3F74
330
1A
100
AcDbEntity
  8
SEIHIN
100
AcDbLine
 10
278.6668061991012
 20
207.2924701086181
 30
0.0
 11
278.5216661991012
 21
207.3986281086181
 31
0.0
  0
LINE
  5
3F75
330
1A
100
AcDbEntity
  8
SEIHIN
100
AcDbLine
 10
278.5216661991012
 20
207.3986281086181
 30
0.0
 11
278.3598761991013
 21
207.4770781086181
 31
0.0
  0
LINE
  5
3F76
330
1A
100
AcDbEntity
  8
SEIHIN
100
AcDbLine
 10
278.3598761991013
 20
207.4770781086181
 30
0.0
 11
278.1866561991014
 21
207.5252821086181
 31
0.0
  0
LINE
  5
3F77
330
1A
100
AcDbEntity
  8
SEIHIN
100
AcDbLine
 10
278.1866561991014
 20
207.5252821086181
 30
0.0
 11
278.0075861991012
 21
207.5416861086181
 31
0.0
  0
LINE
  5
3F78
330
1A
100
AcDbEntity
  8
SEIHIN
100
AcDbLine
 10
279.0049061991012
 20
206.4893491086181
 30
0.0
 11
279.0049661991013
 21
206.4906631086181
 31
0.0
  0
LINE
  5
3F79
330
1A
100
AcDbEntity
  8
SEIHIN
100
AcDbLine
 10
278.0062661991012
 20
207.5416861086181
 30
0.0
 11
281.0103761991013
 21
207.5416861086181
 31
0.0
  0
DIMENSION
  5
3F7A
330
1A
100
AcDbEntity
  8
SUNPOU
100
AcDbDimension
  2
*D5
 10
455.6630561991016
 20
280.3758062867768
 30
0.0
 11
585.1630511991015
 21
285.3758062867768
 31
0.0
 70
    32
 71
     5
 42
-1.0
  3
STANDARD
100
AcDbAlignedDimension
 13
714.6630461991015
 23
308.0963667334005
 33
0.0
 14
455.6630561991016
 24
308.1211167334005
 34
0.0
100
AcDbRotatedDimension
1001
ACAD
1000
DSTYLE
1002
{
1070
    41
1040
7.0
1070
    42
1040
6.0
1070
    43
1040
14.0
1070
    44
1040
3.0
1070
    73
1070
     0
1070
    74
1070
     0
1070
    77
1070
     3
1070
   140
1040
6.0
1070
   141
1040
150.0
1070
   147
1040
2.0
1070
   172
1070
     1
1070
   173
1070
     1
1070
   176
1070
   256
1070
   177
1070
   256
1070
   178
1070
   256
1070
   271
1070
     0
1070
   272
1070
     0
1070
   341
1005
6D
1070
     6
1000
OPEN
1070
     7
1000
OPEN
1070
   371
1070
    -1
1070
   372
1070
    -1
1002
}
  0
DIMENSION
  5
3F7B
330
1A
100
AcDbEntity
  8
SUNPOU
100
AcDbDimension
  2
*D6
 10
724.6630361991012
 20
260.4813456793231
 30
0.0
 11
585.1630361991014
 21
265.4813456793231
 31
0.0
 70
    32
 71
     5
 42
-1.0
  3
STANDARD
100
AcDbAlignedDimension
 13
445.6630361991015
 23
207.0416851086181
 33
0.0
 14
724.6630361991012
 24
207.0416851086181
 34
0.0
100
AcDbRotatedDimension
1001
ACAD
1000
DSTYLE
1002
{
1070
    41
1040
7.0
1070
    42
1040
6.0
1070
    43
1040
14.0
1070
    44
1040
3.0
1070
    73
1070
     0
1070
    74
1070
     0
1070
    77
1070
     3
1070
   140
1040
6.0
1070
   141
1040
150.0
1070
   147
1040
2.0
1070
   172
1070
     1
1070
   173
1070
     1
1070
   176
1070
   256
1070
   177
1070
   256
1070
   178
1070
   256
1070
   271
1070
     0
1070
   272
1070
     0
1070
   341
1005
6D
1070
     6
1000
OPEN
1070
     7
1000
OPEN
1070
   371
1070
    -1
1070
   372
1070
    -1
1002
}
  0
LINE
  5
3F7C
330
1A
100
AcDbEntity
  8
SEIHIN
100
AcDbLine
 10
680.6630261991013
 20
207.5416861086181
 30
0.0
 11
704.6380361991014
 21
207.5416861086181
 31
0.0
  0
LINE
  5
3F7D
330
1A
100
AcDbEntity
  8
SEIHIN
100
AcDbLine
 10
704.6630261991013
 20
176.5416871086181
 30
0.0
 11
680.6630261991013
 21
176.5416871086181
 31
0.0
  0
LINE
  5
3F7E
330
1A
100
AcDbEntity
  8
SEIHIN
100
AcDbLine
 10
680.6630261991013
 20
81.54168610861811
 30
0.0
 11
704.5718261991014
 21
81.54168610861811
 31
0.0
  0
TEXT
  5
3F7F
330
1A
100
AcDbEntity
  8
SUNPOU
 62
     4
100
AcDbText
 10
648.2647313792377
 20
59.13528750992856
 30
0.0
 40
8.0
  1
※ のきといの差込み寸法を示す。
100
AcDbText
  0
LINE
  5
3F82
330
1A
100
AcDbEntity
  8
SEIHIN
100
AcDbLine
 10
516.6630461991013
 20
170.5416871086181
 30
0.0
 11
516.6630461991012
 21
76.94168710861811
 31
0.0
  0
LINE
  5
3F83
330
1A
100
AcDbEntity
  8
SEIHIN
100
AcDbLine
 10
499.6630361991013
 20
176.5416837559135
 30
0.0
 11
499.6630361991015
 21
81.54168610861811
 31
0.0
  0
LINE
  5
3F84
330
1A
100
AcDbEntity
  8
SEIHIN
100
AcDbLine
 10
590.6630261991014
 20
76.94168710861811
 30
0.0
 11
590.6630261991012
 21
170.5416871086181
 31
0.0
  0
LINE
  5
3F85
330
1A
100
AcDbEntity
  8
SEIHIN
100
AcDbLine
 10
607.6630361991014
 20
170.1208411086181
 30
0.0
 11
607.6630361991014
 21
78.54168610861811
 31
0.0
  0
LINE
  5
3F86
330
1A
100
AcDbEntity
  8
SEIHIN
100
AcDbLine
 10
680.6630261991013
 20
171.5416861086181
 30
0.0
 11
680.6630261991013
 21
79.54168510861808
 31
0.0
  0
LINE
  5
3F87
330
1A
100
AcDbEntity
  8
SEIHIN
100
AcDbLine
 10
465.6630461991012
 20
81.54168610861811
 30
0.0
 11
465.6630461991013
 21
176.5416871086181
 31
0.0
  0
LINE
  5
3F88
330
1A
100
AcDbEntity
  8
SEIHIN
100
AcDbLine
 10
455.6630261991013
 20
176.6217121086181
 30
0.0
 11
455.6630261991013
 21
82.04168710861813
 31
0.0
  0
LINE
  5
3F89
330
1A
100
AcDbEntity
  8
SEIHIN
100
AcDbLine
 10
445.6630361991015
 20
82.04168710861813
 30
0.0
 11
445.6630361991014
 21
179.0416861086181
 31
0.0
  0
LINE
  5
3F8A
330
1A
100
AcDbEntity
  8
SEIHIN
100
AcDbLine
 10
590.6630261991012
 20
76.94168710861811
 30
0.0
 11
516.6630461991012
 21
76.94168710861811
 31
0.0
  0
LINE
  5
3F8B
330
1A
100
AcDbEntity
  8
SEIHIN
100
AcDbLine
 10
465.7542461991012
 20
81.54168610861811
 30
0.0
 11
499.6630361991015
 21
81.54168610861811
 31
0.0
  0
LINE
  5
3F8C
330
1A
100
AcDbEntity
  8
SEIHIN
100
AcDbLine
 10
455.6630261991013
 20
82.04168710861813
 30
0.0
 11
462.3283061991014
 21
81.71057410861811
 31
0.0
  0
LINE
  5
3F8D
330
1A
100
AcDbEntity
  8
SEIHIN
100
AcDbLine
 10
455.6630261991013
 20
81.54168610861811
 30
0.0
 11
465.7542461991012
 21
81.54168610861811
 31
0.0
  0
LINE
  5
3F8E
330
1A
100
AcDbEntity
  8
SEIHIN
100
AcDbLine
 10
445.6630361991015
 20
82.04168710861813
 30
0.0
 11
455.6630261991013
 21
81.54168610861811
 31
0.0
  0
LINE
  5
3F8F
330
1A
100
AcDbEntity
  8
SEIHIN
100
AcDbLine
 10
455.6630261991013
 20
82.04168710861813
 30
0.0
 11
445.6630361991015
 21
82.04168710861813
 31
0.0
  0
LINE
  5
3F93
330
1A
100
AcDbEntity
  8
SEIHIN
100
AcDbLine
 10
462.3283061991014
 20
81.71057410861811
 30
0.0
 11
465.6630461991012
 21
81.54509710861811
 31
0.0
  0
LINE
  5
3F95
330
1A
100
AcDbEntity
  8
SEIHIN
100
AcDbLine
 10
499.6630361991015
 20
81.54168610861811
 30
0.0
 11
516.6630461991012
 21
76.94168710861811
 31
0.0
  0
LINE
  5
3F9B
330
1A
100
AcDbEntity
  8
SEIHIN
100
AcDbLine
 10
680.6630261991013
 20
79.54168510861808
 30
0.0
 11
607.6630361991014
 21
78.54168610861811
 31
0.0
  0
LINE
  5
3F9C
330
1A
100
AcDbEntity
  8
SEIHIN
100
AcDbLine
 10
590.6630261991012
 20
76.94168710861811
 30
0.0
 11
607.6630361991014
 21
78.53168710861812
 31
0.0
  0
LINE
  5
3FA0
330
1A
100
AcDbEntity
  8
STOPPER
100
AcDbLine
 10
559.3130261991014
 20
212.6380111086181
 30
0.0
 11
544.3130261991013
 21
212.6380111086181
 31
0.0
  0
LINE
  5
3FA1
330
1A
100
AcDbEntity
  8
STOPPER
100
AcDbLine
 10
544.3130261991013
 20
206.4823951086181
 30
0.0
 11
559.3130261991014
 21
206.4823951086181
 31
0.0
  0
LINE
  5
3FA2
330
1A
100
AcDbEntity
  8
STOPPER
100
AcDbLine
 10
544.3130261991013
 20
209.6394031086181
 30
0.0
 11
559.3130261991014
 21
209.6394031086181
 31
0.0
  0
LINE
  5
3FA3
330
1A
100
AcDbEntity
  8
STOPPER
100
AcDbLine
 10
544.3130261991013
 20
170.8085641086181
 30
0.0
 11
559.3130261991014
 21
170.8085641086181
 31
0.0
  0
LINE
  5
3FA4
330
1A
100
AcDbEntity
  8
STOPPER
100
AcDbLine
 10
544.3130261991013
 20
168.4394041086181
 30
0.0
 11
559.3130261991014
 21
168.4394041086181
 31
0.0
  0
LINE
  5
3FA5
330
1A
100
AcDbEntity
  8
STOPPER
100
AcDbLine
 10
544.3130261991013
 20
145.3378411086181
 30
0.0
 11
559.3130261991014
 21
145.3378411086181
 31
0.0
  0
LINE
  5
3FA6
330
1A
100
AcDbEntity
  8
STOPPER
100
AcDbLine
 10
544.3130261991013
 20
165.4394041086181
 30
0.0
 11
559.3130261991014
 21
165.4394041086181
 31
0.0
  0
LINE
  5
3FA7
330
1A
100
AcDbEntity
  8
STOPPER
100
AcDbLine
 10
544.3130261991013
 20
147.1494421086181
 30
0.0
 11
559.3130261991014
 21
147.1494421086181
 31
0.0
  0
LINE
  5
3FA8
330
1A
100
AcDbEntity
  8
STOPPER
100
AcDbLine
 10
544.3130261991013
 20
145.7852731086181
 30
0.0
 11
559.3130261991014
 21
145.7852731086181
 31
0.0
  0
LINE
  5
3FA9
330
1A
100
AcDbEntity
  8
SEIHIN
100
AcDbLine
 10
465.6630461991012
 20
207.5416861086181
 30
0.0
 11
499.7505761991014
 21
207.5416861086181
 31
0.0
  0
LINE
  5
3FAA
330
1A
100
AcDbEntity
  8
SEIHIN
100
AcDbLine
 10
499.6630361991015
 20
176.5416871086181
 30
0.0
 11
465.6630461991012
 21
176.5416871086181
 31
0.0
  0
LINE
  5
3FAB
330
1A
100
AcDbEntity
  8
SEIHIN
100
AcDbLine
 10
455.6630261991013
 20
207.0416851086181
 30
0.0
 11
465.6630161991015
 21
207.5416861086181
 31
0.0
  0
LINE
  5
3FAC
330
1A
100
AcDbEntity
  8
SEIHIN
100
AcDbLine
 10
455.6630261991013
 20
207.5416861086181
 30
0.0
 11
465.6630461991012
 21
207.5416861086181
 31
0.0
  0
LINE
  5
3FAD
330
1A
100
AcDbEntity
  8
SEIHIN
100
AcDbLine
 10
465.6630461991012
 20
176.5416871086181
 30
0.0
 11
455.6630261991013
 21
177.0416851086181
 31
0.0
  0
LINE
  5
3FAE
330
1A
100
AcDbEntity
  8
SEIHIN
100
AcDbLine
 10
455.6630261991012
 20
207.0416851086181
 30
0.0
 11
455.6630261991013
 21
177.5149261086181
 31
0.0
  0
LINE
  5
3FAF
330
1A
100
AcDbEntity
  8
SEIHIN
100
AcDbLine
 10
445.6630361991015
 20
179.0416861086181
 30
0.0
 11
445.6630361991015
 21
207.0416851086181
 31
0.0
  0
LINE
  5
3FB1
330
1A
100
AcDbEntity
  8
SEIHIN
100
AcDbLine
 10
445.6630361991015
 20
179.0416861086181
 30
0.0
 11
455.6630261991013
 21
179.0416861086181
 31
0.0
  0
LINE
  5
3FB3
330
1A
100
AcDbEntity
  8
SEIHIN
100
AcDbLine
 10
455.6630261991013
 20
177.0416851086181
 30
0.0
 11
455.6630261991013
 21
177.5149261086181
 31
0.0
  0
LINE
  5
3FB4
330
1A
100
AcDbEntity
  8
SEIHIN
100
AcDbLine
 10
455.6630261991013
 20
176.6217121086181
 30
0.0
 11
455.6630261991013
 21
177.0416851086181
 31
0.0
  0
LINE
  5
3FB5
330
1A
100
AcDbEntity
  8
SEIHIN
100
AcDbLine
 10
445.6630361991015
 20
207.0416851086181
 30
0.0
 11
455.6630261991013
 21
207.5416861086181
 31
0.0
  0
LINE
  5
3FB6
330
1A
100
AcDbEntity
  8
SEIHIN
100
AcDbLine
 10
455.6630261991013
 20
207.0416851086181
 30
0.0
 11
445.6630361991015
 21
207.0416851086181
 31
0.0
  0
LINE
  5
3FB8
330
1A
100
AcDbEntity
  8
SEIHIN
100
AcDbLine
 10
465.6630461991012
 20
176.5416871086181
 30
0.0
 11
465.6630461991012
 21
207.5416861086181
 31
0.0
  0
LINE
  5
3FD7
330
1A
100
AcDbEntity
  8
STOPPER
100
AcDbLine
 10
544.3130261991016
 20
145.3378411086181
 30
0.0
 11
544.3130261991013
 21
212.6380111086181
 31
0.0
  0
LINE
  5
3FD8
330
1A
100
AcDbEntity
  8
SEIHIN
100
AcDbLine
 10
516.7505861991012
 20
207.5416861086181
 30
0.0
 11
544.3130261991013
 21
207.5416861086181
 31
0.0
  0
LINE
  5
3FD9
330
1A
100
AcDbEntity
  8
SEIHIN
100
AcDbLine
 10
544.3130261991013
 20
170.5416871086181
 30
0.0
 11
516.6630461991012
 21
170.5416871086181
 31
0.0
  0
LINE
  5
3FDA
330
1A
100
AcDbEntity
  8
SEIHIN
100
AcDbLine
 10
516.6630461991011
 20
207.5416861086181
 30
0.0
 11
516.6630461991012
 21
170.5416871086181
 31
0.0
  0
LINE
  5
3FDB
330
1A
100
AcDbEntity
  8
SEIHIN
100
AcDbLine
 10
499.6630361991014
 20
207.5416861086181
 30
0.0
 11
499.6630361991015
 21
176.5416837559135
 31
0.0
  0
LINE
  5
3FDC
330
1A
100
AcDbEntity
  8
SEIHIN
100
AcDbLine
 10
516.6619061991013
 20
170.5420861086181
 30
0.0
 11
499.6618961991011
 21
176.5420861086181
 31
0.0
  0
LINE
  5
3FF5
330
1A
100
AcDbEntity
  8
SEIHIN
100
AcDbLine
 10
499.7505761991014
 20
207.5416861086181
 30
0.0
 11
516.7505861991012
 21
207.5416861086181
 31
0.0
  0
LINE
  5
400A
330
1A
100
AcDbEntity
  8
SEIHIN
100
AcDbLine
 10
607.6561961991014
 20
207.5416861086181
 30
0.0
 11
680.6630261991013
 21
207.5416861086181
 31
0.0
  0
LINE
  5
400B
330
1A
100
AcDbEntity
  8
SEIHIN
100
AcDbLine
 10
680.6630261991013
 20
171.5416861086181
 30
0.0
 11
607.6630361991014
 21
170.5416871086181
 31
0.0
  0
LINE
  5
400C
330
1A
100
AcDbEntity
  8
STOPPER
100
AcDbLine
 10
559.3130261991015
 20
145.3378411086181
 30
0.0
 11
559.3130261991014
 21
212.6380111086181
 31
0.0
  0
LINE
  5
400D
330
1A
100
AcDbEntity
  8
SEIHIN
100
AcDbLine
 10
559.3130261991014
 20
207.5416861086181
 30
0.0
 11
607.6561961991014
 21
207.5416861086181
 31
0.0
  0
LINE
  5
400E
330
1A
100
AcDbEntity
  8
SEIHIN
100
AcDbLine
 10
607.6630361991014
 20
170.5416871086181
 30
0.0
 11
559.3130261991014
 21
170.5416871086181
 31
0.0
  0
LINE
  5
400F
330
1A
100
AcDbEntity
  8
SEIHIN
100
AcDbLine
 10
607.6630361991014
 20
171.0155191086181
 30
0.0
 11
607.6630361991014
 21
207.5416861086181
 31
0.0
  0
LINE
  5
402C
330
1A
100
AcDbEntity
  8
SEIHIN
100
AcDbLine
 10
680.6630261991013
 20
206.4893551086181
 30
0.0
 11
680.6630261991013
 21
171.5416861086181
 31
0.0
  0
LINE
  5
402F
330
1A
100
AcDbEntity
  8
SEIHIN
100
AcDbLine
 10
680.6630261991013
 20
207.5416861086181
 30
0.0
 11
680.6630261991013
 21
206.4893551086181
 31
0.0
  0
LINE
  5
4030
330
1A
100
AcDbEntity
  8
SEIHIN
  6
PHANTOM
 62
     6
 48
5.0
100
AcDbLine
 10
766.6630361991012
 20
82.04168710861813
 30
0.0
 11
766.6630361991012
 21
207.5416861086181
 31
0.0
  0
LINE
  5
4031
330
1A
100
AcDbEntity
  8
SEIHIN
  6
PHANTOM
 62
     6
 48
5.0
100
AcDbLine
 10
698.6630261991012
 20
82.04168710861813
 30
0.0
 11
698.6630261991012
 21
207.5416861086181
 31
0.0
  0
LINE
  5
4032
330
1A
100
AcDbEntity
  8
SEIHIN
100
AcDbLine
 10
704.6630261991013
 20
81.54509710861811
 30
0.0
 11
704.6630261991012
 21
176.5416871086181
 31
0.0
  0
LINE
  5
4033
330
1A
100
AcDbEntity
  8
SEIHIN
100
AcDbLine
 10
714.6630461991011
 20
177.0416851086181
 30
0.0
 11
714.6630461991012
 21
82.04168710861813
 31
0.0
  0
LINE
  5
4034
330
1A
100
AcDbEntity
  8
SEIHIN
100
AcDbLine
 10
724.6630361991011
 20
82.04168710861813
 30
0.0
 11
724.6630361991012
 21
178.2006901086181
 31
0.0
  0
LINE
  5
403A
330
1A
100
AcDbEntity
  8
SEIHIN
  6
PHANTOM
 62
     6
 48
5.0
100
AcDbLine
 10
756.6630461991012
 20
81.54168610861811
 30
0.0
 11
714.6630461991012
 21
81.54168610861811
 31
0.0
  0
LINE
  5
403B
330
1A
100
AcDbEntity
  8
SEIHIN
100
AcDbLine
 10
714.6630461991012
 20
82.04168710861813
 30
0.0
 11
724.6630361991012
 21
82.04168710861813
 31
0.0
  0
LINE
  5
403C
330
1A
100
AcDbEntity
  8
SEIHIN
100
AcDbLine
 10
724.6630361991012
 20
82.04168710861813
 30
0.0
 11
714.6630461991012
 21
81.54168610861811
 31
0.0
  0
LINE
  5
403D
330
1A
100
AcDbEntity
  8
SEIHIN
100
AcDbLine
 10
714.6630461991012
 20
84.04168510861811
 30
0.0
 11
724.6630361991012
 21
84.04168510861811
 31
0.0
  0
LINE
  5
403F
330
1A
100
AcDbEntity
  8
SEIHIN
100
AcDbLine
 10
714.6630461991012
 20
82.04168710861813
 30
0.0
 11
707.9977361991013
 21
81.71057410861811
 31
0.0
  0
LINE
  5
4040
330
1A
100
AcDbEntity
  8
SEIHIN
100
AcDbLine
 10
714.6630461991012
 20
81.54168610861811
 30
0.0
 11
704.5718261991014
 21
81.54168610861811
 31
0.0
  0
LINE
  5
4041
330
1A
100
AcDbEntity
  8
SEIHIN
100
AcDbLine
 10
707.9977361991013
 20
81.71057410861811
 30
0.0
 11
704.6630261991013
 21
81.54509710861811
 31
0.0
  0
LINE
  5
4046
330
1A
100
AcDbEntity
  8
SEIHIN
  6
PHANTOM
 62
     6
 48
5.0
100
AcDbLine
 10
766.6630361991012
 20
82.04168710861813
 30
0.0
 11
756.6630461991012
 21
81.54168610861811
 31
0.0
  0
DIMENSION
  5
4047
330
1A
100
AcDbEntity
  8
SUNPOU
100
AcDbDimension
  2
*D7
 10
766.6630361991012
 20
240.7296865209163
 30
0.0
 11
732.6630311991013
 21
245.7296865209164
 31
0.0
 70
    32
 71
     5
 42
-1.0
  3
STANDARD
100
AcDbAlignedDimension
 13
698.6630261991012
 23
207.5416861086181
 33
0.0
 14
766.6630361991012
 24
207.5416861086181
 34
0.0
100
AcDbRotatedDimension
1001
ACAD
1000
DSTYLE
1002
{
1070
    41
1040
7.0
1070
    42
1040
6.0
1070
    43
1040
14.0
1070
    44
1040
3.0
1070
    73
1070
     0
1070
    74
1070
     0
1070
    77
1070
     3
1070
   140
1040
6.0
1070
   141
1040
150.0
1070
   147
1040
2.0
1070
   172
1070
     1
1070
   173
1070
     1
1070
   176
1070
   256
1070
   177
1070
   256
1070
   178
1070
   256
1070
   271
1070
     0
1070
   272
1070
     0
1070
   341
1005
6D
1070
     6
1000
OPEN
1070
     7
1000
OPEN
1070
   371
1070
    -1
1070
   372
1070
    -1
1002
}
  0
DIMENSION
  5
4048
330
1A
100
AcDbEntity
  8
SUNPOU
100
AcDbDimension
  2
*D8
 10
698.6630261991012
 20
227.9898151086181
 30
0.0
 11
711.6630311991011
 21
232.9898151086181
 31
0.0
 70
    32
 71
     5
 42
-1.0
  3
STANDARD
100
AcDbAlignedDimension
 13
724.663036199101
 23
207.5416861086181
 33
0.0
 14
698.6630261991012
 24
207.5416861086181
 34
0.0
100
AcDbRotatedDimension
1001
ACAD
1000
DSTYLE
1002
{
1070
    41
1040
7.0
1070
    42
1040
6.0
1070
    43
1040
14.0
1070
    44
1040
3.0
1070
    73
1070
     0
1070
    74
1070
     0
1070
    77
1070
     3
1070
   140
1040
6.0
1070
   141
1040
150.0
1070
   147
1040
2.0
1070
   172
1070
     1
1070
   173
1070
     1
1070
   176
1070
   256
1070
   177
1070
   256
1070
   178
1070
   256
1070
   271
1070
     0
1070
   272
1070
     0
1070
   341
1005
6D
1070
     6
1000
OPEN
1070
     7
1000
OPEN
1070
   371
1070
    -1
1070
   372
1070
    -1
1002
}
  0
DIMENSION
  5
4049
330
1A
100
AcDbEntity
  8
SUNPOU
100
AcDbDimension
  2
*D9
 10
724.6630361991012
 20
228.2504251086181
 30
0.0
 11
745.6630361991011
 21
233.2504251086181
 31
0.0
 70
    32
 71
     5
 42
-1.0
  3
STANDARD
100
AcDbAlignedDimension
 13
766.6630361991011
 23
207.5416861086181
 33
0.0
 14
724.6630361991012
 24
207.0416851086181
 34
0.0
100
AcDbRotatedDimension
1001
ACAD
1000
DSTYLE
1002
{
1070
    41
1040
7.0
1070
    42
1040
6.0
1070
    43
1040
14.0
1070
    44
1040
3.0
1070
    73
1070
     0
1070
    74
1070
     0
1070
    77
1070
     3
1070
   140
1040
6.0
1070
   141
1040
150.0
1070
   147
1040
2.0
1070
   172
1070
     1
1070
   173
1070
     1
1070
   176
1070
   256
1070
   177
1070
   256
1070
   178
1070
   256
1070
   271
1070
     0
1070
   272
1070
     0
1070
   341
1005
6D
1070
     6
1000
OPEN
1070
     7
1000
OPEN
1070
   371
1070
    -1
1070
   372
1070
    -1
1002
}
  0
LINE
  5
404A
330
1A
100
AcDbEntity
  8
SEIHIN
  6
PHANTOM
 62
     6
 48
5.0
100
AcDbLine
 10
698.6630261991012
 20
207.5416861086181
 30
0.0
 11
766.6630361991012
 21
207.5416861086181
 31
0.0
  0
LINE
  5
404B
330
1A
100
AcDbEntity
  8
SEIHIN
  6
PHANTOM
 62
     6
 48
5.0
100
AcDbLine
 10
698.6630261991012
 20
178.2006901086181
 30
0.0
 11
766.6630361991012
 21
178.2006901086181
 31
0.0
  0
LINE
  5
404C
330
1A
100
AcDbEntity
  8
SEIHIN
100
AcDbLine
 10
714.6630461991012
 20
207.5416861086181
 30
0.0
 11
724.6630361991012
 21
207.5416861086181
 31
0.0
  0
LINE
  5
404D
330
1A
100
AcDbEntity
  8
SEIHIN
100
AcDbLine
 10
724.6630361991012
 20
178.2006901086181
 30
0.0
 11
714.6630461991012
 21
178.2006901086181
 31
0.0
  0
LINE
  5
404E
330
1A
100
AcDbEntity
  8
SEIHIN
100
AcDbLine
 10
704.6630261991013
 20
176.5416871086181
 30
0.0
 11
704.6630261991013
 21
206.4893491086181
 31
0.0
  0
LINE
  5
404F
330
1A
100
AcDbEntity
  8
SEIHIN
100
AcDbLine
 10
714.6630461991012
 20
206.4894151086181
 30
0.0
 11
714.6630461991012
 21
177.0416851086181
 31
0.0
  0
LINE
  5
4050
330
1A
100
AcDbEntity
  8
SEIHIN
100
AcDbLine
 10
714.6630461991012
 20
177.0416851086181
 30
0.0
 11
704.6630261991013
 21
176.5416871086181
 31
0.0
  0
LINE
  5
4066
330
1A
100
AcDbEntity
  8
SEIHIN
100
AcDbLine
 10
704.6380361991014
 20
207.5416861086181
 30
0.0
 11
714.6630461991012
 21
207.5416861086181
 31
0.0
  0
LINE
  5
4067
330
1A
100
AcDbEntity
  8
SEIHIN
100
AcDbLine
 10
704.6630261991013
 20
206.4894151086181
 30
0.0
 11
704.6628461991012
 21
206.6693851086181
 31
0.0
  0
LINE
  5
4068
330
1A
100
AcDbEntity
  8
SEIHIN
100
AcDbLine
 10
704.6628461991012
 20
206.6693851086181
 30
0.0
 11
704.6618861991014
 21
206.8452121086181
 31
0.0
  0
LINE
  5
4069
330
1A
100
AcDbEntity
  8
SEIHIN
100
AcDbLine
 10
704.6618861991014
 20
206.8452121086181
 30
0.0
 11
704.6601461991013
 21
207.0111961086181
 31
0.0
  0
LINE
  5
406A
330
1A
100
AcDbEntity
  8
SEIHIN
100
AcDbLine
 10
704.6601461991013
 20
207.0111961086181
 30
0.0
 11
704.6576861991011
 21
207.1619491086181
 31
0.0
  0
LINE
  5
406B
330
1A
100
AcDbEntity
  8
SEIHIN
100
AcDbLine
 10
704.6576861991011
 20
207.1619491086181
 30
0.0
 11
704.6545661991013
 21
207.2925841086181
 31
0.0
  0
LINE
  5
406C
330
1A
100
AcDbEntity
  8
SEIHIN
100
AcDbLine
 10
704.6545661991013
 20
207.2925841086181
 30
0.0
 11
704.6509361991011
 21
207.3988651086181
 31
0.0
  0
LINE
  5
406D
330
1A
100
AcDbEntity
  8
SEIHIN
100
AcDbLine
 10
704.6509361991011
 20
207.3988651086181
 30
0.0
 11
704.646886199101
 21
207.4773421086181
 31
0.0
  0
LINE
  5
406E
330
1A
100
AcDbEntity
  8
SEIHIN
100
AcDbLine
 10
704.646886199101
 20
207.4773421086181
 30
0.0
 11
704.6425361991014
 21
207.5254681086181
 31
0.0
  0
LINE
  5
406F
330
1A
100
AcDbEntity
  8
SEIHIN
100
AcDbLine
 10
704.6425361991014
 20
207.5254681086181
 30
0.0
 11
704.6380361991014
 21
207.5416861086181
 31
0.0
  0
LINE
  5
4070
330
1A
100
AcDbEntity
  8
SEIHIN
100
AcDbLine
 10
704.6630261991013
 20
206.4893491086181
 30
0.0
 11
704.6630261991013
 21
206.4894151086181
 31
0.0
  0
LINE
  5
4071
330
1A
100
AcDbEntity
  8
SEIHIN
100
AcDbLine
 10
714.6630461991012
 20
207.5416861086181
 30
0.0
 11
714.6630461991012
 21
206.4894151086181
 31
0.0
  0
LINE
  5
4072
330
1A
100
AcDbEntity
  8
SEIHIN
100
AcDbLine
 10
724.6630361991012
 20
178.2006901086181
 30
0.0
 11
724.6630361991012
 21
207.0416851086181
 31
0.0
  0
LINE
  5
4075
330
1A
100
AcDbEntity
  8
SEIHIN
100
AcDbLine
 10
724.6630361991012
 20
207.5416861086181
 30
0.0
 11
724.6630361991012
 21
207.0416851086181
 31
0.0
  0
TEXT
  5
4076
330
1A
100
AcDbEntity
  8
SUNPOU
100
AcDbText
 10
746.4235307947372
 20
249.8945484247309
 30
0.0
 40
9.524999999999998
  1
ｽﾄﾛｰｸ
100
AcDbText
  0
DIMENSION
  5
4077
330
1A
100
AcDbEntity
  8
SUNPOU
100
AcDbDimension
  2
*D10
 10
724.6630361991015
 20
446.5105645049145
 30
0.0
 11
697.9130411991016
 21
451.5105645049145
 31
0.0
 70
    32
  1
\U+203B<>
 71
     5
 42
-1.0
  3
STANDARD
100
AcDbAlignedDimension
 13
671.1630461991017
 23
415.3151667334007
 33
0.0
 14
724.6630361991015
 24
415.3151667334006
 34
0.0
100
AcDbRotatedDimension
1001
ACAD
1000
DSTYLE
1002
{
1070
    41
1040
7.0
1070
    42
1040
6.0
1070
    43
1040
14.0
1070
    44
1040
3.0
1070
    73
1070
     0
1070
    74
1070
     0
1070
    77
1070
     3
1070
   140
1040
6.0
1070
   141
1040
150.0
1070
   147
1040
2.0
1070
   172
1070
     1
1070
   173
1070
     1
1070
   176
1070
   256
1070
   177
1070
   256
1070
   178
1070
   256
1070
   271
1070
     0
1070
   272
1070
     0
1070
   341
1005
6D
1070
     6
1000
OPEN
1070
     7
1000
OPEN
1070
   371
1070
    -1
1070
   372
1070
    -1
1002
}
  0
DIMENSION
  5
4078
330
1A
100
AcDbEntity
  8
SUNPOU
100
AcDbDimension
  2
*D11
 10
445.6630361991017
 20
546.2181243163188
 30
0.0
 11
585.1630361991015
 21
551.2181243163188
 31
0.0
 70
    32
 71
     5
 42
-1.0
  3
STANDARD
100
AcDbAlignedDimension
 13
724.6630361991015
 23
522.5353347334007
 33
0.0
 14
445.6630361991017
 24
522.5091987334008
 34
0.0
100
AcDbRotatedDimension
1001
ACAD
1000
DSTYLE
1002
{
1070
    41
1040
7.0
1070
    42
1040
6.0
1070
    43
1040
14.0
1070
    44
1040
3.0
1070
    73
1070
     0
1070
    74
1070
     0
1070
    77
1070
     3
1070
   140
1040
6.0
1070
   141
1040
150.0
1070
   147
1040
2.0
1070
   172
1070
     1
1070
   173
1070
     1
1070
   176
1070
   256
1070
   177
1070
   256
1070
   178
1070
   256
1070
   271
1070
     0
1070
   272
1070
     0
1070
   341
1005
6D
1070
     6
1000
OPEN
1070
     7
1000
OPEN
1070
   371
1070
    -1
1070
   372
1070
    -1
1002
}
  0
LINE
  5
4079
330
1A
100
AcDbEntity
  8
SEIHIN
100
AcDbLine
 10
685.6730261991015
 20
327.7667367334005
 30
0.0
 11
691.9857665955969
 21
328.6520587884246
 31
0.0
  0
LINE
  5
407A
330
1A
100
AcDbEntity
  8
SEIHIN
100
AcDbLine
 10
671.1630461991017
 20
307.5943167334007
 30
0.0
 11
704.6630861991015
 21
307.5943167334007
 31
0.0
  0
LINE
  5
407B
330
1A
100
AcDbEntity
  8
SEIHIN
100
AcDbLine
 10
671.1630461991017
 20
326.1651567334006
 30
0.0
 11
699.1630361991014
 21
326.1651567334006
 31
0.0
  0
LINE
  5
407C
330
1A
100
AcDbEntity
  8
SEIHIN
100
AcDbLine
 10
691.7206394286331
 20
329.435043597635
 30
0.0
 11
669.6630461991016
 21
328.9966467334006
 31
0.0
  0
LINE
  5
407D
330
1A
100
AcDbEntity
  8
SEIHIN
100
AcDbLine
 10
693.6630461991015
 20
343.3482867334007
 30
0.0
 11
668.6630561991014
 21
343.3482867334006
 31
0.0
  0
LINE
  5
407E
330
1A
100
AcDbEntity
  8
SEIHIN
100
AcDbLine
 10
693.6630461991015
 20
348.0872067334007
 30
0.0
 11
668.6630561991014
 21
348.0872067334007
 31
0.0
  0
LINE
  5
407F
330
1A
100
AcDbEntity
  8
SEIHIN
100
AcDbLine
 10
693.6630461991015
 20
482.5431087334006
 30
0.0
 11
668.6630561991014
 21
482.5431087334006
 31
0.0
  0
LINE
  5
4080
330
1A
100
AcDbEntity
  8
SEIHIN
100
AcDbLine
 10
669.6630461991016
 20
402.8151567334007
 30
0.0
 11
691.8702461991015
 21
400.5019167334007
 31
0.0
  0
LINE
  5
4081
330
1A
100
AcDbEntity
  8
SEIHIN
100
AcDbLine
 10
691.8702461991015
 20
430.1284077334007
 30
0.0
 11
669.6630461991016
 21
427.8151767334007
 31
0.0
  0
LINE
  5
4082
330
1A
100
AcDbEntity
  8
SEIHIN
100
AcDbLine
 10
691.0304861991017
 20
502.1122437334006
 30
0.0
 11
685.6730261991015
 21
502.8635877334006
 31
0.0
  0
LINE
  5
4083
330
1A
100
AcDbEntity
  8
SEIHIN
100
AcDbLine
 10
714.6630761991014
 20
523.0360197334007
 30
0.0
 11
671.1630461991017
 21
523.0360197334007
 31
0.0
  0
LINE
  5
4084
330
1A
100
AcDbEntity
  8
SEIHIN
100
AcDbLine
 10
699.1630361991014
 20
504.4651587334008
 30
0.0
 11
671.1630461991017
 21
504.4651587334008
 31
0.0
  0
LINE
  5
4085
330
1A
100
AcDbEntity
  8
SEIHIN
100
AcDbLine
 10
693.6630461991015
 20
500.6618254162986
 30
0.0
 11
668.6630561991014
 21
501.1587117334006
 31
0.0
  0
LINE
  5
4086
330
1A
100
AcDbEntity
  8
SEIHIN
100
AcDbLine
 10
693.6630461991015
 20
487.2820407334006
 30
0.0
 11
668.6630561991014
 21
487.2820407334006
 31
0.0
  0
LINE
  5
4087
330
1A
100
AcDbEntity
  8
SEIHIN
100
AcDbLine
 10
668.6630561991014
 20
427.8151767334007
 30
0.0
 11
668.6630561991014
 21
505.498955733401
 31
0.0
  0
LINE
  5
4088
330
1A
100
AcDbEntity
  8
SEIHIN
100
AcDbLine
 10
501.6630461991017
 20
516.4503027334006
 30
0.0
 11
501.6630461991017
 21
426.8151567334007
 31
0.0
  0
LINE
  5
4089
330
1A
100
AcDbEntity
  8
SEIHIN
100
AcDbLine
 10
636.6630461991015
 20
505.0976607333963
 30
0.0
 11
636.6630461991035
 21
325.532666733462
 31
0.0
  0
LINE
  5
408A
330
1A
100
AcDbEntity
  8
SEIHIN
100
AcDbLine
 10
516.6630461991017
 20
509.3333727334006
 30
0.0
 11
516.6630461991017
 21
321.3034467334006
 31
0.0
  0
LINE
  5
408B
330
1A
100
AcDbEntity
  8
SEIHIN
100
AcDbLine
 10
546.6630461991017
 20
503.5026537334005
 30
0.0
 11
546.6630461991017
 21
331.4087967334007
 31
0.0
  0
LINE
  5
408C
330
1A
100
AcDbEntity
  8
SEIHIN
100
AcDbLine
 10
542.6630561991014
 20
317.1239367334007
 30
0.0
 11
542.6630561991014
 21
516.4503027334007
 31
0.0
  0
LINE
  5
408D
330
1A
100
AcDbEntity
  8
SEIHIN
100
AcDbLine
 10
445.6630361991015
 20
415.3151667334006
 30
0.0
 11
445.6630361991017
 21
522.5091987334008
 31
0.0
  0
LINE
  5
408E
330
1A
100
AcDbEntity
  8
SEIHIN
100
AcDbLine
 10
476.6630561991014
 20
482.5431087334006
 30
0.0
 11
476.6630561991014
 21
501.3158487334008
 31
0.0
  0
LINE
  5
408F
330
1A
100
AcDbEntity
  8
STOPPER
100
AcDbLine
 10
544.3130561991015
 20
306.7885167334006
 30
0.0
 11
559.3130561991015
 21
306.7885167334006
 31
0.0
  0
LINE
  5
4090
330
1A
100
AcDbEntity
  8
STOPPER
100
AcDbLine
 10
559.3130561991015
 20
311.7871167334007
 30
0.0
 11
544.3130561991015
 21
311.7871167334007
 31
0.0
  0
LINE
  5
4091
330
1A
100
AcDbEntity
  8
STOPPER
100
AcDbLine
 10
544.3130561991015
 20
302.4849267334006
 30
0.0
 11
559.3130561991015
 21
302.4849267334006
 31
0.0
  0
LINE
  5
4092
330
1A
100
AcDbEntity
  8
STOPPER
100
AcDbLine
 10
559.3130561991015
 20
317.2202067334007
 30
0.0
 11
544.3130561991015
 21
317.2202067334007
 31
0.0
  0
LINE
  5
4093
330
1A
100
AcDbEntity
  8
STOPPER
100
AcDbLine
 10
544.3130561991015
 20
305.4849267334006
 30
0.0
 11
559.3130561991015
 21
305.4849267334006
 31
0.0
  0
LINE
  5
4094
330
1A
100
AcDbEntity
  8
STOPPER
100
AcDbLine
 10
544.3130561991015
 20
313.1954967334006
 30
0.0
 11
559.3130561991015
 21
313.1954967334006
 31
0.0
  0
LINE
  5
4095
330
1A
100
AcDbEntity
  8
STOPPER
100
AcDbLine
 10
544.3130561991015
 20
316.1913867334005
 30
0.0
 11
559.3130561991015
 21
316.1913867334005
 31
0.0
  0
LINE
  5
4096
330
1A
100
AcDbEntity
  8
STOPPER
100
AcDbLine
 10
559.3130561991015
 20
317.2188267334005
 30
0.0
 11
544.3130561991015
 21
317.2188267334005
 31
0.0
  0
LINE
  5
4097
330
1A
100
AcDbEntity
  8
SEIHIN
100
AcDbLine
 10
546.6630461991017
 20
327.1276767334006
 30
0.0
 11
636.1566761991014
 21
327.1276767334006
 31
0.0
  0
LINE
  5
4098
330
1A
100
AcDbEntity
  8
SEIHIN
100
AcDbLine
 10
546.6630461991017
 20
331.4087967334007
 30
0.0
 11
636.1630361991014
 21
331.4087967334007
 31
0.0
  0
LINE
  5
4099
330
1A
100
AcDbEntity
  8
SEIHIN
100
AcDbLine
 10
501.6630461991017
 20
403.8151767334008
 30
0.0
 11
501.6630461991017
 21
315.18216644128
 31
0.0
  0
LINE
  5
409A
330
1A
100
AcDbEntity
  8
SEIHIN
100
AcDbLine
 10
476.6630561991016
 20
329.3144667334006
 30
0.0
 11
476.6630561991014
 21
398.5126767334006
 31
0.0
  0
LINE
  5
409B
330
1A
100
AcDbEntity
  8
SEIHIN
100
AcDbLine
 10
455.6630561991016
 20
341.4429267334007
 30
0.0
 11
445.6630361991015
 21
415.3151667334006
 31
0.0
  0
LINE
  5
409C
330
1A
100
AcDbEntity
  8
SEIHIN
100
AcDbLine
 10
499.6630361991015
 20
326.7082467334006
 30
0.0
 11
484.6530461991014
 21
327.7667367334005
 31
0.0
  0
LINE
  5
409D
330
1A
100
AcDbEntity
  8
SEIHIN
100
AcDbLine
 10
465.6617261991016
 20
307.5943167334007
 30
0.0
 11
499.6629161991015
 21
307.5943167334007
 31
0.0
  0
LINE
  5
409E
330
1A
100
AcDbEntity
  8
SEIHIN
100
AcDbLine
 10
471.1630361991015
 20
326.1651567334006
 30
0.0
 11
501.1630361991015
 21
326.1651567334006
 31
0.0
  0
LINE
  5
409F
330
1A
100
AcDbEntity
  8
SEIHIN
100
AcDbLine
 10
500.6630561991014
 20
328.9966467334006
 30
0.0
 11
479.2955861991015
 21
329.4213267334006
 31
0.0
  0
LINE
  5
40A0
330
1A
100
AcDbEntity
  8
SEIHIN
100
AcDbLine
 10
501.6630461991017
 20
343.3482867334006
 30
0.0
 11
476.6630561991014
 21
343.3482867334009
 31
0.0
  0
LINE
  5
40A1
330
1A
100
AcDbEntity
  8
SEIHIN
100
AcDbLine
 10
501.6630461991017
 20
348.0872067334007
 30
0.0
 11
476.6630561991014
 21
348.0872067334007
 31
0.0
  0
LINE
  5
40A2
330
1A
100
AcDbEntity
  8
SEIHIN
100
AcDbLine
 10
455.6630561991016
 20
308.1211167334005
 30
0.0
 11
465.6616961991017
 21
307.5943167334007
 31
0.0
  0
LINE
  5
40A3
330
1A
100
AcDbEntity
  8
SEIHIN
100
AcDbLine
 10
455.6630561991016
 20
311.6651667334007
 30
0.0
 11
469.6630361991014
 21
311.6651667334007
 31
0.0
  0
LINE
  5
40A4
330
1A
100
AcDbEntity
  8
SEIHIN
100
AcDbLine
 10
455.6630561991016
 20
312.1651767334005
 30
0.0
 11
470.5290761991015
 21
312.1651767334005
 31
0.0
  0
LINE
  5
40A5
330
1A
100
AcDbEntity
  8
SEIHIN
100
AcDbLine
 10
470.6630561991016
 20
324.0133467334004
 30
0.0
 11
455.6630561991016
 21
324.0133467334004
 31
0.0
  0
LINE
  5
40A6
330
1A
100
AcDbEntity
  8
SEIHIN
100
AcDbLine
 10
455.6630561991016
 20
325.0006167334008
 30
0.0
 11
470.6630561991016
 21
325.0006167334008
 31
0.0
  0
LINE
  5
40A7
330
1A
100
AcDbEntity
  8
SEIHIN
100
AcDbLine
 10
476.6630561991014
 20
339.9620067334007
 30
0.0
 11
455.6630561991016
 21
339.9620067334007
 31
0.0
  0
LINE
  5
40A8
330
1A
100
AcDbEntity
  8
SEIHIN
100
AcDbLine
 10
476.6630561991014
 20
341.4429267334007
 30
0.0
 11
455.6630561991016
 21
341.4429267334007
 31
0.0
  0
LINE
  5
40A9
330
1A
100
AcDbEntity
  8
SEIHIN
100
AcDbLine
 10
455.6630561991016
 20
308.1211167334005
 30
0.0
 11
455.6630561991016
 21
339.9620067334007
 31
0.0
  0
LINE
  5
40AA
330
1A
100
AcDbEntity
  8
SEIHIN
100
AcDbLine
 10
470.6630561991016
 20
312.6651567334005
 30
0.0
 11
470.6630561991016
 21
325.6651767334005
 31
0.0
  0
LINE
  5
40AB
330
1A
100
AcDbEntity
  8
SEIHIN
100
AcDbLine
 10
465.6630461991016
 20
307.5942456057272
 30
0.0
 11
465.6630461991016
 21
311.6651667334007
 31
0.0
  0
ARC
  5
40AC
330
1A
100
AcDbEntity
  8
SEIHIN
100
AcDbCircle
 10
469.6630361991014
 20
312.6651567334005
 30
0.0
 40
0.9999998999999998
100
AcDbArc
 50
270.0
 51
0.0
  0
ARC
  5
40AD
330
1A
100
AcDbEntity
  8
SEIHIN
100
AcDbCircle
 10
471.1630361991015
 20
325.6651767334005
 30
0.0
 40
0.4999998000000002
100
AcDbArc
 50
90.0
 51
180.0
  0
LINE
  5
40AE
330
1A
100
AcDbEntity
  8
SEIHIN
100
AcDbLine
 10
484.6530461991014
 20
327.7667367334005
 30
0.0
 11
479.2955861991015
 21
328.5180867334005
 31
0.0
  0
LINE
  5
40AF
330
1A
100
AcDbEntity
  8
SEIHIN
100
AcDbLine
 10
479.2955861991015
 20
329.4213267334006
 30
0.0
 11
478.7656361991016
 21
329.4367167334007
 31
0.0
  0
LINE
  5
40B0
330
1A
100
AcDbEntity
  8
SEIHIN
100
AcDbLine
 10
478.7656361991016
 20
329.4367167334007
 30
0.0
 11
478.2649661991015
 21
329.4646767334006
 31
0.0
  0
LINE
  5
40B1
330
1A
100
AcDbEntity
  8
SEIHIN
100
AcDbLine
 10
478.2649661991015
 20
329.4646767334006
 30
0.0
 11
477.8099861991015
 21
329.5042767334006
 31
0.0
  0
LINE
  5
40B2
330
1A
100
AcDbEntity
  8
SEIHIN
100
AcDbLine
 10
477.8099861991015
 20
329.5042767334006
 30
0.0
 11
477.4155761991014
 21
329.5542267334007
 31
0.0
  0
LINE
  5
40B3
330
1A
100
AcDbEntity
  8
SEIHIN
100
AcDbLine
 10
477.4155761991014
 20
329.5542267334007
 30
0.0
 11
477.0945461991016
 21
329.6128767334006
 31
0.0
  0
LINE
  5
40B4
330
1A
100
AcDbEntity
  8
SEIHIN
100
AcDbLine
 10
477.0945461991016
 20
329.6128767334006
 30
0.0
 11
476.8574861991017
 21
329.6783367334007
 31
0.0
  0
LINE
  5
40B5
330
1A
100
AcDbEntity
  8
SEIHIN
100
AcDbLine
 10
476.8574861991017
 20
329.6783367334007
 30
0.0
 11
476.7120461991017
 21
329.7484467334006
 31
0.0
  0
LINE
  5
40B6
330
1A
100
AcDbEntity
  8
SEIHIN
100
AcDbLine
 10
476.7120461991017
 20
329.7484467334006
 30
0.0
 11
476.6630561991014
 21
329.8209267334006
 31
0.0
  0
LINE
  5
40B7
330
1A
100
AcDbEntity
  8
SEIHIN
100
AcDbLine
 10
479.2955861991015
 20
328.5180867334005
 30
0.0
 11
478.7656361991016
 21
328.6003767334006
 31
0.0
  0
LINE
  5
40B8
330
1A
100
AcDbEntity
  8
SEIHIN
100
AcDbLine
 10
478.7656361991016
 20
328.6003767334006
 30
0.0
 11
478.2649661991015
 21
328.6941867334007
 31
0.0
  0
LINE
  5
40B9
330
1A
100
AcDbEntity
  8
SEIHIN
100
AcDbLine
 10
478.2649661991015
 20
328.6941867334007
 30
0.0
 11
477.8099861991015
 21
328.7964567334006
 31
0.0
  0
LINE
  5
40BA
330
1A
100
AcDbEntity
  8
SEIHIN
100
AcDbLine
 10
477.8099861991015
 20
328.7964567334006
 30
0.0
 11
477.4155761991014
 21
328.9038567334007
 31
0.0
  0
LINE
  5
40BB
330
1A
100
AcDbEntity
  8
SEIHIN
100
AcDbLine
 10
477.4155761991014
 20
328.9038567334007
 30
0.0
 11
477.0945461991016
 21
329.0128767334008
 31
0.0
  0
LINE
  5
40BC
330
1A
100
AcDbEntity
  8
SEIHIN
100
AcDbLine
 10
477.0945461991016
 20
329.0128767334008
 30
0.0
 11
476.8574861991017
 21
329.1199767334007
 31
0.0
  0
LINE
  5
40BD
330
1A
100
AcDbEntity
  8
SEIHIN
100
AcDbLine
 10
476.8574861991017
 20
329.1199767334007
 30
0.0
 11
476.7120461991017
 21
329.2216167334008
 31
0.0
  0
LINE
  5
40BE
330
1A
100
AcDbEntity
  8
SEIHIN
100
AcDbLine
 10
476.7120461991017
 20
329.2216167334008
 30
0.0
 11
476.6630561991014
 21
329.3144667334006
 31
0.0
  0
LINE
  5
40BF
330
1A
100
AcDbEntity
  8
SEIHIN
100
AcDbLine
 10
516.6629261991015
 20
304.5902067334006
 30
0.0
 11
544.3130561991015
 21
304.5902067334006
 31
0.0
  0
LINE
  5
40C0
330
1A
100
AcDbEntity
  8
SEIHIN
100
AcDbLine
 10
542.6630561991014
 20
320.3902167334005
 30
0.0
 11
516.4840361991016
 21
320.3902167334005
 31
0.0
  0
LINE
  5
40C1
330
1A
100
AcDbEntity
  8
SEIHIN
100
AcDbLine
 10
516.6602561991017
 20
321.2969667334006
 30
0.0
 11
542.6630561991014
 21
321.2969667334006
 31
0.0
  0
LINE
  5
40C2
330
1A
100
AcDbEntity
  8
SEIHIN
100
AcDbLine
 10
542.6630561991014
 20
335.4882567334006
 30
0.0
 11
516.6630461991017
 21
335.4882567334006
 31
0.0
  0
LINE
  5
40C3
330
1A
100
AcDbEntity
  8
SEIHIN
100
AcDbLine
 10
542.6630561991014
 20
341.0170167334007
 30
0.0
 11
516.6630461991017
 21
341.0170167334007
 31
0.0
  0
LINE
  5
40C4
330
1A
100
AcDbEntity
  8
SEIHIN
100
AcDbLine
 10
540.9792761991016
 20
314.1777267334006
 30
0.0
 11
502.6630361991014
 21
314.1777267334006
 31
0.0
  0
LINE
  5
40C5
330
1A
100
AcDbEntity
  8
SEIHIN
100
AcDbLine
 10
516.4840361991016
 20
320.3902167334005
 30
0.0
 11
515.0618261991014
 21
314.1777267334006
 31
0.0
  0
LINE
  5
40C6
330
1A
100
AcDbEntity
  8
SEIHIN
100
AcDbLine
 10
499.6629161991015
 20
307.5943167334007
 30
0.0
 11
516.6629261991015
 21
304.5902067334006
 31
0.0
  0
ARC
  5
40C7
330
1A
100
AcDbEntity
  8
SEIHIN
100
AcDbCircle
 10
502.6630361991014
 20
315.1777167334007
 30
0.0
 40
0.9999998999999998
100
AcDbArc
 50
180.0
 51
270.0
  0
LINE
  5
40C8
330
1A
100
AcDbEntity
  8
SEIHIN
100
AcDbLine
 10
516.4874861991015
 20
320.4041367334006
 30
0.0
 11
501.6630461991017
 21
323.6244867334007
 31
0.0
  0
LINE
  5
40C9
330
1A
100
AcDbEntity
  8
SEIHIN
100
AcDbLine
 10
501.6630461991017
 20
324.5619267334006
 30
0.0
 11
516.6630461991017
 21
321.3034467334006
 31
0.0
  0
LINE
  5
40CA
330
1A
100
AcDbEntity
  8
SEIHIN
100
AcDbLine
 10
516.6630461991017
 20
335.4882567334006
 30
0.0
 11
501.6630461991017
 21
339.4356867334006
 31
0.0
  0
LINE
  5
40CB
330
1A
100
AcDbEntity
  8
SEIHIN
100
AcDbLine
 10
516.6630461991017
 20
341.0170167334007
 30
0.0
 11
501.6630461991017
 21
341.3928267334008
 31
0.0
  0
ARC
  5
40CC
330
1A
100
AcDbEntity
  8
SEIHIN
100
AcDbCircle
 10
501.1630361991015
 20
325.6651767334005
 30
0.0
 40
0.4999998000000002
100
AcDbArc
 50
0.0
 51
90.0
  0
LINE
  5
40CD
330
1A
100
AcDbEntity
  8
SEIHIN
100
AcDbLine
 10
500.6630561991014
 20
328.9966467334006
 30
0.0
 11
500.6630561991014
 21
326.1651567334006
 31
0.0
  0
LINE
  5
40CE
330
1A
100
AcDbEntity
  8
SEIHIN
100
AcDbLine
 10
501.6630461991017
 20
329.3049567334007
 30
0.0
 11
501.2362061991016
 21
329.2409367334006
 31
0.0
  0
LINE
  5
40CF
330
1A
100
AcDbEntity
  8
SEIHIN
100
AcDbLine
 10
501.2362061991016
 20
329.2409367334006
 30
0.0
 11
500.9212061991015
 21
329.1665967334005
 31
0.0
  0
LINE
  5
40D0
330
1A
100
AcDbEntity
  8
SEIHIN
100
AcDbLine
 10
500.9212061991015
 20
329.1665967334005
 30
0.0
 11
500.7280961991016
 21
329.0842767334006
 31
0.0
  0
LINE
  5
40D1
330
1A
100
AcDbEntity
  8
SEIHIN
100
AcDbLine
 10
500.7280961991016
 20
329.0842767334006
 30
0.0
 11
500.6630561991014
 21
328.9966467334006
 31
0.0
  0
LINE
  5
40D2
330
1A
100
AcDbEntity
  8
SEIHIN
100
AcDbLine
 10
499.6630361991015
 20
326.7082467334006
 30
0.0
 11
499.6630361991015
 21
326.1651567334006
 31
0.0
  0
LINE
  5
40D3
330
1A
100
AcDbEntity
  8
SEIHIN
100
AcDbLine
 10
499.1630561991014
 20
326.1651567334006
 30
0.0
 11
499.1630561991014
 21
326.7434967334005
 31
0.0
  0
LINE
  5
40D4
330
1A
100
AcDbEntity
  8
SEIHIN
100
AcDbLine
 10
516.6630461991017
 20
321.3034467334006
 30
0.0
 11
516.4840361991016
 21
320.3902167334005
 31
0.0
  0
LINE
  5
40D5
330
1A
100
AcDbEntity
  8
SEIHIN
100
AcDbLine
 10
544.1575961991016
 20
316.8808167334006
 30
0.0
 11
544.1575961991016
 21
322.8888267334006
 31
0.0
  0
LINE
  5
40D6
330
1A
100
AcDbEntity
  8
SEIHIN
100
AcDbLine
 10
544.6575761991016
 20
322.9406967334006
 30
0.0
 11
544.6575761991016
 21
317.2202067334007
 31
0.0
  0
LINE
  5
40D7
330
1A
100
AcDbEntity
  8
STOPPER
100
AcDbLine
 10
544.3130561991015
 20
302.4849267334006
 30
0.0
 11
544.3130561991015
 21
317.2202067334008
 31
0.0
  0
ARC
  5
40D8
330
1A
100
AcDbEntity
  8
SEIHIN
100
AcDbCircle
 10
544.4633841601778
 20
314.4545236851287
 30
0.0
 40
0.3003280053359583
100
AcDbArc
 50
179.968894082054
 51
239.9638749094309
  0
LINE
  5
40D9
330
1A
100
AcDbEntity
  8
SEIHIN
100
AcDbLine
 10
541.1630561991014
 20
316.8239367334005
 30
0.0
 11
541.1630561991014
 21
314.4546867334006
 31
0.0
  0
ARC
  5
40DA
330
1A
100
AcDbEntity
  8
SEIHIN
100
AcDbCircle
 10
540.8670308485138
 20
314.4525409932948
 30
0.0
 40
0.2960331271852216
100
AcDbArc
 50
291.8251601758177
 51
0.4153012526269988
  0
ARC
  5
40DB
330
1A
100
AcDbEntity
  8
SEIHIN
100
AcDbCircle
 10
543.8630561991015
 20
316.8239367334005
 30
0.0
 40
0.3
100
AcDbArc
 50
0.0
 51
90.0
  0
LINE
  5
40DC
330
1A
100
AcDbEntity
  8
SEIHIN
100
AcDbLine
 10
544.1630561991014
 20
316.8239367334005
 30
0.0
 11
544.1630561991014
 21
313.9676367334006
 31
0.0
  0
LINE
  5
40DD
330
1A
100
AcDbEntity
  8
SEIHIN
100
AcDbLine
 10
541.4630561991016
 20
317.1239367334005
 30
0.0
 11
543.8630561991015
 21
317.1239367334005
 31
0.0
  0
LINE
  5
40DE
330
1A
100
AcDbEntity
  8
SEIHIN
100
AcDbLine
 10
544.3130561991015
 20
311.7871167334007
 30
0.0
 11
544.3130561991015
 21
313.1954967334006
 31
0.0
  0
ARC
  5
40DF
330
1A
100
AcDbEntity
  8
SEIHIN
100
AcDbCircle
 10
546.6307286781707
 20
327.4404677501014
 30
0.0
 40
3.968460575821776
100
AcDbArc
 50
89.53340143229443
 51
178.714944102268
  0
ARC
  5
40E0
330
1A
100
AcDbEntity
  8
SEIHIN
100
AcDbCircle
 10
546.6663072209028
 20
323.1380700231927
 30
0.0
 40
3.989608042953488
100
AcDbArc
 50
90.04683237172541
 51
181.5904732928636
  0
LINE
  5
40E1
330
1A
100
AcDbEntity
  8
SEIHIN
100
AcDbLine
 10
543.3544870873556
 20
322.9406967334006
 30
0.0
 11
543.0202661991016
 21
322.9652067334006
 31
0.0
  0
LINE
  5
40E2
330
1A
100
AcDbEntity
  8
SEIHIN
100
AcDbLine
 10
543.0202661991016
 20
322.9652067334006
 30
0.0
 11
542.8969961991015
 21
322.9781367334007
 31
0.0
  0
LINE
  5
40E3
330
1A
100
AcDbEntity
  8
SEIHIN
100
AcDbLine
 10
542.8969961991015
 20
322.9781367334007
 30
0.0
 11
542.7970061991016
 21
322.9931067334006
 31
0.0
  0
LINE
  5
40E4
330
1A
100
AcDbEntity
  8
SEIHIN
100
AcDbLine
 10
542.7970061991016
 20
322.9931067334006
 30
0.0
 11
542.7233561991015
 21
323.0096967334006
 31
0.0
  0
LINE
  5
40E5
330
1A
100
AcDbEntity
  8
SEIHIN
100
AcDbLine
 10
542.7233561991015
 20
323.0096967334006
 30
0.0
 11
542.6782361991015
 21
323.0273367334006
 31
0.0
  0
LINE
  5
40E6
330
1A
100
AcDbEntity
  8
SEIHIN
100
AcDbLine
 10
542.6782361991015
 20
323.0273367334006
 30
0.0
 11
542.6630561991014
 21
323.0455467334006
 31
0.0
  0
LINE
  5
40E7
330
1A
100
AcDbEntity
  8
SEIHIN
100
AcDbLine
 10
544.6575761991016
 20
322.9406967334006
 30
0.0
 11
543.3544870873556
 21
322.9406967334006
 31
0.0
  0
LINE
  5
40E8
330
1A
100
AcDbEntity
  8
SEIHIN
100
AcDbLine
 10
543.8346161991017
 20
325.9484967334005
 30
0.0
 11
544.4407661991014
 21
326.4491967334005
 31
0.0
  0
LINE
  5
40E9
330
1A
100
AcDbEntity
  8
SEIHIN
100
AcDbLine
 10
542.6630561991014
 20
323.0455467334006
 30
0.0
 11
542.6630561991014
 21
323.1017367334006
 31
0.0
  0
DIMENSION
  5
40EA
330
1A
100
AcDbEntity
  8
SUNPOU
100
AcDbDimension
  2
*D12
 10
445.6630361991015
 20
446.5105645049145
 30
0.0
 11
472.4130461991014
 21
451.5105645049145
 31
0.0
 70
    32
  1
\U+203B<>
 71
     5
 42
-1.0
  3
STANDARD
100
AcDbAlignedDimension
 13
499.1630561991014
 23
415.3151667334008
 33
0.0
 14
445.6630361991015
 24
415.3151667334009
 34
0.0
100
AcDbRotatedDimension
1001
ACAD
1000
DSTYLE
1002
{
1070
    41
1040
7.0
1070
    42
1040
6.0
1070
    43
1040
14.0
1070
    44
1040
3.0
1070
    73
1070
     0
1070
    74
1070
     0
1070
    77
1070
     3
1070
   140
1040
6.0
1070
   141
1040
150.0
1070
   147
1040
2.0
1070
   172
1070
     1
1070
   173
1070
     1
1070
   176
1070
   256
1070
   177
1070
   256
1070
   178
1070
   256
1070
   271
1070
     0
1070
   272
1070
     0
1070
   341
1005
6D
1070
     6
1000
OPEN
1070
     7
1000
OPEN
1070
   371
1070
    -1
1070
   372
1070
    -1
1002
}
  0
LINE
  5
40EB
330
1A
100
AcDbEntity
  8
SEIHIN
100
AcDbLine
 10
487.4270861991014
 20
401.5152867334006
 30
0.0
 11
490.0347161991017
 21
401.8538067334007
 31
0.0
  0
LINE
  5
40EC
330
1A
100
AcDbEntity
  8
SEIHIN
100
AcDbLine
 10
490.0347161991017
 20
428.7765267334007
 30
0.0
 11
487.4270861991014
 21
429.1150767334007
 31
0.0
  0
LINE
  5
40ED
330
1A
100
AcDbEntity
  8
SEIHIN
100
AcDbLine
 10
501.6630461991017
 20
482.5431087334006
 30
0.0
 11
476.6630561991014
 21
482.5431087334006
 31
0.0
  0
LINE
  5
40EE
330
1A
100
AcDbEntity
  8
SEIHIN
100
AcDbLine
 10
476.6630561991014
 20
432.1176447334007
 30
0.0
 11
476.6630561991014
 21
482.5431087334006
 31
0.0
  0
LINE
  5
40EF
330
1A
100
AcDbEntity
  8
SEIHIN
100
AcDbLine
 10
478.1634612639357
 20
400.4492779014665
 30
0.0
 11
483.2599961991015
 21
401.0059167334007
 31
0.0
  0
ARC
  5
40F0
330
1A
100
AcDbEntity
  8
SEIHIN
100
AcDbCircle
 10
478.6630361991014
 20
398.5126767334006
 30
0.0
 40
1.999999799999999
100
AcDbArc
 50
104.4649374509949
 51
180.0
  0
LINE
  5
40F1
330
1A
100
AcDbEntity
  8
SEIHIN
100
AcDbLine
 10
484.6530461991014
 20
401.1792567334007
 30
0.0
 11
487.4270861991014
 21
401.5152867334006
 31
0.0
  0
LINE
  5
40F2
330
1A
100
AcDbEntity
  8
SEIHIN
100
AcDbLine
 10
483.2599961988217
 20
401.005916733369
 30
0.0
 11
483.9615161991014
 21
401.0895867334006
 31
0.0
  0
LINE
  5
40F3
330
1A
100
AcDbEntity
  8
SEIHIN
100
AcDbLine
 10
483.9615161991014
 20
401.0895867334006
 30
0.0
 11
484.6530461991014
 21
401.1792567334007
 31
0.0
  0
LINE
  5
40F4
330
1A
100
AcDbEntity
  8
SEIHIN
100
AcDbLine
 10
483.9615161991014
 20
429.5407467334007
 30
0.0
 11
477.9172287244598
 21
430.2619048780416
 31
0.0
  0
ARC
  5
40F5
330
1A
100
AcDbEntity
  8
SEIHIN
100
AcDbCircle
 10
478.6630361991014
 20
432.1176447334007
 30
0.0
 40
1.999999799999999
100
AcDbArc
 50
180.0
 51
248.1051875686059
  0
LINE
  5
40F6
330
1A
100
AcDbEntity
  8
SEIHIN
100
AcDbLine
 10
484.6530461991014
 20
429.4510767334006
 30
0.0
 11
483.9615161991014
 21
429.5407467334007
 31
0.0
  0
LINE
  5
40F7
330
1A
100
AcDbEntity
  8
SEIHIN
100
AcDbLine
 10
487.4270861991014
 20
429.1150767334007
 30
0.0
 11
484.6530461991014
 21
429.4510767334006
 31
0.0
  0
LINE
  5
40F8
330
1A
100
AcDbEntity
  8
SEIHIN
100
AcDbLine
 10
501.6630461991017
 20
426.8151567334007
 30
0.0
 11
501.6630461991017
 21
403.8151767334008
 31
0.0
  0
LINE
  5
40F9
330
1A
100
AcDbEntity
  8
SEIHIN
100
AcDbLine
 10
499.1630561991014
 20
403.4409267334008
 30
0.0
 11
499.1630561991014
 21
427.1894067334008
 31
0.0
  0
LINE
  5
40FA
330
1A
100
AcDbEntity
  8
SEIHIN
100
AcDbLine
 10
497.7619661991016
 20
403.0905567334007
 30
0.0
 11
498.8104961991016
 21
403.3371867334007
 31
0.0
  0
LINE
  5
40FB
330
1A
100
AcDbEntity
  8
SEIHIN
100
AcDbLine
 10
490.0347161991017
 20
401.8538067334007
 30
0.0
 11
492.4201361991015
 21
402.1876167334007
 31
0.0
  0
LINE
  5
40FC
330
1A
100
AcDbEntity
  8
SEIHIN
100
AcDbLine
 10
492.4201361991015
 20
402.1876167334007
 30
0.0
 11
494.5321661991015
 21
402.5095467334008
 31
0.0
  0
LINE
  5
40FD
330
1A
100
AcDbEntity
  8
SEIHIN
100
AcDbLine
 10
494.5321661991015
 20
402.5095467334008
 30
0.0
 11
496.3255961991015
 21
402.8126967334007
 31
0.0
  0
LINE
  5
40FE
330
1A
100
AcDbEntity
  8
SEIHIN
100
AcDbLine
 10
496.3255961991015
 20
402.8126967334007
 30
0.0
 11
497.7619661991016
 21
403.0905567334007
 31
0.0
  0
LINE
  5
40FF
330
1A
100
AcDbEntity
  8
SEIHIN
100
AcDbLine
 10
500.6110961991017
 20
403.8151767334007
 30
0.0
 11
501.6630461991017
 21
403.8151767334007
 31
0.0
  0
LINE
  5
4100
330
1A
100
AcDbEntity
  8
SEIHIN
100
AcDbLine
 10
499.4487461991016
 20
403.5473067334008
 30
0.0
 11
499.6630361991015
 21
403.7164167334008
 31
0.0
  0
LINE
  5
4101
330
1A
100
AcDbEntity
  8
SEIHIN
100
AcDbLine
 10
499.6630361991015
 20
403.7164167334008
 30
0.0
 11
500.6110961991017
 21
403.8151767334007
 31
0.0
  0
LINE
  5
4102
330
1A
100
AcDbEntity
  8
SEIHIN
100
AcDbLine
 10
498.8104961991016
 20
403.3371867334007
 30
0.0
 11
499.4487461991016
 21
403.5473067334008
 31
0.0
  0
LINE
  5
4103
330
1A
100
AcDbEntity
  8
SEIHIN
100
AcDbLine
 10
498.8104961991016
 20
427.2931467334008
 30
0.0
 11
497.7619661991016
 21
427.5397767334006
 31
0.0
  0
LINE
  5
4104
330
1A
100
AcDbEntity
  8
SEIHIN
100
AcDbLine
 10
497.7619661991016
 20
427.5397767334006
 30
0.0
 11
496.3255961991015
 21
427.8176667334007
 31
0.0
  0
LINE
  5
4105
330
1A
100
AcDbEntity
  8
SEIHIN
100
AcDbLine
 10
496.3255961991015
 20
427.8176667334007
 30
0.0
 11
494.5321661991015
 21
428.1207867334008
 31
0.0
  0
LINE
  5
4106
330
1A
100
AcDbEntity
  8
SEIHIN
100
AcDbLine
 10
494.5321661991015
 20
428.1207867334008
 30
0.0
 11
492.4201361991015
 21
428.4427167334006
 31
0.0
  0
LINE
  5
4107
330
1A
100
AcDbEntity
  8
SEIHIN
100
AcDbLine
 10
492.4201361991015
 20
428.4427167334006
 30
0.0
 11
490.0347161991017
 21
428.7765267334007
 31
0.0
  0
LINE
  5
4108
330
1A
100
AcDbEntity
  8
SEIHIN
100
AcDbLine
 10
501.6630461991017
 20
426.8151567334007
 30
0.0
 11
500.6110961991017
 21
426.8151567334007
 31
0.0
  0
LINE
  5
4109
330
1A
100
AcDbEntity
  8
SEIHIN
100
AcDbLine
 10
500.6110961991017
 20
426.8151567334007
 30
0.0
 11
499.6630361991015
 21
426.9139167334008
 31
0.0
  0
LINE
  5
410A
330
1A
100
AcDbEntity
  8
SEIHIN
100
AcDbLine
 10
499.6630361991015
 20
426.9139167334008
 30
0.0
 11
499.4487461991016
 21
427.0830267334008
 31
0.0
  0
LINE
  5
410B
330
1A
100
AcDbEntity
  8
SEIHIN
100
AcDbLine
 10
499.4487461991016
 20
427.0830267334008
 30
0.0
 11
498.8104961991016
 21
427.2931467334008
 31
0.0
  0
LINE
  5
410C
330
1A
100
AcDbEntity
  8
SEIHIN
100
AcDbLine
 10
668.6630561991014
 20
340.4556567334015
 30
0.0
 11
668.6630561991014
 21
402.8151567334004
 31
0.0
  0
LINE
  5
410D
330
1A
100
AcDbEntity
  8
SEIHIN
100
AcDbLine
 10
607.6630361991014
 20
304.5902067334006
 30
0.0
 11
680.6630561991014
 21
305.5915767334005
 31
0.0
  0
LINE
  5
410E
330
1A
100
AcDbEntity
  8
SEIHIN
100
AcDbLine
 10
631.1630561991014
 20
314.1777267334006
 30
0.0
 11
562.6468061991015
 21
314.1777267334006
 31
0.0
  0
LINE
  5
410F
330
1A
100
AcDbEntity
  8
SEIHIN
100
AcDbLine
 10
559.3130561991015
 20
304.5902067334006
 30
0.0
 11
607.6630361991014
 21
304.5902067334006
 31
0.0
  0
LINE
  5
4110
330
1A
100
AcDbEntity
  8
SEIHIN
100
AcDbLine
 10
558.9685061991015
 20
317.2202067334007
 30
0.0
 11
558.9685061991015
 21
322.9406967334006
 31
0.0
  0
LINE
  5
4111
330
1A
100
AcDbEntity
  8
SEIHIN
100
AcDbLine
 10
561.4521761991015
 20
322.9406967334006
 30
0.0
 11
561.4521761991015
 21
317.1239367334005
 31
0.0
  0
LINE
  5
4112
330
1A
100
AcDbEntity
  8
STOPPER
100
AcDbLine
 10
559.3130561991015
 20
302.4849267334006
 30
0.0
 11
559.3130561991015
 21
317.2202067334007
 31
0.0
  0
ARC
  5
4113
330
1A
100
AcDbEntity
  8
SEIHIN
100
AcDbCircle
 10
559.9630561991016
 20
316.6239367334005
 30
0.0
 40
0.5
100
AcDbArc
 50
90.0
 51
180.0
  0
ARC
  5
4114
330
1A
100
AcDbEntity
  8
SEIHIN
100
AcDbCircle
 10
561.9630561991016
 20
316.6239367334005
 30
0.0
 40
0.5
100
AcDbArc
 50
0.0
 51
90.0
  0
ARC
  5
4115
330
1A
100
AcDbEntity
  8
SEIHIN
100
AcDbCircle
 10
562.7608686007747
 20
314.4534564745528
 30
0.0
 40
0.2978149427534657
100
AcDbArc
 50
179.7633132860568
 51
249.2296474849911
  0
ARC
  5
4116
330
1A
100
AcDbEntity
  8
SEIHIN
100
AcDbCircle
 10
559.1626127070919
 20
314.4545902965978
 30
0.0
 40
0.3004435074867636
100
AcDbArc
 50
300.0488401240941
 51
0.0183908846291769
  0
LINE
  5
4117
330
1A
100
AcDbEntity
  8
SEIHIN
100
AcDbLine
 10
559.4630561991016
 20
316.6239367334005
 30
0.0
 11
559.4630561991016
 21
314.4546867334006
 31
0.0
  0
LINE
  5
4118
330
1A
100
AcDbEntity
  8
SEIHIN
100
AcDbLine
 10
562.4630561991016
 20
316.6239367334005
 30
0.0
 11
562.4630561991016
 21
314.4546867334006
 31
0.0
  0
LINE
  5
4119
330
1A
100
AcDbEntity
  8
SEIHIN
100
AcDbLine
 10
559.9630561991016
 20
317.1239367334005
 30
0.0
 11
561.9630561991016
 21
317.1239367334005
 31
0.0
  0
LINE
  5
411A
330
1A
100
AcDbEntity
  8
SEIHIN
100
AcDbLine
 10
561.1778261991014
 20
322.9320867334005
 30
0.0
 11
561.2633561991015
 21
322.9367967334005
 31
0.0
  0
LINE
  5
411B
330
1A
100
AcDbEntity
  8
SEIHIN
100
AcDbLine
 10
561.2633561991015
 20
322.9367967334005
 30
0.0
 11
561.3559661991014
 21
322.9397067334006
 31
0.0
  0
LINE
  5
411C
330
1A
100
AcDbEntity
  8
SEIHIN
100
AcDbLine
 10
561.3559661991014
 20
322.9397067334006
 30
0.0
 11
561.4521761991015
 21
322.9406967334006
 31
0.0
  0
LINE
  5
411D
330
1A
100
AcDbEntity
  8
SEIHIN
100
AcDbLine
 10
561.4521761991015
 20
322.9406967334006
 30
0.0
 11
558.9685061991015
 21
322.9406967334006
 31
0.0
  0
LINE
  5
411E
330
1A
100
AcDbEntity
  8
SEIHIN
100
AcDbLine
 10
631.2367961991014
 20
307.7948367334006
 30
0.0
 11
670.1630561991014
 21
307.7948367334006
 31
0.0
  0
LINE
  5
411F
330
1A
100
AcDbEntity
  8
SEIHIN
100
AcDbLine
 10
631.1630561991014
 20
311.6651667334007
 30
0.0
 11
670.1630561991014
 21
311.6651667334007
 31
0.0
  0
LINE
  5
4120
330
1A
100
AcDbEntity
  8
SEIHIN
100
AcDbLine
 10
637.1630561991014
 20
325.0006167334008
 30
0.0
 11
668.1630461991017
 21
325.0006167334008
 31
0.0
  0
LINE
  5
4121
330
1A
100
AcDbEntity
  8
SEIHIN
100
AcDbLine
 10
637.1630561991014
 20
339.9620067334007
 30
0.0
 11
668.1630461991017
 21
339.9620067334007
 31
0.0
  0
LINE
  5
4122
330
1A
100
AcDbEntity
  8
SEIHIN
100
AcDbLine
 10
637.1630561991014
 20
341.4429267334007
 30
0.0
 11
668.1630461991017
 21
341.4429267334007
 31
0.0
  0
LINE
  5
4123
330
1A
100
AcDbEntity
  8
SEIHIN
100
AcDbLine
 10
631.1630561991014
 20
309.7948467334005
 30
0.0
 11
670.6630361991015
 21
309.7948467334005
 31
0.0
  0
LINE
  5
4124
330
1A
100
AcDbEntity
  8
SEIHIN
100
AcDbLine
 10
670.6630361991015
 20
311.3651667334006
 30
0.0
 11
631.1630561991014
 21
311.3651667334006
 31
0.0
  0
LINE
  5
4125
330
1A
100
AcDbEntity
  8
SEIHIN
100
AcDbLine
 10
631.1630561991014
 20
312.1651767334005
 30
0.0
 11
665.6716961991015
 21
312.1651767334005
 31
0.0
  0
LINE
  5
4126
330
1A
100
AcDbEntity
  8
SEIHIN
100
AcDbLine
 10
680.6630561991014
 20
307.0398567334006
 30
0.0
 11
632.1630461991016
 21
307.0398567334006
 31
0.0
  0
LINE
  5
4127
330
1A
100
AcDbEntity
  8
SEIHIN
100
AcDbLine
 10
631.1630561991014
 20
314.1239367334005
 30
0.0
 11
631.1630561991014
 21
308.1722367334006
 31
0.0
  0
ARC
  5
4128
330
1A
100
AcDbEntity
  8
SEIHIN
100
AcDbCircle
 10
632.3435536070141
 20
308.2069895290007
 30
0.0
 40
1.181008842850297
100
AcDbArc
 50
181.6862498562463
 51
261.2083562522369
  0
ARC
  5
4129
330
1A
100
AcDbEntity
  8
SEIHIN
100
AcDbCircle
 10
637.1795304668701
 20
325.5170736452082
 30
0.0
 40
0.516719598285134
100
AcDbArc
 50
178.2707181980094
 51
268.1729626636741
  0
ARC
  5
412A
330
1A
100
AcDbEntity
  8
SEIHIN
100
AcDbCircle
 10
636.1316342528671
 20
326.5962458995615
 30
0.0
 40
0.5320205167341542
100
AcDbArc
 50
4.992669428344671
 51
87.30211876761551
  0
ARC
  5
412B
330
1A
100
AcDbEntity
  8
SEIHIN
100
AcDbCircle
 10
636.1670002453581
 20
330.9125632004874
 30
0.0
 40
0.4962493655918435
100
AcDbArc
 50
2.422276065314423
 51
90.45768428438954
  0
ARC
  5
412C
330
1A
100
AcDbEntity
  8
SEIHIN
100
AcDbCircle
 10
637.1598349089406
 20
340.4587949112735
 30
0.0
 40
0.496798621560166
100
AcDbArc
 50
180.3619284262335
 51
270.3715139618104
  0
LINE
  5
412D
330
1A
100
AcDbEntity
  8
SEIHIN
100
AcDbLine
 10
670.6630361991015
 20
308.1922167334004
 30
0.0
 11
670.6630361991015
 21
326.226476733492
 31
0.0
  0
LINE
  5
412E
330
1A
100
AcDbEntity
  8
SEIHIN
100
AcDbLine
 10
668.1630461991014
 20
325.0006167334008
 30
0.0
 11
668.1630461991017
 21
312.1651767334005
 31
0.0
  0
LINE
  5
412F
330
1A
100
AcDbEntity
  8
SEIHIN
100
AcDbLine
 10
665.6716961991015
 20
311.6651667334007
 30
0.0
 11
665.6716961991015
 21
324.0133467334004
 31
0.0
  0
LINE
  5
4130
330
1A
100
AcDbEntity
  8
SEIHIN
100
AcDbLine
 10
668.1630461991017
 20
312.1651767334005
 30
0.0
 11
670.6630361991015
 21
312.1651767334005
 31
0.0
  0
LINE
  5
4131
330
1A
100
AcDbEntity
  8
SEIHIN
100
AcDbLine
 10
670.6630361991015
 20
308.1922167334004
 30
0.0
 11
670.6630463991016
 21
308.0942967334007
 31
0.0
  0
LINE
  5
4132
330
1A
100
AcDbEntity
  8
SEIHIN
100
AcDbLine
 10
670.5259361991015
 20
307.9492467334006
 30
0.0
 11
670.1630561991014
 21
307.7948367334006
 31
0.0
  0
LINE
  5
4133
330
1A
100
AcDbEntity
  8
SEIHIN
100
AcDbLine
 10
670.6630361991015
 20
308.1922167334007
 30
0.0
 11
670.5259361991015
 21
307.9492467334006
 31
0.0
  0
ARC
  5
4134
330
1A
100
AcDbEntity
  8
SEIHIN
100
AcDbCircle
 10
671.1630461991014
 20
308.0942967334007
 30
0.0
 40
0.4999998000000002
100
AcDbArc
 50
180.0
 51
270.0
  0
LINE
  5
4135
330
1A
100
AcDbEntity
  8
SEIHIN
100
AcDbLine
 10
680.6630561991014
 20
305.5915767334003
 30
0.0
 11
680.6630561991014
 21
307.5943167334007
 31
0.0
  0
LINE
  5
4136
330
1A
100
AcDbEntity
  8
SEIHIN
100
AcDbLine
 10
670.2893861991015
 20
311.6651667334007
 30
0.0
 11
670.5106961991013
 21
311.7008367334005
 31
0.0
  0
LINE
  5
4137
330
1A
100
AcDbEntity
  8
SEIHIN
100
AcDbLine
 10
670.5106961991013
 20
311.7008367334005
 30
0.0
 11
670.5963461991014
 21
311.7561567334007
 31
0.0
  0
LINE
  5
4138
330
1A
100
AcDbEntity
  8
SEIHIN
100
AcDbLine
 10
670.5963461991014
 20
311.7561567334007
 30
0.0
 11
670.6498061991014
 21
311.8481667334007
 31
0.0
  0
LINE
  5
4139
330
1A
100
AcDbEntity
  8
SEIHIN
100
AcDbLine
 10
670.6498061991014
 20
311.8481667334007
 30
0.0
 11
670.6630361991015
 21
311.9464767334006
 31
0.0
  0
LINE
  5
413A
330
1A
100
AcDbEntity
  8
SEIHIN
100
AcDbLine
 10
670.1630561991014
 20
311.6651667334007
 30
0.0
 11
670.2893861991015
 21
311.6651667334007
 31
0.0
  0
LINE
  5
413B
330
1A
100
AcDbEntity
  8
SEIHIN
100
AcDbLine
 10
669.8345261991014
 20
324.2179767334007
 30
0.0
 11
670.3416761991015
 21
324.4139367334007
 31
0.0
  0
LINE
  5
413C
330
1A
100
AcDbEntity
  8
SEIHIN
100
AcDbLine
 10
670.6630361991015
 20
324.0133467334004
 30
0.0
 11
669.6630461991016
 21
324.0133467334004
 31
0.0
  0
LINE
  5
413D
330
1A
100
AcDbEntity
  8
SEIHIN
100
AcDbLine
 10
668.6630561991014
 20
325.1313567334006
 30
0.0
 11
668.6630561991014
 21
340.0106081360458
 31
0.0
  0
ARC
  5
413E
330
1A
100
AcDbEntity
  8
SEIHIN
100
AcDbCircle
 10
668.1662167435952
 20
325.4974563107279
 30
0.0
 40
0.4968496935201136
100
AcDbArc
 50
269.6343762438928
 51
359.6321813681053
  0
LINE
  5
413F
330
1A
100
AcDbEntity
  8
SEIHIN
100
AcDbLine
 10
665.6716961991015
 20
324.0133467334004
 30
0.0
 11
668.1630461991017
 21
324.0133467334004
 31
0.0
  0
LINE
  5
4140
330
1A
100
AcDbEntity
  8
SEIHIN
100
AcDbLine
 10
669.6630461991016
 20
328.9966467334006
 30
0.0
 11
669.5979761991016
 21
329.0842767334006
 31
0.0
  0
LINE
  5
4141
330
1A
100
AcDbEntity
  8
SEIHIN
100
AcDbLine
 10
669.5979761991016
 20
329.0842767334006
 30
0.0
 11
669.4048661991014
 21
329.1665967334005
 31
0.0
  0
LINE
  5
4142
330
1A
100
AcDbEntity
  8
SEIHIN
100
AcDbLine
 10
669.4048661991014
 20
329.1665967334005
 30
0.0
 11
669.0898961991015
 21
329.2409367334006
 31
0.0
  0
LINE
  5
4143
330
1A
100
AcDbEntity
  8
SEIHIN
100
AcDbLine
 10
669.0898961991015
 20
329.2409367334006
 30
0.0
 11
668.6630561991014
 21
329.3049567334007
 31
0.0
  0
LINE
  5
4144
330
1A
100
AcDbEntity
  8
SEIHIN
100
AcDbLine
 10
669.6630461991016
 20
328.9966467334006
 30
0.0
 11
669.6630461991016
 21
324.0133467334004
 31
0.0
  0
LINE
  5
4145
330
1A
100
AcDbEntity
  8
SEIHIN
100
AcDbLine
 10
668.6630561991014
 20
325.1313567334006
 30
0.0
 11
668.6034461991016
 21
324.7852467334007
 31
0.0
  0
LINE
  5
4146
330
1A
100
AcDbEntity
  8
SEIHIN
100
AcDbLine
 10
668.6034461991016
 20
324.7852467334007
 30
0.0
 11
668.2336361991015
 21
324.1135167334006
 31
0.0
  0
LINE
  5
4147
330
1A
100
AcDbEntity
  8
SEIHIN
100
AcDbLine
 10
668.2336361991015
 20
324.1135167334006
 30
0.0
 11
668.1667061991015
 21
324.0185067334006
 31
0.0
  0
LINE
  5
4148
330
1A
100
AcDbEntity
  8
SEIHIN
100
AcDbLine
 10
669.6630461991016
 20
324.0133467334004
 30
0.0
 11
669.8345261991014
 21
324.2179767334007
 31
0.0
  0
LINE
  5
4149
330
1A
100
AcDbEntity
  8
SEIHIN
100
AcDbLine
 10
671.1380861991015
 20
326.7417267334007
 30
0.0
 11
685.6730261991015
 21
327.7667367334005
 31
0.0
  0
ARC
  5
414A
330
1A
100
AcDbEntity
  8
SEIHIN
100
AcDbCircle
 10
671.1790748103648
 20
326.2273178594934
 30
0.0
 40
0.5160392967671278
100
AcDbArc
 50
94.55575943198665
 51
180.0933901677634
  0
ARC
  5
414B
330
1A
100
AcDbEntity
  8
SEIHIN
100
AcDbCircle
 10
671.1630461991014
 20
325.6651767334005
 30
0.0
 40
0.4999998000000002
100
AcDbArc
 50
90.0
 51
180.0
  0
LINE
  5
414C
330
1A
100
AcDbEntity
  8
SEIHIN
100
AcDbLine
 10
670.3416761991015
 20
324.4139367334007
 30
0.0
 11
670.6630361991015
 21
324.4945767334006
 31
0.0
  0
LINE
  5
414D
330
1A
100
AcDbEntity
  8
SEIHIN
100
AcDbLine
 10
668.6630561991014
 20
427.8151767334007
 30
0.0
 11
668.6630561991014
 21
402.8151567334004
 31
0.0
  0
LINE
  5
414E
330
1A
100
AcDbEntity
  8
SEIHIN
100
AcDbLine
 10
671.1630461991017
 20
427.9714167334007
 30
0.0
 11
671.1630461991017
 21
402.6589167334007
 31
0.0
  0
LINE
  5
414F
330
1A
100
AcDbEntity
  8
SEIHIN
100
AcDbLine
 10
668.6630561991014
 20
402.8151567334007
 30
0.0
 11
669.6630461991016
 21
402.8151567334007
 31
0.0
  0
LINE
  5
4150
330
1A
100
AcDbEntity
  8
SEIHIN
100
AcDbLine
 10
669.6630461991016
 20
427.8151767334007
 30
0.0
 11
668.6630561991014
 21
427.8151767334007
 31
0.0
  0
LINE
  5
4151
330
1A
100
AcDbEntity
  8
SEIHIN
100
AcDbLine
 10
607.6630361991014
 20
526.0401357334008
 30
0.0
 11
516.6629261991015
 21
526.0401357334008
 31
0.0
  0
LINE
  5
4152
330
1A
100
AcDbEntity
  8
SEIHIN
100
AcDbLine
 10
501.6630461991017
 20
516.4503027334007
 30
0.0
 11
631.1630561991014
 21
516.4503027334007
 31
0.0
  0
LINE
  5
4153
330
1A
100
AcDbEntity
  8
SEIHIN
100
AcDbLine
 10
636.1566761991014
 20
503.5026537334005
 30
0.0
 11
546.6630461991017
 21
503.5026537334005
 31
0.0
  0
LINE
  5
4154
330
1A
100
AcDbEntity
  8
SEIHIN
100
AcDbLine
 10
546.6630461991017
 20
499.2215427334008
 30
0.0
 11
636.6630461991016
 21
499.2215427334008
 31
0.0
  0
LINE
  5
4155
330
1A
100
AcDbEntity
  8
SEIHIN
100
AcDbLine
 10
484.6530461991014
 20
502.8635877334006
 30
0.0
 11
499.6630361991015
 21
503.9220867334006
 31
0.0
  0
LINE
  5
4156
330
1A
100
AcDbEntity
  8
SEIHIN
100
AcDbLine
 10
499.6629161991015
 20
523.0360197334007
 30
0.0
 11
455.6617061991016
 21
523.0360197334007
 31
0.0
  0
LINE
  5
4157
330
1A
100
AcDbEntity
  8
SEIHIN
100
AcDbLine
 10
501.1630361991015
 20
504.4651587334008
 30
0.0
 11
471.1630361991015
 21
504.4651587334008
 31
0.0
  0
LINE
  5
4158
330
1A
100
AcDbEntity
  8
SEIHIN
100
AcDbLine
 10
478.9010846831724
 20
501.201165876678
 30
0.0
 11
500.6630561991014
 21
501.6336927334007
 31
0.0
  0
LINE
  5
4159
330
1A
100
AcDbEntity
  8
SEIHIN
100
AcDbLine
 10
501.6630461991017
 20
487.2820407334006
 30
0.0
 11
476.6630561991014
 21
487.2820407334006
 31
0.0
  0
LINE
  5
415A
330
1A
100
AcDbEntity
  8
SEIHIN
100
AcDbLine
 10
469.6630361991017
 20
518.9651577334006
 30
0.0
 11
445.6630361991017
 21
518.9651577334006
 31
0.0
  0
LINE
  5
415B
330
1A
100
AcDbEntity
  8
SEIHIN
100
AcDbLine
 10
470.5290761991015
 20
518.4651567334007
 30
0.0
 11
445.6630361991017
 21
518.4651567334007
 31
0.0
  0
LINE
  5
415C
330
1A
100
AcDbEntity
  8
SEIHIN
100
AcDbLine
 10
476.6630561991014
 20
490.6683237334006
 30
0.0
 11
445.6630361991015
 21
490.6683237334006
 31
0.0
  0
LINE
  5
415D
330
1A
100
AcDbEntity
  8
SEIHIN
100
AcDbLine
 10
470.6630561991016
 20
505.6297137334008
 30
0.0
 11
445.6630361991015
 21
505.6297137334008
 31
0.0
  0
LINE
  5
415E
330
1A
100
AcDbEntity
  8
SEIHIN
100
AcDbLine
 10
445.6630361991015
 20
506.6169897334007
 30
0.0
 11
470.6630561991016
 21
506.6169897334007
 31
0.0
  0
LINE
  5
415F
330
1A
100
AcDbEntity
  8
SEIHIN
100
AcDbLine
 10
476.6630561991014
 20
489.1874067334006
 30
0.0
 11
445.6630361991015
 21
489.1874067334006
 31
0.0
  0
LINE
  5
4160
330
1A
100
AcDbEntity
  8
SEIHIN
100
AcDbLine
 10
455.6616761991017
 20
523.0360167334006
 30
0.0
 11
445.6630361991017
 21
522.5091987334008
 31
0.0
  0
LINE
  5
4161
330
1A
100
AcDbEntity
  8
SEIHIN
100
AcDbLine
 10
455.6630561991016
 20
518.9651577334006
 30
0.0
 11
455.6630561991016
 21
523.0360197334007
 31
0.0
  0
LINE
  5
4162
330
1A
100
AcDbEntity
  8
SEIHIN
100
AcDbLine
 10
470.6630561991016
 20
504.9651567334008
 30
0.0
 11
470.6630561991016
 21
517.9651587334007
 31
0.0
  0
ARC
  5
4163
330
1A
100
AcDbEntity
  8
SEIHIN
100
AcDbCircle
 10
471.1630361991015
 20
504.9651567334008
 30
0.0
 40
0.4999998000000002
100
AcDbArc
 50
180.0
 51
270.0
  0
LINE
  5
4164
330
1A
100
AcDbEntity
  8
SEIHIN
100
AcDbLine
 10
479.2955861991015
 20
502.1122437334006
 30
0.0
 11
484.6530461991014
 21
502.8635877334006
 31
0.0
  0
LINE
  5
4165
330
1A
100
AcDbEntity
  8
SEIHIN
100
AcDbLine
 10
476.6630561991014
 20
500.8094067334006
 30
0.0
 11
476.7120461991017
 21
500.8818837334006
 31
0.0
  0
LINE
  5
4166
330
1A
100
AcDbEntity
  8
SEIHIN
100
AcDbLine
 10
476.7120461991017
 20
500.8818837334006
 30
0.0
 11
476.8574861991017
 21
500.9519967334008
 31
0.0
  0
LINE
  5
4167
330
1A
100
AcDbEntity
  8
SEIHIN
100
AcDbLine
 10
476.8574861991017
 20
500.9519967334008
 30
0.0
 11
477.0945461991016
 21
501.0174477334008
 31
0.0
  0
LINE
  5
4168
330
1A
100
AcDbEntity
  8
SEIHIN
100
AcDbLine
 10
477.0945461991016
 20
501.0174477334008
 30
0.0
 11
477.4155761991014
 21
501.0761037334007
 31
0.0
  0
LINE
  5
4169
330
1A
100
AcDbEntity
  8
SEIHIN
100
AcDbLine
 10
477.4155761991014
 20
501.0761037334007
 30
0.0
 11
477.8099861991015
 21
501.1260477334007
 31
0.0
  0
LINE
  5
416A
330
1A
100
AcDbEntity
  8
SEIHIN
100
AcDbLine
 10
477.8099861991015
 20
501.1260477334007
 30
0.0
 11
478.2649661991015
 21
501.1656417334006
 31
0.0
  0
LINE
  5
416B
330
1A
100
AcDbEntity
  8
SEIHIN
100
AcDbLine
 10
478.2649661991015
 20
501.1656417334006
 30
0.0
 11
478.9010846831724
 21
501.201165876678
 31
0.0
  0
LINE
  5
416C
330
1A
100
AcDbEntity
  8
SEIHIN
100
AcDbLine
 10
476.6630561991014
 20
501.3158487334008
 30
0.0
 11
476.7120461991017
 21
501.4087227334007
 31
0.0
  0
LINE
  5
416D
330
1A
100
AcDbEntity
  8
SEIHIN
100
AcDbLine
 10
476.7120461991017
 20
501.4087227334007
 30
0.0
 11
476.8574861991017
 21
501.5103597334007
 31
0.0
  0
LINE
  5
416E
330
1A
100
AcDbEntity
  8
SEIHIN
100
AcDbLine
 10
476.8574861991017
 20
501.5103597334007
 30
0.0
 11
477.0945461991016
 21
501.6174417334006
 31
0.0
  0
LINE
  5
416F
330
1A
100
AcDbEntity
  8
SEIHIN
100
AcDbLine
 10
477.0945461991016
 20
501.6174417334006
 30
0.0
 11
477.4155761991014
 21
501.7264647334006
 31
0.0
  0
LINE
  5
4170
330
1A
100
AcDbEntity
  8
SEIHIN
100
AcDbLine
 10
477.4155761991014
 20
501.7264647334006
 30
0.0
 11
477.8099861991015
 21
501.8338737334006
 31
0.0
  0
LINE
  5
4171
330
1A
100
AcDbEntity
  8
SEIHIN
100
AcDbLine
 10
477.8099861991015
 20
501.8338737334006
 30
0.0
 11
478.2649661991015
 21
501.9361527334008
 31
0.0
  0
LINE
  5
4172
330
1A
100
AcDbEntity
  8
SEIHIN
100
AcDbLine
 10
478.2649661991015
 20
501.9361527334008
 30
0.0
 11
478.7656361991016
 21
502.0299657334008
 31
0.0
  0
LINE
  5
4173
330
1A
100
AcDbEntity
  8
SEIHIN
100
AcDbLine
 10
478.7656361991016
 20
502.0299657334008
 30
0.0
 11
479.2955861991015
 21
502.1122437334006
 31
0.0
  0
ARC
  5
4174
330
1A
100
AcDbEntity
  8
SEIHIN
100
AcDbCircle
 10
469.6630361991014
 20
517.9651587334007
 30
0.0
 40
0.9999998999999998
100
AcDbArc
 50
0.0
 51
90.0
  0
LINE
  5
4175
330
1A
100
AcDbEntity
  8
SEIHIN
100
AcDbLine
 10
516.4840361991016
 20
510.2401137334006
 30
0.0
 11
542.6630561991014
 21
510.2401137334006
 31
0.0
  0
LINE
  5
4176
330
1A
100
AcDbEntity
  8
SEIHIN
100
AcDbLine
 10
542.6630561991014
 20
509.3333727334006
 30
0.0
 11
516.6602561991017
 21
509.3333727334006
 31
0.0
  0
LINE
  5
4177
330
1A
100
AcDbEntity
  8
SEIHIN
100
AcDbLine
 10
542.6630561991014
 20
495.1420797334008
 30
0.0
 11
516.6630461991017
 21
495.1420797334008
 31
0.0
  0
LINE
  5
4178
330
1A
100
AcDbEntity
  8
SEIHIN
100
AcDbLine
 10
542.6630561991014
 20
489.6133227334007
 30
0.0
 11
516.6630461991017
 21
489.6133227334007
 31
0.0
  0
LINE
  5
4179
330
1A
100
AcDbEntity
  8
SEIHIN
100
AcDbLine
 10
516.6630461991017
 20
495.1420797334008
 30
0.0
 11
501.6630461991017
 21
491.1946497334006
 31
0.0
  0
LINE
  5
417A
330
1A
100
AcDbEntity
  8
SEIHIN
100
AcDbLine
 10
516.6630461991017
 20
489.6133227334007
 30
0.0
 11
501.6630461991017
 21
489.2375157334008
 31
0.0
  0
ARC
  5
417B
330
1A
100
AcDbEntity
  8
SEIHIN
100
AcDbCircle
 10
501.1630361991015
 20
504.9651567334008
 30
0.0
 40
0.4999998000000002
100
AcDbArc
 50
270.0
 51
0.0
  0
LINE
  5
417C
330
1A
100
AcDbEntity
  8
SEIHIN
100
AcDbLine
 10
500.6630561991014
 20
501.6336927334007
 30
0.0
 11
500.7280961991016
 21
501.5460387334008
 31
0.0
  0
LINE
  5
417D
330
1A
100
AcDbEntity
  8
SEIHIN
100
AcDbLine
 10
500.7280961991016
 20
501.5460387334008
 30
0.0
 11
500.9212061991015
 21
501.4637277334009
 31
0.0
  0
LINE
  5
417E
330
1A
100
AcDbEntity
  8
SEIHIN
100
AcDbLine
 10
500.9212061991015
 20
501.4637277334009
 30
0.0
 11
501.2362061991016
 21
501.3893787334007
 31
0.0
  0
LINE
  5
417F
330
1A
100
AcDbEntity
  8
SEIHIN
100
AcDbLine
 10
501.2362061991016
 20
501.3893787334007
 30
0.0
 11
501.6630461991017
 21
501.3253677334007
 31
0.0
  0
LINE
  5
4180
330
1A
100
AcDbEntity
  8
SEIHIN
100
AcDbLine
 10
500.6630561991014
 20
501.6336927334007
 30
0.0
 11
500.6630561991014
 21
504.4651587334008
 31
0.0
  0
LINE
  5
4181
330
1A
100
AcDbEntity
  8
SEIHIN
100
AcDbLine
 10
499.6630361991015
 20
504.4651587334008
 30
0.0
 11
499.6630361991015
 21
503.9220867334006
 31
0.0
  0
LINE
  5
4182
330
1A
100
AcDbEntity
  8
SEIHIN
100
AcDbLine
 10
516.6629261991015
 20
526.0401357334008
 30
0.0
 11
499.6629161991015
 21
523.0360197334007
 31
0.0
  0
LINE
  5
4183
330
1A
100
AcDbEntity
  8
SEIHIN
100
AcDbLine
 10
501.6630461991017
 20
507.0058467334006
 30
0.0
 11
516.4874861991015
 21
510.2262027334006
 31
0.0
  0
LINE
  5
4184
330
1A
100
AcDbEntity
  8
SEIHIN
100
AcDbLine
 10
516.6630461991017
 20
509.3268927334007
 30
0.0
 11
501.6630461991017
 21
506.0684007334007
 31
0.0
  0
LINE
  5
4185
330
1A
100
AcDbEntity
  8
SEIHIN
100
AcDbLine
 10
516.4840361991016
 20
510.2401137334006
 30
0.0
 11
516.6630461991017
 21
509.3268927334007
 31
0.0
  0
LINE
  5
4186
330
1A
100
AcDbEntity
  8
SEIHIN
100
AcDbLine
 10
516.4840361991016
 20
510.2401137334006
 30
0.0
 11
515.0623661991017
 21
516.4503027334007
 31
0.0
  0
ARC
  5
4187
330
1A
100
AcDbEntity
  8
SEIHIN
100
AcDbCircle
 10
546.6724625602528
 20
507.5120830078669
 30
0.0
 40
4.009440331867595
100
AcDbArc
 50
179.7641431951635
 51
269.8654380153722
  0
ARC
  5
4188
330
1A
100
AcDbEntity
  8
SEIHIN
100
AcDbCircle
 10
546.6307116465976
 20
503.1898547757162
 30
0.0
 40
3.968443774135092
100
AcDbArc
 50
181.2852066064082
 51
270.4668464506269
  0
LINE
  5
4189
330
1A
100
AcDbEntity
  8
SEIHIN
100
AcDbLine
 10
549.6543761991015
 20
516.4503027334007
 30
0.0
 11
549.6543761991015
 21
506.6169897334007
 31
0.0
  0
LINE
  5
418A
330
1A
100
AcDbEntity
  8
SEIHIN
100
AcDbLine
 10
547.1630561991014
 20
506.6169897334007
 30
0.0
 11
547.1630561991016
 21
516.4503027334007
 31
0.0
  0
LINE
  5
418B
330
1A
100
AcDbEntity
  8
SEIHIN
100
AcDbLine
 10
549.6543761991015
 20
506.6169897334007
 30
0.0
 11
547.1630561991014
 21
506.6169897334007
 31
0.0
  0
LINE
  5
418C
330
1A
100
AcDbEntity
  8
SEIHIN
100
AcDbLine
 10
680.6630561991014
 20
525.0387627334007
 30
0.0
 11
607.6630361991014
 21
526.0401357334008
 31
0.0
  0
LINE
  5
418D
330
1A
100
AcDbEntity
  8
SEIHIN
100
AcDbLine
 10
670.1630561991014
 20
522.8354967334007
 30
0.0
 11
631.2367961991014
 21
522.8354967334007
 31
0.0
  0
LINE
  5
418E
330
1A
100
AcDbEntity
  8
SEIHIN
100
AcDbLine
 10
670.492936199103
 20
518.9651577334006
 30
0.0
 11
631.1630561991014
 21
518.9651577334006
 31
0.0
  0
LINE
  5
418F
330
1A
100
AcDbEntity
  8
SEIHIN
100
AcDbLine
 10
668.1630461991017
 20
505.6297137334008
 30
0.0
 11
637.1630561991014
 21
505.6297137334008
 31
0.0
  0
LINE
  5
4190
330
1A
100
AcDbEntity
  8
SEIHIN
100
AcDbLine
 10
636.6630461991016
 20
489.1874067334003
 30
0.0
 11
668.1630461991017
 21
489.1874067334006
 31
0.0
  0
LINE
  5
4191
330
1A
100
AcDbEntity
  8
SEIHIN
100
AcDbLine
 10
670.6630361991015
 20
520.8354957334006
 30
0.0
 11
631.1630561991014
 21
520.8354957334006
 31
0.0
  0
LINE
  5
4192
330
1A
100
AcDbEntity
  8
SEIHIN
100
AcDbLine
 10
631.1630561991014
 20
519.2651577334008
 30
0.0
 11
670.6630361991015
 21
519.2651577334008
 31
0.0
  0
LINE
  5
4193
330
1A
100
AcDbEntity
  8
SEIHIN
100
AcDbLine
 10
632.1630461991016
 20
523.5904857334007
 30
0.0
 11
680.6630561991014
 21
523.5904857334007
 31
0.0
  0
ARC
  5
4194
330
1A
100
AcDbEntity
  8
SEIHIN
100
AcDbCircle
 10
637.1795566491657
 20
505.1132321282014
 30
0.0
 40
0.5167451145020785
100
AcDbArc
 50
91.82985161412224
 51
181.7267899672824
  0
ARC
  5
4195
330
1A
100
AcDbEntity
  8
SEIHIN
100
AcDbCircle
 10
636.1345593128844
 20
504.0329932765728
 30
0.0
 40
0.5308005159266811
100
AcDbArc
 50
272.3880368601525
 51
354.6484848015933
  0
LINE
  5
4196
330
1A
100
AcDbEntity
  8
SEIHIN
100
AcDbLine
 10
631.1630561991014
 20
522.5891127334007
 30
0.0
 11
631.1630561991014
 21
516.4530447334004
 31
0.0
  0
ARC
  5
4197
330
1A
100
AcDbEntity
  8
SEIHIN
100
AcDbCircle
 10
632.1638020706955
 20
522.5897399507102
 30
0.0
 40
1.000746068148504
100
AcDbArc
 50
90.04327596949304
 51
180.0359101156344
  0
LINE
  5
4198
330
1A
100
AcDbEntity
  8
SEIHIN
100
AcDbLine
 10
669.6630461991016
 20
501.6336927334007
 30
0.0
 11
669.6630461991016
 21
506.6169897334007
 31
0.0
  0
LINE
  5
4199
330
1A
100
AcDbEntity
  8
SEIHIN
100
AcDbLine
 10
668.2336361991015
 20
506.5167987334007
 30
0.0
 11
668.6034461991016
 21
505.8450897334007
 31
0.0
  0
LINE
  5
419A
330
1A
100
AcDbEntity
  8
SEIHIN
100
AcDbLine
 10
668.1630461991017
 20
505.6297137334008
 30
0.0
 11
668.1630461991017
 21
506.6169897334007
 31
0.0
  0
LINE
  5
419B
330
1A
100
AcDbEntity
  8
SEIHIN
100
AcDbLine
 10
670.6630361991015
 20
504.4038417333911
 30
0.0
 11
670.6630361991015
 21
522.4381137334007
 31
0.0
  0
ARC
  5
419C
330
1A
100
AcDbEntity
  8
SEIHIN
100
AcDbCircle
 10
668.1653090713985
 20
505.1319547147754
 30
0.0
 40
0.497764162243482
100
AcDbArc
 50
0.4740151996415648
 51
90.26047170249167
  0
LINE
  5
419D
330
1A
100
AcDbEntity
  8
SEIHIN
100
AcDbLine
 10
668.6630561991014
 20
501.3253677334007
 30
0.0
 11
669.0898961991015
 21
501.3893787334007
 31
0.0
  0
LINE
  5
419E
330
1A
100
AcDbEntity
  8
SEIHIN
100
AcDbLine
 10
669.0898961991015
 20
501.3893787334007
 30
0.0
 11
669.4048661991014
 21
501.4637277334009
 31
0.0
  0
LINE
  5
419F
330
1A
100
AcDbEntity
  8
SEIHIN
100
AcDbLine
 10
669.4048661991014
 20
501.4637277334009
 30
0.0
 11
669.5979761991016
 21
501.5460387334008
 31
0.0
  0
LINE
  5
41A0
330
1A
100
AcDbEntity
  8
SEIHIN
100
AcDbLine
 10
669.5979761991016
 20
501.5460387334008
 30
0.0
 11
669.6630461991016
 21
501.6336927334007
 31
0.0
  0
LINE
  5
41A1
330
1A
100
AcDbEntity
  8
SEIHIN
100
AcDbLine
 10
668.6034461991016
 20
505.8450897334007
 30
0.0
 11
668.6630561991014
 21
505.4989557334006
 31
0.0
  0
LINE
  5
41A2
330
1A
100
AcDbEntity
  8
SEIHIN
100
AcDbLine
 10
685.6730261991015
 20
502.8635877334006
 30
0.0
 11
671.1380861991015
 21
503.8885887334008
 31
0.0
  0
ARC
  5
41A3
330
1A
100
AcDbEntity
  8
SEIHIN
100
AcDbCircle
 10
671.1781471903309
 20
504.4021423704259
 30
0.0
 40
0.5151137943406506
100
AcDbArc
 50
179.8109805949765
 51
265.5395373041238
  0
ARC
  5
41A4
330
1A
100
AcDbEntity
  8
SEIHIN
100
AcDbCircle
 10
671.1630461991014
 20
504.9651567334008
 30
0.0
 40
0.4999998000000002
100
AcDbArc
 50
180.0
 51
270.0
  0
LINE
  5
41A5
330
1A
100
AcDbEntity
  8
SEIHIN
100
AcDbLine
 10
669.6630461991016
 20
506.6169897334007
 30
0.0
 11
670.6630361991015
 21
506.6169897334007
 31
0.0
  0
LINE
  5
41A6
330
1A
100
AcDbEntity
  8
SEIHIN
100
AcDbLine
 10
668.1630461991017
 20
518.9651577334009
 30
0.0
 11
668.1630461991017
 21
506.6169897334007
 31
0.0
  0
LINE
  5
41A7
330
1A
100
AcDbEntity
  8
SEIHIN
100
AcDbLine
 10
665.6716961991015
 20
506.6169897334007
 30
0.0
 11
665.6716961991015
 21
518.9651577334009
 31
0.0
  0
LINE
  5
41A8
330
1A
100
AcDbEntity
  8
SEIHIN
100
AcDbLine
 10
665.6716961991015
 20
506.6169897334007
 30
0.0
 11
668.1630461991017
 21
506.6169897334007
 31
0.0
  0
LINE
  5
41A9
330
1A
100
AcDbEntity
  8
SEIHIN
100
AcDbLine
 10
668.1667061991015
 20
506.6118267334006
 30
0.0
 11
668.2336361991015
 21
506.5167987334007
 31
0.0
  0
ARC
  5
41AA
330
1A
100
AcDbEntity
  8
SEIHIN
100
AcDbCircle
 10
670.3146152261743
 20
518.7447858910338
 30
0.0
 40
0.3488037802188714
100
AcDbArc
 50
357.3154168069937
 51
23.18202514004469
  0
ARC
  5
41AB
330
1A
100
AcDbEntity
  8
SEIHIN
100
AcDbCircle
 10
670.5021749305767
 20
518.8175312166854
 30
0.0
 40
0.1479153223866846
100
AcDbArc
 50
25.87969408118367
 51
93.58100226443875
  0
LINE
  5
41AC
330
1A
100
AcDbEntity
  8
SEIHIN
100
AcDbLine
 10
670.6630463991016
 20
522.5360187334008
 30
0.0
 11
670.6630361991015
 21
522.4381137334007
 31
0.0
  0
LINE
  5
41AD
330
1A
100
AcDbEntity
  8
SEIHIN
100
AcDbLine
 10
670.1656961991016
 20
522.8331987334009
 30
0.0
 11
670.4562761991014
 21
522.7429107334008
 31
0.0
  0
LINE
  5
41AE
330
1A
100
AcDbEntity
  8
SEIHIN
100
AcDbLine
 10
670.4562761991014
 20
522.7429107334008
 30
0.0
 11
670.6630361991015
 21
522.4381137334007
 31
0.0
  0
ARC
  5
41AF
330
1A
100
AcDbEntity
  8
SEIHIN
100
AcDbCircle
 10
671.1630461991014
 20
522.5360187334008
 30
0.0
 40
0.4999998000000002
100
AcDbArc
 50
90.0
 51
180.0
  0
LINE
  5
41B0
330
1A
100
AcDbEntity
  8
SEIHIN
100
AcDbLine
 10
680.6630561991014
 20
525.0373917334009
 30
0.0
 11
680.6630561991014
 21
523.0360197334007
 31
0.0
  0
LINE
  5
41B1
330
1A
100
AcDbEntity
  8
SEIHIN
  6
PHANTOM
 62
     6
 48
5.0
100
AcDbLine
 10
766.6630361991015
 20
415.3151667334006
 30
0.0
 11
766.6630361991015
 21
522.5353347334007
 31
0.0
  0
LINE
  5
41B2
330
1A
100
AcDbEntity
  8
SEIHIN
100
AcDbLine
 10
693.6630461991015
 20
501.374459300762
 30
0.0
 11
693.6630461991015
 21
432.1176447334007
 31
0.0
  0
LINE
  5
41B3
330
1A
100
AcDbEntity
  8
SEIHIN
100
AcDbLine
 10
724.6630361991015
 20
415.3151667334006
 30
0.0
 11
724.6630361991015
 21
522.5353347334007
 31
0.0
  0
LINE
  5
41B4
330
1A
100
AcDbEntity
  8
SEIHIN
  6
PHANTOM
 62
     6
 48
5.0
100
AcDbLine
 10
756.6630461991015
 20
341.4429267334007
 30
0.0
 11
766.6630361991015
 21
415.3151667334006
 31
0.0
  0
LINE
  5
41B5
330
1A
100
AcDbEntity
  8
SEIHIN
100
AcDbLine
 10
693.6630461991015
 20
398.5126767334006
 30
0.0
 11
693.6630461991015
 21
329.207806051381
 31
0.0
  0
LINE
  5
41B6
330
1A
100
AcDbEntity
  8
SEIHIN
100
AcDbLine
 10
714.6630461991015
 20
341.4429267334007
 30
0.0
 11
724.6630361991015
 21
415.3151667334006
 31
0.0
  0
LINE
  5
41B7
330
1A
100
AcDbEntity
  8
SEIHIN
  6
PHANTOM
 62
     6
 48
5.0
100
AcDbLine
 10
746.6630861991015
 20
307.5943167334007
 30
0.0
 11
756.6630461991015
 21
308.0949867334006
 31
0.0
  0
LINE
  5
41B8
330
1A
100
AcDbEntity
  8
SEIHIN
  6
PHANTOM
 62
     6
 48
5.0
100
AcDbLine
 10
713.1630461991017
 20
307.5943167334007
 30
0.0
 11
746.6630861991015
 21
307.5943167334007
 31
0.0
  0
LINE
  5
41B9
330
1A
100
AcDbEntity
  8
SEIHIN
100
AcDbLine
 10
714.6630461991017
 20
308.0949867334006
 30
0.0
 11
714.6630461991015
 21
341.4429267334004
 31
0.0
  0
LINE
  5
41BA
330
1A
100
AcDbEntity
  8
SEIHIN
100
AcDbLine
 10
699.6630461991014
 20
325.6651767334005
 30
0.0
 11
699.6630461991014
 21
312.6651567334005
 31
0.0
  0
LINE
  5
41BB
330
1A
100
AcDbEntity
  8
SEIHIN
100
AcDbLine
 10
700.6630361991015
 20
311.6651667334007
 30
0.0
 11
714.6630461991015
 21
311.6651667334007
 31
0.0
  0
LINE
  5
41BC
330
1A
100
AcDbEntity
  8
SEIHIN
100
AcDbLine
 10
699.7970261991013
 20
312.1651767334005
 30
0.0
 11
714.6630461991015
 21
312.1651767334005
 31
0.0
  0
ARC
  5
41BD
330
1A
100
AcDbEntity
  8
SEIHIN
100
AcDbCircle
 10
700.6630361991015
 20
312.6651567334005
 30
0.0
 40
0.9999998999999998
100
AcDbArc
 50
180.0
 51
270.0
  0
LINE
  5
41BE
330
1A
100
AcDbEntity
  8
SEIHIN
100
AcDbLine
 10
704.6630861991015
 20
307.5943167334007
 30
0.0
 11
714.6630461991015
 21
308.0949867334006
 31
0.0
  0
LINE
  5
41BF
330
1A
100
AcDbEntity
  8
SEIHIN
100
AcDbLine
 10
714.6630461991015
 20
324.0133467334004
 30
0.0
 11
699.6630461991014
 21
324.0133467334004
 31
0.0
  0
LINE
  5
41C0
330
1A
100
AcDbEntity
  8
SEIHIN
100
AcDbLine
 10
699.6630461991014
 20
325.0006167334008
 30
0.0
 11
714.6630461991015
 21
325.0006167334008
 31
0.0
  0
LINE
  5
41C1
330
1A
100
AcDbEntity
  8
SEIHIN
100
AcDbLine
 10
693.6630461991015
 20
339.9620067334007
 30
0.0
 11
714.6630461991015
 21
339.9620067334007
 31
0.0
  0
LINE
  5
41C2
330
1A
100
AcDbEntity
  8
SEIHIN
100
AcDbLine
 10
693.6630461991015
 20
341.4429267334007
 30
0.0
 11
714.6630461991015
 21
341.4429267334007
 31
0.0
  0
ARC
  5
41C3
330
1A
100
AcDbEntity
  8
SEIHIN
100
AcDbCircle
 10
691.6914826104608
 20
334.3742549873615
 30
0.0
 40
4.939297447254054
100
AcDbArc
 50
270.3382206366975
 51
279.6103901142318
  0
ARC
  5
41C4
330
1A
100
AcDbEntity
  8
SEIHIN
100
AcDbCircle
 10
692.0777313138146
 20
331.8830379696566
 30
0.0
 40
3.093391045344749
100
AcDbArc
 50
285.6177065791777
 51
300.8294615219725
  0
ARC
  5
41C5
330
1A
100
AcDbEntity
  8
SEIHIN
100
AcDbCircle
 10
692.0578077870495
 20
334.7055238785314
 30
0.0
 40
5.221397415221677
100
AcDbArc
 50
275.0352896526783
 51
287.9046975413604
  0
LINE
  5
41C6
330
1A
100
AcDbEntity
  8
SEIHIN
100
AcDbLine
 10
692.9105261991014
 20
328.9038567334007
 30
0.0
 11
691.9857665955969
 21
328.6520587884246
 31
0.0
  0
ARC
  5
41C7
330
1A
100
AcDbEntity
  8
SEIHIN
100
AcDbCircle
 10
699.1630361991014
 20
325.6651767334005
 30
0.0
 40
0.4999998000000002
100
AcDbArc
 50
0.0
 51
90.0
  0
LINE
  5
41C8
330
1A
100
AcDbEntity
  8
SEIHIN
  6
PHANTOM
 62
     6
 48
5.0
100
AcDbLine
 10
756.6630461991016
 20
308.0949867334006
 30
0.0
 11
756.6630461991015
 21
341.4429267334004
 31
0.0
  0
ARC
  5
41C9
330
1A
100
AcDbEntity
  8
SEIHIN
100
AcDbCircle
 10
691.6630361991015
 20
398.5126767334006
 30
0.0
 40
1.999999799999999
100
AcDbArc
 50
0.0
 51
84.05312999999752
  0
ARC
  5
41CA
330
1A
100
AcDbEntity
  8
SEIHIN
100
AcDbCircle
 10
691.6630361991015
 20
432.1176447334007
 30
0.0
 40
1.999999799999999
100
AcDbArc
 50
275.9468629999971
 51
0.0
  0
LINE
  5
41CB
330
1A
100
AcDbEntity
  8
SEIHIN
  6
PHANTOM
 62
     6
 48
5.0
100
AcDbLine
 10
756.6630761991014
 20
523.0360197334007
 30
0.0
 11
713.1630461991017
 21
523.0360197334007
 31
0.0
  0
LINE
  5
41CC
330
1A
100
AcDbEntity
  8
SEIHIN
100
AcDbLine
 10
724.6630361991015
 20
522.5353347334007
 30
0.0
 11
714.6630761991014
 21
523.0360197334007
 31
0.0
  0
LINE
  5
41CD
330
1A
100
AcDbEntity
  8
SEIHIN
100
AcDbLine
 10
724.6630361991015
 20
518.9651577334006
 30
0.0
 11
700.6630361991015
 21
518.9651577334006
 31
0.0
  0
LINE
  5
41CE
330
1A
100
AcDbEntity
  8
SEIHIN
100
AcDbLine
 10
724.6630361991015
 20
518.4651567334007
 30
0.0
 11
699.7970261991013
 21
518.4651567334007
 31
0.0
  0
LINE
  5
41CF
330
1A
100
AcDbEntity
  8
SEIHIN
100
AcDbLine
 10
699.6630461991014
 20
506.6169897334007
 30
0.0
 11
724.6630361991015
 21
506.6169897334007
 31
0.0
  0
LINE
  5
41D0
330
1A
100
AcDbEntity
  8
SEIHIN
100
AcDbLine
 10
724.6630361991015
 20
505.6297137334008
 30
0.0
 11
699.6630461991014
 21
505.6297137334008
 31
0.0
  0
LINE
  5
41D1
330
1A
100
AcDbEntity
  8
SEIHIN
100
AcDbLine
 10
693.6630461991015
 20
490.6683237334006
 30
0.0
 11
724.6630361991015
 21
490.6683237334006
 31
0.0
  0
LINE
  5
41D2
330
1A
100
AcDbEntity
  8
SEIHIN
100
AcDbLine
 10
693.6630461991015
 20
489.1874067334006
 30
0.0
 11
724.6630361991015
 21
489.1874067334006
 31
0.0
  0
LINE
  5
41D3
330
1A
100
AcDbEntity
  8
SEIHIN
100
AcDbLine
 10
699.6630461991014
 20
517.9651587334007
 30
0.0
 11
699.6630461991014
 21
504.9651567334008
 31
0.0
  0
ARC
  5
41D4
330
1A
100
AcDbEntity
  8
SEIHIN
100
AcDbCircle
 10
690.7756904702589
 20
495.3845782362223
 30
0.0
 40
6.691565432112006
100
AcDbArc
 50
66.26945707461485
 51
83.26494590031817
  0
LINE
  5
41D5
330
1A
100
AcDbEntity
  8
SEIHIN
100
AcDbLine
 10
691.0304861991017
 20
502.1122437334006
 30
0.0
 11
691.5604661991014
 21
502.0299657334008
 31
0.0
  0
LINE
  5
41D6
330
1A
100
AcDbEntity
  8
SEIHIN
100
AcDbLine
 10
693.4686161991017
 20
501.5103597334007
 30
0.0
 11
693.6630461991015
 21
501.374459300762
 31
0.0
  0
ARC
  5
41D7
330
1A
100
AcDbEntity
  8
SEIHIN
100
AcDbCircle
 10
699.1630361991014
 20
504.9651567334008
 30
0.0
 40
0.4999998000000002
100
AcDbArc
 50
270.0
 51
0.0
  0
ARC
  5
41D8
330
1A
100
AcDbEntity
  8
SEIHIN
100
AcDbCircle
 10
700.6630361991015
 20
517.9651587334007
 30
0.0
 40
0.9999998999999998
100
AcDbArc
 50
90.0
 51
180.0
  0
LINE
  5
41D9
330
1A
100
AcDbEntity
  8
SEIHIN
  6
PHANTOM
 62
     6
 48
5.0
100
AcDbLine
 10
766.6630361991015
 20
522.5353347334007
 30
0.0
 11
756.6630761991014
 21
523.0360197334007
 31
0.0
  0
LINE
  5
44E1
330
1A
100
AcDbEntity
  8
SEIHIN
100
AcDbLine
 10
445.6630361991015
 20
84.04168510861813
 30
0.0
 11
455.6630261991013
 21
84.04168510861813
 31
0.0
  0
VIEWPORT
  5
22
330
17
100
AcDbEntity
 67
     1
  8
0
100
AcDbViewport
 10
313.6808219178082
 20
148.5
 30
0.0
 40
627.3616438356165
 41
297.0
 68
     2
 69
     1
 12
313.6808219178082
 22
148.5
 13
0.0
 23
0.0
 14
1.0
 24
1.0
 15
10.0
 25
10.0
 16
0.0
 26
0.0
 36
1.0
 17
0.0
 27
0.0
 37
0.0
 42
50.0
 43
0.0
 44
0.0
 45
297.0
 50
0.0
 51
0.0
 72
   100
 90
    32768
  1

281
     0
 71
     1
 74
     0
110
0.0
120
0.0
130
0.0
111
1.0
121
0.0
131
0.0
112
0.0
122
1.0
132
0.0
 79
     0
146
0.0
  0
VIEWPORT
  5
64
330
17
100
AcDbEntity
 67
     1
  8
VIEWPORT
100
AcDbViewport
 10
210.0
 20
148.5
 30
0.0
 40
420.0
 41
297.0
 68
     1
 69
     2
 12
420.0
 22
297.0
 13
0.0
 23
0.0
 14
10.0
 24
10.0
 15
0.0
 25
0.0
 16
0.0
 26
0.0
 36
1.0
 17
0.0
 27
0.0
 37
0.0
 42
50.0
 43
0.0
 44
0.0
 45
605.8799999999998
 50
0.0
 51
0.0
 72
   100
 90
    32768
  1

281
     0
 71
     1
 74
     0
110
0.0
120
0.0
130
0.0
111
1.0
121
0.0
131
0.0
112
0.0
122
1.0
132
0.0
 79
     0
146
0.0
  0
ENDSEC
  0
SECTION
  2
OBJECTS
  0
DICTIONARY
  5
C
330
0
100
AcDbDictionary
281
     1
  3
ACAD_GROUP
350
D
  3
ACAD_LAYOUT
350
340
  3
ACAD_MLINESTYLE
350
E
  3
ACAD_PLOTSETTINGS
350
341
  3
ACAD_PLOTSTYLENAME
350
33E
  3
AcDbVariableDictionary
350
11E9
  0
DICTIONARY
  5
385
330
1A
100
AcDbDictionary
280
     1
281
     1
  3
ACAD_LAYOUTSELFREF
360
450D
  0
DICTIONARY
  5
383
330
17
100
AcDbDictionary
280
     1
281
     1
  3
ACAD_LAYOUTSELFREF
360
450C
  0
DICTIONARY
  5
D
102
{ACAD_REACTORS
330
C
102
}
330
C
100
AcDbDictionary
281
     1
  0
DICTIONARY
  5
340
102
{ACAD_REACTORS
330
C
102
}
330
C
100
AcDbDictionary
281
     1
  3
Model
350
342
  3
ﾚｲｱｳﾄ1
350
343
  0
DICTIONARY
  5
E
102
{ACAD_REACTORS
330
C
102
}
330
C
100
AcDbDictionary
281
     1
  3
STANDARD
350
13
  0
DICTIONARY
  5
341
102
{ACAD_REACTORS
330
C
102
}
330
C
100
AcDbDictionary
281
     1
  0
ACDBDICTIONARYWDFLT
  5
33E
102
{ACAD_REACTORS
330
C
102
}
330
C
100
AcDbDictionary
281
     1
  3
Normal
350
33F
100
AcDbDictionaryWithDefault
340
33F
1001
ACAD
1000
TREAT_AS_HARD
1070
     0
1000
TREAT_AS_HARD
1070
     0
1000
TREAT_AS_HARD
1070
     0
1000
TREAT_AS_HARD
1070
     0
1000
TREAT_AS_HARD
1070
     0
1000
TREAT_AS_HARD
1070
     0
1000
TREAT_AS_HARD
1070
     0
1000
TREAT_AS_HARD
1070
     0
1000
TREAT_AS_HARD
1070
     0
1000
TREAT_AS_HARD
1070
     0
  0
DICTIONARY
  5
11E9
102
{ACAD_REACTORS
330
C
102
}
330
C
100
AcDbDictionary
281
     1
  3
SORTENTS
350
11EA
  0
XRECORD
  5
450D
102
{ACAD_REACTORS
330
385
102
}
330
385
100
AcDbXrecord
280
     1
340
1A
  0
XRECORD
  5
450C
102
{ACAD_REACTORS
330
383
102
}
330
383
100
AcDbXrecord
280
     1
340
17
  0
LAYOUT
  5
342
102
{ACAD_REACTORS
330
340
102
}
330
340
100
AcDbPlotSettings
  1

  2
Acrobat Distiller
  4
A3
  6

 40
3.174999952316284
 41
3.174999952316284
 42
3.17498779296875
 43
3.17498779296875
 44
297.0318298339843
 45
420.1583251953125
 46
0.0
 47
0.0
 48
0.0
 49
0.0
140
0.0
141
0.0
142
1.0
143
2.0
 70
 11952
 72
     1
 73
     1
 74
     2
  7
print.ctb
 75
    17
147
0.5
148
0.0
149
0.0
100
AcDbLayout
  1
Model
 70
     1
 71
     0
 10
0.0
 20
0.0
 11
12.0
 21
9.0
 12
0.0
 22
0.0
 32
0.0
 14
0.0
 24
0.0
 34
0.0
 15
0.0
 25
0.0
 35
0.0
146
0.0
 13
0.0
 23
0.0
 33
0.0
 16
1.0
 26
0.0
 36
0.0
 17
0.0
 27
1.0
 37
0.0
 76
     0
330
1A
  0
LAYOUT
  5
343
102
{ACAD_REACTORS
330
340
102
}
330
340
100
AcDbPlotSettings
  1

  2
Acrobat Distiller
  4

  6

 40
0.0
 41
0.0
 42
0.0
 43
0.0
 44
0.0
 45
0.0
 46
0.0
 47
0.0
 48
0.0
 49
0.0
140
0.0
141
0.0
142
1.0
143
1.0
 70
   688
 72
     0
 73
     0
 74
     5
  7
print.ctb
 75
    16
147
1.0
148
0.0
149
0.0
100
AcDbLayout
  1
ﾚｲｱｳﾄ1
 70
     1
 71
     1
 10
0.0
 20
0.0
 11
420.0
 21
297.0
 12
0.0
 22
0.0
 32
0.0
 14
0.0
 24
0.0
 34
0.0
 15
420.0
 25
297.0
 35
0.0
146
0.0
 13
0.0
 23
0.0
 33
0.0
 16
1.0
 26
0.0
 36
0.0
 17
0.0
 27
1.0
 37
0.0
 76
     0
330
17
331
64
  0
MLINESTYLE
  5
13
102
{ACAD_REACTORS
330
E
102
}
330
E
100
AcDbMlineStyle
  2
STANDARD
 70
     0
  3

 62
     0
 51
90.0
 52
90.0
 71
     2
 49
0.5
 62
   256
  6
BYLAYER
 49
-0.5
 62
   256
  6
BYLAYER
  0
ACDBPLACEHOLDER
  5
33F
102
{ACAD_REACTORS
330
33E
102
}
330
33E
  0
DICTIONARYVAR
  5
11EA
102
{ACAD_REACTORS
330
11E9
102
}
330
11E9
100
DictionaryVariables
280
     0
  1
96
  0
ENDSEC
  0
EOF
