  0
SECTION
  2
HEADER
  9
$ACADVER
  1
AC1015
  9
$ACADMAINTVER
 70
     6
  9
$DWGCODEPAGE
  3
ANSI_932
  9
$INSBASE
 10
0.0
 20
0.0
 30
0.0
  9
$EXTMIN
 10
10.05047808566086
 20
13.78258628282265
 30
0.0
  9
$EXTMAX
 10
807.6504780856607
 20
565.3825862828227
 30
0.0
  9
$LIMMIN
 10
0.0
 20
0.0
  9
$LIMMAX
 10
840.0
 20
594.0
  9
$ORTHOMODE
 70
     0
  9
$REGENMODE
 70
     1
  9
$FILLMODE
 70
     1
  9
$QTEXTMODE
 70
     0
  9
$MIRRTEXT
 70
     1
  9
$LTSCALE
 40
2.0
  9
$ATTMODE
 70
     1
  9
$TEXTSIZE
 40
5.0
  9
$TRACEWID
 40
1.0
  9
$TEXTSTYLE
  7
STANDARD
  9
$CLAYER
  8
SEIHIN
  9
$CELTYPE
  6
BYLAYER
  9
$CECOLOR
 62
   256
  9
$CELTSCALE
 40
1.0
  9
$DISPSILH
 70
     0
  9
$DIMSCALE
 40
1.0
  9
$DIMASZ
 40
7.0
  9
$DIMEXO
 40
6.0
  9
$DIMDLI
 40
14.0
  9
$DIMRND
 40
0.0
  9
$DIMDLE
 40
0.0
  9
$DIMEXE
 40
3.0
  9
$DIMTP
 40
0.0
  9
$DIMTM
 40
0.0
  9
$DIMTXT
 40
6.0
  9
$DIMCEN
 40
150.0
  9
$DIMTSZ
 40
0.0
  9
$DIMTOL
 70
     0
  9
$DIMLIM
 70
     0
  9
$DIMTIH
 70
     0
  9
$DIMTOH
 70
     0
  9
$DIMSE1
 70
     0
  9
$DIMSE2
 70
     0
  9
$DIMTAD
 70
     3
  9
$DIMZIN
 70
     0
  9
$DIMBLK
  1

  9
$DIMASO
 70
     1
  9
$DIMSHO
 70
     1
  9
$DIMPOST
  1

  9
$DIMAPOST
  1

  9
$DIMALT
 70
     0
  9
$DIMALTD
 70
     2
  9
$DIMALTF
 40
25.4
  9
$DIMLFAC
 40
1.0
  9
$DIMTOFL
 70
     1
  9
$DIMTVP
 40
0.0
  9
$DIMTIX
 70
     0
  9
$DIMSOXD
 70
     0
  9
$DIMSAH
 70
     1
  9
$DIMBLK1
  1
OPEN
  9
$DIMBLK2
  1
OPEN
  9
$DIMSTYLE
  2
STANDARD
  9
$DIMCLRD
 70
   256
  9
$DIMCLRE
 70
   256
  9
$DIMCLRT
 70
   256
  9
$DIMTFAC
 40
1.0
  9
$DIMGAP
 40
2.0
  9
$DIMJUST
 70
     0
  9
$DIMSD1
 70
     0
  9
$DIMSD2
 70
     0
  9
$DIMTOLJ
 70
     1
  9
$DIMTZIN
 70
     0
  9
$DIMALTZ
 70
     0
  9
$DIMALTTZ
 70
     0
  9
$DIMUPT
 70
     0
  9
$DIMDEC
 70
     0
  9
$DIMTDEC
 70
     0
  9
$DIMALTU
 70
     2
  9
$DIMALTTD
 70
     2
  9
$DIMTXSTY
  7
STANDARD
  9
$DIMAUNIT
 70
     0
  9
$DIMADEC
 70
     0
  9
$DIMALTRND
 40
0.0
  9
$DIMAZIN
 70
     0
  9
$DIMDSEP
 70
    46
  9
$DIMATFIT
 70
     3
  9
$DIMFRAC
 70
     0
  9
$DIMLDRBLK
  1
OPEN
  9
$DIMLUNIT
 70
     2
  9
$DIMLWD
 70
    -1
  9
$DIMLWE
 70
    -1
  9
$DIMTMOVE
 70
     0
  9
$LUNITS
 70
     2
  9
$LUPREC
 70
     4
  9
$SKETCHINC
 40
1.0
  9
$FILLETRAD
 40
1.0
  9
$AUNITS
 70
     0
  9
$AUPREC
 70
     0
  9
$MENU
  1
.
  9
$ELEVATION
 40
0.0
  9
$PELEVATION
 40
0.0
  9
$THICKNESS
 40
0.0
  9
$LIMCHECK
 70
     0
  9
$CHAMFERA
 40
20.0
  9
$CHAMFERB
 40
20.0
  9
$CHAMFERC
 40
40.0
  9
$CHAMFERD
 40
0.0
  9
$SKPOLY
 70
     0
  9
$TDCREATE
 40
2454866.469916053
  9
$TDUCREATE
 40
2454866.094916053
  9
$TDUPDATE
 40
2454876.401801400
  9
$TDUUPDATE
 40
2454876.026801400
  9
$TDINDWG
 40
0.0090983218
  9
$TDUSRTIMER
 40
0.0090983218
  9
$USRTIMER
 70
     1
  9
$ANGBASE
 50
0.0
  9
$ANGDIR
 70
     0
  9
$PDMODE
 70
     0
  9
$PDSIZE
 40
0.0
  9
$PLINEWID
 40
0.0
  9
$SPLFRAME
 70
     0
  9
$SPLINETYPE
 70
     6
  9
$SPLINESEGS
 70
     8
  9
$HANDSEED
  5
2FA4
  9
$SURFTAB1
 70
     6
  9
$SURFTAB2
 70
     6
  9
$SURFTYPE
 70
     6
  9
$SURFU
 70
     6
  9
$SURFV
 70
     6
  9
$UCSBASE
  2

  9
$UCSNAME
  2

  9
$UCSORG
 10
0.0
 20
0.0
 30
0.0
  9
$UCSXDIR
 10
1.0
 20
0.0
 30
0.0
  9
$UCSYDIR
 10
0.0
 20
1.0
 30
0.0
  9
$UCSORTHOREF
  2

  9
$UCSORTHOVIEW
 70
     0
  9
$UCSORGTOP
 10
0.0
 20
0.0
 30
0.0
  9
$UCSORGBOTTOM
 10
0.0
 20
0.0
 30
0.0
  9
$UCSORGLEFT
 10
0.0
 20
0.0
 30
0.0
  9
$UCSORGRIGHT
 10
0.0
 20
0.0
 30
0.0
  9
$UCSORGFRONT
 10
0.0
 20
0.0
 30
0.0
  9
$UCSORGBACK
 10
0.0
 20
0.0
 30
0.0
  9
$PUCSBASE
  2

  9
$PUCSNAME
  2

  9
$PUCSORG
 10
0.0
 20
0.0
 30
0.0
  9
$PUCSXDIR
 10
1.0
 20
0.0
 30
0.0
  9
$PUCSYDIR
 10
0.0
 20
1.0
 30
0.0
  9
$PUCSORTHOREF
  2

  9
$PUCSORTHOVIEW
 70
     0
  9
$PUCSORGTOP
 10
0.0
 20
0.0
 30
0.0
  9
$PUCSORGBOTTOM
 10
0.0
 20
0.0
 30
0.0
  9
$PUCSORGLEFT
 10
0.0
 20
0.0
 30
0.0
  9
$PUCSORGRIGHT
 10
0.0
 20
0.0
 30
0.0
  9
$PUCSORGFRONT
 10
0.0
 20
0.0
 30
0.0
  9
$PUCSORGBACK
 10
0.0
 20
0.0
 30
0.0
  9
$USERI1
 70
     0
  9
$USERI2
 70
     0
  9
$USERI3
 70
     0
  9
$USERI4
 70
     0
  9
$USERI5
 70
     0
  9
$USERR1
 40
0.0
  9
$USERR2
 40
0.0
  9
$USERR3
 40
0.0
  9
$USERR4
 40
0.0
  9
$USERR5
 40
0.0
  9
$WORLDVIEW
 70
     1
  9
$SHADEDGE
 70
     3
  9
$SHADEDIF
 70
    70
  9
$TILEMODE
 70
     1
  9
$MAXACTVP
 70
    16
  9
$PINSBASE
 10
0.0
 20
0.0
 30
0.0
  9
$PLIMCHECK
 70
     0
  9
$PEXTMIN
 10
0.0
 20
0.0
 30
0.0
  9
$PEXTMAX
 10
420.0
 20
297.0
 30
0.0
  9
$PLIMMIN
 10
0.0
 20
0.0
  9
$PLIMMAX
 10
420.0
 20
297.0
  9
$UNITMODE
 70
     0
  9
$VISRETAIN
 70
     0
  9
$PLINEGEN
 70
     0
  9
$PSLTSCALE
 70
     1
  9
$TREEDEPTH
 70
  3020
  9
$CMLSTYLE
  2
STANDARD
  9
$CMLJUST
 70
     0
  9
$CMLSCALE
 40
1.0
  9
$PROXYGRAPHICS
 70
     1
  9
$MEASUREMENT
 70
     1
  9
$CELWEIGHT
370
    -1
  9
$ENDCAPS
280
     0
  9
$JOINSTYLE
280
     0
  9
$LWDISPLAY
290
     0
  9
$INSUNITS
 70
     0
  9
$HYPERLINKBASE
  1

  9
$STYLESHEET
  1
print.ctb
  9
$XEDIT
290
     1
  9
$CEPSNTYPE
380
     0
  9
$PSTYLEMODE
290
     1
  9
$FINGERPRINTGUID
  2
{8D6CB018-5425-46D7-BA3D-129D74F567FA}
  9
$VERSIONGUID
  2
{16AD57C6-F527-40E6-889B-A5CFD02FAAD4}
  9
$EXTNAMES
290
     1
  9
$PSVPSCALE
 40
0.0
  9
$OLESTARTUP
290
     0
  0
ENDSEC
  0
SECTION
  2
CLASSES
  0
CLASS
  1
ACDBDICTIONARYWDFLT
  2
AcDbDictionaryWithDefault
  3
AutoCAD 2000
 90
        0
280
     0
281
     0
  0
CLASS
  1
ACDBPLACEHOLDER
  2
AcDbPlaceHolder
  3
AutoCAD 2000
 90
        0
280
     0
281
     0
  0
CLASS
  1
LAYOUT
  2
AcDbLayout
  3
AutoCAD 2000
 90
        0
280
     0
281
     0
  0
CLASS
  1
LONG_TRANSACTION
  2
AcDbLongTransaction
  3
AutoCAD 2000
 90
    32768
280
     0
281
     0
  0
CLASS
  1
LWPOLYLINE
  2
AcDbPolyline
  3
AutoCAD 2000
 90
    32768
280
     0
281
     1
  0
CLASS
  1
HATCH
  2
AcDbHatch
  3
AutoCAD 2000
 90
    32768
280
     0
281
     1
  0
CLASS
  1
XRECORD
  2
AcDbXrecord
  3
AutoCAD 2000
 90
    32768
280
     0
281
     0
  0
CLASS
  1
LONG_TRANSACTION
  2
AcDbLongTransaction
  3
AutoCAD 2000
 90
    32768
280
     0
281
     0
  0
CLASS
  1
LWPOLYLINE
  2
AcDbPolyline
  3
AutoCAD 2000
 90
    32768
280
     0
281
     1
  0
CLASS
  1
HATCH
  2
AcDbHatch
  3
AutoCAD 2000
 90
    32768
280
     0
281
     1
  0
CLASS
  1
XRECORD
  2
AcDbXrecord
  3
AutoCAD 2000
 90
    32768
280
     0
281
     0
  0
CLASS
  1
LONG_TRANSACTION
  2
AcDbLongTransaction
  3
AutoCAD 2000
 90
    32768
280
     0
281
     0
  0
CLASS
  1
LWPOLYLINE
  2
AcDbPolyline
  3
AutoCAD 2000
 90
    32768
280
     0
281
     1
  0
CLASS
  1
HATCH
  2
AcDbHatch
  3
AutoCAD 2000
 90
    32768
280
     0
281
     1
  0
CLASS
  1
XRECORD
  2
AcDbXrecord
  3
AutoCAD 2000
 90
    32768
280
     0
281
     0
  0
CLASS
  1
LONG_TRANSACTION
  2
AcDbLongTransaction
  3
AutoCAD 2000
 90
    32768
280
     0
281
     0
  0
CLASS
  1
LWPOLYLINE
  2
AcDbPolyline
  3
AutoCAD 2000
 90
    32768
280
     0
281
     1
  0
CLASS
  1
HATCH
  2
AcDbHatch
  3
AutoCAD 2000
 90
    32768
280
     0
281
     1
  0
CLASS
  1
XRECORD
  2
AcDbXrecord
  3
AutoCAD 2000
 90
    32768
280
     0
281
     0
  0
CLASS
  1
DICTIONARYVAR
  2
AcDbDictionaryVar
  3
AutoCAD 2000
 90
        0
280
     0
281
     0
  0
CLASS
  1
LONG_TRANSACTION
  2
AcDbLongTransaction
  3
AutoCAD 2000
 90
    32768
280
     0
281
     0
  0
CLASS
  1
LWPOLYLINE
  2
AcDbPolyline
  3
AutoCAD 2000
 90
    32768
280
     0
281
     1
  0
CLASS
  1
HATCH
  2
AcDbHatch
  3
AutoCAD 2000
 90
    32768
280
     0
281
     1
  0
CLASS
  1
XRECORD
  2
AcDbXrecord
  3
AutoCAD 2000
 90
    32768
280
     0
281
     0
  0
CLASS
  1
LONG_TRANSACTION
  2
AcDbLongTransaction
  3
AutoCAD 2000
 90
    32768
280
     0
281
     0
  0
CLASS
  1
LWPOLYLINE
  2
AcDbPolyline
  3
AutoCAD 2000
 90
    32768
280
     0
281
     1
  0
CLASS
  1
HATCH
  2
AcDbHatch
  3
AutoCAD 2000
 90
    32768
280
     0
281
     1
  0
CLASS
  1
XRECORD
  2
AcDbXrecord
  3
AutoCAD 2000
 90
    32768
280
     0
281
     0
  0
CLASS
  1
LONG_TRANSACTION
  2
AcDbLongTransaction
  3
AutoCAD 2000
 90
    32768
280
     0
281
     0
  0
CLASS
  1
LWPOLYLINE
  2
AcDbPolyline
  3
AutoCAD 2000
 90
    32768
280
     0
281
     1
  0
CLASS
  1
HATCH
  2
AcDbHatch
  3
AutoCAD 2000
 90
    32768
280
     0
281
     1
  0
CLASS
  1
XRECORD
  2
AcDbXrecord
  3
AutoCAD 2000
 90
    32768
280
     0
281
     0
  0
CLASS
  1
LONG_TRANSACTION
  2
AcDbLongTransaction
  3
AutoCAD 2000
 90
    32768
280
     0
281
     0
  0
CLASS
  1
LWPOLYLINE
  2
AcDbPolyline
  3
AutoCAD 2000
 90
    32768
280
     0
281
     1
  0
CLASS
  1
HATCH
  2
AcDbHatch
  3
AutoCAD 2000
 90
    32768
280
     0
281
     1
  0
CLASS
  1
XRECORD
  2
AcDbXrecord
  3
AutoCAD 2000
 90
    32768
280
     0
281
     0
  0
ENDSEC
  0
SECTION
  2
TABLES
  0
TABLE
  2
VPORT
  5
8
330
0
100
AcDbSymbolTable
 70
     2
  0
VPORT
  5
2FA3
330
8
100
AcDbSymbolTableRecord
100
AcDbViewportTableRecord
  2
*Active
 70
     0
 10
0.0
 20
0.0
 11
1.0
 21
1.0
 12
420.0000000000001
 22
297.0
 13
0.0
 23
0.0
 14
5.0
 24
5.0
 15
0.0
 25
0.0
 16
0.0
 26
0.0
 36
1.0
 17
0.0
 27
0.0
 37
0.0
 40
598.758344459279
 41
1.553475935828877
 42
50.0
 43
0.0
 44
0.0
 50
0.0
 51
0.0
 71
     0
 72
   100
 73
     1
 74
     0
 75
     0
 76
     0
 77
     0
 78
     0
281
     0
 65
     1
110
0.0
120
0.0
130
0.0
111
1.0
121
0.0
131
0.0
112
0.0
122
1.0
132
0.0
 79
     0
146
0.0
  0
ENDTAB
  0
TABLE
  2
LTYPE
  5
5
330
0
100
AcDbSymbolTable
 70
     4
  0
LTYPE
  5
14
330
5
100
AcDbSymbolTableRecord
100
AcDbLinetypeTableRecord
  2
BYBLOCK
 70
     0
  3

 72
    65
 73
     0
 40
0.0
  0
LTYPE
  5
15
330
5
100
AcDbSymbolTableRecord
100
AcDbLinetypeTableRecord
  2
BYLAYER
 70
     0
  3

 72
    65
 73
     0
 40
0.0
  0
LTYPE
  5
16
330
5
100
AcDbSymbolTableRecord
100
AcDbLinetypeTableRecord
  2
CONTINUOUS
 70
     0
  3
Solid line
 72
    65
 73
     0
 40
0.0
  0
LTYPE
  5
135
330
5
100
AcDbSymbolTableRecord
100
AcDbLinetypeTableRecord
  2
CENTER
 70
     0
  3
____ _ ____ _ ____ _ ____ _ ____ _ ____ _ ____ 
 72
    65
 73
     4
 40
2.0
 49
1.25
 74
     0
 49
-0.25
 74
     0
 49
0.25
 74
     0
 49
-0.25
 74
     0
  0
LTYPE
  5
1527
330
5
100
AcDbSymbolTableRecord
100
AcDbLinetypeTableRecord
  2
SLDSECTION0
 70
     0
  3

 72
    65
 73
     4
 40
10.16
 49
6.349999999999999
 74
     0
 49
-1.27
 74
     0
 49
1.27
 74
     0
 49
-1.27
 74
     0
  0
LTYPE
  5
26FD
330
5
100
AcDbSymbolTableRecord
100
AcDbLinetypeTableRecord
  2
PHANTOM
 70
     0
  3
______  __  __  ______  __  __  ______  __  __ 
 72
    65
 73
     6
 40
2.5
 49
1.25
 74
     0
 49
-0.25
 74
     0
 49
0.25
 74
     0
 49
-0.25
 74
     0
 49
0.25
 74
     0
 49
-0.25
 74
     0
  0
ENDTAB
  0
TABLE
  2
LAYER
  5
2
330
0
100
AcDbSymbolTable
 70
    10
  0
LAYER
  5
F
330
2
100
AcDbSymbolTableRecord
100
AcDbLayerTableRecord
  2
0
 70
     0
 62
     7
  6
CONTINUOUS
370
    -3
390
33F
  0
LAYER
  5
62
330
2
100
AcDbSymbolTableRecord
100
AcDbLayerTableRecord
  2
VIEWPORT
 70
     0
 62
     7
  6
CONTINUOUS
370
    -3
390
33F
  0
LAYER
  5
65
330
2
100
AcDbSymbolTableRecord
100
AcDbLayerTableRecord
  2
ZUWAKU
 70
     0
 62
     7
  6
CONTINUOUS
370
    -3
390
33F
  0
LAYER
  5
153
330
2
100
AcDbSymbolTableRecord
100
AcDbLayerTableRecord
  2
SEIHIN
 70
     0
 62
     3
  6
CONTINUOUS
370
    -3
390
33F
  0
LAYER
  5
154
330
2
100
AcDbSymbolTableRecord
100
AcDbLayerTableRecord
  2
SUNPOU
 70
     0
 62
     4
  6
CONTINUOUS
370
    -3
390
33F
  0
LAYER
  5
155
330
2
100
AcDbSymbolTableRecord
100
AcDbLayerTableRecord
  2
CENTER L
 70
     0
 62
     1
  6
CENTER
370
    -3
390
33F
  0
LAYER
  5
24D
330
2
100
AcDbSymbolTableRecord
100
AcDbLayerTableRecord
  2
DEFPOINTS
 70
     0
 62
     7
  6
CONTINUOUS
290
     0
370
    -3
390
33F
  0
LAYER
  5
59A
330
2
100
AcDbSymbolTableRecord
100
AcDbLayerTableRecord
  2
moji
 70
     0
 62
     2
  6
CONTINUOUS
370
    -3
390
33F
  0
LAYER
  5
1528
330
2
100
AcDbSymbolTableRecord
100
AcDbLayerTableRecord
  2
NOKITOI
 70
     0
 62
     9
  6
SLDSECTION0
370
    -3
390
33F
  0
LAYER
  5
26FE
330
2
100
AcDbSymbolTableRecord
100
AcDbLayerTableRecord
  2
STOPPER
 70
     0
 62
     2
  6
CONTINUOUS
370
    -3
390
33F
  0
ENDTAB
  0
TABLE
  2
STYLE
  5
3
330
0
100
AcDbSymbolTable
 70
     2
  0
STYLE
  5
10
330
3
100
AcDbSymbolTableRecord
100
AcDbTextStyleTableRecord
  2
STANDARD
 70
     0
 40
0.0
 41
1.0
 50
0.0
 71
     0
 42
5.0
  3
TXT
  4
bigfont.shx
  0
STYLE
  5
59B
330
3
100
AcDbSymbolTableRecord
100
AcDbTextStyleTableRecord
  2
ｽﾀｲﾙ1
 70
     0
 40
0.0
 41
1.0
 50
0.0
 71
     0
 42
2.5
  3
MS PGothic.ttf
  4

1001
ACAD
1000
MS PGothic
1071
    32818
  0
ENDTAB
  0
TABLE
  2
VIEW
  5
6
330
0
100
AcDbSymbolTable
 70
     0
  0
ENDTAB
  0
TABLE
  2
UCS
  5
7
330
0
100
AcDbSymbolTable
 70
     0
  0
ENDTAB
  0
TABLE
  2
APPID
  5
9
330
0
100
AcDbSymbolTable
 70
     1
  0
APPID
  5
11
330
9
100
AcDbSymbolTableRecord
100
AcDbRegAppTableRecord
  2
ACAD
 70
     0
  0
ENDTAB
  0
TABLE
  2
DIMSTYLE
  5
A
330
0
100
AcDbSymbolTable
 70
     1
100
AcDbDimStyleTable
 71
     0
  0
DIMSTYLE
105
1D
102
{ACAD_REACTORS
330
2965
330
2966
330
2967
330
2976
330
2977
330
29D5
330
2A06
330
2A8C
330
2A8D
330
2A8E
330
2ABA
330
2B9B
102
}
330
A
100
AcDbSymbolTableRecord
100
AcDbDimStyleTableRecord
  2
STANDARD
 70
     0
340
10
  0
ENDTAB
  0
TABLE
  2
BLOCK_RECORD
  5
1
330
0
100
AcDbSymbolTable
 70
    14
  0
BLOCK_RECORD
  5
1A
102
{ACAD_XDICTIONARY
360
385
102
}
330
1
100
AcDbSymbolTableRecord
100
AcDbBlockTableRecord
  2
*MODEL_SPACE
340
342
  0
BLOCK_RECORD
  5
17
102
{ACAD_XDICTIONARY
360
383
102
}
330
1
100
AcDbSymbolTableRecord
100
AcDbBlockTableRecord
  2
*PAPER_SPACE
340
343
  0
BLOCK_RECORD
  5
6D
330
1
100
AcDbSymbolTableRecord
100
AcDbBlockTableRecord
  2
_OPEN
340
0
102
{BLKREFS
331
2D9E
331
2D9F
331
2D44
331
2D45
331
2D95
331
2D96
331
2D5F
331
2D60
331
2D4D
331
2D4E
331
2D56
331
2D57
331
2D68
331
2D69
331
2D8C
331
2D8D
331
2D7A
331
2D7B
331
2D71
331
2D72
331
2D83
331
2D84
331
2DA7
331
2DA8
102
}
  0
BLOCK_RECORD
  5
3A4
330
1
100
AcDbSymbolTableRecord
100
AcDbBlockTableRecord
  2
*X1
340
0
102
{BLKREFS
331
6D8
102
}
  0
BLOCK_RECORD
  5
2BC7
330
1
100
AcDbSymbolTableRecord
100
AcDbBlockTableRecord
  2
*D2
340
0
  0
BLOCK_RECORD
  5
2BD3
330
1
100
AcDbSymbolTableRecord
100
AcDbBlockTableRecord
  2
*D3
340
0
  0
BLOCK_RECORD
  5
2BDF
330
1
100
AcDbSymbolTableRecord
100
AcDbBlockTableRecord
  2
*D4
340
0
  0
BLOCK_RECORD
  5
2BEB
330
1
100
AcDbSymbolTableRecord
100
AcDbBlockTableRecord
  2
*D5
340
0
  0
BLOCK_RECORD
  5
2BF7
330
1
100
AcDbSymbolTableRecord
100
AcDbBlockTableRecord
  2
*D6
340
0
  0
BLOCK_RECORD
  5
2C03
330
1
100
AcDbSymbolTableRecord
100
AcDbBlockTableRecord
  2
*D7
340
0
  0
BLOCK_RECORD
  5
2C0F
330
1
100
AcDbSymbolTableRecord
100
AcDbBlockTableRecord
  2
*D8
340
0
  0
BLOCK_RECORD
  5
2C1B
330
1
100
AcDbSymbolTableRecord
100
AcDbBlockTableRecord
  2
*D9
340
0
  0
BLOCK_RECORD
  5
2C27
330
1
100
AcDbSymbolTableRecord
100
AcDbBlockTableRecord
  2
*D10
340
0
  0
BLOCK_RECORD
  5
2C33
330
1
100
AcDbSymbolTableRecord
100
AcDbBlockTableRecord
  2
*D11
340
0
  0
BLOCK_RECORD
  5
2C3F
330
1
100
AcDbSymbolTableRecord
100
AcDbBlockTableRecord
  2
*D12
340
0
  0
BLOCK_RECORD
  5
2C4B
330
1
100
AcDbSymbolTableRecord
100
AcDbBlockTableRecord
  2
*D13
340
0
  0
ENDTAB
  0
ENDSEC
  0
SECTION
  2
BLOCKS
  0
BLOCK
  5
1B
330
1A
100
AcDbEntity
  8
0
100
AcDbBlockBegin
  2
*MODEL_SPACE
 70
     0
 10
0.0
 20
0.0
 30
0.0
  3
*MODEL_SPACE
  1

  0
ENDBLK
  5
1C
330
1A
100
AcDbEntity
  8
0
100
AcDbBlockEnd
  0
BLOCK
  5
18
330
17
100
AcDbEntity
 67
     1
  8
0
100
AcDbBlockBegin
  2
*PAPER_SPACE
 70
     0
 10
0.0
 20
0.0
 30
0.0
  3
*PAPER_SPACE
  1

  0
ENDBLK
  5
19
330
17
100
AcDbEntity
 67
     1
  8
0
100
AcDbBlockEnd
  0
BLOCK
  5
6E
330
6D
100
AcDbEntity
  8
0
100
AcDbBlockBegin
  2
_OPEN
 70
     0
 10
0.0
 20
0.0
 30
0.0
  3
_OPEN
  1

  0
LINE
  5
6F
330
6D
100
AcDbEntity
  8
0
  6
ByBlock
 62
     0
100
AcDbLine
 10
-1.0
 20
0.1666666666666666
 30
0.0
 11
0.0
 21
0.0
 31
0.0
  0
LINE
  5
70
330
6D
100
AcDbEntity
  8
0
  6
ByBlock
 62
     0
100
AcDbLine
 10
0.0
 20
0.0
 30
0.0
 11
-1.0
 21
-0.1666666666666666
 31
0.0
  0
LINE
  5
71
330
6D
100
AcDbEntity
  8
0
  6
ByBlock
 62
     0
100
AcDbLine
 10
0.0
 20
0.0
 30
0.0
 11
-1.0
 21
0.0
 31
0.0
  0
ENDBLK
  5
72
330
6D
100
AcDbEntity
  8
0
100
AcDbBlockEnd
  0
BLOCK
  5
538
330
3A4
100
AcDbEntity
  8
0
100
AcDbBlockBegin
  2
*X1
 70
     1
 10
0.0
 20
0.0
 30
0.0
  3
*X1
  1

  0
LINE
  5
3A5
330
3A4
100
AcDbEntity
  8
0
 62
     0
100
AcDbLine
 10
66.75047808566091
 20
28.71175535310772
 30
0.0
 11
66.10464715594599
 21
29.35758628282269
 31
0.0
  0
LINE
  5
3A6
330
3A4
100
AcDbEntity
  8
0
 62
     0
100
AcDbLine
 10
66.75047808566091
 20
27.81372974100082
 30
0.0
 11
65.20662154383905
 21
29.35758628282269
 31
0.0
  0
LINE
  5
3A7
330
3A4
100
AcDbEntity
  8
0
 62
     0
100
AcDbLine
 10
66.75047808566086
 20
26.91570412889388
 30
0.0
 11
64.32934413964591
 21
29.33683807490882
 31
0.0
  0
LINE
  5
3A8
330
3A4
100
AcDbEntity
  8
0
 62
     0
100
AcDbLine
 10
66.75047808566091
 20
26.01767851678704
 30
0.0
 11
63.95047808566085
 21
28.81767851678705
 31
0.0
  0
LINE
  5
3A9
330
3A4
100
AcDbEntity
  8
0
 62
     0
100
AcDbLine
 10
66.75047808566091
 20
25.11965290468009
 30
0.0
 11
63.95047808566085
 21
27.91965290468016
 31
0.0
  0
LINE
  5
3AA
330
3A4
100
AcDbEntity
  8
0
 62
     0
100
AcDbLine
 10
66.75047808566086
 20
24.22162729257314
 30
0.0
 11
63.95047808566079
 21
27.02162729257321
 31
0.0
  0
LINE
  5
3AB
330
3A4
100
AcDbEntity
  8
0
 62
     0
100
AcDbLine
 10
61.85047808566082
 20
28.22360168046634
 30
0.0
 11
60.71649348330453
 21
29.35758628282269
 31
0.0
  0
LINE
  5
3AC
330
3A4
100
AcDbEntity
  8
0
 62
     0
100
AcDbLine
 10
66.75047808566091
 20
23.32360168046631
 30
0.0
 11
63.95047808566085
 21
26.12360168046638
 31
0.0
  0
LINE
  5
3AD
330
3A4
100
AcDbEntity
  8
0
 62
     0
100
AcDbLine
 10
61.85047808566082
 20
27.32557606835945
 30
0.0
 11
59.81846787119758
 21
29.35758628282263
 31
0.0
  0
LINE
  5
3AE
330
3A4
100
AcDbEntity
  8
0
 62
     0
100
AcDbLine
 10
66.75047808566086
 20
22.42557606835936
 30
0.0
 11
63.95047808566085
 21
25.22557606835943
 31
0.0
  0
LINE
  5
3AF
330
3A4
100
AcDbEntity
  8
0
 62
     0
100
AcDbLine
 10
61.85047808566082
 20
26.4275504562525
 30
0.0
 11
59.14496712052375
 21
29.13306142138958
 31
0.0
  0
LINE
  5
3B0
330
3A4
100
AcDbEntity
  8
0
 62
     0
100
AcDbLine
 10
66.75047808566086
 20
21.52755045625247
 30
0.0
 11
63.95047808566079
 21
24.32755045625248
 31
0.0
  0
LINE
  5
3B1
330
3A4
100
AcDbEntity
  8
0
 62
     0
100
AcDbLine
 10
61.85047808566094
 20
25.5295248441455
 30
0.0
 11
59.05047808566076
 21
28.32952484414562
 31
0.0
  0
LINE
  5
3B2
330
3A4
100
AcDbEntity
  8
0
 62
     0
100
AcDbLine
 10
66.75047808566091
 20
20.62952484414552
 30
0.0
 11
63.95047808566085
 21
23.42952484414559
 31
0.0
  0
LINE
  5
3B3
330
3A4
100
AcDbEntity
  8
0
 62
     0
100
AcDbLine
 10
61.85047808566088
 20
24.6314992320386
 30
0.0
 11
59.05047808566076
 21
27.43149923203878
 31
0.0
  0
LINE
  5
3B4
330
3A4
100
AcDbEntity
  8
0
 62
     0
100
AcDbLine
 10
66.75047808566086
 20
19.73149923203862
 30
0.0
 11
63.95047808566079
 21
22.53149923203869
 31
0.0
  0
LINE
  5
3B5
330
3A4
100
AcDbEntity
  8
0
 62
     0
100
AcDbLine
 10
61.85047808566088
 20
23.73347361993171
 30
0.0
 11
59.05047808566076
 21
26.53347361993183
 31
0.0
  0
LINE
  5
3B6
330
3A4
100
AcDbEntity
  8
0
 62
     0
100
AcDbLine
 10
66.75047808566086
 20
18.83347361993173
 30
0.0
 11
63.95047808566079
 21
21.6334736199318
 31
0.0
  0
LINE
  5
3B7
330
3A4
100
AcDbEntity
  8
0
 62
     0
100
AcDbLine
 10
61.85047808566082
 20
22.83544800782476
 30
0.0
 11
59.0504780856607
 21
25.63544800782489
 31
0.0
  0
LINE
  5
3B8
330
3A4
100
AcDbEntity
  8
0
 62
     0
100
AcDbLine
 10
66.7504780856608
 20
17.93544800782479
 30
0.0
 11
63.95047808566079
 21
20.73544800782485
 31
0.0
  0
LINE
  5
3B9
330
3A4
100
AcDbEntity
  8
0
 62
     0
100
AcDbLine
 10
61.85047808566088
 20
21.93742239571793
 30
0.0
 11
59.05047808566076
 21
24.73742239571805
 31
0.0
  0
LINE
  5
3BA
330
3A4
100
AcDbEntity
  8
0
 62
     0
100
AcDbLine
 10
55.55047808566081
 20
28.23742239571799
 30
0.0
 11
54.43031419855618
 21
29.35758628282263
 31
0.0
  0
LINE
  5
3BB
330
3A4
100
AcDbEntity
  8
0
 62
     0
100
AcDbLine
 10
66.75047808566086
 20
17.03742239571795
 30
0.0
 11
63.95047808566079
 21
19.83742239571796
 31
0.0
  0
LINE
  5
3BC
330
3A4
100
AcDbEntity
  8
0
 62
     0
100
AcDbLine
 10
61.85047808566088
 20
21.03939678361098
 30
0.0
 11
59.0504780856607
 21
23.8393967836111
 31
0.0
  0
LINE
  5
3BD
330
3A4
100
AcDbEntity
  8
0
 62
     0
100
AcDbLine
 10
55.55047808566076
 20
27.33939678361105
 30
0.0
 11
53.53228858644922
 21
29.35758628282263
 31
0.0
  0
LINE
  5
3BE
330
3A4
100
AcDbEntity
  8
0
 62
     0
100
AcDbLine
 10
66.75047808566086
 20
16.139396783611
 30
0.0
 11
63.95047808566079
 21
18.93939678361107
 31
0.0
  0
LINE
  5
3BF
330
3A4
100
AcDbEntity
  8
0
 62
     0
100
AcDbLine
 10
61.85047808566082
 20
20.14137117150409
 30
0.0
 11
59.05047808566076
 21
22.9413711715041
 31
0.0
  0
LINE
  5
3C0
330
3A4
100
AcDbEntity
  8
0
 62
     0
100
AcDbLine
 10
55.55047808566076
 20
26.44137117150416
 30
0.0
 11
52.85071536233676
 21
29.14113389482816
 31
0.0
  0
LINE
  5
3C1
330
3A4
100
AcDbEntity
  8
0
 62
     0
100
AcDbLine
 10
66.7504780856608
 20
15.24137117150411
 30
0.0
 11
63.95047808566073
 21
18.04137117150412
 31
0.0
  0
LINE
  5
3C2
330
3A4
100
AcDbEntity
  8
0
 62
     0
100
AcDbLine
 10
61.85047808566088
 20
19.24334555939714
 30
0.0
 11
59.05047808566081
 21
22.04334555939721
 31
0.0
  0
LINE
  5
3C3
330
3A4
100
AcDbEntity
  8
0
 62
     0
100
AcDbLine
 10
55.55047808566081
 20
25.54334555939721
 30
0.0
 11
52.7504780856608
 21
28.34334555939722
 31
0.0
  0
LINE
  5
3C4
330
3A4
100
AcDbEntity
  8
0
 62
     0
100
AcDbLine
 10
66.75047808566086
 20
14.34334555939716
 30
0.0
 11
63.95047808566079
 21
17.14334555939723
 31
0.0
  0
LINE
  5
3C5
330
3A4
100
AcDbEntity
  8
0
 62
     0
100
AcDbLine
 10
61.85047808566082
 20
18.34531994729024
 30
0.0
 11
59.05047808566081
 21
21.14531994729031
 31
0.0
  0
LINE
  5
3C6
330
3A4
100
AcDbEntity
  8
0
 62
     0
100
AcDbLine
 10
55.55047808566087
 20
24.64531994729026
 30
0.0
 11
52.7504780856608
 21
27.44531994729033
 31
0.0
  0
LINE
  5
3C7
330
3A4
100
AcDbEntity
  8
0
 62
     0
100
AcDbLine
 10
66.67851273077104
 20
13.51728530218008
 30
0.0
 11
63.95047808566079
 21
16.24531994729034
 31
0.0
  0
LINE
  5
3C8
330
3A4
100
AcDbEntity
  8
0
 62
     0
100
AcDbLine
 10
61.85047808566088
 20
17.44729433518324
 30
0.0
 11
59.05047808566076
 21
20.24729433518337
 31
0.0
  0
LINE
  5
3C9
330
3A4
100
AcDbEntity
  8
0
 62
     0
100
AcDbLine
 10
55.55047808566081
 20
23.74729433518337
 30
0.0
 11
52.75047808566075
 21
26.54729433518338
 31
0.0
  0
LINE
  5
3CA
330
3A4
100
AcDbEntity
  8
0
 62
     0
100
AcDbLine
 10
66.04018613802157
 20
13.25758628282261
 30
0.0
 11
63.95047808566073
 21
15.34729433518345
 31
0.0
  0
LINE
  5
3CB
330
3A4
100
AcDbEntity
  8
0
 62
     0
100
AcDbLine
 10
55.55047808566081
 20
22.84926872307642
 30
0.0
 11
52.75047808566075
 21
25.64926872307649
 31
0.0
  0
LINE
  5
3CC
330
3A4
100
AcDbEntity
  8
0
 62
     0
100
AcDbLine
 10
61.85047808566088
 20
16.54926872307635
 30
0.0
 11
59.05047808566076
 21
19.34926872307647
 31
0.0
  0
LINE
  5
3CD
330
3A4
100
AcDbEntity
  8
0
 62
     0
100
AcDbLine
 10
50.1254780856608
 20
28.27426872307643
 30
0.0
 11
49.04216052591465
 21
29.35758628282252
 31
0.0
  0
LINE
  5
3CE
330
3A4
100
AcDbEntity
  8
0
 62
     0
100
AcDbLine
 10
65.14216052591468
 20
13.2575862828225
 30
0.0
 11
63.95047808566073
 21
14.4492687230765
 31
0.0
  0
LINE
  5
3CF
330
3A4
100
AcDbEntity
  8
0
 62
     0
100
AcDbLine
 10
55.55047808566081
 20
21.95124311096952
 30
0.0
 11
52.75047808566085
 21
24.75124311096954
 31
0.0
  0
LINE
  5
3D0
330
3A4
100
AcDbEntity
  8
0
 62
     0
100
AcDbLine
 10
50.1254780856608
 20
27.37624311096954
 30
0.0
 11
48.14413491380782
 21
29.35758628282258
 31
0.0
  0
LINE
  5
3D1
330
3A4
100
AcDbEntity
  8
0
 62
     0
100
AcDbLine
 10
61.82451978501529
 20
15.6772014116151
 30
0.0
 11
59.05047808566076
 21
18.45124311096958
 31
0.0
  0
LINE
  5
3D2
330
3A4
100
AcDbEntity
  8
0
 62
     0
100
AcDbLine
 10
55.55047808566081
 20
21.05321749886263
 30
0.0
 11
52.75047808566085
 21
23.85321749886259
 31
0.0
  0
LINE
  5
3D3
330
3A4
100
AcDbEntity
  8
0
 62
     0
100
AcDbLine
 10
49.92989753954697
 20
26.67379804497647
 30
0.0
 11
47.24610930170081
 21
29.35758628282263
 31
0.0
  0
LINE
  5
3D4
330
3A4
100
AcDbEntity
  8
0
 62
     0
100
AcDbLine
 10
61.63153448975805
 20
14.97216109476534
 30
0.0
 11
59.05047808566076
 21
17.55321749886269
 31
0.0
  0
LINE
  5
3D5
330
3A4
100
AcDbEntity
  8
0
 62
     0
100
AcDbLine
 10
55.55047808566081
 20
20.15519188675568
 30
0.0
 11
52.7504780856608
 21
22.95519188675569
 31
0.0
  0
LINE
  5
3D6
330
3A4
100
AcDbEntity
  8
0
 62
     0
100
AcDbLine
 10
49.14808368959382
 20
26.55758628282262
 30
0.0
 11
46.34808368959392
 21
29.35758628282252
 31
0.0
  0
LINE
  5
3D7
330
3A4
100
AcDbEntity
  8
0
 62
     0
100
AcDbLine
 10
61.30650261383448
 20
14.39916735858196
 30
0.0
 11
58.97896234650125
 21
16.72670762591525
 31
0.0
  0
LINE
  5
3D8
330
3A4
100
AcDbEntity
  8
0
 62
     0
100
AcDbLine
 10
55.55047808566081
 20
19.25716627464885
 30
0.0
 11
52.75047808566085
 21
22.0571662746488
 31
0.0
  0
LINE
  5
3D9
330
3A4
100
AcDbEntity
  8
0
 62
     0
100
AcDbLine
 10
48.25005807748704
 20
26.55758628282256
 30
0.0
 11
45.5124913483096
 21
29.29515301200007
 31
0.0
  0
LINE
  5
3DA
330
3A4
100
AcDbEntity
  8
0
 62
     0
100
AcDbLine
 10
60.87446081650944
 20
13.93318354380016
 30
0.0
 11
58.57737670803373
 21
16.23026765227587
 31
0.0
  0
LINE
  5
3DB
330
3A4
100
AcDbEntity
  8
0
 62
     0
100
AcDbLine
 10
55.55047808566081
 20
18.3591406625419
 30
0.0
 11
52.7504780856608
 21
21.15914066254185
 31
0.0
  0
LINE
  5
3DC
330
3A4
100
AcDbEntity
  8
0
 62
     0
100
AcDbLine
 10
47.35203246538015
 20
26.55758628282256
 30
0.0
 11
44.8478509237762
 21
29.06176782442645
 31
0.0
  0
LINE
  5
3DD
330
3A4
100
AcDbEntity
  8
0
 62
     0
100
AcDbLine
 10
60.33829847158341
 20
13.5713202766193
 30
0.0
 11
57.85203246538014
 21
16.05758628282257
 31
0.0
  0
LINE
  5
3DE
330
3A4
100
AcDbEntity
  8
0
 62
     0
100
AcDbLine
 10
55.55047808566076
 20
17.46111505043495
 30
0.0
 11
52.7504780856608
 21
20.26111505043496
 31
0.0
  0
LINE
  5
3DF
330
3A4
100
AcDbEntity
  8
0
 62
     0
100
AcDbLine
 10
46.47579668129123
 20
26.53579645480448
 30
0.0
 11
44.30524998656602
 21
28.70634314952969
 31
0.0
  0
LINE
  5
3E0
330
3A4
100
AcDbEntity
  8
0
 62
     0
100
AcDbLine
 10
59.68188591167211
 20
13.32970722442365
 30
0.0
 11
56.95400685327314
 21
16.05758628282262
 31
0.0
  0
LINE
  5
3E1
330
3A4
100
AcDbEntity
  8
0
 62
     0
100
AcDbLine
 10
46.10047808566088
 20
26.01308943832788
 30
0.0
 11
43.86713792752146
 21
28.24642959646729
 31
0.0
  0
LINE
  5
3E2
330
3A4
100
AcDbEntity
  8
0
 62
     0
100
AcDbLine
 10
58.85598124116626
 20
13.25758628282255
 30
0.0
 11
52.7504780856608
 21
19.36308943832801
 31
0.0
  0
LINE
  5
3E3
330
3A4
100
AcDbEntity
  8
0
 62
     0
100
AcDbLine
 10
46.10047808566088
 20
25.1150638262211
 30
0.0
 11
43.53536701516844
 21
27.68017489671354
 31
0.0
  0
LINE
  5
3E4
330
3A4
100
AcDbEntity
  8
0
 62
     0
100
AcDbLine
 10
57.95795562905937
 20
13.25758628282255
 30
0.0
 11
52.7504780856608
 21
18.46506382622118
 31
0.0
  0
LINE
  5
3E5
330
3A4
100
AcDbEntity
  8
0
 62
     0
100
AcDbLine
 10
46.30702236676467
 20
24.01049393301036
 30
0.0
 11
43.33318849580433
 21
26.98432780397064
 31
0.0
  0
LINE
  5
3E6
330
3A4
100
AcDbEntity
  8
0
 62
     0
100
AcDbLine
 10
57.05993001695247
 20
13.25758628282255
 30
0.0
 11
52.7504780856608
 21
17.56703821411423
 31
0.0
  0
LINE
  5
3E7
330
3A4
100
AcDbEntity
  8
0
 62
     0
100
AcDbLine
 10
50.52408178835225
 20
18.89540889931583
 30
0.0
 11
43.30047808566075
 21
26.11901260200733
 31
0.0
  0
LINE
  5
3E8
330
3A4
100
AcDbEntity
  8
0
 62
     0
100
AcDbLine
 10
41.20047808566073
 20
28.21901260200729
 30
0.0
 11
40.06190440484544
 21
29.35758628282263
 31
0.0
  0
LINE
  5
3E9
330
3A4
100
AcDbEntity
  8
0
 62
     0
100
AcDbLine
 10
56.16190440484553
 20
13.25758628282255
 30
0.0
 11
52.75047808566075
 21
16.66901260200728
 31
0.0
  0
LINE
  5
3EA
330
3A4
100
AcDbEntity
  8
0
 62
     0
100
AcDbLine
 10
50.65047808566089
 20
17.87098698990035
 30
0.0
 11
43.30047808566081
 21
25.22098698990044
 31
0.0
  0
LINE
  5
3EB
330
3A4
100
AcDbEntity
  8
0
 62
     0
100
AcDbLine
 10
41.20047808566084
 20
27.32098698990034
 30
0.0
 11
39.16387879273855
 21
29.35758628282269
 31
0.0
  0
LINE
  5
3EC
330
3A4
100
AcDbEntity
  8
0
 62
     0
100
AcDbLine
 10
55.24743091399376
 20
13.2740341615675
 30
0.0
 11
52.76692596440574
 21
15.7545391111555
 31
0.0
  0
LINE
  5
3ED
330
3A4
100
AcDbEntity
  8
0
 62
     0
100
AcDbLine
 10
41.20047808566084
 20
26.42296137779345
 30
0.0
 11
38.49308819788552
 21
29.13035126556872
 31
0.0
  0
LINE
  5
3EE
330
3A4
100
AcDbEntity
  8
0
 62
     0
100
AcDbLine
 10
50.65047808566084
 20
16.97296137779341
 30
0.0
 11
43.3238887535432
 21
24.2995507099111
 31
0.0
  0
LINE
  5
3EF
330
3A4
100
AcDbEntity
  8
0
 62
     0
100
AcDbLine
 10
41.20047808566084
 20
25.5249357656865
 30
0.0
 11
38.40047808566078
 21
28.32493576568657
 31
0.0
  0
LINE
  5
3F0
330
3A4
100
AcDbEntity
  8
0
 62
     0
100
AcDbLine
 10
50.65047808566072
 20
16.07493576568657
 30
0.0
 11
43.64200817138322
 21
23.08340567996413
 31
0.0
  0
LINE
  5
3F1
330
3A4
100
AcDbEntity
  8
0
 62
     0
100
AcDbLine
 10
41.20047808566084
 20
24.62691015357961
 30
0.0
 11
38.40047808566078
 21
27.42691015357962
 31
0.0
  0
LINE
  5
3F2
330
3A4
100
AcDbEntity
  8
0
 62
     0
100
AcDbLine
 10
50.54191626807176
 20
15.2854719711687
 30
0.0
 11
47.84628147903345
 21
17.98110676020701
 31
0.0
  0
LINE
  5
3F3
330
3A4
100
AcDbEntity
  8
0
 62
     0
100
AcDbLine
 10
41.20047808566084
 20
23.72888454147272
 30
0.0
 11
38.40047808566078
 21
26.52888454147279
 31
0.0
  0
LINE
  5
3F4
330
3A4
100
AcDbEntity
  8
0
 62
     0
100
AcDbLine
 10
36.10899118508382
 20
28.82037144204969
 30
0.0
 11
35.57177634431093
 21
29.35758628282263
 31
0.0
  0
LINE
  5
3F5
330
3A4
100
AcDbEntity
  8
0
 62
     0
100
AcDbLine
 10
50.2740405603102
 20
14.65532206682337
 30
0.0
 11
47.85047808566088
 21
17.07888454147268
 31
0.0
  0
LINE
  5
3F6
330
3A4
100
AcDbEntity
  8
0
 62
     0
100
AcDbLine
 10
41.20047808566079
 20
22.83085892936577
 30
0.0
 11
38.40047808566078
 21
25.63085892936584
 31
0.0
  0
LINE
  5
3F7
330
3A4
100
AcDbEntity
  8
0
 62
     0
100
AcDbLine
 10
35.91006352083121
 20
28.12127349419535
 30
0.0
 11
34.67375073220398
 21
29.35758628282263
 31
0.0
  0
LINE
  5
3F8
330
3A4
100
AcDbEntity
  8
0
 62
     0
100
AcDbLine
 10
49.8910537621349
 20
14.14028325289172
 30
0.0
 11
47.75319290277439
 21
16.27814411225222
 31
0.0
  0
LINE
  5
3F9
330
3A4
100
AcDbEntity
  8
0
 62
     0
100
AcDbLine
 10
41.20047808566079
 20
21.93283331725888
 30
0.0
 11
38.40047808566072
 21
24.73283331725889
 31
0.0
  0
LINE
  5
3FA
330
3A4
100
AcDbEntity
  8
0
 62
     0
100
AcDbLine
 10
35.69453737392553
 20
27.43877402899409
 30
0.0
 11
33.78532181045494
 21
29.34798959246473
 31
0.0
  0
LINE
  5
3FB
330
3A4
100
AcDbEntity
  8
0
 62
     0
100
AcDbLine
 10
49.40473479701927
 20
13.72857660590034
 30
0.0
 11
47.07572512009704
 21
16.05758628282262
 31
0.0
  0
LINE
  5
3FC
330
3A4
100
AcDbEntity
  8
0
 62
     0
100
AcDbLine
 10
41.20047808566084
 20
21.03480770515198
 30
0.0
 11
38.40047808566078
 21
23.83480770515205
 31
0.0
  0
LINE
  5
3FD
330
3A4
100
AcDbEntity
  8
0
 62
     0
100
AcDbLine
 10
35.47901122702
 20
26.75627456379283
 30
0.0
 11
33.35101122701996
 21
28.88427456379287
 31
0.0
  0
LINE
  5
3FE
330
3A4
100
AcDbEntity
  8
0
 62
     0
100
AcDbLine
 10
48.8086508485589
 20
13.42663494225388
 30
0.0
 11
46.17769950799015
 21
16.05758628282268
 31
0.0
  0
LINE
  5
3FF
330
3A4
100
AcDbEntity
  8
0
 62
     0
100
AcDbLine
 10
41.20047808566079
 20
20.13678209304509
 30
0.0
 11
38.40047808566072
 21
22.9367820930451
 31
0.0
  0
LINE
  5
400
330
3A4
100
AcDbEntity
  8
0
 62
     0
100
AcDbLine
 10
35.26348508011415
 20
26.07377509859174
 30
0.0
 11
33.13548508011416
 21
28.20177509859172
 31
0.0
  0
LINE
  5
401
330
3A4
100
AcDbEntity
  8
0
 62
     0
100
AcDbLine
 10
48.07097819691143
 20
13.26628198179446
 30
0.0
 11
45.27967389588326
 21
16.05758628282262
 31
0.0
  0
LINE
  5
402
330
3A4
100
AcDbEntity
  8
0
 62
     0
100
AcDbLine
 10
41.20047808566079
 20
19.23875648093815
 30
0.0
 11
38.40047808566078
 21
22.0387564809381
 31
0.0
  0
LINE
  5
403
330
3A4
100
AcDbEntity
  8
0
 62
     0
100
AcDbLine
 10
35.04795893320857
 20
25.39127563339036
 30
0.0
 11
32.91995893320847
 21
27.5192756333904
 31
0.0
  0
LINE
  5
404
330
3A4
100
AcDbEntity
  8
0
 62
     0
100
AcDbLine
 10
47.18164828377638
 20
13.25758628282255
 30
0.0
 11
44.38164828377631
 21
16.05758628282262
 31
0.0
  0
LINE
  5
405
330
3A4
100
AcDbEntity
  8
0
 62
     0
100
AcDbLine
 10
41.20047808566079
 20
18.34073086883125
 30
0.0
 11
38.40047808566083
 21
21.14073086883127
 31
0.0
  0
LINE
  5
406
330
3A4
100
AcDbEntity
  8
0
 62
     0
100
AcDbLine
 10
34.83243278630294
 20
24.70877616818916
 30
0.0
 11
32.70443278630284
 21
26.8367761681892
 31
0.0
  0
LINE
  5
407
330
3A4
100
AcDbEntity
  8
0
 62
     0
100
AcDbLine
 10
46.28362267166949
 20
13.25758628282261
 30
0.0
 11
43.8500109743731
 21
15.691197980119
 31
0.0
  0
LINE
  5
408
330
3A4
100
AcDbEntity
  8
0
 62
     0
100
AcDbLine
 10
34.61690663939731
 20
24.02627670298778
 30
0.0
 11
32.48890663939721
 21
26.15427670298794
 31
0.0
  0
LINE
  5
409
330
3A4
100
AcDbEntity
  8
0
 62
     0
100
AcDbLine
 10
41.20047808566079
 20
17.44270525672436
 30
0.0
 11
38.40047808566083
 21
20.24270525672432
 31
0.0
  0
LINE
  5
40A
330
3A4
100
AcDbEntity
  8
0
 62
     0
100
AcDbLine
 10
30.35047808566082
 20
28.29270525672433
 30
0.0
 11
29.28559705956251
 21
29.35758628282258
 31
0.0
  0
LINE
  5
40B
330
3A4
100
AcDbEntity
  8
0
 62
     0
100
AcDbLine
 10
45.38559705956259
 20
13.25758628282255
 30
0.0
 11
43.82547808566084
 21
14.8177052567243
 31
0.0
  0
LINE
  5
40C
330
3A4
100
AcDbEntity
  8
0
 62
     0
100
AcDbLine
 10
34.40138049249151
 20
23.34377723778669
 30
0.0
 11
32.27338049249158
 21
25.47177723778662
 31
0.0
  0
LINE
  5
40D
330
3A4
100
AcDbEntity
  8
0
 62
     0
100
AcDbLine
 10
41.20047808566079
 20
16.54467964461741
 30
0.0
 11
38.40047808566078
 21
19.34467964461743
 31
0.0
  0
LINE
  5
40E
330
3A4
100
AcDbEntity
  8
0
 62
     0
100
AcDbLine
 10
30.35047808566082
 20
27.39467964461738
 30
0.0
 11
28.38757144745562
 21
29.35758628282258
 31
0.0
  0
LINE
  5
40F
330
3A4
100
AcDbEntity
  8
0
 62
     0
100
AcDbLine
 10
44.48757144745559
 20
13.25758628282261
 30
0.0
 11
43.82547808566079
 21
13.91967964461736
 31
0.0
  0
LINE
  5
410
330
3A4
100
AcDbEntity
  8
0
 62
     0
100
AcDbLine
 10
34.18585434558588
 20
22.66127777258537
 30
0.0
 11
32.05785434558583
 21
24.78927777258542
 31
0.0
  0
LINE
  5
411
330
3A4
100
AcDbEntity
  8
0
 62
     0
100
AcDbLine
 10
30.35047808566076
 20
26.49665403251043
 30
0.0
 11
27.67503315676316
 21
29.17209896140809
 31
0.0
  0
LINE
  5
412
330
3A4
100
AcDbEntity
  8
0
 62
     0
100
AcDbLine
 10
41.20047808566073
 20
15.64665403251052
 30
0.0
 11
38.40047808566078
 21
18.44665403251048
 31
0.0
  0
LINE
  5
413
330
3A4
100
AcDbEntity
  8
0
 62
     0
100
AcDbLine
 10
33.97032819868025
 20
21.97877830738417
 30
0.0
 11
31.84232819868026
 21
24.10677830738416
 31
0.0
  0
LINE
  5
414
330
3A4
100
AcDbEntity
  8
0
 62
     0
100
AcDbLine
 10
30.35047808566082
 20
25.59862842040359
 30
0.0
 11
27.55047808566075
 21
28.39862842040361
 31
0.0
  0
LINE
  5
415
330
3A4
100
AcDbEntity
  8
0
 62
     0
100
AcDbLine
 10
41.20047808566079
 20
14.74862842040363
 30
0.0
 11
38.40047808566078
 21
17.54862842040358
 31
0.0
  0
LINE
  5
416
330
3A4
100
AcDbEntity
  8
0
 62
     0
100
AcDbLine
 10
33.76523968928819
 20
21.28584120466928
 30
0.0
 11
31.62680205177451
 21
23.42427884218295
 31
0.0
  0
LINE
  5
417
330
3A4
100
AcDbEntity
  8
0
 62
     0
100
AcDbLine
 10
30.35047808566082
 20
24.70060280829665
 30
0.0
 11
27.55047808566075
 21
27.50060280829671
 31
0.0
  0
LINE
  5
418
330
3A4
100
AcDbEntity
  8
0
 62
     0
100
AcDbLine
 10
41.20047808566073
 20
13.85060280829668
 30
0.0
 11
38.40047808566078
 21
16.65060280829669
 31
0.0
  0
LINE
  5
419
330
3A4
100
AcDbEntity
  8
0
 62
     0
100
AcDbLine
 10
34.17971304872219
 20
19.97334223312833
 30
0.0
 11
31.33625455608989
 21
22.81680072576063
 31
0.0
  0
LINE
  5
41A
330
3A4
100
AcDbEntity
  8
0
 62
     0
100
AcDbLine
 10
30.35047808566088
 20
23.80257719618964
 30
0.0
 11
27.5504780856607
 21
26.60257719618977
 31
0.0
  0
LINE
  5
41B
330
3A4
100
AcDbEntity
  8
0
 62
     0
100
AcDbLine
 10
40.8614330883284
 20
13.29162219352207
 30
0.0
 11
38.40047808566078
 21
15.75257719618974
 31
0.0
  0
LINE
  5
41C
330
3A4
100
AcDbEntity
  8
0
 62
     0
100
AcDbLine
 10
34.59418640815619
 20
18.6608432615875
 30
0.0
 11
27.55047808566075
 21
25.70455158408293
 31
0.0
  0
LINE
  5
41D
330
3A4
100
AcDbEntity
  8
0
 62
     0
100
AcDbLine
 10
25.10047808566088
 20
28.15455158408281
 30
0.0
 11
23.89744338692111
 21
29.35758628282258
 31
0.0
  0
LINE
  5
41E
330
3A4
100
AcDbEntity
  8
0
 62
     0
100
AcDbLine
 10
39.99744338692113
 20
13.25758628282255
 30
0.0
 11
38.40047808566089
 21
14.8545515840828
 31
0.0
  0
LINE
  5
41F
330
3A4
100
AcDbEntity
  8
0
 62
     0
100
AcDbLine
 10
35.00865976759024
 20
17.34834429004649
 30
0.0
 11
27.55047808566075
 21
24.80652597197599
 31
0.0
  0
LINE
  5
420
330
3A4
100
AcDbEntity
  8
0
 62
     0
100
AcDbLine
 10
25.10047808566088
 20
27.25652597197586
 30
0.0
 11
22.9994177748141
 21
29.35758628282263
 31
0.0
  0
LINE
  5
421
330
3A4
100
AcDbEntity
  8
0
 62
     0
100
AcDbLine
 10
39.09941777481418
 20
13.2575862828225
 30
0.0
 11
38.40047808566083
 21
13.9565259719759
 31
0.0
  0
LINE
  5
422
330
3A4
100
AcDbEntity
  8
0
 62
     0
100
AcDbLine
 10
24.83357139027077
 20
26.62540705525902
 30
0.0
 11
22.13334967205935
 21
29.32562877347038
 31
0.0
  0
LINE
  5
423
330
3A4
100
AcDbEntity
  8
0
 62
     0
100
AcDbLine
 10
35.42313312702418
 20
16.0358453185056
 30
0.0
 11
27.55047808566081
 21
23.90850035986898
 31
0.0
  0
LINE
  5
424
330
3A4
100
AcDbEntity
  8
0
 62
     0
100
AcDbLine
 10
30.68798700800243
 20
19.87296582542046
 30
0.0
 11
27.55047808566081
 21
23.01047474776209
 31
0.0
  0
LINE
  5
425
330
3A4
100
AcDbEntity
  8
0
 62
     0
100
AcDbLine
 10
24.00336655060033
 20
26.55758628282251
 30
0.0
 11
21.39530660247209
 21
29.16564623095081
 31
0.0
  0
LINE
  5
426
330
3A4
100
AcDbEntity
  8
0
 62
     0
100
AcDbLine
 10
35.83760648645824
 20
14.72334634696466
 30
0.0
 11
31.74529879415013
 21
18.81565403927277
 31
0.0
  0
LINE
  5
427
330
3A4
100
AcDbEntity
  8
0
 62
     0
100
AcDbLine
 10
30.35047808566088
 20
19.31244913565512
 30
0.0
 11
27.55047808566081
 21
22.11244913565519
 31
0.0
  0
LINE
  5
428
330
3A4
100
AcDbEntity
  8
0
 62
     0
100
AcDbLine
 10
23.10534093849332
 20
26.55758628282262
 30
0.0
 11
20.75658518664135
 21
28.90634203467459
 31
0.0
  0
LINE
  5
429
330
3A4
100
AcDbEntity
  8
0
 62
     0
100
AcDbLine
 10
36.07264534416884
 20
13.5902818771471
 30
0.0
 11
32.15977215358407
 21
17.50315506773193
 31
0.0
  0
LINE
  5
42A
330
3A4
100
AcDbEntity
  8
0
 62
     0
100
AcDbLine
 10
30.35047808566082
 20
18.41442352354823
 30
0.0
 11
27.55047808566075
 21
21.21442352354824
 31
0.0
  0
LINE
  5
42B
330
3A4
100
AcDbEntity
  8
0
 62
     0
100
AcDbLine
 10
22.26222743594979
 20
26.50267417325926
 30
0.0
 11
20.19783621130682
 21
28.56706539790224
 31
0.0
  0
LINE
  5
42C
330
3A4
100
AcDbEntity
  8
0
 62
     0
100
AcDbLine
 10
35.5073153263865
 20
13.25758628282255
 30
0.0
 11
32.57424551301812
 21
16.19065609619087
 31
0.0
  0
LINE
  5
42D
330
3A4
100
AcDbEntity
  8
0
 62
     0
100
AcDbLine
 10
30.35047808566082
 20
17.51639791144128
 30
0.0
 11
27.55047808566075
 21
20.31639791144135
 31
0.0
  0
LINE
  5
42E
330
3A4
100
AcDbEntity
  8
0
 62
     0
100
AcDbLine
 10
21.6903712431108
 20
26.1765047539913
 30
0.0
 11
19.71018100269503
 21
28.15669499440707
 31
0.0
  0
LINE
  5
42F
330
3A4
100
AcDbEntity
  8
0
 62
     0
100
AcDbLine
 10
34.60928971427955
 20
13.25758628282255
 30
0.0
 11
32.98871887245207
 21
14.87815712465004
 31
0.0
  0
LINE
  5
430
330
3A4
100
AcDbEntity
  8
0
 62
     0
100
AcDbLine
 10
25.43590721845856
 20
21.53294316653671
 30
0.0
 11
23.92583496937481
 21
23.04301541562046
 31
0.0
  0
LINE
  5
431
330
3A4
100
AcDbEntity
  8
0
 62
     0
100
AcDbLine
 10
30.35047808566094
 20
16.61837229933434
 30
0.0
 11
27.55047808566081
 21
19.41837229933446
 31
0.0
  0
LINE
  5
432
330
3A4
100
AcDbEntity
  8
0
 62
     0
100
AcDbLine
 10
21.33424967298185
 20
25.63460071201342
 30
0.0
 11
19.2908149766838
 21
27.67803540831147
 31
0.0
  0
LINE
  5
433
330
3A4
100
AcDbEntity
  8
0
 62
     0
100
AcDbLine
 10
33.66093109796804
 20
13.30791928702723
 30
0.0
 11
33.41057692637673
 21
13.55827345861854
 31
0.0
  0
LINE
  5
434
330
3A4
100
AcDbEntity
  8
0
 62
     0
100
AcDbLine
 10
25.34939355831665
 20
20.72143121457167
 30
0.0
 11
23.11432301740978
 21
22.95650175547854
 31
0.0
  0
LINE
  5
435
330
3A4
100
AcDbEntity
  8
0
 62
     0
100
AcDbLine
 10
21.25047808566091
 20
24.82034668722741
 30
0.0
 11
18.94187595572214
 21
27.12894881716619
 31
0.0
  0
LINE
  5
436
330
3A4
100
AcDbEntity
  8
0
 62
     0
100
AcDbLine
 10
30.35047808566088
 20
15.72034668722739
 30
0.0
 11
27.55047808566075
 21
18.52034668722757
 31
0.0
  0
LINE
  5
437
330
3A4
100
AcDbEntity
  8
0
 62
     0
100
AcDbLine
 10
25.0175379990186
 20
20.15526116176272
 30
0.0
 11
22.54815296460083
 21
22.62464619618049
 31
0.0
  0
LINE
  5
438
330
3A4
100
AcDbEntity
  8
0
 62
     0
100
AcDbLine
 10
21.25047808566091
 20
23.92232107512046
 30
0.0
 11
18.67129624851196
 21
26.50150291226941
 31
0.0
  0
LINE
  5
439
330
3A4
100
AcDbEntity
  8
0
 62
     0
100
AcDbLine
 10
30.35047808566088
 20
14.82232107512049
 30
0.0
 11
27.55047808566081
 21
17.62232107512056
 31
0.0
  0
LINE
  5
43A
330
3A4
100
AcDbEntity
  8
0
 62
     0
100
AcDbLine
 10
21.25047808566091
 20
23.02429546301357
 30
0.0
 11
18.49658237558611
 21
25.77819117308843
 31
0.0
  0
LINE
  5
43B
330
3A4
100
AcDbEntity
  8
0
 62
     0
100
AcDbLine
 10
24.51570455688215
 20
19.75906899179238
 30
0.0
 11
22.15196079463049
 21
22.12281275404405
 31
0.0
  0
LINE
  5
43C
330
3A4
100
AcDbEntity
  8
0
 62
     0
100
AcDbLine
 10
15.82547808566073
 20
28.44929546301375
 30
0.0
 11
14.91718726585185
 21
29.35758628282269
 31
0.0
  0
LINE
  5
43D
330
3A4
100
AcDbEntity
  8
0
 62
     0
100
AcDbLine
 10
30.35047808566094
 20
13.9242954630136
 30
0.0
 11
27.55047808566087
 21
16.72429546301367
 31
0.0
  0
LINE
  5
43E
330
3A4
100
AcDbEntity
  8
0
 62
     0
100
AcDbLine
 10
21.25047808566091
 20
22.12626985090668
 30
0.0
 11
18.45047808566084
 21
24.92626985090675
 31
0.0
  0
LINE
  5
43F
330
3A4
100
AcDbEntity
  8
0
 62
     0
100
AcDbLine
 10
23.81538511445473
 20
19.56136282211287
 30
0.0
 11
21.95425462495097
 21
21.42249331161662
 31
0.0
  0
LINE
  5
440
330
3A4
100
AcDbEntity
  8
0
 62
     0
100
AcDbLine
 10
15.82547808566073
 20
27.55126985090686
 30
0.0
 11
14.0191616537449
 21
29.35758628282263
 31
0.0
  0
LINE
  5
441
330
3A4
100
AcDbEntity
  8
0
 62
     0
100
AcDbLine
 10
30.06257428439022
 20
13.31417365217737
 30
0.0
 11
27.55047808566081
 21
15.82626985090672
 31
0.0
  0
LINE
  5
442
330
3A4
100
AcDbEntity
  8
0
 62
     0
100
AcDbLine
 10
21.25047808566091
 20
21.22824423879973
 30
0.0
 11
18.45047808566084
 21
24.0282442387998
 31
0.0
  0
LINE
  5
443
330
3A4
100
AcDbEntity
  8
0
 62
     0
100
AcDbLine
 10
15.71644411539045
 20
26.76227820907019
 30
0.0
 11
13.12113604163789
 21
29.35758628282269
 31
0.0
  0
LINE
  5
444
330
3A4
100
AcDbEntity
  8
0
 62
     0
100
AcDbLine
 10
29.22113604163809
 20
13.2575862828225
 30
0.0
 11
27.55047808566081
 21
14.92824423879983
 31
0.0
  0
LINE
  5
445
330
3A4
100
AcDbEntity
  8
0
 62
     0
100
AcDbLine
 10
21.25047808566085
 20
20.33021862669284
 30
0.0
 11
18.45047808566079
 21
23.13021862669285
 31
0.0
  0
LINE
  5
446
330
3A4
100
AcDbEntity
  8
0
 62
     0
100
AcDbLine
 10
15.02311042953112
 20
26.55758628282256
 30
0.0
 11
12.223110429531
 21
29.35758628282269
 31
0.0
  0
LINE
  5
447
330
3A4
100
AcDbEntity
  8
0
 62
     0
100
AcDbLine
 10
28.32311042953108
 20
13.25758628282255
 30
0.0
 11
27.55047808566081
 21
14.03021862669288
 31
0.0
  0
LINE
  5
448
330
3A4
100
AcDbEntity
  8
0
 62
     0
100
AcDbLine
 10
21.25047808566091
 20
19.43219301458595
 30
0.0
 11
18.45047808566084
 21
22.23219301458601
 31
0.0
  0
LINE
  5
449
330
3A4
100
AcDbEntity
  8
0
 62
     0
100
AcDbLine
 10
14.12508481742423
 20
26.55758628282256
 30
0.0
 11
11.35995554531933
 21
29.32271555492752
 31
0.0
  0
LINE
  5
44A
330
3A4
100
AcDbEntity
  8
0
 62
     0
100
AcDbLine
 10
25.09787563682391
 20
15.58479546342289
 30
0.0
 11
24.6276872662612
 21
16.05498383398566
 31
0.0
  0
LINE
  5
44B
330
3A4
100
AcDbEntity
  8
0
 62
     0
100
AcDbLine
 10
21.25047808566085
 20
18.53416740247899
 30
0.0
 11
18.45047808566084
 21
21.33416740247906
 31
0.0
  0
LINE
  5
44C
330
3A4
100
AcDbEntity
  8
0
 62
     0
100
AcDbLine
 10
13.22705920531734
 20
26.55758628282256
 30
0.0
 11
10.66682073684086
 21
29.11782475129905
 31
0.0
  0
LINE
  5
44D
330
3A4
100
AcDbEntity
  8
0
 62
     0
100
AcDbLine
 10
25.10047808566082
 20
14.68416740247903
 30
0.0
 11
23.72705920531728
 21
16.05758628282262
 31
0.0
  0
LINE
  5
44E
330
3A4
100
AcDbEntity
  8
0
 62
     0
100
AcDbLine
 10
21.25047808566085
 20
17.6361417903721
 30
0.0
 11
18.4504780856609
 21
20.43614179037206
 31
0.0
  0
LINE
  5
44F
330
3A4
100
AcDbEntity
  8
0
 62
     0
100
AcDbLine
 10
12.32903359321039
 20
26.55758628282251
 30
0.0
 11
10.10257407699362
 21
28.78404579903929
 31
0.0
  0
LINE
  5
450
330
3A4
100
AcDbEntity
  8
0
 62
     0
100
AcDbLine
 10
25.10047808566082
 20
13.78614179037214
 30
0.0
 11
22.82903359321039
 21
16.05758628282251
 31
0.0
  0
LINE
  5
451
330
3A4
100
AcDbEntity
  8
0
 62
     0
100
AcDbLine
 10
11.8187407655958
 20
26.16985349833032
 30
0.0
 11
9.644481264752869
 21
28.34411299917326
 31
0.0
  0
LINE
  5
452
330
3A4
100
AcDbEntity
  8
0
 62
     0
100
AcDbLine
 10
24.71274530116852
 20
13.2758489627576
 30
0.0
 11
18.4504780856609
 21
19.53811617826522
 31
0.0
  0
LINE
  5
453
330
3A4
100
AcDbEntity
  8
0
 62
     0
100
AcDbLine
 10
11.80047808566087
 20
25.29009056615831
 30
0.0
 11
9.291000062283785
 21
27.79956858953539
 31
0.0
  0
LINE
  5
454
330
3A4
100
AcDbEntity
  8
0
 62
     0
100
AcDbLine
 10
23.83298236899662
 20
13.25758628282255
 30
0.0
 11
18.4504780856609
 21
18.64009056615827
 31
0.0
  0
LINE
  5
455
330
3A4
100
AcDbEntity
  8
0
 62
     0
100
AcDbLine
 10
11.86261379379629
 20
24.32992924591587
 30
0.0
 11
9.060119959990061
 21
27.13242307972217
 31
0.0
  0
LINE
  5
456
330
3A4
100
AcDbEntity
  8
0
 62
     0
100
AcDbLine
 10
22.93495675688962
 20
13.25758628282261
 30
0.0
 11
18.45047808566084
 21
17.74206495405133
 31
0.0
  0
LINE
  5
457
330
3A4
100
AcDbEntity
  8
0
 62
     0
100
AcDbLine
 10
16.15485417688353
 20
19.13966325072181
 30
0.0
 11
9.000478085660915
 21
26.29403934194442
 31
0.0
  0
LINE
  5
458
330
3A4
100
AcDbEntity
  8
0
 62
     0
100
AcDbLine
 10
21.98365905772607
 20
13.31085836987927
 30
0.0
 11
18.5037501727175
 21
16.79076725488783
 31
0.0
  0
LINE
  5
459
330
3A4
100
AcDbEntity
  8
0
 62
     0
100
AcDbLine
 10
16.34674869096875
 20
18.04974312452969
 30
0.0
 11
9.000478085660802
 21
25.39601372983764
 31
0.0
  0
LINE
  5
45A
330
3A4
100
AcDbEntity
  8
0
 62
     0
100
AcDbLine
 10
20.60985114512448
 20
13.78664067037391
 30
0.0
 11
18.97953247321209
 21
15.41695934228636
 31
0.0
  0
LINE
  5
45B
330
3A4
100
AcDbEntity
  8
0
 62
     0
100
AcDbLine
 10
16.35047808566088
 20
17.14798811773062
 30
0.0
 11
9.008042533083198
 21
24.49042367030824
 31
0.0
  0
LINE
  5
45C
330
3A4
100
AcDbEntity
  8
0
 62
     0
100
AcDbLine
 10
16.35047808566082
 20
16.24996250562372
 30
0.0
 11
9.231333291407054
 21
23.36910729987744
 31
0.0
  0
LINE
  5
45D
330
3A4
100
AcDbEntity
  8
0
 62
     0
100
AcDbLine
 10
16.27795808952891
 20
15.4244568896488
 30
0.0
 11
13.51456644590985
 21
18.18784853326786
 31
0.0
  0
LINE
  5
45E
330
3A4
100
AcDbEntity
  8
0
 62
     0
100
AcDbLine
 10
16.03602015050006
 20
14.7683692165707
 30
0.0
 11
13.55047808566081
 21
17.25391128140995
 31
0.0
  0
LINE
  5
45F
330
3A4
100
AcDbEntity
  8
0
 62
     0
100
AcDbLine
 10
15.67390090311829
 20
14.23246285184552
 30
0.0
 11
13.51457905336013
 21
16.39178470160368
 31
0.0
  0
LINE
  5
460
330
3A4
100
AcDbEntity
  8
0
 62
     0
100
AcDbLine
 10
15.20767453085142
 20
13.8006636120055
 30
0.0
 11
12.9507518600343
 21
16.05758628282268
 31
0.0
  0
LINE
  5
461
330
3A4
100
AcDbEntity
  8
0
 62
     0
100
AcDbLine
 10
14.6344100831186
 20
13.47590244763142
 30
0.0
 11
12.05272624792735
 21
16.05758628282262
 31
0.0
  0
LINE
  5
462
330
3A4
100
AcDbEntity
  8
0
 62
     0
100
AcDbLine
 10
13.92899749403267
 20
13.28328942461041
 30
0.0
 11
11.15470063582046
 21
16.05758628282262
 31
0.0
  0
LINE
  5
463
330
3A4
100
AcDbEntity
  8
0
 62
     0
100
AcDbLine
 10
13.05667502371363
 20
13.25758628282244
 30
0.0
 11
10.25667502371351
 21
16.05758628282262
 31
0.0
  0
LINE
  5
464
330
3A4
100
AcDbEntity
  8
0
 62
     0
100
AcDbLine
 10
12.15864941160669
 20
13.25758628282255
 30
0.0
 11
9.605325516788809
 21
15.81091017764049
 31
0.0
  0
LINE
  5
465
330
3A4
100
AcDbEntity
  8
0
 62
     0
100
AcDbLine
 10
11.26062379949979
 20
13.25758628282255
 30
0.0
 11
9.525478085660836
 21
14.99273199666151
 31
0.0
  0
LINE
  5
466
330
3A4
100
AcDbEntity
  8
0
 62
     0
100
AcDbLine
 10
10.36259818739284
 20
13.25758628282255
 30
0.0
 11
9.525478085660836
 21
14.09470638455457
 31
0.0
  0
LINE
  5
467
330
3A4
100
AcDbEntity
  8
0
 62
     0
100
AcDbLine
 10
66.34216537032779
 20
13.27071805994012
 30
0.0
 11
66.73734630854358
 21
13.66589899815591
 31
0.0
  0
LINE
  5
468
330
3A4
100
AcDbEntity
  8
0
 62
     0
100
AcDbLine
 10
65.43100798110334
 20
13.2575862828225
 30
0.0
 11
66.75047808566103
 21
14.57705638738019
 31
0.0
  0
LINE
  5
469
330
3A4
100
AcDbEntity
  8
0
 62
     0
100
AcDbLine
 10
64.53298236899644
 20
13.2575862828225
 30
0.0
 11
66.75047808566103
 21
15.47508199948708
 31
0.0
  0
LINE
  5
46A
330
3A4
100
AcDbEntity
  8
0
 62
     0
100
AcDbLine
 10
63.9816756489127
 20
13.6043051748457
 30
0.0
 11
66.75047808566097
 21
16.37310761159403
 31
0.0
  0
LINE
  5
46B
330
3A4
100
AcDbEntity
  8
0
 62
     0
100
AcDbLine
 10
63.9504780856609
 20
14.47113322370086
 30
0.0
 11
66.75047808566097
 21
17.27113322370087
 31
0.0
  0
LINE
  5
46C
330
3A4
100
AcDbEntity
  8
0
 62
     0
100
AcDbLine
 10
63.95047808566096
 20
15.36915883580775
 30
0.0
 11
66.75047808566097
 21
18.16915883580782
 31
0.0
  0
LINE
  5
46D
330
3A4
100
AcDbEntity
  8
0
 62
     0
100
AcDbLine
 10
63.9504780856609
 20
16.2671844479147
 30
0.0
 11
66.75047808566097
 21
19.06718444791477
 31
0.0
  0
LINE
  5
46E
330
3A4
100
AcDbEntity
  8
0
 62
     0
100
AcDbLine
 10
63.9504780856609
 20
17.16521006002159
 30
0.0
 11
66.75047808566097
 21
19.96521006002166
 31
0.0
  0
LINE
  5
46F
330
3A4
100
AcDbEntity
  8
0
 62
     0
100
AcDbLine
 10
60.37704294772618
 20
13.59177492208686
 30
0.0
 11
61.51628944639674
 21
14.73102142075748
 31
0.0
  0
LINE
  5
470
330
3A4
100
AcDbEntity
  8
0
 62
     0
100
AcDbLine
 10
63.9504780856609
 20
18.06323567212848
 30
0.0
 11
66.75047808566097
 21
20.86323567212855
 31
0.0
  0
LINE
  5
471
330
3A4
100
AcDbEntity
  8
0
 62
     0
100
AcDbLine
 10
59.14647478120338
 20
13.25923236767096
 30
0.0
 11
61.8488320008127
 21
15.96158958728023
 31
0.0
  0
LINE
  5
472
330
3A4
100
AcDbEntity
  8
0
 62
     0
100
AcDbLine
 10
63.9504780856609
 20
18.96126128423543
 30
0.0
 11
66.75047808566097
 21
21.76126128423544
 31
0.0
  0
LINE
  5
473
330
3A4
100
AcDbEntity
  8
0
 62
     0
100
AcDbLine
 10
58.24680308424797
 20
13.2575862828225
 30
0.0
 11
61.850478085661
 21
16.86126128423546
 31
0.0
  0
LINE
  5
474
330
3A4
100
AcDbEntity
  8
0
 62
     0
100
AcDbLine
 10
63.9504780856609
 20
19.85928689634232
 30
0.0
 11
66.75047808566091
 21
22.65928689634239
 31
0.0
  0
LINE
  5
475
330
3A4
100
AcDbEntity
  8
0
 62
     0
100
AcDbLine
 10
57.34877747214108
 20
13.2575862828225
 30
0.0
 11
61.85047808566094
 21
17.75928689634241
 31
0.0
  0
LINE
  5
476
330
3A4
100
AcDbEntity
  8
0
 62
     0
100
AcDbLine
 10
63.9504780856609
 20
20.75731250844921
 30
0.0
 11
66.75047808566097
 21
23.55731250844928
 31
0.0
  0
LINE
  5
477
330
3A4
100
AcDbEntity
  8
0
 62
     0
100
AcDbLine
 10
56.45075186003424
 20
13.25758628282255
 30
0.0
 11
61.850478085661
 21
18.6573125084493
 31
0.0
  0
LINE
  5
478
330
3A4
100
AcDbEntity
  8
0
 62
     0
100
AcDbLine
 10
58.94588688357988
 20
16.65074691847513
 30
0.0
 11
61.850478085661
 21
19.5553381205562
 31
0.0
  0
LINE
  5
479
330
3A4
100
AcDbEntity
  8
0
 62
     0
100
AcDbLine
 10
63.9504780856609
 20
21.65533812055611
 30
0.0
 11
66.75047808566097
 21
24.45533812055618
 31
0.0
  0
LINE
  5
47A
330
3A4
100
AcDbEntity
  8
0
 62
     0
100
AcDbLine
 10
55.55272624792724
 20
13.2575862828225
 30
0.0
 11
58.45731745000836
 21
16.16217748490356
 31
0.0
  0
LINE
  5
47B
330
3A4
100
AcDbEntity
  8
0
 62
     0
100
AcDbLine
 10
59.05047808566087
 20
17.65336373266308
 30
0.0
 11
61.85047808566094
 21
20.45336373266315
 31
0.0
  0
LINE
  5
47C
330
3A4
100
AcDbEntity
  8
0
 62
     0
100
AcDbLine
 10
63.95047808566085
 20
22.55336373266306
 30
0.0
 11
66.75047808566091
 21
25.35336373266313
 31
0.0
  0
LINE
  5
47D
330
3A4
100
AcDbEntity
  8
0
 62
     0
100
AcDbLine
 10
54.76665038719755
 20
13.36953603419971
 30
0.0
 11
57.45470063582041
 21
16.05758628282257
 31
0.0
  0
LINE
  5
47E
330
3A4
100
AcDbEntity
  8
0
 62
     0
100
AcDbLine
 10
59.05047808566092
 20
18.55138934477008
 30
0.0
 11
61.85047808566094
 21
21.35138934477004
 31
0.0
  0
LINE
  5
47F
330
3A4
100
AcDbEntity
  8
0
 62
     0
100
AcDbLine
 10
63.95047808566085
 20
23.45138934477
 30
0.0
 11
66.75047808566091
 21
26.25138934477002
 31
0.0
  0
LINE
  5
480
330
3A4
100
AcDbEntity
  8
0
 62
     0
100
AcDbLine
 10
54.1386635199874
 20
13.63957477909656
 30
0.0
 11
56.55755280935784
 21
16.058464068467
 31
0.0
  0
LINE
  5
481
330
3A4
100
AcDbEntity
  8
0
 62
     0
100
AcDbLine
 10
59.05047808566099
 20
19.44941495687698
 30
0.0
 11
61.85047808566094
 21
22.24941495687693
 31
0.0
  0
LINE
  5
482
330
3A4
100
AcDbEntity
  8
0
 62
     0
100
AcDbLine
 10
63.9504780856609
 20
24.34941495687684
 30
0.0
 11
66.75047808566091
 21
27.14941495687691
 31
0.0
  0
LINE
  5
483
330
3A4
100
AcDbEntity
  8
0
 62
     0
100
AcDbLine
 10
53.62540363862234
 20
14.02434050983828
 30
0.0
 11
55.91407422064515
 21
16.31301109186114
 31
0.0
  0
LINE
  5
484
330
3A4
100
AcDbEntity
  8
0
 62
     0
100
AcDbLine
 10
59.05047808566099
 20
20.34744056898387
 30
0.0
 11
61.85047808566094
 21
23.14744056898388
 31
0.0
  0
LINE
  5
485
330
3A4
100
AcDbEntity
  8
0
 62
     0
100
AcDbLine
 10
63.95047808566085
 20
25.24744056898379
 30
0.0
 11
66.75047808566091
 21
28.04744056898385
 31
0.0
  0
LINE
  5
486
330
3A4
100
AcDbEntity
  8
0
 62
     0
100
AcDbLine
 10
53.21543946339722
 20
14.5124019467201
 30
0.0
 11
55.57683594223573
 21
16.87379842555867
 31
0.0
  0
LINE
  5
487
330
3A4
100
AcDbEntity
  8
0
 62
     0
100
AcDbLine
 10
59.05047808566092
 20
21.24546618109082
 30
0.0
 11
61.850478085661
 21
24.04546618109089
 31
0.0
  0
LINE
  5
488
330
3A4
100
AcDbEntity
  8
0
 62
     0
100
AcDbLine
 10
63.95047808566085
 20
26.14546618109068
 30
0.0
 11
66.74032893211045
 21
28.93531702754035
 31
0.0
  0
LINE
  5
489
330
3A4
100
AcDbEntity
  8
0
 62
     0
100
AcDbLine
 10
52.91551458496321
 20
15.11050268039309
 30
0.0
 11
55.55047808566093
 21
17.74546618109076
 31
0.0
  0
LINE
  5
48A
330
3A4
100
AcDbEntity
  8
0
 62
     0
100
AcDbLine
 10
59.05047808566099
 20
22.14349179319765
 30
0.0
 11
61.85047808566105
 21
24.94349179319772
 31
0.0
  0
LINE
  5
48B
330
3A4
100
AcDbEntity
  8
0
 62
     0
100
AcDbLine
 10
63.95047808566085
 20
27.04349179319757
 30
0.0
 11
66.26321458703097
 21
29.3562282945677
 31
0.0
  0
LINE
  5
48C
330
3A4
100
AcDbEntity
  8
0
 62
     0
100
AcDbLine
 10
52.75810105000676
 20
15.85111475754348
 30
0.0
 11
55.55047808566093
 21
18.64349179319765
 31
0.0
  0
LINE
  5
48D
330
3A4
100
AcDbEntity
  8
0
 62
     0
100
AcDbLine
 10
59.05047808566092
 20
23.0415174053046
 30
0.0
 11
61.850478085661
 21
25.84151740530467
 31
0.0
  0
LINE
  5
48E
330
3A4
100
AcDbEntity
  8
0
 62
     0
100
AcDbLine
 10
63.9504780856609
 20
27.94151740530458
 30
0.0
 11
65.3665469631789
 21
29.35758628282258
 31
0.0
  0
LINE
  5
48F
330
3A4
100
AcDbEntity
  8
0
 62
     0
100
AcDbLine
 10
52.75047808566097
 20
16.74151740530459
 30
0.0
 11
55.55047808566098
 21
19.54151740530465
 31
0.0
  0
LINE
  5
490
330
3A4
100
AcDbEntity
  8
0
 62
     0
100
AcDbLine
 10
59.05047808566092
 20
23.93954301741155
 30
0.0
 11
61.850478085661
 21
26.73954301741156
 31
0.0
  0
LINE
  5
491
330
3A4
100
AcDbEntity
  8
0
 62
     0
100
AcDbLine
 10
52.75047808566092
 20
17.63954301741154
 30
0.0
 11
55.55047808566098
 21
20.4395430174116
 31
0.0
  0
LINE
  5
492
330
3A4
100
AcDbEntity
  8
0
 62
     0
100
AcDbLine
 10
63.95052480040835
 20
28.83958973215897
 30
0.0
 11
64.46847463632463
 21
29.3575395680752
 31
0.0
  0
LINE
  5
493
330
3A4
100
AcDbEntity
  8
0
 62
     0
100
AcDbLine
 10
48.42892245494891
 20
13.31798738669948
 30
0.0
 11
50.59007698178408
 21
15.4791419135347
 31
0.0
  0
LINE
  5
494
330
3A4
100
AcDbEntity
  8
0
 62
     0
100
AcDbLine
 10
52.75047808566092
 20
18.53756862951843
 30
0.0
 11
55.55047808566098
 21
21.33756862951849
 31
0.0
  0
LINE
  5
495
330
3A4
100
AcDbEntity
  8
0
 62
     0
100
AcDbLine
 10
59.05047808566092
 20
24.83756862951844
 30
0.0
 11
61.85047808566094
 21
27.63756862951851
 31
0.0
  0
LINE
  5
496
330
3A4
100
AcDbEntity
  8
0
 62
     0
100
AcDbLine
 10
47.47049573896504
 20
13.25758628282261
 30
0.0
 11
50.65047808566089
 21
16.43756862951846
 31
0.0
  0
LINE
  5
497
330
3A4
100
AcDbEntity
  8
0
 62
     0
100
AcDbLine
 10
52.75047808566092
 20
19.43559424162532
 30
0.0
 11
55.55047808566098
 21
22.23559424162539
 31
0.0
  0
LINE
  5
498
330
3A4
100
AcDbEntity
  8
0
 62
     0
100
AcDbLine
 10
59.05047808566092
 20
25.73559424162533
 30
0.0
 11
61.850478085661
 21
28.5355942416254
 31
0.0
  0
LINE
  5
499
330
3A4
100
AcDbEntity
  8
0
 62
     0
100
AcDbLine
 10
46.57247012685814
 20
13.25758628282255
 30
0.0
 11
50.65047808566095
 21
17.3355942416253
 31
0.0
  0
LINE
  5
49A
330
3A4
100
AcDbEntity
  8
0
 62
     0
100
AcDbLine
 10
52.75047808566092
 20
20.33361985373227
 30
0.0
 11
55.55047808566098
 21
23.13361985373228
 31
0.0
  0
LINE
  5
49B
330
3A4
100
AcDbEntity
  8
0
 62
     0
100
AcDbLine
 10
59.05047808566092
 20
26.63361985373223
 30
0.0
 11
61.65674063082684
 21
29.2398823988982
 31
0.0
  0
LINE
  5
49C
330
3A4
100
AcDbEntity
  8
0
 62
     0
100
AcDbLine
 10
45.67444451475125
 20
13.25758628282261
 30
0.0
 11
50.63615948524807
 21
18.21930125331937
 31
0.0
  0
LINE
  5
49D
330
3A4
100
AcDbEntity
  8
0
 62
     0
100
AcDbLine
 10
52.75047808566092
 20
21.23164546583916
 30
0.0
 11
55.55047808566093
 21
24.03164546583923
 31
0.0
  0
LINE
  5
49E
330
3A4
100
AcDbEntity
  8
0
 62
     0
100
AcDbLine
 10
59.05047808566087
 20
27.53164546583917
 30
0.0
 11
60.87641890264433
 21
29.35758628282263
 31
0.0
  0
LINE
  5
49F
330
3A4
100
AcDbEntity
  8
0
 62
     0
100
AcDbLine
 10
44.77641890264431
 20
13.25758628282261
 30
0.0
 11
50.50124711461927
 21
18.98241449479758
 31
0.0
  0
LINE
  5
4A0
330
3A4
100
AcDbEntity
  8
0
 62
     0
100
AcDbLine
 10
52.75047808566092
 20
22.12967107794605
 30
0.0
 11
55.55047808566098
 21
24.92967107794612
 31
0.0
  0
LINE
  5
4A1
330
3A4
100
AcDbEntity
  8
0
 62
     0
100
AcDbLine
 10
47.85047808566105
 20
17.22967107794613
 30
0.0
 11
50.26065965770072
 21
19.63985264998586
 31
0.0
  0
LINE
  5
4A2
330
3A4
100
AcDbEntity
  8
0
 62
     0
100
AcDbLine
 10
59.05047808566092
 20
28.42967107794606
 30
0.0
 11
59.9783932905375
 21
29.35758628282263
 31
0.0
  0
LINE
  5
4A3
330
3A4
100
AcDbEntity
  8
0
 62
     0
100
AcDbLine
 10
44.00664864366854
 20
13.38584163595368
 30
0.0
 11
46.67839329053743
 21
16.05758628282257
 31
0.0
  0
LINE
  5
4A4
330
3A4
100
AcDbEntity
  8
0
 62
     0
100
AcDbLine
 10
47.83060751053364
 20
18.10782611492567
 30
0.0
 11
49.93716035284013
 21
20.21437895723215
 31
0.0
  0
LINE
  5
4A5
330
3A4
100
AcDbEntity
  8
0
 62
     0
100
AcDbLine
 10
52.75047808566092
 20
23.02769669005294
 30
0.0
 11
55.55047808566093
 21
25.82769669005301
 31
0.0
  0
LINE
  5
4A6
330
3A4
100
AcDbEntity
  8
0
 62
     0
100
AcDbLine
 10
43.82547808566096
 20
14.10269669005299
 30
0.0
 11
45.78036767843047
 21
16.05758628282257
 31
0.0
  0
LINE
  5
4A7
330
3A4
100
AcDbEntity
  8
0
 62
     0
100
AcDbLine
 10
47.55622267339475
 20
18.73146688989379
 30
0.0
 11
49.54128923491231
 21
20.71653345141135
 31
0.0
  0
LINE
  5
4A8
330
3A4
100
AcDbEntity
  8
0
 62
     0
100
AcDbLine
 10
52.75047808566085
 20
23.92572230215989
 30
0.0
 11
55.55047808566093
 21
26.72572230215996
 31
0.0
  0
LINE
  5
4A9
330
3A4
100
AcDbEntity
  8
0
 62
     0
100
AcDbLine
 10
43.8254780856609
 20
15.00072230215994
 30
0.0
 11
44.88234206632358
 21
16.05758628282262
 31
0.0
  0
LINE
  5
4AA
330
3A4
100
AcDbEntity
  8
0
 62
     0
100
AcDbLine
 10
52.75047808566092
 20
24.82374791426678
 30
0.0
 11
55.55047808566098
 21
27.6237479142668
 31
0.0
  0
LINE
  5
4AB
330
3A4
100
AcDbEntity
  8
0
 62
     0
100
AcDbLine
 10
47.11494777627769
 20
19.1882176048835
 30
0.0
 11
49.09484676360006
 21
21.16811659220593
 31
0.0
  0
LINE
  5
4AC
330
3A4
100
AcDbEntity
  8
0
 62
     0
100
AcDbLine
 10
46.66593497022421
 20
19.63723041093698
 30
0.0
 11
48.64583395754658
 21
21.6171293982594
 31
0.0
  0
LINE
  5
4AD
330
3A4
100
AcDbEntity
  8
0
 62
     0
100
AcDbLine
 10
52.75047808566085
 20
25.72177352637368
 30
0.0
 11
55.55047808566093
 21
28.52177352637374
 31
0.0
  0
LINE
  5
4AE
330
3A4
100
AcDbEntity
  8
0
 62
     0
100
AcDbLine
 10
40.28629084210973
 20
13.25758628282255
 30
0.0
 11
41.2004780856609
 21
14.17177352637366
 31
0.0
  0
LINE
  5
4AF
330
3A4
100
AcDbEntity
  8
0
 62
     0
100
AcDbLine
 10
46.21692216417073
 20
20.08624321699045
 30
0.0
 11
48.19682115149311
 21
22.06614220431288
 31
0.0
  0
LINE
  5
4B0
330
3A4
100
AcDbEntity
  8
0
 62
     0
100
AcDbLine
 10
52.75047808566085
 20
26.61979913848063
 30
0.0
 11
55.36429717756226
 21
29.23361823038197
 31
0.0
  0
LINE
  5
4B1
330
3A4
100
AcDbEntity
  8
0
 62
     0
100
AcDbLine
 10
39.38826523000278
 20
13.25758628282255
 30
0.0
 11
41.20047808566096
 21
15.06979913848067
 31
0.0
  0
LINE
  5
4B2
330
3A4
100
AcDbEntity
  8
0
 62
     0
100
AcDbLine
 10
45.76790935811726
 20
20.53525602304393
 30
0.0
 11
47.74780834543963
 21
22.51515501036635
 31
0.0
  0
LINE
  5
4B3
330
3A4
100
AcDbEntity
  8
0
 62
     0
100
AcDbLine
 10
52.75047808566085
 20
27.51782475058752
 30
0.0
 11
54.59023961789597
 21
29.35758628282269
 31
0.0
  0
LINE
  5
4B4
330
3A4
100
AcDbEntity
  8
0
 62
     0
100
AcDbLine
 10
38.60185075575788
 20
13.36919742068454
 30
0.0
 11
41.2004780856609
 21
15.96782475058762
 31
0.0
  0
LINE
  5
4B5
330
3A4
100
AcDbEntity
  8
0
 62
     0
100
AcDbLine
 10
45.31889655206384
 20
20.98426882909734
 30
0.0
 11
47.29879553938622
 21
22.96416781641977
 31
0.0
  0
LINE
  5
4B6
330
3A4
100
AcDbEntity
  8
0
 62
     0
100
AcDbLine
 10
52.75047808566085
 20
28.41585036269441
 30
0.0
 11
53.69221400578914
 21
29.35758628282263
 31
0.0
  0
LINE
  5
4B7
330
3A4
100
AcDbEntity
  8
0
 62
     0
100
AcDbLine
 10
38.40047808566095
 20
14.0658503626945
 30
0.0
 11
41.20047808566096
 21
16.86585036269446
 31
0.0
  0
LINE
  5
4B8
330
3A4
100
AcDbEntity
  8
0
 62
     0
100
AcDbLine
 10
44.86988374601037
 20
21.43328163515082
 30
0.0
 11
46.84978273333274
 21
23.41318062247324
 31
0.0
  0
LINE
  5
4B9
330
3A4
100
AcDbEntity
  8
0
 62
     0
100
AcDbLine
 10
38.40047808566095
 20
14.96387597480145
 30
0.0
 11
41.2004780856609
 21
17.7638759748014
 31
0.0
  0
LINE
  5
4BA
330
3A4
100
AcDbEntity
  8
0
 62
     0
100
AcDbLine
 10
44.42289984496904
 20
21.88432334621649
 30
0.0
 11
46.40687337835106
 21
23.86829687959846
 31
0.0
  0
LINE
  5
4BB
330
3A4
100
AcDbEntity
  8
0
 62
     0
100
AcDbLine
 10
38.40047808566095
 20
15.86190158690834
 30
0.0
 11
41.2004780856609
 21
18.66190158690835
 31
0.0
  0
LINE
  5
4BC
330
3A4
100
AcDbEntity
  8
0
 62
     0
100
AcDbLine
 10
49.09616278157511
 20
26.55758628282256
 30
0.0
 11
50.12547808566097
 21
27.58690158690837
 31
0.0
  0
LINE
  5
4BD
330
3A4
100
AcDbEntity
  8
0
 62
     0
100
AcDbLine
 10
35.90782186095072
 20
13.36924536219811
 30
0.0
 11
35.99747422240574
 21
13.45889772365319
 31
0.0
  0
LINE
  5
4BE
330
3A4
100
AcDbEntity
  8
0
 62
     0
100
AcDbLine
 10
44.02489766614706
 20
22.38434677950135
 30
0.0
 11
46.12453194356567
 21
24.48398105691996
 31
0.0
  0
LINE
  5
4BF
330
3A4
100
AcDbEntity
  8
0
 62
     0
100
AcDbLine
 10
38.40047808566095
 20
16.75992719901523
 30
0.0
 11
41.20047808566096
 21
19.55992719901519
 31
0.0
  0
LINE
  5
4C0
330
3A4
100
AcDbEntity
  8
0
 62
     0
100
AcDbLine
 10
48.19813716946834
 20
26.55758628282262
 30
0.0
 11
50.12547808566097
 21
28.48492719901526
 31
0.0
  0
LINE
  5
4C1
330
3A4
100
AcDbEntity
  8
0
 62
     0
100
AcDbLine
 10
34.89813716946827
 20
13.25758628282255
 30
0.0
 11
35.9639162657748
 21
14.32336537912908
 31
0.0
  0
LINE
  5
4C2
330
3A4
100
AcDbEntity
  8
0
 62
     0
100
AcDbLine
 10
43.69906340175037
 20
22.95653812721161
 30
0.0
 11
46.10047808566105
 21
25.35795281112228
 31
0.0
  0
LINE
  5
4C3
330
3A4
100
AcDbEntity
  8
0
 62
     0
100
AcDbLine
 10
38.40047808566095
 20
17.65795281112213
 30
0.0
 11
41.2004780856609
 21
20.45795281112213
 31
0.0
  0
LINE
  5
4C4
330
3A4
100
AcDbEntity
  8
0
 62
     0
100
AcDbLine
 10
47.30011155736133
 20
26.55758628282256
 30
0.0
 11
49.95880915386305
 21
29.21628387932429
 31
0.0
  0
LINE
  5
4C5
330
3A4
100
AcDbEntity
  8
0
 62
     0
100
AcDbLine
 10
34.00011155736126
 20
13.2575862828225
 30
0.0
 11
35.74839011886911
 21
15.00586484433034
 31
0.0
  0
LINE
  5
4C6
330
3A4
100
AcDbEntity
  8
0
 62
     0
100
AcDbLine
 10
38.40047808566089
 20
18.55597842322907
 30
0.0
 11
41.2004780856609
 21
21.35597842322903
 31
0.0
  0
LINE
  5
4C7
330
3A4
100
AcDbEntity
  8
0
 62
     0
100
AcDbLine
 10
43.45568133908028
 20
23.61118167664847
 30
0.0
 11
49.20208594525445
 21
29.35758628282263
 31
0.0
  0
LINE
  5
4C8
330
3A4
100
AcDbEntity
  8
0
 62
     0
100
AcDbLine
 10
33.40809724670629
 20
13.56359758427447
 30
0.0
 11
35.53286397196342
 21
15.6883643095316
 31
0.0
  0
LINE
  5
4C9
330
3A4
100
AcDbEntity
  8
0
 62
     0
100
AcDbLine
 10
38.40047808566089
 20
19.45400403533602
 30
0.0
 11
41.20047808566084
 21
22.25400403533598
 31
0.0
  0
LINE
  5
4CA
330
3A4
100
AcDbEntity
  8
0
 62
     0
100
AcDbLine
 10
43.31697447999459
 20
24.37050042966973
 30
0.0
 11
48.30406033314756
 21
29.35758628282263
 31
0.0
  0
LINE
  5
4CB
330
3A4
100
AcDbEntity
  8
0
 62
     0
100
AcDbLine
 10
33.18933782505769
 20
14.24286377473282
 30
0.0
 11
35.31733782505773
 21
16.37086377473286
 31
0.0
  0
LINE
  5
4CC
330
3A4
100
AcDbEntity
  8
0
 62
     0
100
AcDbLine
 10
38.40047808566095
 20
20.35202964744286
 30
0.0
 11
41.2004780856609
 21
23.15202964744287
 31
0.0
  0
LINE
  5
4CD
330
3A4
100
AcDbEntity
  8
0
 62
     0
100
AcDbLine
 10
43.30047808566092
 20
25.25202964744284
 30
0.0
 11
47.40603472104067
 21
29.35758628282263
 31
0.0
  0
LINE
  5
4CE
330
3A4
100
AcDbEntity
  8
0
 62
     0
100
AcDbLine
 10
32.97381167815206
 20
14.92536323993403
 30
0.0
 11
35.10181167815216
 21
17.05336323993407
 31
0.0
  0
LINE
  5
4CF
330
3A4
100
AcDbEntity
  8
0
 62
     0
100
AcDbLine
 10
38.40047808566089
 20
21.25005525954981
 30
0.0
 11
41.2004780856609
 21
24.05005525954976
 31
0.0
  0
LINE
  5
4D0
330
3A4
100
AcDbEntity
  8
0
 62
     0
100
AcDbLine
 10
43.30047808566098
 20
26.15005525954984
 30
0.0
 11
46.50800910893377
 21
29.35758628282263
 31
0.0
  0
LINE
  5
4D1
330
3A4
100
AcDbEntity
  8
0
 62
     0
100
AcDbLine
 10
32.75828553124631
 20
15.60786270513523
 30
0.0
 11
34.88628553124653
 21
17.73586270513544
 31
0.0
  0
LINE
  5
4D2
330
3A4
100
AcDbEntity
  8
0
 62
     0
100
AcDbLine
 10
38.40047808566089
 20
22.1480808716567
 30
0.0
 11
41.20047808566096
 21
24.94808087165677
 31
0.0
  0
LINE
  5
4D3
330
3A4
100
AcDbEntity
  8
0
 62
     0
100
AcDbLine
 10
32.54275938434068
 20
16.29036217033655
 30
0.0
 11
34.67075938434078
 21
18.41836217033659
 31
0.0
  0
LINE
  5
4D4
330
3A4
100
AcDbEntity
  8
0
 62
     0
100
AcDbLine
 10
43.35379475578213
 20
27.101397541778
 30
0.0
 11
45.55666682670545
 21
29.30426961270132
 31
0.0
  0
LINE
  5
4D5
330
3A4
100
AcDbEntity
  8
0
 62
     0
100
AcDbLine
 10
29.50998349682669
 20
13.25758628282255
 30
0.0
 11
30.35047808566088
 21
14.09808087165674
 31
0.0
  0
LINE
  5
4D6
330
3A4
100
AcDbEntity
  8
0
 62
     0
100
AcDbLine
 10
32.32723323743511
 20
16.97286163553775
 30
0.0
 11
34.45523323743515
 21
19.10086163553785
 31
0.0
  0
LINE
  5
4D7
330
3A4
100
AcDbEntity
  8
0
 62
     0
100
AcDbLine
 10
38.40047808566089
 20
23.04610648376359
 30
0.0
 11
41.20047808566096
 21
25.84610648376366
 31
0.0
  0
LINE
  5
4D8
330
3A4
100
AcDbEntity
  8
0
 62
     0
100
AcDbLine
 10
28.61195788471985
 20
13.2575862828225
 30
0.0
 11
30.35047808566094
 21
14.99610648376363
 31
0.0
  0
LINE
  5
4D9
330
3A4
100
AcDbEntity
  8
0
 62
     0
100
AcDbLine
 10
32.11170709052942
 20
17.65536110073901
 30
0.0
 11
34.23970709052946
 21
19.78336110073911
 31
0.0
  0
LINE
  5
4DA
330
3A4
100
AcDbEntity
  8
0
 62
     0
100
AcDbLine
 10
38.40047808566089
 20
23.94413209587054
 30
0.0
 11
41.20047808566096
 21
26.74413209587055
 31
0.0
  0
LINE
  5
4DB
330
3A4
100
AcDbEntity
  8
0
 62
     0
100
AcDbLine
 10
27.7950820202642
 20
13.33873603047385
 30
0.0
 11
30.35047808566094
 21
15.89413209587053
 31
0.0
  0
LINE
  5
4DC
330
3A4
100
AcDbEntity
  8
0
 62
     0
100
AcDbLine
 10
31.89618094362373
 20
18.33786056594027
 30
0.0
 11
34.02418094362377
 21
20.46586056594037
 31
0.0
  0
LINE
  5
4DD
330
3A4
100
AcDbEntity
  8
0
 62
     0
100
AcDbLine
 10
38.40047808566089
 20
24.84215770797743
 30
0.0
 11
41.2004780856609
 21
27.6421577079775
 31
0.0
  0
LINE
  5
4DE
330
3A4
100
AcDbEntity
  8
0
 62
     0
100
AcDbLine
 10
27.55047808566092
 20
13.99215770797747
 30
0.0
 11
30.35047808566099
 21
16.79215770797753
 31
0.0
  0
LINE
  5
4DF
330
3A4
100
AcDbEntity
  8
0
 62
     0
100
AcDbLine
 10
31.6806547967181
 20
19.02036003114147
 30
0.0
 11
33.80865479671825
 21
21.14836003114163
 31
0.0
  0
LINE
  5
4E0
330
3A4
100
AcDbEntity
  8
0
 62
     0
100
AcDbLine
 10
38.40047808566089
 20
25.74018332008432
 30
0.0
 11
41.20047808566096
 21
28.54018332008439
 31
0.0
  0
LINE
  5
4E1
330
3A4
100
AcDbEntity
  8
0
 62
     0
100
AcDbLine
 10
27.55047808566092
 20
14.89018332008436
 30
0.0
 11
30.35047808566099
 21
17.69018332008442
 31
0.0
  0
LINE
  5
4E2
330
3A4
100
AcDbEntity
  8
0
 62
     0
100
AcDbLine
 10
31.44585600974636
 20
19.68358685627674
 30
0.0
 11
34.07615007767736
 21
22.31388092420769
 31
0.0
  0
LINE
  5
4E3
330
3A4
100
AcDbEntity
  8
0
 62
     0
100
AcDbLine
 10
38.40047808566095
 20
26.63820893219133
 30
0.0
 11
41.00420266316251
 21
29.24193350969284
 31
0.0
  0
LINE
  5
4E4
330
3A4
100
AcDbEntity
  8
0
 62
     0
100
AcDbLine
 10
27.55047808566092
 20
15.7882089321913
 30
0.0
 11
30.35047808566099
 21
18.58820893219132
 31
0.0
  0
LINE
  5
4E5
330
3A4
100
AcDbEntity
  8
0
 62
     0
100
AcDbLine
 10
30.75867063987897
 20
19.8944270985163
 30
0.0
 11
34.49062343711125
 21
23.62637989574858
 31
0.0
  0
LINE
  5
4E6
330
3A4
100
AcDbEntity
  8
0
 62
     0
100
AcDbLine
 10
27.55047808566092
 20
16.6862345442982
 30
0.0
 11
30.36363726996722
 21
19.4993937286045
 31
0.0
  0
LINE
  5
4E7
330
3A4
100
AcDbEntity
  8
0
 62
     0
100
AcDbLine
 10
38.40047808566095
 20
27.53623454429822
 30
0.0
 11
40.2218298241853
 21
29.35758628282263
 31
0.0
  0
LINE
  5
4E8
330
3A4
100
AcDbEntity
  8
0
 62
     0
100
AcDbLine
 10
24.12182982418528
 20
13.25758628282255
 30
0.0
 11
25.10047808566094
 21
14.23623454429827
 31
0.0
  0
LINE
  5
4E9
330
3A4
100
AcDbEntity
  8
0
 62
     0
100
AcDbLine
 10
27.55047808566087
 20
17.58426015640515
 30
0.0
 11
34.90509679654519
 21
24.93887886728947
 31
0.0
  0
LINE
  5
4EA
330
3A4
100
AcDbEntity
  8
0
 62
     0
100
AcDbLine
 10
38.40047808566089
 20
28.43426015640517
 30
0.0
 11
39.3238042120783
 21
29.35758628282258
 31
0.0
  0
LINE
  5
4EB
330
3A4
100
AcDbEntity
  8
0
 62
     0
100
AcDbLine
 10
23.22380421207833
 20
13.25758628282261
 30
0.0
 11
25.10047808566099
 21
15.13426015640527
 31
0.0
  0
LINE
  5
4EC
330
3A4
100
AcDbEntity
  8
0
 62
     0
100
AcDbLine
 10
27.55047808566092
 20
18.48228576851198
 30
0.0
 11
35.3195701559793
 21
26.25137783883042
 31
0.0
  0
LINE
  5
4ED
330
3A4
100
AcDbEntity
  8
0
 62
     0
100
AcDbLine
 10
22.33745922432154
 20
13.26926690717266
 30
0.0
 11
24.95914380205476
 21
15.89095148490582
 31
0.0
  0
LINE
  5
4EE
330
3A4
100
AcDbEntity
  8
0
 62
     0
100
AcDbLine
 10
27.55047808566087
 20
19.38031138061893
 30
0.0
 11
30.87775298786453
 21
22.7075862828226
 31
0.0
  0
LINE
  5
4EF
330
3A4
100
AcDbEntity
  8
0
 62
     0
100
AcDbLine
 10
31.64173582310542
 20
23.47156911806348
 30
0.0
 11
35.73404351541324
 21
27.56387681037131
 31
0.0
  0
LINE
  5
4F0
330
3A4
100
AcDbEntity
  8
0
 62
     0
100
AcDbLine
 10
21.56929870687457
 20
13.39913200183258
 30
0.0
 11
24.2277529878645
 21
16.05758628282257
 31
0.0
  0
LINE
  5
4F1
330
3A4
100
AcDbEntity
  8
0
 62
     0
100
AcDbLine
 10
27.55047808566087
 20
20.27833699272588
 30
0.0
 11
30.3684686563692
 21
23.09632756343416
 31
0.0
  0
LINE
  5
4F2
330
3A4
100
AcDbEntity
  8
0
 62
     0
100
AcDbLine
 10
32.05620918253936
 20
24.78406808960432
 30
0.0
 11
36.10911496721456
 21
28.83697387427957
 31
0.0
  0
LINE
  5
4F3
330
3A4
100
AcDbEntity
  8
0
 62
     0
100
AcDbLine
 10
20.90816445004816
 20
13.63602335711317
 30
0.0
 11
23.32972737575761
 21
16.05758628282257
 31
0.0
  0
LINE
  5
4F4
330
3A4
100
AcDbEntity
  8
0
 62
     0
100
AcDbLine
 10
27.55047808566092
 20
21.17636260483271
 30
0.0
 11
30.35047808566094
 21
23.97636260483278
 31
0.0
  0
LINE
  5
4F5
330
3A4
100
AcDbEntity
  8
0
 62
     0
100
AcDbLine
 10
32.4706825419733
 20
26.09656706114515
 30
0.0
 11
35.71510309464537
 21
29.34098761381722
 31
0.0
  0
LINE
  5
4F6
330
3A4
100
AcDbEntity
  8
0
 62
     0
100
AcDbLine
 10
20.33056116588386
 20
13.95644568505565
 30
0.0
 11
22.44662302437672
 21
16.07250754354856
 31
0.0
  0
LINE
  5
4F7
330
3A4
100
AcDbEntity
  8
0
 62
     0
100
AcDbLine
 10
27.55047808566087
 20
22.07438821693966
 30
0.0
 11
30.35047808566094
 21
24.87438821693973
 31
0.0
  0
LINE
  5
4F8
330
3A4
100
AcDbEntity
  8
0
 62
     0
100
AcDbLine
 10
32.88515590140724
 20
27.40906603268598
 30
0.0
 11
34.83367615154378
 21
29.35758628282258
 31
0.0
  0
LINE
  5
4F9
330
3A4
100
AcDbEntity
  8
0
 62
     0
100
AcDbLine
 10
19.8256061995018
 20
14.34951633078054
 30
0.0
 11
21.81230688335841
 21
16.33621701463715
 31
0.0
  0
LINE
  5
4FA
330
3A4
100
AcDbEntity
  8
0
 62
     0
100
AcDbLine
 10
27.55047808566087
 20
22.97241382904656
 30
0.0
 11
30.35047808566094
 21
25.77241382904662
 31
0.0
  0
LINE
  5
4FB
330
3A4
100
AcDbEntity
  8
0
 62
     0
100
AcDbLine
 10
24.21211221743738
 20
19.63404796082312
 30
0.0
 11
25.37401640766046
 21
20.79595215104621
 31
0.0
  0
LINE
  5
4FC
330
3A4
100
AcDbEntity
  8
0
 62
     0
100
AcDbLine
 10
33.29962926084113
 20
28.72156500422687
 30
0.0
 11
33.93565053943683
 21
29.35758628282258
 31
0.0
  0
LINE
  5
4FD
330
3A4
100
AcDbEntity
  8
0
 62
     0
100
AcDbLine
 10
19.38916912617196
 20
14.8111048695577
 30
0.0
 11
21.40205593208623
 21
16.82399167547197
 31
0.0
  0
LINE
  5
4FE
330
3A4
100
AcDbEntity
  8
0
 62
     0
100
AcDbLine
 10
23.28713937580755
 20
19.60710073130025
 30
0.0
 11
25.40096363718333
 21
21.72092499267597
 31
0.0
  0
LINE
  5
4FF
330
3A4
100
AcDbEntity
  8
0
 62
     0
100
AcDbLine
 10
27.55047808566092
 20
23.87043944115356
 30
0.0
 11
30.35047808566099
 21
26.67043944115363
 31
0.0
  0
LINE
  5
500
330
3A4
100
AcDbEntity
  8
0
 62
     0
100
AcDbLine
 10
19.02214990122899
 20
15.34211125672163
 30
0.0
 11
21.25047808566091
 21
17.57043944115361
 31
0.0
  0
LINE
  5
501
330
3A4
100
AcDbEntity
  8
0
 62
     0
100
AcDbLine
 10
22.67299280638735
 20
19.89097977398682
 30
0.0
 11
25.1170845944967
 21
22.33507156209623
 31
0.0
  0
LINE
  5
502
330
3A4
100
AcDbEntity
  8
0
 62
     0
100
AcDbLine
 10
27.55047808566092
 20
24.76846505326045
 30
0.0
 11
30.35047808566099
 21
27.56846505326052
 31
0.0
  0
LINE
  5
503
330
3A4
100
AcDbEntity
  8
0
 62
     0
100
AcDbLine
 10
18.73083239130426
 20
15.94881935890379
 30
0.0
 11
21.25047808566091
 21
18.46846505326044
 31
0.0
  0
LINE
  5
504
330
3A4
100
AcDbEntity
  8
0
 62
     0
100
AcDbLine
 10
22.23503287939763
 20
20.35104545910411
 30
0.0
 11
24.65701890937947
 21
22.77303148908589
 31
0.0
  0
LINE
  5
505
330
3A4
100
AcDbEntity
  8
0
 62
     0
100
AcDbLine
 10
27.55047808566092
 20
25.6664906653674
 30
0.0
 11
30.35047808566099
 21
28.46649066536741
 31
0.0
  0
LINE
  5
506
330
3A4
100
AcDbEntity
  8
0
 62
     0
100
AcDbLine
 10
18.5296950271296
 20
16.64570760683608
 30
0.0
 11
21.25047808566091
 21
19.36649066536739
 31
0.0
  0
LINE
  5
507
330
3A4
100
AcDbEntity
  8
0
 62
     0
100
AcDbLine
 10
21.97898214698926
 20
20.99302033880263
 30
0.0
 11
24.01504402968089
 21
23.02908222149432
 31
0.0
  0
LINE
  5
508
330
3A4
100
AcDbEntity
  8
0
 62
     0
100
AcDbLine
 10
18.45047808566084
 20
17.46451627747427
 30
0.0
 11
21.25047808566091
 21
20.26451627747428
 31
0.0
  0
LINE
  5
509
330
3A4
100
AcDbEntity
  8
0
 62
     0
100
AcDbLine
 10
27.55047808566092
 20
26.56451627747429
 30
0.0
 11
30.1932279773058
 21
29.20726616911924
 31
0.0
  0
LINE
  5
50A
330
3A4
100
AcDbEntity
  8
0
 62
     0
100
AcDbLine
 10
14.36448132778525
 20
13.37851951959868
 30
0.0
 11
16.22954484888498
 21
15.24358304069841
 31
0.0
  0
LINE
  5
50B
330
3A4
100
AcDbEntity
  8
0
 62
     0
100
AcDbLine
 10
22.09739523047005
 20
22.00945903439031
 30
0.0
 11
22.99860533409327
 21
22.91066913801353
 31
0.0
  0
LINE
  5
50C
330
3A4
100
AcDbEntity
  8
0
 62
     0
100
AcDbLine
 10
18.45047808566084
 20
18.3625418895811
 30
0.0
 11
21.25047808566091
 21
21.16254188958117
 31
0.0
  0
LINE
  5
50D
330
3A4
100
AcDbEntity
  8
0
 62
     0
100
AcDbLine
 10
27.55047808566092
 20
27.46254188958118
 30
0.0
 11
29.44552247890232
 21
29.35758628282258
 31
0.0
  0
LINE
  5
50E
330
3A4
100
AcDbEntity
  8
0
 62
     0
100
AcDbLine
 10
13.34552247890229
 20
13.25758628282255
 30
0.0
 11
16.35047808566105
 21
16.26254188958125
 31
0.0
  0
LINE
  5
50F
330
3A4
100
AcDbEntity
  8
0
 62
     0
100
AcDbLine
 10
18.45047808566084
 20
19.26056750168805
 30
0.0
 11
21.25047808566091
 21
22.06056750168812
 31
0.0
  0
LINE
  5
510
330
3A4
100
AcDbEntity
  8
0
 62
     0
100
AcDbLine
 10
27.55047808566092
 20
28.36056750168808
 30
0.0
 11
28.54749686679543
 21
29.35758628282263
 31
0.0
  0
LINE
  5
511
330
3A4
100
AcDbEntity
  8
0
 62
     0
100
AcDbLine
 10
12.44749686679529
 20
13.2575862828225
 30
0.0
 11
16.35047808566099
 21
17.1605675016882
 31
0.0
  0
LINE
  5
512
330
3A4
100
AcDbEntity
  8
0
 62
     0
100
AcDbLine
 10
18.45047808566084
 20
20.15859311379494
 30
0.0
 11
21.25047808566085
 21
22.95859311379501
 31
0.0
  0
LINE
  5
513
330
3A4
100
AcDbEntity
  8
0
 62
     0
100
AcDbLine
 10
11.54947125468845
 20
13.25758628282261
 30
0.0
 11
16.34653873309974
 21
18.0546537612339
 31
0.0
  0
LINE
  5
514
330
3A4
100
AcDbEntity
  8
0
 62
     0
100
AcDbLine
 10
18.45047808566084
 20
21.05661872590189
 30
0.0
 11
21.25047808566091
 21
23.85661872590196
 31
0.0
  0
LINE
  5
515
330
3A4
100
AcDbEntity
  8
0
 62
     0
100
AcDbLine
 10
23.95144564258163
 20
26.55758628282268
 30
0.0
 11
25.10047808566105
 21
27.7066187259021
 31
0.0
  0
LINE
  5
516
330
3A4
100
AcDbEntity
  8
0
 62
     0
100
AcDbLine
 10
10.6514456425815
 20
13.25758628282255
 30
0.0
 11
16.23687689677842
 21
18.84301753701947
 31
0.0
  0
LINE
  5
517
330
3A4
100
AcDbEntity
  8
0
 62
     0
100
AcDbLine
 10
18.45047808566084
 20
21.95464433800879
 30
0.0
 11
21.25047808566091
 21
24.7546443380088
 31
0.0
  0
LINE
  5
518
330
3A4
100
AcDbEntity
  8
0
 62
     0
100
AcDbLine
 10
13.55047808566092
 20
17.05464433800887
 30
0.0
 11
16.0145381527343
 21
19.51870440508224
 31
0.0
  0
LINE
  5
519
330
3A4
100
AcDbEntity
  8
0
 62
     0
100
AcDbLine
 10
23.05342003047462
 20
26.55758628282256
 30
0.0
 11
25.10047808566105
 21
28.60464433800894
 31
0.0
  0
LINE
  5
51A
330
3A4
100
AcDbEntity
  8
0
 62
     0
100
AcDbLine
 10
9.811145905734576
 20
13.31531215808252
 30
0.0
 11
12.55342003047462
 21
16.05758628282257
 31
0.0
  0
LINE
  5
51B
330
3A4
100
AcDbEntity
  8
0
 62
     0
100
AcDbLine
 10
18.45047808566079
 20
22.85266995011568
 30
0.0
 11
21.41629279144058
 21
25.81848465589547
 31
0.0
  0
LINE
  5
51C
330
3A4
100
AcDbEntity
  8
0
 62
     0
100
AcDbLine
 10
13.54831899405167
 20
17.9505108585065
 30
0.0
 11
15.70610661806227
 21
20.10829848251717
 31
0.0
  0
LINE
  5
51D
330
3A4
100
AcDbEntity
  8
0
 62
     0
100
AcDbLine
 10
21.98957971258812
 20
26.39177157704301
 30
0.0
 11
24.86701067074113
 21
29.26920253519597
 31
0.0
  0
LINE
  5
51E
330
3A4
100
AcDbEntity
  8
0
 62
     0
100
AcDbLine
 10
9.52547808566095
 20
13.92766995011578
 30
0.0
 11
11.65539441836773
 21
16.05758628282257
 31
0.0
  0
LINE
  5
51F
330
3A4
100
AcDbEntity
  8
0
 62
     0
100
AcDbLine
 10
13.32871597455095
 20
18.6289334511128
 30
0.0
 11
15.32386465322338
 21
20.62408212978522
 31
0.0
  0
LINE
  5
520
330
3A4
100
AcDbEntity
  8
0
 62
     0
100
AcDbLine
 10
18.45047808566079
 20
23.75069556222263
 30
0.0
 11
24.05736880626085
 21
29.35758628282269
 31
0.0
  0
LINE
  5
521
330
3A4
100
AcDbEntity
  8
0
 62
     0
100
AcDbLine
 10
9.525478085660893
 20
14.82569556222273
 30
0.0
 11
10.75736880626078
 21
16.05758628282262
 31
0.0
  0
LINE
  5
522
330
3A4
100
AcDbEntity
  8
0
 62
     0
100
AcDbLine
 10
12.90246114624625
 20
19.10070423491492
 30
0.0
 11
14.88236013356862
 21
21.08060322223729
 31
0.0
  0
LINE
  5
523
330
3A4
100
AcDbEntity
  8
0
 62
     0
100
AcDbLine
 10
18.45047808566084
 20
24.64872117432946
 30
0.0
 11
23.15934319415379
 21
29.35758628282247
 31
0.0
  0
LINE
  5
524
330
3A4
100
AcDbEntity
  8
0
 62
     0
100
AcDbLine
 10
9.594430007680671
 20
15.79267309634934
 30
0.0
 11
9.790391272134286
 21
15.98863436080296
 31
0.0
  0
LINE
  5
525
330
3A4
100
AcDbEntity
  8
0
 62
     0
100
AcDbLine
 10
18.47045319981742
 20
25.56672190059299
 30
0.0
 11
22.24134246789043
 21
29.33761116866605
 31
0.0
  0
LINE
  5
526
330
3A4
100
AcDbEntity
  8
0
 62
     0
100
AcDbLine
 10
12.45344834019277
 20
19.5497170409684
 30
0.0
 11
14.43334732751515
 21
21.52961602829077
 31
0.0
  0
LINE
  5
527
330
3A4
100
AcDbEntity
  8
0
 62
     0
100
AcDbLine
 10
18.7699166320832
 20
26.76421094496578
 30
0.0
 11
21.0438534235177
 21
29.03814773640027
 31
0.0
  0
LINE
  5
528
330
3A4
100
AcDbEntity
  8
0
 62
     0
100
AcDbLine
 10
12.0044355341393
 20
19.99872984702187
 30
0.0
 11
13.98433452146167
 21
21.97862883434424
 31
0.0
  0
LINE
  5
529
330
3A4
100
AcDbEntity
  8
0
 62
     0
100
AcDbLine
 10
11.55542272808588
 20
20.44774265307529
 30
0.0
 11
13.5353217154082
 21
22.42764164039755
 31
0.0
  0
LINE
  5
52A
330
3A4
100
AcDbEntity
  8
0
 62
     0
100
AcDbLine
 10
11.10640992203241
 20
20.89675545912876
 30
0.0
 11
13.08630890935472
 21
22.87665444645103
 31
0.0
  0
LINE
  5
52B
330
3A4
100
AcDbEntity
  8
0
 62
     0
100
AcDbLine
 10
10.65739711597893
 20
21.34576826518224
 30
0.0
 11
12.63729610330125
 21
23.3256672525045
 31
0.0
  0
LINE
  5
52C
330
3A4
100
AcDbEntity
  8
0
 62
     0
100
AcDbLine
 10
14.97118952151237
 20
26.55758628282256
 30
0.0
 11
15.82547808566084
 21
27.4118748469711
 31
0.0
  0
LINE
  5
52D
330
3A4
100
AcDbEntity
  8
0
 62
     0
100
AcDbLine
 10
10.20846762395359
 20
21.79486438526385
 30
0.0
 11
12.18853326738605
 21
23.7749300286963
 31
0.0
  0
LINE
  5
52E
330
3A4
100
AcDbEntity
  8
0
 62
     0
100
AcDbLine
 10
14.07316390940548
 20
26.55758628282256
 30
0.0
 11
15.8254780856609
 21
28.30990045907799
 31
0.0
  0
LINE
  5
52F
330
3A4
100
AcDbEntity
  8
0
 62
     0
100
AcDbLine
 10
9.796999699402022
 20
22.28142207281905
 30
0.0
 11
11.85863638609811
 21
24.3430587595152
 31
0.0
  0
LINE
  5
530
330
3A4
100
AcDbEntity
  8
0
 62
     0
100
AcDbLine
 10
13.17513829729853
 20
26.55758628282256
 30
0.0
 11
15.73891918589976
 21
29.12136717142379
 31
0.0
  0
LINE
  5
531
330
3A4
100
AcDbEntity
  8
0
 62
     0
100
AcDbLine
 10
9.456539093139554
 20
22.83898707866353
 30
0.0
 11
11.80047808566098
 21
25.18292607118496
 31
0.0
  0
LINE
  5
532
330
3A4
100
AcDbEntity
  8
0
 62
     0
100
AcDbLine
 10
12.27464603602152
 20
26.55511963365245
 30
0.0
 11
15.0771126851917
 21
29.35758628282263
 31
0.0
  0
LINE
  5
533
330
3A4
100
AcDbEntity
  8
0
 62
     0
100
AcDbLine
 10
9.195845797407457
 20
23.47631939503838
 30
0.0
 11
11.80294473483104
 21
26.08341833246203
 31
0.0
  0
LINE
  5
534
330
3A4
100
AcDbEntity
  8
0
 62
     0
100
AcDbLine
 10
9.034033835159391
 20
24.21253304489721
 30
0.0
 11
14.17908707308481
 21
29.35758628282263
 31
0.0
  0
LINE
  5
535
330
3A4
100
AcDbEntity
  8
0
 62
     0
100
AcDbLine
 10
9.000478085660972
 20
25.07700290750574
 30
0.0
 11
13.2810614609778
 21
29.35758628282258
 31
0.0
  0
LINE
  5
536
330
3A4
100
AcDbEntity
  8
0
 62
     0
100
AcDbLine
 10
9.000478085660972
 20
25.97502851961263
 30
0.0
 11
12.38303584887086
 21
29.35758628282258
 31
0.0
  0
LINE
  5
537
330
3A4
100
AcDbEntity
  8
0
 62
     0
100
AcDbLine
 10
9.020670096099195
 20
26.8932461421578
 30
0.0
 11
11.4648182263258
 21
29.33739427238441
 31
0.0
  0
ENDBLK
  5
539
330
3A4
100
AcDbEntity
  8
0
100
AcDbBlockEnd
  0
BLOCK
  5
2BD1
330
2BC7
100
AcDbEntity
  8
0
100
AcDbBlockBegin
  2
*D2
 70
     1
 10
0.0
 20
0.0
 30
0.0
  3
*D2
  1

  0
LINE
  5
2D9B
330
2BC7
100
AcDbEntity
  8
SUNPOU
100
AcDbLine
 10
439.1136384554672
 20
400.1102734822398
 30
0.0
 11
439.1136384554672
 21
418.9287778004393
 31
0.0
  0
LINE
  5
2D9C
330
2BC7
100
AcDbEntity
  8
SUNPOU
100
AcDbLine
 10
395.6136384554672
 20
400.1102884822398
 30
0.0
 11
395.6136384554672
 21
418.9287778004393
 31
0.0
  0
LINE
  5
2D9D
330
2BC7
100
AcDbEntity
  8
SUNPOU
100
AcDbLine
 10
432.1136384554672
 20
415.9287778004393
 30
0.0
 11
402.6136384554672
 21
415.9287778004393
 31
0.0
  0
INSERT
  5
2D9E
330
2BC7
100
AcDbEntity
  8
SUNPOU
100
AcDbBlockReference
  2
_OPEN
 10
439.1136384554672
 20
415.9287778004393
 30
0.0
 41
7.0
 42
7.0
 43
7.0
  0
INSERT
  5
2D9F
330
2BC7
100
AcDbEntity
  8
SUNPOU
100
AcDbBlockReference
  2
_OPEN
 10
395.6136384554672
 20
415.9287778004393
 30
0.0
 41
7.0
 42
7.0
 43
7.0
 50
180.0
  0
MTEXT
  5
2DA0
330
2BC7
100
AcDbEntity
  8
SUNPOU
100
AcDbMText
 10
417.3636384554672
 20
420.9287778004393
 30
0.0
 40
6.0
 41
0.0
 71
     5
 72
     5
  1
\A1;\U+203B44
 73
     1
 44
1.0
1001
ACAD
1000
MTEXTBEGIN
1070
    73
1070
     1
1070
    44
1040
1.0
1070
    74
1070
     0
1000
MTEXTEND
  0
POINT
  5
2DA1
330
2BC7
100
AcDbEntity
  8
DEFPOINTS
 62
     0
100
AcDbPoint
 10
439.1136384554672
 20
394.1102734822398
 30
0.0
  0
POINT
  5
2DA2
330
2BC7
100
AcDbEntity
  8
DEFPOINTS
 62
     0
100
AcDbPoint
 10
395.6136384554672
 20
394.1102884822398
 30
0.0
  0
POINT
  5
2DA3
330
2BC7
100
AcDbEntity
  8
DEFPOINTS
 62
     0
100
AcDbPoint
 10
395.6136384554672
 20
415.9287778004393
 30
0.0
  0
ENDBLK
  5
2BD2
330
2BC7
100
AcDbEntity
  8
0
100
AcDbBlockEnd
  0
BLOCK
  5
2BDD
330
2BD3
100
AcDbEntity
  8
0
100
AcDbBlockBegin
  2
*D3
 70
     1
 10
0.0
 20
0.0
 30
0.0
  3
*D3
  1

  0
LINE
  5
2D41
330
2BD3
100
AcDbEntity
  8
SUNPOU
100
AcDbLine
 10
405.6136584554671
 20
302.1527284822397
 30
0.0
 11
405.6136584554671
 21
271.8328520901654
 31
0.0
  0
LINE
  5
2D42
330
2BD3
100
AcDbEntity
  8
SUNPOU
100
AcDbLine
 10
654.613628455467
 20
302.1266284822395
 30
0.0
 11
654.613628455467
 21
271.8328520901654
 31
0.0
  0
LINE
  5
2D43
330
2BD3
100
AcDbEntity
  8
SUNPOU
100
AcDbLine
 10
412.6136584554672
 20
274.8328520901655
 30
0.0
 11
647.613628455467
 21
274.8328520901655
 31
0.0
  0
INSERT
  5
2D44
330
2BD3
100
AcDbEntity
  8
SUNPOU
100
AcDbBlockReference
  2
_OPEN
 10
405.6136584554671
 20
274.8328520901655
 30
0.0
 41
7.0
 42
7.0
 43
7.0
 50
180.0
  0
INSERT
  5
2D45
330
2BD3
100
AcDbEntity
  8
SUNPOU
100
AcDbBlockReference
  2
_OPEN
 10
654.613628455467
 20
274.8328520901655
 30
0.0
 41
7.0
 42
7.0
 43
7.0
  0
MTEXT
  5
2D46
330
2BD3
100
AcDbEntity
  8
SUNPOU
100
AcDbMText
 10
530.113643455467
 20
279.8328520901654
 30
0.0
 40
6.0
 41
0.0
 71
     5
 72
     5
  1
\A1;249
 73
     1
 44
1.0
1001
ACAD
1000
MTEXTBEGIN
1070
    73
1070
     1
1070
    44
1040
1.0
1070
    74
1070
     0
1000
MTEXTEND
  0
POINT
  5
2D47
330
2BD3
100
AcDbEntity
  8
DEFPOINTS
 62
     0
100
AcDbPoint
 10
405.6136584554671
 20
308.1527284822398
 30
0.0
  0
POINT
  5
2D48
330
2BD3
100
AcDbEntity
  8
DEFPOINTS
 62
     0
100
AcDbPoint
 10
654.613628455467
 20
308.1266284822395
 30
0.0
  0
POINT
  5
2D49
330
2BD3
100
AcDbEntity
  8
DEFPOINTS
 62
     0
100
AcDbPoint
 10
654.613628455467
 20
274.8328520901655
 30
0.0
  0
ENDBLK
  5
2BDE
330
2BD3
100
AcDbEntity
  8
0
100
AcDbBlockEnd
  0
BLOCK
  5
2BE9
330
2BDF
100
AcDbEntity
  8
0
100
AcDbBlockBegin
  2
*D4
 70
     1
 10
0.0
 20
0.0
 30
0.0
  3
*D4
  1

  0
LINE
  5
2D92
330
2BDF
100
AcDbEntity
  8
SUNPOU
100
AcDbLine
 10
395.6136384554672
 20
486.0678154822399
 30
0.0
 11
395.6136384554672
 21
524.0217859001391
 31
0.0
  0
LINE
  5
2D93
330
2BDF
100
AcDbEntity
  8
SUNPOU
100
AcDbLine
 10
664.613648455467
 20
486.0939184822395
 30
0.0
 11
664.613648455467
 21
524.0217859001391
 31
0.0
  0
LINE
  5
2D94
330
2BDF
100
AcDbEntity
  8
SUNPOU
100
AcDbLine
 10
402.6136384554672
 20
521.0217859001391
 30
0.0
 11
657.613648455467
 21
521.0217859001391
 31
0.0
  0
INSERT
  5
2D95
330
2BDF
100
AcDbEntity
  8
SUNPOU
100
AcDbBlockReference
  2
_OPEN
 10
395.6136384554672
 20
521.0217859001391
 30
0.0
 41
7.0
 42
7.0
 43
7.0
 50
180.0
  0
INSERT
  5
2D96
330
2BDF
100
AcDbEntity
  8
SUNPOU
100
AcDbBlockReference
  2
_OPEN
 10
664.613648455467
 20
521.0217859001391
 30
0.0
 41
7.0
 42
7.0
 43
7.0
  0
MTEXT
  5
2D97
330
2BDF
100
AcDbEntity
  8
SUNPOU
100
AcDbMText
 10
530.113643455467
 20
526.021785900139
 30
0.0
 40
6.0
 41
0.0
 71
     5
 72
     5
  1
\A1;269
 73
     1
 44
1.0
1001
ACAD
1000
MTEXTBEGIN
1070
    73
1070
     1
1070
    44
1040
1.0
1070
    74
1070
     0
1000
MTEXTEND
  0
POINT
  5
2D98
330
2BDF
100
AcDbEntity
  8
DEFPOINTS
 62
     0
100
AcDbPoint
 10
395.6136384554672
 20
480.0678154822398
 30
0.0
  0
POINT
  5
2D99
330
2BDF
100
AcDbEntity
  8
DEFPOINTS
 62
     0
100
AcDbPoint
 10
664.613648455467
 20
480.0939184822396
 30
0.0
  0
POINT
  5
2D9A
330
2BDF
100
AcDbEntity
  8
DEFPOINTS
 62
     0
100
AcDbPoint
 10
664.613648455467
 20
521.0217859001391
 30
0.0
  0
ENDBLK
  5
2BEA
330
2BDF
100
AcDbEntity
  8
0
100
AcDbBlockEnd
  0
BLOCK
  5
2BF5
330
2BEB
100
AcDbEntity
  8
0
100
AcDbBlockBegin
  2
*D5
 70
     1
 10
0.0
 20
0.0
 30
0.0
  3
*D5
  1

  0
LINE
  5
2D5C
330
2BEB
100
AcDbEntity
  8
SUNPOU
100
AcDbLine
 10
108.2412080764335
 20
96.3949251201172
 30
0.0
 11
108.2412080764335
 21
68.00149000798706
 31
0.0
  0
LINE
  5
2D5D
330
2BEB
100
AcDbEntity
  8
SUNPOU
100
AcDbLine
 10
240.7963850304065
 20
96.3949251201172
 30
0.0
 11
240.7963850304065
 21
68.00149000798706
 31
0.0
  0
LINE
  5
2D5E
330
2BEB
100
AcDbEntity
  8
SUNPOU
100
AcDbLine
 10
115.2412080764335
 20
71.00149000798706
 30
0.0
 11
233.7963850304065
 21
71.00149000798706
 31
0.0
  0
INSERT
  5
2D5F
330
2BEB
100
AcDbEntity
  8
SUNPOU
100
AcDbBlockReference
  2
_OPEN
 10
108.2412080764335
 20
71.00149000798706
 30
0.0
 41
7.0
 42
7.0
 43
7.0
 50
180.0
  0
INSERT
  5
2D60
330
2BEB
100
AcDbEntity
  8
SUNPOU
100
AcDbBlockReference
  2
_OPEN
 10
240.7963850304065
 20
71.00149000798706
 30
0.0
 41
7.0
 42
7.0
 43
7.0
  0
MTEXT
  5
2D61
330
2BEB
100
AcDbEntity
  8
SUNPOU
100
AcDbMText
 10
174.51879655342
 20
76.00149000798706
 30
0.0
 40
6.0
 41
0.0
 71
     5
 72
     5
  1
\A1;133
 73
     1
 44
1.0
1001
ACAD
1000
MTEXTBEGIN
1070
    73
1070
     1
1070
    44
1040
1.0
1070
    74
1070
     0
1000
MTEXTEND
  0
POINT
  5
2D62
330
2BEB
100
AcDbEntity
  8
DEFPOINTS
 62
     0
100
AcDbPoint
 10
108.2412080764335
 20
102.3949251201171
 30
0.0
  0
POINT
  5
2D63
330
2BEB
100
AcDbEntity
  8
DEFPOINTS
 62
     0
100
AcDbPoint
 10
240.7963850304065
 20
102.3949251201171
 30
0.0
  0
POINT
  5
2D64
330
2BEB
100
AcDbEntity
  8
DEFPOINTS
 62
     0
100
AcDbPoint
 10
240.7963850304065
 20
71.00149000798706
 30
0.0
  0
ENDBLK
  5
2BF6
330
2BEB
100
AcDbEntity
  8
0
100
AcDbBlockEnd
  0
BLOCK
  5
2C01
330
2BF7
100
AcDbEntity
  8
0
100
AcDbBlockBegin
  2
*D6
 70
     1
 10
0.0
 20
0.0
 30
0.0
  3
*D6
  1

  0
LINE
  5
2D4A
330
2BF7
100
AcDbEntity
  8
SUNPOU
100
AcDbLine
 10
85.04274071450664
 20
207.687406694259
 30
0.0
 11
85.04274071450664
 21
267.8145707570214
 31
0.0
  0
LINE
  5
2D4B
330
2BF7
100
AcDbEntity
  8
SUNPOU
100
AcDbLine
 10
264.0155167145067
 20
207.687406694259
 30
0.0
 11
264.0155167145067
 21
267.8145707570214
 31
0.0
  0
LINE
  5
2D4C
330
2BF7
100
AcDbEntity
  8
SUNPOU
100
AcDbLine
 10
92.04274071450663
 20
264.8145707570214
 30
0.0
 11
257.0155167145066
 21
264.8145707570214
 31
0.0
  0
INSERT
  5
2D4D
330
2BF7
100
AcDbEntity
  8
SUNPOU
100
AcDbBlockReference
  2
_OPEN
 10
85.04274071450664
 20
264.8145707570214
 30
0.0
 41
7.0
 42
7.0
 43
7.0
 50
180.0
  0
INSERT
  5
2D4E
330
2BF7
100
AcDbEntity
  8
SUNPOU
100
AcDbBlockReference
  2
_OPEN
 10
264.0155167145067
 20
264.8145707570214
 30
0.0
 41
7.0
 42
7.0
 43
7.0
  0
MTEXT
  5
2D4F
330
2BF7
100
AcDbEntity
  8
SUNPOU
100
AcDbMText
 10
174.5291287145066
 20
269.8145707570214
 30
0.0
 40
6.0
 41
0.0
 71
     5
 72
     5
  1
\A1;179
 73
     1
 44
1.0
1001
ACAD
1000
MTEXTBEGIN
1070
    73
1070
     1
1070
    44
1040
1.0
1070
    74
1070
     0
1000
MTEXTEND
  0
POINT
  5
2D50
330
2BF7
100
AcDbEntity
  8
DEFPOINTS
 62
     0
100
AcDbPoint
 10
85.04274071450664
 20
201.687406694259
 30
0.0
  0
POINT
  5
2D51
330
2BF7
100
AcDbEntity
  8
DEFPOINTS
 62
     0
100
AcDbPoint
 10
264.0155167145067
 20
201.687406694259
 30
0.0
  0
POINT
  5
2D52
330
2BF7
100
AcDbEntity
  8
DEFPOINTS
 62
     0
100
AcDbPoint
 10
264.0155167145067
 20
264.8145707570214
 30
0.0
  0
ENDBLK
  5
2C02
330
2BF7
100
AcDbEntity
  8
0
100
AcDbBlockEnd
  0
BLOCK
  5
2C0D
330
2C03
100
AcDbEntity
  8
0
100
AcDbBlockBegin
  2
*D7
 70
     1
 10
0.0
 20
0.0
 30
0.0
  3
*D7
  1

  0
LINE
  5
2D53
330
2C03
100
AcDbEntity
  8
SUNPOU
100
AcDbLine
 10
269.1398210040897
 20
203.1009861201171
 30
0.0
 11
316.8078156677739
 21
203.1009861201171
 31
0.0
  0
LINE
  5
2D54
330
2C03
100
AcDbEntity
  8
SUNPOU
100
AcDbLine
 10
239.8057310040897
 20
102.3949251201171
 30
0.0
 11
316.8078156677738
 21
102.3949251201171
 31
0.0
  0
LINE
  5
2D55
330
2C03
100
AcDbEntity
  8
SUNPOU
100
AcDbLine
 10
313.8078156677739
 20
196.1009861201171
 30
0.0
 11
313.8078156677738
 21
109.3949251201171
 31
0.0
  0
INSERT
  5
2D56
330
2C03
100
AcDbEntity
  8
SUNPOU
100
AcDbBlockReference
  2
_OPEN
 10
313.8078156677739
 20
203.1009861201171
 30
0.0
 41
7.0
 42
7.0
 43
7.0
 50
90.0
  0
INSERT
  5
2D57
330
2C03
100
AcDbEntity
  8
SUNPOU
100
AcDbBlockReference
  2
_OPEN
 10
313.8078156677738
 20
102.3949251201171
 30
0.0
 41
7.0
 42
7.0
 43
7.0
 50
270.0
  0
MTEXT
  5
2D58
330
2C03
100
AcDbEntity
  8
SUNPOU
100
AcDbMText
 10
308.8078156677738
 20
152.7479556201171
 30
0.0
 40
6.0
 41
0.0
 71
     5
 72
     5
  1
\A1;101
 11
0.0000000000000001
 21
1.0
 31
0.0
 73
     1
 44
1.0
1001
ACAD
1000
MTEXTBEGIN
1070
    73
1070
     1
1070
    44
1040
1.0
1070
    74
1070
     0
1000
MTEXTEND
  0
POINT
  5
2D59
330
2C03
100
AcDbEntity
  8
DEFPOINTS
 62
     0
100
AcDbPoint
 10
263.1398210040897
 20
203.1009861201171
 30
0.0
  0
POINT
  5
2D5A
330
2C03
100
AcDbEntity
  8
DEFPOINTS
 62
     0
100
AcDbPoint
 10
233.8057310040897
 20
102.3949251201171
 30
0.0
  0
POINT
  5
2D5B
330
2C03
100
AcDbEntity
  8
DEFPOINTS
 62
     0
100
AcDbPoint
 10
313.8078156677738
 20
102.3949251201171
 30
0.0
  0
ENDBLK
  5
2C0E
330
2C03
100
AcDbEntity
  8
0
100
AcDbBlockEnd
  0
BLOCK
  5
2C19
330
2C0F
100
AcDbEntity
  8
0
100
AcDbBlockBegin
  2
*D8
 70
     1
 10
0.0
 20
0.0
 30
0.0
  3
*D8
  1

  0
LINE
  5
2D65
330
2C0F
100
AcDbEntity
  8
SUNPOU
100
AcDbLine
 10
268.507225116233
 20
202.9949241201172
 30
0.0
 11
301.8163104263158
 21
202.9949241201172
 31
0.0
  0
LINE
  5
2D66
330
2C0F
100
AcDbEntity
  8
SUNPOU
100
AcDbLine
 10
267.9791810040896
 20
169.9009881201171
 30
0.0
 11
301.8163104263158
 21
169.9009881201171
 31
0.0
  0
LINE
  5
2D67
330
2C0F
100
AcDbEntity
  8
SUNPOU
100
AcDbLine
 10
298.8163104263158
 20
195.9949241201171
 30
0.0
 11
298.8163104263158
 21
176.9009881201171
 31
0.0
  0
INSERT
  5
2D68
330
2C0F
100
AcDbEntity
  8
SUNPOU
100
AcDbBlockReference
  2
_OPEN
 10
298.8163104263158
 20
202.9949241201172
 30
0.0
 41
7.0
 42
7.0
 43
7.0
 50
90.0
  0
INSERT
  5
2D69
330
2C0F
100
AcDbEntity
  8
SUNPOU
100
AcDbBlockReference
  2
_OPEN
 10
298.8163104263158
 20
169.9009881201171
 30
0.0
 41
7.0
 42
7.0
 43
7.0
 50
270.0
  0
MTEXT
  5
2D6A
330
2C0F
100
AcDbEntity
  8
SUNPOU
100
AcDbMText
 10
293.8163104263157
 20
186.4479561201171
 30
0.0
 40
6.0
 41
0.0
 71
     5
 72
     5
  1
\A1;33
 11
0.0000000000000001
 21
1.0
 31
0.0
 73
     1
 44
1.0
1001
ACAD
1000
MTEXTBEGIN
1070
    73
1070
     1
1070
    44
1040
1.0
1070
    74
1070
     0
1000
MTEXTEND
  0
POINT
  5
2D6B
330
2C0F
100
AcDbEntity
  8
DEFPOINTS
 62
     0
100
AcDbPoint
 10
262.507225116233
 20
202.9949241201172
 30
0.0
  0
POINT
  5
2D6C
330
2C0F
100
AcDbEntity
  8
DEFPOINTS
 62
     0
100
AcDbPoint
 10
261.9791810040897
 20
169.9009881201171
 30
0.0
  0
POINT
  5
2D6D
330
2C0F
100
AcDbEntity
  8
DEFPOINTS
 62
     0
100
AcDbPoint
 10
298.8163104263158
 20
169.9009881201171
 30
0.0
  0
ENDBLK
  5
2C1A
330
2C0F
100
AcDbEntity
  8
0
100
AcDbBlockEnd
  0
BLOCK
  5
2C25
330
2C1B
100
AcDbEntity
  8
0
100
AcDbBlockBegin
  2
*D9
 70
     1
 10
0.0
 20
0.0
 30
0.0
  3
*D9
  1

  0
LINE
  5
2D89
330
2C1B
100
AcDbEntity
  8
SUNPOU
100
AcDbLine
 10
654.613628455467
 20
302.1266284822395
 30
0.0
 11
654.613628455467
 21
271.8328520901654
 31
0.0
  0
LINE
  5
2D8A
330
2C1B
100
AcDbEntity
  8
SUNPOU
100
AcDbLine
 10
696.6136310040899
 20
302.1266134822397
 30
0.0
 11
696.6136310040899
 21
271.8328520901654
 31
0.0
  0
LINE
  5
2D8B
330
2C1B
100
AcDbEntity
  8
SUNPOU
100
AcDbLine
 10
661.613628455467
 20
274.8328520901655
 30
0.0
 11
689.6136310040899
 21
274.8328520901655
 31
0.0
  0
INSERT
  5
2D8C
330
2C1B
100
AcDbEntity
  8
SUNPOU
100
AcDbBlockReference
  2
_OPEN
 10
654.613628455467
 20
274.8328520901655
 30
0.0
 41
7.0
 42
7.0
 43
7.0
 50
180.0
  0
INSERT
  5
2D8D
330
2C1B
100
AcDbEntity
  8
SUNPOU
100
AcDbBlockReference
  2
_OPEN
 10
696.6136310040899
 20
274.8328520901655
 30
0.0
 41
7.0
 42
7.0
 43
7.0
  0
MTEXT
  5
2D8E
330
2C1B
100
AcDbEntity
  8
SUNPOU
100
AcDbMText
 10
675.6136297297785
 20
279.8328520901654
 30
0.0
 40
6.0
 41
0.0
 71
     5
 72
     5
  1
\A1;42
 73
     1
 44
1.0
1001
ACAD
1000
MTEXTBEGIN
1070
    73
1070
     1
1070
    44
1040
1.0
1070
    74
1070
     0
1000
MTEXTEND
  0
POINT
  5
2D8F
330
2C1B
100
AcDbEntity
  8
DEFPOINTS
 62
     0
100
AcDbPoint
 10
654.613628455467
 20
308.1266284822395
 30
0.0
  0
POINT
  5
2D90
330
2C1B
100
AcDbEntity
  8
DEFPOINTS
 62
     0
100
AcDbPoint
 10
696.6136310040899
 20
308.1266134822397
 30
0.0
  0
POINT
  5
2D91
330
2C1B
100
AcDbEntity
  8
DEFPOINTS
 62
     0
100
AcDbPoint
 10
696.6136310040899
 20
274.8328520901655
 30
0.0
  0
ENDBLK
  5
2C26
330
2C1B
100
AcDbEntity
  8
0
100
AcDbBlockEnd
  0
BLOCK
  5
2C31
330
2C27
100
AcDbEntity
  8
0
100
AcDbBlockBegin
  2
*D10
 70
     1
 10
0.0
 20
0.0
 30
0.0
  3
*D10
  1

  0
LINE
  5
2D77
330
2C27
100
AcDbEntity
  8
SUNPOU
100
AcDbLine
 10
628.6136310040895
 20
208.9949241201172
 30
0.0
 11
628.6136310040895
 21
241.6676960290428
 31
0.0
  0
LINE
  5
2D78
330
2C27
100
AcDbEntity
  8
SUNPOU
100
AcDbLine
 10
696.6136510040898
 20
208.9949241201171
 30
0.0
 11
696.6136510040898
 21
241.6676960290428
 31
0.0
  0
LINE
  5
2D79
330
2C27
100
AcDbEntity
  8
SUNPOU
100
AcDbLine
 10
635.6136310040895
 20
238.6676960290428
 30
0.0
 11
689.6136510040898
 21
238.6676960290428
 31
0.0
  0
INSERT
  5
2D7A
330
2C27
100
AcDbEntity
  8
SUNPOU
100
AcDbBlockReference
  2
_OPEN
 10
628.6136310040895
 20
238.6676960290428
 30
0.0
 41
7.0
 42
7.0
 43
7.0
 50
180.0
  0
INSERT
  5
2D7B
330
2C27
100
AcDbEntity
  8
SUNPOU
100
AcDbBlockReference
  2
_OPEN
 10
696.6136510040898
 20
238.6676960290428
 30
0.0
 41
7.0
 42
7.0
 43
7.0
  0
MTEXT
  5
2D7C
330
2C27
100
AcDbEntity
  8
SUNPOU
100
AcDbMText
 10
662.6136410040897
 20
243.6676960290428
 30
0.0
 40
6.0
 41
0.0
 71
     5
 72
     5
  1
\A1;68
 73
     1
 44
1.0
1001
ACAD
1000
MTEXTBEGIN
1070
    73
1070
     1
1070
    44
1040
1.0
1070
    74
1070
     0
1000
MTEXTEND
  0
POINT
  5
2D7D
330
2C27
100
AcDbEntity
  8
DEFPOINTS
 62
     0
100
AcDbPoint
 10
628.6136310040895
 20
202.9949241201172
 30
0.0
  0
POINT
  5
2D7E
330
2C27
100
AcDbEntity
  8
DEFPOINTS
 62
     0
100
AcDbPoint
 10
696.6136510040898
 20
202.9949241201172
 30
0.0
  0
POINT
  5
2D7F
330
2C27
100
AcDbEntity
  8
DEFPOINTS
 62
     0
100
AcDbPoint
 10
696.6136510040898
 20
238.6676960290428
 30
0.0
  0
ENDBLK
  5
2C32
330
2C27
100
AcDbEntity
  8
0
100
AcDbBlockEnd
  0
BLOCK
  5
2C3D
330
2C33
100
AcDbEntity
  8
0
100
AcDbBlockBegin
  2
*D11
 70
     1
 10
0.0
 20
0.0
 30
0.0
  3
*D11
  1

  0
LINE
  5
2D6E
330
2C33
100
AcDbEntity
  8
SUNPOU
100
AcDbLine
 10
654.6136310040894
 20
208.9949241201171
 30
0.0
 11
654.6136310040894
 21
225.8503085380139
 31
0.0
  0
LINE
  5
2D6F
330
2C33
100
AcDbEntity
  8
SUNPOU
100
AcDbLine
 10
696.6136510040898
 20
208.9949241201171
 30
0.0
 11
696.6136510040898
 21
225.8503085380139
 31
0.0
  0
LINE
  5
2D70
330
2C33
100
AcDbEntity
  8
SUNPOU
100
AcDbLine
 10
661.6136310040895
 20
222.8503085380139
 30
0.0
 11
689.6136510040898
 21
222.8503085380139
 31
0.0
  0
INSERT
  5
2D71
330
2C33
100
AcDbEntity
  8
SUNPOU
100
AcDbBlockReference
  2
_OPEN
 10
654.6136310040894
 20
222.8503085380139
 30
0.0
 41
7.0
 42
7.0
 43
7.0
 50
180.0
  0
INSERT
  5
2D72
330
2C33
100
AcDbEntity
  8
SUNPOU
100
AcDbBlockReference
  2
_OPEN
 10
696.6136510040898
 20
222.8503085380139
 30
0.0
 41
7.0
 42
7.0
 43
7.0
  0
MTEXT
  5
2D73
330
2C33
100
AcDbEntity
  8
SUNPOU
100
AcDbMText
 10
675.6136410040896
 20
227.8503085380139
 30
0.0
 40
6.0
 41
0.0
 71
     5
 72
     5
  1
\A1;42
 73
     1
 44
1.0
1001
ACAD
1000
MTEXTBEGIN
1070
    73
1070
     1
1070
    44
1040
1.0
1070
    74
1070
     0
1000
MTEXTEND
  0
POINT
  5
2D74
330
2C33
100
AcDbEntity
  8
DEFPOINTS
 62
     0
100
AcDbPoint
 10
654.6136310040894
 20
202.9949241201172
 30
0.0
  0
POINT
  5
2D75
330
2C33
100
AcDbEntity
  8
DEFPOINTS
 62
     0
100
AcDbPoint
 10
696.6136510040898
 20
202.9949241201172
 30
0.0
  0
POINT
  5
2D76
330
2C33
100
AcDbEntity
  8
DEFPOINTS
 62
     0
100
AcDbPoint
 10
696.6136510040898
 20
222.8503085380139
 30
0.0
  0
ENDBLK
  5
2C3E
330
2C33
100
AcDbEntity
  8
0
100
AcDbBlockEnd
  0
BLOCK
  5
2C49
330
2C3F
100
AcDbEntity
  8
0
100
AcDbBlockBegin
  2
*D12
 70
     1
 10
0.0
 20
0.0
 30
0.0
  3
*D12
  1

  0
LINE
  5
2D80
330
2C3F
100
AcDbEntity
  8
SUNPOU
100
AcDbLine
 10
628.6136310040895
 20
208.9949241201172
 30
0.0
 11
628.6136310040895
 21
225.8503085380139
 31
0.0
  0
LINE
  5
2D81
330
2C3F
100
AcDbEntity
  8
SUNPOU
100
AcDbLine
 10
654.6136310040894
 20
208.9949241201171
 30
0.0
 11
654.6136310040894
 21
225.8503085380139
 31
0.0
  0
LINE
  5
2D82
330
2C3F
100
AcDbEntity
  8
SUNPOU
100
AcDbLine
 10
635.6136310040895
 20
222.8503085380139
 30
0.0
 11
647.6136310040894
 21
222.8503085380139
 31
0.0
  0
INSERT
  5
2D83
330
2C3F
100
AcDbEntity
  8
SUNPOU
100
AcDbBlockReference
  2
_OPEN
 10
628.6136310040895
 20
222.8503085380139
 30
0.0
 41
7.0
 42
7.0
 43
7.0
 50
180.0
  0
INSERT
  5
2D84
330
2C3F
100
AcDbEntity
  8
SUNPOU
100
AcDbBlockReference
  2
_OPEN
 10
654.6136310040894
 20
222.8503085380139
 30
0.0
 41
7.0
 42
7.0
 43
7.0
  0
MTEXT
  5
2D85
330
2C3F
100
AcDbEntity
  8
SUNPOU
100
AcDbMText
 10
641.6136310040895
 20
227.8503085380139
 30
0.0
 40
6.0
 41
0.0
 71
     5
 72
     5
  1
\A1;26
 73
     1
 44
1.0
1001
ACAD
1000
MTEXTBEGIN
1070
    73
1070
     1
1070
    44
1040
1.0
1070
    74
1070
     0
1000
MTEXTEND
  0
POINT
  5
2D86
330
2C3F
100
AcDbEntity
  8
DEFPOINTS
 62
     0
100
AcDbPoint
 10
628.6136310040895
 20
202.9949241201172
 30
0.0
  0
POINT
  5
2D87
330
2C3F
100
AcDbEntity
  8
DEFPOINTS
 62
     0
100
AcDbPoint
 10
654.6136310040894
 20
202.9949241201172
 30
0.0
  0
POINT
  5
2D88
330
2C3F
100
AcDbEntity
  8
DEFPOINTS
 62
     0
100
AcDbPoint
 10
654.6136310040894
 20
222.8503085380139
 30
0.0
  0
ENDBLK
  5
2C4A
330
2C3F
100
AcDbEntity
  8
0
100
AcDbBlockEnd
  0
BLOCK
  5
2C55
330
2C4B
100
AcDbEntity
  8
0
100
AcDbBlockBegin
  2
*D13
 70
     1
 10
0.0
 20
0.0
 30
0.0
  3
*D13
  1

  0
LINE
  5
2DA4
330
2C4B
100
AcDbEntity
  8
SUNPOU
100
AcDbLine
 10
621.1136484554669
 20
400.1102734822394
 30
0.0
 11
621.1136484554669
 21
418.9287778004393
 31
0.0
  0
LINE
  5
2DA5
330
2C4B
100
AcDbEntity
  8
SUNPOU
100
AcDbLine
 10
664.6136459068443
 20
400.1102734822392
 30
0.0
 11
664.6136459068443
 21
418.9287778004393
 31
0.0
  0
LINE
  5
2DA6
330
2C4B
100
AcDbEntity
  8
SUNPOU
100
AcDbLine
 10
628.113648455467
 20
415.9287778004393
 30
0.0
 11
657.6136459068443
 21
415.9287778004393
 31
0.0
  0
INSERT
  5
2DA7
330
2C4B
100
AcDbEntity
  8
SUNPOU
100
AcDbBlockReference
  2
_OPEN
 10
621.1136484554669
 20
415.9287778004393
 30
0.0
 41
7.0
 42
7.0
 43
7.0
 50
180.0
  0
INSERT
  5
2DA8
330
2C4B
100
AcDbEntity
  8
SUNPOU
100
AcDbBlockReference
  2
_OPEN
 10
664.6136459068443
 20
415.9287778004393
 30
0.0
 41
7.0
 42
7.0
 43
7.0
  0
MTEXT
  5
2DA9
330
2C4B
100
AcDbEntity
  8
SUNPOU
100
AcDbMText
 10
642.8636471811556
 20
420.9287778004393
 30
0.0
 40
6.0
 41
0.0
 71
     5
 72
     5
  1
\A1;\U+203B43
 73
     1
 44
1.0
1001
ACAD
1000
MTEXTBEGIN
1070
    73
1070
     1
1070
    44
1040
1.0
1070
    74
1070
     0
1000
MTEXTEND
  0
POINT
  5
2DAA
330
2C4B
100
AcDbEntity
  8
DEFPOINTS
 62
     0
100
AcDbPoint
 10
621.1136484554669
 20
394.1102734822393
 30
0.0
  0
POINT
  5
2DAB
330
2C4B
100
AcDbEntity
  8
DEFPOINTS
 62
     0
100
AcDbPoint
 10
664.6136459068443
 20
394.1102734822393
 30
0.0
  0
POINT
  5
2DAC
330
2C4B
100
AcDbEntity
  8
DEFPOINTS
 62
     0
100
AcDbPoint
 10
664.6136459068443
 20
415.9287778004393
 30
0.0
  0
ENDBLK
  5
2C56
330
2C4B
100
AcDbEntity
  8
0
100
AcDbBlockEnd
  0
ENDSEC
  0
SECTION
  2
ENTITIES
  0
LWPOLYLINE
  5
6C0
330
1A
100
AcDbEntity
  8
ZUWAKU
100
AcDbPolyline
 90
        4
 70
     1
 43
0.0
 10
10.85047808566059
 20
564.5825862828226
 10
10.85047808566059
 20
14.58258628282271
 10
806.8504780856606
 20
14.58258628282271
 10
806.8504780856606
 20
564.5825862828226
  0
LWPOLYLINE
  5
6C1
330
1A
100
AcDbEntity
  8
ZUWAKU
100
AcDbPolyline
 90
        4
 70
     1
 43
0.0
 10
10.45047808566073
 20
564.9825862828227
 10
10.45047808566073
 20
14.18258628282274
 10
807.2504780856606
 20
14.18258628282272
 10
807.2504780856606
 20
564.9825862828227
  0
LWPOLYLINE
  5
6C2
330
1A
100
AcDbEntity
  8
ZUWAKU
100
AcDbPolyline
 90
        4
 70
     1
 43
0.0
 10
10.05047808566086
 20
565.3825862828226
 10
10.05047808566086
 20
13.78258628282265
 10
807.6504780856607
 20
13.78258628282271
 10
807.6504780856607
 20
565.3825862828227
  0
LWPOLYLINE
  5
6C3
330
1A
100
AcDbEntity
  8
ZUWAKU
100
AcDbPolyline
 90
        4
 70
     1
 43
0.0
 10
10.65047808566077
 20
564.7825862828227
 10
10.65047808566077
 20
14.38258628282267
 10
807.0504780856609
 20
14.38258628282271
 10
807.0504780856609
 20
564.7825862828227
  0
LWPOLYLINE
  5
6C4
330
1A
100
AcDbEntity
  8
ZUWAKU
100
AcDbPolyline
 90
        4
 70
     1
 43
0.0
 10
10.25047808566068
 20
565.1825862828227
 10
10.25047808566068
 20
13.98258628282269
 10
807.4504780856605
 20
13.98258628282271
 10
807.450478085661
 20
565.1825862828227
  0
LINE
  5
6C5
330
1A
100
AcDbEntity
  8
ZUWAKU
100
AcDbLine
 10
10.05047808566086
 20
43.78258628282265
 30
0.0
 11
807.4504780856605
 21
43.78258628282265
 31
0.0
  0
LINE
  5
6C6
330
1A
100
AcDbEntity
  8
ZUWAKU
100
AcDbLine
 10
10.05047808566086
 20
43.98258628282265
 30
0.0
 11
807.4504780856605
 21
43.98258628282265
 31
0.0
  0
LINE
  5
6C7
330
1A
100
AcDbEntity
  8
ZUWAKU
100
AcDbLine
 10
10.05047808566086
 20
44.18258628282266
 30
0.0
 11
807.4504780856605
 21
44.18258628282266
 31
0.0
  0
LINE
  5
6C8
330
1A
100
AcDbEntity
  8
ZUWAKU
100
AcDbLine
 10
10.05047808566086
 20
44.38258628282265
 30
0.0
 11
807.4504780856605
 21
44.38258628282265
 31
0.0
  0
LINE
  5
6C9
330
1A
100
AcDbEntity
  8
ZUWAKU
100
AcDbLine
 10
10.05047808566086
 20
44.58258628282266
 30
0.0
 11
807.4504780856605
 21
44.58258628282266
 31
0.0
  0
LINE
  5
6CA
330
1A
100
AcDbEntity
  8
ZUWAKU
100
AcDbLine
 10
218.6970793757286
 20
29.18258628282268
 30
0.0
 11
457.474842056652
 21
29.18258628282268
 31
0.0
  0
LINE
  5
6CB
330
1A
100
AcDbEntity
  8
ZUWAKU
100
AcDbLine
 10
218.6970793757286
 20
29.38258628282268
 30
0.0
 11
457.474842056652
 21
29.38258628282268
 31
0.0
  0
LINE
  5
6CC
330
1A
100
AcDbEntity
  8
ZUWAKU
100
AcDbLine
 10
218.6970793757286
 20
28.98258628282269
 30
0.0
 11
457.474842056652
 21
28.98258628282268
 31
0.0
  0
LINE
  5
6D2
330
1A
100
AcDbEntity
  8
ZUWAKU
100
AcDbLine
 10
22.57284175945824
 20
29.44753577648383
 30
0.0
 11
25.48263973410303
 21
26.53773780183917
 31
0.0
  0
LINE
  5
6D3
330
1A
100
AcDbEntity
  8
ZUWAKU
100
AcDbLine
 10
27.46253872142551
 20
28.51763678916148
 30
0.0
 11
24.55274074678072
 21
31.42743476380615
 31
0.0
  0
ARC
  5
6D4
330
1A
100
AcDbEntity
  8
ZUWAKU
100
AcDbCircle
 10
24.66769024044197
 20
33.70758628282265
 30
0.0
 40
0.525
100
AcDbArc
 50
90.0
 51
180.0
  0
LINE
  5
6D5
330
1A
100
AcDbEntity
  8
ZUWAKU
100
AcDbLine
 10
24.14269024044187
 20
37.03258628282265
 30
0.0
 11
27.64269024044188
 21
37.03258628282265
 31
0.0
  0
LINE
  5
6D6
330
1A
100
AcDbEntity
  8
ZUWAKU
100
AcDbLine
 10
22.39269024044188
 20
23.73258628282265
 30
0.0
 11
25.36769024044179
 21
23.73258628282265
 31
0.0
  0
LINE
  5
6D7
330
1A
100
AcDbEntity
  8
ZUWAKU
100
AcDbLine
 10
22.39269024044188
 20
20.93258628282265
 30
0.0
 11
25.89269024044188
 21
20.93258628282265
 31
0.0
  0
INSERT
  5
6D8
330
1A
100
AcDbEntity
  8
ZUWAKU
  6
Continuous
100
AcDbBlockReference
  2
*X1
 10
12.342212154781
 20
7.675000000000004
 30
0.0
1001
ACAD
1000
HATCH
1002
{
1070
    19
1000
ANSI37
1040
0.2
1040
0.0
1000
R14_HATCH_DATA
1000
4E4
1011
13.34221215478101
1021
7.675000000000004
1031
0.0
1011
12.342212154781
1021
8.675000000000004
1031
0.0
1011
12.342212154781
1021
7.675000000000004
1031
1.0
1040
0.0
1010
0.0
1020
0.0
1030
1.0
1000
ANSI37
1070
     0
1070
     0
1071
        8
1071
        7
1070
     1
1070
     1
1071
       24
1040
12.2105285919996
1040
23.75243476380622
1040
-0.1989123673796348
1040
11.80047808566087
1040
24.74238425746728
1040
0.0
1040
11.80047808566087
1040
26.03258628282265
1040
-0.4142135623730912
1040
12.32547808566084
1040
26.55758628282264
1040
0.0
1040
15.30047808566075
1040
26.55758628282264
1040
0.4142135623731546
1040
15.82547808566084
1040
27.08258628282264
1040
0.0
1040
15.82547808566084
1040
28.83258628282265
1040
0.4142135623731586
1040
15.30047808566075
1040
29.35758628282265
1040
0.0
1040
11.80047808566087
1040
29.35758628282265
1040
0.4142135623730928
1040
9.000478085660915
1040
26.55758628282267
1040
0.0
1040
9.000478085660915
1040
24.7423842574674
1040
0.1989123673796619
1040
10.23062960467734
1040
21.7725357764838
1040
0.0
1040
13.14042757932202
1040
18.86273780183914
1040
-0.1989123673796613
1040
13.55047808566087
1040
17.87278830817795
1040
0.0
1040
13.55047808566087
1040
16.58258628282264
1040
-0.4142135623730911
1040
13.02547808566089
1040
16.05758628282264
1040
0.0
1040
10.05047808566098
1040
16.05758628282264
1040
0.4142135623731526
1040
9.525478085660893
1040
15.53258628282265
1040
0.0
1040
9.525478085660893
1040
13.78258628282263
1040
0.4142135623731526
1040
10.05047808566098
1040
13.25758628282265
1040
0.0
1040
13.55047808566087
1040
13.25758628282265
1040
0.4142135623731044
1040
16.35047808566094
1040
16.05758628282262
1040
0.0
1040
16.35047808566094
1040
17.87278830817789
1040
0.1989123673796604
1040
15.12032656664439
1040
20.84263678916144
1040
0.0
1071
        0
1071
        7
1070
     1
1070
     1
1071
       16
1040
21.25047808566091
1040
25.15758628282265
1040
-0.4142135623730935
1040
22.65047808566089
1040
26.55758628282264
1040
0.0
1040
24.57547808566085
1040
26.55758628282264
1040
0.4142135623731546
1040
25.10047808566094
1040
27.08258628282264
1040
0.0
1040
25.10047808566094
1040
28.83258628282265
1040
0.4142135623730951
1040
24.57547808566096
1040
29.35758628282265
1040
0.0
1040
22.65047808566078
1040
29.35758628282261
1040
0.4142135623730892
1040
18.45047808566084
1040
25.15758628282258
1040
0.0
1040
18.45047808566084
1040
17.45758628282267
1040
0.4142135623730969
1040
22.65047808566089
1040
13.25758628282265
1040
0.0
1040
24.57547808566085
1040
13.25758628282265
1040
0.4142135623731526
1040
25.10047808566094
1040
13.78258628282263
1040
0.0
1040
25.10047808566094
1040
15.53258628282265
1040
0.4142135623730891
1040
24.57547808566096
1040
16.05758628282264
1040
0.0
1040
22.65047808566089
1040
16.05758628282264
1040
-0.4142135623730928
1040
21.25047808566091
1040
17.45758628282263
1040
0.0
1071
        0
1071
        7
1070
     1
1070
     1
1071
        2
1040
21.95047808566084
1040
21.30758628282265
1040
1.0
1040
25.45047808566085
1040
21.30758628282265
1040
1.0
1071
        0
1071
        7
1070
     1
1070
     1
1071
       26
1040
35.02312456783886
1040
25.31263347638607
1040
0.0
1040
36.08476420097668
1040
28.67449231465566
1040
0.5069206636600134
1040
35.58413330178132
1040
29.35758628282265
1040
0.0
1040
33.88524392217209
1040
29.35758628282265
1040
0.3272098845218764
1040
33.38461302297673
1040
28.99068025098962
1040
0.0
1040
31.51634314834495
1040
23.07449231465573
1040
-0.3272098845219541
1040
31.01571224914948
1040
22.70758628282264
1040
0.0
1040
30.87547808566103
1040
22.70758628282264
1040
-0.4142135623731526
1040
30.35047808566094
1040
23.23258628282263
1040
0.0
1040
30.35047808566094
1040
28.83258628282265
1040
0.4142135623730951
1040
29.82547808566096
1040
29.35758628282265
1040
0.0
1040
28.07547808566084
1040
29.35758628282265
1040
0.4142135623730871
1040
27.55047808566087
1040
28.83258628282266
1040
0.0
1040
27.55047808566087
1040
13.78258628282263
1040
0.4142135623730891
1040
28.07547808566084
1040
13.25758628282265
1040
0.0
1040
29.82547808566085
1040
13.25758628282265
1040
0.4142135623731526
1040
30.35047808566094
1040
13.78258628282263
1040
0.0
1040
30.35047808566094
1040
19.38258628282266
1040
-0.4142135623731526
1040
30.87547808566103
1040
19.90758628282264
1040
0.0
1040
31.0157122491496
1040
19.90758628282264
1040
-0.3272098845218915
1040
31.51634314834495
1040
19.54068025098957
1040
0.0
1040
33.38461302297673
1040
13.62449231465572
1040
0.3272098845218902
1040
33.88524392217209
1040
13.25758628282265
1040
0.0
1040
35.58413330178132
1040
13.25758628282265
1040
0.5069206636600335
1040
36.08476420097668
1040
13.94068025098965
1040
0.0
1040
33.75837282250301
1040
21.30758628282279
1040
0.0
1071
        0
1071
        7
1070
     1
1070
     1
1071
        8
1040
41.20047808566084
1040
28.83258628282266
1040
0.4142135623731546
1040
40.67547808566075
1040
29.35758628282265
1040
0.0
1040
38.92547808566098
1040
29.35758628282265
1040
0.4142135623731507
1040
38.40047808566089
1040
28.83258628282266
1040
0.0
1040
38.40047808566089
1040
13.78258628282263
1040
0.4142135623731526
1040
38.92547808566098
1040
13.25758628282265
1040
0.0
1040
40.67547808566075
1040
13.25758628282265
1040
0.4142135623731526
1040
41.20047808566084
1040
13.78258628282263
1040
0.0
1071
        0
1071
        7
1070
     1
1070
     1
1071
       24
1040
46.10047808566093
1040
26.03258628282265
1040
-0.4142135623731546
1040
46.62547808566102
1040
26.55758628282264
1040
0.0
1040
49.60047808566094
1040
26.55758628282264
1040
0.4142135623730911
1040
50.12547808566091
1040
27.08258628282264
1040
0.0
1040
50.12547808566091
1040
28.83258628282265
1040
0.4142135623730952
1040
49.60047808566094
1040
29.35758628282265
1040
0.0
1040
46.10047808566093
1040
29.35758628282265
1040
0.4142135623731048
1040
43.30047808566087
1040
26.55758628282267
1040
0.0
1040
43.30047808566087
1040
24.7423842574674
1040
0.1989123673796613
1040
44.53062960467741
1040
21.77253577648385
1040
0.0
1040
47.44042757932208
1040
18.86273780183918
1040
-0.1989123673796402
1040
47.85047808566093
1040
17.87278830817811
1040
0.0
1040
47.85047808566093
1040
16.58258628282264
1040
-0.4142135623730911
1040
47.32547808566096
1040
16.05758628282264
1040
0.0
1040
44.35047808566094
1040
16.05758628282264
1040
0.4142135623731526
1040
43.82547808566084
1040
15.53258628282265
1040
0.0
1040
43.82547808566084
1040
13.78258628282263
1040
0.4142135623730891
1040
44.35047808566082
1040
13.25758628282265
1040
0.0
1040
47.85047808566093
1040
13.25758628282265
1040
0.4142135623730925
1040
50.65047808566089
1040
16.05758628282262
1040
0.0
1040
50.65047808566089
1040
17.87278830817789
1040
0.1989123673796675
1040
49.42032656664435
1040
20.84263678916155
1040
0.0
1040
46.51052859199978
1040
23.75243476380607
1040
-0.1989123673796652
1040
46.10047808566093
1040
24.74238425746723
1040
0.0
1071
        0
1071
        7
1070
     1
1070
     1
1071
       16
1040
55.55047808566087
1040
28.83258628282264
1040
0.414213562373103
1040
55.02547808566089
1040
29.35758628282265
1040
0.0
1040
53.27547808566089
1040
29.35758628282265
1040
0.4142135623730871
1040
52.75047808566092
1040
28.83258628282266
1040
0.0
1040
52.75047808566092
1040
16.05758628282262
1040
0.4142135623730926
1040
55.55047808566087
1040
13.25758628282265
1040
0.0
1040
59.05047808566087
1040
13.25758628282265
1040
0.4142135623731044
1040
61.85047808566094
1040
16.05758628282262
1040
0.0
1040
61.85047808566094
1040
28.83258628282265
1040
0.4142135623730951
1040
61.32547808566096
1040
29.35758628282265
1040
0.0
1040
59.57547808566085
1040
29.35758628282265
1040
0.4142135623730871
1040
59.05047808566087
1040
28.83258628282266
1040
0.0
1040
59.05047808566087
1040
17.10758628282262
1040
-0.414213562373088
1040
58.00047808566091
1040
16.05758628282264
1040
0.0
1040
56.60047808566094
1040
16.05758628282264
1040
-0.4142135623731197
1040
55.55047808566087
1040
17.10758628282262
1040
0.0
1071
        0
1071
        7
1070
     1
1070
     1
1071
        8
1040
66.75047808566091
1040
28.83258628282266
1040
0.4142135623730871
1040
66.22547808566094
1040
29.35758628282265
1040
0.0
1040
64.47547808566094
1040
29.35758628282265
1040
0.4142135623731507
1040
63.95047808566085
1040
28.83258628282266
1040
0.0
1040
63.95047808566085
1040
13.78258628282263
1040
0.4142135623730891
1040
64.47547808566082
1040
13.25758628282265
1040
0.0
1040
66.22547808566094
1040
13.25758628282265
1040
0.4142135623730891
1040
66.75047808566091
1040
13.78258628282263
1040
0.0
1071
        0
1070
     0
1070
     1
1040
0.0
1040
0.2
1070
     0
1070
     2
1040
0.7853981633974483
1040
-903.2340384037992
1040
-7.092413717177286
1040
-0.4490128060534576
1040
0.4490128060534577
1070
     0
1040
2.356194490192344
1040
-903.2340384037992
1040
-7.092413717177286
1040
-0.4490128060534577
1040
-0.4490128060534576
1070
     0
1040
0.057451373970553
1071
        8
1040
13.78812089390305
1040
21.2747599287082
1040
0.0
1040
20.11278093731891
1040
24.95164846527365
1040
0.0
1040
22.8726338165394
1040
21.61946792889336
1040
0.0
1040
28.62232591251688
1040
22.30888392926414
1040
0.0
1040
39.54673794983648
1040
22.76849619680576
1040
0.0
1040
44.6064668260093
1040
25.52616259922985
1040
0.0
1040
54.2659519032801
1040
24.83674419791766
1040
0.0
1040
65.53534555050248
1040
25.29635646545927
1040
0.0
1002
}
  0
ARC
  5
6D9
330
1A
100
AcDbEntity
  8
ZUWAKU
100
AcDbCircle
 10
22.39269024044188
 20
23.20758628282265
 30
0.0
 40
0.525
100
AcDbArc
 50
90.0
 51
180.0
  0
ARC
  5
6DA
330
1A
100
AcDbEntity
  8
ZUWAKU
100
AcDbCircle
 10
22.39269024044188
 20
21.45758628282265
 30
0.0
 40
0.525
100
AcDbArc
 50
180.0
 51
270.0
  0
LINE
  5
6DB
330
1A
100
AcDbEntity
  8
ZUWAKU
100
AcDbLine
 10
21.86769024044179
 20
21.45758628282265
 30
0.0
 11
21.86769024044179
 21
23.20758628282265
 31
0.0
  0
ARC
  5
6DC
330
1A
100
AcDbEntity
  8
ZUWAKU
100
AcDbCircle
 10
25.54269024044197
 20
32.41738425746735
 30
0.0
 40
4.199999999999999
100
AcDbArc
 50
180.0
 51
224.9999999999996
  0
ARC
  5
6DD
330
1A
100
AcDbEntity
  8
ZUWAKU
100
AcDbCircle
 10
25.54269024044197
 20
32.41738425746735
 30
0.0
 40
1.399999999999999
100
AcDbArc
 50
180.0000000000016
 51
224.9999999999993
  0
ARC
  5
6DE
330
1A
100
AcDbEntity
  8
ZUWAKU
100
AcDbCircle
 10
24.14269024044187
 20
34.23258628282265
 30
0.0
 40
2.799999999999999
100
AcDbArc
 50
90.0
 51
180.0
  0
LINE
  5
6DF
330
1A
100
AcDbEntity
  8
ZUWAKU
100
AcDbLine
 10
21.34269024044192
 20
34.23258628282265
 30
0.0
 11
21.34269024044192
 21
32.41738425746731
 31
0.0
  0
LINE
  5
6E0
330
1A
100
AcDbEntity
  8
ZUWAKU
100
AcDbLine
 10
24.14269024044187
 20
33.70758628282265
 30
0.0
 11
24.14269024044187
 21
32.41738425746731
 31
0.0
  0
LINE
  5
6E1
330
1A
100
AcDbEntity
  8
ZUWAKU
100
AcDbLine
 10
89.17710763364903
 20
43.78258628282265
 30
0.0
 11
89.17710763364903
 21
14.58258628282271
 31
0.0
  0
LINE
  5
6E2
330
1A
100
AcDbEntity
  8
ZUWAKU
100
AcDbLine
 10
89.57710763364913
 20
43.78258628282265
 30
0.0
 11
89.57710763364913
 21
14.58258628282271
 31
0.0
  0
LINE
  5
6E3
330
1A
100
AcDbEntity
  8
ZUWAKU
100
AcDbLine
 10
89.37710763364885
 20
43.78258628282265
 30
0.0
 11
89.37710763364931
 21
14.58258628282271
 31
0.0
  0
LINE
  5
6E4
330
1A
100
AcDbEntity
  8
ZUWAKU
100
AcDbLine
 10
56.87284175945842
 20
29.44753577648383
 30
0.0
 11
59.78263973410321
 21
26.53773780183917
 31
0.0
  0
ARC
  5
6E5
330
1A
100
AcDbEntity
  8
ZUWAKU
100
AcDbCircle
 10
58.44269024044206
 20
34.23258628282265
 30
0.0
 40
2.799999999999999
100
AcDbArc
 50
90.0
 51
180.0
  0
LINE
  5
6E6
330
1A
100
AcDbEntity
  8
ZUWAKU
100
AcDbLine
 10
56.69269024044206
 20
20.93258628282265
 30
0.0
 11
60.19269024044206
 21
20.93258628282265
 31
0.0
  0
LINE
  5
6E7
330
1A
100
AcDbEntity
  8
ZUWAKU
100
AcDbLine
 10
56.69269024044206
 20
23.73258628282265
 30
0.0
 11
59.66769024044197
 21
23.73258628282265
 31
0.0
  0
LINE
  5
6E8
330
1A
100
AcDbEntity
  8
ZUWAKU
100
AcDbLine
 10
42.16769024044197
 20
37.03258628282265
 30
0.0
 11
40.41769024044197
 21
37.03258628282265
 31
0.0
  0
LINE
  5
6E9
330
1A
100
AcDbEntity
  8
ZUWAKU
100
AcDbLine
 10
40.41769024044197
 20
20.93258628282265
 30
0.0
 11
42.16769024044197
 21
20.93258628282265
 31
0.0
  0
LINE
  5
6EA
330
1A
100
AcDbEntity
  8
ZUWAKU
100
AcDbLine
 10
39.89269024044188
 20
36.50758628282265
 30
0.0
 11
39.89269024044188
 21
21.45758628282265
 31
0.0
  0
LINE
  5
6EB
330
1A
100
AcDbEntity
  8
ZUWAKU
100
AcDbLine
 10
30.79269024044197
 20
25.13258628282265
 30
0.0
 11
30.79269024044197
 21
32.83258628282261
 31
0.0
  0
LINE
  5
6EC
330
1A
100
AcDbEntity
  8
ZUWAKU
100
AcDbLine
 10
33.59269024044192
 20
32.83258628282265
 30
0.0
 11
33.59269024044192
 21
25.13258628282265
 31
0.0
  0
ARC
  5
6ED
330
1A
100
AcDbEntity
  8
ZUWAKU
100
AcDbCircle
 10
24.49269024044179
 20
25.54778830817795
 30
0.0
 40
4.199999999999999
100
AcDbArc
 50
0.0
 51
44.9999999999996
  0
CIRCLE
  5
6EE
330
1A
100
AcDbEntity
  8
ZUWAKU
100
AcDbCircle
 10
36.04269024044197
 20
28.98258628282265
 30
0.0
 40
1.75
  0
ARC
  5
6EF
330
1A
100
AcDbEntity
  8
ZUWAKU
100
AcDbCircle
 10
34.99269024044179
 20
25.13258628282265
 30
0.0
 40
4.199999999999999
100
AcDbArc
 50
180.0
 51
270.0
  0
LINE
  5
6F0
330
1A
100
AcDbEntity
  8
ZUWAKU
100
AcDbLine
 10
28.69269024044206
 20
23.73258628282265
 30
0.0
 11
28.69269024044206
 21
25.547788308178
 31
0.0
  0
ARC
  5
6F1
330
1A
100
AcDbEntity
  8
ZUWAKU
100
AcDbCircle
 10
25.36769024044179
 20
24.25758628282265
 30
0.0
 40
0.525
100
AcDbArc
 50
270.0
 51
0.0
  0
LINE
  5
6F2
330
1A
100
AcDbEntity
  8
ZUWAKU
100
AcDbLine
 10
25.89269024044188
 20
24.25758628282265
 30
0.0
 11
25.89269024044188
 21
25.547788308178
 31
0.0
  0
ARC
  5
6F3
330
1A
100
AcDbEntity
  8
ZUWAKU
100
AcDbCircle
 10
25.89269024044188
 20
23.73258628282265
 30
0.0
 40
2.799999999999999
100
AcDbArc
 50
270.0
 51
0.0
  0
ARC
  5
6F4
330
1A
100
AcDbEntity
  8
ZUWAKU
100
AcDbCircle
 10
24.49269024044179
 20
25.547788308178
 30
0.0
 40
1.399999999999999
100
AcDbArc
 50
0.0
 51
44.9999999999996
  0
ARC
  5
6F5
330
1A
100
AcDbEntity
  8
ZUWAKU
100
AcDbCircle
 10
40.41769024044197
 20
21.45758628282265
 30
0.0
 40
0.525
100
AcDbArc
 50
180.0
 51
270.0
  0
ARC
  5
6F6
330
1A
100
AcDbEntity
  8
ZUWAKU
100
AcDbCircle
 10
36.91769024044197
 20
23.20758628282265
 30
0.0
 40
0.525
100
AcDbArc
 50
0.0
 51
90.0
  0
ARC
  5
6F7
330
1A
100
AcDbEntity
  8
ZUWAKU
100
AcDbCircle
 10
36.91769024044197
 20
21.45758628282265
 30
0.0
 40
0.525
100
AcDbArc
 50
270.0
 51
0.0
  0
LINE
  5
6F8
330
1A
100
AcDbEntity
  8
ZUWAKU
100
AcDbLine
 10
37.44269024044206
 20
23.20758628282265
 30
0.0
 11
37.44269024044206
 21
21.45758628282265
 31
0.0
  0
ARC
  5
6F9
330
1A
100
AcDbEntity
  8
ZUWAKU
100
AcDbCircle
 10
34.99269024044179
 20
25.13258628282265
 30
0.0
 40
1.399999999999999
100
AcDbArc
 50
180.0
 51
270.0
  0
LINE
  5
6FA
330
1A
100
AcDbEntity
  8
ZUWAKU
100
AcDbLine
 10
36.91769024044197
 20
20.93258628282265
 30
0.0
 11
34.99269024044179
 21
20.93258628282265
 31
0.0
  0
LINE
  5
6FB
330
1A
100
AcDbEntity
  8
ZUWAKU
100
AcDbLine
 10
34.99269024044179
 20
23.73258628282265
 30
0.0
 11
36.91769024044197
 21
23.73258628282265
 31
0.0
  0
ARC
  5
6FC
330
1A
100
AcDbEntity
  8
ZUWAKU
100
AcDbCircle
 10
34.99269024044179
 20
32.83258628282261
 30
0.0
 40
4.199999999999999
100
AcDbArc
 50
90.0
 51
180.0
  0
LINE
  5
6FD
330
1A
100
AcDbEntity
  8
ZUWAKU
100
AcDbLine
 10
28.16769024044197
 20
36.50758628282265
 30
0.0
 11
28.16769024044197
 21
34.75758628282265
 31
0.0
  0
LINE
  5
6FE
330
1A
100
AcDbEntity
  8
ZUWAKU
100
AcDbLine
 10
27.64269024044188
 20
34.23258628282265
 30
0.0
 11
24.66769024044197
 21
34.23258628282265
 31
0.0
  0
ARC
  5
6FF
330
1A
100
AcDbEntity
  8
ZUWAKU
100
AcDbCircle
 10
27.64269024044188
 20
34.75758628282265
 30
0.0
 40
0.525
100
AcDbArc
 50
270.0
 51
0.0
  0
ARC
  5
700
330
1A
100
AcDbEntity
  8
ZUWAKU
100
AcDbCircle
 10
27.64269024044188
 20
36.50758628282265
 30
0.0
 40
0.525
100
AcDbArc
 50
0.0
 51
90.0
  0
LINE
  5
701
330
1A
100
AcDbEntity
  8
ZUWAKU
100
AcDbLine
 10
37.44269024044206
 20
36.50758628282265
 30
0.0
 11
37.44269024044206
 21
34.75758628282265
 31
0.0
  0
ARC
  5
702
330
1A
100
AcDbEntity
  8
ZUWAKU
100
AcDbCircle
 10
36.91769024044197
 20
34.75758628282265
 30
0.0
 40
0.525
100
AcDbArc
 50
270.0
 51
0.0
  0
ARC
  5
703
330
1A
100
AcDbEntity
  8
ZUWAKU
100
AcDbCircle
 10
40.41769024044197
 20
36.50758628282265
 30
0.0
 40
0.525
100
AcDbArc
 50
90.0
 51
180.0
  0
ARC
  5
704
330
1A
100
AcDbEntity
  8
ZUWAKU
100
AcDbCircle
 10
36.91769024044197
 20
36.50758628282265
 30
0.0
 40
0.525
100
AcDbArc
 50
0.0
 51
90.0
  0
ARC
  5
705
330
1A
100
AcDbEntity
  8
ZUWAKU
100
AcDbCircle
 10
34.99269024044179
 20
32.83258628282265
 30
0.0
 40
1.399999999999999
100
AcDbArc
 50
90.0
 51
180.0
  0
LINE
  5
706
330
1A
100
AcDbEntity
  8
ZUWAKU
100
AcDbLine
 10
36.91769024044197
 20
34.23258628282265
 30
0.0
 11
34.99269024044179
 21
34.23258628282265
 31
0.0
  0
LINE
  5
707
330
1A
100
AcDbEntity
  8
ZUWAKU
100
AcDbLine
 10
34.99269024044179
 20
37.03258628282261
 30
0.0
 11
36.91769024044197
 21
37.03258628282265
 31
0.0
  0
ARC
  5
708
330
1A
100
AcDbEntity
  8
ZUWAKU
100
AcDbCircle
 10
43.21769024044215
 20
27.05758628282265
 30
0.0
 40
0.525
100
AcDbArc
 50
90.0
 51
180.0
  0
ARC
  5
709
330
1A
100
AcDbEntity
  8
ZUWAKU
100
AcDbCircle
 10
43.35792440393061
 20
27.05758628282265
 30
0.0
 40
0.525
100
AcDbArc
 50
17.52556837372255
 51
90.0
  0
LINE
  5
70A
330
1A
100
AcDbEntity
  8
ZUWAKU
100
AcDbLine
 10
53.54269024044197
 20
21.45758628282265
 30
0.0
 11
53.54269024044197
 21
36.50758628282265
 31
0.0
  0
LINE
  5
70B
330
1A
100
AcDbEntity
  8
ZUWAKU
100
AcDbLine
 10
50.74269024044179
 20
36.50758628282265
 30
0.0
 11
50.74269024044179
 21
21.45758628282265
 31
0.0
  0
LINE
  5
70C
330
1A
100
AcDbEntity
  8
ZUWAKU
100
AcDbLine
 10
48.42697635575769
 20
21.61568025098962
 30
0.0
 11
46.10058497728414
 21
28.98258628282267
 31
0.0
  0
LINE
  5
70D
330
1A
100
AcDbEntity
  8
ZUWAKU
100
AcDbLine
 10
43.21769024044215
 20
27.58258628282265
 30
0.0
 11
43.35792440393061
 21
27.58258628282265
 31
0.0
  0
ARC
  5
70E
330
1A
100
AcDbEntity
  8
ZUWAKU
100
AcDbCircle
 10
46.22745607695333
 20
21.45758628282265
 30
0.0
 40
0.525
100
AcDbArc
 50
197.5255683737225
 51
270.0
  0
ARC
  5
70F
330
1A
100
AcDbEntity
  8
ZUWAKU
100
AcDbCircle
 10
47.9263454565621
 20
21.45758628282265
 30
0.0
 40
0.525
100
AcDbArc
 50
270.0
 51
17.52556837372255
  0
LINE
  5
710
330
1A
100
AcDbEntity
  8
ZUWAKU
100
AcDbLine
 10
46.22745607695333
 20
20.93258628282265
 30
0.0
 11
47.9263454565621
 21
20.93258628282265
 31
0.0
  0
ARC
  5
711
330
1A
100
AcDbEntity
  8
ZUWAKU
100
AcDbCircle
 10
42.16769024044197
 20
21.45758628282265
 30
0.0
 40
0.525
100
AcDbArc
 50
270.0
 51
0.0
  0
LINE
  5
712
330
1A
100
AcDbEntity
  8
ZUWAKU
100
AcDbLine
 10
45.72682517775774
 20
21.29949231465567
 30
0.0
 11
43.85855530312574
 21
27.21568025098962
 31
0.0
  0
LINE
  5
713
330
1A
100
AcDbEntity
  8
ZUWAKU
100
AcDbLine
 10
42.69269024044206
 20
21.45758628282265
 30
0.0
 11
42.69269024044206
 21
27.05758628282265
 31
0.0
  0
ARC
  5
714
330
1A
100
AcDbEntity
  8
ZUWAKU
100
AcDbCircle
 10
56.69269024044206
 20
23.20758628282265
 30
0.0
 40
0.525
100
AcDbArc
 50
90.0
 51
180.0
  0
ARC
  5
715
330
1A
100
AcDbEntity
  8
ZUWAKU
100
AcDbCircle
 10
53.01769024044188
 20
21.45758628282265
 30
0.0
 40
0.525
100
AcDbArc
 50
270.0
 51
0.0
  0
ARC
  5
716
330
1A
100
AcDbEntity
  8
ZUWAKU
100
AcDbCircle
 10
56.69269024044206
 20
21.45758628282265
 30
0.0
 40
0.525
100
AcDbArc
 50
180.0
 51
270.0
  0
LINE
  5
717
330
1A
100
AcDbEntity
  8
ZUWAKU
100
AcDbLine
 10
56.16769024044197
 20
21.45758628282265
 30
0.0
 11
56.16769024044197
 21
23.20758628282265
 31
0.0
  0
ARC
  5
718
330
1A
100
AcDbEntity
  8
ZUWAKU
100
AcDbCircle
 10
51.26769024044188
 20
21.45758628282265
 30
0.0
 40
0.525
100
AcDbArc
 50
180.0
 51
270.0
  0
LINE
  5
719
330
1A
100
AcDbEntity
  8
ZUWAKU
100
AcDbLine
 10
51.26769024044188
 20
20.93258628282265
 30
0.0
 11
53.01769024044188
 21
20.93258628282265
 31
0.0
  0
LINE
  5
71A
330
1A
100
AcDbEntity
  8
ZUWAKU
100
AcDbLine
 10
47.36533672261976
 20
32.98763347638608
 30
0.0
 11
46.10058497728414
 21
28.98258628282267
 31
0.0
  0
ARC
  5
71B
330
1A
100
AcDbEntity
  8
ZUWAKU
100
AcDbCircle
 10
46.22745607695333
 20
36.50758628282265
 30
0.0
 40
0.525
100
AcDbArc
 50
90.0
 51
162.4744316262773
  0
LINE
  5
71C
330
1A
100
AcDbEntity
  8
ZUWAKU
100
AcDbLine
 10
48.42697635575769
 20
36.34949231465568
 30
0.0
 11
47.36533672261976
 21
32.98763347638608
 31
0.0
  0
ARC
  5
71D
330
1A
100
AcDbEntity
  8
ZUWAKU
100
AcDbCircle
 10
47.9263454565621
 20
36.50758628282265
 30
0.0
 40
0.525
100
AcDbArc
 50
342.4744316262774
 51
90.0
  0
LINE
  5
71E
330
1A
100
AcDbEntity
  8
ZUWAKU
100
AcDbLine
 10
46.22745607695333
 20
37.03258628282265
 30
0.0
 11
47.9263454565621
 21
37.03258628282265
 31
0.0
  0
LINE
  5
71F
330
1A
100
AcDbEntity
  8
ZUWAKU
100
AcDbLine
 10
42.69269024044206
 20
30.90758628282265
 30
0.0
 11
42.69269024044206
 21
36.50758628282265
 31
0.0
  0
ARC
  5
720
330
1A
100
AcDbEntity
  8
ZUWAKU
100
AcDbCircle
 10
43.21769024044215
 20
30.90758628282265
 30
0.0
 40
0.525
100
AcDbArc
 50
180.0
 51
270.0
  0
LINE
  5
721
330
1A
100
AcDbEntity
  8
ZUWAKU
100
AcDbLine
 10
43.35792440393061
 20
30.38258628282265
 30
0.0
 11
43.21769024044215
 21
30.38258628282265
 31
0.0
  0
ARC
  5
722
330
1A
100
AcDbEntity
  8
ZUWAKU
100
AcDbCircle
 10
43.35792440393061
 20
30.90758628282265
 30
0.0
 40
0.525
100
AcDbArc
 50
270.0
 51
342.4744316262774
  0
ARC
  5
723
330
1A
100
AcDbEntity
  8
ZUWAKU
100
AcDbCircle
 10
42.16769024044197
 20
36.50758628282265
 30
0.0
 40
0.525
100
AcDbArc
 50
0.0
 51
90.0
  0
LINE
  5
724
330
1A
100
AcDbEntity
  8
ZUWAKU
100
AcDbLine
 10
45.72682517775774
 20
36.66568025098962
 30
0.0
 11
43.85855530312574
 21
30.74949231465568
 31
0.0
  0
ARC
  5
725
330
1A
100
AcDbEntity
  8
ZUWAKU
100
AcDbCircle
 10
59.84269024044215
 20
32.41738425746735
 30
0.0
 40
4.199999999999999
100
AcDbArc
 50
180.0
 51
224.9999999999996
  0
LINE
  5
726
330
1A
100
AcDbEntity
  8
ZUWAKU
100
AcDbLine
 10
55.64269024044188
 20
34.23258628282265
 30
0.0
 11
55.64269024044188
 21
32.41738425746731
 31
0.0
  0
ARC
  5
727
330
1A
100
AcDbEntity
  8
ZUWAKU
100
AcDbCircle
 10
53.01769024044188
 20
36.50758628282265
 30
0.0
 40
0.525
100
AcDbArc
 50
0.0
 51
90.0
  0
ARC
  5
728
330
1A
100
AcDbEntity
  8
ZUWAKU
100
AcDbCircle
 10
51.26769024044188
 20
36.50758628282265
 30
0.0
 40
0.525
100
AcDbArc
 50
90.0
 51
180.0
  0
LINE
  5
729
330
1A
100
AcDbEntity
  8
ZUWAKU
100
AcDbLine
 10
53.01769024044188
 20
37.03258628282265
 30
0.0
 11
51.26769024044188
 21
37.03258628282265
 31
0.0
  0
ARC
  5
72A
330
1A
100
AcDbEntity
  8
ZUWAKU
100
AcDbCircle
 10
73.66769024044197
 20
36.50758628282265
 30
0.0
 40
0.525
100
AcDbArc
 50
0.0
 51
90.0
  0
ARC
  5
72B
330
1A
100
AcDbEntity
  8
ZUWAKU
100
AcDbCircle
 10
71.39269024044188
 20
23.73258628282265
 30
0.0
 40
2.799999999999999
100
AcDbArc
 50
270.0
 51
0.0
  0
LINE
  5
72C
330
1A
100
AcDbEntity
  8
ZUWAKU
100
AcDbLine
 10
67.89269024044187
 20
24.78258628282265
 30
0.0
 11
67.89269024044187
 21
36.50758628282265
 31
0.0
  0
LINE
  5
72D
330
1A
100
AcDbEntity
  8
ZUWAKU
100
AcDbLine
 10
65.09269024044215
 20
36.50758628282265
 30
0.0
 11
65.09269024044215
 21
23.73258628282265
 31
0.0
  0
LINE
  5
72E
330
1A
100
AcDbEntity
  8
ZUWAKU
100
AcDbLine
 10
71.39269024044188
 20
36.50758628282265
 30
0.0
 11
71.39269024044188
 21
24.78258628282265
 31
0.0
  0
ARC
  5
72F
330
1A
100
AcDbEntity
  8
ZUWAKU
100
AcDbCircle
 10
58.79269024044197
 20
25.54778830817795
 30
0.0
 40
4.199999999999999
100
AcDbArc
 50
0.0
 51
44.9999999999996
  0
ARC
  5
730
330
1A
100
AcDbEntity
  8
ZUWAKU
100
AcDbCircle
 10
67.89269024044187
 20
23.73258628282265
 30
0.0
 40
2.799999999999999
100
AcDbArc
 50
180.0
 51
270.0
  0
LINE
  5
731
330
1A
100
AcDbEntity
  8
ZUWAKU
100
AcDbLine
 10
62.99269024044178
 20
23.73258628282265
 30
0.0
 11
62.99269024044178
 21
25.547788308178
 31
0.0
  0
ARC
  5
732
330
1A
100
AcDbEntity
  8
ZUWAKU
100
AcDbCircle
 10
59.66769024044197
 20
24.25758628282265
 30
0.0
 40
0.525
100
AcDbArc
 50
270.0
 51
0.0
  0
LINE
  5
733
330
1A
100
AcDbEntity
  8
ZUWAKU
100
AcDbLine
 10
60.19269024044206
 20
24.25758628282265
 30
0.0
 11
60.19269024044206
 21
25.547788308178
 31
0.0
  0
ARC
  5
734
330
1A
100
AcDbEntity
  8
ZUWAKU
100
AcDbCircle
 10
60.19269024044206
 20
23.73258628282265
 30
0.0
 40
2.799999999999999
100
AcDbArc
 50
270.0
 51
0.0
  0
ARC
  5
735
330
1A
100
AcDbEntity
  8
ZUWAKU
100
AcDbCircle
 10
58.79269024044197
 20
25.547788308178
 30
0.0
 40
1.399999999999999
100
AcDbArc
 50
0.0
 51
44.9999999999996
  0
ARC
  5
736
330
1A
100
AcDbEntity
  8
ZUWAKU
100
AcDbCircle
 10
70.34269024044215
 20
24.78258628282265
 30
0.0
 40
1.049999999999999
100
AcDbArc
 50
270.0
 51
0.0
  0
ARC
  5
737
330
1A
100
AcDbEntity
  8
ZUWAKU
100
AcDbCircle
 10
68.94269024044206
 20
24.78258628282265
 30
0.0
 40
1.049999999999999
100
AcDbArc
 50
180.0
 51
270.0
  0
LINE
  5
738
330
1A
100
AcDbEntity
  8
ZUWAKU
100
AcDbLine
 10
67.89269024044187
 20
20.93258628282265
 30
0.0
 11
71.39269024044188
 21
20.93258628282265
 31
0.0
  0
LINE
  5
739
330
1A
100
AcDbEntity
  8
ZUWAKU
100
AcDbLine
 10
70.34269024044215
 20
23.73258628282265
 30
0.0
 11
68.94269024044206
 21
23.73258628282265
 31
0.0
  0
LINE
  5
73A
330
1A
100
AcDbEntity
  8
ZUWAKU
100
AcDbLine
 10
67.36769024044178
 20
37.03258628282265
 30
0.0
 11
65.61769024044179
 21
37.03258628282265
 31
0.0
  0
LINE
  5
73B
330
1A
100
AcDbEntity
  8
ZUWAKU
100
AcDbLine
 10
62.46769024044215
 20
36.50758628282265
 30
0.0
 11
62.46769024044215
 21
34.75758628282265
 31
0.0
  0
ARC
  5
73C
330
1A
100
AcDbEntity
  8
ZUWAKU
100
AcDbCircle
 10
61.94269024044206
 20
34.75758628282265
 30
0.0
 40
0.525
100
AcDbArc
 50
270.0
 51
0.0
  0
ARC
  5
73D
330
1A
100
AcDbEntity
  8
ZUWAKU
100
AcDbCircle
 10
61.94269024044206
 20
36.50758628282265
 30
0.0
 40
0.525
100
AcDbArc
 50
0.0
 51
90.0
  0
ARC
  5
73E
330
1A
100
AcDbEntity
  8
ZUWAKU
100
AcDbCircle
 10
65.61769024044179
 20
36.50758628282265
 30
0.0
 40
0.525
100
AcDbArc
 50
90.0
 51
180.0
  0
ARC
  5
73F
330
1A
100
AcDbEntity
  8
ZUWAKU
100
AcDbCircle
 10
59.84269024044215
 20
32.41738425746735
 30
0.0
 40
1.399999999999999
100
AcDbArc
 50
180.0000000000016
 51
224.9999999999993
  0
LINE
  5
740
330
1A
100
AcDbEntity
  8
ZUWAKU
100
AcDbLine
 10
58.44269024044206
 20
33.70758628282265
 30
0.0
 11
58.44269024044206
 21
32.41738425746731
 31
0.0
  0
ARC
  5
741
330
1A
100
AcDbEntity
  8
ZUWAKU
100
AcDbCircle
 10
58.96769024044215
 20
33.70758628282265
 30
0.0
 40
0.525
100
AcDbArc
 50
90.0
 51
180.0
  0
LINE
  5
742
330
1A
100
AcDbEntity
  8
ZUWAKU
100
AcDbLine
 10
61.76253872142524
 20
28.51763678916148
 30
0.0
 11
58.85274074678045
 21
31.42743476380615
 31
0.0
  0
LINE
  5
743
330
1A
100
AcDbEntity
  8
ZUWAKU
100
AcDbLine
 10
61.94269024044206
 20
34.23258628282265
 30
0.0
 11
58.96769024044215
 21
34.23258628282265
 31
0.0
  0
LINE
  5
744
330
1A
100
AcDbEntity
  8
ZUWAKU
100
AcDbLine
 10
58.44269024044206
 20
37.03258628282265
 30
0.0
 11
61.94269024044206
 21
37.03258628282265
 31
0.0
  0
ARC
  5
745
330
1A
100
AcDbEntity
  8
ZUWAKU
100
AcDbCircle
 10
71.91769024044197
 20
36.50758628282265
 30
0.0
 40
0.525
100
AcDbArc
 50
90.0
 51
180.0
  0
LINE
  5
746
330
1A
100
AcDbEntity
  8
ZUWAKU
100
AcDbLine
 10
73.66769024044197
 20
37.03258628282265
 30
0.0
 11
71.91769024044197
 21
37.03258628282265
 31
0.0
  0
ARC
  5
747
330
1A
100
AcDbEntity
  8
ZUWAKU
100
AcDbCircle
 10
67.36769024044178
 20
36.50758628282265
 30
0.0
 40
0.525
100
AcDbArc
 50
0.0
 51
90.0
  0
LINE
  5
748
330
1A
100
AcDbEntity
  8
ZUWAKU
100
AcDbLine
 10
76.29269024044197
 20
36.50758628282265
 30
0.0
 11
76.29269024044197
 21
21.45758628282265
 31
0.0
  0
LINE
  5
749
330
1A
100
AcDbEntity
  8
ZUWAKU
100
AcDbLine
 10
79.09269024044215
 20
21.45758628282265
 30
0.0
 11
79.09269024044215
 21
36.50758628282265
 31
0.0
  0
LINE
  5
74A
330
1A
100
AcDbEntity
  8
ZUWAKU
100
AcDbLine
 10
74.19269024044206
 20
23.73258628282265
 30
0.0
 11
74.19269024044206
 21
36.50758628282265
 31
0.0
  0
ARC
  5
74B
330
1A
100
AcDbEntity
  8
ZUWAKU
100
AcDbCircle
 10
78.56769024044206
 20
21.45758628282265
 30
0.0
 40
0.525
100
AcDbArc
 50
270.0
 51
0.0
  0
ARC
  5
74C
330
1A
100
AcDbEntity
  8
ZUWAKU
100
AcDbCircle
 10
76.81769024044206
 20
21.45758628282265
 30
0.0
 40
0.525
100
AcDbArc
 50
180.0
 51
270.0
  0
LINE
  5
74D
330
1A
100
AcDbEntity
  8
ZUWAKU
100
AcDbLine
 10
76.81769024044206
 20
20.93258628282265
 30
0.0
 11
78.56769024044206
 21
20.93258628282265
 31
0.0
  0
ARC
  5
74E
330
1A
100
AcDbEntity
  8
ZUWAKU
100
AcDbCircle
 10
78.56769024044206
 20
36.50758628282265
 30
0.0
 40
0.525
100
AcDbArc
 50
0.0
 51
90.0
  0
ARC
  5
74F
330
1A
100
AcDbEntity
  8
ZUWAKU
100
AcDbCircle
 10
76.81769024044206
 20
36.50758628282265
 30
0.0
 40
0.525
100
AcDbArc
 50
90.0
 51
180.0
  0
LINE
  5
750
330
1A
100
AcDbEntity
  8
ZUWAKU
100
AcDbLine
 10
78.56769024044206
 20
37.03258628282265
 30
0.0
 11
76.81769024044206
 21
37.03258628282265
 31
0.0
  0
TEXT
  5
751
330
1A
100
AcDbEntity
  8
moji
100
AcDbText
 10
103.0082676738297
 20
26.52376441309741
 30
0.0
 40
6.0
  1
大型　のきとい
 41
0.9
  7
ｽﾀｲﾙ1
100
AcDbText
  0
TEXT
  5
756
330
1A
100
AcDbEntity
  8
moji
100
AcDbText
 10
249.8776807665117
 20
16.98750734023007
 30
0.0
 40
5.599999999999999
  1
Ｐ１５０
 41
0.9
  7
ｽﾀｲﾙ1
100
AcDbText
  0
LINE
  5
757
330
1A
100
AcDbEntity
  8
ZUWAKU
100
AcDbLine
 10
218.4970793757283
 20
43.78258628282265
 30
0.0
 11
218.4970793757288
 21
14.58258628282271
 31
0.0
  0
LINE
  5
758
330
1A
100
AcDbEntity
  8
ZUWAKU
100
AcDbLine
 10
218.6970793757286
 20
43.78258628282265
 30
0.0
 11
218.6970793757286
 21
14.58258628282271
 31
0.0
  0
LINE
  5
759
330
1A
100
AcDbEntity
  8
ZUWAKU
100
AcDbLine
 10
218.2970793757285
 20
43.78258628282265
 30
0.0
 11
218.2970793757285
 21
14.58258628282271
 31
0.0
  0
TEXT
  5
75A
330
1A
100
AcDbEntity
  8
ZUWAKU
100
AcDbText
 10
219.7745243979379
 20
37.83794282120823
 30
0.0
 40
4.0
  1
品名
 41
0.9
  7
ｽﾀｲﾙ1
100
AcDbText
  0
TEXT
  5
75B
330
1A
100
AcDbEntity
  8
ZUWAKU
100
AcDbText
 10
219.7745243979384
 20
23.43794282120826
 30
0.0
 40
4.0
  1
サイズ
 41
0.9
  7
ｽﾀｲﾙ1
100
AcDbText
  0
TEXT
  5
75C
330
1A
100
AcDbEntity
  8
moji
100
AcDbText
 10
249.8776807665117
 20
31.78750734023003
 30
0.0
 40
5.599999999999999
  1
伸縮ジョイント
 41
0.9
  7
ｽﾀｲﾙ1
100
AcDbText
  0
TEXT
  5
792
330
1A
100
AcDbEntity
  8
ZUWAKU
100
AcDbText
 10
668.254415772963
 20
31.78750734023003
 30
0.0
 40
5.599999999999999
  1
　　．　　．　　
 41
0.9
  7
ｽﾀｲﾙ1
100
AcDbText
  0
LINE
  5
793
330
1A
100
AcDbEntity
  8
ZUWAKU
100
AcDbLine
 10
658.8676805958648
 20
29.38258628282268
 30
0.0
 11
707.2994886342021
 21
29.38258628282268
 31
0.0
  0
LINE
  5
794
330
1A
100
AcDbEntity
  8
ZUWAKU
100
AcDbLine
 10
658.8676805958653
 20
29.18258628282268
 30
0.0
 11
707.2994886342021
 21
29.18258628282268
 31
0.0
  0
LINE
  5
795
330
1A
100
AcDbEntity
  8
ZUWAKU
100
AcDbLine
 10
658.8676805958648
 20
28.98258628282268
 30
0.0
 11
707.2994886342021
 21
28.98258628282268
 31
0.0
  0
LINE
  5
79A
330
1A
100
AcDbEntity
  8
ZUWAKU
100
AcDbLine
 10
515.2496575838017
 20
29.38258628282268
 30
0.0
 11
562.5774338517731
 21
29.38258628282268
 31
0.0
  0
LINE
  5
79B
330
1A
100
AcDbEntity
  8
ZUWAKU
100
AcDbLine
 10
515.2496575838017
 20
29.18258628282268
 30
0.0
 11
562.5774338517731
 21
29.18258628282268
 31
0.0
  0
LINE
  5
79C
330
1A
100
AcDbEntity
  8
ZUWAKU
100
AcDbLine
 10
515.2496575838017
 20
28.98258628282269
 30
0.0
 11
562.5774338517731
 21
28.98258628282269
 31
0.0
  0
TEXT
  5
79D
330
1A
100
AcDbEntity
  8
moji
100
AcDbText
 10
538.0913860579735
 20
16.98750734023007
 30
0.0
 40
5.599999999999999
  1
１/２
 41
0.9
  7
ｽﾀｲﾙ1
100
AcDbText
  0
LINE
  5
79E
330
1A
100
AcDbEntity
  8
ZUWAKU
100
AcDbLine
 10
514.8496575838017
 20
43.78258628282265
 30
0.0
 11
514.8496575838017
 21
14.58258628282271
 31
0.0
  0
LINE
  5
79F
330
1A
100
AcDbEntity
  8
ZUWAKU
100
AcDbLine
 10
515.2496575838017
 20
43.78258628282265
 30
0.0
 11
515.2496575838017
 21
14.58258628282271
 31
0.0
  0
LINE
  5
7A0
330
1A
100
AcDbEntity
  8
ZUWAKU
100
AcDbLine
 10
515.0496575838015
 20
43.78258628282265
 30
0.0
 11
515.0496575838019
 21
14.58258628282271
 31
0.0
  0
LINE
  5
7A1
330
1A
100
AcDbEntity
  8
ZUWAKU
100
AcDbLine
 10
457.474842056652
 20
43.78258628282265
 30
0.0
 11
457.474842056652
 21
14.58258628282271
 31
0.0
  0
LINE
  5
7A2
330
1A
100
AcDbEntity
  8
ZUWAKU
100
AcDbLine
 10
457.8748420566521
 20
43.78258628282265
 30
0.0
 11
457.8748420566521
 21
14.58258628282271
 31
0.0
  0
LINE
  5
7A3
330
1A
100
AcDbEntity
  8
ZUWAKU
100
AcDbLine
 10
457.6748420566518
 20
43.78258628282265
 30
0.0
 11
457.6748420566523
 21
14.58258628282271
 31
0.0
  0
TEXT
  5
7A4
330
1A
100
AcDbEntity
  8
moji
100
AcDbText
 10
472.1486881474166
 20
25.56402850121991
 30
0.0
 40
5.599999999999999
  1
ＧＳ７８
 41
0.9
  7
ｽﾀｲﾙ1
100
AcDbText
  0
TEXT
  5
7A5
330
1A
100
AcDbEntity
  8
ZUWAKU
100
AcDbText
 10
459.3522870788615
 20
37.83794282120823
 30
0.0
 40
4.0
  1
品番
 41
0.9
  7
ｽﾀｲﾙ1
100
AcDbText
  0
TEXT
  5
7A6
330
1A
100
AcDbEntity
  8
ZUWAKU
100
AcDbText
 10
516.7271026060111
 20
37.83794282120823
 30
0.0
 40
4.0
  1
用紙
 41
0.9
  7
ｽﾀｲﾙ1
100
AcDbText
  0
TEXT
  5
7A7
330
1A
100
AcDbEntity
  8
ZUWAKU
100
AcDbText
 10
516.7271026060116
 20
23.43794282120826
 30
0.0
 40
4.0
  1
縮尺
 41
0.9
  7
ｽﾀｲﾙ1
100
AcDbText
  0
TEXT
  5
7A8
330
1A
100
AcDbEntity
  8
moji
100
AcDbText
 10
538.0913860579735
 20
31.78750734023003
 30
0.0
 40
5.599999999999999
  1
Ａ３
 41
0.9
  7
ｽﾀｲﾙ1
100
AcDbText
  0
LINE
  5
7A9
330
1A
100
AcDbEntity
  8
ZUWAKU
100
AcDbLine
 10
562.9774338517732
 20
43.78258628282265
 30
0.0
 11
562.9774338517732
 21
14.58258628282271
 31
0.0
  0
LINE
  5
7AA
330
1A
100
AcDbEntity
  8
ZUWAKU
100
AcDbLine
 10
658.4676805958651
 20
43.78258628282265
 30
0.0
 11
658.4676805958651
 21
14.58258628282271
 31
0.0
  0
LINE
  5
7AB
330
1A
100
AcDbEntity
  8
ZUWAKU
100
AcDbLine
 10
658.8676805958653
 20
43.78258628282265
 30
0.0
 11
658.8676805958653
 21
14.58258628282271
 31
0.0
  0
LINE
  5
7AC
330
1A
100
AcDbEntity
  8
ZUWAKU
100
AcDbLine
 10
658.667680595865
 20
43.78258628282265
 30
0.0
 11
658.6676805958655
 21
14.58258628282271
 31
0.0
  0
LINE
  5
7AD
330
1A
100
AcDbEntity
  8
ZUWAKU
100
AcDbLine
 10
562.5774338517731
 20
43.78258628282265
 30
0.0
 11
562.5774338517731
 21
14.58258628282271
 31
0.0
  0
LINE
  5
7AE
330
1A
100
AcDbEntity
  8
ZUWAKU
100
AcDbLine
 10
562.7774338517729
 20
43.78258628282265
 30
0.0
 11
562.7774338517733
 21
14.58258628282271
 31
0.0
  0
TEXT
  5
7AF
330
1A
100
AcDbEntity
  8
ZUWAKU
100
AcDbText
 10
660.3451256180747
 20
37.83794282120823
 30
0.0
 40
4.0
  1
DATE
 41
0.9
  7
ｽﾀｲﾙ1
100
AcDbText
  0
LINE
  5
7BB
330
1A
100
AcDbEntity
  8
ZUWAKU
100
AcDbLine
 10
707.899488634202
 20
43.78258628282265
 30
0.0
 11
707.899488634202
 21
14.58258628282271
 31
0.0
  0
LINE
  5
7BC
330
1A
100
AcDbEntity
  8
ZUWAKU
100
AcDbLine
 10
707.6994886342017
 20
43.78258628282265
 30
0.0
 11
707.6994886342022
 21
14.58258628282271
 31
0.0
  0
LINE
  5
7BD
330
1A
100
AcDbEntity
  8
ZUWAKU
100
AcDbLine
 10
707.4994886342019
 20
43.78258628282265
 30
0.0
 11
707.4994886342019
 21
14.58258628282271
 31
0.0
  0
LINE
  5
7BE
330
1A
100
AcDbEntity
  8
ZUWAKU
100
AcDbLine
 10
707.2994886342021
 20
43.78258628282265
 30
0.0
 11
707.2994886342021
 21
14.58258628282271
 31
0.0
  0
TEXT
  5
7BF
330
1A
100
AcDbEntity
  8
ZUWAKU
100
AcDbText
 10
718.5785622779044
 20
31.33642561850945
 30
0.0
 40
6.0
  1
積水化学工業株式会社
 41
0.9
  7
ｽﾀｲﾙ1
100
AcDbText
  0
TEXT
  5
7C0
330
1A
100
AcDbEntity
  8
ZUWAKU
100
AcDbText
 10
718.5785622779044
 20
20.43142659667671
 30
0.0
 40
6.0
  1
建材事業部
 41
0.9
  7
ｽﾀｲﾙ1
100
AcDbText
  0
TEXT
  5
2162
330
1A
100
AcDbEntity
  8
SUNPOU
 48
5.0
100
AcDbText
 10
626.8036224998723
 20
74.1177130036545
 30
0.0
 40
6.0
  1
※は軒樋の差し込み寸法を示す
100
AcDbText
  0
DIMENSION
  5
2965
330
1A
100
AcDbEntity
  8
SUNPOU
100
AcDbDimension
  2
*D2
 10
395.6136384554672
 20
415.9287778004393
 30
0.0
 11
417.3636384554672
 21
420.9287778004393
 31
0.0
 70
    32
  1
\U+203B<>
 71
     5
 42
-1.0
  3
STANDARD
100
AcDbAlignedDimension
 13
439.1136384554672
 23
394.1102734822398
 33
0.0
 14
395.6136384554672
 24
394.1102884822398
 34
0.0
100
AcDbRotatedDimension
1001
ACAD
1000
DSTYLE
1002
{
1070
    41
1040
7.0
1070
    42
1040
6.0
1070
    43
1040
14.0
1070
    44
1040
3.0
1070
    73
1070
     0
1070
    74
1070
     0
1070
    77
1070
     3
1070
   140
1040
6.0
1070
   141
1040
150.0
1070
   147
1040
2.0
1070
   172
1070
     1
1070
   173
1070
     1
1070
   176
1070
   256
1070
   177
1070
   256
1070
   178
1070
   256
1070
   271
1070
     0
1070
   272
1070
     0
1070
   341
1005
6D
1070
     6
1000
OPEN
1070
     7
1000
OPEN
1070
   371
1070
    -1
1070
   372
1070
    -1
1002
}
  0
DIMENSION
  5
2966
330
1A
100
AcDbEntity
  8
SUNPOU
100
AcDbDimension
  2
*D3
 10
654.613628455467
 20
274.8328520901655
 30
0.0
 11
530.113643455467
 21
279.8328520901654
 31
0.0
 70
    32
 71
     5
 42
-1.0
  3
STANDARD
100
AcDbAlignedDimension
 13
405.6136584554671
 23
308.1527284822398
 33
0.0
 14
654.613628455467
 24
308.1266284822395
 34
0.0
100
AcDbRotatedDimension
1001
ACAD
1000
DSTYLE
1002
{
1070
    41
1040
7.0
1070
    42
1040
6.0
1070
    43
1040
14.0
1070
    44
1040
3.0
1070
    73
1070
     0
1070
    74
1070
     0
1070
    77
1070
     3
1070
   140
1040
6.0
1070
   141
1040
150.0
1070
   147
1040
2.0
1070
   172
1070
     1
1070
   173
1070
     1
1070
   176
1070
   256
1070
   177
1070
   256
1070
   178
1070
   256
1070
   271
1070
     0
1070
   272
1070
     0
1070
   341
1005
6D
1070
     6
1000
OPEN
1070
     7
1000
OPEN
1070
   371
1070
    -1
1070
   372
1070
    -1
1002
}
  0
DIMENSION
  5
2967
330
1A
100
AcDbEntity
  8
SUNPOU
100
AcDbDimension
  2
*D4
 10
664.613648455467
 20
521.0217859001391
 30
0.0
 11
530.113643455467
 21
526.021785900139
 31
0.0
 70
    32
 71
     5
 42
-1.0
  3
STANDARD
100
AcDbAlignedDimension
 13
395.6136384554672
 23
480.0678154822398
 33
0.0
 14
664.613648455467
 24
480.0939184822396
 34
0.0
100
AcDbRotatedDimension
1001
ACAD
1000
DSTYLE
1002
{
1070
    41
1040
7.0
1070
    42
1040
6.0
1070
    43
1040
14.0
1070
    44
1040
3.0
1070
    73
1070
     0
1070
    74
1070
     0
1070
    77
1070
     3
1070
   140
1040
6.0
1070
   141
1040
150.0
1070
   147
1040
2.0
1070
   172
1070
     1
1070
   173
1070
     1
1070
   176
1070
   256
1070
   177
1070
   256
1070
   178
1070
   256
1070
   271
1070
     0
1070
   272
1070
     0
1070
   341
1005
6D
1070
     6
1000
OPEN
1070
     7
1000
OPEN
1070
   371
1070
    -1
1070
   372
1070
    -1
1002
}
  0
LINE
  5
2968
330
1A
100
AcDbEntity
  8
CENTER L
 48
5.0
100
AcDbLine
 10
373.9506720590109
 20
394.11027348224
 30
0.0
 11
724.8928584730633
 21
394.1102734822391
 31
0.0
  0
LINE
  5
2969
330
1A
100
AcDbEntity
  8
SEIHIN
100
AcDbLine
 10
415.6136210040899
 20
202.9949241201171
 30
0.0
 11
484.26364100409
 21
202.9949241201171
 31
0.0
  0
LINE
  5
296A
330
1A
100
AcDbEntity
  8
SEIHIN
100
AcDbLine
 10
439.6136510040898
 20
175.9949241201171
 30
0.0
 11
415.6136210040899
 21
175.9949241201171
 31
0.0
  0
LINE
  5
296B
330
1A
100
AcDbEntity
  8
SEIHIN
100
AcDbLine
 10
415.7569610040898
 20
106.9949241201171
 30
0.0
 11
439.6136510040898
 21
106.9949241201171
 31
0.0
  0
LINE
  5
296C
330
1A
100
AcDbEntity
  8
SEIHIN
100
AcDbLine
 10
439.6134684554672
 20
480.5946034822397
 30
0.0
 11
405.6116484554673
 21
480.5946034822397
 31
0.0
  0
LINE
  5
296D
330
1A
100
AcDbEntity
  8
SEIHIN
100
AcDbLine
 10
415.6116684554669
 20
307.6259284822399
 30
0.0
 11
439.6134684554672
 21
307.6259284822399
 31
0.0
  0
LINE
  5
296E
330
1A
100
AcDbEntity
  8
SEIHIN
100
AcDbLine
 10
441.1136484554672
 20
462.2602624822397
 30
0.0
 11
421.1136384554672
 21
462.2602624822397
 31
0.0
  0
LINE
  5
296F
330
1A
100
AcDbEntity
  8
SEIHIN
100
AcDbLine
 10
421.1136384554672
 20
325.9602784822398
 30
0.0
 11
441.1136484554672
 21
325.9602784822398
 31
0.0
  0
LINE
  5
2970
330
1A
100
AcDbEntity
  8
SEIHIN
100
AcDbLine
 10
424.6136484554672
 20
454.4495734822398
 30
0.0
 11
395.6136384554672
 21
454.4495734822398
 31
0.0
  0
LINE
  5
2971
330
1A
100
AcDbEntity
  8
SEIHIN
100
AcDbLine
 10
424.6136484554672
 20
333.7709584822398
 30
0.0
 11
405.6136584554671
 21
333.7709584822398
 31
0.0
  0
LINE
  5
2972
330
1A
100
AcDbEntity
  8
SEIHIN
100
AcDbLine
 10
424.6136484554672
 20
452.9656984822399
 30
0.0
 11
395.6136384554672
 21
452.9656984822399
 31
0.0
  0
LINE
  5
2973
330
1A
100
AcDbEntity
  8
SEIHIN
100
AcDbLine
 10
424.6136484554672
 20
335.2548484822398
 30
0.0
 11
405.6136584554671
 21
335.2548484822398
 31
0.0
  0
DIMENSION
  5
2976
330
1A
100
AcDbEntity
  8
SUNPOU
100
AcDbDimension
  2
*D5
 10
240.7963850304065
 20
71.00149000798706
 30
0.0
 11
174.51879655342
 21
76.00149000798706
 31
0.0
 70
    32
 71
     5
 42
-1.0
  3
STANDARD
100
AcDbAlignedDimension
 13
108.2412080764335
 23
102.3949251201171
 33
0.0
 14
240.7963850304065
 24
102.3949251201171
 34
0.0
100
AcDbRotatedDimension
1001
ACAD
1000
DSTYLE
1002
{
1070
    41
1040
7.0
1070
    42
1040
6.0
1070
    43
1040
14.0
1070
    44
1040
3.0
1070
    73
1070
     0
1070
    74
1070
     0
1070
    77
1070
     3
1070
   140
1040
6.0
1070
   141
1040
150.0
1070
   147
1040
2.0
1070
   172
1070
     1
1070
   173
1070
     1
1070
   176
1070
   256
1070
   177
1070
   256
1070
   178
1070
   256
1070
   271
1070
     0
1070
   272
1070
     0
1070
   341
1005
6D
1070
     6
1000
OPEN
1070
     7
1000
OPEN
1070
   371
1070
    -1
1070
   372
1070
    -1
1002
}
  0
DIMENSION
  5
2977
330
1A
100
AcDbEntity
  8
SUNPOU
100
AcDbDimension
  2
*D6
 10
264.0155167145067
 20
264.8145707570214
 30
0.0
 11
174.5291287145066
 21
269.8145707570214
 31
0.0
 70
    32
 71
     5
 42
-1.0
  3
STANDARD
100
AcDbAlignedDimension
 13
85.04274071450664
 23
201.687406694259
 33
0.0
 14
264.0155167145067
 24
201.687406694259
 34
0.0
100
AcDbRotatedDimension
1001
ACAD
1000
DSTYLE
1002
{
1070
    41
1040
7.0
1070
    42
1040
6.0
1070
    43
1040
14.0
1070
    44
1040
3.0
1070
    73
1070
     0
1070
    74
1070
     0
1070
    77
1070
     3
1070
   140
1040
6.0
1070
   141
1040
150.0
1070
   147
1040
2.0
1070
   172
1070
     1
1070
   173
1070
     1
1070
   176
1070
   256
1070
   177
1070
   256
1070
   178
1070
   256
1070
   271
1070
     0
1070
   272
1070
     0
1070
   341
1005
6D
1070
     6
1000
OPEN
1070
     7
1000
OPEN
1070
   371
1070
    -1
1070
   372
1070
    -1
1002
}
  0
LINE
  5
2978
330
1A
100
AcDbEntity
  8
NOKITOI
  6
PHANTOM
 62
     8
 48
5.0
100
AcDbLine
 10
114.5184860040894
 20
109.4949231201171
 30
0.0
 11
174.5187860040896
 21
109.4949231201171
 31
0.0
  0
LINE
  5
2979
330
1A
100
AcDbEntity
  8
NOKITOI
  6
PHANTOM
 62
     8
 48
5.0
100
AcDbLine
 10
174.5187860040896
 20
110.9949231201171
 30
0.0
 11
117.5958860040895
 21
110.9949231201171
 31
0.0
  0
LINE
  5
297A
330
1A
100
AcDbEntity
  8
SEIHIN
100
AcDbLine
 10
160.3070210040896
 20
112.9949241201171
 30
0.0
 11
121.9635560040897
 21
112.9949241201171
 31
0.0
  0
LINE
  5
297B
330
1A
100
AcDbEntity
  8
SEIHIN
100
AcDbLine
 10
122.3950790040896
 20
113.9949261201172
 30
0.0
 11
164.168981004097
 21
113.9949261201172
 31
0.0
  0
LINE
  5
297C
330
1A
100
AcDbEntity
  8
SEIHIN
100
AcDbLine
 10
115.6633610040896
 20
106.9949241201171
 30
0.0
 11
233.3715277227377
 21
106.9949241201171
 31
0.0
  0
LINE
  5
297D
330
1A
100
AcDbEntity
  8
SEIHIN
100
AcDbLine
 10
233.3742110040898
 20
109.4949231201172
 30
0.0
 11
115.6633610040896
 21
109.4949231201171
 31
0.0
  0
LINE
  5
297E
330
1A
100
AcDbEntity
  8
SEIHIN
100
AcDbLine
 10
165.3746810040897
 20
111.2949231201172
 30
0.0
 11
121.9635560040897
 21
111.2949231201172
 31
0.0
  0
LINE
  5
297F
330
1A
100
AcDbEntity
  8
SEIHIN
100
AcDbLine
 10
233.8057310040897
 20
102.3949251201172
 30
0.0
 11
115.2318380040896
 21
102.3949251201172
 31
0.0
  0
LINE
  5
2980
330
1A
100
AcDbEntity
  8
NOKITOI
  6
PHANTOM
 62
     8
 48
5.0
100
AcDbLine
 10
114.5184860040894
 20
109.4949231201171
 30
0.0
 11
103.2242860040896
 21
197.0229231201171
 31
0.0
  0
LINE
  5
2981
330
1A
100
AcDbEntity
  8
NOKITOI
  6
PHANTOM
 62
     8
 48
5.0
100
AcDbLine
 10
104.4176860040895
 20
199.4950231201172
 30
0.0
 11
115.6123860040895
 21
112.7389231201173
 31
0.0
  0
ARC
  5
2982
330
1A
100
AcDbEntity
  8
SEIHIN
100
AcDbCircle
 10
121.9635590040897
 20
118.2949251201171
 30
0.0
 40
5.2999998
100
AcDbArc
 50
188.4089100000004
 51
270.0
  0
ARC
  5
2983
330
1A
100
AcDbEntity
  8
SEIHIN
100
AcDbCircle
 10
122.3950790040896
 20
118.7949231201172
 30
0.0
 40
4.8
100
AcDbArc
 50
188.4089100000004
 51
270.0
  0
ARC
  5
2984
330
1A
100
AcDbEntity
  8
SEIHIN
100
AcDbCircle
 10
162.5240810040897
 20
165.9949251201171
 30
0.0
 40
58.99999799999999
100
AcDbArc
 50
217.8121000000012
 51
241.8063600000002
  0
LINE
  5
2985
330
1A
100
AcDbEntity
  8
SEIHIN
100
AcDbLine
 10
114.1794860040897
 20
110.7755691201172
 30
0.0
 11
104.168793342837
 21
178.4949231201171
 31
0.0
  0
ARC
  5
2986
330
1A
100
AcDbEntity
  8
SEIHIN
100
AcDbCircle
 10
121.9635590040897
 20
118.2949251201171
 30
0.0
 40
6.9999999
100
AcDbArc
 50
188.4089100000004
 51
270.0
  0
ARC
  5
2987
330
1A
100
AcDbEntity
  8
SEIHIN
100
AcDbCircle
 10
174.5187710040897
 20
180.0949251201171
 30
0.0
 40
68.499999
100
AcDbArc
 50
205.9142499999977
 51
254.7884200000026
  0
ARC
  5
2988
330
1A
100
AcDbEntity
  8
SEIHIN
100
AcDbCircle
 10
174.5187710040897
 20
180.0949251201171
 30
0.0
 40
72.49999800000001
100
AcDbArc
 50
214.1096299999982
 51
245.744709999998
  0
LINE
  5
2989
330
1A
100
AcDbEntity
  8
SEIHIN
100
AcDbLine
 10
102.0742970040896
 20
175.5680421201171
 30
0.0
 11
111.7063610040897
 21
110.4099771201172
 31
0.0
  0
LINE
  5
298A
330
1A
100
AcDbEntity
  8
SEIHIN
100
AcDbLine
 10
107.2189190040896
 20
109.3104051201171
 30
0.0
 11
98.31126200408972
 21
169.5680421201171
 31
0.0
  0
ARC
  5
298E
330
1A
100
AcDbEntity
  8
SEIHIN
100
AcDbCircle
 10
115.2318380040896
 20
110.4949251201171
 30
0.0
 40
8.100000000000001
100
AcDbArc
 50
188.4089100000004
 51
270.0
  0
ARC
  5
298F
330
1A
100
AcDbEntity
  8
NOKITOI
  6
PHANTOM
 62
     8
 48
5.0
100
AcDbCircle
 10
117.5959205416438
 20
112.9947927521561
 30
0.0
 40
1.999969632337102
100
AcDbArc
 50
187.350381706289
 51
269.9990105569258
  0
ARC
  5
2990
330
1A
100
AcDbEntity
  8
SEIHIN
100
AcDbCircle
 10
115.6633580040898
 20
110.9949231201171
 30
0.0
 40
3.9999999
100
AcDbArc
 50
188.4089100000004
 51
270.0
  0
ARC
  5
2991
330
1A
100
AcDbEntity
  8
SEIHIN
100
AcDbCircle
 10
115.6633580040898
 20
110.9949231201171
 30
0.0
 40
1.5
100
AcDbArc
 50
188.4089100000004
 51
270.0
  0
ARC
  5
2992
330
1A
100
AcDbEntity
  8
NOKITOI
  6
PHANTOM
 62
     8
 48
5.0
100
AcDbCircle
 10
95.01858600408969
 20
197.4950231201172
 30
0.0
 40
2.0
100
AcDbArc
 50
90.0
 51
180.0
  0
LINE
  5
2993
330
1A
100
AcDbEntity
  8
NOKITOI
  6
PHANTOM
 62
     8
 48
5.0
100
AcDbLine
 10
93.01848600408959
 20
187.4950231201172
 30
0.0
 11
100.0184860040894
 21
187.4950231201172
 31
0.0
  0
ARC
  5
2994
330
1A
100
AcDbEntity
  8
SEIHIN
100
AcDbCircle
 10
92.60163500408976
 20
200.4827211201171
 30
0.0
 40
1.989999899999999
100
AcDbArc
 50
272.999999999999
 51
0.3513739999994705
  0
LINE
  5
2995
330
1A
100
AcDbEntity
  8
SEIHIN
100
AcDbLine
 10
92.36879600408974
 20
183.4949241201171
 30
0.0
 11
102.1688000040899
 21
183.4949241201171
 31
0.0
  0
LINE
  5
2996
330
1A
100
AcDbEntity
  8
SEIHIN
100
AcDbLine
 10
98.41816400408971
 20
183.4949241201171
 30
0.0
 11
92.36879600408974
 21
189.6834231201172
 31
0.0
  0
LINE
  5
2997
330
1A
100
AcDbEntity
  8
SEIHIN
100
AcDbLine
 10
89.84327600408983
 20
175.9949241201171
 30
0.0
 11
101.5796750040897
 21
175.9949241201171
 31
0.0
  0
LINE
  5
2998
330
1A
100
AcDbEntity
  8
SEIHIN
100
AcDbLine
 10
97.81664000408978
 20
169.9949241201171
 30
0.0
 11
87.15360800408985
 21
169.9949241201171
 31
0.0
  0
LINE
  5
2999
330
1A
100
AcDbEntity
  8
SEIHIN
100
AcDbLine
 10
103.3057550040898
 20
178.4949231201171
 30
0.0
 11
92.36879600408974
 21
178.4949231201171
 31
0.0
  0
LINE
  5
299A
330
1A
100
AcDbEntity
  8
SEIHIN
100
AcDbLine
 10
92.36879600408974
 20
201.4949241201171
 30
0.0
 11
103.8687950040898
 21
201.4949241201171
 31
0.0
  0
LINE
  5
299B
330
1A
100
AcDbEntity
  8
SEIHIN
100
AcDbLine
 10
103.8687950040898
 20
200.4949251201171
 30
0.0
 11
92.36879600408974
 21
200.4949251201171
 31
0.0
  0
LINE
  5
299C
330
1A
100
AcDbEntity
  8
SEIHIN
100
AcDbLine
 10
86.53034568857242
 20
202.9949241201171
 30
0.0
 11
105.8687930040896
 21
202.9949241201171
 31
0.0
  0
LINE
  5
299D
330
1A
100
AcDbEntity
  8
SEIHIN
100
AcDbLine
 10
91.86879800408974
 20
178.9949241201171
 30
0.0
 11
91.86879800408974
 21
202.4949261201172
 31
0.0
  0
LINE
  5
299E
330
1A
100
AcDbEntity
  8
SEIHIN
100
AcDbLine
 10
88.03651400408989
 20
201.4164201201172
 30
0.0
 11
89.34396200408968
 21
176.4687561201171
 31
0.0
  0
LINE
  5
299F
330
1A
100
AcDbEntity
  8
SEIHIN
100
AcDbLine
 10
86.65429400408971
 20
170.4687561201171
 30
0.0
 11
85.03239500408971
 21
201.4164201201172
 31
0.0
  0
ARC
  5
29A0
330
1A
100
AcDbEntity
  8
SEIHIN
100
AcDbCircle
 10
87.15360881399034
 20
170.4949229921981
 30
0.0
 40
0.4999999845805992
100
AcDbArc
 50
182.999873175765
 51
267.7076936378983
  0
ARC
  5
29A1
330
1A
100
AcDbEntity
  8
SEIHIN
100
AcDbCircle
 10
89.84327455683979
 20
176.4949217875979
 30
0.0
 40
0.4999976674830929
100
AcDbArc
 50
182.9997488634719
 51
270.0001658434138
  0
ARC
  5
29A2
330
1A
100
AcDbEntity
  8
SEIHIN
100
AcDbCircle
 10
92.36879600408974
 20
178.9949241201171
 30
0.0
 40
0.4999998000000002
100
AcDbArc
 50
180.0
 51
270.0
  0
LINE
  5
29A3
330
1A
100
AcDbEntity
  8
NOKITOI
  6
PHANTOM
 62
     8
 48
5.0
100
AcDbLine
 10
93.01848600408959
 20
187.4950231201172
 30
0.0
 11
93.01858600408968
 21
197.4950231201172
 31
0.0
  0
ARC
  5
29A4
330
1A
100
AcDbEntity
  8
SEIHIN
100
AcDbCircle
 10
92.36879704204103
 20
183.9949231580712
 30
0.0
 40
0.4999990379551334
100
AcDbArc
 50
179.9997751656654
 51
269.9998810593168
  0
ARC
  5
29A5
330
1A
100
AcDbEntity
  8
SEIHIN
100
AcDbCircle
 10
86.53034568857242
 20
201.4949171985342
 30
0.0
 40
1.500006921593922
100
AcDbArc
 50
90.00021713028692
 51
172.6271461628602
  0
ARC
  5
29A6
330
1A
100
AcDbEntity
  8
SEIHIN
100
AcDbCircle
 10
86.53034568857242
 20
201.4949171985338
 30
0.0
 40
1.50000692159403
100
AcDbArc
 50
90.00021713024134
 51
182.9540550496794
  0
ARC
  5
29A7
330
1A
100
AcDbEntity
  8
SEIHIN
100
AcDbCircle
 10
89.53445645560941
 20
201.4949272785409
 30
0.0
 40
1.499998133178694
100
AcDbArc
 50
90.07518942474169
 51
172.6081778000826
  0
ARC
  5
29A8
330
1A
100
AcDbEntity
  8
SEIHIN
100
AcDbCircle
 10
92.36880587334212
 20
200.9949114584467
 30
0.0
 40
0.5000126617678675
100
AcDbArc
 50
90.00113090434966
 51
169.9990256135123
  0
LINE
  5
29A9
330
1A
100
AcDbEntity
  8
SEIHIN
100
AcDbLine
 10
92.70578355177963
 20
198.4954484458185
 30
0.0
 11
92.70578355177963
 21
198.4954484458185
 31
0.0
  0
LINE
  5
29AA
330
1A
100
AcDbEntity
  8
SEIHIN
100
AcDbLine
 10
92.59098200408971
 20
200.4949251201171
 30
0.0
 11
92.69579600408974
 21
198.4949241201171
 31
0.0
  0
ARC
  5
29AB
330
1A
100
AcDbEntity
  8
SEIHIN
100
AcDbCircle
 10
92.36880587334189
 20
199.9949124584467
 30
0.0
 40
0.5000126617678675
100
AcDbArc
 50
90.00113090434966
 51
169.9990256135123
  0
ARC
  5
29AC
330
1A
100
AcDbEntity
  8
SEIHIN
100
AcDbCircle
 10
91.36879252123526
 20
202.4949186372091
 30
0.0
 40
0.5000054829102499
100
AcDbArc
 50
0.0008574686992966
 51
89.99983007925555
  0
ARC
  5
29AD
330
1A
100
AcDbEntity
  8
SEIHIN
100
AcDbCircle
 10
89.53445468428299
 20
201.4949287790971
 30
0.0
 40
1.499996630300277
100
AcDbArc
 50
90.07512184009536
 51
183.0001874606857
  0
LINE
  5
29AE
330
1A
100
AcDbEntity
  8
SEIHIN
100
AcDbLine
 10
92.86879700408963
 20
202.9949241201171
 30
0.0
 11
92.86879700408986
 21
201.4949241201171
 31
0.0
  0
LINE
  5
29AF
330
1A
100
AcDbEntity
  8
SEIHIN
100
AcDbLine
 10
108.7546514526359
 20
178.2449639708195
 30
0.0
 11
117.6466820040898
 21
118.0929891201171
 31
0.0
  0
LINE
  5
29B0
330
1A
100
AcDbEntity
  8
SEIHIN
100
AcDbLine
 10
116.7205370040896
 20
117.5198661201171
 30
0.0
 11
108.5143250040896
 21
173.0324571201172
 31
0.0
  0
LINE
  5
29B1
330
1A
100
AcDbEntity
  8
SEIHIN
100
AcDbLine
 10
115.0388090040896
 20
117.2712651201172
 30
0.0
 11
106.0157780040897
 21
178.3094391201171
 31
0.0
  0
ARC
  5
29B2
330
1A
100
AcDbEntity
  8
SEIHIN
100
AcDbCircle
 10
102.1687970040898
 20
181.4949231201171
 30
0.0
 40
1.999999799999999
100
AcDbArc
 50
0.0
 51
90.0
  0
ARC
  5
29B3
330
1A
100
AcDbEntity
  8
SEIHIN
100
AcDbCircle
 10
97.8166370087265
 20
169.4949204941594
 30
0.0
 40
0.5000036259666184
100
AcDbArc
 50
8.409218357353971
 51
89.99965675914076
  0
ARC
  5
29B4
330
1A
100
AcDbEntity
  8
SEIHIN
100
AcDbCircle
 10
101.5796752210442
 20
175.4949276923139
 30
0.0
 40
0.4999964278032865
100
AcDbArc
 50
8.408506479393787
 51
90.00002486133075
  0
ARC
  5
29B5
330
1A
100
AcDbEntity
  8
SEIHIN
100
AcDbCircle
 10
108.6621435242477
 20
175.4866396504764
 30
0.0
 40
0.4955408368154823
100
AcDbArc
 50
19.09126848833396
 51
90.66490570696453
  0
ARC
  5
29B6
330
1A
100
AcDbEntity
  8
SEIHIN
100
AcDbCircle
 10
108.244422849465
 20
178.1697314655172
 30
0.0
 40
0.5157420149785351
100
AcDbArc
 50
8.391746040659246
 51
39.08935630979957
  0
LINE
  5
29B7
330
1A
100
AcDbEntity
  8
SEIHIN
100
AcDbLine
 10
104.4231560040886
 20
178.2938091201172
 30
0.0
 11
104.7016490040896
 21
178.3094391201171
 31
0.0
  0
ARC
  5
29B8
330
1A
100
AcDbEntity
  8
SEIHIN
100
AcDbCircle
 10
104.4327048581944
 20
177.8707427870804
 30
0.0
 40
0.4231740809216324
100
AcDbArc
 50
91.29297965883639
 51
120.6521939766135
  0
LINE
  5
29B9
330
1A
100
AcDbEntity
  8
SEIHIN
100
AcDbLine
 10
106.7958890040897
 20
176.4534381201172
 30
0.0
 11
106.0157780040897
 21
178.3094391201171
 31
0.0
  0
LINE
  5
29BA
330
1A
100
AcDbEntity
  8
SEIHIN
100
AcDbLine
 10
107.4826070040894
 20
175.9821471201174
 30
0.0
 11
106.7958890040897
 21
176.4534381201172
 31
0.0
  0
ARC
  5
29BB
330
1A
100
AcDbEntity
  8
SEIHIN
100
AcDbCircle
 10
106.4141195604136
 20
174.7673123644294
 30
0.0
 40
1.617865538578666
100
AcDbArc
 50
14.39115034338093
 51
48.66730084996479
  0
ARC
  5
29BC
330
1A
100
AcDbEntity
  8
SEIHIN
100
AcDbCircle
 10
98.42451317225277
 20
171.6503352263971
 30
0.0
 40
10.18403474714101
100
AcDbArc
 50
7.799942012183238
 51
20.21530559325279
  0
ARC
  5
29BD
330
1A
100
AcDbEntity
  8
SEIHIN
100
AcDbCircle
 10
103.3057550040898
 20
177.4949241201171
 30
0.0
 40
0.9999998999999998
100
AcDbArc
 50
8.408911700000208
 51
90.0
  0
LINE
  5
29BE
330
1A
100
AcDbEntity
  8
SEIHIN
100
AcDbLine
 10
104.7016490040896
 20
178.3094391201171
 30
0.0
 11
106.0157780040897
 21
178.3094391201171
 31
0.0
  0
LINE
  5
29BF
330
1A
100
AcDbEntity
  8
SEIHIN
100
AcDbLine
 10
108.6447230040898
 20
178.4949231201171
 30
0.0
 11
104.1687980040896
 21
178.4949231201171
 31
0.0
  0
LINE
  5
29C0
330
1A
100
AcDbEntity
  8
SEIHIN
100
AcDbLine
 10
104.1687980040896
 20
181.4949261201172
 30
0.0
 11
104.1687980040899
 21
178.4949231201171
 31
0.0
  0
LINE
  5
29C1
330
1A
100
AcDbEntity
  8
SEIHIN
100
AcDbLine
 10
109.2090440040897
 20
173.0604381201171
 30
0.0
 11
109.2945620040898
 21
173.0730801201171
 31
0.0
  0
LINE
  5
29C2
330
1A
100
AcDbEntity
  8
SEIHIN
100
AcDbLine
 10
107.4826070040896
 20
175.9821471201172
 30
0.0
 11
108.6563930040897
 21
175.9821471201172
 31
0.0
  0
LINE
  5
29C3
330
1A
100
AcDbEntity
  8
SEIHIN
100
AcDbLine
 10
109.0197590040897
 20
173.0324571201172
 30
0.0
 11
108.5143250040896
 21
173.0324571201172
 31
0.0
  0
LINE
  5
29C4
330
1A
100
AcDbEntity
  8
NOKITOI
  6
PHANTOM
 62
     8
 48
5.0
100
AcDbLine
 10
100.0184860040894
 20
187.4950231201172
 30
0.0
 11
100.0185860040896
 21
196.8950231201171
 31
0.0
  0
LINE
  5
29C5
330
1A
100
AcDbEntity
  8
NOKITOI
  6
PHANTOM
 62
     8
 48
5.0
100
AcDbLine
 10
94.61848600408961
 20
189.0950231201172
 30
0.0
 11
94.61858600408948
 21
197.4950231201172
 31
0.0
  0
LINE
  5
29C6
330
1A
100
AcDbEntity
  8
NOKITOI
  6
PHANTOM
 62
     8
 48
5.0
100
AcDbLine
 10
98.41858600408954
 20
197.8949231201171
 30
0.0
 11
98.41848600408958
 21
189.0950231201172
 31
0.0
  0
LINE
  5
29C7
330
1A
100
AcDbEntity
  8
NOKITOI
  6
PHANTOM
 62
     8
 48
5.0
100
AcDbLine
 10
94.61848600408961
 20
189.0950231201172
 30
0.0
 11
98.41848600408958
 21
189.0950231201172
 31
0.0
  0
LINE
  5
29C8
330
1A
100
AcDbEntity
  8
NOKITOI
  6
PHANTOM
 62
     8
 48
5.0
100
AcDbLine
 10
101.0185860040896
 20
197.8950231201172
 30
0.0
 11
102.2324860040896
 21
197.8949231201171
 31
0.0
  0
LINE
  5
29C9
330
1A
100
AcDbEntity
  8
NOKITOI
  6
PHANTOM
 62
     8
 48
5.0
100
AcDbLine
 10
104.4176860040895
 20
199.4950231201172
 30
0.0
 11
95.01858600408969
 21
199.4950231201172
 31
0.0
  0
ARC
  5
29CA
330
1A
100
AcDbEntity
  8
NOKITOI
  6
PHANTOM
 62
     8
 48
5.0
100
AcDbCircle
 10
101.0185860040896
 20
196.8950231201172
 30
0.0
 40
1.000000000000056
100
AcDbArc
 50
90.0
 51
180.0000000000032
  0
ARC
  5
29CB
330
1A
100
AcDbEntity
  8
NOKITOI
  6
PHANTOM
 62
     8
 48
5.0
100
AcDbCircle
 10
95.01853600408947
 20
197.4949731201171
 30
0.0
 40
0.3999500031254089
100
AcDbArc
 50
89.99283713222224
 51
179.9928371322222
  0
LINE
  5
29CC
330
1A
100
AcDbEntity
  8
NOKITOI
  6
PHANTOM
 62
     8
 48
5.0
100
AcDbLine
 10
98.41858600408954
 20
197.8949231201171
 30
0.0
 11
95.01858600408969
 21
197.8949231201171
 31
0.0
  0
ARC
  5
29CD
330
1A
100
AcDbEntity
  8
NOKITOI
  6
PHANTOM
 62
     8
 48
5.0
100
AcDbCircle
 10
102.232500573381
 20
196.8949103102812
 30
0.0
 40
1.000012809941982
100
AcDbArc
 50
7.354680514042056
 51
90.00083474820938
  0
ARC
  5
29CE
330
1A
100
AcDbEntity
  8
SEIHIN
100
AcDbCircle
 10
103.8687955943021
 20
199.9949247103297
 30
0.0
 40
0.5000004097877949
100
AcDbArc
 50
359.9999323666757
 51
90.00006763329169
  0
ARC
  5
29CF
330
1A
100
AcDbEntity
  8
SEIHIN
100
AcDbCircle
 10
103.8624214579424
 20
200.988577212878
 30
0.0
 40
0.5063870185552201
100
AcDbArc
 50
359.5978645194414
 51
89.27883827250999
  0
LINE
  5
29D0
330
1A
100
AcDbEntity
  8
SEIHIN
100
AcDbLine
 10
104.3687960040897
 20
200.9850231201172
 30
0.0
 11
104.3687960040897
 21
196.9949241201171
 31
0.0
  0
ARC
  5
29D1
330
1A
100
AcDbEntity
  8
SEIHIN
100
AcDbCircle
 10
105.8687960040897
 20
202.4949231201171
 30
0.0
 40
0.4999998000000002
100
AcDbArc
 50
0.0
 51
90.0
  0
ARC
  5
29D2
330
1A
100
AcDbEntity
  8
SEIHIN
100
AcDbCircle
 10
105.8687960040897
 20
197.4949251201171
 30
0.0
 40
0.4999998000000002
100
AcDbArc
 50
270.0
 51
0.0
  0
LINE
  5
29D3
330
1A
100
AcDbEntity
  8
SEIHIN
100
AcDbLine
 10
105.8687930040896
 20
196.9949241201171
 30
0.0
 11
104.3687960040897
 21
196.9949241201171
 31
0.0
  0
LINE
  5
29D4
330
1A
100
AcDbEntity
  8
SEIHIN
100
AcDbLine
 10
106.3687970040898
 20
202.4949261201172
 30
0.0
 11
106.3687970040898
 21
197.4949251201171
 31
0.0
  0
DIMENSION
  5
29D5
330
1A
100
AcDbEntity
  8
SUNPOU
100
AcDbDimension
  2
*D7
 10
313.8078156677738
 20
102.3949251201171
 30
0.0
 11
308.8078156677738
 21
152.7479556201171
 31
0.0
 70
    32
 71
     5
 42
-1.0
  3
STANDARD
100
AcDbAlignedDimension
 13
263.1398210040897
 23
203.1009861201171
 33
0.0
 14
233.8057310040897
 24
102.3949251201171
 34
0.0
 50
90.0
100
AcDbRotatedDimension
1001
ACAD
1000
DSTYLE
1002
{
1070
    41
1040
7.0
1070
    42
1040
6.0
1070
    43
1040
14.0
1070
    44
1040
3.0
1070
    73
1070
     0
1070
    74
1070
     0
1070
    77
1070
     3
1070
   140
1040
6.0
1070
   141
1040
150.0
1070
   147
1040
2.0
1070
   172
1070
     1
1070
   173
1070
     1
1070
   176
1070
   256
1070
   177
1070
   256
1070
   178
1070
   256
1070
   271
1070
     0
1070
   272
1070
     0
1070
   341
1005
6D
1070
     6
1000
OPEN
1070
     7
1000
OPEN
1070
   371
1070
    -1
1070
   372
1070
    -1
1002
}
  0
LINE
  5
29D6
330
1A
100
AcDbEntity
  8
NOKITOI
  6
PHANTOM
 62
     8
 48
5.0
100
AcDbLine
 10
244.6196860040895
 20
199.4948231201171
 30
0.0
 11
233.4247860040895
 21
112.7388231201172
 31
0.0
  0
LINE
  5
29D7
330
1A
100
AcDbEntity
  8
NOKITOI
  6
PHANTOM
 62
     8
 48
5.0
100
AcDbLine
 10
234.5185860040897
 20
109.4947231201172
 30
0.0
 11
245.8131860040896
 21
197.0228231201172
 31
0.0
  0
LINE
  5
29D8
330
1A
100
AcDbEntity
  8
CENTER L
 48
5.0
100
AcDbLine
 10
174.5187860040896
 20
95.39492512011713
 30
0.0
 11
174.5187860040896
 21
118.5949261201189
 31
0.0
  0
LINE
  5
29D9
330
1A
100
AcDbEntity
  8
SEIHIN
100
AcDbLine
 10
162.2830310040897
 20
113.4949251201018
 30
0.0
 11
162.2830310040935
 21
112.5886221201135
 31
0.0
  0
LINE
  5
29DA
330
1A
100
AcDbEntity
  8
SEIHIN
100
AcDbLine
 10
160.3070210040896
 20
113.9949261201172
 30
0.0
 11
160.3070210040896
 21
112.9949241201171
 31
0.0
  0
ARC
  5
29DB
330
1A
100
AcDbEntity
  8
SEIHIN
100
AcDbCircle
 10
227.0740310040896
 20
118.2949251201171
 30
0.0
 40
5.2999998
100
AcDbArc
 50
270.0
 51
351.5910799999995
  0
ARC
  5
29DC
330
1A
100
AcDbEntity
  8
SEIHIN
100
AcDbCircle
 10
226.6425110040898
 20
118.7949231201172
 30
0.0
 40
4.8
100
AcDbArc
 50
270.0
 51
351.5910799999995
  0
ARC
  5
29DD
330
1A
100
AcDbEntity
  8
SEIHIN
100
AcDbCircle
 10
186.5134910040897
 20
165.9949251201171
 30
0.0
 40
58.99999799999999
100
AcDbArc
 50
298.1936299999967
 51
322.1878899999988
  0
LINE
  5
29DE
330
1A
100
AcDbEntity
  8
SEIHIN
100
AcDbLine
 10
184.5187910040897
 20
112.2949251201171
 30
0.0
 11
184.5187910040897
 21
113.8562331201171
 31
0.0
  0
LINE
  5
29DF
330
1A
100
AcDbEntity
  8
SEIHIN
100
AcDbLine
 10
164.5187810040897
 20
112.2949251201171
 30
0.0
 11
164.5187810040897
 21
113.8562331201172
 31
0.0
  0
LINE
  5
29E0
330
1A
100
AcDbEntity
  8
SEIHIN
100
AcDbLine
 10
237.3312110040897
 20
110.4099771201172
 30
0.0
 11
246.9632810040898
 21
175.5680421201171
 31
0.0
  0
LINE
  5
29E1
330
1A
100
AcDbEntity
  8
SEIHIN
100
AcDbLine
 10
244.7425610040895
 20
177.6411591201172
 30
0.0
 11
234.8581010040898
 21
110.7755691201172
 31
0.0
  0
ARC
  5
29E2
330
1A
100
AcDbEntity
  8
SEIHIN
100
AcDbCircle
 10
227.0740310040896
 20
118.2949251201171
 30
0.0
 40
6.9999999
100
AcDbArc
 50
270.0
 51
351.5910799999995
  0
LINE
  5
29E3
330
1A
100
AcDbEntity
  8
SEIHIN
100
AcDbLine
 10
250.7263010040897
 20
169.5680421201171
 30
0.0
 11
241.8186710040897
 21
109.3104051201171
 31
0.0
  0
ARC
  5
29E4
330
1A
100
AcDbEntity
  8
SEIHIN
100
AcDbCircle
 10
174.5187710040897
 20
180.0949251201171
 30
0.0
 40
68.499999
100
AcDbArc
 50
285.2115700000009
 51
334.0857399999977
  0
ARC
  5
29E5
330
1A
100
AcDbEntity
  8
SEIHIN
100
AcDbCircle
 10
174.5187710040897
 20
180.0949251201171
 30
0.0
 40
72.49999800000001
100
AcDbArc
 50
294.2552800000025
 51
325.8903600000024
  0
LINE
  5
29E6
330
1A
100
AcDbEntity
  8
SEIHIN
100
AcDbLine
 10
415.6136210040899
 20
106.9993622373898
 30
0.0
 11
415.6136210040899
 21
202.9949241201172
 31
0.0
  0
LINE
  5
29E7
330
1A
100
AcDbEntity
  8
SEIHIN
100
AcDbLine
 10
405.6136310040899
 20
202.4949261201172
 30
0.0
 11
405.6136310040899
 21
107.4949281201171
 31
0.0
  0
LINE
  5
29E8
330
1A
100
AcDbEntity
  8
SEIHIN
100
AcDbLine
 10
395.6136410040897
 20
107.4949281201172
 30
0.0
 11
395.6136410040897
 21
202.4949261201172
 31
0.0
  0
LINE
  5
29ED
330
1A
100
AcDbEntity
  8
NOKITOI
  6
PHANTOM
 62
     8
 48
5.0
100
AcDbLine
 10
234.5185860040897
 20
109.4947231201172
 30
0.0
 11
174.5182860040895
 21
109.4949231201171
 31
0.0
  0
LINE
  5
29EE
330
1A
100
AcDbEntity
  8
NOKITOI
  6
PHANTOM
 62
     8
 48
5.0
100
AcDbLine
 10
174.5182860040895
 20
110.9949231201171
 30
0.0
 11
231.4411860040895
 21
110.9947231201172
 31
0.0
  0
LINE
  5
29EF
330
1A
100
AcDbEntity
  8
SEIHIN
100
AcDbLine
 10
183.5187710040893
 20
111.2949231201171
 30
0.0
 11
227.0740310040896
 21
111.2949252201171
 31
0.0
  0
LINE
  5
29F0
330
1A
100
AcDbEntity
  8
SEIHIN
100
AcDbLine
 10
227.0740310040896
 20
112.9949241201171
 30
0.0
 11
188.7305510040896
 21
112.9949241201171
 31
0.0
  0
LINE
  5
29F1
330
1A
100
AcDbEntity
  8
SEIHIN
100
AcDbLine
 10
183.6628910040897
 20
111.2949231201172
 30
0.0
 11
165.3746810040897
 21
111.2949231201172
 31
0.0
  0
ARC
  5
29F2
330
1A
100
AcDbEntity
  8
SEIHIN
100
AcDbCircle
 10
174.5187710040897
 20
180.0949251201171
 30
0.0
 40
68.499999
100
AcDbArc
 50
261.6056500000011
 51
278.3943399999973
  0
ARC
  5
29F3
330
1A
100
AcDbEntity
  8
SEIHIN
100
AcDbCircle
 10
167.7637269321487
 20
128.6612087122737
 30
0.0
 40
17.54373528394229
100
AcDbArc
 50
254.0219563909135
 51
261.6491401934049
  0
ARC
  5
29F4
330
1A
100
AcDbEntity
  8
SEIHIN
100
AcDbCircle
 10
164.3486035916123
 20
113.5601527241087
 30
0.0
 40
2.261564350529677
100
AcDbArc
 50
214.0176303657724
 51
231.2968807733593
  0
ARC
  5
29F5
330
1A
100
AcDbEntity
  8
SEIHIN
100
AcDbCircle
 10
161.7047679052971
 20
112.0035004229331
 30
0.0
 40
0.8226515738396766
100
AcDbArc
 50
20.74751371008891
 51
64.91578284455707
  0
ARC
  5
29F6
330
1A
100
AcDbEntity
  8
SEIHIN
100
AcDbCircle
 10
160.4859493983804
 20
107.9494825511239
 30
0.0
 40
5.048613274594154
100
AcDbArc
 50
71.91078762238491
 51
92.03105063873731
  0
ARC
  5
29F7
330
1A
100
AcDbEntity
  8
SEIHIN
100
AcDbCircle
 10
165.5187802570676
 20
112.2949223730561
 30
0.0
 40
0.9999992529816596
100
AcDbArc
 50
179.9998426048799
 51
269.9994698430232
  0
ARC
  5
29F8
330
1A
100
AcDbEntity
  8
SEIHIN
100
AcDbCircle
 10
182.2747039833752
 20
124.6457230456785
 30
0.0
 40
13.408637567046
100
AcDbArc
 50
275.3236172624947
 51
286.5897236376728
  0
ARC
  5
29F9
330
1A
100
AcDbEntity
  8
SEIHIN
100
AcDbCircle
 10
183.5187671486746
 20
112.2949469757637
 30
0.0
 40
1.000023855653964
100
AcDbArc
 50
270.0002208937447
 51
359.9987477935653
  0
ARC
  5
29FA
330
1A
100
AcDbEntity
  8
SEIHIN
100
AcDbCircle
 10
188.6723196144307
 20
106.2682583347135
 30
0.0
 40
6.726917829382385
100
AcDbArc
 50
89.50401437665687
 51
100.6417086518247
  0
ARC
  5
29FB
330
1A
100
AcDbEntity
  8
SEIHIN
100
AcDbCircle
 10
187.5266305975212
 20
111.725234903822
 30
0.0
 40
1.158277234440608
100
AcDbArc
 50
94.78150681439606
 51
131.8059860119535
  0
ARC
  5
29FC
330
1A
100
AcDbEntity
  8
SEIHIN
100
AcDbCircle
 10
184.4221468325931
 20
113.8395188940669
 30
0.0
 40
2.646632835804283
100
AcDbArc
 50
309.4292979069676
 51
331.7943893033238
  0
ARC
  5
29FD
330
1A
100
AcDbEntity
  8
SEIHIN
100
AcDbCircle
 10
233.8057310040897
 20
110.4949251201171
 30
0.0
 40
8.100000000000001
100
AcDbArc
 50
270.0
 51
351.5910799999995
  0
ARC
  5
29FE
330
1A
100
AcDbEntity
  8
NOKITOI
  6
PHANTOM
 62
     8
 48
5.0
100
AcDbCircle
 10
231.441215142672
 20
112.9947487397889
 30
0.0
 40
2.000025619884049
100
AcDbArc
 50
269.9991652517971
 51
352.6453194859612
  0
ARC
  5
29FF
330
1A
100
AcDbEntity
  8
SEIHIN
100
AcDbCircle
 10
233.3742110040898
 20
110.9949231201171
 30
0.0
 40
1.5
100
AcDbArc
 50
270.0
 51
351.5910799999995
  0
ARC
  5
2A00
330
1A
100
AcDbEntity
  8
SEIHIN
100
AcDbCircle
 10
233.3742110040898
 20
110.9949231201171
 30
0.0
 40
3.9999999
100
AcDbArc
 50
267.0404899999971
 51
351.5910799999995
  0
LINE
  5
2A01
330
1A
100
AcDbEntity
  8
SEIHIN
100
AcDbLine
 10
395.6136410040899
 20
107.4949281201171
 30
0.0
 11
405.6136310040899
 21
106.9949241201171
 31
0.0
  0
LINE
  5
2A02
330
1A
100
AcDbEntity
  8
SEIHIN
100
AcDbLine
 10
405.6136310040899
 20
107.4949281201171
 30
0.0
 11
395.6136410040899
 21
107.4949281201171
 31
0.0
  0
LINE
  5
2A03
330
1A
100
AcDbEntity
  8
SEIHIN
100
AcDbLine
 10
405.6136310040899
 20
109.4949231201171
 30
0.0
 11
395.6136410040899
 21
109.4949231201171
 31
0.0
  0
LINE
  5
2A04
330
1A
100
AcDbEntity
  8
SEIHIN
100
AcDbLine
 10
405.6136310040899
 20
107.4949281201171
 30
0.0
 11
415.6136210040899
 21
106.9993622373898
 31
0.0
  0
LINE
  5
2A05
330
1A
100
AcDbEntity
  8
SEIHIN
100
AcDbLine
 10
405.6136310040899
 20
106.9949241201171
 30
0.0
 11
415.7569610040898
 21
106.9949241201171
 31
0.0
  0
DIMENSION
  5
2A06
330
1A
100
AcDbEntity
  8
SUNPOU
100
AcDbDimension
  2
*D8
 10
298.8163104263158
 20
169.9009881201171
 30
0.0
 11
293.8163104263157
 21
186.4479561201171
 31
0.0
 70
    32
 71
     5
 42
-1.0
  3
STANDARD
100
AcDbAlignedDimension
 13
262.507225116233
 23
202.9949241201172
 33
0.0
 14
261.9791810040897
 24
169.9009881201171
 34
0.0
 50
90.0
100
AcDbRotatedDimension
1001
ACAD
1000
DSTYLE
1002
{
1070
    41
1040
7.0
1070
    42
1040
6.0
1070
    43
1040
14.0
1070
    44
1040
3.0
1070
    73
1070
     0
1070
    74
1070
     0
1070
    77
1070
     3
1070
   140
1040
6.0
1070
   141
1040
150.0
1070
   147
1040
2.0
1070
   172
1070
     1
1070
   173
1070
     1
1070
   176
1070
   256
1070
   177
1070
   256
1070
   178
1070
   256
1070
   271
1070
     0
1070
   272
1070
     0
1070
   341
1005
6D
1070
     6
1000
OPEN
1070
     7
1000
OPEN
1070
   371
1070
    -1
1070
   372
1070
    -1
1002
}
  0
ARC
  5
2A07
330
1A
100
AcDbEntity
  8
STOPPER
100
AcDbCircle
 10
259.5465710040898
 20
205.6002921201172
 30
0.0
 40
2.4993033
100
AcDbArc
 50
348.476069999999
 51
191.5239199999986
  0
LINE
  5
2A08
330
1A
100
AcDbEntity
  8
SEIHIN
100
AcDbLine
 10
184.8038327678116
 20
113.9949261201172
 30
0.0
 11
226.6425110040898
 21
113.9949261201172
 31
0.0
  0
ARC
  5
2A09
330
1A
100
AcDbEntity
  8
SEIHIN
100
AcDbCircle
 10
161.7851872563983
 20
113.4970924162895
 30
0.0
 40
0.4978484651861076
100
AcDbArc
 50
359.7505720625115
 51
89.55878194109706
  0
ARC
  5
2A0A
330
1A
100
AcDbEntity
  8
SEIHIN
100
AcDbCircle
 10
164.1694466038202
 20
113.4856356199562
 30
0.0
 40
0.5092907129894411
100
AcDbArc
 50
46.69173199179768
 51
90.05238050200674
  0
ARC
  5
2A0B
330
1A
100
AcDbEntity
  8
SEIHIN
100
AcDbCircle
 10
184.8988735995353
 20
113.4373429403065
 30
0.0
 40
0.5656251073834296
100
AcDbArc
 50
99.67318011060926
 51
132.2192235454808
  0
ARC
  5
2A0C
330
1A
100
AcDbEntity
  8
STOPPER
100
AcDbCircle
 10
278.9829710040899
 20
166.9009881201171
 30
0.0
 40
27.0
100
AcDbArc
 50
182.4918999999993
 51
214.4867200000007
  0
ARC
  5
2A0D
330
1A
100
AcDbEntity
  8
STOPPER
100
AcDbCircle
 10
278.9829710040899
 20
166.9009881201171
 30
0.0
 40
24.9999999
100
AcDbArc
 50
182.4918999999993
 51
234.2523999999979
  0
LINE
  5
2A0E
330
1A
100
AcDbEntity
  8
SEIHIN
100
AcDbLine
 10
231.3909110040897
 20
118.0929891201171
 30
0.0
 11
239.5231910040897
 21
173.1055761201172
 31
0.0
  0
LINE
  5
2A0F
330
1A
100
AcDbEntity
  8
SEIHIN
100
AcDbLine
 10
240.5232410040898
 20
173.0324571201172
 30
0.0
 11
232.3170410040897
 21
117.5198661201171
 31
0.0
  0
LINE
  5
2A10
330
1A
100
AcDbEntity
  8
SEIHIN
100
AcDbLine
 10
243.0217910040896
 20
178.3094391201171
 30
0.0
 11
233.9987510040898
 21
117.2712651201172
 31
0.0
  0
ARC
  5
2A11
330
1A
100
AcDbEntity
  8
STOPPER
100
AcDbCircle
 10
257.8057910040897
 20
149.3574201201172
 30
0.0
 40
2.4999999
100
AcDbArc
 50
115.5376999999993
 51
323.7402299999998
  0
ARC
  5
2A12
330
1A
100
AcDbEntity
  8
STOPPER
100
AcDbCircle
 10
263.7933710040897
 20
145.7994261201172
 30
0.0
 40
0.9999998999999998
100
AcDbArc
 50
326.4566300000026
 51
54.25240799999873
  0
ARC
  5
2A13
330
1A
100
AcDbEntity
  8
STOPPER
100
AcDbCircle
 10
263.7933710040897
 20
145.7994261201172
 30
0.0
 40
0.9999998999999998
100
AcDbArc
 50
234.2523999999979
 51
326.4566300000026
  0
ARC
  5
2A14
330
1A
100
AcDbEntity
  8
STOPPER
100
AcDbCircle
 10
278.9829710040899
 20
166.9009881201171
 30
0.0
 40
27.0
100
AcDbArc
 50
224.7912100000006
 51
234.2523999999979
  0
ARC
  5
2A15
330
1A
100
AcDbEntity
  8
SEIHIN
100
AcDbCircle
 10
257.668791116082
 20
202.4949040077379
 30
0.0
 40
0.5000201124813363
100
AcDbArc
 50
90.00115870234468
 51
179.9974662099128
  0
LINE
  5
2A16
330
1A
100
AcDbEntity
  8
STOPPER
100
AcDbLine
 10
263.1398210040897
 20
203.1009861201171
 30
0.0
 11
255.4292510040898
 21
203.1009861201171
 31
0.0
  0
LINE
  5
2A17
330
1A
100
AcDbEntity
  8
SEIHIN
100
AcDbLine
 10
243.1687910040898
 20
202.9949241201171
 30
0.0
 11
262.507225116233
 21
202.9949241201171
 31
0.0
  0
LINE
  5
2A18
330
1A
100
AcDbEntity
  8
SEIHIN
100
AcDbLine
 10
247.4579210040896
 20
175.9949241201171
 30
0.0
 11
259.1943110040897
 21
175.9949241201171
 31
0.0
  0
LINE
  5
2A19
330
1A
100
AcDbEntity
  8
SEIHIN
100
AcDbLine
 10
261.8839610040897
 20
169.9949241201171
 30
0.0
 11
251.2209410040898
 21
169.9949241201171
 31
0.0
  0
LINE
  5
2A1A
330
1A
100
AcDbEntity
  8
STOPPER
100
AcDbLine
 10
256.0047110040895
 20
169.9009881201171
 30
0.0
 11
261.9791810040897
 21
169.9009881201171
 31
0.0
  0
ARC
  5
2A1B
330
1A
100
AcDbEntity
  8
STOPPER
100
AcDbCircle
 10
258.8727410040896
 20
167.4009891201171
 30
0.0
 40
2.4999999
100
AcDbArc
 50
168.4630399999989
 51
11.53695899999897
  0
LINE
  5
2A1C
330
1A
100
AcDbEntity
  8
SEIHIN
100
AcDbLine
 10
257.1687710040896
 20
202.4949261201172
 30
0.0
 11
257.1687710040896
 21
178.9949241201171
 31
0.0
  0
ARC
  5
2A1D
330
1A
100
AcDbEntity
  8
SEIHIN
100
AcDbCircle
 10
246.8687810040896
 20
181.4949231201171
 30
0.0
 40
1.999999799999999
100
AcDbArc
 50
90.0
 51
180.0
  0
ARC
  5
2A1E
330
1A
100
AcDbEntity
  8
SEIHIN
100
AcDbCircle
 10
248.8059196325104
 20
172.0735293976905
 30
0.0
 40
8.33800381617412
100
AcDbArc
 50
155.4174123446951
 51
173.3959786899312
  0
LINE
  5
2A1F
330
1A
100
AcDbEntity
  8
SEIHIN
100
AcDbLine
 10
256.6687910040895
 20
178.4949231201171
 30
0.0
 11
240.3928610040898
 21
178.4949231201171
 31
0.0
  0
LINE
  5
2A20
330
1A
100
AcDbEntity
  8
SEIHIN
100
AcDbLine
 10
240.3811910040897
 20
175.9821471201172
 30
0.0
 11
241.5549710040898
 21
175.9821471201172
 31
0.0
  0
ARC
  5
2A21
330
1A
100
AcDbEntity
  8
SEIHIN
100
AcDbCircle
 10
240.2705360040522
 20
176.4516171204172
 30
0.0
 40
3.428485806395817
100
AcDbArc
 50
257.4095209358231
 51
274.2269599768268
  0
ARC
  5
2A22
330
1A
100
AcDbEntity
  8
SEIHIN
100
AcDbCircle
 10
240.7920905117975
 20
178.1702023507018
 30
0.0
 40
0.5146142029852508
100
AcDbArc
 50
140.8761744440747
 51
171.642723205295
  0
LINE
  5
2A23
330
1A
100
AcDbEntity
  8
SEIHIN
100
AcDbLine
 10
239.5327010040896
 20
173.1041721201172
 30
0.0
 11
240.2829410040897
 21
178.2449991201171
 31
0.0
  0
ARC
  5
2A24
330
1A
100
AcDbEntity
  8
SEIHIN
100
AcDbCircle
 10
240.385989739743
 20
175.4621513708205
 30
0.0
 40
0.521081593527499
100
AcDbArc
 50
100.331091334027
 51
184.0055592984911
  0
ARC
  5
2A25
330
1A
100
AcDbEntity
  8
SEIHIN
100
AcDbCircle
 10
251.2209297864126
 20
169.4949167634905
 30
0.0
 40
0.5000049500595419
100
AcDbArc
 50
92.61228117824813
 51
171.5903719276551
  0
ARC
  5
2A26
330
1A
100
AcDbEntity
  8
STOPPER
100
AcDbCircle
 10
256.0047110040895
 20
165.9009891201171
 30
0.0
 40
3.9999999
100
AcDbArc
 50
90.0
 51
182.4918999999993
  0
LINE
  5
2A27
330
1A
100
AcDbEntity
  8
STOPPER
100
AcDbLine
 10
256.0047110040895
 20
167.9009871201171
 30
0.0
 11
256.4232410040897
 21
167.9009871201171
 31
0.0
  0
ARC
  5
2A28
330
1A
100
AcDbEntity
  8
STOPPER
100
AcDbCircle
 10
256.0047110040895
 20
165.9009891201171
 30
0.0
 40
1.999999799999999
100
AcDbArc
 50
90.0
 51
182.4918999999993
  0
ARC
  5
2A29
330
1A
100
AcDbEntity
  8
SEIHIN
100
AcDbCircle
 10
247.4579033047025
 20
175.4949274121398
 30
0.0
 40
0.4999969807769185
100
AcDbArc
 50
90.0598516137998
 51
171.5914704327192
  0
ARC
  5
2A2A
330
1A
100
AcDbEntity
  8
SEIHIN
100
AcDbCircle
 10
242.3407685306947
 20
175.0456668790666
 30
0.0
 40
1.222486398573502
100
AcDbArc
 50
129.9999031237694
 51
156.0369729877923
  0
LINE
  5
2A2B
330
1A
100
AcDbEntity
  8
SEIHIN
100
AcDbLine
 10
245.0447810040898
 20
178.2349941201172
 30
0.0
 11
245.0396810040899
 21
178.2166971201173
 31
0.0
  0
LINE
  5
2A2C
330
1A
100
AcDbEntity
  8
SEIHIN
100
AcDbLine
 10
245.0047610040915
 20
178.2588411201166
 30
0.0
 11
245.0447810040898
 21
178.2349941201172
 31
0.0
  0
ARC
  5
2A2D
330
1A
100
AcDbEntity
  8
SEIHIN
100
AcDbCircle
 10
244.6879251056604
 20
177.1041089739733
 30
0.0
 40
1.197410253785862
100
AcDbArc
 50
74.6567570791711
 51
88.35728934787161
  0
ARC
  5
2A2E
330
1A
100
AcDbEntity
  8
SEIHIN
100
AcDbCircle
 10
245.731810655501
 20
177.4949242676739
 30
0.0
 40
0.9999997524433755
100
AcDbArc
 50
89.99998002733631
 51
171.5912046054884
  0
LINE
  5
2A2F
330
1A
100
AcDbEntity
  8
SEIHIN
100
AcDbLine
 10
243.0217910040896
 20
178.3094391201171
 30
0.0
 11
244.7222510040897
 21
178.3010271201171
 31
0.0
  0
LINE
  5
2A30
330
1A
100
AcDbEntity
  8
SEIHIN
100
AcDbLine
 10
243.0217910040896
 20
178.3094391201171
 30
0.0
 11
243.0217910040896
 21
178.3094391201171
 31
0.0
  0
LINE
  5
2A31
330
1A
100
AcDbEntity
  8
SEIHIN
100
AcDbLine
 10
242.2417010040896
 20
176.4534381201172
 30
0.0
 11
243.0217910040896
 21
178.3094391201171
 31
0.0
  0
LINE
  5
2A32
330
1A
100
AcDbEntity
  8
SEIHIN
100
AcDbLine
 10
242.2417010040896
 20
176.4534381201172
 30
0.0
 11
242.2417010040896
 21
176.4534381201172
 31
0.0
  0
LINE
  5
2A33
330
1A
100
AcDbEntity
  8
SEIHIN
100
AcDbLine
 10
241.5549710040898
 20
175.9821471201172
 30
0.0
 11
242.2417010040896
 21
176.4534381201172
 31
0.0
  0
LINE
  5
2A34
330
1A
100
AcDbEntity
  8
SEIHIN
100
AcDbLine
 10
244.8687710040896
 20
181.4949261201172
 30
0.0
 11
244.8687710040896
 21
178.9949241201171
 31
0.0
  0
ARC
  5
2A35
330
1A
100
AcDbEntity
  8
SEIHIN
100
AcDbCircle
 10
256.6709726874557
 20
178.9927215288228
 30
0.0
 40
0.4978031894755928
100
AcDbArc
 50
269.7488934343547
 51
0.2535130340827645
  0
LINE
  5
2A36
330
1A
100
AcDbEntity
  8
NOKITOI
  6
PHANTOM
 62
     8
 48
5.0
100
AcDbLine
 10
250.6187860040895
 20
197.8947231201173
 30
0.0
 11
250.6187860040895
 21
189.0947231201172
 31
0.0
  0
LINE
  5
2A37
330
1A
100
AcDbEntity
  8
NOKITOI
  6
PHANTOM
 62
     8
 48
5.0
100
AcDbLine
 10
254.4187860040894
 20
189.0947231201172
 30
0.0
 11
254.4187860040894
 21
197.4947231201172
 31
0.0
  0
LINE
  5
2A38
330
1A
100
AcDbEntity
  8
NOKITOI
  6
PHANTOM
 62
     8
 48
5.0
100
AcDbLine
 10
256.0187860040896
 20
187.4947231201172
 30
0.0
 11
256.0187860040896
 21
197.4947231201172
 31
0.0
  0
LINE
  5
2A39
330
1A
100
AcDbEntity
  8
NOKITOI
  6
PHANTOM
 62
     8
 48
5.0
100
AcDbLine
 10
249.0187860040896
 20
187.4948231201171
 30
0.0
 11
249.0187860040896
 21
196.8948231201172
 31
0.0
  0
ARC
  5
2A3A
330
1A
100
AcDbEntity
  8
SEIHIN
100
AcDbCircle
 10
250.9441010040895
 20
193.1949231201172
 30
0.0
 40
3.0
100
AcDbArc
 50
90.0
 51
175.5439700000013
  0
LINE
  5
2A3B
330
1A
100
AcDbEntity
  8
NOKITOI
  6
PHANTOM
 62
     8
 48
5.0
100
AcDbLine
 10
256.0187860040896
 20
187.4947231201172
 30
0.0
 11
249.0187860040896
 21
187.4948231201171
 31
0.0
  0
LINE
  5
2A3C
330
1A
100
AcDbEntity
  8
SEIHIN
100
AcDbLine
 10
256.6687910040895
 20
183.4949241201171
 30
0.0
 11
246.8687810040896
 21
183.4949241201171
 31
0.0
  0
LINE
  5
2A3D
330
1A
100
AcDbEntity
  8
SEIHIN
100
AcDbLine
 10
247.9531610040897
 20
193.4280051201171
 30
0.0
 11
247.1790710040898
 21
183.4949241201171
 31
0.0
  0
LINE
  5
2A3E
330
1A
100
AcDbEntity
  8
NOKITOI
  6
PHANTOM
 62
     8
 48
5.0
100
AcDbLine
 10
254.4187860040894
 20
189.0947231201172
 30
0.0
 11
250.6187860040895
 21
189.0947231201172
 31
0.0
  0
LINE
  5
2A3F
330
1A
100
AcDbEntity
  8
NOKITOI
  6
PHANTOM
 62
     8
 48
5.0
100
AcDbLine
 10
244.6196860040895
 20
199.4948231201171
 30
0.0
 11
254.0187860040896
 21
199.4947231201172
 31
0.0
  0
LINE
  5
2A40
330
1A
100
AcDbEntity
  8
SEIHIN
100
AcDbLine
 10
256.6687910040895
 20
200.4949251201171
 30
0.0
 11
245.1687710040896
 21
200.4949251201171
 31
0.0
  0
LINE
  5
2A41
330
1A
100
AcDbEntity
  8
SEIHIN
100
AcDbLine
 10
245.1687710040896
 20
201.4949241201171
 30
0.0
 11
256.3815195545775
 21
201.4949241201171
 31
0.0
  0
LINE
  5
2A42
330
1A
100
AcDbEntity
  8
NOKITOI
  6
PHANTOM
 62
     8
 48
5.0
100
AcDbLine
 10
248.0187860040896
 20
197.894823120117
 30
0.0
 11
246.8048860040896
 21
197.894823120117
 31
0.0
  0
ARC
  5
2A43
330
1A
100
AcDbEntity
  8
NOKITOI
  6
PHANTOM
 62
     8
 48
5.0
100
AcDbCircle
 10
248.0187860040896
 20
196.8948231201171
 30
0.0
 40
0.9999999999999431
100
AcDbArc
 50
0.0000000000032569
 51
90.0
  0
ARC
  5
2A44
330
1A
100
AcDbEntity
  8
NOKITOI
  6
PHANTOM
 62
     8
 48
5.0
100
AcDbCircle
 10
246.804871434798
 20
196.8948103102811
 30
0.0
 40
1.000012809942087
100
AcDbArc
 50
89.99916525178411
 51
172.6453194859482
  0
ARC
  5
2A45
330
1A
100
AcDbEntity
  8
SEIHIN
100
AcDbCircle
 10
245.1687650241349
 20
199.9949510993797
 30
0.0
 40
0.4999740207732473
100
AcDbArc
 50
89.99931471206123
 51
180.0030917564036
  0
ARC
  5
2A46
330
1A
100
AcDbEntity
  8
SEIHIN
100
AcDbCircle
 10
245.1737663209458
 20
200.989949480683
 30
0.0
 40
0.5049993462000061
100
AcDbArc
 50
90.56676358689953
 51
180.5589396261712
  0
ARC
  5
2A47
330
1A
100
AcDbEntity
  8
SEIHIN
100
AcDbCircle
 10
243.1687910040898
 20
202.4949231201171
 30
0.0
 40
0.4999998000000002
100
AcDbArc
 50
90.0
 51
180.0
  0
LINE
  5
2A48
330
1A
100
AcDbEntity
  8
SEIHIN
100
AcDbLine
 10
244.6687910040896
 20
200.9850231201172
 30
0.0
 11
244.6687910040896
 21
196.9949241201171
 31
0.0
  0
LINE
  5
2A49
330
1A
100
AcDbEntity
  8
SEIHIN
100
AcDbLine
 10
244.6687910040896
 20
196.9949241201171
 30
0.0
 11
243.1687910040898
 21
196.9949241201171
 31
0.0
  0
LINE
  5
2A4A
330
1A
100
AcDbEntity
  8
SEIHIN
100
AcDbLine
 10
242.6687810040898
 20
197.4949251201171
 30
0.0
 11
242.6687810040898
 21
202.4949261201172
 31
0.0
  0
ARC
  5
2A4B
330
1A
100
AcDbEntity
  8
SEIHIN
100
AcDbCircle
 10
243.1687910040898
 20
197.4949251201171
 30
0.0
 40
0.4999998000000002
100
AcDbArc
 50
180.0
 51
270.0
  0
ARC
  5
2A4C
330
1A
100
AcDbEntity
  8
NOKITOI
  6
PHANTOM
 62
     8
 48
5.0
100
AcDbCircle
 10
254.0187860040896
 20
197.4947231201173
 30
0.0
 40
0.399999999999892
100
AcDbArc
 50
359.9999999999869
 51
89.99999999998697
  0
ARC
  5
2A4D
330
1A
100
AcDbEntity
  8
NOKITOI
  6
PHANTOM
 62
     8
 48
5.0
100
AcDbCircle
 10
254.0187860040896
 20
197.4947231201172
 30
0.0
 40
2.0
100
AcDbArc
 50
0.0
 51
90.0
  0
LINE
  5
2A4E
330
1A
100
AcDbEntity
  8
NOKITOI
  6
PHANTOM
 62
     8
 48
5.0
100
AcDbLine
 10
250.6187860040895
 20
197.8947231201173
 30
0.0
 11
254.0187860040896
 21
197.8947231201173
 31
0.0
  0
ARC
  5
2A4F
330
1A
100
AcDbEntity
  8
SEIHIN
100
AcDbCircle
 10
256.6687888792717
 20
199.9949395639371
 30
0.0
 40
0.4999855561846078
100
AcDbArc
 50
9.998368074396951
 51
89.99975650676807
  0
ARC
  5
2A50
330
1A
100
AcDbEntity
  8
SEIHIN
100
AcDbCircle
 10
256.6688021050119
 20
196.6948950199181
 30
0.0
 40
0.4999688999241715
100
AcDbArc
 50
269.9987278488669
 51
0.0033348446061704
  0
LINE
  5
2A51
330
1A
100
AcDbEntity
  8
SEIHIN
100
AcDbLine
 10
256.1687810040898
 20
202.9949241201171
 30
0.0
 11
256.1687810040898
 21
201.4949241201171
 31
0.0
  0
LINE
  5
2A52
330
1A
100
AcDbEntity
  8
SEIHIN
100
AcDbLine
 10
256.3815195545775
 20
201.4949241201171
 30
0.0
 11
256.6687910040893
 21
201.5217201201171
 31
0.0
  0
ARC
  5
2A53
330
1A
100
AcDbEntity
  8
SEIHIN
100
AcDbCircle
 10
256.7613012455922
 20
201.1043517397244
 30
0.0
 40
0.4274979645969314
100
AcDbArc
 50
22.98771454458458
 51
102.4976315319467
  0
LINE
  5
2A54
330
1A
100
AcDbEntity
  8
SEIHIN
100
AcDbLine
 10
256.4466110040898
 20
200.4949251201171
 30
0.0
 11
256.3419110040897
 21
198.4976661201171
 31
0.0
  0
ARC
  5
2A55
330
1A
100
AcDbEntity
  8
SEIHIN
100
AcDbCircle
 10
256.4466110040898
 20
200.4949251201171
 30
0.0
 40
1.999999799999999
100
AcDbArc
 50
180.0
 51
267.0000000000009
  0
LINE
  5
2A56
330
1A
100
AcDbEntity
  8
SEIHIN
100
AcDbLine
 10
257.1687710040896
 20
196.1949261201171
 30
0.0
 11
250.9441010040895
 21
196.1949261201171
 31
0.0
  0
LINE
  5
2A57
330
1A
100
AcDbEntity
  8
STOPPER
100
AcDbLine
 10
252.3409610040896
 20
200.4949251201171
 30
0.0
 11
252.1156310040896
 21
196.1949261201171
 31
0.0
  0
ARC
  5
2A58
330
1A
100
AcDbEntity
  8
STOPPER
100
AcDbCircle
 10
255.4292510040898
 20
202.1009871201172
 30
0.0
 40
3.0
100
AcDbArc
 50
90.0
 51
162.6637600000004
  0
LINE
  5
2A59
330
1A
100
AcDbEntity
  8
STOPPER
100
AcDbLine
 10
257.0976710040897
 20
205.1009871201172
 30
0.0
 11
255.4292510040898
 21
205.1009871201172
 31
0.0
  0
LINE
  5
2A5A
330
1A
100
AcDbEntity
  8
STOPPER
100
AcDbLine
 10
254.3437310040896
 20
200.4949251201171
 30
0.0
 11
254.1183710040897
 21
196.1949261201171
 31
0.0
  0
LINE
  5
2A5B
330
1A
100
AcDbEntity
  8
SEIHIN
100
AcDbLine
 10
259.6936010040897
 20
176.4687561201171
 30
0.0
 11
261.0010610040897
 21
201.4164201201172
 31
0.0
  0
LINE
  5
2A5C
330
1A
100
AcDbEntity
  8
SEIHIN
100
AcDbLine
 10
264.0051710040897
 20
201.4164201201172
 30
0.0
 11
262.3832810040896
 21
170.4687561201171
 31
0.0
  0
LINE
  5
2A5D
330
1A
100
AcDbEntity
  8
STOPPER
100
AcDbLine
 10
264.4757510040899
 20
170.2701471201171
 30
0.0
 11
266.1357110040899
 21
201.9439791201171
 31
0.0
  0
LINE
  5
2A5E
330
1A
100
AcDbEntity
  8
STOPPER
100
AcDbLine
 10
262.4785010040898
 20
170.3748201201172
 30
0.0
 11
264.1384610040897
 21
202.0486521201171
 31
0.0
  0
ARC
  5
2A5F
330
1A
100
AcDbEntity
  8
SEIHIN
100
AcDbCircle
 10
261.8839464365005
 20
170.4949473100085
 30
0.0
 40
0.5000231901036129
100
AcDbArc
 50
270.0016692453388
 51
356.9926566102841
  0
LINE
  5
2A60
330
1A
100
AcDbEntity
  8
SEIHIN
100
AcDbLine
 10
262.3468910040896
 20
170.3060001201172
 30
0.0
 11
262.2591710040897
 21
170.1644481201171
 31
0.0
  0
ARC
  5
2A61
330
1A
100
AcDbEntity
  8
STOPPER
100
AcDbCircle
 10
261.9791810040897
 20
170.4009891201171
 30
0.0
 40
2.4999999
100
AcDbArc
 50
270.0
 51
356.9999999999994
  0
LINE
  5
2A62
330
1A
100
AcDbEntity
  8
STOPPER
100
AcDbLine
 10
261.3222110040897
 20
167.9009871201171
 30
0.0
 11
261.9791810040897
 21
167.9009871201171
 31
0.0
  0
ARC
  5
2A63
330
1A
100
AcDbEntity
  8
STOPPER
100
AcDbCircle
 10
261.9791810040897
 20
170.4009891201171
 30
0.0
 40
0.4999998000000002
100
AcDbArc
 50
270.0
 51
356.9999999999994
  0
ARC
  5
2A64
330
1A
100
AcDbEntity
  8
SEIHIN
100
AcDbCircle
 10
259.1942978518852
 20
176.4949132635138
 30
0.0
 40
0.4999891435695458
100
AcDbArc
 50
270.0015071643406
 51
356.9333580289953
  0
LINE
  5
2A65
330
1A
100
AcDbEntity
  8
SEIHIN
100
AcDbLine
 10
259.6482410040898
 20
176.2853271201172
 30
0.0
 11
259.6006310040897
 21
176.2035651201172
 31
0.0
  0
ARC
  5
2A66
330
1A
100
AcDbEntity
  8
STOPPER
100
AcDbCircle
 10
263.1398210040897
 20
202.1009871201172
 30
0.0
 40
3.0
100
AcDbArc
 50
356.9999999999994
 51
90.0
  0
ARC
  5
2A67
330
1A
100
AcDbEntity
  8
SEIHIN
100
AcDbCircle
 10
262.507225116233
 20
201.4948961113068
 30
0.0
 40
1.500028008894543
100
AcDbArc
 50
357.0467930441889
 51
89.99939313990431
  0
ARC
  5
2A68
330
1A
100
AcDbEntity
  8
SEIHIN
100
AcDbCircle
 10
259.5031159782888
 20
201.4949074000746
 30
0.0
 40
1.500018007136381
100
AcDbArc
 50
357.0759447692514
 51
89.92494242289351
  0
LINE
  5
2A69
330
1A
100
AcDbEntity
  8
SEIHIN
100
AcDbLine
 10
260.6796110040897
 20
202.4254521201171
 30
0.0
 11
260.4939410040897
 21
202.6211001201172
 31
0.0
  0
LINE
  5
2A6A
330
1A
100
AcDbEntity
  8
SEIHIN
100
AcDbLine
 10
264.0052610040898
 20
201.4176141201171
 30
0.0
 11
261.0011210040898
 21
201.4176141201171
 31
0.0
  0
LINE
  5
2A6B
330
1A
100
AcDbEntity
  8
SEIHIN
100
AcDbLine
 10
263.9362010040897
 20
201.9510291201172
 30
0.0
 11
263.8312910040897
 21
202.1998371201171
 31
0.0
  0
LINE
  5
2A6C
330
1A
100
AcDbEntity
  8
STOPPER
100
AcDbLine
 10
263.1398210040897
 20
205.1009871201172
 30
0.0
 11
261.9955010040898
 21
205.1009871201172
 31
0.0
  0
ARC
  5
2A6D
330
1A
100
AcDbEntity
  8
STOPPER
100
AcDbCircle
 10
263.1398210040897
 20
202.1009871201172
 30
0.0
 40
0.9999998999999998
100
AcDbArc
 50
356.9999999999994
 51
90.0
  0
LINE
  5
2A6E
330
1A
100
AcDbEntity
  8
SEIHIN
100
AcDbLine
 10
395.6136410040899
 20
178.4949231201171
 30
0.0
 11
405.6136310040899
 21
178.4949231201171
 31
0.0
  0
LINE
  5
2A6F
330
1A
100
AcDbEntity
  8
SEIHIN
100
AcDbLine
 10
415.6136210040899
 20
175.9949241201171
 30
0.0
 11
405.6136310040899
 21
176.4949251201171
 31
0.0
  0
LINE
  5
2A70
330
1A
100
AcDbEntity
  8
SEIHIN
100
AcDbLine
 10
395.6136410040897
 20
202.4949261201172
 30
0.0
 11
405.6136310040899
 21
202.9949241201171
 31
0.0
  0
LINE
  5
2A71
330
1A
100
AcDbEntity
  8
SEIHIN
100
AcDbLine
 10
405.6136310040899
 20
202.4949261201172
 30
0.0
 11
395.6136410040899
 21
202.4949261201172
 31
0.0
  0
LINE
  5
2A72
330
1A
100
AcDbEntity
  8
SEIHIN
100
AcDbLine
 10
405.6136310040899
 20
202.4949261201172
 30
0.0
 11
415.6136210040899
 21
202.9949241201171
 31
0.0
  0
LINE
  5
2A73
330
1A
100
AcDbEntity
  8
SEIHIN
100
AcDbLine
 10
405.6136310040899
 20
202.9949241201171
 30
0.0
 11
415.6136210040899
 21
202.9949241201171
 31
0.0
  0
LINE
  5
2A74
330
1A
100
AcDbEntity
  8
SEIHIN
100
AcDbLine
 10
405.6136584554671
 20
335.2548484822398
 30
0.0
 11
395.6136384554672
 21
394.1102884822398
 31
0.0
  0
LINE
  5
2A75
330
1A
100
AcDbEntity
  8
SEIHIN
100
AcDbLine
 10
420.6136584554672
 20
312.4602784822398
 30
0.0
 11
420.6136584554672
 21
325.4602684822398
 31
0.0
  0
LINE
  5
2A76
330
1A
100
AcDbEntity
  8
SEIHIN
100
AcDbLine
 10
405.6136584554671
 20
308.1527284822398
 30
0.0
 11
405.6136584554671
 21
335.2548484822398
 31
0.0
  0
LINE
  5
2A77
330
1A
100
AcDbEntity
  8
SEIHIN
100
AcDbLine
 10
415.613648455467
 20
307.6259284822399
 30
0.0
 11
415.613648455467
 21
311.4602884822399
 31
0.0
  0
LINE
  5
2A78
330
1A
100
AcDbEntity
  8
SEIHIN
100
AcDbLine
 10
405.6136584554671
 20
308.1527284822398
 30
0.0
 11
415.6116084554671
 21
307.6259284822399
 31
0.0
  0
LINE
  5
2A79
330
1A
100
AcDbEntity
  8
SEIHIN
100
AcDbLine
 10
405.6136584554671
 20
311.4602884822399
 30
0.0
 11
419.6136384554672
 21
311.4602884822399
 31
0.0
  0
LINE
  5
2A7A
330
1A
100
AcDbEntity
  8
SEIHIN
100
AcDbLine
 10
405.6136584554671
 20
311.96026848224
 30
0.0
 11
420.4796784554671
 21
311.96026848224
 31
0.0
  0
ARC
  5
2A7B
330
1A
100
AcDbEntity
  8
SEIHIN
100
AcDbCircle
 10
419.6136729899501
 20
312.4602739471706
 30
0.0
 40
0.9999854655269837
100
AcDbArc
 50
269.9980212911108
 51
0.0002598440981771
  0
LINE
  5
2A7C
330
1A
100
AcDbEntity
  8
SEIHIN
100
AcDbLine
 10
420.6136584554672
 20
322.8972184822398
 30
0.0
 11
405.6136584554671
 21
322.8972184822398
 31
0.0
  0
LINE
  5
2A7D
330
1A
100
AcDbEntity
  8
SEIHIN
100
AcDbLine
 10
405.6136584554671
 20
323.88649848224
 30
0.0
 11
420.6136584554672
 21
323.88649848224
 31
0.0
  0
ARC
  5
2A7E
330
1A
100
AcDbEntity
  8
SEIHIN
100
AcDbCircle
 10
421.113638455467
 20
325.4602684822398
 30
0.0
 40
0.4999998000000002
100
AcDbArc
 50
90.0
 51
180.0
  0
LINE
  5
2A7F
330
1A
100
AcDbEntity
  8
SEIHIN
100
AcDbLine
 10
395.6136384554672
 20
394.1102884822398
 30
0.0
 11
395.6136384554672
 21
480.0678154822401
 31
0.0
  0
LINE
  5
2A80
330
1A
100
AcDbEntity
  8
SEIHIN
100
AcDbLine
 10
404.8524384554673
 20
477.0689224822399
 30
0.0
 11
405.4215084554673
 21
477.1627174822399
 31
0.0
  0
LINE
  5
2A81
330
1A
100
AcDbEntity
  8
SEIHIN
100
AcDbLine
 10
420.6136584554672
 20
464.3340574822397
 30
0.0
 11
395.6136384554672
 21
464.3340574822397
 31
0.0
  0
LINE
  5
2A82
330
1A
100
AcDbEntity
  8
SEIHIN
100
AcDbLine
 10
395.6136384554672
 20
465.3233044822398
 30
0.0
 11
420.6136584554672
 21
465.3233044822398
 31
0.0
  0
LINE
  5
2A83
330
1A
100
AcDbEntity
  8
SEIHIN
100
AcDbLine
 10
405.6115884554672
 20
480.5946034822397
 30
0.0
 11
395.6136384554672
 21
480.0678154822398
 31
0.0
  0
LINE
  5
2A84
330
1A
100
AcDbEntity
  8
SEIHIN
100
AcDbLine
 10
419.6136384554672
 20
476.7602614822399
 30
0.0
 11
395.6136384554672
 21
476.7602614822399
 31
0.0
  0
LINE
  5
2A85
330
1A
100
AcDbEntity
  8
SEIHIN
100
AcDbLine
 10
420.4796784554671
 20
476.2602634822399
 30
0.0
 11
395.6136384554672
 21
476.2602634822399
 31
0.0
  0
LINE
  5
2A86
330
1A
100
AcDbEntity
  8
SEIHIN
100
AcDbLine
 10
402.6846984554672
 20
476.9067094822398
 30
0.0
 11
404.8524384554673
 21
477.0689224822399
 31
0.0
  0
LINE
  5
2A87
330
1A
100
AcDbEntity
  8
SEIHIN
100
AcDbLine
 10
397.5645384554673
 20
476.7698674822397
 30
0.0
 11
402.6846984554672
 21
476.9067094822398
 31
0.0
  0
LINE
  5
2A88
330
1A
100
AcDbEntity
  8
SEIHIN
100
AcDbLine
 10
420.6136584554672
 20
462.76026648224
 30
0.0
 11
420.6136584554672
 21
475.7602624822397
 31
0.0
  0
LINE
  5
2A89
330
1A
100
AcDbEntity
  8
SEIHIN
100
AcDbLine
 10
405.4215084554673
 20
477.1627174822399
 30
0.0
 11
405.6136584554671
 21
477.2602654822398
 31
0.0
  0
LINE
  5
2A8A
330
1A
100
AcDbEntity
  8
SEIHIN
100
AcDbLine
 10
405.6136584554671
 20
477.2602654822398
 30
0.0
 11
405.6136584554671
 21
480.5947125497145
 31
0.0
  0
ARC
  5
2A8B
330
1A
100
AcDbEntity
  8
SEIHIN
100
AcDbCircle
 10
419.6136384554669
 20
475.7602624822397
 30
0.0
 40
0.9999998999999998
100
AcDbArc
 50
0.0
 51
90.0
  0
DIMENSION
  5
2A8C
330
1A
100
AcDbEntity
  8
SUNPOU
100
AcDbDimension
  2
*D9
 10
696.6136310040899
 20
274.8328520901655
 30
0.0
 11
675.6136297297785
 21
279.8328520901654
 31
0.0
 70
    32
 71
     5
 42
-1.0
  3
STANDARD
100
AcDbAlignedDimension
 13
654.613628455467
 23
308.1266284822395
 33
0.0
 14
696.6136310040899
 24
308.1266134822397
 34
0.0
100
AcDbRotatedDimension
1001
ACAD
1000
DSTYLE
1002
{
1070
    41
1040
7.0
1070
    42
1040
6.0
1070
    43
1040
14.0
1070
    44
1040
3.0
1070
    73
1070
     0
1070
    74
1070
     0
1070
    77
1070
     3
1070
   140
1040
6.0
1070
   141
1040
150.0
1070
   147
1040
2.0
1070
   172
1070
     1
1070
   173
1070
     1
1070
   176
1070
   256
1070
   177
1070
   256
1070
   178
1070
   256
1070
   271
1070
     0
1070
   272
1070
     0
1070
   341
1005
6D
1070
     6
1000
OPEN
1070
     7
1000
OPEN
1070
   371
1070
    -1
1070
   372
1070
    -1
1002
}
  0
DIMENSION
  5
2A8D
330
1A
100
AcDbEntity
  8
SUNPOU
100
AcDbDimension
  2
*D10
 10
696.6136510040898
 20
238.6676960290428
 30
0.0
 11
662.6136410040897
 21
243.6676960290428
 31
0.0
 70
    32
 71
     5
 42
-1.0
  3
STANDARD
100
AcDbAlignedDimension
 13
628.6136310040895
 23
202.9949241201172
 33
0.0
 14
696.6136510040898
 24
202.9949241201172
 34
0.0
100
AcDbRotatedDimension
1001
ACAD
1000
DSTYLE
1002
{
1070
    41
1040
7.0
1070
    42
1040
6.0
1070
    43
1040
14.0
1070
    44
1040
3.0
1070
    73
1070
     0
1070
    74
1070
     0
1070
    77
1070
     3
1070
   140
1040
6.0
1070
   141
1040
150.0
1070
   147
1040
2.0
1070
   172
1070
     1
1070
   173
1070
     1
1070
   176
1070
   256
1070
   177
1070
   256
1070
   178
1070
   256
1070
   271
1070
     0
1070
   272
1070
     0
1070
   341
1005
6D
1070
     6
1000
OPEN
1070
     7
1000
OPEN
1070
   371
1070
    -1
1070
   372
1070
    -1
1002
}
  0
DIMENSION
  5
2A8E
330
1A
100
AcDbEntity
  8
SUNPOU
100
AcDbDimension
  2
*D11
 10
696.6136510040898
 20
222.8503085380139
 30
0.0
 11
675.6136410040896
 21
227.8503085380139
 31
0.0
 70
    32
 71
     5
 42
-1.0
  3
STANDARD
100
AcDbAlignedDimension
 13
654.6136310040894
 23
202.9949241201172
 33
0.0
 14
696.6136510040898
 24
202.9949241201172
 34
0.0
100
AcDbRotatedDimension
1001
ACAD
1000
DSTYLE
1002
{
1070
    41
1040
7.0
1070
    42
1040
6.0
1070
    43
1040
14.0
1070
    44
1040
3.0
1070
    73
1070
     0
1070
    74
1070
     0
1070
    77
1070
     3
1070
   140
1040
6.0
1070
   141
1040
150.0
1070
   147
1040
2.0
1070
   172
1070
     1
1070
   173
1070
     1
1070
   176
1070
   256
1070
   177
1070
   256
1070
   178
1070
   256
1070
   271
1070
     0
1070
   272
1070
     0
1070
   341
1005
6D
1070
     6
1000
OPEN
1070
     7
1000
OPEN
1070
   371
1070
    -1
1070
   372
1070
    -1
1002
}
  0
LINE
  5
2A8F
330
1A
100
AcDbEntity
  8
SEIHIN
  6
PHANTOM
 62
     6
 48
5.0
100
AcDbLine
 10
638.6136410040899
 20
177.6411621201171
 30
0.0
 11
696.6136510040898
 21
177.6411621201171
 31
0.0
  0
LINE
  5
2A90
330
1A
100
AcDbEntity
  8
SEIHIN
  6
PHANTOM
 62
     6
 48
5.0
100
AcDbLine
 10
638.6136410040899
 20
202.9949241201171
 30
0.0
 11
706.6136510040898
 21
202.9949241201171
 31
0.0
  0
LINE
  5
2A91
330
1A
100
AcDbEntity
  8
SEIHIN
  6
PHANTOM
 62
     6
 48
5.0
100
AcDbLine
 10
638.6136410040899
 20
107.4949251201171
 30
0.0
 11
706.6136510040901
 21
107.4949251201171
 31
0.0
  0
TEXT
  5
2A92
330
1A
100
AcDbEntity
  8
SUNPOU
 48
5.0
100
AcDbText
 10
680.0853209719102
 20
242.0767776161929
 30
0.0
 40
6.0
  1
スライド巾
100
AcDbText
  0
LINE
  5
2A96
330
1A
100
AcDbEntity
  8
SEIHIN
100
AcDbLine
 10
628.6136310040895
 20
202.994924120117
 30
0.0
 11
628.6136310040896
 21
106.9949241201171
 31
0.0
  0
LINE
  5
2A97
330
1A
100
AcDbEntity
  8
SEIHIN
  6
PHANTOM
 62
     6
 48
5.0
100
AcDbLine
 10
638.6136410040899
 20
107.4949251201171
 30
0.0
 11
638.6136410040899
 21
202.9949241201171
 31
0.0
  0
LINE
  5
2A98
330
1A
100
AcDbEntity
  8
SEIHIN
100
AcDbLine
 10
530.6136410040899
 20
102.3949251201172
 30
0.0
 11
530.6136410040896
 21
202.9949241201171
 31
0.0
  0
LINE
  5
2A99
330
1A
100
AcDbEntity
  8
SEIHIN
100
AcDbLine
 10
547.6136510040896
 20
202.9949241201171
 30
0.0
 11
547.6136510040898
 21
103.9849251201171
 31
0.0
  0
LINE
  5
2A9A
330
1A
100
AcDbEntity
  8
SEIHIN
100
AcDbLine
 10
620.6136410040898
 20
170.5680831201171
 30
0.0
 11
620.6136410040898
 21
104.9949231201171
 31
0.0
  0
LINE
  5
2A9B
330
1A
100
AcDbEntity
  8
SEIHIN
100
AcDbLine
 10
644.6136410040899
 20
106.9949241201171
 30
0.0
 11
644.6136410040899
 21
202.9949241201171
 31
0.0
  0
LINE
  5
2A9C
330
1A
100
AcDbEntity
  8
SEIHIN
100
AcDbLine
 10
654.6136310040894
 20
202.9949241201171
 30
0.0
 11
654.6136310040897
 21
106.9949241201172
 31
0.0
  0
LINE
  5
2A9D
330
1A
100
AcDbEntity
  8
SEIHIN
100
AcDbLine
 10
664.6136210040899
 20
107.4949251201171
 30
0.0
 11
664.6136210040899
 21
202.9949241201171
 31
0.0
  0
LINE
  5
2A9E
330
1A
100
AcDbEntity
  8
SEIHIN
100
AcDbLine
 10
456.6136310040904
 20
202.9949241201171
 30
0.0
 11
456.6136310040897
 21
102.3949251201171
 31
0.0
  0
LINE
  5
2A9F
330
1A
100
AcDbEntity
  8
SEIHIN
100
AcDbLine
 10
439.6136510040898
 20
202.9949241201171
 30
0.0
 11
439.6136510040898
 21
106.9949241201171
 31
0.0
  0
LINE
  5
2AA0
330
1A
100
AcDbEntity
  8
SEIHIN
100
AcDbLine
 10
620.6136410040898
 20
104.9949231201171
 30
0.0
 11
547.6136510040898
 21
103.9949241201171
 31
0.0
  0
LINE
  5
2AA1
330
1A
100
AcDbEntity
  8
SEIHIN
100
AcDbLine
 10
530.6136410040899
 20
102.3949251201172
 30
0.0
 11
456.6136310040899
 21
102.3949251201172
 31
0.0
  0
LINE
  5
2AA2
330
1A
100
AcDbEntity
  8
SEIHIN
100
AcDbLine
 10
439.6136510040898
 20
106.9949241201171
 30
0.0
 11
456.6136310040899
 21
102.3949251201172
 31
0.0
  0
LINE
  5
2AA3
330
1A
100
AcDbEntity
  8
SEIHIN
100
AcDbLine
 10
530.6136410040899
 20
102.3949251201172
 30
0.0
 11
547.6136510040898
 21
103.9849251201171
 31
0.0
  0
LINE
  5
2AA7
330
1A
100
AcDbEntity
  8
SEIHIN
100
AcDbLine
 10
620.6136410040898
 20
106.9949241201171
 30
0.0
 11
654.6136310040897
 21
106.9949241201172
 31
0.0
  0
LINE
  5
2AA8
330
1A
100
AcDbEntity
  8
SEIHIN
100
AcDbLine
 10
664.6136210040899
 20
109.4949231201171
 30
0.0
 11
654.6136310040897
 21
109.4949231201171
 31
0.0
  0
LINE
  5
2AA9
330
1A
100
AcDbEntity
  8
SEIHIN
100
AcDbLine
 10
654.6136310040897
 20
106.9949241201171
 30
0.0
 11
664.6136210040899
 21
107.4949281201171
 31
0.0
  0
LINE
  5
2AAA
330
1A
100
AcDbEntity
  8
SEIHIN
100
AcDbLine
 10
499.2636410040902
 20
202.9949241201171
 30
0.0
 11
620.6136410040901
 21
202.9949241201172
 31
0.0
  0
LINE
  5
2AAB
330
1A
100
AcDbEntity
  8
SEIHIN
100
AcDbLine
 10
620.6136410040898
 20
170.9949231201171
 30
0.0
 11
547.6136510040898
 21
169.9949241201171
 31
0.0
  0
LINE
  5
2AAC
330
1A
100
AcDbEntity
  8
STOPPER
100
AcDbLine
 10
499.2636410040902
 20
144.7994271201172
 30
0.0
 11
499.2636410040899
 21
208.0995981201172
 31
0.0
  0
LINE
  5
2AAD
330
1A
100
AcDbEntity
  8
STOPPER
100
AcDbLine
 10
484.2636410040902
 20
144.7994271201172
 30
0.0
 11
484.26364100409
 21
208.0995981201172
 31
0.0
  0
LINE
  5
2AAE
330
1A
100
AcDbEntity
  8
STOPPER
100
AcDbLine
 10
484.26364100409
 20
144.7994271201171
 30
0.0
 11
499.2636410040899
 21
144.7994271201171
 31
0.0
  0
LINE
  5
2AAF
330
1A
100
AcDbEntity
  8
STOPPER
100
AcDbLine
 10
484.26364100409
 20
164.9009871201171
 30
0.0
 11
499.2636410040899
 21
164.9009871201171
 31
0.0
  0
LINE
  5
2AB0
330
1A
100
AcDbEntity
  8
STOPPER
100
AcDbLine
 10
484.26364100409
 20
201.9439791201171
 30
0.0
 11
499.2636410040899
 21
201.9439791201171
 31
0.0
  0
LINE
  5
2AB1
330
1A
100
AcDbEntity
  8
STOPPER
100
AcDbLine
 10
484.26364100409
 20
205.1009871201172
 30
0.0
 11
499.2636410040899
 21
205.1009871201172
 31
0.0
  0
LINE
  5
2AB2
330
1A
100
AcDbEntity
  8
STOPPER
100
AcDbLine
 10
484.26364100409
 20
170.2701471201171
 30
0.0
 11
499.2636410040899
 21
170.2701471201171
 31
0.0
  0
LINE
  5
2AB3
330
1A
100
AcDbEntity
  8
STOPPER
100
AcDbLine
 10
484.26364100409
 20
146.6110251201172
 30
0.0
 11
499.2636410040899
 21
146.6110251201172
 31
0.0
  0
LINE
  5
2AB4
330
1A
100
AcDbEntity
  8
STOPPER
100
AcDbLine
 10
484.26364100409
 20
145.2468591201172
 30
0.0
 11
499.2636410040899
 21
145.2468591201172
 31
0.0
  0
LINE
  5
2AB5
330
1A
100
AcDbEntity
  8
STOPPER
100
AcDbLine
 10
484.26364100409
 20
167.9009871201171
 30
0.0
 11
499.2636410040899
 21
167.9009871201171
 31
0.0
  0
LINE
  5
2AB6
330
1A
100
AcDbEntity
  8
SEIHIN
100
AcDbLine
 10
456.6124910040898
 20
169.9953231201171
 30
0.0
 11
439.6125110040897
 21
175.9953231201171
 31
0.0
  0
LINE
  5
2AB7
330
1A
100
AcDbEntity
  8
SEIHIN
100
AcDbLine
 10
484.26364100409
 20
169.9949241201171
 30
0.0
 11
456.6136310040899
 21
169.9949241201171
 31
0.0
  0
LINE
  5
2AB8
330
1A
100
AcDbEntity
  8
SEIHIN
100
AcDbLine
 10
547.6136510040898
 20
169.9949241201171
 30
0.0
 11
499.2636410040899
 21
169.9949241201171
 31
0.0
  0
LINE
  5
2AB9
330
1A
100
AcDbEntity
  8
STOPPER
100
AcDbLine
 10
499.2636410040899
 20
208.0995981201172
 30
0.0
 11
484.26364100409
 21
208.0995981201172
 31
0.0
  0
DIMENSION
  5
2ABA
330
1A
100
AcDbEntity
  8
SUNPOU
100
AcDbDimension
  2
*D12
 10
654.6136310040894
 20
222.8503085380139
 30
0.0
 11
641.6136310040895
 21
227.8503085380139
 31
0.0
 70
    32
 71
     5
 42
-1.0
  3
STANDARD
100
AcDbAlignedDimension
 13
628.6136310040895
 23
202.9949241201172
 33
0.0
 14
654.6136310040894
 24
202.9949241201172
 34
0.0
100
AcDbRotatedDimension
1001
ACAD
1000
DSTYLE
1002
{
1070
    41
1040
7.0
1070
    42
1040
6.0
1070
    43
1040
14.0
1070
    44
1040
3.0
1070
    73
1070
     0
1070
    74
1070
     0
1070
    77
1070
     3
1070
   140
1040
6.0
1070
   141
1040
150.0
1070
   147
1040
2.0
1070
   172
1070
     1
1070
   173
1070
     1
1070
   176
1070
   256
1070
   177
1070
   256
1070
   178
1070
   256
1070
   271
1070
     0
1070
   272
1070
     0
1070
   341
1005
6D
1070
     6
1000
OPEN
1070
     7
1000
OPEN
1070
   371
1070
    -1
1070
   372
1070
    -1
1002
}
  0
LINE
  5
2ABB
330
1A
100
AcDbEntity
  8
SEIHIN
100
AcDbLine
 10
621.1136210040899
 20
202.9949241201172
 30
0.0
 11
664.6136210040899
 21
202.9949241201171
 31
0.0
  0
LINE
  5
2ABC
330
1A
100
AcDbEntity
  8
SEIHIN
100
AcDbLine
 10
654.6136310040897
 20
176.0685771201172
 30
0.0
 11
644.6136410040899
 21
175.5685761201172
 31
0.0
  0
LINE
  5
2ABD
330
1A
100
AcDbEntity
  8
SEIHIN
100
AcDbLine
 10
620.6136410040901
 20
202.9949241201172
 30
0.0
 11
620.6136410040898
 21
171.4687101201171
 31
0.0
  0
LINE
  5
2ABE
330
1A
100
AcDbEntity
  8
SEIHIN
100
AcDbLine
 10
644.6101310040899
 20
175.5323361201171
 30
0.0
 11
620.6101310040899
 21
175.5323361201171
 31
0.0
  0
LINE
  5
2ABF
330
1A
100
AcDbEntity
  8
SEIHIN
100
AcDbLine
 10
620.6136410040898
 20
201.4164291201171
 30
0.0
 11
621.1136210040899
 21
201.4164201201172
 31
0.0
  0
LINE
  5
2AC0
330
1A
100
AcDbEntity
  8
SEIHIN
100
AcDbLine
 10
620.6136410040898
 20
200.1136791201172
 30
0.0
 11
621.1136210040899
 21
200.0875101201172
 31
0.0
  0
LINE
  5
2AC1
330
1A
100
AcDbEntity
  8
SEIHIN
100
AcDbLine
 10
621.1136210040899
 20
202.9949241201171
 30
0.0
 11
621.1136210040899
 21
200.0875101201172
 31
0.0
  0
ARC
  5
2AC2
330
1A
100
AcDbEntity
  8
SEIHIN
100
AcDbCircle
 10
621.1136510040899
 20
202.4949231201171
 30
0.0
 40
0.4999998000000002
100
AcDbArc
 50
90.0
 51
180.0
  0
LINE
  5
2AC3
330
1A
100
AcDbEntity
  8
SEIHIN
100
AcDbLine
 10
621.1136210040899
 20
200.0875101201172
 30
0.0
 11
621.0391610040897
 21
199.5881961201171
 31
0.0
  0
LINE
  5
2AC4
330
1A
100
AcDbEntity
  8
SEIHIN
100
AcDbLine
 10
621.0391610040897
 20
199.5881961201171
 30
0.0
 11
620.6584010040899
 21
198.8036241201172
 31
0.0
  0
LINE
  5
2AC5
330
1A
100
AcDbEntity
  8
SEIHIN
  6
PHANTOM
 62
     6
 48
5.0
100
AcDbLine
 10
706.6136510040901
 20
107.4949251201171
 30
0.0
 11
706.6136510040898
 21
202.9949241201172
 31
0.0
  0
LINE
  5
2AC6
330
1A
100
AcDbEntity
  8
SEIHIN
  6
PHANTOM
 62
     6
 48
5.0
100
AcDbLine
 10
686.6136310040901
 20
202.9949241201172
 30
0.0
 11
686.6136310040901
 21
107.4949251201171
 31
0.0
  0
LINE
  5
2AC7
330
1A
100
AcDbEntity
  8
SEIHIN
  6
PHANTOM
 62
     6
 48
5.0
100
AcDbLine
 10
696.6136510040898
 20
107.4949251201171
 30
0.0
 11
696.6136510040898
 21
202.9949241201171
 31
0.0
  0
LINE
  5
2ACD
330
1A
100
AcDbEntity
  8
SEIHIN
  6
PHANTOM
 62
     6
 48
5.0
100
AcDbLine
 10
706.6137110035497
 20
109.4949231201171
 30
0.0
 11
696.6137210035497
 21
109.4949231201171
 31
0.0
  0
LINE
  5
2ACE
330
1A
100
AcDbEntity
  8
SEIHIN
  6
PHANTOM
 62
     6
 48
5.0
100
AcDbLine
 10
706.6136510040901
 20
178.4949231201172
 30
0.0
 11
696.6136510040898
 21
178.4949231201171
 31
0.0
  0
LINE
  5
2ACF
330
1A
100
AcDbEntity
  8
SEIHIN
  6
PHANTOM
 62
     6
 48
5.0
100
AcDbLine
 10
638.6136410040899
 20
307.6259015716794
 30
0.0
 11
686.6134631275768
 21
307.6259015716794
 31
0.0
  0
LINE
  5
2AD0
330
1A
100
AcDbEntity
  8
SEIHIN
  6
PHANTOM
 62
     6
 48
5.0
100
AcDbLine
 10
638.6136410040899
 20
480.5946053449225
 30
0.0
 11
696.6133555878528
 21
480.5946053449225
 31
0.0
  0
LINE
  5
2AD1
330
1A
100
AcDbEntity
  8
SEIHIN
100
AcDbLine
 10
547.613648455467
 20
304.6218184822398
 30
0.0
 11
620.6136384554672
 21
305.6231884822395
 31
0.0
  0
LINE
  5
2AD2
330
1A
100
AcDbEntity
  8
SEIHIN
100
AcDbLine
 10
502.7136384554672
 20
312.6307384822398
 30
0.0
 11
571.1136384554672
 21
312.6307384822398
 31
0.0
  0
LINE
  5
2AD3
330
1A
100
AcDbEntity
  8
SEIHIN
100
AcDbLine
 10
576.1082784554671
 20
462.2112334822397
 30
0.0
 11
486.6136584554672
 21
462.2112334822397
 31
0.0
  0
LINE
  5
2AD4
330
1A
100
AcDbEntity
  8
SEIHIN
100
AcDbLine
 10
486.6136584554672
 20
326.0092984822399
 30
0.0
 11
576.1082784554671
 21
326.0092984822399
 31
0.0
  0
LINE
  5
2AD5
330
1A
100
AcDbEntity
  8
SEIHIN
100
AcDbLine
 10
486.6136584554672
 20
459.6098704822398
 30
0.0
 11
576.1136484554669
 21
459.6098704822398
 31
0.0
  0
LINE
  5
2AD6
330
1A
100
AcDbEntity
  8
SEIHIN
100
AcDbLine
 10
486.6136584554672
 20
328.6106584822398
 30
0.0
 11
576.1136484554669
 21
328.6106584822398
 31
0.0
  0
LINE
  5
2AD7
330
1A
100
AcDbEntity
  8
SEIHIN
100
AcDbLine
 10
620.6136384554672
 20
482.5973464822395
 30
0.0
 11
547.613648455467
 21
483.59872248224
 31
0.0
  0
LINE
  5
2AD8
330
1A
100
AcDbEntity
  8
SEIHIN
100
AcDbLine
 10
442.113428455467
 20
474.0374224822399
 30
0.0
 11
571.1136384554672
 21
474.0374224822399
 31
0.0
  0
LINE
  5
2AD9
330
1A
100
AcDbEntity
  8
SEIHIN
100
AcDbLine
 10
439.1136384554672
 20
384.6631384822399
 30
0.0
 11
439.1136384554672
 21
403.5574084822399
 31
0.0
  0
LINE
  5
2ADA
330
1A
100
AcDbEntity
  8
SEIHIN
100
AcDbLine
 10
441.6136284554672
 20
473.5408354822395
 30
0.0
 11
441.613628455467
 21
315.1287359281275
 31
0.0
  0
LINE
  5
2ADB
330
1A
100
AcDbEntity
  8
SEIHIN
100
AcDbLine
 10
456.6136584554672
 20
468.1078474822397
 30
0.0
 11
456.6136584554672
 21
319.9972727249262
 31
0.0
  0
LINE
  5
2ADC
330
1A
100
AcDbEntity
  8
SEIHIN
100
AcDbLine
 10
482.6136384554672
 20
317.1286984822399
 30
0.0
 11
482.6136384554672
 21
474.0374224822396
 31
0.0
  0
LINE
  5
2ADD
330
1A
100
AcDbEntity
  8
STOPPER
100
AcDbLine
 10
484.2636384554671
 20
306.5831884822398
 30
0.0
 11
499.263638455467
 21
306.5831884822398
 31
0.0
  0
LINE
  5
2ADE
330
1A
100
AcDbEntity
  8
STOPPER
100
AcDbLine
 10
499.263638455467
 20
311.5817884822397
 30
0.0
 11
484.2636384554671
 21
311.5817884822397
 31
0.0
  0
LINE
  5
2ADF
330
1A
100
AcDbEntity
  8
STOPPER
100
AcDbLine
 10
484.2636384554671
 20
302.4892384822399
 30
0.0
 11
499.263638455467
 21
302.4892384822399
 31
0.0
  0
LINE
  5
2AE0
330
1A
100
AcDbEntity
  8
STOPPER
100
AcDbLine
 10
499.263638455467
 20
317.0148484822398
 30
0.0
 11
484.2636384554671
 21
317.0148484822398
 31
0.0
  0
LINE
  5
2AE1
330
1A
100
AcDbEntity
  8
STOPPER
100
AcDbLine
 10
484.2636384554671
 20
313.1998084822398
 30
0.0
 11
499.263638455467
 21
313.1998084822398
 31
0.0
  0
LINE
  5
2AE2
330
1A
100
AcDbEntity
  8
STOPPER
100
AcDbLine
 10
484.2636384554671
 20
316.19569848224
 30
0.0
 11
499.263638455467
 21
316.19569848224
 31
0.0
  0
LINE
  5
2AE3
330
1A
100
AcDbEntity
  8
STOPPER
100
AcDbLine
 10
484.2636384554671
 20
305.4892384822398
 30
0.0
 11
499.263638455467
 21
305.4892384822398
 31
0.0
  0
LINE
  5
2AE4
330
1A
100
AcDbEntity
  8
SEIHIN
100
AcDbLine
 10
424.6136586554671
 20
379.89850848224
 30
0.0
 11
424.6136484554672
 21
336.7435384822399
 31
0.0
  0
LINE
  5
2AE5
330
1A
100
AcDbEntity
  8
SEIHIN
100
AcDbLine
 10
439.6134684554672
 20
307.6259284822399
 30
0.0
 11
456.6134784554671
 21
304.6218184822398
 31
0.0
  0
LINE
  5
2AE6
330
1A
100
AcDbEntity
  8
SEIHIN
100
AcDbLine
 10
442.6136484554672
 20
314.12869848224
 30
0.0
 11
481.1136384554672
 21
314.1286984822402
 31
0.0
  0
LINE
  5
2AE7
330
1A
100
AcDbEntity
  8
SEIHIN
100
AcDbLine
 10
456.6136584554672
 20
329.2835284822399
 30
0.0
 11
441.613628455467
 21
333.2430184822399
 31
0.0
  0
LINE
  5
2AE8
330
1A
100
AcDbEntity
  8
SEIHIN
100
AcDbLine
 10
456.6136584554672
 20
334.8233284822399
 30
0.0
 11
441.613628455467
 21
335.20405848224
 31
0.0
  0
LINE
  5
2AE9
330
1A
100
AcDbEntity
  8
SEIHIN
100
AcDbLine
 10
441.613628455467
 20
323.4398284822398
 30
0.0
 11
456.6136584554672
 21
320.1195184822397
 31
0.0
  0
ARC
  5
2AEA
330
1A
100
AcDbEntity
  8
SEIHIN
100
AcDbCircle
 10
442.6129521661176
 20
315.1280222051896
 30
0.0
 40
0.9993239655230745
100
AcDbArc
 50
180.0409209802317
 51
270.0399214325401
  0
LINE
  5
2AEB
330
1A
100
AcDbEntity
  8
SEIHIN
100
AcDbLine
 10
427.0665384554633
 20
328.2478684822399
 30
0.0
 11
440.6136384554672
 21
327.8764084822398
 31
0.0
  0
LINE
  5
2AEC
330
1A
100
AcDbEntity
  8
SEIHIN
100
AcDbLine
 10
427.1577084554671
 20
328.7425084822398
 30
0.0
 11
441.613628455467
 21
328.3461184822399
 31
0.0
  0
LINE
  5
2AED
330
1A
100
AcDbEntity
  8
SEIHIN
100
AcDbLine
 10
441.613628455467
 20
337.2381484822399
 30
0.0
 11
424.6136485723718
 21
337.2381484822399
 31
0.0
  0
LINE
  5
2AEE
330
1A
100
AcDbEntity
  8
SEIHIN
100
AcDbLine
 10
441.613628455467
 20
341.9865484822398
 30
0.0
 11
424.6136496946917
 21
341.9865484822396
 31
0.0
  0
LINE
  5
2AEF
330
1A
100
AcDbEntity
  8
SEIHIN
100
AcDbLine
 10
424.6136484554672
 20
328.61122848224
 30
0.0
 11
424.6136484554672
 21
336.7435384822399
 31
0.0
  0
LINE
  5
2AF0
330
1A
100
AcDbEntity
  8
SEIHIN
100
AcDbLine
 10
429.607418455467
 20
326.3873584822399
 30
0.0
 11
435.085598455467
 21
325.9602784822398
 31
0.0
  0
LINE
  5
2AF1
330
1A
100
AcDbEntity
  8
SEIHIN
100
AcDbLine
 10
426.4964184554671
 20
327.2369884822399
 30
0.0
 11
429.607418455467
 21
326.3873584822399
 31
0.0
  0
LINE
  5
2AF2
330
1A
100
AcDbEntity
  8
SEIHIN
100
AcDbLine
 10
427.0665384554633
 20
328.2478684822401
 30
0.0
 11
427.0665384554672
 21
327.0740884822398
 31
0.0
  0
ARC
  5
2AF3
330
1A
100
AcDbEntity
  8
SEIHIN
100
AcDbCircle
 10
428.715331026676
 20
335.3925659204401
 30
0.0
 40
8.45204214075804
100
AcDbArc
 50
242.7569162508054
 51
254.7797779092588
  0
ARC
  5
2AF4
330
1A
100
AcDbEntity
  8
SEIHIN
100
AcDbCircle
 10
424.9855391247653
 20
328.2530221832989
 30
0.0
 40
0.3999644978202659
100
AcDbArc
 50
201.5949079009479
 51
249.6222782604458
  0
ARC
  5
2AF5
330
1A
100
AcDbEntity
  8
SEIHIN
100
AcDbCircle
 10
428.0757598459599
 20
328.3175750063258
 30
0.0
 40
1.011625827337433
100
AcDbArc
 50
155.1622528195619
 51
183.9511218176255
  0
ARC
  5
2AF6
330
1A
100
AcDbEntity
  8
SEIHIN
100
AcDbCircle
 10
427.1907652282402
 20
341.8764152825074
 30
0.0
 40
13.62911296373151
100
AcDbArc
 50
261.2969976109163
 51
269.4777526343208
  0
ARC
  5
2AF7
330
1A
100
AcDbEntity
  8
SEIHIN
100
AcDbCircle
 10
425.1771133596815
 20
329.2689126887935
 30
0.0
 40
0.8660491982427355
100
AcDbArc
 50
229.4119871205773
 51
266.7827233295518
  0
ARC
  5
2AF8
330
1A
100
AcDbEntity
  8
SEIHIN
100
AcDbCircle
 10
425.1117285626028
 20
328.6077800612349
 30
0.0
 40
0.4980920444376446
100
AcDbArc
 50
89.78145383403655
 51
179.6033232206809
  0
ARC
  5
2AF9
330
1A
100
AcDbEntity
  8
SEIHIN
100
AcDbCircle
 10
425.5970918537261
 20
329.5597132634745
 30
0.0
 40
0.6631077913207664
100
AcDbArc
 50
223.1900752829044
 51
265.2965898059891
  0
ARC
  5
2AFA
330
1A
100
AcDbEntity
  8
SEIHIN
100
AcDbCircle
 10
427.2630794719296
 20
338.2511697908605
 30
0.0
 40
9.509245129513239
100
AcDbArc
 50
259.5769644158646
 51
269.3650980702532
  0
ARC
  5
2AFB
330
1A
100
AcDbEntity
  8
SEIHIN
100
AcDbCircle
 10
440.8386141161179
 20
327.8196825520929
 30
0.0
 40
0.232016980060528
100
AcDbArc
 50
103.9480033501263
 51
165.848278539257
  0
ARC
  5
2AFC
330
1A
100
AcDbEntity
  8
SEIHIN
100
AcDbCircle
 10
441.9517210038593
 20
324.8680017551496
 30
0.0
 40
3.385122710280906
100
AcDbArc
 50
95.73203060747182
 51
110.2028094005833
  0
ARC
  5
2AFD
330
1A
100
AcDbEntity
  8
SEIHIN
100
AcDbCircle
 10
441.113648455467
 20
325.4602684822398
 30
0.0
 40
0.4999998000000002
100
AcDbArc
 50
0.0
 51
90.0
  0
LINE
  5
2AFE
330
1A
100
AcDbEntity
  8
SEIHIN
100
AcDbLine
 10
440.6136384554672
 20
327.8764084822398
 30
0.0
 11
440.6136384554672
 21
325.9602784822398
 31
0.0
  0
LINE
  5
2AFF
330
1A
100
AcDbEntity
  8
SEIHIN
100
AcDbLine
 10
456.6134784554671
 20
304.6218184822398
 30
0.0
 11
484.2636384554671
 21
304.6218184822398
 31
0.0
  0
LINE
  5
2B00
330
1A
100
AcDbEntity
  8
SEIHIN
100
AcDbLine
 10
456.6099984554671
 20
320.1127084822398
 30
0.0
 11
482.6136384554672
 21
320.1127084822398
 31
0.0
  0
LINE
  5
2B01
330
1A
100
AcDbEntity
  8
SEIHIN
100
AcDbLine
 10
456.642332303365
 20
320.1127084822401
 30
0.0
 11
455.1692784554671
 21
314.18245848224
 31
0.0
  0
LINE
  5
2B02
330
1A
100
AcDbEntity
  8
STOPPER
100
AcDbLine
 10
484.2636384554671
 20
302.4892384822399
 30
0.0
 11
484.2636384554673
 21
317.0148484822398
 31
0.0
  0
LINE
  5
2B03
330
1A
100
AcDbEntity
  8
SEIHIN
100
AcDbLine
 10
484.1136384554672
 20
314.1286984822402
 30
0.0
 11
484.2636384554671
 21
314.1286984822402
 31
0.0
  0
ARC
  5
2B04
330
1A
100
AcDbEntity
  8
SEIHIN
100
AcDbCircle
 10
481.413638455467
 20
316.8286984822398
 30
0.0
 40
0.3
100
AcDbArc
 50
90.0
 51
179.9982513221644
  0
LINE
  5
2B05
330
1A
100
AcDbEntity
  8
SEIHIN
100
AcDbLine
 10
482.6288484554672
 20
321.9040384822399
 30
0.0
 11
484.108208455467
 21
321.8010784822397
 31
0.0
  0
LINE
  5
2B06
330
1A
100
AcDbEntity
  8
SEIHIN
100
AcDbLine
 10
481.4136384554672
 20
317.1286984822399
 30
0.0
 11
483.8136384554672
 21
317.1286984822399
 31
0.0
  0
ARC
  5
2B07
330
1A
100
AcDbEntity
  8
SEIHIN
100
AcDbCircle
 10
483.8136384554671
 20
316.8286984822398
 30
0.0
 40
0.3
100
AcDbArc
 50
0.0
 51
90.0
  0
LINE
  5
2B08
330
1A
100
AcDbEntity
  8
SEIHIN
100
AcDbLine
 10
484.1136384554672
 20
321.8007005669251
 30
0.0
 11
484.1136384554672
 21
314.1286984822402
 31
0.0
  0
LINE
  5
2B09
330
1A
100
AcDbEntity
  8
SEIHIN
100
AcDbLine
 10
481.1136384554672
 20
314.1286984822402
 30
0.0
 11
481.1136384554672
 21
316.8286984822398
 31
0.0
  0
LINE
  5
2B0A
330
1A
100
AcDbEntity
  8
SEIHIN
100
AcDbLine
 10
484.1136384554672
 20
317.68495848224
 30
0.0
 11
482.6136384554672
 21
317.68495848224
 31
0.0
  0
LINE
  5
2B0B
330
1A
100
AcDbEntity
  8
SEIHIN
100
AcDbLine
 10
482.6136384554672
 20
320.6758984822399
 30
0.0
 11
484.1136384554672
 21
320.6758984822399
 31
0.0
  0
LINE
  5
2B0C
330
1A
100
AcDbEntity
  8
SEIHIN
100
AcDbLine
 10
482.6136384554672
 20
329.2835284822399
 30
0.0
 11
456.6136584554672
 21
329.2835284822399
 31
0.0
  0
LINE
  5
2B0D
330
1A
100
AcDbEntity
  8
SEIHIN
100
AcDbLine
 10
482.6136384554672
 20
334.8233284822399
 30
0.0
 11
456.6136584554672
 21
334.8233284822399
 31
0.0
  0
ARC
  5
2B0E
330
1A
100
AcDbEntity
  8
SEIHIN
100
AcDbCircle
 10
486.6232012582334
 20
321.9997282924082
 30
0.0
 40
4.00958154578153
100
AcDbArc
 50
90.13636406521934
 51
180.1751894722116
  0
ARC
  5
2B0F
330
1A
100
AcDbEntity
  8
SEIHIN
100
AcDbCircle
 10
486.5774733947839
 20
324.646667903185
 30
0.0
 40
3.964155732240055
100
AcDbArc
 50
89.47699328917414
 51
179.2710838126564
  0
LINE
  5
2B10
330
1A
100
AcDbEntity
  8
SEIHIN
100
AcDbLine
 10
486.6136584554672
 20
328.6106584822398
 30
0.0
 11
486.6136584554672
 21
326.0092984822399
 31
0.0
  0
ARC
  5
2B11
330
1A
100
AcDbEntity
  8
SEIHIN
100
AcDbCircle
 10
396.3188432228757
 20
554.5675889633978
 30
0.0
 40
175.2770656390585
100
AcDbArc
 50
279.8505039504064
 51
283.787176016295
  0
ARC
  5
2B12
330
1A
100
AcDbEntity
  8
SEIHIN
100
AcDbCircle
 10
426.6136584554669
 20
379.89850848224
 30
0.0
 40
1.999999799999999
100
AcDbArc
 50
98.88065000000315
 51
180.0
  0
ARC
  5
2B13
330
1A
100
AcDbEntity
  8
SEIHIN
100
AcDbCircle
 10
436.8303572829163
 20
389.9742287327419
 30
0.0
 40
5.772709561320974
100
AcDbArc
 50
282.6056302646153
 51
293.2990475956945
  0
ARC
  5
2B14
330
1A
100
AcDbEntity
  8
SEIHIN
100
AcDbCircle
 10
438.9714045996786
 20
385.4865263893266
 30
0.0
 40
0.8265890888256954
100
AcDbArc
 50
279.9083830559637
 51
320.9849659648083
  0
LINE
  5
2B15
330
1A
100
AcDbEntity
  8
SEIHIN
100
AcDbLine
 10
440.5359984554673
 20
385.1102884822399
 30
0.0
 11
439.6136484554672
 21
384.9661684822399
 31
0.0
  0
LINE
  5
2B16
330
1A
100
AcDbEntity
  8
SEIHIN
100
AcDbLine
 10
441.613628455467
 20
385.1102884822399
 30
0.0
 11
440.5359984554673
 21
385.1102884822399
 31
0.0
  0
LINE
  5
2B17
330
1A
100
AcDbEntity
  8
SEIHIN
100
AcDbLine
 10
499.263638455467
 20
304.6218184822398
 30
0.0
 11
547.613648455467
 21
304.6218184822398
 31
0.0
  0
LINE
  5
2B18
330
1A
100
AcDbEntity
  8
SEIHIN
100
AcDbLine
 10
499.263638455467
 20
306.1218184822398
 30
0.0
 11
547.603358455467
 21
306.1218184822398
 31
0.0
  0
LINE
  5
2B19
330
1A
100
AcDbEntity
  8
STOPPER
100
AcDbLine
 10
499.263638455467
 20
302.4892384822399
 30
0.0
 11
499.263638455467
 21
317.0148484822398
 31
0.0
  0
ARC
  5
2B1A
330
1A
100
AcDbEntity
  8
SEIHIN
100
AcDbCircle
 10
499.1110753847704
 20
314.431571452043
 30
0.0
 40
0.3038418484017591
100
AcDbArc
 50
300.1399217517378
 51
5.258523255793086
  0
LINE
  5
2B1B
330
1A
100
AcDbEntity
  8
SEIHIN
100
AcDbLine
 10
502.4136384554672
 20
313.9723684822399
 30
0.0
 11
502.5027984554672
 21
313.4020384822399
 31
0.0
  0
LINE
  5
2B1C
330
1A
100
AcDbEntity
  8
SEIHIN
100
AcDbLine
 10
502.5027984554672
 20
313.4020384822399
 30
0.0
 11
502.7115084554671
 21
312.6382684822399
 31
0.0
  0
ARC
  5
2B1D
330
1A
100
AcDbEntity
  8
SEIHIN
100
AcDbCircle
 10
502.113638455467
 20
316.8286984822398
 30
0.0
 40
0.3
100
AcDbArc
 50
0.0
 51
90.0
  0
LINE
  5
2B1E
330
1A
100
AcDbEntity
  8
SEIHIN
100
AcDbLine
 10
499.7136384554671
 20
317.1286984822399
 30
0.0
 11
502.1136384554672
 21
317.1286984822399
 31
0.0
  0
ARC
  5
2B1F
330
1A
100
AcDbEntity
  8
SEIHIN
100
AcDbCircle
 10
499.7136384554671
 20
316.8286984822398
 30
0.0
 40
0.3
100
AcDbArc
 50
90.0
 51
180.0
  0
LINE
  5
2B20
330
1A
100
AcDbEntity
  8
SEIHIN
100
AcDbLine
 10
499.4136384554671
 20
313.9723684822399
 30
0.0
 11
499.4136384554671
 21
316.8286984822398
 31
0.0
  0
LINE
  5
2B21
330
1A
100
AcDbEntity
  8
SEIHIN
100
AcDbLine
 10
502.4136384554672
 20
316.8286984822398
 30
0.0
 11
502.4136384554672
 21
313.9723684822399
 31
0.0
  0
LINE
  5
2B22
330
1A
100
AcDbEntity
  8
SEIHIN
100
AcDbLine
 10
501.4027584554671
 20
321.8396284822399
 30
0.0
 11
498.9191184554672
 21
321.8396284822399
 31
0.0
  0
LINE
  5
2B23
330
1A
100
AcDbEntity
  8
SEIHIN
100
AcDbLine
 10
499.263638455467
 20
313.1793784822398
 30
0.0
 11
499.3244784554669
 21
313.4020384822399
 31
0.0
  0
LINE
  5
2B24
330
1A
100
AcDbEntity
  8
SEIHIN
100
AcDbLine
 10
499.3244784554669
 20
313.4020384822399
 30
0.0
 11
499.4136384554671
 21
313.9723684822399
 31
0.0
  0
LINE
  5
2B25
330
1A
100
AcDbEntity
  8
SEIHIN
100
AcDbLine
 10
498.9191184554672
 20
317.0148484822398
 30
0.0
 11
498.9191184554672
 21
321.8396284822399
 31
0.0
  0
LINE
  5
2B26
330
1A
100
AcDbEntity
  8
SEIHIN
100
AcDbLine
 10
501.4027584554671
 20
321.8396284822399
 30
0.0
 11
501.4027584554671
 21
317.1286984822399
 31
0.0
  0
LINE
  5
2B27
330
1A
100
AcDbEntity
  8
SEIHIN
100
AcDbLine
 10
547.603358455467
 20
306.1218184822398
 30
0.0
 11
547.613648455467
 21
304.6218184822398
 31
0.0
  0
LINE
  5
2B28
330
1A
100
AcDbEntity
  8
SEIHIN
100
AcDbLine
 10
489.6049884554672
 20
465.3233044822398
 30
0.0
 11
487.1136384554672
 21
465.3233044822398
 31
0.0
  0
LINE
  5
2B29
330
1A
100
AcDbEntity
  8
SEIHIN
100
AcDbLine
 10
547.613648455467
 20
483.59872248224
 30
0.0
 11
456.6134784554671
 21
483.59872248224
 31
0.0
  0
LINE
  5
2B2A
330
1A
100
AcDbEntity
  8
SEIHIN
100
AcDbLine
 10
424.6136484554672
 20
408.32203848224
 30
0.0
 11
424.6136484554674
 21
460.11473448224
 31
0.0
  0
ARC
  5
2B2B
330
1A
100
AcDbEntity
  8
SEIHIN
100
AcDbCircle
 10
385.8993636350928
 20
183.8610797890719
 30
0.0
 40
226.1242003276425
100
AcDbArc
 50
76.65547034312789
 51
79.70668722403091
  0
ARC
  5
2B2C
330
1A
100
AcDbEntity
  8
SEIHIN
100
AcDbCircle
 10
426.6136584554669
 20
408.32203848224
 30
0.0
 40
1.999999799999999
100
AcDbArc
 50
180.0
 51
261.1193400000022
  0
LINE
  5
2B2D
330
1A
100
AcDbEntity
  8
SEIHIN
100
AcDbLine
 10
440.5359984554673
 20
403.1102884822399
 30
0.0
 11
439.6136484554672
 21
403.2543784822398
 31
0.0
  0
LINE
  5
2B2E
330
1A
100
AcDbEntity
  8
SEIHIN
100
AcDbLine
 10
441.613628455467
 20
403.1102884822399
 30
0.0
 11
440.5359984554673
 21
403.1102884822399
 31
0.0
  0
ARC
  5
2B2F
330
1A
100
AcDbEntity
  8
SEIHIN
100
AcDbCircle
 10
435.3568008029078
 20
393.4193581401586
 30
0.0
 40
10.81174795702619
100
AcDbArc
 50
69.66690332350975
 51
75.35576246611246
  0
ARC
  5
2B30
330
1A
100
AcDbEntity
  8
SEIHIN
100
AcDbCircle
 10
438.9714045996786
 20
402.7340205751529
 30
0.0
 40
0.8265890888258828
100
AcDbArc
 50
39.01503403520144
 51
80.09161694402969
  0
LINE
  5
2B31
330
1A
100
AcDbEntity
  8
SEIHIN
100
AcDbLine
 10
441.6136284554672
 20
453.0164704822397
 30
0.0
 11
456.6136584554672
 21
453.3972214822399
 31
0.0
  0
LINE
  5
2B32
330
1A
100
AcDbEntity
  8
SEIHIN
100
AcDbLine
 10
456.6136584554672
 20
458.9370214822399
 30
0.0
 11
441.6136284554672
 21
454.9775104822399
 31
0.0
  0
LINE
  5
2B33
330
1A
100
AcDbEntity
  8
SEIHIN
100
AcDbLine
 10
456.6134784554671
 20
483.59872248224
 30
0.0
 11
439.6134684554672
 21
480.5946034822397
 31
0.0
  0
LINE
  5
2B34
330
1A
100
AcDbEntity
  8
SEIHIN
100
AcDbLine
 10
456.6136584554672
 20
468.1010284822398
 30
0.0
 11
441.6136284554672
 21
464.7807064822398
 31
0.0
  0
LINE
  5
2B35
330
1A
100
AcDbEntity
  8
SEIHIN
100
AcDbLine
 10
429.6074184554672
 20
461.8331704822399
 30
0.0
 11
425.5080684554671
 21
460.6478404822398
 31
0.0
  0
LINE
  5
2B36
330
1A
100
AcDbEntity
  8
SEIHIN
100
AcDbLine
 10
441.6136284554672
 20
459.8744164822399
 30
0.0
 11
427.1577084554671
 21
459.4780414822398
 31
0.0
  0
LINE
  5
2B37
330
1A
100
AcDbEntity
  8
SEIHIN
100
AcDbLine
 10
441.6136284554672
 20
450.9823774822398
 30
0.0
 11
424.6136484554674
 21
450.9823774822396
 31
0.0
  0
LINE
  5
2B38
330
1A
100
AcDbEntity
  8
SEIHIN
100
AcDbLine
 10
441.6136284554672
 20
446.2339804822399
 30
0.0
 11
424.6136484554674
 21
446.2339804822399
 31
0.0
  0
ARC
  5
2B39
330
1A
100
AcDbEntity
  8
SEIHIN
100
AcDbCircle
 10
425.33259586707
 20
459.0202146245712
 30
0.0
 40
0.2384722504175097
100
AcDbArc
 50
96.04355322215829
 51
156.6656659340877
  0
ARC
  5
2B3A
330
1A
100
AcDbEntity
  8
SEIHIN
100
AcDbCircle
 10
427.0254939368935
 20
452.7199260714837
 30
0.0
 40
6.759408597208822
100
AcDbArc
 50
88.8792189541253
 51
104.7241165869269
  0
ARC
  5
2B3B
330
1A
100
AcDbEntity
  8
SEIHIN
100
AcDbCircle
 10
425.1113944308633
 20
459.6129883581215
 30
0.0
 40
0.4983208835898163
100
AcDbArc
 50
191.5981863908818
 51
270.256863828312
  0
LINE
  5
2B3C
330
1A
100
AcDbEntity
  8
SEIHIN
100
AcDbLine
 10
424.8462684554672
 20
460.3424554822397
 30
0.0
 11
425.1285084554671
 21
460.4881924822397
 31
0.0
  0
LINE
  5
2B3D
330
1A
100
AcDbEntity
  8
SEIHIN
100
AcDbLine
 10
429.6074184554672
 20
461.8331704822399
 30
0.0
 11
435.085598455467
 21
462.2602624822397
 31
0.0
  0
ARC
  5
2B3E
330
1A
100
AcDbEntity
  8
SEIHIN
100
AcDbCircle
 10
441.113648455467
 20
462.7602634822399
 30
0.0
 40
0.4999998000000002
100
AcDbArc
 50
270.0
 51
0.0
  0
ARC
  5
2B3F
330
1A
100
AcDbEntity
  8
SEIHIN
100
AcDbCircle
 10
442.1193326810228
 20
473.5344368343505
 30
0.0
 40
0.505744704806641
100
AcDbArc
 50
90.64511201463412
 51
179.2750783218239
  0
ARC
  5
2B40
330
1A
100
AcDbEntity
  8
SEIHIN
100
AcDbCircle
 10
486.5777088288576
 20
463.5745052540308
 30
0.0
 40
3.964797756424467
100
AcDbArc
 50
181.205395972451
 51
270.5195195898958
  0
LINE
  5
2B41
330
1A
100
AcDbEntity
  8
SEIHIN
100
AcDbLine
 10
482.6136384554672
 20
458.9370214822399
 30
0.0
 11
456.6136584554672
 21
458.9370214822399
 31
0.0
  0
LINE
  5
2B42
330
1A
100
AcDbEntity
  8
SEIHIN
100
AcDbLine
 10
482.6136384554672
 20
453.3972214822399
 30
0.0
 11
456.6136584554672
 21
453.3972214822399
 31
0.0
  0
LINE
  5
2B43
330
1A
100
AcDbEntity
  8
SEIHIN
100
AcDbLine
 10
482.6136384554672
 20
468.10784748224
 30
0.0
 11
456.6099984554673
 21
468.10784748224
 31
0.0
  0
LINE
  5
2B44
330
1A
100
AcDbEntity
  8
SEIHIN
100
AcDbLine
 10
455.1694584554673
 20
474.0374224822399
 30
0.0
 11
456.6423283333287
 21
468.10784748224
 31
0.0
  0
LINE
  5
2B45
330
1A
100
AcDbEntity
  8
SEIHIN
100
AcDbLine
 10
487.1136384554672
 20
465.3233044822398
 30
0.0
 11
487.1136384554672
 21
474.0374224822399
 31
0.0
  0
ARC
  5
2B46
330
1A
100
AcDbEntity
  8
SEIHIN
100
AcDbCircle
 10
486.6246198275682
 20
466.2222146053432
 30
0.0
 40
4.0109961009165
100
AcDbArc
 50
179.8447271409219
 51
269.8434201567317
  0
LINE
  5
2B47
330
1A
100
AcDbEntity
  8
SEIHIN
100
AcDbLine
 10
489.6049884554672
 20
474.0374224822399
 30
0.0
 11
489.6049884554672
 21
465.3233044822398
 31
0.0
  0
LINE
  5
2B48
330
1A
100
AcDbEntity
  8
SEIHIN
100
AcDbLine
 10
664.613648455467
 20
394.1102884822396
 30
0.0
 11
654.613628455467
 21
335.2548484822396
 31
0.0
  0
LINE
  5
2B49
330
1A
100
AcDbEntity
  8
SEIHIN
100
AcDbLine
 10
621.1136484554669
 20
404.3446384822395
 30
0.0
 11
621.1136484554669
 21
383.8759084822397
 31
0.0
  0
LINE
  5
2B4A
330
1A
100
AcDbEntity
  8
SEIHIN
100
AcDbLine
 10
618.6136584554669
 20
324.3160178809735
 30
0.0
 11
618.6136584554672
 21
463.958250373149
 31
0.0
  0
LINE
  5
2B4B
330
1A
100
AcDbEntity
  8
SEIHIN
100
AcDbLine
 10
576.613628455467
 20
463.8070024822404
 30
0.0
 11
576.613628455467
 21
324.4135384822391
 31
0.0
  0
ARC
  5
2B4C
330
1A
100
AcDbEntity
  8
SEIHIN
100
AcDbCircle
 10
618.1155353321202
 20
334.2690902703168
 30
0.0
 40
0.4981353617203696
100
AcDbArc
 50
269.7829699805844
 51
359.5983694922392
  0
ARC
  5
2B4D
330
1A
100
AcDbEntity
  8
SEIHIN
100
AcDbCircle
 10
618.1163126029368
 20
324.3838447261971
 30
0.0
 40
0.4973533794595896
100
AcDbArc
 50
269.6930851536826
 51
359.6847794187614
  0
LINE
  5
2B4E
330
1A
100
AcDbEntity
  8
SEIHIN
100
AcDbLine
 10
620.6136384554672
 20
307.0445884822397
 30
0.0
 11
572.1136584554671
 21
307.04458848224
 31
0.0
  0
LINE
  5
2B4F
330
1A
100
AcDbEntity
  8
SEIHIN
100
AcDbLine
 10
571.1136384554672
 20
311.4602884822399
 30
0.0
 11
620.2399884554663
 21
311.4602884822397
 31
0.0
  0
LINE
  5
2B50
330
1A
100
AcDbEntity
  8
SEIHIN
100
AcDbLine
 10
577.1136384554672
 20
335.2548484822398
 30
0.0
 11
618.6136584554669
 21
335.2548484822398
 31
0.0
  0
LINE
  5
2B51
330
1A
100
AcDbEntity
  8
SEIHIN
100
AcDbLine
 10
571.1136384554672
 20
309.7995784822399
 30
0.0
 11
620.6136384554672
 21
309.7995784822396
 31
0.0
  0
LINE
  5
2B52
330
1A
100
AcDbEntity
  8
SEIHIN
100
AcDbLine
 10
620.6136384554672
 20
311.1602884822396
 30
0.0
 11
571.1136384554672
 21
311.1602884822398
 31
0.0
  0
LINE
  5
2B53
330
1A
100
AcDbEntity
  8
SEIHIN
100
AcDbLine
 10
577.1136384554672
 20
323.88649848224
 30
0.0
 11
618.113648455467
 21
323.88649848224
 31
0.0
  0
LINE
  5
2B54
330
1A
100
AcDbEntity
  8
SEIHIN
100
AcDbLine
 10
577.1136384554672
 20
333.7709584822398
 30
0.0
 11
618.113648455467
 21
333.7709584822398
 31
0.0
  0
LINE
  5
2B55
330
1A
100
AcDbEntity
  8
SEIHIN
100
AcDbLine
 10
571.1136384554672
 20
312.6307384822398
 30
0.0
 11
571.1136384554672
 21
308.0459584822399
 31
0.0
  0
ARC
  5
2B56
330
1A
100
AcDbEntity
  8
SEIHIN
100
AcDbCircle
 10
572.1144169632314
 20
308.0453668774232
 30
0.0
 40
1.000778682626476
100
AcDbArc
 50
179.9661299129382
 51
269.9565745168718
  0
ARC
  5
2B57
330
1A
100
AcDbEntity
  8
SEIHIN
100
AcDbCircle
 10
577.1205310418465
 20
324.3868966823395
 30
0.0
 40
0.5004456677896745
100
AcDbArc
 50
200.4741423698703
 51
269.2108462088659
  0
ARC
  5
2B58
330
1A
100
AcDbEntity
  8
SEIHIN
100
AcDbCircle
 10
576.0638032962042
 20
325.4697363834845
 30
0.0
 40
0.5526445532837584
100
AcDbArc
 50
5.789984189995554
 51
84.82523875526547
  0
ARC
  5
2B59
330
1A
100
AcDbEntity
  8
SEIHIN
100
AcDbCircle
 10
576.1181906287056
 20
328.115200942936
 30
0.0
 40
0.4954783593565412
100
AcDbArc
 50
0.7328759159500982
 51
90.52525200494342
  0
ARC
  5
2B5A
330
1A
100
AcDbEntity
  8
SEIHIN
100
AcDbCircle
 10
577.1113381913482
 20
334.2691927703651
 30
0.0
 40
0.498239598064097
100
AcDbArc
 50
191.59052709721
 51
270.2645231219686
  0
LINE
  5
2B5B
330
1A
100
AcDbEntity
  8
SEIHIN
100
AcDbLine
 10
617.6136384554673
 20
323.88649848224
 30
0.0
 11
617.6136384554673
 21
311.96026848224
 31
0.0
  0
LINE
  5
2B5C
330
1A
100
AcDbEntity
  8
SEIHIN
100
AcDbLine
 10
616.0959786165879
 20
323.8864984822398
 30
0.0
 11
616.3089384554671
 21
311.96026848224
 31
0.0
  0
LINE
  5
2B5D
330
1A
100
AcDbEntity
  8
SEIHIN
100
AcDbLine
 10
615.6222984554672
 20
311.96026848224
 30
0.0
 11
615.6222984554672
 21
323.88649848224
 31
0.0
  0
ARC
  5
2B5E
330
1A
100
AcDbEntity
  8
SEIHIN
100
AcDbCircle
 10
618.1136061401282
 20
311.9602561652625
 30
0.0
 40
0.4999676848130461
100
AcDbArc
 50
179.9985884871169
 51
270.0048492940423
  0
LINE
  5
2B5F
330
1A
100
AcDbEntity
  8
SEIHIN
100
AcDbLine
 10
635.6136384554672
 20
379.8985084822398
 30
0.0
 11
635.6136384554672
 21
328.1058184822398
 31
0.0
  0
LINE
  5
2B60
330
1A
100
AcDbEntity
  8
SEIHIN
100
AcDbLine
 10
654.613628455467
 20
308.1266284822395
 30
0.0
 11
644.613698455467
 21
307.6259284822397
 31
0.0
  0
LINE
  5
2B61
330
1A
100
AcDbEntity
  8
SEIHIN
100
AcDbLine
 10
640.613648455467
 20
311.4602884822397
 30
0.0
 11
654.613628455467
 21
311.4602884822397
 31
0.0
  0
LINE
  5
2B62
330
1A
100
AcDbEntity
  8
SEIHIN
100
AcDbLine
 10
639.747608455467
 20
311.9602684822398
 30
0.0
 11
654.613628455467
 21
311.9602684822398
 31
0.0
  0
LINE
  5
2B63
330
1A
100
AcDbEntity
  8
SEIHIN
100
AcDbLine
 10
654.613628455467
 20
322.8972184822396
 30
0.0
 11
639.613628455467
 21
322.8972184822396
 31
0.0
  0
LINE
  5
2B64
330
1A
100
AcDbEntity
  8
SEIHIN
100
AcDbLine
 10
639.613628455467
 20
323.8864984822398
 30
0.0
 11
654.613628455467
 21
323.8864984822398
 31
0.0
  0
LINE
  5
2B65
330
1A
100
AcDbEntity
  8
SEIHIN
100
AcDbLine
 10
635.6136384554672
 20
333.7709584822396
 30
0.0
 11
654.613628455467
 21
333.7709584822396
 31
0.0
  0
LINE
  5
2B66
330
1A
100
AcDbEntity
  8
SEIHIN
100
AcDbLine
 10
635.6136384554672
 20
335.2548484822396
 30
0.0
 11
654.613628455467
 21
335.2548484822396
 31
0.0
  0
LINE
  5
2B67
330
1A
100
AcDbEntity
  8
SEIHIN
100
AcDbLine
 10
639.613628455467
 20
325.4602684822395
 30
0.0
 11
639.613628455467
 21
312.4602784822395
 31
0.0
  0
LINE
  5
2B68
330
1A
100
AcDbEntity
  8
SEIHIN
100
AcDbLine
 10
620.6136384554672
 20
305.6231884822395
 30
0.0
 11
620.6136384554672
 21
325.4602684822395
 31
0.0
  0
LINE
  5
2B69
330
1A
100
AcDbEntity
  8
SEIHIN
100
AcDbLine
 10
644.613698455467
 20
307.6259284822397
 30
0.0
 11
621.1136484554669
 21
307.6259386822396
 31
0.0
  0
ARC
  5
2B6A
330
1A
100
AcDbEntity
  8
SEIHIN
100
AcDbCircle
 10
621.1136484554669
 20
308.1259384822399
 30
0.0
 40
0.4999998000000002
100
AcDbArc
 50
180.0
 51
270.0
  0
LINE
  5
2B6B
330
1A
100
AcDbEntity
  8
SEIHIN
100
AcDbLine
 10
620.6136384554672
 20
308.1969484822398
 30
0.0
 11
620.476538455467
 21
307.9539784822395
 31
0.0
  0
LINE
  5
2B6C
330
1A
100
AcDbEntity
  8
SEIHIN
100
AcDbLine
 10
620.476538455467
 20
307.9539784822395
 30
0.0
 11
620.1162984554668
 21
307.8018784822397
 31
0.0
  0
ARC
  5
2B6D
330
1A
100
AcDbEntity
  8
SEIHIN
100
AcDbCircle
 10
620.3794080511154
 20
311.7168007038471
 30
0.0
 40
0.2355362502235331
100
AcDbArc
 50
290.3452613368001
 51
6.036088037914331
  0
LINE
  5
2B6E
330
1A
100
AcDbEntity
  8
SEIHIN
100
AcDbLine
 10
620.2399884554672
 20
311.4602884822397
 30
0.0
 11
620.4612984554671
 21
311.4959584822395
 31
0.0
  0
ARC
  5
2B6F
330
1A
100
AcDbEntity
  8
SEIHIN
100
AcDbCircle
 10
640.6136349318164
 20
312.4602748585045
 30
0.0
 40
0.9999863763559634
100
AcDbArc
 50
179.9997923724377
 51
270.0007748586639
  0
ARC
  5
2B70
330
1A
100
AcDbEntity
  8
SEIHIN
100
AcDbCircle
 10
633.0536617034424
 20
336.7425825638479
 30
0.0
 40
8.000089915382986
100
AcDbArc
 50
270.1139941332962
 51
283.4893414077692
  0
ARC
  5
2B71
330
1A
100
AcDbEntity
  8
SEIHIN
100
AcDbCircle
 10
630.4453494638535
 20
338.0404147951246
 30
0.0
 40
11.29750877336791
100
AcDbArc
 50
283.9074219564518
 51
295.905056977159
  0
LINE
  5
2B72
330
1A
100
AcDbEntity
  8
SEIHIN
100
AcDbLine
 10
621.1136484554669
 20
325.9602784822395
 30
0.0
 11
639.113648455467
 21
325.9602784822395
 31
0.0
  0
LINE
  5
2B73
330
1A
100
AcDbEntity
  8
SEIHIN
100
AcDbLine
 10
635.1136584554672
 20
337.2381484822397
 30
0.0
 11
618.6136584554672
 21
337.2381484822399
 31
0.0
  0
LINE
  5
2B74
330
1A
100
AcDbEntity
  8
SEIHIN
100
AcDbLine
 10
635.6136384554672
 20
341.9865484822396
 30
0.0
 11
618.6136584554672
 21
341.9865484822398
 31
0.0
  0
LINE
  5
2B75
330
1A
100
AcDbEntity
  8
SEIHIN
100
AcDbLine
 10
618.6136584554672
 20
328.3461184822399
 30
0.0
 11
633.069578455467
 21
328.7425084822396
 31
0.0
  0
LINE
  5
2B76
330
1A
100
AcDbEntity
  8
SEIHIN
100
AcDbLine
 10
625.1416884554672
 20
325.9602784822395
 30
0.0
 11
630.6198684554672
 21
326.3873584822397
 31
0.0
  0
ARC
  5
2B77
330
1A
100
AcDbEntity
  8
SEIHIN
100
AcDbCircle
 10
619.3886727948145
 20
327.8196825520919
 30
0.0
 40
0.2320169800623554
100
AcDbArc
 50
14.15172146086225
 51
76.05199665108829
  0
ARC
  5
2B78
330
1A
100
AcDbEntity
  8
SEIHIN
100
AcDbCircle
 10
618.2755659070756
 20
324.8680017551541
 30
0.0
 40
3.385122710276284
100
AcDbArc
 50
69.79719059940288
 51
84.26796939253472
  0
LINE
  5
2B79
330
1A
100
AcDbEntity
  8
SEIHIN
100
AcDbLine
 10
619.711808455467
 20
323.0871784822397
 30
0.0
 11
619.613648455467
 21
322.8972184822396
 31
0.0
  0
ARC
  5
2B7A
330
1A
100
AcDbEntity
  8
SEIHIN
100
AcDbCircle
 10
620.97872505905
 20
321.3963894094083
 30
0.0
 40
2.112781429594888
100
AcDbArc
 50
99.95060123120076
 51
126.8444017527045
  0
ARC
  5
2B7B
330
1A
100
AcDbEntity
  8
SEIHIN
100
AcDbCircle
 10
621.1136484554669
 20
325.4602684822398
 30
0.0
 40
0.4999998000000002
100
AcDbArc
 50
90.0
 51
180.0
  0
LINE
  5
2B7C
330
1A
100
AcDbEntity
  8
SEIHIN
100
AcDbLine
 10
619.613648455467
 20
327.8764084822396
 30
0.0
 11
619.613648455467
 21
322.8972184822396
 31
0.0
  0
LINE
  5
2B7D
330
1A
100
AcDbEntity
  8
SEIHIN
100
AcDbLine
 10
620.6136384554672
 20
322.8972184822396
 30
0.0
 11
619.613648455467
 21
322.8972184822396
 31
0.0
  0
LINE
  5
2B7E
330
1A
100
AcDbEntity
  8
SEIHIN
100
AcDbLine
 10
630.6198684554672
 20
326.3873584822397
 30
0.0
 11
633.160748455467
 21
327.0740884822396
 31
0.0
  0
ARC
  5
2B7F
330
1A
100
AcDbEntity
  8
SEIHIN
100
AcDbCircle
 10
635.2417477861693
 20
328.253022183298
 30
0.0
 40
0.3999644978193719
100
AcDbArc
 50
290.3777217395269
 51
338.4050920991763
  0
ARC
  5
2B80
330
1A
100
AcDbEntity
  8
SEIHIN
100
AcDbCircle
 10
634.8947329472332
 20
329.2002843641146
 30
0.0
 40
0.2384171489323773
100
AcDbArc
 50
276.034828854556
 51
336.6709396530267
  0
ARC
  5
2B81
330
1A
100
AcDbEntity
  8
SEIHIN
100
AcDbCircle
 10
635.1152540684855
 20
328.6067662695504
 30
0.0
 40
0.4991047632435316
100
AcDbArc
 50
11.67187815965288
 51
90.18317205955506
  0
LINE
  5
2B82
330
1A
100
AcDbEntity
  8
SEIHIN
100
AcDbLine
 10
654.613628455467
 20
335.2548484822396
 30
0.0
 11
654.613628455467
 21
308.1266284822395
 31
0.0
  0
ARC
  5
2B83
330
1A
100
AcDbEntity
  8
SEIHIN
100
AcDbCircle
 10
633.613658455467
 20
379.89850848224
 30
0.0
 40
1.999999799999999
100
AcDbArc
 50
0.0
 51
81.11934000000227
  0
LINE
  5
2B84
330
1A
100
AcDbEntity
  8
SEIHIN
100
AcDbLine
 10
619.613648455467
 20
384.1102684822396
 30
0.0
 11
633.9223884554671
 21
381.8745484822398
 31
0.0
  0
LINE
  5
2B85
330
1A
100
AcDbEntity
  8
SEIHIN
100
AcDbLine
 10
618.6136584554672
 20
384.1102684822399
 30
0.0
 11
619.613648455467
 21
384.1102684822396
 31
0.0
  0
ARC
  5
2B86
330
1A
100
AcDbEntity
  8
SEIHIN
100
AcDbCircle
 10
618.1155545685988
 20
453.9514610127887
 30
0.0
 40
0.4981161164728438
100
AcDbArc
 50
0.4014943467360791
 51
90.21925109558019
  0
ARC
  5
2B87
330
1A
100
AcDbEntity
  8
SEIHIN
100
AcDbCircle
 10
618.1155545868234
 20
463.8359450735151
 30
0.0
 40
0.4981160558165211
100
AcDbArc
 50
0.4007972437173904
 51
90.21925321857862
  0
LINE
  5
2B88
330
1A
100
AcDbEntity
  8
SEIHIN
100
AcDbLine
 10
572.1136584554671
 20
481.0173634822399
 30
0.0
 11
620.6136384554672
 21
481.0173634822397
 31
0.0
  0
LINE
  5
2B89
330
1A
100
AcDbEntity
  8
SEIHIN
100
AcDbLine
 10
620.113628455467
 20
480.4209694822398
 30
0.0
 11
571.187378455467
 21
480.42096948224
 31
0.0
  0
LINE
  5
2B8A
330
1A
100
AcDbEntity
  8
SEIHIN
100
AcDbLine
 10
620.6136384554672
 20
476.7602614822396
 30
0.0
 11
571.1136384554672
 21
476.7602614822399
 31
0.0
  0
LINE
  5
2B8B
330
1A
100
AcDbEntity
  8
SEIHIN
100
AcDbLine
 10
620.6136384554672
 20
478.4209684822396
 30
0.0
 11
571.1136384554672
 21
478.4209684822399
 31
0.0
  0
LINE
  5
2B8C
330
1A
100
AcDbEntity
  8
SEIHIN
100
AcDbLine
 10
571.1136384554672
 20
477.0602614822398
 30
0.0
 11
620.6136384554672
 21
477.0602614822396
 31
0.0
  0
LINE
  5
2B8D
330
1A
100
AcDbEntity
  8
SEIHIN
100
AcDbLine
 10
618.113648455467
 20
464.3340574822397
 30
0.0
 11
577.1136384554672
 21
464.3340574822397
 31
0.0
  0
LINE
  5
2B8E
330
1A
100
AcDbEntity
  8
SEIHIN
100
AcDbLine
 10
577.1136384554672
 20
454.4495734822398
 30
0.0
 11
618.113648455467
 21
454.4495734822398
 31
0.0
  0
LINE
  5
2B8F
330
1A
100
AcDbEntity
  8
SEIHIN
100
AcDbLine
 10
577.1136384554672
 20
452.9656984822399
 30
0.0
 11
618.113648455467
 21
452.9656984822399
 31
0.0
  0
ARC
  5
2B90
330
1A
100
AcDbEntity
  8
SEIHIN
100
AcDbCircle
 10
576.118082846265
 20
460.1055992234218
 30
0.0
 40
0.4957485740330047
100
AcDbArc
 50
269.4874916864815
 51
357.9317259167716
  0
ARC
  5
2B91
330
1A
100
AcDbEntity
  8
SEIHIN
100
AcDbCircle
 10
577.1258345030676
 20
463.8217833698165
 30
0.0
 40
0.5124192715306722
100
AcDbArc
 50
91.36382077071756
 51
181.6529432210561
  0
ARC
  5
2B92
330
1A
100
AcDbEntity
  8
SEIHIN
100
AcDbCircle
 10
576.0860940506995
 20
462.740234509753
 30
0.0
 40
0.5294659903383191
100
AcDbArc
 50
272.4013723112094
 51
355.1043800901222
  0
ARC
  5
2B93
330
1A
100
AcDbEntity
  8
SEIHIN
100
AcDbCircle
 10
572.0744166512788
 20
480.0572711078882
 30
0.0
 40
0.9608759328401866
100
AcDbArc
 50
87.96911005660696
 51
180.8172166737802
  0
LINE
  5
2B94
330
1A
100
AcDbEntity
  8
SEIHIN
100
AcDbLine
 10
571.113638455467
 20
480.0435664822408
 30
0.0
 11
571.1136384554672
 21
474.09185448224
 31
0.0
  0
LINE
  5
2B95
330
1A
100
AcDbEntity
  8
SEIHIN
100
AcDbLine
 10
617.6136384554673
 20
464.3340574822397
 30
0.0
 11
617.6136384554673
 21
476.2602634822399
 31
0.0
  0
LINE
  5
2B96
330
1A
100
AcDbEntity
  8
SEIHIN
100
AcDbLine
 10
616.0959788618504
 20
464.3340574822397
 30
0.0
 11
616.3089384554671
 21
476.2602634822399
 31
0.0
  0
ARC
  5
2B97
330
1A
100
AcDbEntity
  8
SEIHIN
100
AcDbCircle
 10
615.8196573826483
 20
476.2708684161723
 30
0.0
 40
0.4893959877668623
100
AcDbArc
 50
358.7583357154413
 51
89.80201813950408
  0
ARC
  5
2B98
330
1A
100
AcDbEntity
  8
SEIHIN
100
AcDbCircle
 10
618.1136164996583
 20
476.2602834386714
 30
0.0
 40
0.4999780445897084
100
AcDbArc
 50
89.99633797325207
 51
180.0022869390218
  0
LINE
  5
2B99
330
1A
100
AcDbEntity
  8
SEIHIN
100
AcDbLine
 10
664.613648455467
 20
480.0939184822396
 30
0.0
 11
664.613648455467
 21
394.1102884822396
 31
0.0
  0
LINE
  5
2B9A
330
1A
100
AcDbEntity
  8
SEIHIN
100
AcDbLine
 10
635.6136384554672
 20
459.8200609494747
 30
0.0
 11
635.6136384554672
 21
408.3220384822397
 31
0.0
  0
DIMENSION
  5
2B9B
330
1A
100
AcDbEntity
  8
SUNPOU
100
AcDbDimension
  2
*D13
 10
664.6136459068443
 20
415.9287778004393
 30
0.0
 11
642.8636471811556
 21
420.9287778004393
 31
0.0
 70
    32
  1
\U+203B<>
 71
     5
 42
-1.0
  3
STANDARD
100
AcDbAlignedDimension
 13
621.1136484554669
 23
394.1102734822393
 33
0.0
 14
664.6136459068443
 24
394.1102734822393
 34
0.0
100
AcDbRotatedDimension
1001
ACAD
1000
DSTYLE
1002
{
1070
    41
1040
7.0
1070
    42
1040
6.0
1070
    43
1040
14.0
1070
    44
1040
3.0
1070
    73
1070
     0
1070
    74
1070
     0
1070
    77
1070
     3
1070
   140
1040
6.0
1070
   141
1040
150.0
1070
   147
1040
2.0
1070
   172
1070
     1
1070
   173
1070
     1
1070
   176
1070
   256
1070
   177
1070
   256
1070
   178
1070
   256
1070
   271
1070
     0
1070
   272
1070
     0
1070
   341
1005
6D
1070
     6
1000
OPEN
1070
     7
1000
OPEN
1070
   371
1070
    -1
1070
   372
1070
    -1
1002
}
  0
ARC
  5
2B9C
330
1A
100
AcDbEntity
  8
SEIHIN
100
AcDbCircle
 10
633.613658455467
 20
408.32203848224
 30
0.0
 40
1.999999799999999
100
AcDbArc
 50
278.8806590999999
 51
0.0
  0
LINE
  5
2B9D
330
1A
100
AcDbEntity
  8
SEIHIN
100
AcDbLine
 10
633.9223884554671
 20
406.3460284822396
 30
0.0
 11
619.613648455467
 21
404.1102784822396
 31
0.0
  0
LINE
  5
2B9E
330
1A
100
AcDbEntity
  8
SEIHIN
100
AcDbLine
 10
619.613648455467
 20
404.1102784822396
 30
0.0
 11
618.6136584554672
 21
404.1102784822398
 31
0.0
  0
LINE
  5
2B9F
330
1A
100
AcDbEntity
  8
SEIHIN
100
AcDbLine
 10
654.6136884554671
 20
480.5946034822396
 30
0.0
 11
620.6136384554672
 21
480.5946022643288
 31
0.0
  0
LINE
  5
2BA0
330
1A
100
AcDbEntity
  8
SEIHIN
100
AcDbLine
 10
639.613628455467
 20
465.3233044822395
 30
0.0
 11
664.613648455467
 21
465.3233044822395
 31
0.0
  0
LINE
  5
2BA1
330
1A
100
AcDbEntity
  8
SEIHIN
100
AcDbLine
 10
664.613648455467
 20
464.3340574822396
 30
0.0
 11
639.613628455467
 21
464.3340574822396
 31
0.0
  0
LINE
  5
2BA2
330
1A
100
AcDbEntity
  8
SEIHIN
100
AcDbLine
 10
635.6136384554672
 20
454.4495734822397
 30
0.0
 11
664.613648455467
 21
454.4495734822397
 31
0.0
  0
LINE
  5
2BA3
330
1A
100
AcDbEntity
  8
SEIHIN
100
AcDbLine
 10
635.6136384554672
 20
452.9656984822397
 30
0.0
 11
664.613648455467
 21
452.9656984822397
 31
0.0
  0
LINE
  5
2BA4
330
1A
100
AcDbEntity
  8
SEIHIN
100
AcDbLine
 10
664.613648455467
 20
476.7602614822396
 30
0.0
 11
640.613648455467
 21
476.7602614822396
 31
0.0
  0
LINE
  5
2BA5
330
1A
100
AcDbEntity
  8
SEIHIN
100
AcDbLine
 10
664.613648455467
 20
476.2602634822396
 30
0.0
 11
639.747608455467
 21
476.2602634822396
 31
0.0
  0
LINE
  5
2BA6
330
1A
100
AcDbEntity
  8
SEIHIN
100
AcDbLine
 10
619.613648455467
 20
465.3233044822395
 30
0.0
 11
619.6136484554672
 21
460.34412048224
 31
0.0
  0
ARC
  5
2BA7
330
1A
100
AcDbEntity
  8
SEIHIN
100
AcDbCircle
 10
619.7055036716974
 20
416.4056185835752
 30
0.0
 40
46.72029355792897
100
AcDbArc
 50
71.25522093048416
 51
76.49025213362257
  0
ARC
  5
2BA8
330
1A
100
AcDbEntity
  8
SEIHIN
100
AcDbCircle
 10
633.2017929740406
 20
452.7199260714849
 30
0.0
 40
6.759408597207636
100
AcDbArc
 50
75.27588341307303
 51
91.12078104587469
  0
ARC
  5
2BA9
330
1A
100
AcDbEntity
  8
SEIHIN
100
AcDbCircle
 10
633.1089704693527
 20
456.2884851231906
 30
0.0
 40
4.647244099813977
100
AcDbArc
 50
60.7315464024592
 51
69.7269021284286
  0
LINE
  5
2BAA
330
1A
100
AcDbEntity
  8
SEIHIN
100
AcDbLine
 10
635.1136584554672
 20
450.9823774822396
 30
0.0
 11
618.6136584554672
 21
450.9823774822398
 31
0.0
  0
LINE
  5
2BAB
330
1A
100
AcDbEntity
  8
SEIHIN
100
AcDbLine
 10
635.6136384554672
 20
446.2339804822398
 30
0.0
 11
618.6136584554672
 21
446.2339804822399
 31
0.0
  0
LINE
  5
2BAC
330
1A
100
AcDbEntity
  8
SEIHIN
100
AcDbLine
 10
618.6136584554672
 20
459.8744164822399
 30
0.0
 11
633.069578455467
 21
459.4780414822396
 31
0.0
  0
ARC
  5
2BAD
330
1A
100
AcDbEntity
  8
SEIHIN
100
AcDbCircle
 10
618.2757419486604
 20
463.3515695287591
 30
0.0
 40
3.384146266807195
100
AcDbArc
 50
275.7306945630521
 51
290.2057169819236
  0
ARC
  5
2BAE
330
1A
100
AcDbEntity
  8
SEIHIN
100
AcDbCircle
 10
619.3886907025421
 20
460.4008525021051
 30
0.0
 40
0.2320011049089844
100
AcDbArc
 50
283.9444201941316
 51
345.845738971925
  0
ARC
  5
2BAF
330
1A
100
AcDbEntity
  8
SEIHIN
100
AcDbCircle
 10
635.1155776009663
 20
451.4804465260974
 30
0.0
 40
0.4980727412424144
100
AcDbArc
 50
269.779230621608
 51
359.6041564971128
  0
LINE
  5
2BB0
330
1A
100
AcDbEntity
  8
SEIHIN
100
AcDbLine
 10
634.9197984554669
 20
459.2573614822397
 30
0.0
 11
635.0646984554671
 21
459.1874464822397
 31
0.0
  0
LINE
  5
2BB1
330
1A
100
AcDbEntity
  8
SEIHIN
100
AcDbLine
 10
635.0646984554671
 20
459.1874464822397
 30
0.0
 11
635.1136584554667
 21
459.1146724822396
 31
0.0
  0
ARC
  5
2BB2
330
1A
100
AcDbEntity
  8
SEIHIN
100
AcDbCircle
 10
635.1136646767315
 20
459.6196304305481
 30
0.0
 40
0.5049579483465224
100
AcDbArc
 50
269.9992940952697
 51
292.266201810608
  0
ARC
  5
2BB3
330
1A
100
AcDbEntity
  8
SEIHIN
100
AcDbCircle
 10
635.1198892464069
 20
459.6100627904008
 30
0.0
 40
0.4937497975302644
100
AcDbArc
 50
292.0184340221239
 51
359.9115401000955
  0
ARC
  5
2BB4
330
1A
100
AcDbEntity
  8
SEIHIN
100
AcDbCircle
 10
635.2416320291158
 20
459.9673977158574
 30
0.0
 40
0.4001211116332423
100
AcDbArc
 50
21.6065242420675
 51
69.61292580917609
  0
LINE
  5
2BB5
330
1A
100
AcDbEntity
  8
SEIHIN
100
AcDbLine
 10
639.113648455467
 20
462.2602624822396
 30
0.0
 11
621.1136484554669
 21
462.2602624822396
 31
0.0
  0
LINE
  5
2BB6
330
1A
100
AcDbEntity
  8
SEIHIN
100
AcDbLine
 10
620.6136384554672
 20
462.7602664822397
 30
0.0
 11
620.6136384554672
 21
482.5973464822395
 31
0.0
  0
LINE
  5
2BB7
330
1A
100
AcDbEntity
  8
SEIHIN
100
AcDbLine
 10
625.1416884554672
 20
462.2602624822396
 30
0.0
 11
630.6198684554672
 21
461.8331704822396
 31
0.0
  0
ARC
  5
2BB8
330
1A
100
AcDbEntity
  8
SEIHIN
100
AcDbCircle
 10
620.1248647440836
 20
465.4671500438598
 30
0.0
 40
0.5310683942249954
100
AcDbArc
 50
195.7154904429749
 51
256.699540579557
  0
LINE
  5
2BB9
330
1A
100
AcDbEntity
  8
SEIHIN
100
AcDbLine
 10
619.613648455467
 20
465.3233044822395
 30
0.0
 11
619.613648455467
 21
465.3233044822395
 31
0.0
  0
LINE
  5
2BBA
330
1A
100
AcDbEntity
  8
SEIHIN
100
AcDbLine
 10
620.6136384554672
 20
465.3233044822395
 30
0.0
 11
619.613648455467
 21
465.3233044822395
 31
0.0
  0
LINE
  5
2BBB
330
1A
100
AcDbEntity
  8
SEIHIN
100
AcDbLine
 10
620.0026884554654
 20
464.9503264822404
 30
0.0
 11
620.6136384554672
 21
464.7431614822396
 31
0.0
  0
ARC
  5
2BBC
330
1A
100
AcDbEntity
  8
SEIHIN
100
AcDbCircle
 10
621.1136484554669
 20
462.7602634822399
 30
0.0
 40
0.4999998000000002
100
AcDbArc
 50
180.0
 51
270.0
  0
ARC
  5
2BBD
330
1A
100
AcDbEntity
  8
SEIHIN
100
AcDbCircle
 10
620.1048455413454
 20
479.8966552813749
 30
0.0
 40
0.5243877580657925
100
AcDbArc
 50
14.00825655017374
 51
89.04031428256471
  0
LINE
  5
2BBE
330
1A
100
AcDbEntity
  8
SEIHIN
100
AcDbLine
 10
639.613628455467
 20
475.7602624822395
 30
0.0
 11
639.613628455467
 21
462.7602664822397
 31
0.0
  0
ARC
  5
2BBF
330
1A
100
AcDbEntity
  8
SEIHIN
100
AcDbCircle
 10
639.113648455467
 20
462.7602634822399
 30
0.0
 40
0.4999998000000002
100
AcDbArc
 50
270.0
 51
0.0
  0
ARC
  5
2BC0
330
1A
100
AcDbEntity
  8
SEIHIN
100
AcDbCircle
 10
640.6136759135163
 20
475.7602149234364
 30
0.0
 40
1.000047459180191
100
AcDbArc
 50
90.0015731556788
 51
179.9972752106065
  0
LINE
  5
2BC1
330
1A
100
AcDbEntity
  8
SEIHIN
100
AcDbLine
 10
664.613648455467
 20
480.0918664822397
 30
0.0
 11
654.6136884554671
 21
480.5946034822396
 31
0.0
  0
LINE
  5
2BC2
330
1A
100
AcDbEntity
  8
SEIHIN
  6
PHANTOM
 62
     6
 48
5.0
100
AcDbLine
 10
706.6136510040898
 20
394.1102734822397
 30
0.0
 11
696.6136310040899
 21
335.2548334822397
 31
0.0
  0
LINE
  5
2BC3
330
1A
100
AcDbEntity
  8
SEIHIN
  6
PHANTOM
 62
     6
 48
5.0
100
AcDbLine
 10
696.6136310040899
 20
335.2548334822397
 30
0.0
 11
696.6136310040899
 21
308.1266134822397
 31
0.0
  0
LINE
  5
2BC4
330
1A
100
AcDbEntity
  8
SEIHIN
  6
PHANTOM
 62
     6
 48
2.0
100
AcDbLine
 10
696.6136310040899
 20
308.1266134822397
 30
0.0
 11
686.6137010040899
 21
307.6259134822398
 31
0.0
  0
LINE
  5
2BC5
330
1A
100
AcDbEntity
  8
SEIHIN
  6
PHANTOM
 62
     6
 48
5.0
100
AcDbLine
 10
706.6136510040896
 20
394.1102734822393
 30
0.0
 11
706.6136510040896
 21
480.0918514822399
 31
0.0
  0
LINE
  5
2BC6
330
1A
100
AcDbEntity
  8
SEIHIN
  6
PHANTOM
 62
     6
 48
2.0
100
AcDbLine
 10
706.6136510040898
 20
480.0918514822399
 30
0.0
 11
696.61369100409
 21
480.5945884822397
 31
0.0
  0
VIEWPORT
  5
22
330
17
100
AcDbEntity
 67
     1
  8
0
100
AcDbViewport
 10
313.6808219178082
 20
148.5
 30
0.0
 40
627.3616438356165
 41
297.0
 68
     2
 69
     1
 12
313.6808219178082
 22
148.5
 13
0.0
 23
0.0
 14
1.0
 24
1.0
 15
10.0
 25
10.0
 16
0.0
 26
0.0
 36
1.0
 17
0.0
 27
0.0
 37
0.0
 42
50.0
 43
0.0
 44
0.0
 45
297.0
 50
0.0
 51
0.0
 72
   100
 90
    32768
  1

281
     0
 71
     1
 74
     0
110
0.0
120
0.0
130
0.0
111
1.0
121
0.0
131
0.0
112
0.0
122
1.0
132
0.0
 79
     0
146
0.0
  0
VIEWPORT
  5
64
330
17
100
AcDbEntity
 67
     1
  8
VIEWPORT
100
AcDbViewport
 10
210.0
 20
148.5
 30
0.0
 40
420.0
 41
297.0
 68
     1
 69
     2
 12
420.0
 22
297.0
 13
0.0
 23
0.0
 14
10.0
 24
10.0
 15
0.0
 25
0.0
 16
0.0
 26
0.0
 36
1.0
 17
0.0
 27
0.0
 37
0.0
 42
50.0
 43
0.0
 44
0.0
 45
605.8799999999998
 50
0.0
 51
0.0
 72
   100
 90
    32768
  1

281
     0
 71
     1
 74
     0
110
0.0
120
0.0
130
0.0
111
1.0
121
0.0
131
0.0
112
0.0
122
1.0
132
0.0
 79
     0
146
0.0
  0
ENDSEC
  0
SECTION
  2
OBJECTS
  0
DICTIONARY
  5
C
330
0
100
AcDbDictionary
281
     1
  3
ACAD_GROUP
350
D
  3
ACAD_LAYOUT
350
340
  3
ACAD_MLINESTYLE
350
E
  3
ACAD_PLOTSETTINGS
350
341
  3
ACAD_PLOTSTYLENAME
350
33E
  3
AcDbVariableDictionary
350
11E9
  0
DICTIONARY
  5
385
330
1A
100
AcDbDictionary
280
     1
281
     1
  3
ACAD_LAYOUTSELFREF
360
2DD8
  0
DICTIONARY
  5
383
330
17
100
AcDbDictionary
280
     1
281
     1
  3
ACAD_LAYOUTSELFREF
360
2DD7
  0
DICTIONARY
  5
D
102
{ACAD_REACTORS
330
C
102
}
330
C
100
AcDbDictionary
281
     1
  0
DICTIONARY
  5
340
102
{ACAD_REACTORS
330
C
102
}
330
C
100
AcDbDictionary
281
     1
  3
Model
350
342
  3
ﾚｲｱｳﾄ1
350
343
  0
DICTIONARY
  5
E
102
{ACAD_REACTORS
330
C
102
}
330
C
100
AcDbDictionary
281
     1
  3
STANDARD
350
13
  0
DICTIONARY
  5
341
102
{ACAD_REACTORS
330
C
102
}
330
C
100
AcDbDictionary
281
     1
  0
ACDBDICTIONARYWDFLT
  5
33E
102
{ACAD_REACTORS
330
C
102
}
330
C
100
AcDbDictionary
281
     1
  3
Normal
350
33F
100
AcDbDictionaryWithDefault
340
33F
1001
ACAD
1000
TREAT_AS_HARD
1070
     0
1000
TREAT_AS_HARD
1070
     0
1000
TREAT_AS_HARD
1070
     0
1000
TREAT_AS_HARD
1070
     0
1000
TREAT_AS_HARD
1070
     0
1000
TREAT_AS_HARD
1070
     0
1000
TREAT_AS_HARD
1070
     0
1000
TREAT_AS_HARD
1070
     0
  0
DICTIONARY
  5
11E9
102
{ACAD_REACTORS
330
C
102
}
330
C
100
AcDbDictionary
281
     1
  3
SORTENTS
350
11EA
  0
XRECORD
  5
2DD8
102
{ACAD_REACTORS
330
385
102
}
330
385
100
AcDbXrecord
280
     1
340
1A
  0
XRECORD
  5
2DD7
102
{ACAD_REACTORS
330
383
102
}
330
383
100
AcDbXrecord
280
     1
340
17
  0
LAYOUT
  5
342
102
{ACAD_REACTORS
330
340
102
}
330
340
100
AcDbPlotSettings
  1

  2
Acrobat Distiller
  4
A3
  6

 40
3.174999952316284
 41
3.174999952316284
 42
3.17498779296875
 43
3.17498779296875
 44
297.0318298339843
 45
420.1583251953125
 46
0.0
 47
0.0
 48
0.0
 49
0.0
140
0.0
141
0.0
142
1.0
143
2.0
 70
 11952
 72
     1
 73
     1
 74
     2
  7
print.ctb
 75
    17
147
0.5
148
0.0
149
0.0
100
AcDbLayout
  1
Model
 70
     1
 71
     0
 10
0.0
 20
0.0
 11
12.0
 21
9.0
 12
0.0
 22
0.0
 32
0.0
 14
0.0
 24
0.0
 34
0.0
 15
0.0
 25
0.0
 35
0.0
146
0.0
 13
0.0
 23
0.0
 33
0.0
 16
1.0
 26
0.0
 36
0.0
 17
0.0
 27
1.0
 37
0.0
 76
     0
330
1A
  0
LAYOUT
  5
343
102
{ACAD_REACTORS
330
340
102
}
330
340
100
AcDbPlotSettings
  1

  2
Acrobat Distiller
  4

  6

 40
0.0
 41
0.0
 42
0.0
 43
0.0
 44
0.0
 45
0.0
 46
0.0
 47
0.0
 48
0.0
 49
0.0
140
0.0
141
0.0
142
1.0
143
1.0
 70
   688
 72
     0
 73
     0
 74
     5
  7
print.ctb
 75
    16
147
1.0
148
0.0
149
0.0
100
AcDbLayout
  1
ﾚｲｱｳﾄ1
 70
     1
 71
     1
 10
0.0
 20
0.0
 11
420.0
 21
297.0
 12
0.0
 22
0.0
 32
0.0
 14
0.0
 24
0.0
 34
0.0
 15
420.0
 25
297.0
 35
0.0
146
0.0
 13
0.0
 23
0.0
 33
0.0
 16
1.0
 26
0.0
 36
0.0
 17
0.0
 27
1.0
 37
0.0
 76
     0
330
17
331
64
  0
MLINESTYLE
  5
13
102
{ACAD_REACTORS
330
E
102
}
330
E
100
AcDbMlineStyle
  2
STANDARD
 70
     0
  3

 62
     0
 51
90.0
 52
90.0
 71
     2
 49
0.5
 62
   256
  6
BYLAYER
 49
-0.5
 62
   256
  6
BYLAYER
  0
ACDBPLACEHOLDER
  5
33F
102
{ACAD_REACTORS
330
33E
102
}
330
33E
  0
DICTIONARYVAR
  5
11EA
102
{ACAD_REACTORS
330
11E9
102
}
330
11E9
100
DictionaryVariables
280
     0
  1
96
  0
ENDSEC
  0
EOF
