  0
SECTION
  2
HEADER
  9
$ACADVER
  1
AC1015
  9
$ACADMAINTVER
 70
    20
  9
$DWGCODEPAGE
  3
ANSI_932
  9
$INSBASE
 10
0.0
 20
0.0
 30
0.0
  9
$EXTMIN
 10
972.6680863822334
 20
8.773683033852876
 30
-0.0015258207003583
  9
$EXTMAX
 10
1770.348834964277
 20
560.3917249767014
 30
0.0000000349246037
  9
$LIMMIN
 10
0.0
 20
0.0
  9
$LIMMAX
 10
840.0
 20
594.0
  9
$ORTHOMODE
 70
     1
  9
$REGENMODE
 70
     1
  9
$FILLMODE
 70
     1
  9
$QTEXTMODE
 70
     0
  9
$MIRRTEXT
 70
     1
  9
$LTSCALE
 40
1.0
  9
$ATTMODE
 70
     1
  9
$TEXTSIZE
 40
5.0
  9
$TRACEWID
 40
1.0
  9
$TEXTSTYLE
  7
MSｺﾞｼｯｸ
  9
$CLAYER
  8
0
  9
$CELTYPE
  6
BYLAYER
  9
$CECOLOR
 62
   256
  9
$CELTSCALE
 40
1.0
  9
$DISPSILH
 70
     0
  9
$DIMSCALE
 40
1.0
  9
$DIMASZ
 40
4.0
  9
$DIMEXO
 40
3.0
  9
$DIMDLI
 40
9.0
  9
$DIMRND
 40
0.0
  9
$DIMDLE
 40
0.0
  9
$DIMEXE
 40
3.0
  9
$DIMTP
 40
0.0
  9
$DIMTM
 40
0.0
  9
$DIMTXT
 40
6.0
  9
$DIMCEN
 40
0.0
  9
$DIMTSZ
 40
0.0
  9
$DIMTOL
 70
     0
  9
$DIMLIM
 70
     0
  9
$DIMTIH
 70
     0
  9
$DIMTOH
 70
     0
  9
$DIMSE1
 70
     0
  9
$DIMSE2
 70
     0
  9
$DIMTAD
 70
     3
  9
$DIMZIN
 70
     0
  9
$DIMBLK
  1
OPEN
  9
$DIMASO
 70
     1
  9
$DIMSHO
 70
     1
  9
$DIMPOST
  1

  9
$DIMAPOST
  1

  9
$DIMALT
 70
     0
  9
$DIMALTD
 70
     2
  9
$DIMALTF
 40
25.4
  9
$DIMLFAC
 40
1.0
  9
$DIMTOFL
 70
     0
  9
$DIMTVP
 40
0.0
  9
$DIMTIX
 70
     0
  9
$DIMSOXD
 70
     0
  9
$DIMSAH
 70
     0
  9
$DIMBLK1
  1

  9
$DIMBLK2
  1

  9
$DIMSTYLE
  2
STANDARD
  9
$DIMCLRD
 70
   256
  9
$DIMCLRE
 70
   256
  9
$DIMCLRT
 70
   256
  9
$DIMTFAC
 40
1.0
  9
$DIMGAP
 40
3.0
  9
$DIMJUST
 70
     0
  9
$DIMSD1
 70
     0
  9
$DIMSD2
 70
     0
  9
$DIMTOLJ
 70
     1
  9
$DIMTZIN
 70
     0
  9
$DIMALTZ
 70
     0
  9
$DIMALTTZ
 70
     0
  9
$DIMUPT
 70
     0
  9
$DIMDEC
 70
     0
  9
$DIMTDEC
 70
     0
  9
$DIMALTU
 70
     2
  9
$DIMALTTD
 70
     2
  9
$DIMTXSTY
  7
STANDARD
  9
$DIMAUNIT
 70
     0
  9
$DIMADEC
 70
     0
  9
$DIMALTRND
 40
0.0
  9
$DIMAZIN
 70
     0
  9
$DIMDSEP
 70
    46
  9
$DIMATFIT
 70
     3
  9
$DIMFRAC
 70
     0
  9
$DIMLDRBLK
  1
OPEN
  9
$DIMLUNIT
 70
     2
  9
$DIMLWD
 70
    -1
  9
$DIMLWE
 70
    -1
  9
$DIMTMOVE
 70
     0
  9
$LUNITS
 70
     2
  9
$LUPREC
 70
     4
  9
$SKETCHINC
 40
1.0
  9
$FILLETRAD
 40
2.0
  9
$AUNITS
 70
     0
  9
$AUPREC
 70
     0
  9
$MENU
  1
.
  9
$ELEVATION
 40
0.0
  9
$PELEVATION
 40
0.0
  9
$THICKNESS
 40
0.0
  9
$LIMCHECK
 70
     0
  9
$CHAMFERA
 40
20.0
  9
$CHAMFERB
 40
20.0
  9
$CHAMFERC
 40
40.0
  9
$CHAMFERD
 40
0.0
  9
$SKPOLY
 70
     0
  9
$TDCREATE
 40
2451806.684426273
  9
$TDUCREATE
 40
2451806.309426273
  9
$TDUPDATE
 40
2456346.370029294
  9
$TDUUPDATE
 40
2456345.995029294
  9
$TDINDWG
 40
0.0629175347
  9
$TDUSRTIMER
 40
0.0629175347
  9
$USRTIMER
 70
     1
  9
$ANGBASE
 50
0.0
  9
$ANGDIR
 70
     0
  9
$PDMODE
 70
     0
  9
$PDSIZE
 40
0.0
  9
$PLINEWID
 40
0.0
  9
$SPLFRAME
 70
     0
  9
$SPLINETYPE
 70
     6
  9
$SPLINESEGS
 70
     8
  9
$HANDSEED
  5
4FCE
  9
$SURFTAB1
 70
     6
  9
$SURFTAB2
 70
     6
  9
$SURFTYPE
 70
     6
  9
$SURFU
 70
     6
  9
$SURFV
 70
     6
  9
$UCSBASE
  2

  9
$UCSNAME
  2

  9
$UCSORG
 10
0.0
 20
0.0
 30
0.0
  9
$UCSXDIR
 10
1.0
 20
0.0
 30
0.0
  9
$UCSYDIR
 10
0.0
 20
1.0
 30
0.0
  9
$UCSORTHOREF
  2

  9
$UCSORTHOVIEW
 70
     0
  9
$UCSORGTOP
 10
0.0
 20
0.0
 30
0.0
  9
$UCSORGBOTTOM
 10
0.0
 20
0.0
 30
0.0
  9
$UCSORGLEFT
 10
0.0
 20
0.0
 30
0.0
  9
$UCSORGRIGHT
 10
0.0
 20
0.0
 30
0.0
  9
$UCSORGFRONT
 10
0.0
 20
0.0
 30
0.0
  9
$UCSORGBACK
 10
0.0
 20
0.0
 30
0.0
  9
$PUCSBASE
  2

  9
$PUCSNAME
  2

  9
$PUCSORG
 10
0.0
 20
0.0
 30
0.0
  9
$PUCSXDIR
 10
1.0
 20
0.0
 30
0.0
  9
$PUCSYDIR
 10
0.0
 20
1.0
 30
0.0
  9
$PUCSORTHOREF
  2

  9
$PUCSORTHOVIEW
 70
     0
  9
$PUCSORGTOP
 10
0.0
 20
0.0
 30
0.0
  9
$PUCSORGBOTTOM
 10
0.0
 20
0.0
 30
0.0
  9
$PUCSORGLEFT
 10
0.0
 20
0.0
 30
0.0
  9
$PUCSORGRIGHT
 10
0.0
 20
0.0
 30
0.0
  9
$PUCSORGFRONT
 10
0.0
 20
0.0
 30
0.0
  9
$PUCSORGBACK
 10
0.0
 20
0.0
 30
0.0
  9
$USERI1
 70
     0
  9
$USERI2
 70
     0
  9
$USERI3
 70
     0
  9
$USERI4
 70
     0
  9
$USERI5
 70
     0
  9
$USERR1
 40
0.0
  9
$USERR2
 40
0.0
  9
$USERR3
 40
0.0
  9
$USERR4
 40
0.0
  9
$USERR5
 40
0.0
  9
$WORLDVIEW
 70
     1
  9
$SHADEDGE
 70
     3
  9
$SHADEDIF
 70
    70
  9
$TILEMODE
 70
     1
  9
$MAXACTVP
 70
    16
  9
$PINSBASE
 10
0.0
 20
0.0
 30
0.0
  9
$PLIMCHECK
 70
     0
  9
$PEXTMIN
 10
-0.0128164049386896
 20
-0.0090630292066862
 30
-0.0015258207003583
  9
$PEXTMAX
 10
420.0128183607161
 20
322.6654819831541
 30
0.0000000349246037
  9
$PLIMMIN
 10
-10.01343682308299
 20
-10.00967368473416
  9
$PLIMMAX
 10
430.0134290162437
 20
330.0110840973768
  9
$UNITMODE
 70
     0
  9
$VISRETAIN
 70
     0
  9
$PLINEGEN
 70
     0
  9
$PSLTSCALE
 70
     1
  9
$TREEDEPTH
 70
  3020
  9
$CMLSTYLE
  2
STANDARD
  9
$CMLJUST
 70
     0
  9
$CMLSCALE
 40
1.0
  9
$PROXYGRAPHICS
 70
     1
  9
$MEASUREMENT
 70
     1
  9
$CELWEIGHT
370
    -1
  9
$ENDCAPS
280
     0
  9
$JOINSTYLE
280
     0
  9
$LWDISPLAY
290
     0
  9
$INSUNITS
 70
     0
  9
$HYPERLINKBASE
  1

  9
$STYLESHEET
  1
print.ctb
  9
$XEDIT
290
     1
  9
$CEPSNTYPE
380
     0
  9
$PSTYLEMODE
290
     1
  9
$FINGERPRINTGUID
  2
{75772F4A-CE5A-11D3-932C-444553540000}
  9
$VERSIONGUID
  2
{CF20962F-3170-4419-96E3-D165E440C693}
  9
$EXTNAMES
290
     1
  9
$PSVPSCALE
 40
0.0
  9
$OLESTARTUP
290
     0
  0
ENDSEC
  0
SECTION
  2
CLASSES
  0
CLASS
  1
ACDBDICTIONARYWDFLT
  2
AcDbDictionaryWithDefault
  3
ObjectDBX Classes
 90
        0
280
     0
281
     0
  0
CLASS
  1
ACDBPLACEHOLDER
  2
AcDbPlaceHolder
  3
ObjectDBX Classes
 90
        0
280
     0
281
     0
  0
CLASS
  1
LAYOUT
  2
AcDbLayout
  3
ObjectDBX Classes
 90
        0
280
     0
281
     0
  0
CLASS
  1
DIMASSOC
  2
AcDbDimAssoc
  3
"AcDbDimAssoc|Product Desc:     AcDim ARX App For Dimension|Company:          Autodesk, Inc.|WEB Address:      www.autodesk.com"
 90
    32768
280
     0
281
     0
  0
CLASS
  1
DICTIONARYVAR
  2
AcDbDictionaryVar
  3
ObjectDBX Classes
 90
        0
280
     0
281
     0
  0
ENDSEC
  0
SECTION
  2
TABLES
  0
TABLE
  2
VPORT
  5
8
330
0
100
AcDbSymbolTable
 70
     2
  0
VPORT
  5
4FC2
330
8
100
AcDbSymbolTableRecord
100
AcDbViewportTableRecord
  2
*Active
 70
     0
 10
0.0
 20
0.0
 11
1.0
 21
1.0
 12
1371.508460673255
 22
284.5827040052771
 13
0.0
 23
0.0
 14
5.0
 24
5.0
 15
0.0
 25
0.0
 16
0.0
 26
0.0
 36
1.0
 17
0.0
 27
0.0
 37
0.0
 40
556.5213134267849
 41
2.028189910979228
 42
50.0
 43
0.0
 44
0.0
 50
0.0
 51
0.0
 71
     0
 72
   100
 73
     1
 74
     0
 75
     0
 76
     0
 77
     0
 78
     0
281
     0
 65
     1
110
0.0
120
0.0
130
0.0
111
1.0
121
0.0
131
0.0
112
0.0
122
1.0
132
0.0
 79
     0
146
0.0
  0
ENDTAB
  0
TABLE
  2
LTYPE
  5
5
330
0
100
AcDbSymbolTable
 70
     3
  0
LTYPE
  5
14
330
5
100
AcDbSymbolTableRecord
100
AcDbLinetypeTableRecord
  2
BYBLOCK
 70
     0
  3

 72
    65
 73
     0
 40
0.0
  0
LTYPE
  5
15
330
5
100
AcDbSymbolTableRecord
100
AcDbLinetypeTableRecord
  2
BYLAYER
 70
     0
  3

 72
    65
 73
     0
 40
0.0
  0
LTYPE
  5
16
330
5
100
AcDbSymbolTableRecord
100
AcDbLinetypeTableRecord
  2
CONTINUOUS
 70
     0
  3
Solid line
 72
    65
 73
     0
 40
0.0
  0
LTYPE
  5
135
330
5
100
AcDbSymbolTableRecord
100
AcDbLinetypeTableRecord
  2
CENTER
 70
     0
  3
____ _ ____ _ ____ _ ____ _ ____ _ ____ _ ____ 
 72
    65
 73
     4
 40
2.0
 49
1.25
 74
     0
 49
-0.25
 74
     0
 49
0.25
 74
     0
 49
-0.25
 74
     0
  0
LTYPE
  5
3F98
330
5
100
AcDbSymbolTableRecord
100
AcDbLinetypeTableRecord
  2
SLD-実線
 70
     0
  3
SolidWorks Line Style
 72
    65
 73
     0
 40
0.0
  0
ENDTAB
  0
TABLE
  2
LAYER
  5
2
102
{ACAD_XDICTIONARY
360
3F9F
102
}
330
0
100
AcDbSymbolTable
 70
    10
  0
LAYER
  5
F
330
2
100
AcDbSymbolTableRecord
100
AcDbLayerTableRecord
  2
0
 70
     0
 62
     7
  6
CONTINUOUS
370
    -3
390
14B
  0
LAYER
  5
62
330
2
100
AcDbSymbolTableRecord
100
AcDbLayerTableRecord
  2
VIEWPORT
 70
     0
 62
     7
  6
CONTINUOUS
370
    -3
390
14B
  0
LAYER
  5
65
330
2
100
AcDbSymbolTableRecord
100
AcDbLayerTableRecord
  2
ZUWAKU
 70
     0
 62
     7
  6
CONTINUOUS
370
    -3
390
14B
  0
LAYER
  5
1BD
330
2
100
AcDbSymbolTableRecord
100
AcDbLayerTableRecord
  2
DEFPOINTS
 70
     0
 62
     7
  6
CONTINUOUS
290
     0
370
    -3
390
14B
  0
LAYER
  5
1BF
330
2
100
AcDbSymbolTableRecord
100
AcDbLayerTableRecord
  2
SEIHIN
 70
     0
 62
     3
  6
CONTINUOUS
370
    -3
390
14B
  0
LAYER
  5
1C0
330
2
100
AcDbSymbolTableRecord
100
AcDbLayerTableRecord
  2
CENTER L
 70
     0
 62
     1
  6
CENTER
370
    -3
390
14B
  0
LAYER
  5
1C1
330
2
100
AcDbSymbolTableRecord
100
AcDbLayerTableRecord
  2
SUNPOU
 70
     0
 62
     4
  6
CONTINUOUS
370
    -3
390
14B
  0
LAYER
  5
DE3
330
2
100
AcDbSymbolTableRecord
100
AcDbLayerTableRecord
  2
moji
 70
     0
 62
     2
  6
CONTINUOUS
370
    -3
390
14B
  0
LAYER
  5
3F99
102
{ACAD_XDICTIONARY
360
3F9A
102
}
330
2
100
AcDbSymbolTableRecord
100
AcDbLayerTableRecord
  2
0_______
 70
     0
 62
     7
  6
SLD-実線
370
    -3
390
14B
  0
LAYER
  5
4789
102
{ACAD_XDICTIONARY
360
478A
102
}
330
2
100
AcDbSymbolTableRecord
100
AcDbLayerTableRecord
  2
CENTER_L
 70
     0
 62
     1
  6
CENTER
370
    -3
390
14B
  0
ENDTAB
  0
TABLE
  2
STYLE
  5
3
330
0
100
AcDbSymbolTable
 70
     4
  0
STYLE
  5
10
330
3
100
AcDbSymbolTableRecord
100
AcDbTextStyleTableRecord
  2
STANDARD
 70
     0
 40
0.0
 41
1.0
 50
0.0
 71
     0
 42
5.0
  3
TXT
  4
c:\PROGRAM FILES\AUTOCAD LT\ms\bigfont.shx
  0
STYLE
  5
DD6
330
3
100
AcDbSymbolTableRecord
100
AcDbTextStyleTableRecord
  2
MSｺﾞｼｯｸ
 70
     0
 40
0.0
 41
1.0
 50
0.0
 71
     0
 42
5.0
  3
MS Gothic.ttf
  4

1001
ACAD
1000
MS Gothic
1071
    32817
  0
STYLE
  5
3F9C
330
3
100
AcDbSymbolTableRecord
100
AcDbTextStyleTableRecord
  2
MS
 70
     0
 40
0.0
 41
1.0
 50
0.0
 71
     0
 42
3.5
  3
MS Gothic.ttf
  4

1001
ACAD
1000
MS Gothic
1071
    32817
  0
STYLE
  5
3F9D
330
3
100
AcDbSymbolTableRecord
100
AcDbTextStyleTableRecord
  2
ｽﾀｲﾙ1
 70
     0
 40
0.0
 41
1.0
 50
0.0
 71
     0
 42
2.5
  3
MS PGothic.ttf
  4

1001
ACAD
1000
MS PGothic
1071
    32818
  0
ENDTAB
  0
TABLE
  2
VIEW
  5
6
330
0
100
AcDbSymbolTable
 70
     0
  0
ENDTAB
  0
TABLE
  2
UCS
  5
7
330
0
100
AcDbSymbolTable
 70
     0
  0
ENDTAB
  0
TABLE
  2
APPID
  5
9
330
0
100
AcDbSymbolTable
 70
     1
  0
APPID
  5
11
330
9
100
AcDbSymbolTableRecord
100
AcDbRegAppTableRecord
  2
ACAD
 70
     0
  0
ENDTAB
  0
TABLE
  2
DIMSTYLE
  5
A
330
0
100
AcDbSymbolTable
 70
     2
100
AcDbDimStyleTable
 71
     0
  0
DIMSTYLE
105
1D
102
{ACAD_REACTORS
330
4E78
330
4E77
330
4E80
330
4E82
330
4E83
330
4E81
330
4E7C
330
4E7B
330
4E84
330
4E7A
330
4E79
330
4E74
330
4E7D
102
}
330
A
100
AcDbSymbolTableRecord
100
AcDbDimStyleTableRecord
  2
STANDARD
 70
     0
 41
4.0
 42
3.0
 43
9.0
 44
3.0
 73
     0
 74
     0
 77
     3
140
6.0
141
0.0
147
3.0
176
   256
177
   256
178
   256
271
     0
272
     0
340
10
341
6D
342
6D
371
    -1
372
    -1
  0
DIMSTYLE
105
3F9E
330
A
100
AcDbSymbolTableRecord
100
AcDbDimStyleTableRecord
  2
ISO-25
 70
     0
 41
2.5
 42
0.625
 43
3.75
 44
1.25
 73
     0
 74
     0
 77
     1
 78
     8
140
2.5
141
2.5
143
0.03937007874016
147
0.625
171
     3
172
     1
271
     2
272
     2
274
     3
279
     2
340
10
  0
ENDTAB
  0
TABLE
  2
BLOCK_RECORD
  5
1
330
0
100
AcDbSymbolTable
 70
    80
  0
BLOCK_RECORD
  5
1A
102
{ACAD_XDICTIONARY
360
CFB
102
}
330
1
100
AcDbSymbolTableRecord
100
AcDbBlockTableRecord
  2
*MODEL_SPACE
340
14E
  0
BLOCK_RECORD
  5
17
102
{ACAD_XDICTIONARY
360
CF9
102
}
330
1
100
AcDbSymbolTableRecord
100
AcDbBlockTableRecord
  2
*PAPER_SPACE
340
14F
  0
BLOCK_RECORD
  5
6D
330
1
100
AcDbSymbolTableRecord
100
AcDbBlockTableRecord
  2
_OPEN
340
0
102
{BLKREFS
331
3C92
331
3C93
331
3C9B
331
3C9C
331
3CAD
331
3CAE
331
3CA4
331
3CA5
331
3C89
331
3C8A
331
3C61
331
3C62
331
3C80
331
3C81
331
3CBF
331
3CC0
331
3C75
331
3C76
331
3CB6
331
3CB7
331
3C58
331
3C59
331
3C4F
331
3C50
331
3C6C
331
3C6D
331
476A
331
476B
331
475E
331
475F
331
4752
331
4753
331
4749
331
473E
331
473F
331
4732
331
4733
331
4726
331
4727
331
471A
331
471B
331
470C
331
470D
331
4700
331
4701
331
46F6
331
46F7
331
4782
331
4783
331
4776
331
4777
331
4D8F
331
4D90
331
4D9B
331
4D9C
331
4DA6
331
4DA7
331
4DAF
331
4DB0
331
4DB8
331
4DB9
331
4DC0
331
4DC6
331
4DC7
331
4DCF
331
4DD0
331
4DD8
331
4DD9
331
4DE3
331
4DE4
331
4DEC
331
4DED
331
4DF5
331
4DF6
331
4DFF
331
4E00
331
4F09
331
4F0A
331
4F1B
331
4F1C
331
4F23
331
4F29
331
4F2A
331
4F32
331
4F33
331
4F3B
331
4F3C
331
4F46
331
4F47
331
4F4F
331
4F50
331
4F58
331
4F59
331
4F62
331
4F63
331
4F8A
331
4F8B
331
4F93
331
4F94
331
4FA5
331
4FA6
102
}
  0
BLOCK_RECORD
  5
3D6F
330
1
100
AcDbSymbolTableRecord
100
AcDbBlockTableRecord
  2
SW_CENTERMARKSYMBOL_4
340
0
102
{BLKREFS
331
446A
102
}
  0
BLOCK_RECORD
  5
3D7A
330
1
100
AcDbSymbolTableRecord
100
AcDbBlockTableRecord
  2
SW_CENTERMARKSYMBOL_5
340
0
102
{BLKREFS
331
4469
102
}
  0
BLOCK_RECORD
  5
3D85
330
1
100
AcDbSymbolTableRecord
100
AcDbBlockTableRecord
  2
*X17
340
0
102
{BLKREFS
331
42DC
102
}
  0
BLOCK_RECORD
  5
4E85
330
1
100
AcDbSymbolTableRecord
100
AcDbBlockTableRecord
  2
*D67
340
0
  0
BLOCK_RECORD
  5
4E91
330
1
100
AcDbSymbolTableRecord
100
AcDbBlockTableRecord
  2
*D68
340
0
  0
BLOCK_RECORD
  5
4E9D
330
1
100
AcDbSymbolTableRecord
100
AcDbBlockTableRecord
  2
*D69
340
0
  0
BLOCK_RECORD
  5
4EA9
330
1
100
AcDbSymbolTableRecord
100
AcDbBlockTableRecord
  2
*D70
340
0
  0
BLOCK_RECORD
  5
4EB1
330
1
100
AcDbSymbolTableRecord
100
AcDbBlockTableRecord
  2
*D71
340
0
  0
BLOCK_RECORD
  5
4EBD
330
1
100
AcDbSymbolTableRecord
100
AcDbBlockTableRecord
  2
*D72
340
0
  0
BLOCK_RECORD
  5
4EC9
330
1
100
AcDbSymbolTableRecord
100
AcDbBlockTableRecord
  2
*D73
340
0
  0
BLOCK_RECORD
  5
4ED5
330
1
100
AcDbSymbolTableRecord
100
AcDbBlockTableRecord
  2
*D74
340
0
  0
BLOCK_RECORD
  5
4EE3
330
1
100
AcDbSymbolTableRecord
100
AcDbBlockTableRecord
  2
*D75
340
0
  0
BLOCK_RECORD
  5
4EEF
330
1
100
AcDbSymbolTableRecord
100
AcDbBlockTableRecord
  2
*D76
340
0
  0
BLOCK_RECORD
  5
4EFB
330
1
100
AcDbSymbolTableRecord
100
AcDbBlockTableRecord
  2
*D77
340
0
  0
BLOCK_RECORD
  5
4F66
330
1
100
AcDbSymbolTableRecord
100
AcDbBlockTableRecord
  2
*D78
340
0
  0
BLOCK_RECORD
  5
4F72
330
1
100
AcDbSymbolTableRecord
100
AcDbBlockTableRecord
  2
*D79
340
0
  0
ENDTAB
  0
ENDSEC
  0
SECTION
  2
BLOCKS
  0
BLOCK
  5
1B
330
1A
100
AcDbEntity
  8
0
100
AcDbBlockBegin
  2
*MODEL_SPACE
 70
     0
 10
0.0
 20
0.0
 30
0.0
  3
*MODEL_SPACE
  1

  0
ENDBLK
  5
1C
330
1A
100
AcDbEntity
  8
0
100
AcDbBlockEnd
  0
BLOCK
  5
18
330
17
100
AcDbEntity
 67
     1
  8
0
100
AcDbBlockBegin
  2
*PAPER_SPACE
 70
     0
 10
0.0
 20
0.0
 30
0.0
  3
*PAPER_SPACE
  1

  0
ENDBLK
  5
19
330
17
100
AcDbEntity
 67
     1
  8
0
100
AcDbBlockEnd
  0
BLOCK
  5
6E
330
6D
100
AcDbEntity
  8
0
100
AcDbBlockBegin
  2
_OPEN
 70
     0
 10
0.0
 20
0.0
 30
0.0
  3
_OPEN
  1

  0
LINE
  5
6F
330
6D
100
AcDbEntity
  8
0
  6
ByBlock
 62
     0
100
AcDbLine
 10
-1.0
 20
0.1666666666666666
 30
0.0
 11
0.0
 21
0.0
 31
0.0
  0
LINE
  5
70
330
6D
100
AcDbEntity
  8
0
  6
ByBlock
 62
     0
100
AcDbLine
 10
0.0
 20
0.0
 30
0.0
 11
-1.0
 21
-0.1666666666666666
 31
0.0
  0
LINE
  5
71
330
6D
100
AcDbEntity
  8
0
  6
ByBlock
 62
     0
100
AcDbLine
 10
0.0
 20
0.0
 30
0.0
 11
-1.0
 21
0.0
 31
0.0
  0
ENDBLK
  5
72
330
6D
100
AcDbEntity
  8
0
100
AcDbBlockEnd
  0
BLOCK
  5
3D70
330
3D6F
100
AcDbEntity
  8
0
100
AcDbBlockBegin
  2
SW_CENTERMARKSYMBOL_4
 70
     0
 10
0.0
 20
0.0
 30
0.0
  3
SW_CENTERMARKSYMBOL_4
  1

  0
LINE
  5
3D71
330
3D6F
100
AcDbEntity
  8
0
  6
SLD-実線
 62
     0
100
AcDbLine
 10
0.0
 20
0.0
 30
0.0
 11
0.0
 21
2.500000000000002
 31
0.0
  0
LINE
  5
3D72
330
3D6F
100
AcDbEntity
  8
0
  6
SLD-実線
 62
     0
100
AcDbLine
 10
0.0
 20
0.0
 30
0.0
 11
-2.499999999999946
 21
0.0
 31
0.0
  0
LINE
  5
3D73
330
3D6F
100
AcDbEntity
  8
0
  6
SLD-実線
 62
     0
100
AcDbLine
 10
0.0
 20
0.0
 30
0.0
 11
0.0
 21
-2.500000000000002
 31
0.0
  0
LINE
  5
3D74
330
3D6F
100
AcDbEntity
  8
0
  6
SLD-実線
 62
     0
100
AcDbLine
 10
0.0
 20
0.0
 30
0.0
 11
2.500000000000057
 21
0.0
 31
0.0
  0
LINE
  5
3D75
330
3D6F
100
AcDbEntity
  8
0
  6
SLD-実線
 62
     0
100
AcDbLine
 10
0.0
 20
5.000000000000004
 30
0.0
 11
0.0
 21
5.061245043692541
 31
0.0
  0
LINE
  5
3D76
330
3D6F
100
AcDbEntity
  8
0
  6
SLD-実線
 62
     0
100
AcDbLine
 10
-5.000000000000004
 20
0.0
 30
0.0
 11
-5.061245043692541
 21
0.0
 31
0.0
  0
LINE
  5
3D77
330
3D6F
100
AcDbEntity
  8
0
  6
SLD-実線
 62
     0
100
AcDbLine
 10
0.0
 20
-5.000000000000004
 30
0.0
 11
0.0
 21
-5.061245043692541
 31
0.0
  0
LINE
  5
3D78
330
3D6F
100
AcDbEntity
  8
0
  6
SLD-実線
 62
     0
100
AcDbLine
 10
5.000000000000004
 20
0.0
 30
0.0
 11
5.061245043692541
 21
0.0
 31
0.0
  0
ENDBLK
  5
3D79
330
3D6F
100
AcDbEntity
  8
0
100
AcDbBlockEnd
  0
BLOCK
  5
3D7B
330
3D7A
100
AcDbEntity
  8
0
100
AcDbBlockBegin
  2
SW_CENTERMARKSYMBOL_5
 70
     0
 10
0.0
 20
0.0
 30
0.0
  3
SW_CENTERMARKSYMBOL_5
  1

  0
LINE
  5
3D7C
330
3D7A
100
AcDbEntity
  8
0
  6
SLD-実線
 62
     0
100
AcDbLine
 10
0.0
 20
0.0
 30
0.0
 11
0.0
 21
2.500000000000002
 31
0.0
  0
LINE
  5
3D7D
330
3D7A
100
AcDbEntity
  8
0
  6
SLD-実線
 62
     0
100
AcDbLine
 10
0.0
 20
0.0
 30
0.0
 11
-2.500000000000057
 21
0.0
 31
0.0
  0
LINE
  5
3D7E
330
3D7A
100
AcDbEntity
  8
0
  6
SLD-実線
 62
     0
100
AcDbLine
 10
0.0
 20
0.0
 30
0.0
 11
0.0
 21
-2.500000000000002
 31
0.0
  0
LINE
  5
3D7F
330
3D7A
100
AcDbEntity
  8
0
  6
SLD-実線
 62
     0
100
AcDbLine
 10
0.0
 20
0.0
 30
0.0
 11
2.499999999999946
 21
0.0
 31
0.0
  0
LINE
  5
3D80
330
3D7A
100
AcDbEntity
  8
0
  6
SLD-実線
 62
     0
100
AcDbLine
 10
0.0
 20
5.000000000000004
 30
0.0
 11
0.0
 21
5.061245043692541
 31
0.0
  0
LINE
  5
3D81
330
3D7A
100
AcDbEntity
  8
0
  6
SLD-実線
 62
     0
100
AcDbLine
 10
-5.000000000000004
 20
0.0
 30
0.0
 11
-5.061245043692541
 21
0.0
 31
0.0
  0
LINE
  5
3D82
330
3D7A
100
AcDbEntity
  8
0
  6
SLD-実線
 62
     0
100
AcDbLine
 10
0.0
 20
-5.000000000000004
 30
0.0
 11
0.0
 21
-5.061245043692541
 31
0.0
  0
LINE
  5
3D83
330
3D7A
100
AcDbEntity
  8
0
  6
SLD-実線
 62
     0
100
AcDbLine
 10
5.000000000000004
 20
0.0
 30
0.0
 11
5.061245043692541
 21
0.0
 31
0.0
  0
ENDBLK
  5
3D84
330
3D7A
100
AcDbEntity
  8
0
100
AcDbBlockEnd
  0
BLOCK
  5
3D86
330
3D85
100
AcDbEntity
  8
0
100
AcDbBlockBegin
  2
*X17
 70
     1
 10
0.0
 20
0.0
 30
0.0
  3
*X17
  1

  0
LINE
  5
3D87
330
3D85
100
AcDbEntity
  8
0
 62
     0
100
AcDbLine
 10
84.04221133955109
 20
37.60416944448309
 30
0.0
 11
83.39638040983647
 21
38.25000037419773
 31
0.0
  0
LINE
  5
3D88
330
3D85
100
AcDbEntity
  8
0
 62
     0
100
AcDbLine
 10
84.04221133955109
 20
36.7061438323762
 30
0.0
 11
82.49835479772945
 21
38.25000037419778
 31
0.0
  0
LINE
  5
3D89
330
3D85
100
AcDbEntity
  8
0
 62
     0
100
AcDbLine
 10
84.04221133955109
 20
35.80811822026925
 30
0.0
 11
81.62107739353627
 21
38.22925216628403
 31
0.0
  0
LINE
  5
3D8A
330
3D85
100
AcDbEntity
  8
0
 62
     0
100
AcDbLine
 10
84.04221133955122
 20
34.9100926081623
 30
0.0
 11
81.24221133955121
 21
37.71009260816226
 31
0.0
  0
LINE
  5
3D8B
330
3D85
100
AcDbEntity
  8
0
 62
     0
100
AcDbLine
 10
84.04221133955116
 20
34.01206699605535
 30
0.0
 11
81.24221133955121
 21
36.81206699605537
 31
0.0
  0
LINE
  5
3D8C
330
3D85
100
AcDbEntity
  8
0
 62
     0
100
AcDbLine
 10
84.04221133955116
 20
33.11404138394846
 30
0.0
 11
81.24221133955115
 21
35.91404138394842
 31
0.0
  0
LINE
  5
3D8D
330
3D85
100
AcDbEntity
  8
0
 62
     0
100
AcDbLine
 10
79.14221133955118
 20
37.11601577184155
 30
0.0
 11
78.00822673719494
 21
38.25000037419778
 31
0.0
  0
LINE
  5
3D8E
330
3D85
100
AcDbEntity
  8
0
 62
     0
100
AcDbLine
 10
84.04221133955116
 20
32.21601577184157
 30
0.0
 11
81.24221133955121
 21
35.01601577184158
 31
0.0
  0
LINE
  5
3D8F
330
3D85
100
AcDbEntity
  8
0
 62
     0
100
AcDbLine
 10
79.14221133955118
 20
36.21799015973465
 30
0.0
 11
77.11020112508805
 21
38.25000037419778
 31
0.0
  0
LINE
  5
3D90
330
3D85
100
AcDbEntity
  8
0
 62
     0
100
AcDbLine
 10
84.04221133955116
 20
31.31799015973468
 30
0.0
 11
81.24221133955121
 21
34.11799015973463
 31
0.0
  0
LINE
  5
3D91
330
3D85
100
AcDbEntity
  8
0
 62
     0
100
AcDbLine
 10
79.14221133955118
 20
35.31996454762771
 30
0.0
 11
76.4367003744141
 21
38.02547551276479
 31
0.0
  0
LINE
  5
3D92
330
3D85
100
AcDbEntity
  8
0
 62
     0
100
AcDbLine
 10
84.04221133955116
 20
30.41996454762773
 30
0.0
 11
81.24221133955115
 21
33.21996454762768
 31
0.0
  0
LINE
  5
3D93
330
3D85
100
AcDbEntity
  8
0
 62
     0
100
AcDbLine
 10
79.14221133955118
 20
34.42193893552076
 30
0.0
 11
76.34221133955112
 21
37.22193893552083
 31
0.0
  0
LINE
  5
3D94
330
3D85
100
AcDbEntity
  8
0
 62
     0
100
AcDbLine
 10
84.04221133955116
 20
29.52193893552084
 30
0.0
 11
81.24221133955121
 21
32.32193893552079
 31
0.0
  0
LINE
  5
3D95
330
3D85
100
AcDbEntity
  8
0
 62
     0
100
AcDbLine
 10
79.14221133955118
 20
33.52391332341392
 30
0.0
 11
76.34221133955112
 21
36.32391332341399
 31
0.0
  0
LINE
  5
3D96
330
3D85
100
AcDbEntity
  8
0
 62
     0
100
AcDbLine
 10
84.04221133955122
 20
28.62391332341383
 30
0.0
 11
81.24221133955115
 21
31.4239133234139
 31
0.0
  0
LINE
  5
3D97
330
3D85
100
AcDbEntity
  8
0
 62
     0
100
AcDbLine
 10
79.14221133955113
 20
32.62588771130698
 30
0.0
 11
76.34221133955112
 21
35.42588771130704
 31
0.0
  0
LINE
  5
3D98
330
3D85
100
AcDbEntity
  8
0
 62
     0
100
AcDbLine
 10
84.04221133955122
 20
27.72588771130694
 30
0.0
 11
81.24221133955115
 21
30.52588771130701
 31
0.0
  0
LINE
  5
3D99
330
3D85
100
AcDbEntity
  8
0
 62
     0
100
AcDbLine
 10
79.14221133955113
 20
31.72786209920008
 30
0.0
 11
76.34221133955105
 21
34.52786209920009
 31
0.0
  0
LINE
  5
3D9A
330
3D85
100
AcDbEntity
  8
0
 62
     0
100
AcDbLine
 10
84.04221133955116
 20
26.82786209919999
 30
0.0
 11
81.24221133955115
 21
29.62786209920006
 31
0.0
  0
LINE
  5
3D9B
330
3D85
100
AcDbEntity
  8
0
 62
     0
100
AcDbLine
 10
79.14221133955118
 20
30.82983648709319
 30
0.0
 11
76.34221133955112
 21
33.62983648709326
 31
0.0
  0
LINE
  5
3D9C
330
3D85
100
AcDbEntity
  8
0
 62
     0
100
AcDbLine
 10
72.84221133955117
 20
37.1298364870932
 30
0.0
 11
71.72204745244653
 21
38.25000037419784
 31
0.0
  0
LINE
  5
3D9D
330
3D85
100
AcDbEntity
  8
0
 62
     0
100
AcDbLine
 10
84.04221133955122
 20
25.92983648709316
 30
0.0
 11
81.24221133955115
 21
28.72983648709317
 31
0.0
  0
LINE
  5
3D9E
330
3D85
100
AcDbEntity
  8
0
 62
     0
100
AcDbLine
 10
79.14221133955113
 20
29.9318108749863
 30
0.0
 11
76.34221133955105
 21
32.73181087498631
 31
0.0
  0
LINE
  5
3D9F
330
3D85
100
AcDbEntity
  8
0
 62
     0
100
AcDbLine
 10
72.84221133955111
 20
36.23181087498625
 30
0.0
 11
70.82402184033958
 21
38.25000037419784
 31
0.0
  0
LINE
  5
3DA0
330
3D85
100
AcDbEntity
  8
0
 62
     0
100
AcDbLine
 10
84.04221133955122
 20
25.03181087498621
 30
0.0
 11
81.24221133955115
 21
27.83181087498628
 31
0.0
  0
LINE
  5
3DA1
330
3D85
100
AcDbEntity
  8
0
 62
     0
100
AcDbLine
 10
79.14221133955113
 20
29.03378526287935
 30
0.0
 11
76.34221133955112
 21
31.8337852628793
 31
0.0
  0
LINE
  5
3DA2
330
3D85
100
AcDbEntity
  8
0
 62
     0
100
AcDbLine
 10
72.84221133955111
 20
35.33378526287936
 30
0.0
 11
70.14244861622711
 21
38.03354798620336
 31
0.0
  0
LINE
  5
3DA3
330
3D85
100
AcDbEntity
  8
0
 62
     0
100
AcDbLine
 10
84.04221133955116
 20
24.13378526287932
 30
0.0
 11
81.24221133955108
 21
26.93378526287933
 31
0.0
  0
LINE
  5
3DA4
330
3D85
100
AcDbEntity
  8
0
 62
     0
100
AcDbLine
 10
79.14221133955113
 20
28.1357596507724
 30
0.0
 11
76.34221133955117
 21
30.93575965077241
 31
0.0
  0
LINE
  5
3DA5
330
3D85
100
AcDbEntity
  8
0
 62
     0
100
AcDbLine
 10
72.84221133955117
 20
34.43575965077241
 30
0.0
 11
70.0422113395511
 21
37.23575965077248
 31
0.0
  0
LINE
  5
3DA6
330
3D85
100
AcDbEntity
  8
0
 62
     0
100
AcDbLine
 10
84.04221133955122
 20
23.23575965077237
 30
0.0
 11
81.24221133955115
 21
26.03575965077244
 31
0.0
  0
LINE
  5
3DA7
330
3D85
100
AcDbEntity
  8
0
 62
     0
100
AcDbLine
 10
79.14221133955113
 20
27.23773403866557
 30
0.0
 11
76.34221133955117
 21
30.03773403866552
 31
0.0
  0
LINE
  5
3DA8
330
3D85
100
AcDbEntity
  8
0
 62
     0
100
AcDbLine
 10
72.84221133955123
 20
33.53773403866546
 30
0.0
 11
70.04221133955105
 21
36.33773403866559
 31
0.0
  0
LINE
  5
3DA9
330
3D85
100
AcDbEntity
  8
0
 62
     0
100
AcDbLine
 10
83.9702459846614
 20
22.40969939355529
 30
0.0
 11
81.24221133955115
 21
25.13773403866554
 31
0.0
  0
LINE
  5
3DAA
330
3D85
100
AcDbEntity
  8
0
 62
     0
100
AcDbLine
 10
79.14221133955113
 20
26.33970842655862
 30
0.0
 11
76.34221133955112
 21
29.13970842655857
 31
0.0
  0
LINE
  5
3DAB
330
3D85
100
AcDbEntity
  8
0
 62
     0
100
AcDbLine
 10
72.84221133955117
 20
32.63970842655857
 30
0.0
 11
70.04221133955105
 21
35.4397084265587
 31
0.0
  0
LINE
  5
3DAC
330
3D85
100
AcDbEntity
  8
0
 62
     0
100
AcDbLine
 10
83.33191939191204
 20
22.15000037419764
 30
0.0
 11
81.24221133955108
 21
24.23970842655865
 31
0.0
  0
LINE
  5
3DAD
330
3D85
100
AcDbEntity
  8
0
 62
     0
100
AcDbLine
 10
72.84221133955117
 20
31.74168281445162
 30
0.0
 11
70.0422113395511
 21
34.54168281445169
 31
0.0
  0
LINE
  5
3DAE
330
3D85
100
AcDbEntity
  8
0
 62
     0
100
AcDbLine
 10
79.14221133955106
 20
25.44168281445172
 30
0.0
 11
76.34221133955112
 21
28.24168281445168
 31
0.0
  0
LINE
  5
3DAF
330
3D85
100
AcDbEntity
  8
0
 62
     0
100
AcDbLine
 10
67.41721133955116
 20
37.16668281445163
 30
0.0
 11
66.33389377980501
 21
38.25000037419773
 31
0.0
  0
LINE
  5
3DB0
330
3D85
100
AcDbEntity
  8
0
 62
     0
100
AcDbLine
 10
82.43389377980504
 20
22.1500003741977
 30
0.0
 11
81.24221133955108
 21
23.3416828144517
 31
0.0
  0
LINE
  5
3DB1
330
3D85
100
AcDbEntity
  8
0
 62
     0
100
AcDbLine
 10
72.84221133955117
 20
30.84365720234473
 30
0.0
 11
70.04221133955116
 21
33.6436572023448
 31
0.0
  0
LINE
  5
3DB2
330
3D85
100
AcDbEntity
  8
0
 62
     0
100
AcDbLine
 10
67.41721133955116
 20
36.26865720234474
 30
0.0
 11
65.43586816769817
 21
38.25000037419778
 31
0.0
  0
LINE
  5
3DB3
330
3D85
100
AcDbEntity
  8
0
 62
     0
100
AcDbLine
 10
79.11625303890565
 20
24.5696155029903
 30
0.0
 11
76.34221133955112
 21
27.34365720234479
 31
0.0
  0
LINE
  5
3DB4
330
3D85
100
AcDbEntity
  8
0
 62
     0
100
AcDbLine
 10
72.84221133955117
 20
29.94563159023784
 30
0.0
 11
70.0422113395511
 21
32.74563159023791
 31
0.0
  0
LINE
  5
3DB5
330
3D85
100
AcDbEntity
  8
0
 62
     0
100
AcDbLine
 10
67.22163079343733
 20
35.56621213635168
 30
0.0
 11
64.53784255559117
 21
38.25000037419784
 31
0.0
  0
LINE
  5
3DB6
330
3D85
100
AcDbEntity
  8
0
 62
     0
100
AcDbLine
 10
78.92326774364841
 20
23.86457518614054
 30
0.0
 11
76.34221133955112
 21
26.44563159023789
 31
0.0
  0
LINE
  5
3DB7
330
3D85
100
AcDbEntity
  8
0
 62
     0
100
AcDbLine
 10
72.84221133955117
 20
29.04760597813089
 30
0.0
 11
70.0422113395511
 21
31.84760597813096
 31
0.0
  0
LINE
  5
3DB8
330
3D85
100
AcDbEntity
  8
0
 62
     0
100
AcDbLine
 10
66.43981694348434
 20
35.45000037419766
 30
0.0
 11
63.63981694348428
 21
38.25000037419773
 31
0.0
  0
LINE
  5
3DB9
330
3D85
100
AcDbEntity
  8
0
 62
     0
100
AcDbLine
 10
78.59823586772484
 20
23.29158144995716
 30
0.0
 11
76.2706956003916
 21
25.61912171729046
 31
0.0
  0
LINE
  5
3DBA
330
3D85
100
AcDbEntity
  8
0
 62
     0
100
AcDbLine
 10
72.84221133955117
 20
28.14958036602405
 30
0.0
 11
70.0422113395511
 21
30.94958036602406
 31
0.0
  0
LINE
  5
3DBB
330
3D85
100
AcDbEntity
  8
0
 62
     0
100
AcDbLine
 10
65.54179133137751
 20
35.45000037419772
 30
0.0
 11
62.80422460219995
 21
38.18756710337527
 31
0.0
  0
LINE
  5
3DBC
330
3D85
100
AcDbEntity
  8
0
 62
     0
100
AcDbLine
 10
78.16619407039979
 20
22.82559763517537
 30
0.0
 11
75.86910996192409
 21
25.12268174365107
 31
0.0
  0
LINE
  5
3DBD
330
3D85
100
AcDbEntity
  8
0
 62
     0
100
AcDbLine
 10
72.84221133955117
 20
27.25155475391711
 30
0.0
 11
70.0422113395511
 21
30.05155475391717
 31
0.0
  0
LINE
  5
3DBE
330
3D85
100
AcDbEntity
  8
0
 62
     0
100
AcDbLine
 10
64.64376571927051
 20
35.45000037419777
 30
0.0
 11
62.13958417766656
 21
37.95418191580166
 31
0.0
  0
LINE
  5
3DBF
330
3D85
100
AcDbEntity
  8
0
 62
     0
100
AcDbLine
 10
77.63003172547377
 20
22.46373436799451
 30
0.0
 11
75.1437657192705
 21
24.95000037419777
 31
0.0
  0
LINE
  5
3DC0
330
3D85
100
AcDbEntity
  8
0
 62
     0
100
AcDbLine
 10
72.84221133955111
 20
26.35352914181016
 30
0.0
 11
70.0422113395511
 21
29.15352914181023
 31
0.0
  0
LINE
  5
3DC1
330
3D85
100
AcDbEntity
  8
0
 62
     0
100
AcDbLine
 10
63.76752993518159
 20
35.42821054617969
 30
0.0
 11
61.59698324045638
 21
37.59875724090489
 31
0.0
  0
LINE
  5
3DC2
330
3D85
100
AcDbEntity
  8
0
 62
     0
100
AcDbLine
 10
76.97361916556246
 20
22.22212131579886
 30
0.0
 11
74.24574010716367
 21
24.95000037419766
 31
0.0
  0
LINE
  5
3DC3
330
3D85
100
AcDbEntity
  8
0
 62
     0
100
AcDbLine
 10
63.39221133955118
 20
34.9055035297032
 30
0.0
 11
61.15887118141182
 21
37.13884368784249
 31
0.0
  0
LINE
  5
3DC4
330
3D85
100
AcDbEntity
  8
0
 62
     0
100
AcDbLine
 10
76.14771449505667
 20
22.15000037419764
 30
0.0
 11
70.04221133955105
 21
28.25550352970333
 31
0.0
  0
LINE
  5
3DC5
330
3D85
100
AcDbEntity
  8
0
 62
     0
100
AcDbLine
 10
63.39221133955124
 20
34.00747791759631
 30
0.0
 11
60.8271002690588
 21
36.57258898808874
 31
0.0
  0
LINE
  5
3DC6
330
3D85
100
AcDbEntity
  8
0
 62
     0
100
AcDbLine
 10
75.24968888294973
 20
22.15000037419776
 30
0.0
 11
70.0422113395511
 21
27.35747791759644
 31
0.0
  0
LINE
  5
3DC7
330
3D85
100
AcDbEntity
  8
0
 62
     0
100
AcDbLine
 10
63.59875562065503
 20
32.90290802438557
 30
0.0
 11
60.62492174969469
 21
35.87674189534585
 31
0.0
  0
LINE
  5
3DC8
330
3D85
100
AcDbEntity
  8
0
 62
     0
100
AcDbLine
 10
74.35166327084283
 20
22.15000037419776
 30
0.0
 11
70.04221133955116
 21
26.45945230548944
 31
0.0
  0
LINE
  5
3DC9
330
3D85
100
AcDbEntity
  8
0
 62
     0
100
AcDbLine
 10
67.81581504224255
 20
27.7878229906911
 30
0.0
 11
60.59221133955111
 21
35.01142669338253
 31
0.0
  0
LINE
  5
3DCA
330
3D85
100
AcDbEntity
  8
0
 62
     0
100
AcDbLine
 10
58.49221133955109
 20
37.1114266933825
 30
0.0
 11
57.35363765873586
 21
38.25000037419778
 31
0.0
  0
LINE
  5
3DCB
330
3D85
100
AcDbEntity
  8
0
 62
     0
100
AcDbLine
 10
73.45363765873589
 20
22.15000037419776
 30
0.0
 11
70.0422113395511
 21
25.56142669338249
 31
0.0
  0
LINE
  5
3DCC
330
3D85
100
AcDbEntity
  8
0
 62
     0
100
AcDbLine
 10
67.94221133955108
 20
26.76340108127573
 30
0.0
 11
60.59221133955117
 21
34.11340108127564
 31
0.0
  0
LINE
  5
3DCD
330
3D85
100
AcDbEntity
  8
0
 62
     0
100
AcDbLine
 10
58.4922113395512
 20
36.21340108127555
 30
0.0
 11
56.45561204662897
 21
38.25000037419778
 31
0.0
  0
LINE
  5
3DCE
330
3D85
100
AcDbEntity
  8
0
 62
     0
100
AcDbLine
 10
72.53916416788411
 20
22.1664482529427
 30
0.0
 11
70.05865921829609
 21
24.64695320253071
 31
0.0
  0
LINE
  5
3DCF
330
3D85
100
AcDbEntity
  8
0
 62
     0
100
AcDbLine
 10
58.4922113395512
 20
35.31537546916866
 30
0.0
 11
55.78482145177588
 21
38.02276535694392
 31
0.0
  0
LINE
  5
3DD0
330
3D85
100
AcDbEntity
  8
0
 62
     0
100
AcDbLine
 10
67.94221133955113
 20
25.86537546916872
 30
0.0
 11
60.61562200743356
 21
33.1919648012863
 31
0.0
  0
LINE
  5
3DD1
330
3D85
100
AcDbEntity
  8
0
 62
     0
100
AcDbLine
 10
58.4922113395512
 20
34.41734985706171
 30
0.0
 11
55.69221133955114
 21
37.21734985706178
 31
0.0
  0
LINE
  5
3DD2
330
3D85
100
AcDbEntity
  8
0
 62
     0
100
AcDbLine
 10
67.94221133955108
 20
24.96734985706178
 30
0.0
 11
60.93374142527358
 21
31.97581977133933
 31
0.0
  0
LINE
  5
3DD3
330
3D85
100
AcDbEntity
  8
0
 62
     0
100
AcDbLine
 10
58.4922113395512
 20
33.51932424495482
 30
0.0
 11
55.69221133955114
 21
36.31932424495483
 31
0.0
  0
LINE
  5
3DD4
330
3D85
100
AcDbEntity
  8
0
 62
     0
100
AcDbLine
 10
67.83364952196212
 20
24.1778860625439
 30
0.0
 11
65.13801473292381
 21
26.87352085158221
 31
0.0
  0
LINE
  5
3DD5
330
3D85
100
AcDbEntity
  8
0
 62
     0
100
AcDbLine
 10
58.4922113395512
 20
32.62129863284793
 30
0.0
 11
55.69221133955114
 21
35.42129863284799
 31
0.0
  0
LINE
  5
3DD6
330
3D85
100
AcDbEntity
  8
0
 62
     0
100
AcDbLine
 10
53.40072443897418
 20
37.71278553342489
 30
0.0
 11
52.86350959820129
 21
38.25000037419784
 31
0.0
  0
LINE
  5
3DD7
330
3D85
100
AcDbEntity
  8
0
 62
     0
100
AcDbLine
 10
67.56577381420055
 20
23.54773615819858
 30
0.0
 11
65.14221133955124
 21
25.97129863284789
 31
0.0
  0
LINE
  5
3DD8
330
3D85
100
AcDbEntity
  8
0
 62
     0
100
AcDbLine
 10
58.49221133955115
 20
31.72327302074098
 30
0.0
 11
55.69221133955114
 21
34.52327302074105
 31
0.0
  0
LINE
  5
3DD9
330
3D85
100
AcDbEntity
  8
0
 62
     0
100
AcDbLine
 10
53.20179677472157
 20
37.01368758557055
 30
0.0
 11
51.96548398609434
 21
38.25000037419784
 31
0.0
  0
LINE
  5
3DDA
330
3D85
100
AcDbEntity
  8
0
 62
     0
100
AcDbLine
 10
67.18278701602526
 20
23.03269734426692
 30
0.0
 11
65.04492615666475
 21
25.17055820362742
 31
0.0
  0
LINE
  5
3DDB
330
3D85
100
AcDbEntity
  8
0
 62
     0
100
AcDbLine
 10
58.49221133955115
 20
30.82524740863409
 30
0.0
 11
55.69221133955108
 21
33.6252474086341
 31
0.0
  0
LINE
  5
3DDC
330
3D85
100
AcDbEntity
  8
0
 62
     0
100
AcDbLine
 10
52.98627062781588
 20
36.33118812036929
 30
0.0
 11
51.0770550643453
 21
38.24040368383993
 31
0.0
  0
LINE
  5
3DDD
330
3D85
100
AcDbEntity
  8
0
 62
     0
100
AcDbLine
 10
66.69646805090962
 20
22.62099069727554
 30
0.0
 11
64.36745837398746
 21
24.95000037419777
 31
0.0
  0
LINE
  5
3DDE
330
3D85
100
AcDbEntity
  8
0
 62
     0
100
AcDbLine
 10
58.4922113395512
 20
29.92722179652719
 30
0.0
 11
55.69221133955114
 21
32.72722179652726
 31
0.0
  0
LINE
  5
3DDF
330
3D85
100
AcDbEntity
  8
0
 62
     0
100
AcDbLine
 10
52.77074448091036
 20
35.64868865516803
 30
0.0
 11
50.64274448091032
 21
37.77668865516807
 31
0.0
  0
LINE
  5
3DE0
330
3D85
100
AcDbEntity
  8
0
 62
     0
100
AcDbLine
 10
66.10038410244925
 20
22.31904903362909
 30
0.0
 11
63.46943276188063
 21
24.95000037419777
 31
0.0
  0
LINE
  5
3DE1
330
3D85
100
AcDbEntity
  8
0
 62
     0
100
AcDbLine
 10
58.49221133955115
 20
29.0291961844203
 30
0.0
 11
55.69221133955108
 21
31.82919618442031
 31
0.0
  0
LINE
  5
3DE2
330
3D85
100
AcDbEntity
  8
0
 62
     0
100
AcDbLine
 10
52.55521833400462
 20
34.96618918996683
 30
0.0
 11
50.42721833400452
 21
37.09418918996693
 31
0.0
  0
LINE
  5
3DE3
330
3D85
100
AcDbEntity
  8
0
 62
     0
100
AcDbLine
 10
65.36271145080178
 20
22.15869607316967
 30
0.0
 11
62.57140714977362
 21
24.95000037419783
 31
0.0
  0
LINE
  5
3DE4
330
3D85
100
AcDbEntity
  8
0
 62
     0
100
AcDbLine
 10
58.49221133955115
 20
28.13117057231335
 30
0.0
 11
55.69221133955114
 21
30.93117057231331
 31
0.0
  0
LINE
  5
3DE5
330
3D85
100
AcDbEntity
  8
0
 62
     0
100
AcDbLine
 10
52.33969218709893
 20
34.28368972476557
 30
0.0
 11
50.21169218709883
 21
36.41168972476561
 31
0.0
  0
LINE
  5
3DE6
330
3D85
100
AcDbEntity
  8
0
 62
     0
100
AcDbLine
 10
64.47338153766674
 20
22.15000037419776
 30
0.0
 11
61.67338153766667
 21
24.95000037419783
 31
0.0
  0
LINE
  5
3DE7
330
3D85
100
AcDbEntity
  8
0
 62
     0
100
AcDbLine
 10
58.49221133955115
 20
27.23314496020646
 30
0.0
 11
55.69221133955119
 21
30.03314496020647
 31
0.0
  0
LINE
  5
3DE8
330
3D85
100
AcDbEntity
  8
0
 62
     0
100
AcDbLine
 10
52.1241660401933
 20
33.60119025956436
 30
0.0
 11
49.9961660401932
 21
35.72919025956441
 31
0.0
  0
LINE
  5
3DE9
330
3D85
100
AcDbEntity
  8
0
 62
     0
100
AcDbLine
 10
63.57535592555996
 20
22.1500003741977
 30
0.0
 11
61.14174422826346
 21
24.5836120714942
 31
0.0
  0
LINE
  5
3DEA
330
3D85
100
AcDbEntity
  8
0
 62
     0
100
AcDbLine
 10
51.90863989328767
 20
32.91869079436299
 30
0.0
 11
49.78063989328757
 21
35.04669079436315
 31
0.0
  0
LINE
  5
3DEB
330
3D85
100
AcDbEntity
  8
0
 62
     0
100
AcDbLine
 10
58.49221133955115
 20
26.33511934809957
 30
0.0
 11
55.69221133955119
 21
29.13511934809952
 31
0.0
  0
LINE
  5
3DEC
330
3D85
100
AcDbEntity
  8
0
 62
     0
100
AcDbLine
 10
47.64221133955118
 20
37.18511934809953
 30
0.0
 11
46.57733031345287
 21
38.25000037419778
 31
0.0
  0
LINE
  5
3DED
330
3D85
100
AcDbEntity
  8
0
 62
     0
100
AcDbLine
 10
62.67733031345295
 20
22.15000037419776
 30
0.0
 11
61.1172113395512
 21
23.71011934809951
 31
0.0
  0
LINE
  5
3DEE
330
3D85
100
AcDbEntity
  8
0
 62
     0
100
AcDbLine
 10
51.69311374638187
 20
32.2361913291619
 30
0.0
 11
49.56511374638194
 21
34.36419132916183
 31
0.0
  0
LINE
  5
3DEF
330
3D85
100
AcDbEntity
  8
0
 62
     0
100
AcDbLine
 10
58.49221133955115
 20
25.43709373599262
 30
0.0
 11
55.69221133955114
 21
28.23709373599263
 31
0.0
  0
LINE
  5
3DF0
330
3D85
100
AcDbEntity
  8
0
 62
     0
100
AcDbLine
 10
47.64221133955118
 20
36.28709373599259
 30
0.0
 11
45.67930470134598
 21
38.25000037419778
 31
0.0
  0
LINE
  5
3DF1
330
3D85
100
AcDbEntity
  8
0
 62
     0
100
AcDbLine
 10
61.77930470134606
 20
22.15000037419764
 30
0.0
 11
61.11721133955114
 21
22.81209373599256
 31
0.0
  0
LINE
  5
3DF2
330
3D85
100
AcDbEntity
  8
0
 62
     0
100
AcDbLine
 10
51.47758759947624
 20
31.55369186396058
 30
0.0
 11
49.34958759947619
 21
33.68169186396062
 31
0.0
  0
LINE
  5
3DF3
330
3D85
100
AcDbEntity
  8
0
 62
     0
100
AcDbLine
 10
47.64221133955112
 20
35.38906812388564
 30
0.0
 11
44.96676641065351
 21
38.0645130527833
 31
0.0
  0
LINE
  5
3DF4
330
3D85
100
AcDbEntity
  8
0
 62
     0
100
AcDbLine
 10
58.49221133955109
 20
24.53906812388573
 30
0.0
 11
55.69221133955114
 21
27.33906812388568
 31
0.0
  0
LINE
  5
3DF5
330
3D85
100
AcDbEntity
  8
0
 62
     0
100
AcDbLine
 10
51.26206145257061
 20
30.87119239875938
 30
0.0
 11
49.13406145257062
 21
32.99919239875936
 31
0.0
  0
LINE
  5
3DF6
330
3D85
100
AcDbEntity
  8
0
 62
     0
100
AcDbLine
 10
47.64221133955118
 20
34.4910425117788
 30
0.0
 11
44.84221133955111
 21
37.29104251177882
 31
0.0
  0
LINE
  5
3DF7
330
3D85
100
AcDbEntity
  8
0
 62
     0
100
AcDbLine
 10
58.49221133955115
 20
23.64104251177884
 30
0.0
 11
55.69221133955114
 21
26.44104251177879
 31
0.0
  0
LINE
  5
3DF8
330
3D85
100
AcDbEntity
  8
0
 62
     0
100
AcDbLine
 10
51.05697294317855
 20
30.17825529604448
 30
0.0
 11
48.91853530566487
 21
32.31669293355816
 31
0.0
  0
LINE
  5
3DF9
330
3D85
100
AcDbEntity
  8
0
 62
     0
100
AcDbLine
 10
47.64221133955118
 20
33.59301689967185
 30
0.0
 11
44.84221133955111
 21
36.39301689967192
 31
0.0
  0
LINE
  5
3DFA
330
3D85
100
AcDbEntity
  8
0
 62
     0
100
AcDbLine
 10
58.49221133955109
 20
22.74301689967189
 30
0.0
 11
55.69221133955114
 21
25.5430168996719
 31
0.0
  0
LINE
  5
3DFB
330
3D85
100
AcDbEntity
  8
0
 62
     0
100
AcDbLine
 10
51.47144630261255
 20
28.86575632450354
 30
0.0
 11
48.62798780998025
 21
31.70921481713583
 31
0.0
  0
LINE
  5
3DFC
330
3D85
100
AcDbEntity
  8
0
 62
     0
100
AcDbLine
 10
47.64221133955124
 20
32.69499128756485
 30
0.0
 11
44.84221133955105
 21
35.49499128756497
 31
0.0
  0
LINE
  5
3DFD
330
3D85
100
AcDbEntity
  8
0
 62
     0
100
AcDbLine
 10
58.15316634221876
 20
22.18403628489728
 30
0.0
 11
55.69221133955114
 21
24.64499128756495
 31
0.0
  0
LINE
  5
3DFE
330
3D85
100
AcDbEntity
  8
0
 62
     0
100
AcDbLine
 10
51.88591966204654
 20
27.55325735296271
 30
0.0
 11
44.84221133955111
 21
34.59696567545814
 31
0.0
  0
LINE
  5
3DFF
330
3D85
100
AcDbEntity
  8
0
 62
     0
100
AcDbLine
 10
42.39221133955124
 20
37.04696567545801
 30
0.0
 11
41.18917664081147
 21
38.25000037419778
 31
0.0
  0
LINE
  5
3E00
330
3D85
100
AcDbEntity
  8
0
 62
     0
100
AcDbLine
 10
57.28917664081149
 20
22.15000037419776
 30
0.0
 11
55.69221133955124
 21
23.746965675458
 31
0.0
  0
LINE
  5
3E01
330
3D85
100
AcDbEntity
  8
0
 62
     0
100
AcDbLine
 10
52.30039302148043
 20
26.24075838142187
 30
0.0
 11
44.84221133955111
 21
33.69894006335119
 31
0.0
  0
LINE
  5
3E02
330
3D85
100
AcDbEntity
  8
0
 62
     0
100
AcDbLine
 10
42.39221133955124
 20
36.14894006335106
 30
0.0
 11
40.29115102870446
 21
38.25000037419784
 31
0.0
  0
LINE
  5
3E03
330
3D85
100
AcDbEntity
  8
0
 62
     0
100
AcDbLine
 10
56.39115102870454
 20
22.1500003741977
 30
0.0
 11
55.69221133955119
 21
22.84894006335111
 31
0.0
  0
LINE
  5
3E04
330
3D85
100
AcDbEntity
  8
0
 62
     0
100
AcDbLine
 10
42.12530464416113
 20
35.51782114663422
 30
0.0
 11
39.42508292594971
 21
38.21804286484559
 31
0.0
  0
LINE
  5
3E05
330
3D85
100
AcDbEntity
  8
0
 62
     0
100
AcDbLine
 10
52.71486638091443
 20
24.92825940988093
 30
0.0
 11
44.84221133955105
 21
32.8009144512443
 31
0.0
  0
LINE
  5
3E06
330
3D85
100
AcDbEntity
  8
0
 62
     0
100
AcDbLine
 10
47.97972026189279
 20
28.76537991679567
 30
0.0
 11
44.84221133955111
 21
31.90288883913735
 31
0.0
  0
LINE
  5
3E07
330
3D85
100
AcDbEntity
  8
0
 62
     0
100
AcDbLine
 10
41.29509980449069
 20
35.45000037419772
 30
0.0
 11
38.68703985636244
 21
38.05806032232601
 31
0.0
  0
LINE
  5
3E08
330
3D85
100
AcDbEntity
  8
0
 62
     0
100
AcDbLine
 10
53.12933974034843
 20
23.61576043834003
 30
0.0
 11
49.03703204804049
 21
27.70806813064798
 31
0.0
  0
LINE
  5
3E09
330
3D85
100
AcDbEntity
  8
0
 62
     0
100
AcDbLine
 10
47.64221133955124
 20
28.20486322703033
 30
0.0
 11
44.84221133955105
 21
31.00486322703046
 31
0.0
  0
LINE
  5
3E0A
330
3D85
100
AcDbEntity
  8
0
 62
     0
100
AcDbLine
 10
40.39707419238368
 20
35.45000037419783
 30
0.0
 11
38.04831844053172
 21
37.7987561260498
 31
0.0
  0
LINE
  5
3E0B
330
3D85
100
AcDbEntity
  8
0
 62
     0
100
AcDbLine
 10
53.3643785980592
 20
22.48269596852231
 30
0.0
 11
49.45150540747443
 21
26.39556915910714
 31
0.0
  0
LINE
  5
3E0C
330
3D85
100
AcDbEntity
  8
0
 62
     0
100
AcDbLine
 10
47.64221133955118
 20
27.30683761492344
 30
0.0
 11
44.84221133955105
 21
30.10683761492356
 31
0.0
  0
LINE
  5
3E0D
330
3D85
100
AcDbEntity
  8
0
 62
     0
100
AcDbLine
 10
39.55396068984015
 20
35.39508826463447
 30
0.0
 11
37.48956946519718
 21
37.45947948927744
 31
0.0
  0
LINE
  5
3E0E
330
3D85
100
AcDbEntity
  8
0
 62
     0
100
AcDbLine
 10
52.79904858027686
 20
22.15000037419776
 30
0.0
 11
49.86597876690848
 21
25.08307018756608
 31
0.0
  0
LINE
  5
3E0F
330
3D85
100
AcDbEntity
  8
0
 62
     0
100
AcDbLine
 10
47.64221133955118
 20
26.40881200281649
 30
0.0
 11
44.84221133955105
 21
29.20881200281661
 31
0.0
  0
LINE
  5
3E10
330
3D85
100
AcDbEntity
  8
0
 62
     0
100
AcDbLine
 10
38.98210449700116
 20
35.06891884536651
 30
0.0
 11
37.0019142565854
 21
37.04910908578228
 31
0.0
  0
LINE
  5
3E11
330
3D85
100
AcDbEntity
  8
0
 62
     0
100
AcDbLine
 10
51.90102296816991
 20
22.15000037419776
 30
0.0
 11
50.28045212634243
 21
23.77057121602525
 31
0.0
  0
LINE
  5
3E12
330
3D85
100
AcDbEntity
  8
0
 62
     0
100
AcDbLine
 10
42.72764047234892
 20
30.42535725791192
 30
0.0
 11
41.21756822326517
 21
31.93542950699566
 31
0.0
  0
LINE
  5
3E13
330
3D85
100
AcDbEntity
  8
0
 62
     0
100
AcDbLine
 10
47.64221133955118
 20
25.5107863907096
 30
0.0
 11
44.84221133955105
 21
28.31078639070978
 31
0.0
  0
LINE
  5
3E14
330
3D85
100
AcDbEntity
  8
0
 62
     0
100
AcDbLine
 10
38.62598292687221
 20
34.52701480338863
 30
0.0
 11
36.58254823057416
 21
36.57044949968668
 31
0.0
  0
LINE
  5
3E15
330
3D85
100
AcDbEntity
  8
0
 62
     0
100
AcDbLine
 10
50.9526643518584
 20
22.20033337840243
 30
0.0
 11
50.70231018026709
 21
22.45068754999374
 31
0.0
  0
LINE
  5
3E16
330
3D85
100
AcDbEntity
  8
0
 62
     0
100
AcDbLine
 10
42.64112681220701
 20
29.61384530594688
 30
0.0
 11
40.40605627130014
 21
31.84891584685374
 31
0.0
  0
LINE
  5
3E17
330
3D85
100
AcDbEntity
  8
0
 62
     0
100
AcDbLine
 10
38.54221133955127
 20
33.71276077860262
 30
0.0
 11
36.2336092096125
 21
36.02136290854139
 31
0.0
  0
LINE
  5
3E18
330
3D85
100
AcDbEntity
  8
0
 62
     0
100
AcDbLine
 10
47.64221133955118
 20
24.61276077860271
 30
0.0
 11
44.84221133955105
 21
27.41276077860283
 31
0.0
  0
LINE
  5
3E19
330
3D85
100
AcDbEntity
  8
0
 62
     0
100
AcDbLine
 10
42.30927125290896
 20
29.04767525313793
 30
0.0
 11
39.83988621849119
 21
31.51706028755569
 31
0.0
  0
LINE
  5
3E1A
330
3D85
100
AcDbEntity
  8
0
 62
     0
100
AcDbLine
 10
38.54221133955127
 20
32.81473516649567
 30
0.0
 11
35.96302950240232
 21
35.39391700364462
 31
0.0
  0
LINE
  5
3E1B
330
3D85
100
AcDbEntity
  8
0
 62
     0
100
AcDbLine
 10
47.64221133955118
 20
23.71473516649576
 30
0.0
 11
44.84221133955111
 21
26.51473516649583
 31
0.0
  0
LINE
  5
3E1C
330
3D85
100
AcDbEntity
  8
0
 62
     0
100
AcDbLine
 10
38.54221133955127
 20
31.91670955438878
 30
0.0
 11
35.78831562947647
 21
34.67060526446363
 31
0.0
  0
LINE
  5
3E1D
330
3D85
100
AcDbEntity
  8
0
 62
     0
100
AcDbLine
 10
41.80743781077251
 20
28.65148308316759
 30
0.0
 11
39.44369404852086
 21
31.01522684541925
 31
0.0
  0
LINE
  5
3E1E
330
3D85
100
AcDbEntity
  8
0
 62
     0
100
AcDbLine
 10
33.11721133955109
 20
37.34170955438896
 30
0.0
 11
32.20892051974221
 21
38.2500003741979
 31
0.0
  0
LINE
  5
3E1F
330
3D85
100
AcDbEntity
  8
0
 62
     0
100
AcDbLine
 10
47.64221133955118
 20
22.81670955438892
 30
0.0
 11
44.84221133955111
 21
25.61670955438894
 31
0.0
  0
LINE
  5
3E20
330
3D85
100
AcDbEntity
  8
0
 62
     0
100
AcDbLine
 10
38.54221133955127
 20
31.01868394228188
 30
0.0
 11
35.74221133955115
 21
33.81868394228201
 31
0.0
  0
LINE
  5
3E21
330
3D85
100
AcDbEntity
  8
0
 62
     0
100
AcDbLine
 10
41.10711836834508
 20
28.45377691348807
 30
0.0
 11
39.24598787884134
 21
30.31490740299182
 31
0.0
  0
LINE
  5
3E22
330
3D85
100
AcDbEntity
  8
0
 62
     0
100
AcDbLine
 10
33.11721133955109
 20
36.44368394228207
 30
0.0
 11
31.31089490763526
 21
38.25000037419784
 31
0.0
  0
LINE
  5
3E23
330
3D85
100
AcDbEntity
  8
0
 62
     0
100
AcDbLine
 10
47.35430753828057
 20
22.20658774355257
 30
0.0
 11
44.84221133955111
 21
24.71868394228204
 31
0.0
  0
LINE
  5
3E24
330
3D85
100
AcDbEntity
  8
0
 62
     0
100
AcDbLine
 10
38.54221133955127
 20
30.12065833017493
 30
0.0
 11
35.74221133955109
 21
32.92065833017506
 31
0.0
  0
LINE
  5
3E25
330
3D85
100
AcDbEntity
  8
0
 62
     0
100
AcDbLine
 10
33.00817736928082
 20
35.65469230044539
 30
0.0
 11
30.41286929552837
 21
38.25000037419784
 31
0.0
  0
LINE
  5
3E26
330
3D85
100
AcDbEntity
  8
0
 62
     0
100
AcDbLine
 10
46.51286929552845
 20
22.1500003741977
 30
0.0
 11
44.84221133955111
 21
23.82065833017509
 31
0.0
  0
LINE
  5
3E27
330
3D85
100
AcDbEntity
  8
0
 62
     0
100
AcDbLine
 10
38.54221133955121
 20
29.22263271806804
 30
0.0
 11
35.74221133955109
 21
32.02263271806817
 31
0.0
  0
LINE
  5
3E28
330
3D85
100
AcDbEntity
  8
0
 62
     0
100
AcDbLine
 10
32.31484368342149
 20
35.45000037419777
 30
0.0
 11
29.51484368342153
 21
38.25000037419773
 31
0.0
  0
LINE
  5
3E29
330
3D85
100
AcDbEntity
  8
0
 62
     0
100
AcDbLine
 10
45.61484368342155
 20
22.1500003741977
 30
0.0
 11
44.84221133955105
 21
22.9226327180682
 31
0.0
  0
LINE
  5
3E2A
330
3D85
100
AcDbEntity
  8
0
 62
     0
100
AcDbLine
 10
38.54221133955127
 20
28.32460710596115
 30
0.0
 11
35.74221133955115
 21
31.12460710596128
 31
0.0
  0
LINE
  5
3E2B
330
3D85
100
AcDbEntity
  8
0
 62
     0
100
AcDbLine
 10
31.4168180713146
 20
35.45000037419777
 30
0.0
 11
28.6516887992097
 21
38.21512964630273
 31
0.0
  0
LINE
  5
3E2C
330
3D85
100
AcDbEntity
  8
0
 62
     0
100
AcDbLine
 10
42.38960889071427
 20
24.47720955479809
 30
0.0
 11
41.91942052015156
 21
24.94739792536086
 31
0.0
  0
LINE
  5
3E2D
330
3D85
100
AcDbEntity
  8
0
 62
     0
100
AcDbLine
 10
38.54221133955121
 20
27.4265814938542
 30
0.0
 11
35.74221133955109
 21
30.22658149385438
 31
0.0
  0
LINE
  5
3E2E
330
3D85
100
AcDbEntity
  8
0
 62
     0
100
AcDbLine
 10
30.5187924592077
 20
35.45000037419777
 30
0.0
 11
27.95855399073122
 21
38.01023884267426
 31
0.0
  0
LINE
  5
3E2F
330
3D85
100
AcDbEntity
  8
0
 62
     0
100
AcDbLine
 10
42.39221133955118
 20
23.57658149385423
 30
0.0
 11
41.0187924592077
 21
24.95000037419777
 31
0.0
  0
LINE
  5
3E30
330
3D85
100
AcDbEntity
  8
0
 62
     0
100
AcDbLine
 10
38.54221133955121
 20
26.52855588174731
 30
0.0
 11
35.74221133955109
 21
29.32855588174744
 31
0.0
  0
LINE
  5
3E31
330
3D85
100
AcDbEntity
  8
0
 62
     0
100
AcDbLine
 10
29.62076684710075
 20
35.45000037419772
 30
0.0
 11
27.39430733088398
 21
37.67645989041449
 31
0.0
  0
LINE
  5
3E32
330
3D85
100
AcDbEntity
  8
0
 62
     0
100
AcDbLine
 10
42.39221133955118
 20
22.67855588174734
 30
0.0
 11
40.12076684710075
 21
24.95000037419771
 31
0.0
  0
LINE
  5
3E33
330
3D85
100
AcDbEntity
  8
0
 62
     0
100
AcDbLine
 10
29.11047401948616
 20
35.06226758970553
 30
0.0
 11
26.93621451864323
 21
37.23652709054846
 31
0.0
  0
LINE
  5
3E34
330
3D85
100
AcDbEntity
  8
0
 62
     0
100
AcDbLine
 10
42.00447855505887
 20
22.16826305413281
 30
0.0
 11
35.74221133955109
 21
28.43053026964054
 31
0.0
  0
LINE
  5
3E35
330
3D85
100
AcDbEntity
  8
0
 62
     0
100
AcDbLine
 10
29.09221133955112
 20
34.18250465753357
 30
0.0
 11
26.58273331617414
 21
36.6919826809106
 31
0.0
  0
LINE
  5
3E36
330
3D85
100
AcDbEntity
  8
0
 62
     0
100
AcDbLine
 10
41.12471562288703
 20
22.1500003741977
 30
0.0
 11
35.74221133955109
 21
27.53250465753365
 31
0.0
  0
LINE
  5
3E37
330
3D85
100
AcDbEntity
  8
0
 62
     0
100
AcDbLine
 10
29.15434704768666
 20
33.22234333729108
 30
0.0
 11
26.35185321388042
 21
36.02483717109738
 31
0.0
  0
LINE
  5
3E38
330
3D85
100
AcDbEntity
  8
0
 62
     0
100
AcDbLine
 10
40.22669001078009
 20
22.15000037419764
 30
0.0
 11
35.74221133955109
 21
26.6344790454267
 31
0.0
  0
LINE
  5
3E39
330
3D85
100
AcDbEntity
  8
0
 62
     0
100
AcDbLine
 10
33.44658743077389
 20
28.03207734209701
 30
0.0
 11
26.2922113395511
 21
35.1864534333198
 31
0.0
  0
LINE
  5
3E3A
330
3D85
100
AcDbEntity
  8
0
 62
     0
100
AcDbLine
 10
39.27539231161643
 20
22.20327246125447
 30
0.0
 11
35.79548342660786
 21
25.68318134626304
 31
0.0
  0
LINE
  5
3E3B
330
3D85
100
AcDbEntity
  8
0
 62
     0
100
AcDbLine
 10
33.63848194485911
 20
26.9421572159049
 30
0.0
 11
26.29221133955116
 21
34.28842782121285
 31
0.0
  0
LINE
  5
3E3C
330
3D85
100
AcDbEntity
  8
0
 62
     0
100
AcDbLine
 10
37.90158439901484
 20
22.67905476174911
 30
0.0
 11
36.27126572710245
 21
24.30937343366156
 31
0.0
  0
LINE
  5
3E3D
330
3D85
100
AcDbEntity
  8
0
 62
     0
100
AcDbLine
 10
33.64221133955124
 20
26.04040220910582
 30
0.0
 11
26.29977578697356
 21
33.38283776168345
 31
0.0
  0
LINE
  5
3E3E
330
3D85
100
AcDbEntity
  8
0
 62
     0
100
AcDbLine
 10
33.64221133955118
 20
25.14237659699893
 30
0.0
 11
26.52306654529741
 21
32.26152139125264
 31
0.0
  0
LINE
  5
3E3F
330
3D85
100
AcDbEntity
  8
0
 62
     0
100
AcDbLine
 10
33.56969134341927
 20
24.31687098102401
 30
0.0
 11
30.80629969980021
 21
27.08026262464307
 31
0.0
  0
LINE
  5
3E40
330
3D85
100
AcDbEntity
  8
0
 62
     0
100
AcDbLine
 10
33.32775340439042
 20
23.66078330794591
 30
0.0
 11
30.84221133955117
 21
26.14632537278516
 31
0.0
  0
LINE
  5
3E41
330
3D85
100
AcDbEntity
  8
0
 62
     0
100
AcDbLine
 10
32.96563415700865
 20
23.12487694322073
 30
0.0
 11
30.8063123072505
 21
25.28419879297889
 31
0.0
  0
LINE
  5
3E42
330
3D85
100
AcDbEntity
  8
0
 62
     0
100
AcDbLine
 10
32.49940778474178
 20
22.69307770338071
 30
0.0
 11
30.24248511392466
 21
24.95000037419789
 31
0.0
  0
LINE
  5
3E43
330
3D85
100
AcDbEntity
  8
0
 62
     0
100
AcDbLine
 10
31.92614333700897
 20
22.36831653900663
 30
0.0
 11
29.34445950181771
 21
24.95000037419783
 31
0.0
  0
LINE
  5
3E44
330
3D85
100
AcDbEntity
  8
0
 62
     0
100
AcDbLine
 10
31.22073074792303
 20
22.17570351598562
 30
0.0
 11
28.44643388971088
 21
24.95000037419777
 31
0.0
  0
LINE
  5
3E45
330
3D85
100
AcDbEntity
  8
0
 62
     0
100
AcDbLine
 10
30.348408277604
 20
22.15000037419764
 30
0.0
 11
27.54840827760399
 21
24.95000037419771
 31
0.0
  0
LINE
  5
3E46
330
3D85
100
AcDbEntity
  8
0
 62
     0
100
AcDbLine
 10
29.45038266549705
 20
22.15000037419776
 30
0.0
 11
26.89705877067917
 21
24.7033242690157
 31
0.0
  0
LINE
  5
3E47
330
3D85
100
AcDbEntity
  8
0
 62
     0
100
AcDbLine
 10
28.55235705339016
 20
22.15000037419776
 30
0.0
 11
26.81721133955119
 21
23.88514608803672
 31
0.0
  0
LINE
  5
3E48
330
3D85
100
AcDbEntity
  8
0
 62
     0
100
AcDbLine
 10
27.65433144128321
 20
22.15000037419776
 30
0.0
 11
26.81721133955119
 21
22.98712047592977
 31
0.0
  0
LINE
  5
3E49
330
3D85
100
AcDbEntity
  8
0
 62
     0
100
AcDbLine
 10
83.63389862421815
 20
22.16313215131533
 30
0.0
 11
84.02907956243394
 21
22.55831308953111
 31
0.0
  0
LINE
  5
3E4A
330
3D85
100
AcDbEntity
  8
0
 62
     0
100
AcDbLine
 10
82.7227412349937
 20
22.1500003741977
 30
0.0
 11
84.04221133955138
 21
23.4694704787554
 31
0.0
  0
LINE
  5
3E4B
330
3D85
100
AcDbEntity
  8
0
 62
     0
100
AcDbLine
 10
81.8247156228868
 20
22.1500003741977
 30
0.0
 11
84.04221133955138
 21
24.36749609086229
 31
0.0
  0
LINE
  5
3E4C
330
3D85
100
AcDbEntity
  8
0
 62
     0
100
AcDbLine
 10
81.27340890280306
 20
22.49671926622091
 30
0.0
 11
84.04221133955132
 21
25.26552170296924
 31
0.0
  0
LINE
  5
3E4D
330
3D85
100
AcDbEntity
  8
0
 62
     0
100
AcDbLine
 10
81.24221133955126
 20
23.36354731507606
 30
0.0
 11
84.04221133955132
 21
26.16354731507608
 31
0.0
  0
LINE
  5
3E4E
330
3D85
100
AcDbEntity
  8
0
 62
     0
100
AcDbLine
 10
81.24221133955131
 20
24.26157292718296
 30
0.0
 11
84.04221133955132
 21
27.06157292718302
 31
0.0
  0
LINE
  5
3E4F
330
3D85
100
AcDbEntity
  8
0
 62
     0
100
AcDbLine
 10
81.24221133955126
 20
25.1595985392899
 30
0.0
 11
84.04221133955132
 21
27.95959853928997
 31
0.0
  0
LINE
  5
3E50
330
3D85
100
AcDbEntity
  8
0
 62
     0
100
AcDbLine
 10
81.24221133955126
 20
26.05762415139679
 30
0.0
 11
84.04221133955132
 21
28.85762415139686
 31
0.0
  0
LINE
  5
3E51
330
3D85
100
AcDbEntity
  8
0
 62
     0
100
AcDbLine
 10
77.66877620161654
 20
22.48418901346207
 30
0.0
 11
78.80802270028709
 21
23.62343551213269
 31
0.0
  0
LINE
  5
3E52
330
3D85
100
AcDbEntity
  8
0
 62
     0
100
AcDbLine
 10
81.24221133955126
 20
26.95564976350369
 30
0.0
 11
84.04221133955132
 21
29.75564976350375
 31
0.0
  0
LINE
  5
3E53
330
3D85
100
AcDbEntity
  8
0
 62
     0
100
AcDbLine
 10
76.43820803509374
 20
22.15164645904616
 30
0.0
 11
79.14056525470306
 21
24.85400367865543
 31
0.0
  0
LINE
  5
3E54
330
3D85
100
AcDbEntity
  8
0
 62
     0
100
AcDbLine
 10
81.24221133955126
 20
27.85367537561064
 30
0.0
 11
84.04221133955132
 21
30.65367537561065
 31
0.0
  0
LINE
  5
3E55
330
3D85
100
AcDbEntity
  8
0
 62
     0
100
AcDbLine
 10
75.53853633813833
 20
22.1500003741977
 30
0.0
 11
79.14221133955135
 21
25.75367537561067
 31
0.0
  0
LINE
  5
3E56
330
3D85
100
AcDbEntity
  8
0
 62
     0
100
AcDbLine
 10
81.24221133955126
 20
28.75170098771753
 30
0.0
 11
84.04221133955127
 21
31.5517009877176
 31
0.0
  0
LINE
  5
3E57
330
3D85
100
AcDbEntity
  8
0
 62
     0
100
AcDbLine
 10
74.64051072603144
 20
22.1500003741977
 30
0.0
 11
79.1422113395513
 21
26.65170098771762
 31
0.0
  0
LINE
  5
3E58
330
3D85
100
AcDbEntity
  8
0
 62
     0
100
AcDbLine
 10
81.24221133955126
 20
29.64972659982442
 30
0.0
 11
84.04221133955132
 21
32.44972659982449
 31
0.0
  0
LINE
  5
3E59
330
3D85
100
AcDbEntity
  8
0
 62
     0
100
AcDbLine
 10
73.7424851139246
 20
22.15000037419776
 30
0.0
 11
79.14221133955135
 21
27.54972659982451
 31
0.0
  0
LINE
  5
3E5A
330
3D85
100
AcDbEntity
  8
0
 62
     0
100
AcDbLine
 10
76.23762013747023
 20
25.54316100985034
 30
0.0
 11
79.14221133955135
 21
28.4477522119314
 31
0.0
  0
LINE
  5
3E5B
330
3D85
100
AcDbEntity
  8
0
 62
     0
100
AcDbLine
 10
81.24221133955126
 20
30.54775221193131
 30
0.0
 11
84.04221133955132
 21
33.34775221193138
 31
0.0
  0
LINE
  5
3E5C
330
3D85
100
AcDbEntity
  8
0
 62
     0
100
AcDbLine
 10
72.84445950181759
 20
22.1500003741977
 30
0.0
 11
75.74905070389871
 21
25.05459157627877
 31
0.0
  0
LINE
  5
3E5D
330
3D85
100
AcDbEntity
  8
0
 62
     0
100
AcDbLine
 10
76.34221133955122
 20
26.54577782403829
 30
0.0
 11
79.1422113395513
 21
29.34577782403835
 31
0.0
  0
LINE
  5
3E5E
330
3D85
100
AcDbEntity
  8
0
 62
     0
100
AcDbLine
 10
81.24221133955121
 20
31.44577782403826
 30
0.0
 11
84.04221133955127
 21
34.24577782403833
 31
0.0
  0
LINE
  5
3E5F
330
3D85
100
AcDbEntity
  8
0
 62
     0
100
AcDbLine
 10
72.05838364108791
 20
22.26195012557491
 30
0.0
 11
74.74643388971077
 21
24.95000037419777
 31
0.0
  0
LINE
  5
3E60
330
3D85
100
AcDbEntity
  8
0
 62
     0
100
AcDbLine
 10
76.34221133955128
 20
27.44380343614529
 30
0.0
 11
79.1422113395513
 21
30.24380343614524
 31
0.0
  0
LINE
  5
3E61
330
3D85
100
AcDbEntity
  8
0
 62
     0
100
AcDbLine
 10
81.24221133955121
 20
32.34380343614521
 30
0.0
 11
84.04221133955127
 21
35.14380343614522
 31
0.0
  0
LINE
  5
3E62
330
3D85
100
AcDbEntity
  8
0
 62
     0
100
AcDbLine
 10
71.43039677387776
 20
22.53198887047176
 30
0.0
 11
73.8492860632482
 21
24.9508781598422
 31
0.0
  0
LINE
  5
3E63
330
3D85
100
AcDbEntity
  8
0
 62
     0
100
AcDbLine
 10
76.34221133955134
 20
28.34182904825218
 30
0.0
 11
79.1422113395513
 21
31.14182904825213
 31
0.0
  0
LINE
  5
3E64
330
3D85
100
AcDbEntity
  8
0
 62
     0
100
AcDbLine
 10
81.24221133955126
 20
33.24182904825204
 30
0.0
 11
84.04221133955127
 21
36.04182904825211
 31
0.0
  0
LINE
  5
3E65
330
3D85
100
AcDbEntity
  8
0
 62
     0
100
AcDbLine
 10
70.91713689251259
 20
22.91675460121343
 30
0.0
 11
73.20580747453551
 21
25.20542518323634
 31
0.0
  0
LINE
  5
3E66
330
3D85
100
AcDbEntity
  8
0
 62
     0
100
AcDbLine
 10
76.34221133955134
 20
29.23985466035907
 30
0.0
 11
79.1422113395513
 21
32.03985466035908
 31
0.0
  0
LINE
  5
3E67
330
3D85
100
AcDbEntity
  8
0
 62
     0
100
AcDbLine
 10
81.24221133955121
 20
34.13985466035899
 30
0.0
 11
84.04221133955127
 21
36.93985466035906
 31
0.0
  0
LINE
  5
3E68
330
3D85
100
AcDbEntity
  8
0
 62
     0
100
AcDbLine
 10
70.50717271728757
 20
23.4048160380953
 30
0.0
 11
72.86856919612609
 21
25.76621251693388
 31
0.0
  0
LINE
  5
3E69
330
3D85
100
AcDbEntity
  8
0
 62
     0
100
AcDbLine
 10
76.34221133955128
 20
30.13788027246602
 30
0.0
 11
79.14221133955135
 21
32.93788027246609
 31
0.0
  0
LINE
  5
3E6A
330
3D85
100
AcDbEntity
  8
0
 62
     0
100
AcDbLine
 10
81.24221133955121
 20
35.03788027246589
 30
0.0
 11
84.03206218600081
 21
37.82773111891555
 31
0.0
  0
LINE
  5
3E6B
330
3D85
100
AcDbEntity
  8
0
 62
     0
100
AcDbLine
 10
70.20724783885356
 20
24.0029167717683
 30
0.0
 11
72.84221133955128
 21
26.63788027246596
 31
0.0
  0
LINE
  5
3E6C
330
3D85
100
AcDbEntity
  8
0
 62
     0
100
AcDbLine
 10
76.34221133955134
 20
31.03590588457286
 30
0.0
 11
79.14221133955141
 21
33.83590588457292
 31
0.0
  0
LINE
  5
3E6D
330
3D85
100
AcDbEntity
  8
0
 62
     0
100
AcDbLine
 10
81.24221133955121
 20
35.93590588457278
 30
0.0
 11
83.55494784092133
 21
38.2486423859429
 31
0.0
  0
LINE
  5
3E6E
330
3D85
100
AcDbEntity
  8
0
 62
     0
100
AcDbLine
 10
70.04983430389711
 20
24.74352884891869
 30
0.0
 11
72.84221133955128
 21
27.53590588457285
 31
0.0
  0
LINE
  5
3E6F
330
3D85
100
AcDbEntity
  8
0
 62
     0
100
AcDbLine
 10
76.34221133955128
 20
31.93393149667981
 30
0.0
 11
79.14221133955135
 21
34.73393149667987
 31
0.0
  0
LINE
  5
3E70
330
3D85
100
AcDbEntity
  8
0
 62
     0
100
AcDbLine
 10
81.24221133955121
 20
36.83393149667973
 30
0.0
 11
82.65828021706926
 21
38.25000037419778
 31
0.0
  0
LINE
  5
3E71
330
3D85
100
AcDbEntity
  8
0
 62
     0
100
AcDbLine
 10
70.04221133955133
 20
25.63393149667979
 30
0.0
 11
72.84221133955134
 21
28.43393149667986
 31
0.0
  0
LINE
  5
3E72
330
3D85
100
AcDbEntity
  8
0
 62
     0
100
AcDbLine
 10
76.34221133955128
 20
32.83195710878676
 30
0.0
 11
79.14221133955135
 21
35.63195710878677
 31
0.0
  0
LINE
  5
3E73
330
3D85
100
AcDbEntity
  8
0
 62
     0
100
AcDbLine
 10
70.04221133955127
 20
26.53195710878674
 30
0.0
 11
72.84221133955134
 21
29.33195710878681
 31
0.0
  0
LINE
  5
3E74
330
3D85
100
AcDbEntity
  8
0
 62
     0
100
AcDbLine
 10
81.24225805429871
 20
37.73200382353417
 30
0.0
 11
81.76020789021498
 21
38.2499536594504
 31
0.0
  0
LINE
  5
3E75
330
3D85
100
AcDbEntity
  8
0
 62
     0
100
AcDbLine
 10
65.72065570883927
 20
22.21040147807469
 30
0.0
 11
67.88181023567443
 21
24.37155600490991
 31
0.0
  0
LINE
  5
3E76
330
3D85
100
AcDbEntity
  8
0
 62
     0
100
AcDbLine
 10
70.04221133955127
 20
27.42998272089363
 30
0.0
 11
72.84221133955134
 21
30.2299827208937
 31
0.0
  0
LINE
  5
3E77
330
3D85
100
AcDbEntity
  8
0
 62
     0
100
AcDbLine
 10
76.34221133955128
 20
33.72998272089365
 30
0.0
 11
79.1422113395513
 21
36.52998272089372
 31
0.0
  0
LINE
  5
3E78
330
3D85
100
AcDbEntity
  8
0
 62
     0
100
AcDbLine
 10
64.7622289928554
 20
22.15000037419782
 30
0.0
 11
67.94221133955125
 21
25.32998272089367
 31
0.0
  0
LINE
  5
3E79
330
3D85
100
AcDbEntity
  8
0
 62
     0
100
AcDbLine
 10
70.04221133955127
 20
28.32800833300053
 30
0.0
 11
72.84221133955134
 21
31.1280083330006
 31
0.0
  0
LINE
  5
3E7A
330
3D85
100
AcDbEntity
  8
0
 62
     0
100
AcDbLine
 10
76.34221133955128
 20
34.62800833300054
 30
0.0
 11
79.14221133955135
 21
37.42800833300061
 31
0.0
  0
LINE
  5
3E7B
330
3D85
100
AcDbEntity
  8
0
 62
     0
100
AcDbLine
 10
63.8642033807485
 20
22.15000037419776
 30
0.0
 11
67.9422113395513
 21
26.2280083330005
 31
0.0
  0
LINE
  5
3E7C
330
3D85
100
AcDbEntity
  8
0
 62
     0
100
AcDbLine
 10
70.04221133955127
 20
29.22603394510748
 30
0.0
 11
72.84221133955134
 21
32.02603394510749
 31
0.0
  0
LINE
  5
3E7D
330
3D85
100
AcDbEntity
  8
0
 62
     0
100
AcDbLine
 10
76.34221133955128
 20
35.52603394510743
 30
0.0
 11
78.9484738847172
 21
38.1322964902734
 31
0.0
  0
LINE
  5
3E7E
330
3D85
100
AcDbEntity
  8
0
 62
     0
100
AcDbLine
 10
62.96617776864161
 20
22.15000037419782
 30
0.0
 11
67.92789273913832
 21
27.11171534469452
 31
0.0
  0
LINE
  5
3E7F
330
3D85
100
AcDbEntity
  8
0
 62
     0
100
AcDbLine
 10
70.04221133955127
 20
30.12405955721437
 30
0.0
 11
72.84221133955128
 21
32.92405955721444
 31
0.0
  0
LINE
  5
3E80
330
3D85
100
AcDbEntity
  8
0
 62
     0
100
AcDbLine
 10
76.34221133955122
 20
36.42405955721438
 30
0.0
 11
78.16815215653469
 21
38.25000037419784
 31
0.0
  0
LINE
  5
3E81
330
3D85
100
AcDbEntity
  8
0
 62
     0
100
AcDbLine
 10
62.06815215653467
 20
22.15000037419782
 30
0.0
 11
67.79298036850957
 21
27.87482858617267
 31
0.0
  0
LINE
  5
3E82
330
3D85
100
AcDbEntity
  8
0
 62
     0
100
AcDbLine
 10
70.04221133955127
 20
31.02208516932126
 30
0.0
 11
72.84221133955134
 21
33.82208516932133
 31
0.0
  0
LINE
  5
3E83
330
3D85
100
AcDbEntity
  8
0
 62
     0
100
AcDbLine
 10
65.14221133955141
 20
26.12208516932134
 30
0.0
 11
67.55239291159103
 21
28.53226674136096
 31
0.0
  0
LINE
  5
3E84
330
3D85
100
AcDbEntity
  8
0
 62
     0
100
AcDbLine
 10
76.34221133955128
 20
37.32208516932127
 30
0.0
 11
77.27012654442785
 21
38.25000037419784
 31
0.0
  0
LINE
  5
3E85
330
3D85
100
AcDbEntity
  8
0
 62
     0
100
AcDbLine
 10
61.2983818975589
 20
22.27825572732888
 30
0.0
 11
63.97012654442779
 21
24.95000037419777
 31
0.0
  0
LINE
  5
3E86
330
3D85
100
AcDbEntity
  8
0
 62
     0
100
AcDbLine
 10
65.122340764424
 20
27.00024020630087
 30
0.0
 11
67.22889360673048
 21
29.10679304860736
 31
0.0
  0
LINE
  5
3E87
330
3D85
100
AcDbEntity
  8
0
 62
     0
100
AcDbLine
 10
70.04221133955127
 20
31.92011078142815
 30
0.0
 11
72.84221133955128
 21
34.72011078142822
 31
0.0
  0
LINE
  5
3E88
330
3D85
100
AcDbEntity
  8
0
 62
     0
100
AcDbLine
 10
61.11721133955132
 20
22.9951107814282
 30
0.0
 11
63.07210093232083
 21
24.95000037419777
 31
0.0
  0
LINE
  5
3E89
330
3D85
100
AcDbEntity
  8
0
 62
     0
100
AcDbLine
 10
64.84795592728511
 20
27.623880981269
 30
0.0
 11
66.83302248880266
 21
29.60894754278655
 31
0.0
  0
LINE
  5
3E8A
330
3D85
100
AcDbEntity
  8
0
 62
     0
100
AcDbLine
 10
70.04221133955121
 20
32.8181363935351
 30
0.0
 11
72.84221133955128
 21
35.61813639353517
 31
0.0
  0
LINE
  5
3E8B
330
3D85
100
AcDbEntity
  8
0
 62
     0
100
AcDbLine
 10
61.11721133955126
 20
23.89313639353515
 30
0.0
 11
62.17407532021394
 21
24.95000037419783
 31
0.0
  0
LINE
  5
3E8C
330
3D85
100
AcDbEntity
  8
0
 62
     0
100
AcDbLine
 10
70.04221133955127
 20
33.71616200564199
 30
0.0
 11
72.84221133955134
 21
36.516162005642
 31
0.0
  0
LINE
  5
3E8D
330
3D85
100
AcDbEntity
  8
0
 62
     0
100
AcDbLine
 10
64.40668103016804
 20
28.08063169625871
 30
0.0
 11
66.38658001749035
 21
30.06053068358102
 31
0.0
  0
LINE
  5
3E8E
330
3D85
100
AcDbEntity
  8
0
 62
     0
100
AcDbLine
 10
63.95766822411457
 20
28.52964450231218
 30
0.0
 11
65.93756721143688
 21
30.5095434896345
 31
0.0
  0
LINE
  5
3E8F
330
3D85
100
AcDbEntity
  8
0
 62
     0
100
AcDbLine
 10
70.04221133955121
 20
34.61418761774889
 30
0.0
 11
72.84221133955128
 21
37.41418761774895
 31
0.0
  0
LINE
  5
3E90
330
3D85
100
AcDbEntity
  8
0
 62
     0
100
AcDbLine
 10
57.57802409600009
 20
22.15000037419776
 30
0.0
 11
58.49221133955126
 21
23.06418761774887
 31
0.0
  0
LINE
  5
3E91
330
3D85
100
AcDbEntity
  8
0
 62
     0
100
AcDbLine
 10
63.50865541806109
 20
28.97865730836566
 30
0.0
 11
65.48855440538341
 21
30.95855629568797
 31
0.0
  0
LINE
  5
3E92
330
3D85
100
AcDbEntity
  8
0
 62
     0
100
AcDbLine
 10
70.04221133955121
 20
35.51221322985583
 30
0.0
 11
72.65603043145262
 21
38.12603232175718
 31
0.0
  0
LINE
  5
3E93
330
3D85
100
AcDbEntity
  8
0
 62
     0
100
AcDbLine
 10
56.67999848389314
 20
22.15000037419776
 30
0.0
 11
58.49221133955132
 21
23.96221322985588
 31
0.0
  0
LINE
  5
3E94
330
3D85
100
AcDbEntity
  8
0
 62
     0
100
AcDbLine
 10
63.05964261200762
 20
29.42767011441913
 30
0.0
 11
65.03954159932994
 21
31.40756910174145
 31
0.0
  0
LINE
  5
3E95
330
3D85
100
AcDbEntity
  8
0
 62
     0
100
AcDbLine
 10
70.04221133955121
 20
36.41023884196272
 30
0.0
 11
71.88197287178628
 21
38.25000037419784
 31
0.0
  0
LINE
  5
3E96
330
3D85
100
AcDbEntity
  8
0
 62
     0
100
AcDbLine
 10
55.89358400964823
 20
22.26161151205975
 30
0.0
 11
58.49221133955126
 21
24.86023884196283
 31
0.0
  0
LINE
  5
3E97
330
3D85
100
AcDbEntity
  8
0
 62
     0
100
AcDbLine
 10
62.6106298059542
 20
29.87668292047255
 30
0.0
 11
64.59052879327652
 21
31.85658190779486
 31
0.0
  0
LINE
  5
3E98
330
3D85
100
AcDbEntity
  8
0
 62
     0
100
AcDbLine
 10
70.04221133955121
 20
37.30826445406961
 30
0.0
 11
70.98394725967949
 21
38.25000037419784
 31
0.0
  0
LINE
  5
3E99
330
3D85
100
AcDbEntity
  8
0
 62
     0
100
AcDbLine
 10
55.69221133955131
 20
22.95826445406971
 30
0.0
 11
58.49221133955132
 21
25.75826445406966
 31
0.0
  0
LINE
  5
3E9A
330
3D85
100
AcDbEntity
  8
0
 62
     0
100
AcDbLine
 10
62.16161699990073
 20
30.32569572652602
 30
0.0
 11
64.14151598722305
 21
32.30559471384834
 31
0.0
  0
LINE
  5
3E9B
330
3D85
100
AcDbEntity
  8
0
 62
     0
100
AcDbLine
 10
55.69221133955131
 20
23.85629006617666
 30
0.0
 11
58.49221133955126
 21
26.65629006617661
 31
0.0
  0
LINE
  5
3E9C
330
3D85
100
AcDbEntity
  8
0
 62
     0
100
AcDbLine
 10
61.7146330988594
 20
30.77673743759169
 30
0.0
 11
63.69860663224142
 21
32.76071097097366
 31
0.0
  0
LINE
  5
3E9D
330
3D85
100
AcDbEntity
  8
0
 62
     0
100
AcDbLine
 10
55.69221133955131
 20
24.75431567828355
 30
0.0
 11
58.49221133955126
 21
27.55431567828356
 31
0.0
  0
LINE
  5
3E9E
330
3D85
100
AcDbEntity
  8
0
 62
     0
100
AcDbLine
 10
66.38789603546547
 20
35.45000037419777
 30
0.0
 11
67.41721133955133
 21
36.47931567828357
 31
0.0
  0
LINE
  5
3E9F
330
3D85
100
AcDbEntity
  8
0
 62
     0
100
AcDbLine
 10
53.19955511484107
 20
22.26165945357331
 30
0.0
 11
53.28920747629609
 21
22.3513118150284
 31
0.0
  0
LINE
  5
3EA0
330
3D85
100
AcDbEntity
  8
0
 62
     0
100
AcDbLine
 10
61.31663092003742
 20
31.27676087087656
 30
0.0
 11
63.41626519745602
 21
33.37639514829516
 31
0.0
  0
LINE
  5
3EA1
330
3D85
100
AcDbEntity
  8
0
 62
     0
100
AcDbLine
 10
55.69221133955131
 20
25.65234129039044
 30
0.0
 11
58.49221133955132
 21
28.4523412903904
 31
0.0
  0
LINE
  5
3EA2
330
3D85
100
AcDbEntity
  8
0
 62
     0
100
AcDbLine
 10
65.4898704233587
 20
35.45000037419783
 30
0.0
 11
67.41721133955133
 21
37.37734129039046
 31
0.0
  0
LINE
  5
3EA3
330
3D85
100
AcDbEntity
  8
0
 62
     0
100
AcDbLine
 10
52.18987042335863
 20
22.15000037419776
 30
0.0
 11
53.25564951966516
 21
23.21577947050429
 31
0.0
  0
LINE
  5
3EA4
330
3D85
100
AcDbEntity
  8
0
 62
     0
100
AcDbLine
 10
60.99079665564073
 20
31.84895221858682
 30
0.0
 11
63.39221133955141
 21
34.25036690249749
 31
0.0
  0
LINE
  5
3EA5
330
3D85
100
AcDbEntity
  8
0
 62
     0
100
AcDbLine
 10
55.69221133955131
 20
26.55036690249733
 30
0.0
 11
58.49221133955126
 21
29.35036690249734
 31
0.0
  0
LINE
  5
3EA6
330
3D85
100
AcDbEntity
  8
0
 62
     0
100
AcDbLine
 10
64.59184481125169
 20
35.45000037419777
 30
0.0
 11
67.25054240775341
 21
38.1086979706995
 31
0.0
  0
LINE
  5
3EA7
330
3D85
100
AcDbEntity
  8
0
 62
     0
100
AcDbLine
 10
51.29184481125162
 20
22.1500003741977
 30
0.0
 11
53.04012337275946
 21
23.89827893570555
 31
0.0
  0
LINE
  5
3EA8
330
3D85
100
AcDbEntity
  8
0
 62
     0
100
AcDbLine
 10
55.69221133955124
 20
27.44839251460428
 30
0.0
 11
58.49221133955126
 21
30.24839251460424
 31
0.0
  0
LINE
  5
3EA9
330
3D85
100
AcDbEntity
  8
0
 62
     0
100
AcDbLine
 10
60.74741459297064
 20
32.50359576802367
 30
0.0
 11
66.49381919914481
 21
38.25000037419784
 31
0.0
  0
LINE
  5
3EAA
330
3D85
100
AcDbEntity
  8
0
 62
     0
100
AcDbLine
 10
50.69983050059665
 20
22.45601167564968
 30
0.0
 11
52.82459722585378
 21
24.58077840090681
 31
0.0
  0
LINE
  5
3EAB
330
3D85
100
AcDbEntity
  8
0
 62
     0
100
AcDbLine
 10
55.69221133955124
 20
28.34641812671123
 30
0.0
 11
58.4922113395512
 21
31.14641812671119
 31
0.0
  0
LINE
  5
3EAC
330
3D85
100
AcDbEntity
  8
0
 62
     0
100
AcDbLine
 10
60.60870773388495
 20
33.26291452104494
 30
0.0
 11
65.59579358703792
 21
38.25000037419784
 31
0.0
  0
LINE
  5
3EAD
330
3D85
100
AcDbEntity
  8
0
 62
     0
100
AcDbLine
 10
50.48107107894804
 20
23.13527786610803
 30
0.0
 11
52.60907107894809
 21
25.26327786610807
 31
0.0
  0
LINE
  5
3EAE
330
3D85
100
AcDbEntity
  8
0
 62
     0
100
AcDbLine
 10
55.69221133955131
 20
29.24444373881807
 30
0.0
 11
58.49221133955126
 21
32.04444373881808
 31
0.0
  0
LINE
  5
3EAF
330
3D85
100
AcDbEntity
  8
0
 62
     0
100
AcDbLine
 10
60.59221133955128
 20
34.14444373881804
 30
0.0
 11
64.69776797493103
 21
38.25000037419784
 31
0.0
  0
LINE
  5
3EB0
330
3D85
100
AcDbEntity
  8
0
 62
     0
100
AcDbLine
 10
50.26554493204241
 20
23.81777733130923
 30
0.0
 11
52.39354493204252
 21
25.94577733130928
 31
0.0
  0
LINE
  5
3EB1
330
3D85
100
AcDbEntity
  8
0
 62
     0
100
AcDbLine
 10
55.69221133955124
 20
30.14246935092501
 30
0.0
 11
58.49221133955126
 21
32.94246935092497
 31
0.0
  0
LINE
  5
3EB2
330
3D85
100
AcDbEntity
  8
0
 62
     0
100
AcDbLine
 10
60.59221133955134
 20
35.04246935092505
 30
0.0
 11
63.79974236282413
 21
38.25000037419784
 31
0.0
  0
LINE
  5
3EB3
330
3D85
100
AcDbEntity
  8
0
 62
     0
100
AcDbLine
 10
50.05001878513667
 20
24.50027679651043
 30
0.0
 11
52.17801878513689
 21
26.62827679651065
 31
0.0
  0
LINE
  5
3EB4
330
3D85
100
AcDbEntity
  8
0
 62
     0
100
AcDbLine
 10
55.69221133955124
 20
31.0404949630319
 30
0.0
 11
58.49221133955132
 21
33.84049496303197
 31
0.0
  0
LINE
  5
3EB5
330
3D85
100
AcDbEntity
  8
0
 62
     0
100
AcDbLine
 10
49.83449263823104
 20
25.18277626171175
 30
0.0
 11
51.96249263823114
 21
27.3107762617118
 31
0.0
  0
LINE
  5
3EB6
330
3D85
100
AcDbEntity
  8
0
 62
     0
100
AcDbLine
 10
60.64552800967248
 20
35.9938116331532
 30
0.0
 11
62.84840008059581
 21
38.19668370407652
 31
0.0
  0
LINE
  5
3EB7
330
3D85
100
AcDbEntity
  8
0
 62
     0
100
AcDbLine
 10
46.80171675071704
 20
22.15000037419776
 30
0.0
 11
47.64221133955124
 21
22.99049496303195
 31
0.0
  0
LINE
  5
3EB8
330
3D85
100
AcDbEntity
  8
0
 62
     0
100
AcDbLine
 10
49.61896649132547
 20
25.86527572691295
 30
0.0
 11
51.74696649132551
 21
27.99327572691306
 31
0.0
  0
LINE
  5
3EB9
330
3D85
100
AcDbEntity
  8
0
 62
     0
100
AcDbLine
 10
55.69221133955124
 20
31.9385205751388
 30
0.0
 11
58.49221133955132
 21
34.73852057513886
 31
0.0
  0
LINE
  5
3EBA
330
3D85
100
AcDbEntity
  8
0
 62
     0
100
AcDbLine
 10
45.90369113861021
 20
22.1500003741977
 30
0.0
 11
47.64221133955129
 21
23.88852057513884
 31
0.0
  0
LINE
  5
3EBB
330
3D85
100
AcDbEntity
  8
0
 62
     0
100
AcDbLine
 10
49.40344034441977
 20
26.54777519211422
 30
0.0
 11
51.53144034441982
 21
28.67577519211432
 31
0.0
  0
LINE
  5
3EBC
330
3D85
100
AcDbEntity
  8
0
 62
     0
100
AcDbLine
 10
55.69221133955124
 20
32.83654618724574
 30
0.0
 11
58.49221133955132
 21
35.63654618724576
 31
0.0
  0
LINE
  5
3EBD
330
3D85
100
AcDbEntity
  8
0
 62
     0
100
AcDbLine
 10
45.08681527415456
 20
22.23115012184905
 30
0.0
 11
47.64221133955129
 21
24.78654618724573
 31
0.0
  0
LINE
  5
3EBE
330
3D85
100
AcDbEntity
  8
0
 62
     0
100
AcDbLine
 10
49.18791419751409
 20
27.23027465731548
 30
0.0
 11
51.31591419751413
 21
29.35827465731558
 31
0.0
  0
LINE
  5
3EBF
330
3D85
100
AcDbEntity
  8
0
 62
     0
100
AcDbLine
 10
55.69221133955124
 20
33.73457179935264
 30
0.0
 11
58.49221133955126
 21
36.53457179935271
 31
0.0
  0
LINE
  5
3EC0
330
3D85
100
AcDbEntity
  8
0
 62
     0
100
AcDbLine
 10
44.84221133955128
 20
22.88457179935267
 30
0.0
 11
47.64221133955135
 21
25.68457179935274
 31
0.0
  0
LINE
  5
3EC1
330
3D85
100
AcDbEntity
  8
0
 62
     0
100
AcDbLine
 10
48.97238805060846
 20
27.91277412251668
 30
0.0
 11
51.10038805060861
 21
30.04077412251684
 31
0.0
  0
LINE
  5
3EC2
330
3D85
100
AcDbEntity
  8
0
 62
     0
100
AcDbLine
 10
55.69221133955124
 20
34.63259741145953
 30
0.0
 11
58.49221133955132
 21
37.4325974114596
 31
0.0
  0
LINE
  5
3EC3
330
3D85
100
AcDbEntity
  8
0
 62
     0
100
AcDbLine
 10
44.84221133955128
 20
23.78259741145956
 30
0.0
 11
47.64221133955135
 21
26.58259741145963
 31
0.0
  0
LINE
  5
3EC4
330
3D85
100
AcDbEntity
  8
0
 62
     0
100
AcDbLine
 10
48.73758926363672
 20
28.57600094765195
 30
0.0
 11
51.36788333156761
 21
31.20629501558284
 31
0.0
  0
LINE
  5
3EC5
330
3D85
100
AcDbEntity
  8
0
 62
     0
100
AcDbLine
 10
55.69221133955131
 20
35.53062302356654
 30
0.0
 11
58.29593591705287
 21
38.13434760106805
 31
0.0
  0
LINE
  5
3EC6
330
3D85
100
AcDbEntity
  8
0
 62
     0
100
AcDbLine
 10
44.84221133955128
 20
24.68062302356651
 30
0.0
 11
47.64221133955135
 21
27.48062302356653
 31
0.0
  0
LINE
  5
3EC7
330
3D85
100
AcDbEntity
  8
0
 62
     0
100
AcDbLine
 10
48.05040389376933
 20
28.78684118989151
 30
0.0
 11
51.7823566910016
 21
32.51879398712379
 31
0.0
  0
LINE
  5
3EC8
330
3D85
100
AcDbEntity
  8
0
 62
     0
100
AcDbLine
 10
44.84221133955128
 20
25.57864863567341
 30
0.0
 11
47.65537052385758
 21
28.39180781997971
 31
0.0
  0
LINE
  5
3EC9
330
3D85
100
AcDbEntity
  8
0
 62
     0
100
AcDbLine
 10
55.69221133955131
 20
36.42864863567343
 30
0.0
 11
57.51356307807566
 21
38.25000037419784
 31
0.0
  0
LINE
  5
3ECA
330
3D85
100
AcDbEntity
  8
0
 62
     0
100
AcDbLine
 10
41.41356307807564
 20
22.15000037419776
 30
0.0
 11
42.39221133955129
 21
23.12864863567347
 31
0.0
  0
LINE
  5
3ECB
330
3D85
100
AcDbEntity
  8
0
 62
     0
100
AcDbLine
 10
44.84221133955123
 20
26.47667424778035
 30
0.0
 11
52.19683005043555
 21
33.83129295866468
 31
0.0
  0
LINE
  5
3ECC
330
3D85
100
AcDbEntity
  8
0
 62
     0
100
AcDbLine
 10
55.69221133955124
 20
37.32667424778038
 30
0.0
 11
56.61553746596871
 21
38.25000037419784
 31
0.0
  0
LINE
  5
3ECD
330
3D85
100
AcDbEntity
  8
0
 62
     0
100
AcDbLine
 10
40.51553746596868
 20
22.15000037419782
 30
0.0
 11
42.39221133955135
 21
24.02667424778048
 31
0.0
  0
LINE
  5
3ECE
330
3D85
100
AcDbEntity
  8
0
 62
     0
100
AcDbLine
 10
44.84221133955128
 20
27.37469985988719
 30
0.0
 11
52.61130340986966
 21
35.14379193020563
 31
0.0
  0
LINE
  5
3ECF
330
3D85
100
AcDbEntity
  8
0
 62
     0
100
AcDbLine
 10
39.6291924782119
 20
22.16168099854787
 30
0.0
 11
42.25087705594512
 21
24.78336557628103
 31
0.0
  0
LINE
  5
3ED0
330
3D85
100
AcDbEntity
  8
0
 62
     0
100
AcDbLine
 10
44.84221133955123
 20
28.27272547199413
 30
0.0
 11
48.16948624175489
 21
31.60000037419781
 31
0.0
  0
LINE
  5
3ED1
330
3D85
100
AcDbEntity
  8
0
 62
     0
100
AcDbLine
 10
48.93346907699561
 20
32.36398320943852
 30
0.0
 11
53.0257767693036
 21
36.45629090174651
 31
0.0
  0
LINE
  5
3ED2
330
3D85
100
AcDbEntity
  8
0
 62
     0
100
AcDbLine
 10
38.86103196076494
 20
22.29154609320779
 30
0.0
 11
41.51948624175486
 21
24.95000037419777
 31
0.0
  0
LINE
  5
3ED3
330
3D85
100
AcDbEntity
  8
0
 62
     0
100
AcDbLine
 10
44.84221133955123
 20
29.17075108410108
 30
0.0
 11
47.66020191025956
 21
31.98874165480936
 31
0.0
  0
LINE
  5
3ED4
330
3D85
100
AcDbEntity
  8
0
 62
     0
100
AcDbLine
 10
49.34794243642954
 20
33.67648218097935
 30
0.0
 11
53.40084822110492
 21
37.72938796565478
 31
0.0
  0
LINE
  5
3ED5
330
3D85
100
AcDbEntity
  8
0
 62
     0
100
AcDbLine
 10
38.19989770393852
 20
22.52843744848838
 30
0.0
 11
40.62146062964797
 21
24.95000037419777
 31
0.0
  0
LINE
  5
3ED6
330
3D85
100
AcDbEntity
  8
0
 62
     0
100
AcDbLine
 10
44.84221133955128
 20
30.06877669620792
 30
0.0
 11
47.64221133955129
 21
32.86877669620799
 31
0.0
  0
LINE
  5
3ED7
330
3D85
100
AcDbEntity
  8
0
 62
     0
100
AcDbLine
 10
49.76241579586366
 20
34.98898115252035
 30
0.0
 11
53.00683634853573
 21
38.23340170519242
 31
0.0
  0
LINE
  5
3ED8
330
3D85
100
AcDbEntity
  8
0
 62
     0
100
AcDbLine
 10
37.62229441977422
 20
22.84885977643086
 30
0.0
 11
39.73835627826708
 21
24.96492163492377
 31
0.0
  0
LINE
  5
3ED9
330
3D85
100
AcDbEntity
  8
0
 62
     0
100
AcDbLine
 10
44.84221133955123
 20
30.96680230831487
 30
0.0
 11
47.64221133955129
 21
33.76680230831494
 31
0.0
  0
LINE
  5
3EDA
330
3D85
100
AcDbEntity
  8
0
 62
     0
100
AcDbLine
 10
50.1768891552976
 20
36.30148012406119
 30
0.0
 11
52.12540940543414
 21
38.25000037419778
 31
0.0
  0
LINE
  5
3EDB
330
3D85
100
AcDbEntity
  8
0
 62
     0
100
AcDbLine
 10
37.11733945339216
 20
23.24193042215575
 30
0.0
 11
39.10404013724877
 21
25.22863110601236
 31
0.0
  0
LINE
  5
3EDC
330
3D85
100
AcDbEntity
  8
0
 62
     0
100
AcDbLine
 10
44.84221133955123
 20
31.86482792042176
 30
0.0
 11
47.64221133955129
 21
34.66482792042183
 31
0.0
  0
LINE
  5
3EDD
330
3D85
100
AcDbEntity
  8
0
 62
     0
100
AcDbLine
 10
41.50384547132773
 20
28.52646205219833
 30
0.0
 11
42.66574966155082
 21
29.68836624242141
 31
0.0
  0
LINE
  5
3EDE
330
3D85
100
AcDbEntity
  8
0
 62
     0
100
AcDbLine
 10
50.59136251473148
 20
37.61397909560208
 30
0.0
 11
51.2273837933273
 21
38.2500003741979
 31
0.0
  0
LINE
  5
3EDF
330
3D85
100
AcDbEntity
  8
0
 62
     0
100
AcDbLine
 10
36.68090238006232
 20
23.70351896093291
 30
0.0
 11
38.69378918597659
 21
25.71640576684718
 31
0.0
  0
LINE
  5
3EE0
330
3D85
100
AcDbEntity
  8
0
 62
     0
100
AcDbLine
 10
40.57887262969791
 20
28.49951482267545
 30
0.0
 11
42.69269689107369
 21
30.61333908405118
 31
0.0
  0
LINE
  5
3EE1
330
3D85
100
AcDbEntity
  8
0
 62
     0
100
AcDbLine
 10
44.84221133955128
 20
32.76285353252877
 30
0.0
 11
47.64221133955135
 21
35.56285353252884
 31
0.0
  0
LINE
  5
3EE2
330
3D85
100
AcDbEntity
  8
0
 62
     0
100
AcDbLine
 10
36.31388315511936
 20
24.23452534809684
 30
0.0
 11
38.54221133955127
 21
26.46285353252881
 31
0.0
  0
LINE
  5
3EE3
330
3D85
100
AcDbEntity
  8
0
 62
     0
100
AcDbLine
 10
39.96472606027771
 20
28.78339386536203
 30
0.0
 11
42.40881784838705
 21
31.22748565347143
 31
0.0
  0
LINE
  5
3EE4
330
3D85
100
AcDbEntity
  8
0
 62
     0
100
AcDbLine
 10
44.84221133955128
 20
33.66087914463566
 30
0.0
 11
47.64221133955135
 21
36.46087914463573
 31
0.0
  0
LINE
  5
3EE5
330
3D85
100
AcDbEntity
  8
0
 62
     0
100
AcDbLine
 10
36.02256564519462
 20
24.84123345027899
 30
0.0
 11
38.54221133955127
 21
27.36087914463565
 31
0.0
  0
LINE
  5
3EE6
330
3D85
100
AcDbEntity
  8
0
 62
     0
100
AcDbLine
 10
39.52676613328799
 20
29.24345955047932
 30
0.0
 11
41.94875216326983
 21
31.6654455804611
 31
0.0
  0
LINE
  5
3EE7
330
3D85
100
AcDbEntity
  8
0
 62
     0
100
AcDbLine
 10
44.84221133955128
 20
34.55890475674261
 30
0.0
 11
47.64221133955135
 21
37.35890475674262
 31
0.0
  0
LINE
  5
3EE8
330
3D85
100
AcDbEntity
  8
0
 62
     0
100
AcDbLine
 10
35.82142828101996
 20
25.53812169821128
 30
0.0
 11
38.54221133955127
 21
28.2589047567426
 31
0.0
  0
LINE
  5
3EE9
330
3D85
100
AcDbEntity
  8
0
 62
     0
100
AcDbLine
 10
39.27071540087963
 20
29.88543443017784
 30
0.0
 11
41.30677728357125
 21
31.92149631286952
 31
0.0
  0
LINE
  5
3EEA
330
3D85
100
AcDbEntity
  8
0
 62
     0
100
AcDbLine
 10
35.7422113395512
 20
26.35693036884948
 30
0.0
 11
38.54221133955127
 21
29.15693036884949
 31
0.0
  0
LINE
  5
3EEB
330
3D85
100
AcDbEntity
  8
0
 62
     0
100
AcDbLine
 10
44.84221133955128
 20
35.4569303688495
 30
0.0
 11
47.48496123119616
 21
38.09968026049444
 31
0.0
  0
LINE
  5
3EEC
330
3D85
100
AcDbEntity
  8
0
 62
     0
100
AcDbLine
 10
31.65621458167561
 20
22.27093361097388
 30
0.0
 11
33.52127810277534
 21
24.13599713207361
 31
0.0
  0
LINE
  5
3EED
330
3D85
100
AcDbEntity
  8
0
 62
     0
100
AcDbLine
 10
39.38912848436041
 20
30.90187312576552
 30
0.0
 11
40.29033858798363
 21
31.80308322938873
 31
0.0
  0
LINE
  5
3EEE
330
3D85
100
AcDbEntity
  8
0
 62
     0
100
AcDbLine
 10
35.7422113395512
 20
27.25495598095631
 30
0.0
 11
38.54221133955127
 21
30.05495598095638
 31
0.0
  0
LINE
  5
3EEF
330
3D85
100
AcDbEntity
  8
0
 62
     0
100
AcDbLine
 10
44.84221133955128
 20
36.35495598095639
 30
0.0
 11
46.73725573279267
 21
38.25000037419778
 31
0.0
  0
LINE
  5
3EF0
330
3D85
100
AcDbEntity
  8
0
 62
     0
100
AcDbLine
 10
30.63725573279266
 20
22.15000037419776
 30
0.0
 11
33.64221133955141
 21
25.15495598095646
 31
0.0
  0
LINE
  5
3EF1
330
3D85
100
AcDbEntity
  8
0
 62
     0
100
AcDbLine
 10
35.7422113395512
 20
28.15298159306326
 30
0.0
 11
38.54221133955127
 21
30.95298159306333
 31
0.0
  0
LINE
  5
3EF2
330
3D85
100
AcDbEntity
  8
0
 62
     0
100
AcDbLine
 10
44.84221133955128
 20
37.25298159306329
 30
0.0
 11
45.83923012068578
 21
38.25000037419784
 31
0.0
  0
LINE
  5
3EF3
330
3D85
100
AcDbEntity
  8
0
 62
     0
100
AcDbLine
 10
29.73923012068565
 20
22.1500003741977
 30
0.0
 11
33.64221133955136
 21
26.05298159306341
 31
0.0
  0
LINE
  5
3EF4
330
3D85
100
AcDbEntity
  8
0
 62
     0
100
AcDbLine
 10
35.7422113395512
 20
29.05100720517015
 30
0.0
 11
38.54221133955121
 21
31.85100720517022
 31
0.0
  0
LINE
  5
3EF5
330
3D85
100
AcDbEntity
  8
0
 62
     0
100
AcDbLine
 10
28.84120450857881
 20
22.15000037419782
 30
0.0
 11
33.63827198699011
 21
26.94706785260911
 31
0.0
  0
LINE
  5
3EF6
330
3D85
100
AcDbEntity
  8
0
 62
     0
100
AcDbLine
 10
35.7422113395512
 20
29.9490328172771
 30
0.0
 11
38.54221133955127
 21
32.74903281727717
 31
0.0
  0
LINE
  5
3EF7
330
3D85
100
AcDbEntity
  8
0
 62
     0
100
AcDbLine
 10
41.24317889647199
 20
35.45000037419788
 30
0.0
 11
42.3922113395514
 21
36.59903281727731
 31
0.0
  0
LINE
  5
3EF8
330
3D85
100
AcDbEntity
  8
0
 62
     0
100
AcDbLine
 10
27.94317889647186
 20
22.15000037419776
 30
0.0
 11
33.52861015066878
 21
27.73543162839468
 31
0.0
  0
LINE
  5
3EF9
330
3D85
100
AcDbEntity
  8
0
 62
     0
100
AcDbLine
 10
35.7422113395512
 20
30.847058429384
 30
0.0
 11
38.54221133955127
 21
33.64705842938401
 31
0.0
  0
LINE
  5
3EFA
330
3D85
100
AcDbEntity
  8
0
 62
     0
100
AcDbLine
 10
30.84221133955129
 20
25.94705842938407
 30
0.0
 11
33.30627140662466
 21
28.41111849645745
 31
0.0
  0
LINE
  5
3EFB
330
3D85
100
AcDbEntity
  8
0
 62
     0
100
AcDbLine
 10
40.34515328436498
 20
35.45000037419777
 30
0.0
 11
42.3922113395514
 21
37.49705842938414
 31
0.0
  0
LINE
  5
3EFC
330
3D85
100
AcDbEntity
  8
0
 62
     0
100
AcDbLine
 10
27.10287915962493
 20
22.20772624945772
 30
0.0
 11
29.84515328436499
 21
24.95000037419777
 31
0.0
  0
LINE
  5
3EFD
330
3D85
100
AcDbEntity
  8
0
 62
     0
100
AcDbLine
 10
35.74221133955115
 20
31.74508404149089
 30
0.0
 11
38.70802604533094
 21
34.71089874727068
 31
0.0
  0
LINE
  5
3EFE
330
3D85
100
AcDbEntity
  8
0
 62
     0
100
AcDbLine
 10
30.84005224794203
 20
26.84292494988171
 30
0.0
 11
32.99783987195264
 21
29.00071257389237
 31
0.0
  0
LINE
  5
3EFF
330
3D85
100
AcDbEntity
  8
0
 62
     0
100
AcDbLine
 10
39.28131296647848
 20
35.28418566841822
 30
0.0
 11
42.15874392463149
 21
38.16161662657118
 31
0.0
  0
LINE
  5
3F00
330
3D85
100
AcDbEntity
  8
0
 62
     0
100
AcDbLine
 10
26.81721133955131
 20
22.82008404149099
 30
0.0
 11
28.94712767225809
 21
24.95000037419777
 31
0.0
  0
LINE
  5
3F01
330
3D85
100
AcDbEntity
  8
0
 62
     0
100
AcDbLine
 10
30.62044922844132
 20
27.521347542488
 30
0.0
 11
32.61559790711374
 21
29.51649622116042
 31
0.0
  0
LINE
  5
3F02
330
3D85
100
AcDbEntity
  8
0
 62
     0
100
AcDbLine
 10
35.74221133955115
 20
32.64310965359783
 30
0.0
 11
41.34910206015121
 21
38.2500003741979
 31
0.0
  0
LINE
  5
3F03
330
3D85
100
AcDbEntity
  8
0
 62
     0
100
AcDbLine
 10
26.81721133955125
 20
23.71810965359793
 30
0.0
 11
28.04910206015114
 21
24.95000037419783
 31
0.0
  0
LINE
  5
3F04
330
3D85
100
AcDbEntity
  8
0
 62
     0
100
AcDbLine
 10
30.19419440013661
 20
27.99311832629013
 30
0.0
 11
32.17409338745898
 21
29.9730173136125
 31
0.0
  0
LINE
  5
3F05
330
3D85
100
AcDbEntity
  8
0
 62
     0
100
AcDbLine
 10
35.7422113395512
 20
33.54113526570467
 30
0.0
 11
40.45107644804426
 21
38.25000037419778
 31
0.0
  0
LINE
  5
3F06
330
3D85
100
AcDbEntity
  8
0
 62
     0
100
AcDbLine
 10
26.88616326157103
 20
24.68508718772455
 30
0.0
 11
27.08212452602464
 21
24.88104845217816
 31
0.0
  0
LINE
  5
3F07
330
3D85
100
AcDbEntity
  8
0
 62
     0
100
AcDbLine
 10
35.76218645370778
 20
34.4591359919682
 30
0.0
 11
39.53307572178079
 21
38.23002526004126
 31
0.0
  0
LINE
  5
3F08
330
3D85
100
AcDbEntity
  8
0
 62
     0
100
AcDbLine
 10
29.74518159408314
 20
28.4421311323436
 30
0.0
 11
31.72508058140551
 21
30.42203011966598
 31
0.0
  0
LINE
  5
3F09
330
3D85
100
AcDbEntity
  8
0
 62
     0
100
AcDbLine
 10
36.06164988597357
 20
35.65662503634098
 30
0.0
 11
38.33558667740806
 21
37.93056182777548
 31
0.0
  0
LINE
  5
3F0A
330
3D85
100
AcDbEntity
  8
0
 62
     0
100
AcDbLine
 10
29.29616878802966
 20
28.89114393839708
 30
0.0
 11
31.27606777535203
 21
30.87104292571945
 31
0.0
  0
LINE
  5
3F0B
330
3D85
100
AcDbEntity
  8
0
 62
     0
100
AcDbLine
 10
28.84715598197625
 20
29.34015674445049
 30
0.0
 11
30.82705496929856
 21
31.32005573177276
 31
0.0
  0
LINE
  5
3F0C
330
3D85
100
AcDbEntity
  8
0
 62
     0
100
AcDbLine
 10
28.39814317592277
 20
29.78916955050397
 30
0.0
 11
30.37804216324508
 21
31.76906853782623
 31
0.0
  0
LINE
  5
3F0D
330
3D85
100
AcDbEntity
  8
0
 62
     0
100
AcDbLine
 10
27.9491303698693
 20
30.23818235655745
 30
0.0
 11
29.92902935719161
 21
32.2180813438797
 31
0.0
  0
LINE
  5
3F0E
330
3D85
100
AcDbEntity
  8
0
 62
     0
100
AcDbLine
 10
32.26292277540279
 20
35.45000037419788
 30
0.0
 11
33.11721133955115
 21
36.30428893834625
 31
0.0
  0
LINE
  5
3F0F
330
3D85
100
AcDbEntity
  8
0
 62
     0
100
AcDbLine
 10
27.50020087784395
 20
30.68727847663905
 30
0.0
 11
29.48026652127641
 21
32.66734412007151
 31
0.0
  0
LINE
  5
3F10
330
3D85
100
AcDbEntity
  8
0
 62
     0
100
AcDbLine
 10
31.36489716329584
 20
35.45000037419777
 30
0.0
 11
33.11721133955126
 21
37.2023145504532
 31
0.0
  0
LINE
  5
3F11
330
3D85
100
AcDbEntity
  8
0
 62
     0
100
AcDbLine
 10
27.08873295329238
 20
31.17383616419426
 30
0.0
 11
29.15036963998847
 21
33.2354728508904
 31
0.0
  0
LINE
  5
3F12
330
3D85
100
AcDbEntity
  8
0
 62
     0
100
AcDbLine
 10
30.46687155118889
 20
35.45000037419777
 30
0.0
 11
33.03065243979012
 21
38.013781262799
 31
0.0
  0
LINE
  5
3F13
330
3D85
100
AcDbEntity
  8
0
 62
     0
100
AcDbLine
 10
26.74827234702991
 20
31.73140117003874
 30
0.0
 11
29.09221133955134
 21
34.07534016256017
 31
0.0
  0
LINE
  5
3F14
330
3D85
100
AcDbEntity
  8
0
 62
     0
100
AcDbLine
 10
29.56637928991188
 20
35.44753372502766
 30
0.0
 11
32.36884593908206
 21
38.25000037419784
 31
0.0
  0
LINE
  5
3F15
330
3D85
100
AcDbEntity
  8
0
 62
     0
100
AcDbLine
 10
26.48757905129782
 20
32.36873348641359
 30
0.0
 11
29.0946779887214
 21
34.97583242383723
 31
0.0
  0
LINE
  5
3F16
330
3D85
100
AcDbEntity
  8
0
 62
     0
100
AcDbLine
 10
26.32576708904975
 20
33.10494713627242
 30
0.0
 11
31.47082032697517
 21
38.25000037419784
 31
0.0
  0
LINE
  5
3F17
330
3D85
100
AcDbEntity
  8
0
 62
     0
100
AcDbLine
 10
26.29221133955133
 20
33.96941699888095
 30
0.0
 11
30.57279471486822
 21
38.25000037419784
 31
0.0
  0
LINE
  5
3F18
330
3D85
100
AcDbEntity
  8
0
 62
     0
100
AcDbLine
 10
26.29221133955133
 20
34.86744261098784
 30
0.0
 11
29.67476910276133
 21
38.25000037419784
 31
0.0
  0
LINE
  5
3F19
330
3D85
100
AcDbEntity
  8
0
 62
     0
100
AcDbLine
 10
26.31240334998955
 20
35.78566023353301
 30
0.0
 11
28.75655148021616
 21
38.22980836375961
 31
0.0
  0
ENDBLK
  5
3F1A
330
3D85
100
AcDbEntity
  8
0
100
AcDbBlockEnd
  0
BLOCK
  5
4E8F
330
4E85
100
AcDbEntity
  8
0
100
AcDbBlockBegin
  2
*D67
 70
     1
 10
0.0
 20
0.0
 30
0.0
  3
*D67
  1

  0
LINE
  5
4F06
330
4E85
100
AcDbEntity
  8
SUNPOU
100
AcDbLine
 10
1079.741440934764
 20
282.0778806909502
 30
0.0
 11
1079.741440934764
 21
325.1948757653027
 31
0.0
  0
LINE
  5
4F07
330
4E85
100
AcDbEntity
  8
SUNPOU
100
AcDbLine
 10
1184.615560967187
 20
282.0778806909502
 30
0.0
 11
1184.615560967187
 21
325.1948757653027
 31
0.0
  0
LINE
  5
4F08
330
4E85
100
AcDbEntity
  8
SUNPOU
100
AcDbLine
 10
1086.741440934764
 20
322.1948757653026
 30
0.0
 11
1177.615560967187
 21
322.1948757653026
 31
0.0
  0
INSERT
  5
4F09
330
4E85
100
AcDbEntity
  8
SUNPOU
100
AcDbBlockReference
  2
_OPEN
 10
1079.741440934764
 20
322.1948757653026
 30
0.0
 41
7.0
 42
7.0
 43
7.0
 50
180.0
  0
INSERT
  5
4F0A
330
4E85
100
AcDbEntity
  8
SUNPOU
100
AcDbBlockReference
  2
_OPEN
 10
1184.615560967187
 20
322.1948757653026
 30
0.0
 41
7.0
 42
7.0
 43
7.0
  0
MTEXT
  5
4F0B
330
4E85
100
AcDbEntity
  8
SUNPOU
100
AcDbMText
 10
1132.178500950975
 20
327.1948757653027
 30
0.0
 40
6.0
 41
0.0
 71
     5
 72
     1
  1
\A1;105
 73
     1
 44
1.0
1001
ACAD
1000
MTEXTBEGIN
1070
    73
1070
     1
1070
    44
1040
1.0
1070
    74
1070
     0
1000
MTEXTEND
  0
POINT
  5
4F0C
330
4E85
100
AcDbEntity
  8
DEFPOINTS
 62
     0
100
AcDbPoint
 10
1079.741440934764
 20
276.0778806909502
 30
0.0
  0
POINT
  5
4F0D
330
4E85
100
AcDbEntity
  8
DEFPOINTS
 62
     0
100
AcDbPoint
 10
1184.615560967187
 20
276.0778806909502
 30
0.0
  0
POINT
  5
4F0E
330
4E85
100
AcDbEntity
  8
DEFPOINTS
 62
     0
100
AcDbPoint
 10
1184.615560967187
 20
322.1948757653026
 30
0.0
  0
ENDBLK
  5
4E90
330
4E85
100
AcDbEntity
  8
0
100
AcDbBlockEnd
  0
BLOCK
  5
4E9B
330
4E91
100
AcDbEntity
  8
0
100
AcDbBlockBegin
  2
*D68
 70
     1
 10
0.0
 20
0.0
 30
0.0
  3
*D68
  1

  0
LINE
  5
4F90
330
4E91
100
AcDbEntity
  8
SUNPOU
100
AcDbLine
 10
1186.44112416682
 20
477.6222679254416
 30
0.0
 11
1219.974119200725
 21
477.6222679254416
 31
0.0
  0
LINE
  5
4F91
330
4E91
100
AcDbEntity
  8
SUNPOU
100
AcDbLine
 10
1138.19112416682
 20
372.6222679254417
 30
0.0
 11
1219.974119200725
 21
372.6222679254416
 31
0.0
  0
LINE
  5
4F92
330
4E91
100
AcDbEntity
  8
SUNPOU
100
AcDbLine
 10
1216.974119200725
 20
470.6222679254416
 30
0.0
 11
1216.974119200725
 21
379.6222679254416
 31
0.0
  0
INSERT
  5
4F93
330
4E91
100
AcDbEntity
  8
SUNPOU
100
AcDbBlockReference
  2
_OPEN
 10
1216.974119200725
 20
477.6222679254416
 30
0.0
 41
7.0
 42
7.0
 43
7.0
 50
90.0
  0
INSERT
  5
4F94
330
4E91
100
AcDbEntity
  8
SUNPOU
100
AcDbBlockReference
  2
_OPEN
 10
1216.974119200725
 20
372.6222679254416
 30
0.0
 41
7.0
 42
7.0
 43
7.0
 50
270.0
  0
MTEXT
  5
4F95
330
4E91
100
AcDbEntity
  8
SUNPOU
100
AcDbMText
 10
1211.974119200725
 20
425.1222679254419
 30
0.0
 40
6.0
 41
0.0
 71
     5
 72
     1
  1
\A1;105
 11
0.0000000000000001
 21
1.0
 31
0.0
 73
     1
 44
1.0
1001
ACAD
1000
MTEXTBEGIN
1070
    73
1070
     1
1070
    44
1040
1.0
1070
    74
1070
     0
1000
MTEXTEND
  0
POINT
  5
4F96
330
4E91
100
AcDbEntity
  8
DEFPOINTS
 62
     0
100
AcDbPoint
 10
1180.44112416682
 20
477.6222679254416
 30
0.0
  0
POINT
  5
4F97
330
4E91
100
AcDbEntity
  8
DEFPOINTS
 62
     0
100
AcDbPoint
 10
1132.19112416682
 20
372.6222679254417
 30
0.0
  0
POINT
  5
4F98
330
4E91
100
AcDbEntity
  8
DEFPOINTS
 62
     0
100
AcDbPoint
 10
1216.974119200725
 20
372.6222679254416
 30
0.0
  0
ENDBLK
  5
4E9C
330
4E91
100
AcDbEntity
  8
0
100
AcDbBlockEnd
  0
BLOCK
  5
4EA7
330
4E9D
100
AcDbEntity
  8
0
100
AcDbBlockBegin
  2
*D69
 70
     1
 10
0.0
 20
0.0
 30
0.0
  3
*D69
  1

  0
LINE
  5
4F18
330
4E9D
100
AcDbEntity
  8
SUNPOU
100
AcDbLine
 10
1483.824608850059
 20
289.0778806909502
 30
0.0
 11
1483.824608850059
 21
313.6008972872614
 31
0.0
  0
LINE
  5
4F19
330
4E9D
100
AcDbEntity
  8
SUNPOU
100
AcDbLine
 10
1548.824608850059
 20
289.0778806909502
 30
0.0
 11
1548.824608850059
 21
313.6008972872614
 31
0.0
  0
LINE
  5
4F1A
330
4E9D
100
AcDbEntity
  8
SUNPOU
100
AcDbLine
 10
1490.824608850059
 20
310.6008972872615
 30
0.0
 11
1541.824608850059
 21
310.6008972872615
 31
0.0
  0
INSERT
  5
4F1B
330
4E9D
100
AcDbEntity
  8
SUNPOU
100
AcDbBlockReference
  2
_OPEN
 10
1483.824608850059
 20
310.6008972872615
 30
0.0
 41
7.0
 42
7.0
 43
7.0
 50
180.0
  0
INSERT
  5
4F1C
330
4E9D
100
AcDbEntity
  8
SUNPOU
100
AcDbBlockReference
  2
_OPEN
 10
1548.824608850059
 20
310.6008972872615
 30
0.0
 41
7.0
 42
7.0
 43
7.0
  0
MTEXT
  5
4F1D
330
4E9D
100
AcDbEntity
  8
SUNPOU
100
AcDbMText
 10
1516.324608850059
 20
315.6008972872614
 30
0.0
 40
6.0
 41
0.0
 71
     5
 72
     1
  1
\A1;65
 73
     1
 44
1.0
1001
ACAD
1000
MTEXTBEGIN
1070
    73
1070
     1
1070
    44
1040
1.0
1070
    74
1070
     0
1000
MTEXTEND
  0
POINT
  5
4F1E
330
4E9D
100
AcDbEntity
  8
DEFPOINTS
 62
     0
100
AcDbPoint
 10
1483.824608850059
 20
283.0778806909502
 30
0.0
  0
POINT
  5
4F1F
330
4E9D
100
AcDbEntity
  8
DEFPOINTS
 62
     0
100
AcDbPoint
 10
1548.824608850059
 20
283.0778806909502
 30
0.0
  0
POINT
  5
4F20
330
4E9D
100
AcDbEntity
  8
DEFPOINTS
 62
     0
100
AcDbPoint
 10
1548.824608850059
 20
310.6008972872615
 30
0.0
  0
ENDBLK
  5
4EA8
330
4E9D
100
AcDbEntity
  8
0
100
AcDbBlockEnd
  0
BLOCK
  5
4EAF
330
4EA9
100
AcDbEntity
  8
0
100
AcDbBlockBegin
  2
*D70
 70
     1
 10
0.0
 20
0.0
 30
0.0
  3
*D70
  1

  0
LINE
  5
4F21
330
4EA9
100
AcDbEntity
  8
SUNPOU
100
AcDbLine
 10
1515.156211670525
 20
227.4118352931756
 30
0.0
 11
1499.653451433329
 21
205.3060798202673
 31
0.0
  0
MTEXT
  5
4F22
330
4EA9
100
AcDbEntity
  8
SUNPOU
100
AcDbMText
 10
1505.320790198803
 20
222.0953999767643
 30
0.0
 40
6.0
 41
0.0
 71
     5
 72
     1
  1
\A1;R36
 11
0.5741763050813333
 21
0.8187316841817883
 31
0.0
 73
     1
 44
1.0
1001
ACAD
1000
MTEXTBEGIN
1070
    73
1070
     1
1070
    44
1040
1.0
1070
    74
1070
     0
1000
MTEXTEND
  0
INSERT
  5
4F23
330
4EA9
100
AcDbEntity
  8
SUNPOU
100
AcDbBlockReference
  2
_OPEN
 10
1495.63421729776
 20
199.5749580309947
 30
0.0
 41
7.0
 42
7.0
 43
7.0
 50
234.958031276124
  0
POINT
  5
4F24
330
4EA9
100
AcDbEntity
  8
DEFPOINTS
 62
     0
100
AcDbPoint
 10
1495.63421729776
 20
199.5749580309947
 30
0.0
  0
POINT
  5
4F25
330
4EA9
100
AcDbEntity
  8
DEFPOINTS
 62
     0
100
AcDbPoint
 10
1516.32460885006
 20
229.0778806909532
 30
0.0
  0
ENDBLK
  5
4EB0
330
4EA9
100
AcDbEntity
  8
0
100
AcDbBlockEnd
  0
BLOCK
  5
4EBB
330
4EB1
100
AcDbEntity
  8
0
100
AcDbBlockBegin
  2
*D71
 70
     1
 10
0.0
 20
0.0
 30
0.0
  3
*D71
  1

  0
LINE
  5
4F26
330
4EB1
100
AcDbEntity
  8
SUNPOU
100
AcDbLine
 10
1563.436310336022
 20
274.1826110805205
 30
0.0
 11
1595.732596365587
 21
274.1826110805205
 31
0.0
  0
LINE
  5
4F27
330
4EB1
100
AcDbEntity
  8
SUNPOU
100
AcDbLine
 10
1522.324608850063
 20
193.042970561094
 30
0.0
 11
1595.732596365587
 21
193.042970561094
 31
0.0
  0
LINE
  5
4F28
330
4EB1
100
AcDbEntity
  8
SUNPOU
100
AcDbLine
 10
1592.732596365587
 20
267.1826110805205
 30
0.0
 11
1592.732596365587
 21
200.0429705610941
 31
0.0
  0
INSERT
  5
4F29
330
4EB1
100
AcDbEntity
  8
SUNPOU
100
AcDbBlockReference
  2
_OPEN
 10
1592.732596365587
 20
274.1826110805205
 30
0.0
 41
7.0
 42
7.0
 43
7.0
 50
90.0
  0
INSERT
  5
4F2A
330
4EB1
100
AcDbEntity
  8
SUNPOU
100
AcDbBlockReference
  2
_OPEN
 10
1592.732596365587
 20
193.042970561094
 30
0.0
 41
7.0
 42
7.0
 43
7.0
 50
270.0
  0
MTEXT
  5
4F2B
330
4EB1
100
AcDbEntity
  8
SUNPOU
100
AcDbMText
 10
1587.732596365587
 20
233.6127908208075
 30
0.0
 40
6.0
 41
0.0
 71
     5
 72
     1
  1
\A1;81
 11
0.0000000000000001
 21
1.0
 31
0.0
 73
     1
 44
1.0
1001
ACAD
1000
MTEXTBEGIN
1070
    73
1070
     1
1070
    44
1040
1.0
1070
    74
1070
     0
1000
MTEXTEND
  0
POINT
  5
4F2C
330
4EB1
100
AcDbEntity
  8
DEFPOINTS
 62
     0
100
AcDbPoint
 10
1557.436310336021
 20
274.1826110805205
 30
0.0
  0
POINT
  5
4F2D
330
4EB1
100
AcDbEntity
  8
DEFPOINTS
 62
     0
100
AcDbPoint
 10
1516.324608850063
 20
193.042970561094
 30
0.0
  0
POINT
  5
4F2E
330
4EB1
100
AcDbEntity
  8
DEFPOINTS
 62
     0
100
AcDbPoint
 10
1592.732596365587
 20
193.042970561094
 30
0.0
  0
ENDBLK
  5
4EBC
330
4EB1
100
AcDbEntity
  8
0
100
AcDbBlockEnd
  0
BLOCK
  5
4EC7
330
4EBD
100
AcDbEntity
  8
0
100
AcDbBlockBegin
  2
*D72
 70
     1
 10
0.0
 20
0.0
 30
0.0
  3
*D72
  1

  0
LINE
  5
4F2F
330
4EBD
100
AcDbEntity
  8
SUNPOU
100
AcDbLine
 10
1480.324608850059
 20
254.2620095474931
 30
0.0
 11
1480.324608850059
 21
251.2620095474931
 31
0.0
  0
LINE
  5
4F30
330
4EBD
100
AcDbEntity
  8
SUNPOU
100
AcDbLine
 10
1552.324608248635
 20
254.2620095474931
 30
0.0
 11
1552.324608248635
 21
251.2620095474931
 31
0.0
  0
LINE
  5
4F31
330
4EBD
100
AcDbEntity
  8
SUNPOU
100
AcDbLine
 10
1487.324608850059
 20
248.2620095474931
 30
0.0
 11
1545.324608248635
 21
248.2620095474931
 31
0.0
  0
INSERT
  5
4F32
330
4EBD
100
AcDbEntity
  8
SUNPOU
100
AcDbBlockReference
  2
_OPEN
 10
1480.324608850059
 20
248.2620095474931
 30
0.0
 41
7.0
 42
7.0
 43
7.0
 50
180.0
  0
INSERT
  5
4F33
330
4EBD
100
AcDbEntity
  8
SUNPOU
100
AcDbBlockReference
  2
_OPEN
 10
1552.324608248635
 20
248.2620095474931
 30
0.0
 41
7.0
 42
7.0
 43
7.0
  0
MTEXT
  5
4F34
330
4EBD
100
AcDbEntity
  8
SUNPOU
100
AcDbMText
 10
1516.324608549347
 20
253.2620095474931
 30
0.0
 40
6.0
 41
0.0
 71
     5
 72
     1
  1
\A1;72
 73
     1
 44
1.0
1001
ACAD
1000
MTEXTBEGIN
1070
    73
1070
     1
1070
    44
1040
1.0
1070
    74
1070
     0
1000
MTEXTEND
  0
POINT
  5
4F35
330
4EBD
100
AcDbEntity
  8
DEFPOINTS
 62
     0
100
AcDbPoint
 10
1480.324608850059
 20
248.2620095474931
 30
0.0
  0
POINT
  5
4F36
330
4EBD
100
AcDbEntity
  8
DEFPOINTS
 62
     0
100
AcDbPoint
 10
1552.324608248635
 20
248.2620095474931
 30
0.0
  0
POINT
  5
4F37
330
4EBD
100
AcDbEntity
  8
DEFPOINTS
 62
     0
100
AcDbPoint
 10
1552.324608248635
 20
248.2620095474931
 30
0.0
  0
ENDBLK
  5
4EC8
330
4EBD
100
AcDbEntity
  8
0
100
AcDbBlockEnd
  0
BLOCK
  5
4ED3
330
4EC9
100
AcDbEntity
  8
0
100
AcDbBlockBegin
  2
*D73
 70
     1
 10
0.0
 20
0.0
 30
0.0
  3
*D73
  1

  0
LINE
  5
4F38
330
4EC9
100
AcDbEntity
  8
SUNPOU
100
AcDbLine
 10
1191.741440934764
 20
276.0778806909502
 30
0.0
 11
1213.673204453356
 21
276.0778806909502
 31
0.0
  0
LINE
  5
4F39
330
4EC9
100
AcDbEntity
  8
SUNPOU
100
AcDbLine
 10
1187.66674269383
 20
128.0778806909502
 30
0.0
 11
1213.673204453356
 21
128.0778806909502
 31
0.0
  0
LINE
  5
4F3A
330
4EC9
100
AcDbEntity
  8
SUNPOU
100
AcDbLine
 10
1210.673204453356
 20
269.0778806909502
 30
0.0
 11
1210.673204453356
 21
135.0778806909502
 31
0.0
  0
INSERT
  5
4F3B
330
4EC9
100
AcDbEntity
  8
SUNPOU
100
AcDbBlockReference
  2
_OPEN
 10
1210.673204453356
 20
276.0778806909502
 30
0.0
 41
7.0
 42
7.0
 43
7.0
 50
90.0
  0
INSERT
  5
4F3C
330
4EC9
100
AcDbEntity
  8
SUNPOU
100
AcDbBlockReference
  2
_OPEN
 10
1210.673204453356
 20
128.0778806909502
 30
0.0
 41
7.0
 42
7.0
 43
7.0
 50
270.0
  0
MTEXT
  5
4F3D
330
4EC9
100
AcDbEntity
  8
SUNPOU
100
AcDbMText
 10
1205.673204453356
 20
202.0778806909504
 30
0.0
 40
6.0
 41
0.0
 71
     5
 72
     1
  1
\A1;148
 11
0.0000000000000001
 21
1.0
 31
0.0
 73
     1
 44
1.0
1001
ACAD
1000
MTEXTBEGIN
1070
    73
1070
     1
1070
    44
1040
1.0
1070
    74
1070
     0
1000
MTEXTEND
  0
POINT
  5
4F3E
330
4EC9
100
AcDbEntity
  8
DEFPOINTS
 62
     0
100
AcDbPoint
 10
1185.741440934764
 20
276.0778806909502
 30
0.0
  0
POINT
  5
4F3F
330
4EC9
100
AcDbEntity
  8
DEFPOINTS
 62
     0
100
AcDbPoint
 10
1181.66674269383
 20
128.0778806909502
 30
0.0
  0
POINT
  5
4F40
330
4EC9
100
AcDbEntity
  8
DEFPOINTS
 62
     0
100
AcDbPoint
 10
1210.673204453356
 20
128.0778806909502
 30
0.0
  0
ENDBLK
  5
4ED4
330
4EC9
100
AcDbEntity
  8
0
100
AcDbBlockEnd
  0
BLOCK
  5
4EE1
330
4ED5
100
AcDbEntity
  8
0
100
AcDbBlockBegin
  2
*D74
 70
     1
 10
0.0
 20
0.0
 30
0.0
  3
*D74
  1

  0
LINE
  5
4F41
330
4ED5
100
AcDbEntity
  8
SUNPOU
100
AcDbLine
 10
1186.491440934763
 20
291.0778806909502
 30
0.0
 11
1213.673204453356
 21
291.0778806909502
 31
0.0
  0
LINE
  5
4F42
330
4ED5
100
AcDbEntity
  8
SUNPOU
100
AcDbLine
 10
1190.741440934764
 20
276.0778806909502
 30
0.0
 11
1213.673204453356
 21
276.0778806909502
 31
0.0
  0
LINE
  5
4F43
330
4ED5
100
AcDbEntity
  8
SUNPOU
100
AcDbLine
 10
1210.673204453356
 20
298.0778806909502
 30
0.0
 11
1210.673204453356
 21
305.0778806909502
 31
0.0
  0
LINE
  5
4F44
330
4ED5
100
AcDbEntity
  8
SUNPOU
100
AcDbLine
 10
1210.673204453356
 20
269.0778806909502
 30
0.0
 11
1210.673204453356
 21
262.0778806909502
 31
0.0
  0
LINE
  5
4F45
330
4ED5
100
AcDbEntity
  8
SUNPOU
100
AcDbLine
 10
1210.673204453356
 20
291.0778806909502
 30
0.0
 11
1210.673204453356
 21
276.0778806909502
 31
0.0
  0
INSERT
  5
4F46
330
4ED5
100
AcDbEntity
  8
SUNPOU
100
AcDbBlockReference
  2
_OPEN
 10
1210.673204453356
 20
291.0778806909502
 30
0.0
 41
7.0
 42
7.0
 43
7.0
 50
270.0
  0
INSERT
  5
4F47
330
4ED5
100
AcDbEntity
  8
SUNPOU
100
AcDbBlockReference
  2
_OPEN
 10
1210.673204453356
 20
276.0778806909502
 30
0.0
 41
7.0
 42
7.0
 43
7.0
 50
90.0
  0
MTEXT
  5
4F48
330
4ED5
100
AcDbEntity
  8
SUNPOU
100
AcDbMText
 10
1205.673204453356
 20
283.5778806909504
 30
0.0
 40
6.0
 41
0.0
 71
     5
 72
     1
  1
\A1;15
 11
0.0000000000000001
 21
1.0
 31
0.0
 73
     1
 44
1.0
1001
ACAD
1000
MTEXTBEGIN
1070
    73
1070
     1
1070
    44
1040
1.0
1070
    74
1070
     0
1000
MTEXTEND
  0
POINT
  5
4F49
330
4ED5
100
AcDbEntity
  8
DEFPOINTS
 62
     0
100
AcDbPoint
 10
1180.491440934764
 20
291.0778806909502
 30
0.0
  0
POINT
  5
4F4A
330
4ED5
100
AcDbEntity
  8
DEFPOINTS
 62
     0
100
AcDbPoint
 10
1184.741440934764
 20
276.0778806909502
 30
0.0
  0
POINT
  5
4F4B
330
4ED5
100
AcDbEntity
  8
DEFPOINTS
 62
     0
100
AcDbPoint
 10
1210.673204453356
 20
276.0778806909502
 30
0.0
  0
ENDBLK
  5
4EE2
330
4ED5
100
AcDbEntity
  8
0
100
AcDbBlockEnd
  0
BLOCK
  5
4EED
330
4EE3
100
AcDbEntity
  8
0
100
AcDbBlockBegin
  2
*D75
 70
     1
 10
0.0
 20
0.0
 30
0.0
  3
*D75
  1

  0
LINE
  5
4F4C
330
4EE3
100
AcDbEntity
  8
SUNPOU
100
AcDbLine
 10
1187.666742693832
 20
128.0778806909502
 30
0.0
 11
1213.394326636117
 21
128.0778806909502
 31
0.0
  0
LINE
  5
4F4D
330
4EE3
100
AcDbEntity
  8
SUNPOU
100
AcDbLine
 10
1166.941440934764
 20
84.37788069095132
 30
0.0
 11
1213.394326636117
 21
84.3778806909513
 31
0.0
  0
LINE
  5
4F4E
330
4EE3
100
AcDbEntity
  8
SUNPOU
100
AcDbLine
 10
1210.394326636117
 20
121.0778806909502
 30
0.0
 11
1210.394326636117
 21
91.3778806909513
 31
0.0
  0
INSERT
  5
4F4F
330
4EE3
100
AcDbEntity
  8
SUNPOU
100
AcDbBlockReference
  2
_OPEN
 10
1210.394326636117
 20
128.0778806909502
 30
0.0
 41
7.0
 42
7.0
 43
7.0
 50
90.0
  0
INSERT
  5
4F50
330
4EE3
100
AcDbEntity
  8
SUNPOU
100
AcDbBlockReference
  2
_OPEN
 10
1210.394326636117
 20
84.3778806909513
 30
0.0
 41
7.0
 42
7.0
 43
7.0
 50
270.0
  0
MTEXT
  5
4F51
330
4EE3
100
AcDbEntity
  8
SUNPOU
100
AcDbMText
 10
1205.394326636117
 20
106.2278806909509
 30
0.0
 40
6.0
 41
0.0
 71
     5
 72
     1
  1
\A1;44
 11
0.0000000000000001
 21
1.0
 31
0.0
 73
     1
 44
1.0
1001
ACAD
1000
MTEXTBEGIN
1070
    73
1070
     1
1070
    44
1040
1.0
1070
    74
1070
     0
1000
MTEXTEND
  0
POINT
  5
4F52
330
4EE3
100
AcDbEntity
  8
DEFPOINTS
 62
     0
100
AcDbPoint
 10
1181.666742693832
 20
128.0778806909502
 30
0.0
  0
POINT
  5
4F53
330
4EE3
100
AcDbEntity
  8
DEFPOINTS
 62
     0
100
AcDbPoint
 10
1160.941440934764
 20
84.37788069095132
 30
0.0
  0
POINT
  5
4F54
330
4EE3
100
AcDbEntity
  8
DEFPOINTS
 62
     0
100
AcDbPoint
 10
1210.394326636117
 20
84.3778806909513
 30
0.0
  0
ENDBLK
  5
4EEE
330
4EE3
100
AcDbEntity
  8
0
100
AcDbBlockEnd
  0
BLOCK
  5
4EF9
330
4EEF
100
AcDbEntity
  8
0
100
AcDbBlockBegin
  2
*D76
 70
     1
 10
0.0
 20
0.0
 30
0.0
  3
*D76
  1

  0
LINE
  5
4F55
330
4EEF
100
AcDbEntity
  8
SUNPOU
100
AcDbLine
 10
1186.491440934763
 20
291.0778806909502
 30
0.0
 11
1232.239185117261
 21
291.0778806909502
 31
0.0
  0
LINE
  5
4F56
330
4EEF
100
AcDbEntity
  8
SUNPOU
100
AcDbLine
 10
1165.941440934764
 20
84.37788069095132
 30
0.0
 11
1232.239185117261
 21
84.3778806909513
 31
0.0
  0
LINE
  5
4F57
330
4EEF
100
AcDbEntity
  8
SUNPOU
100
AcDbLine
 10
1229.239185117261
 20
284.0778806909502
 30
0.0
 11
1229.239185117261
 21
91.3778806909513
 31
0.0
  0
INSERT
  5
4F58
330
4EEF
100
AcDbEntity
  8
SUNPOU
100
AcDbBlockReference
  2
_OPEN
 10
1229.239185117261
 20
291.0778806909502
 30
0.0
 41
7.0
 42
7.0
 43
7.0
 50
90.0
  0
INSERT
  5
4F59
330
4EEF
100
AcDbEntity
  8
SUNPOU
100
AcDbBlockReference
  2
_OPEN
 10
1229.239185117261
 20
84.3778806909513
 30
0.0
 41
7.0
 42
7.0
 43
7.0
 50
270.0
  0
MTEXT
  5
4F5A
330
4EEF
100
AcDbEntity
  8
SUNPOU
100
AcDbMText
 10
1224.239185117261
 20
187.7278806909509
 30
0.0
 40
6.0
 41
0.0
 71
     5
 72
     1
  1
\A1;207
 11
0.0000000000000001
 21
1.0
 31
0.0
 73
     1
 44
1.0
1001
ACAD
1000
MTEXTBEGIN
1070
    73
1070
     1
1070
    44
1040
1.0
1070
    74
1070
     0
1000
MTEXTEND
  0
POINT
  5
4F5B
330
4EEF
100
AcDbEntity
  8
DEFPOINTS
 62
     0
100
AcDbPoint
 10
1180.491440934764
 20
291.0778806909502
 30
0.0
  0
POINT
  5
4F5C
330
4EEF
100
AcDbEntity
  8
DEFPOINTS
 62
     0
100
AcDbPoint
 10
1159.941440934764
 20
84.37788069095132
 30
0.0
  0
POINT
  5
4F5D
330
4EEF
100
AcDbEntity
  8
DEFPOINTS
 62
     0
100
AcDbPoint
 10
1229.239185117261
 20
84.3778806909513
 30
0.0
  0
ENDBLK
  5
4EFA
330
4EEF
100
AcDbEntity
  8
0
100
AcDbBlockEnd
  0
BLOCK
  5
4F04
330
4EFB
100
AcDbEntity
  8
0
100
AcDbBlockBegin
  2
*D77
 70
     1
 10
0.0
 20
0.0
 30
0.0
  3
*D77
  1

  0
LINE
  5
4F5E
330
4EFB
100
AcDbEntity
  8
SUNPOU
100
AcDbLine
 10
1145.502417949073
 20
306.7458124067055
 30
0.0
 11
1158.74860112068
 21
290.4504562772973
 31
0.0
  0
LINE
  5
4F5F
330
4EFB
100
AcDbEntity
  8
SUNPOU
100
AcDbLine
 10
1170.734280746429
 20
275.7057622454936
 30
0.0
 11
1175.149675136964
 21
270.2739768690241
 31
0.0
  0
MTEXT
  5
4F60
330
4EFB
100
AcDbEntity
  8
SUNPOU
100
AcDbMText
 10
1153.797659037087
 20
304.4678801663331
 30
0.0
 40
6.0
 41
0.0
 71
     5
 72
     1
  1
\A1;\U+22055
 11
0.6307706272193646
 21
-0.7759693394956335
 31
0.0
 73
     1
 44
1.0
1001
ACAD
1000
MTEXTBEGIN
1070
    73
1070
     1
1070
    44
1040
1.0
1070
    74
1070
     0
1000
MTEXTEND
  0
LINE
  5
4F61
330
4EFB
100
AcDbEntity
  8
SUNPOU
100
AcDbLine
 10
1166.318886355893
 20
281.137547621963
 30
0.0
 11
1163.163995511215
 21
285.0186709008278
 31
0.0
  0
INSERT
  5
4F62
330
4EFB
100
AcDbEntity
  8
SUNPOU
100
AcDbBlockReference
  2
_OPEN
 10
1166.318886355893
 20
281.137547621963
 30
0.0
 41
7.0
 42
7.0
 43
7.0
 50
129.107000925959
  0
INSERT
  5
4F63
330
4EFB
100
AcDbEntity
  8
SUNPOU
100
AcDbBlockReference
  2
_OPEN
 10
1163.163995511215
 20
285.0186709008278
 30
0.0
 41
7.0
 42
7.0
 43
7.0
 50
309.107000925959
  0
POINT
  5
4F64
330
4EFB
100
AcDbEntity
  8
DEFPOINTS
 62
     0
100
AcDbPoint
 10
1163.163995511215
 20
285.0186709008278
 30
0.0
  0
POINT
  5
4F65
330
4EFB
100
AcDbEntity
  8
DEFPOINTS
 62
     0
100
AcDbPoint
 10
1166.318886355893
 20
281.137547621963
 30
0.0
  0
ENDBLK
  5
4F05
330
4EFB
100
AcDbEntity
  8
0
100
AcDbBlockEnd
  0
BLOCK
  5
4F70
330
4F66
100
AcDbEntity
  8
0
100
AcDbBlockBegin
  2
*D78
 70
     1
 10
0.0
 20
0.0
 30
0.0
  3
*D78
  1

  0
LINE
  5
4FA2
330
4F66
100
AcDbEntity
  8
SUNPOU
100
AcDbLine
 10
1081.356254512108
 20
476.6024604154117
 30
0.0
 11
1081.356254512108
 21
507.2626290440021
 31
0.0
  0
LINE
  5
4FA3
330
4F66
100
AcDbEntity
  8
SUNPOU
100
AcDbLine
 10
1186.35625451211
 20
476.6024604154099
 30
0.0
 11
1186.35625451211
 21
507.2626290440021
 31
0.0
  0
LINE
  5
4FA4
330
4F66
100
AcDbEntity
  8
SUNPOU
100
AcDbLine
 10
1088.356254512109
 20
504.262629044002
 30
0.0
 11
1179.356254512109
 21
504.262629044002
 31
0.0
  0
INSERT
  5
4FA5
330
4F66
100
AcDbEntity
  8
SUNPOU
100
AcDbBlockReference
  2
_OPEN
 10
1081.356254512108
 20
504.262629044002
 30
0.0
 41
7.0
 42
7.0
 43
7.0
 50
180.0
  0
INSERT
  5
4FA6
330
4F66
100
AcDbEntity
  8
SUNPOU
100
AcDbBlockReference
  2
_OPEN
 10
1186.35625451211
 20
504.262629044002
 30
0.0
 41
7.0
 42
7.0
 43
7.0
  0
MTEXT
  5
4FA7
330
4F66
100
AcDbEntity
  8
SUNPOU
100
AcDbMText
 10
1133.856254512109
 20
509.2626290440021
 30
0.0
 40
6.0
 41
0.0
 71
     5
 72
     1
  1
\A1;105
 73
     1
 44
1.0
1001
ACAD
1000
MTEXTBEGIN
1070
    73
1070
     1
1070
    44
1040
1.0
1070
    74
1070
     0
1000
MTEXTEND
  0
POINT
  5
4FA8
330
4F66
100
AcDbEntity
  8
DEFPOINTS
 62
     0
100
AcDbPoint
 10
1081.356254512108
 20
470.6024604154118
 30
0.0
  0
POINT
  5
4FA9
330
4F66
100
AcDbEntity
  8
DEFPOINTS
 62
     0
100
AcDbPoint
 10
1186.35625451211
 20
470.6024604154099
 30
0.0
  0
POINT
  5
4FAA
330
4F66
100
AcDbEntity
  8
DEFPOINTS
 62
     0
100
AcDbPoint
 10
1186.35625451211
 20
504.262629044002
 30
0.0
  0
ENDBLK
  5
4F71
330
4F66
100
AcDbEntity
  8
0
100
AcDbBlockEnd
  0
BLOCK
  5
4F7C
330
4F72
100
AcDbEntity
  8
0
100
AcDbBlockBegin
  2
*D79
 70
     1
 10
0.0
 20
0.0
 30
0.0
  3
*D79
  1

  0
LINE
  5
4F87
330
4F72
100
AcDbEntity
  8
SUNPOU
100
AcDbLine
 10
1296.958617520639
 20
282.0778806909502
 30
0.0
 11
1296.958617520639
 21
313.6008972872614
 31
0.0
  0
LINE
  5
4F88
330
4F72
100
AcDbEntity
  8
SUNPOU
100
AcDbLine
 10
1401.95861752064
 20
296.8278806909502
 30
0.0
 11
1401.95861752064
 21
313.6008972872614
 31
0.0
  0
LINE
  5
4F89
330
4F72
100
AcDbEntity
  8
SUNPOU
100
AcDbLine
 10
1303.958617520639
 20
310.6008972872615
 30
0.0
 11
1394.95861752064
 21
310.6008972872615
 31
0.0
  0
INSERT
  5
4F8A
330
4F72
100
AcDbEntity
  8
SUNPOU
100
AcDbBlockReference
  2
_OPEN
 10
1296.958617520639
 20
310.6008972872615
 30
0.0
 41
7.0
 42
7.0
 43
7.0
 50
180.0
  0
INSERT
  5
4F8B
330
4F72
100
AcDbEntity
  8
SUNPOU
100
AcDbBlockReference
  2
_OPEN
 10
1401.95861752064
 20
310.6008972872615
 30
0.0
 41
7.0
 42
7.0
 43
7.0
  0
MTEXT
  5
4F8C
330
4F72
100
AcDbEntity
  8
SUNPOU
100
AcDbMText
 10
1349.458617520639
 20
315.6008972872614
 30
0.0
 40
6.0
 41
0.0
 71
     5
 72
     1
  1
\A1;105
 73
     1
 44
1.0
1001
ACAD
1000
MTEXTBEGIN
1070
    73
1070
     1
1070
    44
1040
1.0
1070
    74
1070
     0
1000
MTEXTEND
  0
POINT
  5
4F8D
330
4F72
100
AcDbEntity
  8
DEFPOINTS
 62
     0
100
AcDbPoint
 10
1296.958617520639
 20
276.0778806909502
 30
0.0
  0
POINT
  5
4F8E
330
4F72
100
AcDbEntity
  8
DEFPOINTS
 62
     0
100
AcDbPoint
 10
1401.95861752064
 20
290.8278806909502
 30
0.0
  0
POINT
  5
4F8F
330
4F72
100
AcDbEntity
  8
DEFPOINTS
 62
     0
100
AcDbPoint
 10
1401.95861752064
 20
310.6008972872615
 30
0.0
  0
ENDBLK
  5
4F7D
330
4F72
100
AcDbEntity
  8
0
100
AcDbBlockEnd
  0
ENDSEC
  0
SECTION
  2
ENTITIES
  0
LWPOLYLINE
  5
4239
330
1A
100
AcDbEntity
  8
ZUWAKU
100
AcDbPolyline
 90
        4
 70
     1
 43
0.0
 10
972.8948057323867
 20
560.1795372995455
 10
972.8948057323867
 20
8.979537299545654
 10
1770.094805732387
 20
8.979537299545654
 10
1770.094805732387
 20
560.1795372995455
  0
LWPOLYLINE
  5
423A
330
1A
100
AcDbEntity
  8
ZUWAKU
100
AcDbPolyline
 90
        4
 70
     1
 43
0.0
 10
973.2948057323866
 20
559.7795372995458
 10
973.2948057323866
 20
9.37953729954529
 10
1769.694805732387
 20
9.37953729954529
 10
1769.694805732387
 20
559.7795372995458
  0
LWPOLYLINE
  5
423B
330
1A
100
AcDbEntity
  8
ZUWAKU
100
AcDbPolyline
 90
        4
 70
     1
 43
0.0
 10
972.6948057323868
 20
560.3795372995453
 10
972.6948057323868
 20
8.779537299544927
 10
1770.294805732387
 20
8.779537299544927
 10
1770.294805732387
 20
560.3795372995457
  0
LWPOLYLINE
  5
423C
330
1A
100
AcDbEntity
  8
ZUWAKU
100
AcDbPolyline
 90
        4
 70
     1
 43
0.0
 10
973.0948057323869
 20
559.9795372995457
 10
973.0948057323869
 20
9.179537299545472
 10
1769.894805732387
 20
9.179537299545472
 10
1769.894805732387
 20
559.9795372995457
  0
LWPOLYLINE
  5
423D
330
1A
100
AcDbEntity
  8
ZUWAKU
100
AcDbPolyline
 90
        4
 70
     1
 43
0.0
 10
973.4948057323871
 20
559.5795372995455
 10
973.4948057323871
 20
9.579537299546018
 10
1769.494805732387
 20
9.579537299546018
 10
1769.494805732387
 20
559.5795372995455
  0
TEXT
  5
423E
330
1A
100
AcDbEntity
  8
moji
100
AcDbText
 10
1212.839449300794
 20
12.52838430285351
 30
0.0
 40
5.599999999999999
  1
UT６０
 41
0.9
  7
ｽﾀｲﾙ1
100
AcDbText
  0
LINE
  5
423F
330
1A
100
AcDbEntity
  8
ZUWAKU
100
AcDbLine
 10
1669.943816280928
 20
38.77953729954493
 30
0.0
 11
1669.943816280928
 21
9.579537299546018
 31
0.0
  0
LINE
  5
4240
330
1A
100
AcDbEntity
  8
ZUWAKU
100
AcDbLine
 10
1670.143816280928
 20
38.77953729954493
 30
0.0
 11
1670.143816280928
 21
9.579537299546018
 31
0.0
  0
LINE
  5
4241
330
1A
100
AcDbEntity
  8
ZUWAKU
100
AcDbLine
 10
1670.343816280928
 20
38.77953729954493
 30
0.0
 11
1670.343816280928
 21
9.579537299546018
 31
0.0
  0
LINE
  5
4242
330
1A
100
AcDbEntity
  8
ZUWAKU
100
AcDbLine
 10
1670.543816280928
 20
38.77953729954493
 30
0.0
 11
1670.543816280928
 21
9.579537299546018
 31
0.0
  0
TEXT
  5
4243
330
1A
100
AcDbEntity
  8
ZUWAKU
100
AcDbText
 10
1679.732251066472
 20
21.11845955683907
 30
0.0
 40
6.0
  1
積水化学工業株式会社
 41
0.9
  7
ｽﾀｲﾙ1
100
AcDbText
  0
TEXT
  5
4244
330
1A
100
AcDbEntity
  8
ZUWAKU
100
AcDbText
 10
1622.989453264801
 20
32.83489383793108
 30
0.0
 40
4.0
  1
DATE
 41
0.9
  7
ｽﾀｲﾙ1
100
AcDbText
  0
LINE
  5
4245
330
1A
100
AcDbEntity
  8
ZUWAKU
100
AcDbLine
 10
1621.312008242591
 20
38.77953729954493
 30
0.0
 11
1621.312008242591
 21
9.579537299546018
 31
0.0
  0
LINE
  5
4246
330
1A
100
AcDbEntity
  8
ZUWAKU
100
AcDbLine
 10
1621.512008242591
 20
38.77953729954493
 30
0.0
 11
1621.512008242592
 21
9.579537299546018
 31
0.0
  0
LINE
  5
4247
330
1A
100
AcDbEntity
  8
ZUWAKU
100
AcDbLine
 10
1621.112008242591
 20
38.77953729954493
 30
0.0
 11
1621.112008242591
 21
9.579537299546018
 31
0.0
  0
LINE
  5
4248
330
1A
100
AcDbEntity
  8
ZUWAKU
100
AcDbLine
 10
1525.421761498499
 20
38.77953729954493
 30
0.0
 11
1525.421761498499
 21
9.579537299546018
 31
0.0
  0
LINE
  5
4249
330
1A
100
AcDbEntity
  8
ZUWAKU
100
AcDbLine
 10
1525.621761498499
 20
38.77953729954493
 30
0.0
 11
1525.621761498499
 21
9.579537299546018
 31
0.0
  0
LINE
  5
424A
330
1A
100
AcDbEntity
  8
ZUWAKU
100
AcDbLine
 10
1525.221761498499
 20
38.77953729954493
 30
0.0
 11
1525.221761498499
 21
9.579537299546018
 31
0.0
  0
TEXT
  5
424B
330
1A
100
AcDbEntity
  8
ZUWAKU
100
AcDbText
 10
1479.371430252738
 20
32.83489383793108
 30
0.0
 40
4.0
  1
用紙
 41
0.9
  7
ｽﾀｲﾙ1
100
AcDbText
  0
TEXT
  5
424C
330
1A
100
AcDbEntity
  8
ZUWAKU
100
AcDbText
 10
1421.996614725588
 20
32.83489383793108
 30
0.0
 40
4.0
  1
品番
 41
0.9
  7
ｽﾀｲﾙ1
100
AcDbText
  0
TEXT
  5
424D
330
1A
100
AcDbEntity
  8
ZUWAKU
100
AcDbText
 10
1479.371430252738
 20
18.43489383793053
 30
0.0
 40
4.0
  1
縮尺
 41
0.9
  7
ｽﾀｲﾙ1
100
AcDbText
  0
TEXT
  5
424E
330
1A
100
AcDbEntity
  8
ZUWAKU
100
AcDbText
 10
1435.388567387894
 20
11.39360821068544
 30
0.0
 40
3.0
  1
□には色品番が入ります
 41
0.9
  7
ｽﾀｲﾙ1
100
AcDbText
  0
TEXT
  5
424F
330
1A
100
AcDbEntity
  8
moji
100
AcDbText
 10
1437.289431735625
 20
20.72215502120593
 30
0.0
 40
5.599999999999999
  1
GS９９□
 41
0.9
  7
ｽﾀｲﾙ1
100
AcDbText
  0
LINE
  5
4250
330
1A
100
AcDbEntity
  8
ZUWAKU
100
AcDbLine
 10
1420.319169703378
 20
38.77953729954493
 30
0.0
 11
1420.319169703378
 21
9.579537299546018
 31
0.0
  0
LINE
  5
4251
330
1A
100
AcDbEntity
  8
ZUWAKU
100
AcDbLine
 10
1420.519169703378
 20
38.77953729954493
 30
0.0
 11
1420.519169703378
 21
9.579537299546018
 31
0.0
  0
LINE
  5
4252
330
1A
100
AcDbEntity
  8
ZUWAKU
100
AcDbLine
 10
1420.119169703378
 20
38.77953729954493
 30
0.0
 11
1420.119169703378
 21
9.579537299546018
 31
0.0
  0
LINE
  5
4253
330
1A
100
AcDbEntity
  8
ZUWAKU
100
AcDbLine
 10
1477.693985230527
 20
38.77953729954493
 30
0.0
 11
1477.693985230528
 21
9.579537299546018
 31
0.0
  0
LINE
  5
4254
330
1A
100
AcDbEntity
  8
ZUWAKU
100
AcDbLine
 10
1477.893985230528
 20
38.77953729954493
 30
0.0
 11
1477.893985230528
 21
9.579537299546018
 31
0.0
  0
LINE
  5
4255
330
1A
100
AcDbEntity
  8
ZUWAKU
100
AcDbLine
 10
1477.493985230528
 20
38.77953729954493
 30
0.0
 11
1477.493985230528
 21
9.579537299546018
 31
0.0
  0
LINE
  5
4256
330
1A
100
AcDbEntity
  8
ZUWAKU
100
AcDbLine
 10
1477.893985230528
 20
23.97953729954565
 30
0.0
 11
1525.221761498499
 21
23.97953729954565
 31
0.0
  0
LINE
  5
4257
330
1A
100
AcDbEntity
  8
ZUWAKU
100
AcDbLine
 10
1477.893985230528
 20
24.17953729954547
 30
0.0
 11
1525.221761498499
 21
24.17953729954547
 31
0.0
  0
LINE
  5
4258
330
1A
100
AcDbEntity
  8
ZUWAKU
100
AcDbLine
 10
1477.893985230528
 20
24.37953729954529
 30
0.0
 11
1525.221761498499
 21
24.37953729954529
 31
0.0
  0
LINE
  5
4259
330
1A
100
AcDbEntity
  8
ZUWAKU
100
AcDbLine
 10
1621.512008242591
 20
23.97953729954565
 30
0.0
 11
1669.943816280928
 21
23.97953729954565
 31
0.0
  0
LINE
  5
425A
330
1A
100
AcDbEntity
  8
ZUWAKU
100
AcDbLine
 10
1621.512008242591
 20
24.17953729954547
 30
0.0
 11
1669.943816280928
 21
24.17953729954547
 31
0.0
  0
LINE
  5
425B
330
1A
100
AcDbEntity
  8
ZUWAKU
100
AcDbLine
 10
1621.512008242591
 20
24.37953729954529
 30
0.0
 11
1669.943816280928
 21
24.37953729954529
 31
0.0
  0
TEXT
  5
425C
330
1A
100
AcDbEntity
  8
ZUWAKU
100
AcDbText
 10
1630.898743419689
 20
26.78445835695288
 30
0.0
 40
5.599999999999999
  1
　　．　　．　　
 41
0.9
  7
ｽﾀｲﾙ1
100
AcDbText
  0
TEXT
  5
425D
330
1A
100
AcDbEntity
  8
ZUWAKU
100
AcDbText
 10
1182.418852044664
 20
32.83489383793108
 30
0.0
 40
4.0
  1
品名
 41
0.9
  7
ｽﾀｲﾙ1
100
AcDbText
  0
TEXT
  5
425E
330
1A
100
AcDbEntity
  8
ZUWAKU
100
AcDbText
 10
1182.418852044664
 20
18.43489383793053
 30
0.0
 40
4.0
  1
サイズ
 41
0.9
  7
ｽﾀｲﾙ1
100
AcDbText
  0
LINE
  5
425F
330
1A
100
AcDbEntity
  8
ZUWAKU
100
AcDbLine
 10
1180.941407022454
 20
38.77953729954493
 30
0.0
 11
1180.941407022454
 21
9.579537299546018
 31
0.0
  0
LINE
  5
4260
330
1A
100
AcDbEntity
  8
ZUWAKU
100
AcDbLine
 10
1181.341407022454
 20
38.77953729954493
 30
0.0
 11
1181.341407022455
 21
9.579537299546018
 31
0.0
  0
LINE
  5
4261
330
1A
100
AcDbEntity
  8
ZUWAKU
100
AcDbLine
 10
1181.141407022454
 20
38.77953729954493
 30
0.0
 11
1181.141407022455
 21
9.579537299546018
 31
0.0
  0
TEXT
  5
4262
330
1A
100
AcDbEntity
  8
moji
100
AcDbText
 10
1212.522008413238
 20
26.78445835695288
 30
0.0
 40
5.599999999999999
  1
角マスR  UT６０
 41
0.9
  7
ｽﾀｲﾙ1
100
AcDbText
  0
ARC
  5
4263
330
1A
100
AcDbEntity
  8
ZUWAKU
100
AcDbCircle
 10
1041.212017887168
 20
31.50453729954529
 30
0.0
 40
0.525
100
AcDbArc
 50
0.0
 51
90.0
  0
ARC
  5
4264
330
1A
100
AcDbEntity
  8
ZUWAKU
100
AcDbCircle
 10
1039.462017887168
 20
31.50453729954529
 30
0.0
 40
0.525
100
AcDbArc
 50
90.0
 51
180.0
  0
ARC
  5
4265
330
1A
100
AcDbEntity
  8
ZUWAKU
100
AcDbCircle
 10
1036.312017887168
 20
31.50453729954529
 30
0.0
 40
0.525
100
AcDbArc
 50
0.0
 51
90.0
  0
LINE
  5
4266
330
1A
100
AcDbEntity
  8
ZUWAKU
100
AcDbLine
 10
1036.312017887168
 20
32.02953729954493
 30
0.0
 11
1034.562017887168
 21
32.02953729954493
 31
0.0
  0
ARC
  5
4267
330
1A
100
AcDbEntity
  8
ZUWAKU
100
AcDbCircle
 10
1034.562017887168
 20
31.50453729954529
 30
0.0
 40
0.525
100
AcDbArc
 50
90.0
 51
180.0
  0
LINE
  5
4268
330
1A
100
AcDbEntity
  8
ZUWAKU
100
AcDbLine
 10
1041.212017887168
 20
32.02953729954493
 30
0.0
 11
1039.462017887168
 21
32.02953729954493
 31
0.0
  0
ARC
  5
4269
330
1A
100
AcDbEntity
  8
ZUWAKU
100
AcDbCircle
 10
1030.012017887168
 20
31.50453729954529
 30
0.0
 40
0.525
100
AcDbArc
 50
0.0
 51
90.0
  0
ARC
  5
426A
330
1A
100
AcDbEntity
  8
ZUWAKU
100
AcDbCircle
 10
1028.262017887168
 20
31.50453729954529
 30
0.0
 40
0.525
100
AcDbArc
 50
90.0
 51
180.0
  0
LINE
  5
426B
330
1A
100
AcDbEntity
  8
ZUWAKU
100
AcDbLine
 10
1030.012017887168
 20
32.02953729954493
 30
0.0
 11
1028.262017887168
 21
32.02953729954493
 31
0.0
  0
ARC
  5
426C
330
1A
100
AcDbEntity
  8
ZUWAKU
100
AcDbCircle
 10
1024.587017887168
 20
31.50453729954529
 30
0.0
 40
0.525
100
AcDbArc
 50
0.0
 51
90.0
  0
ARC
  5
426D
330
1A
100
AcDbEntity
  8
ZUWAKU
100
AcDbCircle
 10
1024.587017887168
 20
29.75453729954529
 30
0.0
 40
0.525
100
AcDbArc
 50
270.0
 51
0.0
  0
LINE
  5
426E
330
1A
100
AcDbEntity
  8
ZUWAKU
100
AcDbLine
 10
1025.112017887168
 20
31.50453729954529
 30
0.0
 11
1025.112017887168
 21
29.75453729954529
 31
0.0
  0
ARC
  5
426F
330
1A
100
AcDbEntity
  8
ZUWAKU
100
AcDbCircle
 10
1021.612017887168
 20
28.70453729954602
 30
0.0
 40
0.525
100
AcDbArc
 50
90.0
 51
180.0
  0
LINE
  5
4270
330
1A
100
AcDbEntity
  8
ZUWAKU
100
AcDbLine
 10
1021.087017887168
 20
28.70453729954602
 30
0.0
 11
1021.087017887168
 21
27.41433527419008
 31
0.0
  0
ARC
  5
4271
330
1A
100
AcDbEntity
  8
ZUWAKU
100
AcDbCircle
 10
1015.662017887168
 20
31.50453729954529
 30
0.0
 40
0.525
100
AcDbArc
 50
0.0
 51
90.0
  0
LINE
  5
4272
330
1A
100
AcDbEntity
  8
ZUWAKU
100
AcDbLine
 10
1018.287017887168
 20
29.22953729954566
 30
0.0
 11
1018.287017887168
 21
27.41433527419008
 31
0.0
  0
ARC
  5
4273
330
1A
100
AcDbEntity
  8
ZUWAKU
100
AcDbCircle
 10
1021.087017887168
 20
29.22953729954566
 30
0.0
 40
2.799999999999999
100
AcDbArc
 50
90.0
 51
180.0
  0
LINE
  5
4274
330
1A
100
AcDbEntity
  8
ZUWAKU
100
AcDbLine
 10
1021.087017887168
 20
32.02953729954493
 30
0.0
 11
1024.587017887168
 21
32.02953729954493
 31
0.0
  0
LINE
  5
4275
330
1A
100
AcDbEntity
  8
ZUWAKU
100
AcDbLine
 10
1024.587017887168
 20
29.22953729954566
 30
0.0
 11
1021.612017887168
 21
29.22953729954566
 31
0.0
  0
ARC
  5
4276
330
1A
100
AcDbEntity
  8
ZUWAKU
100
AcDbCircle
 10
1013.912017887168
 20
31.50453729954529
 30
0.0
 40
0.525
100
AcDbArc
 50
90.0
 51
180.0
  0
LINE
  5
4277
330
1A
100
AcDbEntity
  8
ZUWAKU
100
AcDbLine
 10
1008.871783723679
 20
32.02953729954493
 30
0.0
 11
1010.570673103288
 21
32.02953729954493
 31
0.0
  0
ARC
  5
4278
330
1A
100
AcDbEntity
  8
ZUWAKU
100
AcDbCircle
 10
1010.570673103288
 20
31.50453729954529
 30
0.0
 40
0.525
100
AcDbArc
 50
342.4744316262725
 51
90.0
  0
LINE
  5
4279
330
1A
100
AcDbEntity
  8
ZUWAKU
100
AcDbLine
 10
1011.071304002483
 20
31.34644333137908
 30
0.0
 11
1010.009664369346
 21
27.98458449310852
 31
0.0
  0
ARC
  5
427A
330
1A
100
AcDbEntity
  8
ZUWAKU
100
AcDbCircle
 10
1008.871783723679
 20
31.50453729954529
 30
0.0
 40
0.525
100
AcDbArc
 50
90.0
 51
162.4744316262725
  0
ARC
  5
427B
330
1A
100
AcDbEntity
  8
ZUWAKU
100
AcDbCircle
 10
1004.812017887168
 20
31.50453729954529
 30
0.0
 40
0.525
100
AcDbArc
 50
0.0
 51
90.0
  0
LINE
  5
427C
330
1A
100
AcDbEntity
  8
ZUWAKU
100
AcDbLine
 10
1004.812017887168
 20
32.02953729954493
 30
0.0
 11
1003.062017887168
 21
32.02953729954493
 31
0.0
  0
ARC
  5
427D
330
1A
100
AcDbEntity
  8
ZUWAKU
100
AcDbCircle
 10
999.5620178871678
 20
31.50453729954529
 30
0.0
 40
0.525
100
AcDbArc
 50
0.0
 51
90.0
  0
ARC
  5
427E
330
1A
100
AcDbEntity
  8
ZUWAKU
100
AcDbCircle
 10
1003.062017887168
 20
31.50453729954529
 30
0.0
 40
0.525
100
AcDbArc
 50
90.0
 51
180.0
  0
ARC
  5
427F
330
1A
100
AcDbEntity
  8
ZUWAKU
100
AcDbCircle
 10
999.5620178871678
 20
29.75453729954529
 30
0.0
 40
0.525
100
AcDbArc
 50
270.0
 51
0.0
  0
LINE
  5
4280
330
1A
100
AcDbEntity
  8
ZUWAKU
100
AcDbLine
 10
1000.087017887168
 20
31.50453729954529
 30
0.0
 11
1000.087017887168
 21
29.75453729954529
 31
0.0
  0
LINE
  5
4281
330
1A
100
AcDbEntity
  8
ZUWAKU
100
AcDbLine
 10
1015.662017887168
 20
32.02953729954493
 30
0.0
 11
1013.912017887168
 21
32.02953729954493
 31
0.0
  0
ARC
  5
4282
330
1A
100
AcDbEntity
  8
ZUWAKU
100
AcDbCircle
 10
1041.212017887168
 20
16.45453729954602
 30
0.0
 40
0.525
100
AcDbArc
 50
270.0
 51
0.0
  0
ARC
  5
4283
330
1A
100
AcDbEntity
  8
ZUWAKU
100
AcDbCircle
 10
1039.462017887168
 20
16.45453729954602
 30
0.0
 40
0.525
100
AcDbArc
 50
180.0
 51
270.0
  0
ARC
  5
4284
330
1A
100
AcDbEntity
  8
ZUWAKU
100
AcDbCircle
 10
1032.987017887168
 20
19.77953729954492
 30
0.0
 40
1.049999999999999
100
AcDbArc
 50
270.0
 51
0.0
  0
LINE
  5
4285
330
1A
100
AcDbEntity
  8
ZUWAKU
100
AcDbLine
 10
1039.462017887168
 20
15.92953729954547
 30
0.0
 11
1041.212017887168
 21
15.92953729954547
 31
0.0
  0
ARC
  5
4286
330
1A
100
AcDbEntity
  8
ZUWAKU
100
AcDbCircle
 10
1034.037017887168
 20
18.72953729954565
 30
0.0
 40
2.799999999999999
100
AcDbArc
 50
270.0
 51
0.0
  0
LINE
  5
4287
330
1A
100
AcDbEntity
  8
ZUWAKU
100
AcDbLine
 10
1025.637017887168
 20
18.72953729954565
 30
0.0
 11
1025.637017887168
 21
20.54473932490032
 31
0.0
  0
ARC
  5
4288
330
1A
100
AcDbEntity
  8
ZUWAKU
100
AcDbCircle
 10
1021.437017887168
 20
20.54473932490032
 30
0.0
 40
4.199999999999999
100
AcDbArc
 50
0.0
 51
44.99999999999978
  0
ARC
  5
4289
330
1A
100
AcDbEntity
  8
ZUWAKU
100
AcDbCircle
 10
1031.587017887168
 20
19.77953729954492
 30
0.0
 40
1.049999999999999
100
AcDbArc
 50
180.0
 51
270.0
  0
LINE
  5
428A
330
1A
100
AcDbEntity
  8
ZUWAKU
100
AcDbLine
 10
1022.837017887168
 20
19.25453729954529
 30
0.0
 11
1022.837017887168
 21
20.54473932490032
 31
0.0
  0
ARC
  5
428B
330
1A
100
AcDbEntity
  8
ZUWAKU
100
AcDbCircle
 10
1021.437017887168
 20
20.54473932490032
 30
0.0
 40
1.399999999999999
100
AcDbArc
 50
0.0
 51
44.99999999999978
  0
ARC
  5
428C
330
1A
100
AcDbEntity
  8
ZUWAKU
100
AcDbCircle
 10
1022.312017887168
 20
19.25453729954529
 30
0.0
 40
0.525
100
AcDbArc
 50
270.0
 51
0.0
  0
LINE
  5
428D
330
1A
100
AcDbEntity
  8
ZUWAKU
100
AcDbLine
 10
1018.812017887168
 20
16.45453729954602
 30
0.0
 11
1018.812017887168
 21
18.20453729954602
 31
0.0
  0
ARC
  5
428E
330
1A
100
AcDbEntity
  8
ZUWAKU
100
AcDbCircle
 10
1019.337017887168
 20
16.45453729954602
 30
0.0
 40
0.525
100
AcDbArc
 50
180.0
 51
270.0
  0
ARC
  5
428F
330
1A
100
AcDbEntity
  8
ZUWAKU
100
AcDbCircle
 10
1015.662017887168
 20
16.45453729954602
 30
0.0
 40
0.525
100
AcDbArc
 50
270.0
 51
0.0
  0
ARC
  5
4290
330
1A
100
AcDbEntity
  8
ZUWAKU
100
AcDbCircle
 10
1019.337017887168
 20
18.20453729954602
 30
0.0
 40
0.525
100
AcDbArc
 50
90.0
 51
180.0
  0
LINE
  5
4291
330
1A
100
AcDbEntity
  8
ZUWAKU
100
AcDbLine
 10
1019.337017887168
 20
18.72953729954565
 30
0.0
 11
1022.312017887168
 21
18.72953729954565
 31
0.0
  0
LINE
  5
4292
330
1A
100
AcDbEntity
  8
ZUWAKU
100
AcDbLine
 10
1019.337017887168
 20
15.92953729954547
 30
0.0
 11
1022.837017887168
 21
15.92953729954547
 31
0.0
  0
LINE
  5
4293
330
1A
100
AcDbEntity
  8
ZUWAKU
100
AcDbLine
 10
1019.517169406184
 20
24.44448679320681
 30
0.0
 11
1022.426967380829
 21
21.53468881856202
 31
0.0
  0
LINE
  5
4294
330
1A
100
AcDbEntity
  8
ZUWAKU
100
AcDbLine
 10
1024.406866368152
 20
23.5145878058845
 30
0.0
 11
1021.497068393507
 21
26.42438578052929
 31
0.0
  0
ARC
  5
4295
330
1A
100
AcDbEntity
  8
ZUWAKU
100
AcDbCircle
 10
1030.537017887168
 20
18.72953729954565
 30
0.0
 40
2.799999999999999
100
AcDbArc
 50
180.0
 51
270.0
  0
ARC
  5
4296
330
1A
100
AcDbEntity
  8
ZUWAKU
100
AcDbCircle
 10
1022.837017887168
 20
18.72953729954565
 30
0.0
 40
2.799999999999999
100
AcDbArc
 50
270.0
 51
0.0
  0
ARC
  5
4297
330
1A
100
AcDbEntity
  8
ZUWAKU
100
AcDbCircle
 10
1013.912017887168
 20
16.45453729954602
 30
0.0
 40
0.525
100
AcDbArc
 50
180.0
 51
270.0
  0
LINE
  5
4298
330
1A
100
AcDbEntity
  8
ZUWAKU
100
AcDbLine
 10
1008.871783723679
 20
15.92953729954547
 30
0.0
 11
1010.570673103288
 21
15.92953729954547
 31
0.0
  0
ARC
  5
4299
330
1A
100
AcDbEntity
  8
ZUWAKU
100
AcDbCircle
 10
1010.570673103288
 20
16.45453729954602
 30
0.0
 40
0.525
100
AcDbArc
 50
270.0
 51
17.5255683737275
  0
LINE
  5
429A
330
1A
100
AcDbEntity
  8
ZUWAKU
100
AcDbLine
 10
1011.071304002483
 20
16.61263126771223
 30
0.0
 11
1008.74491262401
 21
23.97953729954565
 31
0.0
  0
ARC
  5
429B
330
1A
100
AcDbEntity
  8
ZUWAKU
100
AcDbCircle
 10
1008.871783723679
 20
16.45453729954602
 30
0.0
 40
0.525
100
AcDbArc
 50
197.5255683737275
 51
270.0
  0
ARC
  5
429C
330
1A
100
AcDbEntity
  8
ZUWAKU
100
AcDbCircle
 10
1006.002252050656
 20
25.90453729954493
 30
0.0
 40
0.525
100
AcDbArc
 50
270.0
 51
342.4744316262725
  0
LINE
  5
429D
330
1A
100
AcDbEntity
  8
ZUWAKU
100
AcDbLine
 10
1006.002252050656
 20
25.37953729954529
 30
0.0
 11
1005.862017887168
 21
25.37953729954529
 31
0.0
  0
LINE
  5
429E
330
1A
100
AcDbEntity
  8
ZUWAKU
100
AcDbLine
 10
1005.862017887168
 20
22.57953729954602
 30
0.0
 11
1006.002252050656
 21
22.57953729954602
 31
0.0
  0
ARC
  5
429F
330
1A
100
AcDbEntity
  8
ZUWAKU
100
AcDbCircle
 10
1005.862017887168
 20
25.90453729954493
 30
0.0
 40
0.525
100
AcDbArc
 50
180.0
 51
270.0
  0
LINE
  5
42A0
330
1A
100
AcDbEntity
  8
ZUWAKU
100
AcDbLine
 10
1003.062017887168
 20
15.92953729954547
 30
0.0
 11
1004.812017887168
 21
15.92953729954547
 31
0.0
  0
ARC
  5
42A1
330
1A
100
AcDbEntity
  8
ZUWAKU
100
AcDbCircle
 10
1004.812017887168
 20
16.45453729954602
 30
0.0
 40
0.525
100
AcDbArc
 50
270.0
 51
0.0
  0
LINE
  5
42A2
330
1A
100
AcDbEntity
  8
ZUWAKU
100
AcDbLine
 10
1005.337017887168
 20
16.45453729954602
 30
0.0
 11
1005.337017887168
 21
22.05453729954547
 31
0.0
  0
LINE
  5
42A3
330
1A
100
AcDbEntity
  8
ZUWAKU
100
AcDbLine
 10
1000.087017887168
 20
18.20453729954602
 30
0.0
 11
1000.087017887168
 21
16.45453729954602
 31
0.0
  0
ARC
  5
42A4
330
1A
100
AcDbEntity
  8
ZUWAKU
100
AcDbCircle
 10
999.5620178871678
 20
16.45453729954602
 30
0.0
 40
0.525
100
AcDbArc
 50
270.0
 51
0.0
  0
ARC
  5
42A5
330
1A
100
AcDbEntity
  8
ZUWAKU
100
AcDbCircle
 10
999.5620178871678
 20
18.20453729954602
 30
0.0
 40
0.525
100
AcDbArc
 50
0.0
 51
90.0
  0
ARC
  5
42A6
330
1A
100
AcDbEntity
  8
ZUWAKU
100
AcDbCircle
 10
1003.062017887168
 20
16.45453729954602
 30
0.0
 40
0.525
100
AcDbArc
 50
180.0
 51
270.0
  0
ARC
  5
42A7
330
1A
100
AcDbEntity
  8
ZUWAKU
100
AcDbCircle
 10
1006.002252050656
 20
22.05453729954547
 30
0.0
 40
0.525
100
AcDbArc
 50
17.5255683737275
 51
90.0
  0
ARC
  5
42A8
330
1A
100
AcDbEntity
  8
ZUWAKU
100
AcDbCircle
 10
1005.862017887168
 20
22.05453729954547
 30
0.0
 40
0.525
100
AcDbArc
 50
90.0
 51
180.0
  0
LINE
  5
42A9
330
1A
100
AcDbEntity
  8
ZUWAKU
100
AcDbLine
 10
1008.371152824484
 20
16.29644333137798
 30
0.0
 11
1006.502882949852
 21
22.2126312677126
 31
0.0
  0
LINE
  5
42AA
330
1A
100
AcDbEntity
  8
ZUWAKU
100
AcDbLine
 10
1013.912017887168
 20
15.92953729954547
 30
0.0
 11
1015.662017887168
 21
15.92953729954547
 31
0.0
  0
LINE
  5
42AB
330
1A
100
AcDbEntity
  8
ZUWAKU
100
AcDbLine
 10
1032.987017887168
 20
18.72953729954565
 30
0.0
 11
1031.587017887168
 21
18.72953729954565
 31
0.0
  0
LINE
  5
42AC
330
1A
100
AcDbEntity
  8
ZUWAKU
100
AcDbLine
 10
1030.537017887168
 20
15.92953729954547
 30
0.0
 11
1034.037017887168
 21
15.92953729954547
 31
0.0
  0
LINE
  5
42AD
330
1A
100
AcDbEntity
  8
ZUWAKU
100
AcDbLine
 10
1052.021435280375
 20
38.77953729954493
 30
0.0
 11
1052.021435280375
 21
9.579537299546018
 31
0.0
  0
LINE
  5
42AE
330
1A
100
AcDbEntity
  8
ZUWAKU
100
AcDbLine
 10
1052.221435280375
 20
38.77953729954493
 30
0.0
 11
1052.221435280375
 21
9.579537299546018
 31
0.0
  0
LINE
  5
42AF
330
1A
100
AcDbEntity
  8
ZUWAKU
100
AcDbLine
 10
1051.821435280375
 20
38.77953729954493
 30
0.0
 11
1051.821435280375
 21
9.579537299546018
 31
0.0
  0
LINE
  5
42B0
330
1A
100
AcDbEntity
  8
ZUWAKU
100
AcDbLine
 10
1036.837017887168
 20
18.72953729954565
 30
0.0
 11
1036.837017887168
 21
31.50453729954529
 31
0.0
  0
LINE
  5
42B1
330
1A
100
AcDbEntity
  8
ZUWAKU
100
AcDbLine
 10
1034.037017887168
 20
31.50453729954529
 30
0.0
 11
1034.037017887168
 21
19.77953729954492
 31
0.0
  0
LINE
  5
42B2
330
1A
100
AcDbEntity
  8
ZUWAKU
100
AcDbLine
 10
1041.737017887168
 20
16.45453729954602
 30
0.0
 11
1041.737017887168
 21
31.50453729954529
 31
0.0
  0
LINE
  5
42B3
330
1A
100
AcDbEntity
  8
ZUWAKU
100
AcDbLine
 10
1038.937017887168
 20
31.50453729954529
 30
0.0
 11
1038.937017887168
 21
16.45453729954602
 31
0.0
  0
ARC
  5
42B4
330
1A
100
AcDbEntity
  8
ZUWAKU
100
AcDbCircle
 10
1022.487017887168
 20
27.41433527419008
 30
0.0
 40
1.399999999999999
100
AcDbArc
 50
180.0
 51
224.9999999999998
  0
ARC
  5
42B5
330
1A
100
AcDbEntity
  8
ZUWAKU
100
AcDbCircle
 10
1022.487017887168
 20
27.41433527419008
 30
0.0
 40
4.199999999999999
100
AcDbArc
 50
180.0
 51
224.9999999999998
  0
LINE
  5
42B6
330
1A
100
AcDbEntity
  8
ZUWAKU
100
AcDbLine
 10
1010.009664369346
 20
27.98458449310852
 30
0.0
 11
1008.74491262401
 21
23.97953729954565
 31
0.0
  0
LINE
  5
42B7
330
1A
100
AcDbEntity
  8
ZUWAKU
100
AcDbLine
 10
1013.387017887168
 20
31.50453729954529
 30
0.0
 11
1013.387017887168
 21
16.45453729954602
 31
0.0
  0
LINE
  5
42B8
330
1A
100
AcDbEntity
  8
ZUWAKU
100
AcDbLine
 10
1016.187017887168
 20
16.45453729954602
 30
0.0
 11
1016.187017887168
 21
31.50453729954529
 31
0.0
  0
LINE
  5
42B9
330
1A
100
AcDbEntity
  8
ZUWAKU
100
AcDbLine
 10
1027.737017887168
 20
31.50453729954529
 30
0.0
 11
1027.737017887168
 21
18.72953729954565
 31
0.0
  0
LINE
  5
42BA
330
1A
100
AcDbEntity
  8
ZUWAKU
100
AcDbLine
 10
1030.537017887168
 20
19.77953729954492
 30
0.0
 11
1030.537017887168
 21
31.50453729954529
 31
0.0
  0
LINE
  5
42BB
330
1A
100
AcDbEntity
  8
ZUWAKU
100
AcDbLine
 10
1005.337017887168
 20
25.90453729954493
 30
0.0
 11
1005.337017887168
 21
31.50453729954529
 31
0.0
  0
LINE
  5
42BC
330
1A
100
AcDbEntity
  8
ZUWAKU
100
AcDbLine
 10
1002.537017887168
 20
31.50453729954529
 30
0.0
 11
1002.537017887168
 21
16.45453729954602
 31
0.0
  0
LINE
  5
42BD
330
1A
100
AcDbEntity
  8
ZUWAKU
100
AcDbLine
 10
1008.371152824484
 20
31.66263126771241
 30
0.0
 11
1006.502882949852
 21
25.74644333137872
 31
0.0
  0
LINE
  5
42BE
330
1A
100
AcDbEntity
  8
ZUWAKU
100
AcDbLine
 10
990.812017887168
 20
31.50453729954529
 30
0.0
 11
990.812017887168
 21
29.75453729954529
 31
0.0
  0
ARC
  5
42BF
330
1A
100
AcDbEntity
  8
ZUWAKU
100
AcDbCircle
 10
997.6370178871682
 20
27.82953729954602
 30
0.0
 40
1.399999999999999
100
AcDbArc
 50
90.0
 51
180.0
  0
ARC
  5
42C0
330
1A
100
AcDbEntity
  8
ZUWAKU
100
AcDbCircle
 10
997.6370178871682
 20
27.82953729954602
 30
0.0
 40
4.199999999999999
100
AcDbArc
 50
90.0
 51
180.0
  0
LINE
  5
42C1
330
1A
100
AcDbEntity
  8
ZUWAKU
100
AcDbLine
 10
986.7870178871678
 20
32.02953729954493
 30
0.0
 11
990.2870178871678
 21
32.02953729954493
 31
0.0
  0
ARC
  5
42C2
330
1A
100
AcDbEntity
  8
ZUWAKU
100
AcDbCircle
 10
987.312017887168
 20
28.70453729954602
 30
0.0
 40
0.525
100
AcDbArc
 50
90.0
 51
180.0
  0
LINE
  5
42C3
330
1A
100
AcDbEntity
  8
ZUWAKU
100
AcDbLine
 10
986.7870178871678
 20
28.70453729954602
 30
0.0
 11
986.7870178871678
 21
27.41433527419008
 31
0.0
  0
LINE
  5
42C4
330
1A
100
AcDbEntity
  8
ZUWAKU
100
AcDbLine
 10
990.2870178871678
 20
29.22953729954566
 30
0.0
 11
987.312017887168
 21
29.22953729954566
 31
0.0
  0
LINE
  5
42C5
330
1A
100
AcDbEntity
  8
ZUWAKU
100
AcDbLine
 10
983.9870178871681
 20
29.22953729954566
 30
0.0
 11
983.9870178871681
 21
27.41433527419008
 31
0.0
  0
ARC
  5
42C6
330
1A
100
AcDbEntity
  8
ZUWAKU
100
AcDbCircle
 10
986.7870178871678
 20
29.22953729954566
 30
0.0
 40
2.799999999999999
100
AcDbArc
 50
90.0
 51
180.0
  0
ARC
  5
42C7
330
1A
100
AcDbEntity
  8
ZUWAKU
100
AcDbCircle
 10
990.2870178871678
 20
31.50453729954529
 30
0.0
 40
0.525
100
AcDbArc
 50
0.0
 51
90.0
  0
ARC
  5
42C8
330
1A
100
AcDbEntity
  8
ZUWAKU
100
AcDbCircle
 10
990.2870178871678
 20
29.75453729954529
 30
0.0
 40
0.525
100
AcDbArc
 50
270.0
 51
0.0
  0
LINE
  5
42C9
330
1A
100
AcDbEntity
  8
ZUWAKU
100
AcDbLine
 10
991.337017887168
 20
18.72953729954565
 30
0.0
 11
991.337017887168
 21
20.54473932490032
 31
0.0
  0
ARC
  5
42CA
330
1A
100
AcDbEntity
  8
ZUWAKU
100
AcDbCircle
 10
997.6370178871682
 20
20.12953729954529
 30
0.0
 40
1.399999999999999
100
AcDbArc
 50
180.0
 51
270.0
  0
LINE
  5
42CB
330
1A
100
AcDbEntity
  8
ZUWAKU
100
AcDbLine
 10
990.1068663681515
 20
23.5145878058845
 30
0.0
 11
987.1970683935067
 21
26.42438578052929
 31
0.0
  0
LINE
  5
42CC
330
1A
100
AcDbEntity
  8
ZUWAKU
100
AcDbLine
 10
988.5370178871678
 20
19.25453729954529
 30
0.0
 11
988.5370178871678
 21
20.54473932490032
 31
0.0
  0
ARC
  5
42CD
330
1A
100
AcDbEntity
  8
ZUWAKU
100
AcDbCircle
 10
988.0120178871681
 20
19.25453729954529
 30
0.0
 40
0.525
100
AcDbArc
 50
270.0
 51
0.0
  0
ARC
  5
42CE
330
1A
100
AcDbEntity
  8
ZUWAKU
100
AcDbCircle
 10
987.1370178871682
 20
20.54473932490032
 30
0.0
 40
1.399999999999999
100
AcDbArc
 50
0.0
 51
44.99999999999978
  0
LINE
  5
42CF
330
1A
100
AcDbEntity
  8
ZUWAKU
100
AcDbLine
 10
984.5120178871681
 20
16.45453729954602
 30
0.0
 11
984.5120178871681
 21
18.20453729954602
 31
0.0
  0
ARC
  5
42D0
330
1A
100
AcDbEntity
  8
ZUWAKU
100
AcDbCircle
 10
985.0370178871678
 20
16.45453729954602
 30
0.0
 40
0.525
100
AcDbArc
 50
180.0
 51
270.0
  0
ARC
  5
42D1
330
1A
100
AcDbEntity
  8
ZUWAKU
100
AcDbCircle
 10
985.0370178871678
 20
18.20453729954602
 30
0.0
 40
0.525
100
AcDbArc
 50
90.0
 51
180.0
  0
LINE
  5
42D2
330
1A
100
AcDbEntity
  8
ZUWAKU
100
AcDbLine
 10
985.0370178871678
 20
15.92953729954547
 30
0.0
 11
988.5370178871678
 21
15.92953729954547
 31
0.0
  0
LINE
  5
42D3
330
1A
100
AcDbEntity
  8
ZUWAKU
100
AcDbLine
 10
985.0370178871678
 20
18.72953729954565
 30
0.0
 11
988.0120178871681
 21
18.72953729954565
 31
0.0
  0
LINE
  5
42D4
330
1A
100
AcDbEntity
  8
ZUWAKU
100
AcDbLine
 10
985.2171694061842
 20
24.44448679320681
 30
0.0
 11
988.126967380829
 21
21.53468881856202
 31
0.0
  0
ARC
  5
42D5
330
1A
100
AcDbEntity
  8
ZUWAKU
100
AcDbCircle
 10
987.1370178871682
 20
20.54473932490032
 30
0.0
 40
4.199999999999999
100
AcDbArc
 50
0.0
 51
44.99999999999978
  0
ARC
  5
42D6
330
1A
100
AcDbEntity
  8
ZUWAKU
100
AcDbCircle
 10
988.5370178871678
 20
18.72953729954565
 30
0.0
 40
2.799999999999999
100
AcDbArc
 50
270.0
 51
0.0
  0
ARC
  5
42D7
330
1A
100
AcDbEntity
  8
ZUWAKU
100
AcDbCircle
 10
997.6370178871682
 20
20.12953729954529
 30
0.0
 40
4.199999999999999
100
AcDbArc
 50
180.0
 51
270.0
  0
ARC
  5
42D8
330
1A
100
AcDbEntity
  8
ZUWAKU
100
AcDbCircle
 10
988.1870178871679
 20
27.41433527419008
 30
0.0
 40
1.399999999999999
100
AcDbArc
 50
180.0
 51
224.9999999999998
  0
LINE
  5
42D9
330
1A
100
AcDbEntity
  8
ZUWAKU
100
AcDbLine
 10
996.2370178871681
 20
27.82953729954602
 30
0.0
 11
996.2370178871681
 21
20.12953729954529
 31
0.0
  0
LINE
  5
42DA
330
1A
100
AcDbEntity
  8
ZUWAKU
100
AcDbLine
 10
993.4370178871679
 20
20.12953729954529
 30
0.0
 11
993.4370178871679
 21
27.82953729954602
 31
0.0
  0
ARC
  5
42DB
330
1A
100
AcDbEntity
  8
ZUWAKU
100
AcDbCircle
 10
988.1870178871679
 20
27.41433527419008
 30
0.0
 40
4.199999999999999
100
AcDbArc
 50
180.0
 51
224.9999999999998
  0
INSERT
  5
42DC
330
1A
100
AcDbEntity
  8
ZUWAKU
  6
Continuous
100
AcDbBlockReference
  2
*X17
 10
957.694806547617
 20
-6.220463074652116
 30
0.0
1001
ACAD
1000
HATCH
1002
{
1070
    19
1000
ANSI37
1040
0.2
1040
0.0
1000
R14_HATCH_DATA
1000
780
1011
958.6948065476169
1021
-6.220463074652116
1031
0.0
1011
957.694806547617
1021
-5.220463074652116
1031
0.0
1011
957.694806547617
1021
-6.220463074652116
1031
1.0
1040
0.0
1010
0.0
1020
0.0
1030
1.0
1000
ANSI37
1070
     0
1070
     0
1071
        8
1071
        7
1070
     1
1070
     1
1071
       24
1040
29.50226184588996
1040
32.64484885518142
1040
-0.1989123673796348
1040
29.09221133955123
1040
33.63479834884247
1040
0.0
1040
29.09221133955123
1040
34.92500037419785
1040
-0.4142135623730912
1040
29.61721133955121
1040
35.45000037419784
1040
0.0
1040
32.59221133955112
1040
35.45000037419784
1040
0.4142135623731546
1040
33.11721133955121
1040
35.97500037419783
1040
0.0
1040
33.11721133955121
1040
37.72500037419785
1040
0.4142135623731586
1040
32.59221133955112
1040
38.25000037419785
1040
0.0
1040
29.09221133955123
1040
38.25000037419785
1040
0.4142135623730928
1040
26.29221133955127
1040
35.45000037419787
1040
0.0
1040
26.29221133955127
1040
33.6347983488426
1040
0.1989123673796619
1040
27.52236285856771
1040
30.664949867859
1040
0.0
1040
30.43216083321238
1040
27.75515189321434
1040
-0.1989123673796613
1040
30.84221133955123
1040
26.76520239955315
1040
0.0
1040
30.84221133955123
1040
25.47500037419784
1040
-0.4142135623730911
1040
30.31721133955125
1040
24.95000037419784
1040
0.0
1040
27.34221133955134
1040
24.95000037419784
1040
0.4142135623731526
1040
26.81721133955125
1040
24.42500037419785
1040
0.0
1040
26.81721133955125
1040
22.67500037419783
1040
0.4142135623731526
1040
27.34221133955134
1040
22.15000037419784
1040
0.0
1040
30.84221133955123
1040
22.15000037419784
1040
0.4142135623731044
1040
33.6422113395513
1040
24.95000037419782
1040
0.0
1040
33.6422113395513
1040
26.76520239955309
1040
0.1989123673796604
1040
32.41205982053475
1040
29.73505088053663
1040
0.0
1071
        0
1071
        7
1070
     1
1070
     1
1071
       16
1040
38.54221133955127
1040
34.05000037419785
1040
-0.4142135623730935
1040
39.94221133955125
1040
35.45000037419784
1040
0.0
1040
41.8672113395512
1040
35.45000037419784
1040
0.4142135623731546
1040
42.39221133955129
1040
35.97500037419783
1040
0.0
1040
42.39221133955129
1040
37.72500037419785
1040
0.4142135623730951
1040
41.86721133955131
1040
38.25000037419785
1040
0.0
1040
39.94221133955114
1040
38.2500003741978
1040
0.4142135623730892
1040
35.7422113395512
1040
34.05000037419778
1040
0.0
1040
35.7422113395512
1040
26.35000037419787
1040
0.4142135623730969
1040
39.94221133955125
1040
22.15000037419784
1040
0.0
1040
41.8672113395512
1040
22.15000037419784
1040
0.4142135623731526
1040
42.39221133955129
1040
22.67500037419783
1040
0.0
1040
42.39221133955129
1040
24.42500037419785
1040
0.4142135623730891
1040
41.86721133955131
1040
24.95000037419784
1040
0.0
1040
39.94221133955125
1040
24.95000037419784
1040
-0.4142135623730928
1040
38.54221133955127
1040
26.35000037419783
1040
0.0
1071
        0
1071
        7
1070
     1
1070
     1
1071
        2
1040
39.2422113395512
1040
30.20000037419784
1040
1.0
1040
42.7422113395512
1040
30.20000037419784
1040
1.0
1071
        0
1071
        7
1070
     1
1070
     1
1071
       26
1040
52.31485782172922
1040
34.20504756776127
1040
0.0
1040
53.37649745486704
1040
37.56690640603086
1040
0.5069206636600134
1040
52.87586655567167
1040
38.25000037419785
1040
0.0
1040
51.17697717606245
1040
38.25000037419785
1040
0.3272098845218764
1040
50.67634627686709
1040
37.88309434236481
1040
0.0
1040
48.80807640223531
1040
31.96690640603093
1040
-0.3272098845219541
1040
48.30744550303984
1040
31.60000037419784
1040
0.0
1040
48.16721133955138
1040
31.60000037419784
1040
-0.4142135623731526
1040
47.64221133955129
1040
32.12500037419783
1040
0.0
1040
47.64221133955129
1040
37.72500037419785
1040
0.4142135623730951
1040
47.11721133955132
1040
38.25000037419785
1040
0.0
1040
45.3672113395512
1040
38.25000037419785
1040
0.4142135623730871
1040
44.84221133955123
1040
37.72500037419786
1040
0.0
1040
44.84221133955123
1040
22.67500037419783
1040
0.4142135623730891
1040
45.3672113395512
1040
22.15000037419784
1040
0.0
1040
47.1172113395512
1040
22.15000037419784
1040
0.4142135623731526
1040
47.64221133955129
1040
22.67500037419783
1040
0.0
1040
47.64221133955129
1040
28.27500037419786
1040
-0.4142135623731526
1040
48.16721133955138
1040
28.80000037419785
1040
0.0
1040
48.30744550303996
1040
28.80000037419785
1040
-0.3272098845218915
1040
48.80807640223531
1040
28.43309434236477
1040
0.0
1040
50.67634627686709
1040
22.51690640603092
1040
0.3272098845218902
1040
51.17697717606245
1040
22.15000037419784
1040
0.0
1040
52.87586655567167
1040
22.15000037419784
1040
0.5069206636600335
1040
53.37649745486704
1040
22.83309434236485
1040
0.0
1040
51.05010607639338
1040
30.20000037419798
1040
0.0
1071
        0
1071
        7
1070
     1
1070
     1
1071
        8
1040
58.4922113395512
1040
37.72500037419785
1040
0.4142135623731546
1040
57.96721133955111
1040
38.25000037419785
1040
0.0
1040
56.21721133955134
1040
38.25000037419785
1040
0.4142135623731507
1040
55.69221133955124
1040
37.72500037419786
1040
0.0
1040
55.69221133955124
1040
22.67500037419783
1040
0.4142135623731526
1040
56.21721133955134
1040
22.15000037419784
1040
0.0
1040
57.96721133955111
1040
22.15000037419784
1040
0.4142135623731526
1040
58.4922113395512
1040
22.67500037419783
1040
0.0
1071
        0
1071
        7
1070
     1
1070
     1
1071
       24
1040
63.39221133955129
1040
34.92500037419785
1040
-0.4142135623731546
1040
63.91721133955138
1040
35.45000037419784
1040
0.0
1040
66.89221133955129
1040
35.45000037419784
1040
0.4142135623730911
1040
67.41721133955127
1040
35.97500037419783
1040
0.0
1040
67.41721133955127
1040
37.72500037419785
1040
0.4142135623730952
1040
66.89221133955129
1040
38.25000037419785
1040
0.0
1040
63.39221133955129
1040
38.25000037419785
1040
0.4142135623731048
1040
60.59221133955123
1040
35.45000037419787
1040
0.0
1040
60.59221133955123
1040
33.6347983488426
1040
0.1989123673796613
1040
61.82236285856777
1040
30.66494986785905
1040
0.0
1040
64.73216083321244
1040
27.75515189321438
1040
-0.1989123673796402
1040
65.14221133955129
1040
26.76520239955331
1040
0.0
1040
65.14221133955129
1040
25.47500037419784
1040
-0.4142135623730911
1040
64.61721133955132
1040
24.95000037419784
1040
0.0
1040
61.6422113395513
1040
24.95000037419784
1040
0.4142135623731526
1040
61.1172113395512
1040
24.42500037419785
1040
0.0
1040
61.1172113395512
1040
22.67500037419783
1040
0.4142135623730891
1040
61.64221133955118
1040
22.15000037419784
1040
0.0
1040
65.14221133955129
1040
22.15000037419784
1040
0.4142135623730925
1040
67.94221133955125
1040
24.95000037419782
1040
0.0
1040
67.94221133955125
1040
26.76520239955309
1040
0.1989123673796675
1040
66.71205982053471
1040
29.73505088053675
1040
0.0
1040
63.80226184589014
1040
32.64484885518127
1040
-0.1989123673796652
1040
63.39221133955129
1040
33.63479834884243
1040
0.0
1071
        0
1071
        7
1070
     1
1070
     1
1071
       16
1040
72.84221133955123
1040
37.72500037419784
1040
0.414213562373103
1040
72.31721133955125
1040
38.25000037419785
1040
0.0
1040
70.56721133955125
1040
38.25000037419785
1040
0.4142135623730871
1040
70.04221133955127
1040
37.72500037419786
1040
0.0
1040
70.04221133955127
1040
24.95000037419782
1040
0.4142135623730926
1040
72.84221133955123
1040
22.15000037419784
1040
0.0
1040
76.34221133955122
1040
22.15000037419784
1040
0.4142135623731044
1040
79.1422113395513
1040
24.95000037419782
1040
0.0
1040
79.1422113395513
1040
37.72500037419785
1040
0.4142135623730951
1040
78.61721133955132
1040
38.25000037419785
1040
0.0
1040
76.86721133955121
1040
38.25000037419785
1040
0.4142135623730871
1040
76.34221133955122
1040
37.72500037419786
1040
0.0
1040
76.34221133955122
1040
26.00000037419782
1040
-0.414213562373088
1040
75.29221133955127
1040
24.95000037419784
1040
0.0
1040
73.89221133955129
1040
24.95000037419784
1040
-0.4142135623731197
1040
72.84221133955123
1040
26.00000037419782
1040
0.0
1071
        0
1071
        7
1070
     1
1070
     1
1071
        8
1040
84.04221133955127
1040
37.72500037419786
1040
0.4142135623730871
1040
83.51721133955129
1040
38.25000037419785
1040
0.0
1040
81.7672113395513
1040
38.25000037419785
1040
0.4142135623731507
1040
81.24221133955121
1040
37.72500037419786
1040
0.0
1040
81.24221133955121
1040
22.67500037419783
1040
0.4142135623730891
1040
81.76721133955117
1040
22.15000037419784
1040
0.0
1040
83.51721133955129
1040
22.15000037419784
1040
0.4142135623730891
1040
84.04221133955127
1040
22.67500037419783
1040
0.0
1071
        0
1070
     0
1070
     1
1040
0.0
1040
0.2
1070
     0
1070
     2
1040
0.7853981633974483
1040
-885.9423051499089
1040
1.800000374197907
1040
-0.4490128060534576
1040
0.4490128060534577
1070
     0
1040
2.356194490192344
1040
-885.9423051499089
1040
1.800000374197907
1040
-0.4490128060534577
1040
-0.4490128060534576
1070
     0
1040
0.057451373970553
1071
        8
1040
31.07985414779341
1040
30.16717402008339
1040
0.0
1040
37.40451419120927
1040
33.84406255664885
1040
0.0
1040
40.16436707042976
1040
30.51188202026856
1040
0.0
1040
45.91405916640724
1040
31.20129802063934
1040
0.0
1040
56.83847120372684
1040
31.66091028818096
1040
0.0
1040
61.89820007989965
1040
34.41857669060505
1040
0.0
1040
71.55768515717046
1040
33.72915828929285
1040
0.0
1040
82.82707880439284
1040
34.18877055683447
1040
0.0
1002
}
  0
LINE
  5
42DD
330
1A
100
AcDbEntity
  8
ZUWAKU
100
AcDbLine
 10
997.6370178871682
 20
32.02953729954493
 30
0.0
 11
999.5620178871678
 21
32.02953729954493
 31
0.0
  0
LINE
  5
42DE
330
1A
100
AcDbEntity
  8
ZUWAKU
100
AcDbLine
 10
999.5620178871678
 20
29.22953729954566
 30
0.0
 11
997.6370178871682
 21
29.22953729954566
 31
0.0
  0
LINE
  5
42DF
330
1A
100
AcDbEntity
  8
ZUWAKU
100
AcDbLine
 10
997.6370178871682
 20
18.72953729954565
 30
0.0
 11
999.5620178871678
 21
18.72953729954565
 31
0.0
  0
LINE
  5
42E0
330
1A
100
AcDbEntity
  8
ZUWAKU
100
AcDbLine
 10
999.5620178871678
 20
15.92953729954547
 30
0.0
 11
997.6370178871682
 21
15.92953729954547
 31
0.0
  0
CIRCLE
  5
42E1
330
1A
100
AcDbEntity
  8
ZUWAKU
100
AcDbCircle
 10
998.6870178871679
 20
23.97953729954565
 30
0.0
 40
1.75
  0
LINE
  5
42E3
330
1A
100
AcDbEntity
  8
ZUWAKU
100
AcDbLine
 10
1181.341407022455
 20
23.97953729954565
 30
0.0
 11
1420.119169703378
 21
23.97953729954565
 31
0.0
  0
LINE
  5
42E4
330
1A
100
AcDbEntity
  8
ZUWAKU
100
AcDbLine
 10
1181.341407022455
 20
24.37953729954529
 30
0.0
 11
1420.119169703378
 21
24.37953729954529
 31
0.0
  0
LINE
  5
42E5
330
1A
100
AcDbEntity
  8
ZUWAKU
100
AcDbLine
 10
1181.341407022455
 20
24.17953729954547
 30
0.0
 11
1420.119169703378
 21
24.17953729954547
 31
0.0
  0
LINE
  5
42E6
330
1A
100
AcDbEntity
  8
ZUWAKU
100
AcDbLine
 10
972.6948057323868
 20
39.57953729954602
 30
0.0
 11
1770.094805732387
 21
39.57953729954602
 31
0.0
  0
LINE
  5
42E7
330
1A
100
AcDbEntity
  8
ZUWAKU
100
AcDbLine
 10
972.6948057323868
 20
39.37953729954529
 30
0.0
 11
1770.094805732387
 21
39.37953729954529
 31
0.0
  0
LINE
  5
42E8
330
1A
100
AcDbEntity
  8
ZUWAKU
100
AcDbLine
 10
972.6948057323868
 20
39.17953729954547
 30
0.0
 11
1770.094805732387
 21
39.17953729954547
 31
0.0
  0
LINE
  5
42E9
330
1A
100
AcDbEntity
  8
ZUWAKU
100
AcDbLine
 10
972.6948057323868
 20
38.97953729954565
 30
0.0
 11
1770.094805732387
 21
38.97953729954565
 31
0.0
  0
LINE
  5
42EA
330
1A
100
AcDbEntity
  8
ZUWAKU
100
AcDbLine
 10
972.6948057323868
 20
38.77953729954493
 30
0.0
 11
1770.094805732387
 21
38.77953729954493
 31
0.0
  0
LINE
  5
42EB
330
1A
100
AcDbEntity
  8
SEIHIN
  6
Continuous
 62
     3
100
AcDbLine
 10
1657.70890143302
 20
516.6161582859479
 30
0.0
 11
1657.708251665528
 21
516.4992641184501
 31
0.0
  0
LINE
  5
42EC
330
1A
100
AcDbEntity
  8
SEIHIN
  6
Continuous
 62
     3
100
AcDbLine
 10
1660.177022301293
 20
515.1560794405179
 30
0.0
 11
1660.249791900093
 21
529.7387421493302
 31
0.0
  0
LINE
  5
42ED
330
1A
100
AcDbEntity
  8
SEIHIN
  6
Continuous
 62
     3
100
AcDbLine
 10
1659.600721469673
 20
530.6492353203241
 30
0.0
 11
1659.593014854411
 21
515.7648889041199
 31
0.0
  0
LINE
  5
42EE
330
1A
100
AcDbEntity
  8
SEIHIN
  6
Continuous
 62
     3
100
AcDbLine
 10
1718.00111955521
 20
500.1963542598661
 30
0.0
 11
1718.039846345256
 21
514.7059752519606
 31
0.0
  0
LINE
  5
42EF
330
1A
100
AcDbEntity
  8
SEIHIN
  6
Continuous
 62
     3
100
AcDbLine
 10
1721.433654296464
 20
499.9896465444696
 30
0.0
 11
1721.798155570169
 21
514.5513548186065
 31
0.0
  0
ARC
  5
42F0
330
1A
100
AcDbEntity
  8
SEIHIN
  6
Continuous
 62
     3
100
AcDbCircle
 10
1668.30914980626
 20
342.0538503308492
 30
0.0
 40
2.055758708812644
100
AcDbArc
 50
352.2789412854018
 51
2.400058988129317
  0
LINE
  5
42F1
330
1A
100
AcDbEntity
  8
SEIHIN
  6
Continuous
 62
     3
100
AcDbLine
 10
1690.23096675956
 20
478.3234136218387
 30
0.0
 11
1690.474595216625
 21
478.2522052574652
 31
0.0
  0
ARC
  5
42F2
330
1A
100
AcDbEntity
  8
SEIHIN
  6
Continuous
 62
     3
100
AcDbCircle
 10
1720.068623568765
 20
494.5480701939643
 30
0.0
 40
3.990980547235831
100
AcDbArc
 50
79.84595120863336
 51
86.93152384331586
  0
LWPOLYLINE
  5
42F3
330
1A
100
AcDbEntity
  8
SEIHIN
  6
Continuous
 62
     3
100
AcDbPolyline
 90
        4
 70
     0
 43
0.0
 10
1646.504453355194
 20
488.0857299097308
 10
1646.560886636831
 20
488.2573767825768
 10
1645.921649475551
 20
488.8878520148157
 10
1644.734270248893
 20
489.3664068611204
  0
LWPOLYLINE
  5
42F4
330
1A
100
AcDbEntity
  8
SEIHIN
  6
Continuous
 62
     3
100
AcDbPolyline
 90
       10
 70
     0
 43
0.0
 10
1644.734270248893
 20
489.3664068611204
 10
1644.503633579393
 20
489.4320597265234
 10
1642.466459511238
 20
489.8279528578885
 10
1640.039887225415
 20
490.0313742937507
 10
1637.496917396553
 20
490.021316739738
 10
1635.124125611253
 20
489.8028650105772
 10
1633.189019574108
 20
489.4080877944864
 10
1631.91025824174
 20
488.8951181584955
 10
1631.433595683726
 20
488.3416439822005
 10
1631.458509553256
 20
488.3068617011611
  0
LINE
  5
42F5
330
1A
100
AcDbEntity
  8
SEIHIN
  6
Continuous
 62
     3
100
AcDbLine
 10
1690.162214337162
 20
481.42478721075
 30
0.0
 11
1690.396345537683
 21
482.0997341477148
 31
0.0
  0
LWPOLYLINE
  5
42F6
330
1A
100
AcDbEntity
  8
SEIHIN
  6
Continuous
 62
     3
100
AcDbPolyline
 90
       10
 70
     0
 43
0.0
 10
1631.097516598641
 20
488.741722940994
 10
1630.698628367623
 20
489.2524600710324
 10
1631.159295263534
 20
489.8890296705669
 10
1632.535991751708
 20
490.4767417908417
 10
1634.673184242798
 20
490.9291714823313
 10
1637.319458284673
 20
491.1813382125344
 10
1640.167815635045
 20
491.1972793087663
 10
1642.890904417503
 20
490.9714392486677
 10
1645.177612701971
 20
490.5277959216503
 10
1645.436411070146
 20
490.454090921695
  0
LWPOLYLINE
  5
42F7
330
1A
100
AcDbEntity
  8
SEIHIN
  6
Continuous
 62
     3
100
AcDbPolyline
 90
        5
 70
     0
 43
0.0
 10
1645.436411070146
 20
490.454090921695
 10
1646.767208282547
 20
489.9164590918606
 10
1647.478804722489
 20
489.2078161634883
 10
1647.231728967815
 20
488.4849036599714
 10
1646.608295248112
 20
488.1403086337516
  0
ARC
  5
42F8
330
1A
100
AcDbEntity
  8
SEIHIN
  6
Continuous
 62
     3
100
AcDbCircle
 10
1635.457206545159
 20
508.6612309716867
 30
0.0
 40
20.51011378481913
100
AcDbArc
 50
236.4473810002584
 51
255.6773119854282
  0
LWPOLYLINE
  5
42F9
330
1A
100
AcDbEntity
  8
SEIHIN
  6
Continuous
 62
     3
100
AcDbPolyline
 90
       33
 70
     0
 43
0.0
 10
1646.728246380065
 20
486.8677369772583
 10
1648.908025928981
 20
486.8114004061901
 10
1653.989916346015
 20
486.8607416927054
 10
1659.229975270075
 20
487.1128755616166
 10
1664.557358435812
 20
487.6056586722313
 10
1669.670665455051
 20
488.3557821813594
 10
1673.994554677965
 20
489.2818899106644
 10
1677.738817336246
 20
490.4269312385615
 10
1680.499190452611
 20
491.6592341849293
 10
1682.440412422152
 20
493.0383175426588
 10
1683.380164940845
 20
494.4207761120008
 10
1683.379575851113
 20
495.8659966172979
 10
1682.448165674547
 20
497.2385893153188
 10
1680.562122246744
 20
498.5877285987506
 10
1678.82123854982
 20
499.4254943034454
 10
1675.648695426808
 20
500.5361975455555
 10
1671.673544930566
 20
501.5177816288566
 10
1667.244787847634
 20
502.2843191163476
 10
1662.227477023139
 20
502.8591611371832
 10
1657.070049980183
 20
503.1911319228777
 10
1651.606465216536
 20
503.2906959674444
 10
1646.325007907862
 20
503.1482090741631
 10
1641.055857405939
 20
502.7579870193042
 10
1636.27944681556
 20
502.1535600125146
 10
1631.838065609066
 20
501.3117756924246
 10
1628.14211288917
 20
500.3054568253085
 10
1625.077290730811
 20
499.0952067471555
 10
1622.941423807173
 20
497.7866201005475
 10
1621.676730878081
 20
496.3241826944497
 10
1621.417306621991
 20
494.8412837984176
 10
1622.170655022844
 20
493.2644761152203
 10
1624.12121390079
 20
491.568541357906
 10
1624.12121390079
 20
491.568541357906
  0
LINE
  5
42FA
330
1A
100
AcDbEntity
  8
SEIHIN
  6
Continuous
 62
     3
100
AcDbLine
 10
1660.934630738187
 20
531.0022163093301
 30
0.0
 11
1657.929426918145
 21
531.7800202923725
 31
0.0
  0
LINE
  5
42FB
330
1A
100
AcDbEntity
  8
SEIHIN
  6
Continuous
 62
     3
100
AcDbLine
 10
1656.700352277423
 20
531.4619123675013
 30
0.0
 11
1657.929426918145
 21
531.7800202923725
 31
0.0
  0
LINE
  5
42FC
330
1A
100
AcDbEntity
  8
SEIHIN
  6
Continuous
 62
     3
100
AcDbLine
 10
1659.327159732178
 20
530.7820445703931
 30
0.0
 11
1656.700352277423
 21
531.4619123675013
 31
0.0
  0
LINE
  5
42FD
330
1A
100
AcDbEntity
  8
SEIHIN
  6
Continuous
 62
     3
100
AcDbLine
 10
1656.700352277423
 20
531.4619123675013
 30
0.0
 11
1656.515213355771
 21
516.9251074942519
 31
0.0
  0
ARC
  5
42FE
330
1A
100
AcDbEntity
  8
SEIHIN
  6
Continuous
 62
     3
100
AcDbCircle
 10
1659.23019631346
 20
530.2269971854305
 30
0.0
 40
0.5634531960362273
100
AcDbArc
 50
49.54043709867327
 51
80.09076982715582
  0
LINE
  5
42FF
330
1A
100
AcDbEntity
  8
SEIHIN
  6
Continuous
 62
     3
100
AcDbLine
 10
1674.369659580731
 20
527.0420120602336
 30
0.0
 11
1660.934630738187
 21
531.0022163093301
 31
0.0
  0
LINE
  5
4300
330
1A
100
AcDbEntity
  8
SEIHIN
  6
Continuous
 62
     3
100
AcDbLine
 10
1660.249791900093
 20
529.7387421493302
 30
0.0
 11
1659.600721469673
 21
530.6492353203241
 31
0.0
  0
ARC
  5
4301
330
1A
100
AcDbEntity
  8
SEIHIN
  6
Continuous
 62
     3
100
AcDbCircle
 10
1660.627747491195
 20
530.1162221458951
 30
0.0
 40
0.5341737326488996
100
AcDbArc
 50
224.9639286835832
 51
258.7124070598248
  0
LINE
  5
4302
330
1A
100
AcDbEntity
  8
SEIHIN
  6
Continuous
 62
     3
100
AcDbLine
 10
1660.934630738187
 20
531.0022163093301
 30
0.0
 11
1659.595827415511
 21
530.6557085117754
 31
0.0
  0
LINE
  5
4303
330
1A
100
AcDbEntity
  8
SEIHIN
  6
Continuous
 62
     3
100
AcDbLine
 10
1659.595827415511
 20
530.6557085117754
 30
0.0
 11
1659.600721469673
 21
530.6492353203241
 31
0.0
  0
ARC
  5
4304
330
1A
100
AcDbEntity
  8
SEIHIN
  6
Continuous
 62
     3
100
AcDbCircle
 10
1723.546590129541
 20
357.7190854634703
 30
0.0
 40
0.4890925615307403
100
AcDbArc
 50
315.6540386913131
 51
357.6655935292903
  0
ARC
  5
4305
330
1A
100
AcDbEntity
  8
SEIHIN
  6
Continuous
 62
     3
100
AcDbCircle
 10
1714.151010684916
 20
607.8687620685266
 30
0.0
 40
90.08617769989752
100
AcDbArc
 50
243.7944876663812
 51
267.1838749354818
  0
LINE
  5
4306
330
1A
100
AcDbEntity
  8
SEIHIN
  6
Continuous
 62
     3
100
AcDbLine
 10
1674.369659580731
 20
527.0420120602336
 30
0.0
 11
1671.602322654661
 21
526.3257725595511
 31
0.0
  0
LWPOLYLINE
  5
4307
330
1A
100
AcDbEntity
  8
SEIHIN
  6
Continuous
 62
     3
100
AcDbPolyline
 90
        8
 70
     0
 43
0.0
 10
1626.185945637752
 20
313.1219525085696
 10
1626.301836308595
 20
312.6946557658314
 10
1626.796594738921
 20
311.8861615461285
 10
1627.644212493162
 20
311.0975342368427
 10
1628.833639577628
 20
310.3390548010005
 10
1630.349369991278
 20
309.6206111779931
 10
1632.171643870161
 20
308.9515693791639
 10
1634.276705087454
 20
308.3406513875282
  0
LWPOLYLINE
  5
4308
330
1A
100
AcDbEntity
  8
SEIHIN
  6
Continuous
 62
     3
100
AcDbPolyline
 90
       22
 70
     0
 43
0.0
 10
1634.276705087454
 20
308.3406513875282
 10
1636.637110950917
 20
307.7958214533858
 10
1639.222089960341
 20
307.3241822681382
 10
1641.997942961124
 20
306.9318823698443
 10
1644.92848246428
 20
306.6240359876235
 10
1647.975504405704
 20
306.4046563698592
 10
1651.099286194569
 20
306.2766034653657
 10
1654.259104558049
 20
306.2415466395858
 10
1657.413766431456
 20
306.2999429118552
 10
1660.522145972837
 20
306.4510309974601
 10
1663.543720701217
 20
306.6928412321443
 10
1666.439099769107
 20
307.0222212496986
 10
1669.170537482447
 20
307.4348770778713
 10
1671.702425373447
 20
307.925429116867
 10
1674.001756411424
 20
308.4874822706545
 10
1676.038555299927
 20
309.1137093168252
 10
1677.786269250558
 20
309.795946428141
 10
1679.222114139189
 20
310.5252996005086
 10
1680.327371531855
 20
311.2922605999249
 10
1681.087632708168
 20
312.0868309168457
 10
1681.492986501026
 20
312.8986521120521
 10
1681.541180214892
 20
313.1219525085696
  0
ARC
  5
4309
330
1A
100
AcDbEntity
  8
SEIHIN
  6
Continuous
 62
     3
100
AcDbCircle
 10
1711.353411558036
 20
607.035598402558
 30
0.0
 40
89.96791126069686
100
AcDbArc
 50
243.7788969749044
 51
267.1994656269597
  0
LINE
  5
430A
330
1A
100
AcDbEntity
  8
SEIHIN
  6
Continuous
 62
     3
100
AcDbLine
 10
1660.523191640177
 20
529.5923809002208
 30
0.0
 11
1671.602322654661
 21
526.3257725595511
 31
0.0
  0
LWPOLYLINE
  5
430B
330
1A
100
AcDbEntity
  8
SEIHIN
  6
Continuous
 62
     3
100
AcDbPolyline
 90
       37
 70
     0
 43
0.0
 10
1712.242454283259
 20
510.9691380971391
 10
1711.935243104869
 20
511.0118788560177
 10
1711.637085048509
 20
510.9798510832917
 10
1711.357039495845
 20
510.87402792663
 10
1711.103615489286
 20
510.6976247690974
 10
1710.884513189032
 20
510.4560015313721
 10
1710.706389907605
 20
510.1564998132646
 10
1710.574657830775
 20
509.8082198229242
 10
1710.49331957104
 20
509.4217438716202
 10
1710.46484655026
 20
509.0088148355655
 10
1710.490103906765
 20
508.58197935457
 10
1710.568324208558
 20
508.1542066087324
 10
1710.69713077135
 20
507.7384942564733
 10
1710.87260987291
 20
507.3474735072552
 10
1711.089429669535
 20
506.9930253286768
 10
1711.341002201419
 20
506.6859194492842
 10
1711.619683564482
 20
506.4354871258204
 10
1711.91700616653
 20
506.2493376177092
 10
1712.223936010749
 20
506.1331269835575
 10
1712.531147189138
 20
506.0903862246789
 10
1712.829305245498
 20
506.1224139974049
 10
1713.109350798162
 20
506.2282371540666
 10
1713.362774804721
 20
506.4046403115992
 10
1713.581877104975
 20
506.6462635493246
 10
1713.760000386403
 20
506.945765267432
 10
1713.891732463232
 20
507.294045257772
 10
1713.973070722968
 20
507.6805212090764
 10
1714.001543743747
 20
508.0934502451307
 10
1713.976286387242
 20
508.5202857261267
 10
1713.898066085449
 20
508.9480584719642
 10
1713.769259522657
 20
509.3637708242233
 10
1713.593780421097
 20
509.7547915734415
 10
1713.376960624473
 20
510.1092397520199
 10
1713.125388092589
 20
510.4163456314124
 10
1712.846706729524
 20
510.6667779548764
 10
1712.549384127478
 20
510.8529274629875
 10
1712.242454283259
 20
510.9691380971391
  0
LWPOLYLINE
  5
430C
330
1A
100
AcDbEntity
  8
SEIHIN
  6
Continuous
 62
     3
100
AcDbPolyline
 90
       37
 70
     0
 43
0.0
 10
1666.280513506133
 20
522.8649637201336
 10
1665.973302327744
 20
522.9077044790117
 10
1665.675144271383
 20
522.8756767062861
 10
1665.39509871872
 20
522.769853549624
 10
1665.141674712161
 20
522.5934503920918
 10
1664.922572411906
 20
522.3518271543664
 10
1664.744449130479
 20
522.052325436259
 10
1664.61271705365
 20
521.7040454459186
 10
1664.531378793915
 20
521.3175694946146
 10
1664.502905773135
 20
520.9046404585599
 10
1664.52816312964
 20
520.4778049775638
 10
1664.606383431432
 20
520.0500322317268
 10
1664.735189994225
 20
519.6343198794677
 10
1664.910669095785
 20
519.2432991302496
 10
1665.127488892409
 20
518.8888509516707
 10
1665.379061424293
 20
518.5817450722786
 10
1665.657742787357
 20
518.3313127488147
 10
1665.955065389404
 20
518.1451632407031
 10
1666.261995233624
 20
518.0289526065519
 10
1666.569206412013
 20
517.9862118476733
 10
1666.867364468373
 20
518.0182396203988
 10
1667.147410021036
 20
518.124062777061
 10
1667.400834027596
 20
518.3004659345936
 10
1667.61993632785
 20
518.542089172319
 10
1667.798059609277
 20
518.8415908904264
 10
1667.929791686107
 20
519.1898708807664
 10
1668.011129945842
 20
519.5763468320708
 10
1668.039602966622
 20
519.9892758681251
 10
1668.014345610117
 20
520.4161113491211
 10
1667.936125308324
 20
520.8438840949582
 10
1667.807318745532
 20
521.2595964472172
 10
1667.631839643972
 20
521.6506171964359
 10
1667.415019847347
 20
522.0050653750142
 10
1667.163447315463
 20
522.3121712544068
 10
1666.884765952399
 20
522.5626035778707
 10
1666.587443350352
 20
522.7487530859819
 10
1666.280513506133
 20
522.8649637201336
  0
LINE
  5
430D
330
1A
100
AcDbEntity
  8
SEIHIN
  6
Continuous
 62
     3
100
AcDbLine
 10
1723.160027482603
 20
514.8970985428152
 30
0.0
 11
1709.724998640059
 21
517.8913769656226
 31
0.0
  0
LINE
  5
430E
330
1A
100
AcDbEntity
  8
SEIHIN
  6
Continuous
 62
     3
100
AcDbLine
 10
1706.957661713987
 20
517.1751374649399
 30
0.0
 11
1718.039846345256
 21
514.7059752519606
 31
0.0
  0
ARC
  5
430F
330
1A
100
AcDbEntity
  8
SEIHIN
  6
Continuous
 62
     3
100
AcDbCircle
 10
1718.605124477745
 20
517.4713715295877
 30
0.0
 40
2.822579660414512
100
AcDbArc
 50
258.4472495100222
 51
268.8985686396713
  0
LINE
  5
4310
330
1A
100
AcDbEntity
  8
SEIHIN
  6
Continuous
 62
     3
100
AcDbLine
 10
1709.724998640059
 20
517.8913769656226
 30
0.0
 11
1706.957661713987
 21
517.1751374649399
 31
0.0
  0
LINE
  5
4311
330
1A
100
AcDbEntity
  8
SEIHIN
  6
Continuous
 62
     3
100
AcDbLine
 10
1721.798155570169
 20
514.5513548186065
 30
0.0
 11
1721.821224159927
 21
514.55059074526
 31
0.0
  0
LINE
  5
4312
330
1A
100
AcDbEntity
  8
SEIHIN
  6
Continuous
 62
     3
100
AcDbLine
 10
1723.160027482603
 20
514.8970985428152
 30
0.0
 11
1721.821224159927
 21
514.55059074526
 31
0.0
  0
ARC
  5
4313
330
1A
100
AcDbEntity
  8
SEIHIN
  6
Continuous
 62
     3
100
AcDbCircle
 10
1721.698277245305
 20
511.9395212144638
 30
0.0
 40
2.613962516653277
100
AcDbArc
 50
76.48073641341366
 51
87.30411619260975
  0
LINE
  5
4314
330
1A
100
AcDbEntity
  8
SEIHIN
  6
Continuous
 62
     3
100
AcDbLine
 10
1726.165231302646
 20
514.1192945597733
 30
0.0
 11
1723.160027482603
 21
514.8970985428152
 31
0.0
  0
LINE
  5
4315
330
1A
100
AcDbEntity
  8
SEIHIN
  6
Continuous
 62
     3
100
AcDbLine
 10
1726.165231302646
 20
514.1192945597733
 30
0.0
 11
1726.165231302646
 21
499.6304071654369
 31
0.0
  0
LINE
  5
4316
330
1A
100
AcDbEntity
  8
SEIHIN
  6
Continuous
 62
     3
100
AcDbLine
 10
1726.165231302646
 20
514.1192945597733
 30
0.0
 11
1724.936156661925
 21
513.8011866349017
 31
0.0
  0
LINE
  5
4317
330
1A
100
AcDbEntity
  8
SEIHIN
  6
Continuous
 62
     3
100
AcDbLine
 10
1721.798155570169
 20
514.5513548186065
 30
0.0
 11
1718.550867666763
 21
514.6493133909509
 31
0.0
  0
LINE
  5
4318
330
1A
100
AcDbEntity
  8
SEIHIN
  6
Continuous
 62
     3
100
AcDbLine
 10
1724.936156661925
 20
513.8011866349017
 30
0.0
 11
1724.751017740273
 21
499.2643817616529
 31
0.0
  0
LINE
  5
4319
330
1A
100
AcDbEntity
  8
SEIHIN
  6
Continuous
 62
     3
100
AcDbLine
 10
1724.936156661925
 20
513.8011866349017
 30
0.0
 11
1722.30934920717
 21
514.48105443201
 31
0.0
  0
LINE
  5
431A
330
1A
100
AcDbEntity
  8
SEIHIN
  6
Continuous
 62
     3
100
AcDbLine
 10
1724.035276800769
 20
357.6991638393122
 30
0.0
 11
1724.035423956191
 21
357.7075824914611
 31
0.0
  0
LINE
  5
431B
330
1A
100
AcDbEntity
  8
SEIHIN
  6
Continuous
 62
     3
100
AcDbLine
 10
1724.035423956191
 20
357.7075824914611
 30
0.0
 11
1726.165231302646
 21
499.6304071654369
 31
0.0
  0
ARC
  5
431C
330
1A
100
AcDbEntity
  8
SEIHIN
  6
Continuous
 62
     3
100
AcDbCircle
 10
1721.485119922209
 20
355.4172143939697
 30
0.0
 40
0.4056577532112345
100
AcDbArc
 50
286.2373828342029
 51
1.579213396930612
  0
ARC
  5
431D
330
1A
100
AcDbEntity
  8
SEIHIN
  6
Continuous
 62
     3
100
AcDbCircle
 10
1695.264447341421
 20
480.8355099655911
 30
0.0
 40
0.5934853494075391
100
AcDbArc
 50
293.126720394691
 51
2.595345169289485
  0
LINE
  5
431E
330
1A
100
AcDbEntity
  8
SEIHIN
  6
Continuous
 62
     3
100
AcDbLine
 10
1695.857323924347
 20
480.8623840679882
 30
0.0
 11
1695.88097517122
 21
482.6756545412725
 31
0.0
  0
LWPOLYLINE
  5
431F
330
1A
100
AcDbEntity
  8
SEIHIN
  6
Continuous
 62
     3
100
AcDbPolyline
 90
        3
 70
     0
 43
0.0
 10
1670.340383364281
 20
341.794660737323
 10
1670.344768208514
 20
341.7787925237206
 10
1670.346270774265
 20
341.7776583132784
  0
LWPOLYLINE
  5
4320
330
1A
100
AcDbEntity
  8
SEIHIN
  6
Continuous
 62
     3
100
AcDbPolyline
 90
       19
 70
     0
 43
0.0
 10
1670.340383364281
 20
341.794660737323
 10
1665.286657598875
 20
341.7845893954011
 10
1660.244404970513
 20
341.8732502157466
 10
1655.242379131419
 20
342.060137606398
 10
1650.309104338901
 20
342.3441858343529
 10
1645.472712794608
 20
342.7237751029518
 10
1640.760784219494
 20
343.1967407888367
 10
1636.200188579335
 20
343.7603857858042
 10
1631.816932857641
 20
344.4114958851626
 10
1627.636012749772
 20
345.1463581048913
 10
1623.68127012396
 20
345.9607818630709
 10
1619.975257062074
 20
346.8501228748485
 10
1616.539107255459
 20
347.8093096366627
 10
1613.392415489183
 20
348.8328723467018
 10
1610.553125901983
 20
349.9149740966707
 10
1608.037429659071
 20
351.0494441569993
 10
1605.859672621354
 20
352.2298131656842
 10
1604.032273537574
 20
353.4493500200863
 10
1603.559032074342
 20
353.8177315010869
  0
LINE
  5
4321
330
1A
100
AcDbEntity
  8
SEIHIN
  6
Continuous
 62
     3
100
AcDbLine
 10
1690.130416312081
 20
478.9006020736153
 30
0.0
 11
1695.4975482324
 21
480.2897180321713
 31
0.0
  0
LINE
  5
4322
330
1A
100
AcDbEntity
  8
SEIHIN
  6
Continuous
 62
     3
100
AcDbLine
 10
1690.1643200062
 20
481.5919390535193
 30
0.0
 11
1690.127156480803
 21
478.6418307304041
 31
0.0
  0
ARC
  5
4323
330
1A
100
AcDbEntity
  8
SEIHIN
  6
Continuous
 62
     3
100
AcDbCircle
 10
1690.757080868784
 20
481.61919827426
 30
0.0
 40
0.5933873147667059
100
AcDbArc
 50
113.1408358206804
 51
182.6329989149805
  0
LINE
  5
4324
330
1A
100
AcDbEntity
  8
SEIHIN
  6
Continuous
 62
     3
100
AcDbLine
 10
1696.934321112047
 20
483.8239858163554
 30
0.0
 11
1690.523884050106
 21
482.1648426172944
 31
0.0
  0
LWPOLYLINE
  5
4325
330
1A
100
AcDbEntity
  8
SEIHIN
  6
Continuous
 62
     3
100
AcDbPolyline
 90
        9
 70
     0
 43
0.0
 10
1696.934321112047
 20
483.8239858163554
 10
1697.003170529344
 20
483.8325860918605
 10
1697.069129671303
 20
483.8223539334296
 10
1697.129664744851
 20
483.7936824051837
 10
1697.18245032025
 20
483.7476729119864
 10
1697.225458661519
 20
483.6860928894314
 10
1697.257037621071
 20
483.6113079085382
 10
1697.275974106275
 20
483.5261908033232
 10
1697.281540679908
 20
483.4340113120722
  0
LINE
  5
4326
330
1A
100
AcDbEntity
  8
SEIHIN
  6
Continuous
 62
     3
100
AcDbLine
 10
1697.243056722792
 20
480.4835612360805
 30
0.0
 11
1697.281540679908
 21
483.4340113120722
 31
0.0
  0
ARC
  5
4327
330
1A
100
AcDbEntity
  8
SEIHIN
  6
Continuous
 62
     3
100
AcDbCircle
 10
1696.650180139866
 20
480.456687133684
 30
0.0
 40
0.5934853494081973
100
AcDbArc
 50
293.1267203947615
 51
2.595345169184355
  0
LINE
  5
4328
330
1A
100
AcDbEntity
  8
SEIHIN
  6
Continuous
 62
     3
100
AcDbLine
 10
1690.474595216625
 20
478.2522052574652
 30
0.0
 11
1696.883281030845
 21
479.9108952002637
 31
0.0
  0
LWPOLYLINE
  5
4329
330
1A
100
AcDbEntity
  8
SEIHIN
  6
Continuous
 62
     3
100
AcDbPolyline
 90
        9
 70
     0
 43
0.0
 10
1690.474595216625
 20
478.2522052574652
 10
1690.405741588423
 20
478.2435982759705
 10
1690.339769975506
 20
478.2538105740402
 10
1690.279214650017
 20
478.2824498504803
 10
1690.226401819662
 20
478.3284159393681
 10
1690.183360267409
 20
478.3899430724679
 10
1690.151743416633
 20
478.4646677104858
 10
1690.13276581554
 20
478.5497193374533
 10
1690.127156480803
 20
478.6418307304041
  0
LINE
  5
432A
330
1A
100
AcDbEntity
  8
SEIHIN
  6
Continuous
 62
     3
100
AcDbLine
 10
1724.220687654383
 20
497.5715142691499
 30
0.0
 11
1721.890623598119
 21
355.4283939093695
 31
0.0
  0
ARC
  5
432B
330
1A
100
AcDbEntity
  8
SEIHIN
  6
Continuous
 62
     3
100
AcDbCircle
 10
1606.668184230978
 20
360.1724844072135
 30
0.0
 40
6.828151665474152
100
AcDbArc
 50
185.7261095107189
 51
231.0946670139978
  0
LWPOLYLINE
  5
432C
330
1A
100
AcDbEntity
  8
SEIHIN
  6
Continuous
 62
     3
100
AcDbPolyline
 90
        6
 70
     0
 43
0.0
 10
1670.363105176778
 20
342.1399386853147
 10
1670.366973483765
 20
342.628906612513
 10
1670.397400551671
 20
346.4742054710393
 10
1670.519219914335
 20
361.8554317712781
 10
1671.008253113639
 20
423.3808245979355
 10
1671.49253227874
 20
483.970538710769
  0
LINE
  5
432D
330
1A
100
AcDbEntity
  8
SEIHIN
  6
Continuous
 62
     3
100
AcDbLine
 10
1649.974475629796
 20
516.7878479678327
 30
0.0
 11
1597.569867641478
 21
503.2245373693242
 31
0.0
  0
LWPOLYLINE
  5
432E
330
1A
100
AcDbEntity
  8
SEIHIN
  6
Continuous
 62
     3
100
AcDbPolyline
 90
        3
 70
     0
 43
0.0
 10
1597.569867641478
 20
503.2245373693242
 10
1597.467438641975
 20
503.1861207758736
 10
1597.424341411531
 20
503.1407971434912
  0
LWPOLYLINE
  5
432F
330
1A
100
AcDbEntity
  8
SEIHIN
  6
Continuous
 62
     3
100
AcDbPolyline
 90
       24
 70
     0
 43
0.0
 10
1597.424341411531
 20
503.1407971434912
 10
1597.305026430107
 20
501.8096775338938
 10
1597.563751152844
 20
500.4798846844198
 10
1598.199118191036
 20
499.1586008909409
 10
1599.207695886844
 20
497.8529624913774
 10
1600.584036847899
 20
496.5700213218772
 10
1602.320707369013
 20
495.3167066294065
 10
1604.408327582098
 20
494.0997876464405
 10
1606.835622117424
 20
492.9258370299091
 10
1609.589481002616
 20
491.8011953618591
 10
1612.655030470448
 20
490.7319369035665
 10
1616.015713293003
 20
489.7238367880634
 10
1619.653378208322
 20
488.7823398282773
 10
1623.54837795652
 20
487.9125311092514
 10
1627.679675395892
 20
487.1191085232724
 10
1632.024957125852
 20
486.40635739626
 10
1636.560754003035
 20
485.7781273424445
 10
1641.262567899629
 20
485.2378114723571
 10
1646.105004019329
 20
484.7883280664247
 10
1651.061908056246
 20
484.4321048131489
 10
1656.106507455981
 20
484.1710656970083
 10
1661.211556015893
 20
484.0066206068934
 10
1666.349481043579
 20
483.9396577212103
 10
1671.49253227874
 20
483.970538710769
  0
LWPOLYLINE
  5
4330
330
1A
100
AcDbEntity
  8
SEIHIN
  6
Continuous
 62
     3
100
AcDbPolyline
 90
        3
 70
     0
 43
0.0
 10
1671.49253227874
 20
483.970538710769
 10
1671.667649091719
 20
483.9816930650838
 10
1671.816079666065
 20
484.008203670641
  0
LINE
  5
4331
330
1A
100
AcDbEntity
  8
SEIHIN
  6
Continuous
 62
     3
100
AcDbLine
 10
1671.816079666065
 20
484.008203670641
 30
0.0
 11
1724.220687654383
 21
497.5715142691499
 31
0.0
  0
LINE
  5
4332
330
1A
100
AcDbEntity
  8
SEIHIN
  6
Continuous
 62
     3
100
AcDbLine
 10
1724.220687654383
 20
497.5715142691499
 30
0.0
 11
1726.165231302646
 21
499.6304071654369
 31
0.0
  0
LINE
  5
4333
330
1A
100
AcDbEntity
  8
SEIHIN
  6
Continuous
 62
     3
100
AcDbLine
 10
1726.165231302646
 20
499.6304071654369
 30
0.0
 11
1724.751017740273
 21
499.2643817616529
 31
0.0
  0
LINE
  5
4334
330
1A
100
AcDbEntity
  8
SEIHIN
  6
Continuous
 62
     3
100
AcDbLine
 10
1724.751017740273
 20
499.2643817616529
 30
0.0
 11
1723.557329663024
 21
499.5733309699565
 31
0.0
  0
LWPOLYLINE
  5
4335
330
1A
100
AcDbEntity
  8
SEIHIN
  6
Continuous
 62
     3
100
AcDbPolyline
 90
        6
 70
     0
 43
0.0
 10
1723.557329663024
 20
499.5733309699565
 10
1723.686466105323
 20
499.5322430694034
 10
1723.780574793647
 20
499.4852121323062
 10
1723.835714872386
 20
499.4342076062869
 10
1723.849577318936
 20
499.3813653352938
 10
1723.821581635348
 20
499.3288981199082
  0
LINE
  5
4336
330
1A
100
AcDbEntity
  8
SEIHIN
  6
Continuous
 62
     3
100
AcDbLine
 10
1723.821581635348
 20
499.3288981199082
 30
0.0
 11
1722.019661262539
 21
497.4210154871022
 31
0.0
  0
ARC
  5
4337
330
1A
100
AcDbEntity
  8
SEIHIN
  6
Continuous
 62
     3
100
AcDbCircle
 10
1721.649957558375
 20
497.8768015539688
 30
0.0
 40
0.5868745757166138
100
AcDbArc
 50
280.3513304844896
 51
309.0466933330491
  0
LINE
  5
4338
330
1A
100
AcDbEntity
  8
SEIHIN
  6
Continuous
 62
     3
100
AcDbLine
 10
1671.514006139838
 20
484.2960466928168
 30
0.0
 11
1721.755409290214
 21
497.2994786808079
 31
0.0
  0
LWPOLYLINE
  5
4339
330
1A
100
AcDbEntity
  8
SEIHIN
  6
Continuous
 62
     3
100
AcDbPolyline
 90
        3
 70
     0
 43
0.0
 10
1671.514006139838
 20
484.2960466928168
 10
1671.217677832052
 20
484.2430875491575
 10
1670.858593423264
 20
484.2205965558571
  0
LWPOLYLINE
  5
433A
330
1A
100
AcDbEntity
  8
SEIHIN
  6
Continuous
 62
     3
100
AcDbPolyline
 90
       24
 70
     0
 43
0.0
 10
1598.390490734077
 20
502.9767216942639
 10
1598.314048337767
 20
501.6773461814238
 10
1598.602890390533
 20
500.3799721307616
 10
1599.25548742643
 20
499.0914693502343
 10
1600.268383837332
 20
497.8186606729707
 10
1601.63621617095
 20
496.5682858292545
 10
1603.351741531186
 20
495.3469657585485
 10
1605.405875930455
 20
494.1611675505367
 10
1607.787742390885
 20
493.0171702008249
 10
1610.484728539698
 20
491.9210313626347
 10
1613.482553393783
 20
490.8785552705319
 10
1616.765342979845
 20
489.8952620060611
 10
1620.315714389688
 20
488.9763582680063
 10
1624.114867825561
 20
488.1267098020692
 10
1628.142686148164
 20
487.3508156359505
 10
1632.377841400191
 20
486.6527842562602
 10
1636.79790774136
 20
486.0363118534098
 10
1641.379480196906
 20
485.5046627496788
 10
1646.098298590746
 20
485.0606521140933
 10
1650.929376007097
 20
484.7066310556458
 10
1655.847131100271
 20
484.4444741737886
 10
1660.825523552098
 20
484.2755696321212
 10
1665.838191959664
 20
484.2008118078386
 10
1670.858593423264
 20
484.2205965558571
  0
LWPOLYLINE
  5
433B
330
1A
100
AcDbEntity
  8
SEIHIN
  6
Continuous
 62
     3
100
AcDbPolyline
 90
        3
 70
     0
 43
0.0
 10
1598.390490734077
 20
502.9767216942639
 10
1598.473541667606
 20
503.0674207657159
 10
1598.682007677624
 20
503.1463549877155
  0
LINE
  5
433C
330
1A
100
AcDbEntity
  8
SEIHIN
  6
Continuous
 62
     3
100
AcDbLine
 10
1648.923410828
 20
516.1497869757069
 30
0.0
 11
1598.682007677624
 21
503.1463549877155
 31
0.0
  0
ARC
  5
433D
330
1A
100
AcDbEntity
  8
SEIHIN
  6
Continuous
 62
     3
100
AcDbCircle
 10
1649.528344894433
 20
513.6426210298525
 30
0.0
 40
2.579113472645162
100
AcDbArc
 50
93.00826515101775
 51
103.5651668981239
  0
LINE
  5
433E
330
1A
100
AcDbEntity
  8
SEIHIN
  6
Continuous
 62
     3
100
AcDbLine
 10
1649.392992988178
 20
516.2181804188501
 30
0.0
 11
1656.7644854224
 21
516.6845517290915
 31
0.0
  0
ARC
  5
433F
330
1A
100
AcDbEntity
  8
SEIHIN
  6
Continuous
 62
     3
100
AcDbCircle
 10
1657.009779122242
 20
513.51699173067
 30
0.0
 40
3.177043490854579
100
AcDbArc
 50
77.28777344682242
 51
94.42810888463075
  0
LINE
  5
4340
330
1A
100
AcDbEntity
  8
SEIHIN
  6
Continuous
 62
     3
100
AcDbLine
 10
1657.70890143302
 20
516.6161582859479
 30
0.0
 11
1656.515213355771
 21
516.9251074942519
 31
0.0
  0
LINE
  5
4341
330
1A
100
AcDbEntity
  8
SEIHIN
  6
Continuous
 62
     3
100
AcDbLine
 10
1656.518738334319
 20
517.2018830359422
 30
0.0
 11
1649.974475629796
 21
516.7878479678327
 31
0.0
  0
ARC
  5
4342
330
1A
100
AcDbEntity
  8
SEIHIN
  6
Continuous
 62
     3
100
AcDbCircle
 10
1656.211835312699
 20
510.5664010553644
 30
0.0
 40
4.484098113585168
100
AcDbArc
 50
78.27747365543075
 51
93.43840867600077
  0
LINE
  5
4343
330
1A
100
AcDbEntity
  8
SEIHIN
  6
Continuous
 62
     3
100
AcDbLine
 10
1657.122879704524
 20
514.9569743674025
 30
0.0
 11
1657.211304851509
 21
514.9340882552971
 31
0.0
  0
LINE
  5
4344
330
1A
100
AcDbEntity
  8
SEIHIN
  6
Continuous
 62
     3
100
AcDbLine
 10
1657.211304851509
 20
514.9340882552971
 30
0.0
 11
1657.244596600491
 21
515.9383358383322
 31
0.0
  0
ARC
  5
4345
330
1A
100
AcDbEntity
  8
SEIHIN
  6
Continuous
 62
     3
100
AcDbCircle
 10
1657.087805542274
 20
514.2428949672078
 30
0.0
 40
0.7021397587949516
100
AcDbArc
 50
48.51290371952981
 51
79.86954962920609
  0
ARC
  5
4346
330
1A
100
AcDbEntity
  8
SEIHIN
  6
Continuous
 62
     3
100
AcDbCircle
 10
1650.807384897111
 20
511.150466281307
 30
0.0
 40
3.559941897302295
100
AcDbArc
 50
93.50994677107538
 51
103.0634852780103
  0
LINE
  5
4347
330
1A
100
AcDbEntity
  8
SEIHIN
  6
Continuous
 62
     3
100
AcDbLine
 10
1650.589438779645
 20
514.703730386612
 30
0.0
 11
1655.942899115386
 21
515.0424271069007
 31
0.0
  0
LINE
  5
4348
330
1A
100
AcDbEntity
  8
SEIHIN
  6
Continuous
 62
     3
100
AcDbLine
 10
1657.552938978505
 20
514.7688713235027
 30
0.0
 11
1658.714944724199
 21
513.2651252359813
 31
0.0
  0
LINE
  5
4349
330
1A
100
AcDbEntity
  8
SEIHIN
  6
Continuous
 62
     3
100
AcDbLine
 10
1658.714944724199
 20
513.2651252359813
 30
0.0
 11
1658.748236473182
 21
514.2693728190163
 31
0.0
  0
ARC
  5
434A
330
1A
100
AcDbEntity
  8
SEIHIN
  6
Continuous
 62
     3
100
AcDbCircle
 10
1659.779387367706
 20
514.420196436273
 30
0.0
 40
1.5707411050396
100
AcDbArc
 50
227.3382376316165
 51
261.0442157171361
  0
LINE
  5
434B
330
1A
100
AcDbEntity
  8
SEIHIN
  6
Continuous
 62
     3
100
AcDbLine
 10
1630.076699288407
 20
509.3590416441568
 30
0.0
 11
1634.78094326632
 21
510.6785895232745
 31
0.0
  0
LINE
  5
434C
330
1A
100
AcDbEntity
  8
SEIHIN
  6
Continuous
 62
     3
100
AcDbLine
 10
1634.78094326632
 20
510.6785895232745
 30
0.0
 11
1650.002729291681
 21
514.6182776471134
 31
0.0
  0
LINE
  5
434D
330
1A
100
AcDbEntity
  8
SEIHIN
  6
Continuous
 62
     3
100
AcDbLine
 10
1650.002729291681
 20
514.6182776471134
 30
0.0
 11
1649.984325076262
 21
515.6263784073696
 31
0.0
  0
LINE
  5
434E
330
1A
100
AcDbEntity
  8
SEIHIN
  6
Continuous
 62
     3
100
AcDbLine
 10
1600.926298488425
 20
501.9163626895749
 30
0.0
 11
1607.491143427252
 21
503.6154695878878
 31
0.0
  0
LINE
  5
434F
330
1A
100
AcDbEntity
  8
SEIHIN
  6
Continuous
 62
     3
100
AcDbLine
 10
1607.491143427252
 20
503.6154695878878
 30
0.0
 11
1612.200534305134
 21
504.732349693091
 31
0.0
  0
LINE
  5
4350
330
1A
100
AcDbEntity
  8
SEIHIN
  6
Continuous
 62
     3
100
AcDbLine
 10
1612.200534305134
 20
504.732349693091
 30
0.0
 11
1630.076699288407
 21
509.3590416441568
 31
0.0
  0
ARC
  5
4351
330
1A
100
AcDbEntity
  8
SEIHIN
  6
Continuous
 62
     3
100
AcDbCircle
 10
1601.035128466365
 20
501.3170376359896
 30
0.0
 40
0.6091260000638319
100
AcDbArc
 50
100.2920554827718
 51
141.0712060188201
  0
LINE
  5
4352
330
1A
100
AcDbEntity
  8
SEIHIN
  6
Continuous
 62
     3
100
AcDbLine
 10
1702.858634628191
 20
501.5620952131333
 30
0.0
 11
1707.54621258392
 21
500.4423538855328
 31
0.0
  0
LINE
  5
4353
330
1A
100
AcDbEntity
  8
SEIHIN
  6
Continuous
 62
     3
100
AcDbLine
 10
1659.53486662899
 20
512.8686045996748
 30
0.0
 11
1664.928845646612
 21
511.4725401010307
 31
0.0
  0
LWPOLYLINE
  5
4354
330
1A
100
AcDbEntity
  8
SEIHIN
  6
Continuous
 62
     3
100
AcDbPolyline
 90
        3
 70
     0
 43
0.0
 10
1664.928845646612
 20
511.4725401010307
 10
1667.706299082593
 20
510.7057018620882
 10
1669.611705955142
 20
510.1670335448841
  0
LINE
  5
4355
330
1A
100
AcDbEntity
  8
SEIHIN
  6
Continuous
 62
     3
100
AcDbLine
 10
1669.611705955142
 20
510.1670335448837
 30
0.0
 11
1671.818264695026
 21
509.5749283699576
 31
0.0
  0
LINE
  5
4356
330
1A
100
AcDbEntity
  8
SEIHIN
  6
Continuous
 62
     3
100
AcDbLine
 10
1671.818264695026
 20
509.5749283699576
 30
0.0
 11
1700.651015941802
 21
502.1124632245885
 31
0.0
  0
LINE
  5
4357
330
1A
100
AcDbEntity
  8
SEIHIN
  6
Continuous
 62
     3
100
AcDbLine
 10
1700.651015941802
 20
502.1124632245885
 30
0.0
 11
1702.858634628191
 21
501.5620952131333
 31
0.0
  0
LINE
  5
4358
330
1A
100
AcDbEntity
  8
SEIHIN
  6
Continuous
 62
     3
100
AcDbLine
 10
1707.54621258392
 20
500.4423538855328
 30
0.0
 11
1712.940191601542
 21
499.0462893868891
 31
0.0
  0
LINE
  5
4359
330
1A
100
AcDbEntity
  8
SEIHIN
  6
Continuous
 62
     3
100
AcDbLine
 10
1712.940191601542
 20
499.0462893868891
 30
0.0
 11
1712.958008804889
 21
500.0545420770488
 31
0.0
  0
ARC
  5
435A
330
1A
100
AcDbEntity
  8
SEIHIN
  6
Continuous
 62
     3
100
AcDbCircle
 10
1714.750514112437
 20
506.479423586579
 30
0.0
 40
7.650408591967797
100
AcDbArc
 50
256.31222604879
 51
267.9154001108474
  0
LINE
  5
435B
330
1A
100
AcDbEntity
  8
SEIHIN
  6
Continuous
 62
     3
100
AcDbLine
 10
1714.472229694601
 20
498.8340779824323
 30
0.0
 11
1720.282258423074
 21
498.5333287649284
 31
0.0
  0
ARC
  5
435C
330
1A
100
AcDbEntity
  8
SEIHIN
  6
Continuous
 62
     3
100
AcDbCircle
 10
1638.963994361968
 20
463.25146334738
 30
0.0
 40
24.74860352139725
100
AcDbArc
 50
77.50699808578066
 51
98.11053014752749
  0
LWPOLYLINE
  5
435D
330
1A
100
AcDbEntity
  8
SEIHIN
  6
Continuous
 62
     3
100
AcDbPolyline
 90
        6
 70
     0
 43
0.0
 10
1618.861900493557
 20
492.086703797039
 10
1621.576577695572
 20
490.6104800240475
 10
1625.32410480438
 20
489.247824322427
 10
1629.763580422797
 20
488.1282457305053
 10
1635.071695004963
 20
487.1995553391404
 10
1640.011612164399
 20
486.6127546786276
  0
ARC
  5
435E
330
1A
100
AcDbEntity
  8
SEIHIN
  6
Continuous
 62
     3
100
AcDbCircle
 10
1642.088843309086
 20
497.1924752752549
 30
0.0
 40
10.11766607151622
100
AcDbArc
 50
267.7178187800719
 51
296.5314626208002
  0
LWPOLYLINE
  5
435F
330
1A
100
AcDbEntity
  8
SEIHIN
  6
Continuous
 62
     3
100
AcDbPolyline
 90
        3
 70
     0
 43
0.0
 10
1640.011612164399
 20
486.6127546786276
 10
1643.259756126611
 20
486.3465176275033
 10
1646.6372528717
 20
486.1625786847136
  0
LWPOLYLINE
  5
4360
330
1A
100
AcDbEntity
  8
SEIHIN
  6
Continuous
 62
     3
100
AcDbPolyline
 90
        3
 70
     0
 43
0.0
 10
1617.089855771773
 20
493.8100324576842
 10
1617.798318769487
 20
492.9433635824559
 10
1618.861900493556
 20
492.086703797039
  0
LINE
  5
4361
330
1A
100
AcDbEntity
  8
SEIHIN
  6
Continuous
 62
     3
100
AcDbLine
 10
1646.196732825553
 20
486.881473986192
 30
0.0
 11
1646.728246380065
 21
486.8677369772583
 31
0.0
  0
LWPOLYLINE
  5
4362
330
1A
100
AcDbEntity
  8
SEIHIN
  6
Continuous
 62
     3
100
AcDbPolyline
 90
        6
 70
     0
 43
0.0
 10
1695.8120355643
 20
495.2610379710343
 10
1695.870474538591
 20
496.0353932025888
 10
1695.426936275502
 20
496.8219528709921
 10
1694.468281007849
 20
497.5567842928487
 10
1692.953955978135
 20
498.2572491858661
 10
1690.644626370899
 20
498.9724665811534
  0
LINE
  5
4363
330
1A
100
AcDbEntity
  8
SEIHIN
  6
Continuous
 62
     3
100
AcDbLine
 10
1690.644626370899
 20
498.9724665811534
 30
0.0
 11
1666.583492130773
 21
505.1999463692661
 31
0.0
  0
ARC
  5
4364
330
1A
100
AcDbEntity
  8
SEIHIN
  6
Continuous
 62
     3
100
AcDbCircle
 10
1654.515096972649
 20
453.3473102372361
 30
0.0
 40
53.23853900637519
100
AcDbArc
 50
76.89799924809041
 51
92.44531144116001
  0
LWPOLYLINE
  5
4365
330
1A
100
AcDbEntity
  8
SEIHIN
  6
Continuous
 62
     3
100
AcDbPolyline
 90
       19
 70
     0
 43
0.0
 10
1652.243633142977
 20
506.5373702823592
 10
1648.476090200666
 20
506.3987170190937
 10
1644.77649981507
 20
506.1680336733559
 10
1641.178342283643
 20
505.8474078673491
 10
1637.714179963808
 20
505.4397411783404
 10
1634.415362592377
 20
504.9487228801651
 10
1631.311743578873
 20
504.3787965562917
 10
1628.431409840207
 20
503.7351198865878
 10
1625.800427621635
 20
503.0235179717062
 10
1623.44260660426
 20
502.2504306174893
 10
1621.379284433814
 20
501.4228540564606
 10
1619.629133620715
 20
500.5482776338023
 10
1618.207992558868
 20
499.6346160307969
 10
1617.128722192463
 20
498.6901376390926
 10
1616.401089627894
 20
497.7233897339808
 10
1616.031679744069
 20
496.7431211238588
 10
1616.023835601031
 20
495.7582029758643
 10
1616.377628186162
 20
494.7775485342028
 10
1617.089855771775
 20
493.8100324576842
  0
LWPOLYLINE
  5
4366
330
1A
100
AcDbEntity
  8
SEIHIN
  6
Continuous
 62
     3
100
AcDbPolyline
 90
       19
 70
     0
 43
0.0
 10
1646.6372528717
 20
486.1625786847136
 10
1650.375452735104
 20
485.9782372397524
 10
1654.164416626445
 20
485.8866659084667
 10
1657.96985531304
 20
485.8886933898832
 10
1661.757330469179
 20
485.9843013357715
 10
1665.49256633488
 20
486.1726245166926
 10
1669.141759903462
 20
486.4519586521212
 10
1672.671886830811
 20
486.8197758337839
 10
1676.051000297931
 20
487.2727474026366
 10
1679.248520122149
 20
487.8067740724438
 10
1682.235509500576
 20
488.4170230273586
 10
1684.984936881381
 20
489.0979716577669
 10
1687.471920592972
 20
489.8434575386088
 10
1689.673954017284
 20
490.646734197877
 10
1691.571109269378
 20
491.5005321706014
 10
1693.146217540115
 20
492.3971247858
 10
1694.385024469848
 20
493.3283980910339
 10
1695.276319147024
 20
494.2859242817705
 10
1695.8120355643
 20
495.2610379710343
  0
LINE
  5
4367
330
1A
100
AcDbEntity
  8
SEIHIN
  6
Continuous
 62
     3
100
AcDbLine
 10
1600.527662455072
 20
501.3937290206051
 30
0.0
 11
1600.561272619705
 21
501.6997844459553
 31
0.0
  0
LINE
  5
4368
330
1A
100
AcDbEntity
  8
SEIHIN
  6
Continuous
 62
     3
100
AcDbLine
 10
1617.5855874625
 20
507.6069856906794
 30
0.0
 11
1617.178703714052
 21
507.7086822049562
 31
0.0
  0
LINE
  5
4369
330
1A
100
AcDbEntity
  8
SEIHIN
  6
Continuous
 62
     3
100
AcDbLine
 10
1689.141484888297
 20
489.0833438985167
 30
0.0
 11
1688.748559729963
 21
489.1886531617577
 31
0.0
  0
LINE
  5
436A
330
1A
100
AcDbEntity
  8
SEIHIN
  6
Continuous
 62
     3
100
AcDbLine
 10
1695.798392639637
 20
491.0132841835718
 30
0.0
 11
1688.748559729963
 21
489.1886531617577
 31
0.0
  0
LINE
  5
436B
330
1A
100
AcDbEntity
  8
SEIHIN
  6
Continuous
 62
     3
100
AcDbLine
 10
1695.798392639637
 20
491.0132841835718
 30
0.0
 11
1696.205276388085
 21
490.9115876692947
 31
0.0
  0
LWPOLYLINE
  5
436C
330
1A
100
AcDbEntity
  8
SEIHIN
  6
Continuous
 62
     3
100
AcDbPolyline
 90
        6
 70
     0
 43
0.0
 10
1723.468172889795
 20
499.3033046942635
 10
1723.496168573382
 20
499.355771909649
 10
1723.482306126833
 20
499.4086141806421
 10
1723.427166048094
 20
499.4596187066616
 10
1723.33305735977
 20
499.5066496437582
 10
1723.203920917471
 20
499.5477375443117
  0
LINE
  5
436D
330
1A
100
AcDbEntity
  8
SEIHIN
  6
Continuous
 62
     3
100
AcDbLine
 10
1723.203920917471
 20
499.5477375443117
 30
0.0
 11
1721.673922044791
 21
499.9437303915467
 31
0.0
  0
ARC
  5
436E
330
1A
100
AcDbEntity
  8
SEIHIN
  6
Continuous
 62
     3
100
AcDbCircle
 10
1721.053804389591
 20
497.353301010736
 30
0.0
 40
2.663619770773656
100
AcDbArc
 50
76.53742771145967
 51
87.69019844818982
  0
LINE
  5
436F
330
1A
100
AcDbEntity
  8
SEIHIN
  6
Continuous
 62
     3
100
AcDbLine
 10
1721.161155520672
 20
500.0147566308644
 30
0.0
 11
1718.34382604389
 21
500.1605923358486
 31
0.0
  0
ARC
  5
4370
330
1A
100
AcDbEntity
  8
SEIHIN
  6
Continuous
 62
     3
100
AcDbCircle
 10
1718.450761291298
 20
502.8122258307351
 30
0.0
 40
2.653788864688227
100
AcDbArc
 50
256.5370026574813
 51
267.6906235021708
  0
LINE
  5
4371
330
1A
100
AcDbEntity
  8
SEIHIN
  6
Continuous
 62
     3
100
AcDbLine
 10
1717.832913224192
 20
500.231361807909
 30
0.0
 11
1660.251337356514
 21
515.1345702894802
 31
0.0
  0
ARC
  5
4372
330
1A
100
AcDbEntity
  8
SEIHIN
  6
Continuous
 62
     3
100
AcDbCircle
 10
1660.33771367909
 20
515.6619958789117
 30
0.0
 40
0.5344517017362845
100
AcDbArc
 50
227.6832013268738
 51
260.6992520218505
  0
LINE
  5
4373
330
1A
100
AcDbEntity
  8
SEIHIN
  6
Continuous
 62
     3
100
AcDbLine
 10
1659.977905113408
 20
515.2668042576049
 30
0.0
 11
1659.414439218052
 21
515.9959827825248
 31
0.0
  0
ARC
  5
4374
330
1A
100
AcDbEntity
  8
SEIHIN
  6
Continuous
 62
     3
100
AcDbCircle
 10
1659.053306077434
 20
515.5993178031706
 30
0.0
 40
0.5364328952429027
100
AcDbArc
 50
47.68453349630529
 51
80.69791985242053
  0
LINE
  5
4375
330
1A
100
AcDbEntity
  8
SEIHIN
  6
Continuous
 62
     3
100
AcDbLine
 10
1659.140014902447
 20
516.1286965246579
 30
0.0
 11
1657.610016029767
 21
516.5246893718928
 31
0.0
  0
LINE
  5
4376
330
1A
100
AcDbEntity
  8
SEIHIN
  6
Continuous
 62
     3
100
AcDbLine
 10
1624.24249521384
 20
509.5369259757347
 30
0.0
 11
1624.635420372175
 21
509.4316167124937
 31
0.0
  0
LINE
  5
4377
330
1A
100
AcDbEntity
  8
SEIHIN
  6
Continuous
 62
     3
100
AcDbLine
 10
1617.5855874625
 20
507.6069856906794
 30
0.0
 11
1624.635420372175
 21
509.4316167124937
 31
0.0
  0
LINE
  5
4378
330
1A
100
AcDbEntity
  8
SEIHIN
  6
Continuous
 62
     3
100
AcDbLine
 10
1712.958008804889
 20
500.0545420770488
 30
0.0
 11
1659.568158377972
 21
513.8728521827099
 31
0.0
  0
ARC
  5
4379
330
1A
100
AcDbEntity
  8
SEIHIN
  6
Continuous
 62
     3
100
AcDbCircle
 10
1714.810685067396
 20
507.7934447674622
 30
0.0
 40
7.957576527143269
100
AcDbArc
 50
256.5368956421424
 51
267.6907305175102
  0
LINE
  5
437A
330
1A
100
AcDbEntity
  8
SEIHIN
  6
Continuous
 62
     3
100
AcDbLine
 10
1720.30007562642
 20
499.5415814550881
 30
0.0
 11
1714.490046897949
 21
499.8423306725924
 31
0.0
  0
ARC
  5
437B
330
1A
100
AcDbEntity
  8
SEIHIN
  6
Continuous
 62
     3
100
AcDbCircle
 10
1720.16647638915
 20
496.2286172488814
 30
0.0
 40
3.31565688632071
100
AcDbArc
 50
76.53689564216907
 51
87.69073051748403
  0
LINE
  5
437C
330
1A
100
AcDbEntity
  8
SEIHIN
  6
Continuous
 62
     3
100
AcDbLine
 10
1721.048967739896
 20
499.4245494266644
 30
0.0
 11
1720.938424831863
 21
499.4531600365646
 31
0.0
  0
LWPOLYLINE
  5
437D
330
1A
100
AcDbEntity
  8
SEIHIN
  6
Continuous
 62
     3
100
AcDbPolyline
 90
        6
 70
     0
 43
0.0
 10
1721.048967739896
 20
499.4245494266644
 10
1721.210325848403
 20
499.3732109130608
 10
1721.327909711169
 20
499.3144506820137
 10
1721.396800357308
 20
499.2507268928241
 10
1721.414115834528
 20
499.1847053489139
 10
1721.379131771931
 20
499.119147977344
  0
LINE
  5
437E
330
1A
100
AcDbEntity
  8
SEIHIN
  6
Continuous
 62
     3
100
AcDbLine
 10
1720.063277906819
 20
497.7259150829061
 30
0.0
 11
1721.379131771931
 21
499.119147977344
 31
0.0
  0
ARC
  5
437F
330
1A
100
AcDbEntity
  8
SEIHIN
  6
Continuous
 62
     3
100
AcDbCircle
 10
1719.601364736564
 20
498.2953758204364
 30
0.0
 40
0.7332457353731923
100
AcDbArc
 50
280.3510850883975
 51
309.0469387293305
  0
LINE
  5
4380
330
1A
100
AcDbEntity
  8
SEIHIN
  6
Continuous
 62
     3
100
AcDbLine
 10
1670.639503128806
 20
484.8677020395696
 30
0.0
 11
1719.733113874784
 21
497.5740634934784
 31
0.0
  0
ARC
  5
4381
330
1A
100
AcDbEntity
  8
SEIHIN
  6
Continuous
 62
     3
100
AcDbCircle
 10
1669.791960281399
 20
488.6215897450394
 30
0.0
 40
3.848376512696039
100
AcDbArc
 50
270.1640527566533
 51
282.7227695916979
  0
LWPOLYLINE
  5
4382
330
1A
100
AcDbEntity
  8
SEIHIN
  6
Continuous
 62
     3
100
AcDbPolyline
 90
       23
 70
     0
 43
0.0
 10
1600.525698563382
 20
502.7035086216939
 10
1600.525276081175
 20
501.4100643396735
 10
1600.89835742227
 20
500.1202293961293
 10
1601.642855715498
 20
498.8412186234825
 10
1602.754606528464
 20
497.5801863079725
 10
1604.227391161754
 20
496.3441861713793
 10
1606.052971433905
 20
495.1401319152593
 10
1608.221135762577
 20
493.974758548403
 10
1610.719756284145
 20
492.8545847138287
 10
1613.534856692235
 20
491.7858762260404
 10
1616.650690415711
 20
490.7746110225141
 10
1620.04982869884
 20
489.8264457254493
 10
1623.713258090944
 20
488.9466840008383
 10
1627.620486800198
 20
488.1402468918301
 10
1631.749659316713
 20
487.4116452923406
 10
1636.077678663708
 20
486.7649547148751
 10
1640.580335592972
 20
486.2037924937028
 10
1645.23244400193
 20
485.7312975509064
 10
1650.007981814859
 20
485.3501128384766
 10
1654.880236540203
 20
485.062370554673
 10
1659.82195468981
 20
484.8696802173392
 10
1664.805494224287
 20
484.7731196608913
 10
1669.802979171765
 20
484.7732290073325
  0
ARC
  5
4383
330
1A
100
AcDbEntity
  8
SEIHIN
  6
Continuous
 62
     3
100
AcDbCircle
 10
1600.985036007124
 20
502.3450502438784
 30
0.0
 40
0.5826519508673107
100
AcDbArc
 50
99.31623222861345
 51
142.0321866054331
  0
LINE
  5
4384
330
1A
100
AcDbEntity
  8
SEIHIN
  6
Continuous
 62
     3
100
AcDbLine
 10
1649.984325076262
 20
515.6263784073696
 30
0.0
 11
1600.890714330284
 21
502.9200169534608
 31
0.0
  0
ARC
  5
4385
330
1A
100
AcDbEntity
  8
SEIHIN
  6
Continuous
 62
     3
100
AcDbCircle
 10
1650.740139542466
 20
512.493905147224
 30
0.0
 40
3.222366247472231
100
AcDbArc
 50
93.00817894859168
 51
103.5652531005105
  0
LINE
  5
4386
330
1A
100
AcDbEntity
  8
SEIHIN
  6
Continuous
 62
     3
100
AcDbLine
 10
1655.954073103319
 20
516.0523991877305
 30
0.0
 11
1650.571034564225
 21
515.7118311468678
 31
0.0
  0
ARC
  5
4387
330
1A
100
AcDbEntity
  8
SEIHIN
  6
Continuous
 62
     3
100
AcDbCircle
 10
1656.260566960856
 20
512.094990916006
 30
0.0
 40
3.96925921474289
100
AcDbArc
 50
77.28727199886491
 51
94.42861033258763
  0
LINE
  5
4388
330
1A
100
AcDbEntity
  8
SEIHIN
  6
Continuous
 62
     3
100
AcDbLine
 10
1657.244596600491
 20
515.9383358383322
 30
0.0
 11
1657.134053692457
 21
515.9669464482324
 31
0.0
  0
ARC
  5
4389
330
1A
100
AcDbEntity
  8
SEIHIN
  6
Continuous
 62
     3
100
AcDbCircle
 10
1657.13668152216
 20
515.2793674866464
 30
0.0
 40
0.6677461738229084
100
AcDbArc
 50
47.68286592518977
 51
80.69958742348594
  0
LINE
  5
438A
330
1A
100
AcDbEntity
  8
SEIHIN
  6
Continuous
 62
     3
100
AcDbLine
 10
1658.748236473182
 20
514.2693728190163
 30
0.0
 11
1657.586230727487
 21
515.7731189065377
 31
0.0
  0
ARC
  5
438B
330
1A
100
AcDbEntity
  8
SEIHIN
  6
Continuous
 62
     3
100
AcDbCircle
 10
1659.827154565969
 20
515.4543762267624
 30
0.0
 40
1.60259081718078
100
AcDbArc
 50
227.68286592528
 51
260.699587423486
  0
LWPOLYLINE
  5
438C
330
1A
100
AcDbEntity
  8
SEIHIN
  6
Continuous
 62
     3
100
AcDbPolyline
 90
       32
 70
     0
 43
0.0
 10
1618.914606601549
 20
318.7166030581473
 10
1619.144011729545
 20
318.0611989802699
 10
1619.769497746483
 20
317.1579640855255
 10
1620.744835008807
 20
316.2757413032421
 10
1622.060015236365
 20
315.4235834330041
 10
1623.701542900297
 20
314.6102347677136
 10
1625.652573705431
 20
313.8440413653136
 10
1627.89308743554
 20
313.1328654069378
 10
1630.400093387852
 20
312.4840045202939
 10
1633.147866288776
 20
311.9041168961282
 10
1636.108210270018
 20
311.3991529661782
 10
1639.250748196344
 20
310.9742943436897
 10
1642.543233376098
 20
310.6339006530554
 10
1645.951880455891
 20
310.3814647941679
 10
1649.441712104047
 20
310.2195771005392
 10
1652.97691792536
 20
310.149898758975
 10
1656.521221924205
 20
310.1731447635495
 10
1660.038254745345
 20
310.2890765788
 10
1663.491926872729
 20
310.4965045874199
 10
1666.846798956764
 20
310.7933002973457
 10
1670.068445470001
 20
311.176418182966
 10
1673.12380795963
 20
311.6419269363321
 10
1675.981534271942
 20
312.1850498077008
 10
1678.612300267851
 20
312.8002136214493
 10
1680.989110728243
 20
313.4811059643983
 10
1683.087576361456
 20
314.2207399597153
 10
1684.886164070416
 20
315.0115259617235
 10
1686.366417911351
 20
315.8453494359376
 10
1687.513148476749
 20
316.7136542251685
 10
1688.314588759235
 20
317.6075303472751
 10
1688.762514896989
 20
318.5178054236369
 10
1688.812446911364
 20
318.7162568864089
  0
ARC
  5
438D
330
1A
100
AcDbEntity
  8
SEIHIN
  6
Continuous
 62
     3
100
AcDbCircle
 10
1670.326042790537
 20
521.4900533121774
 30
0.0
 40
3.28817998039098
100
AcDbArc
 50
165.3160726414004
 51
222.2096587951585
  0
LINE
  5
438E
330
1A
100
AcDbEntity
  8
SEIHIN
  6
Continuous
 62
     3
100
AcDbLine
 10
1721.776854411179
 20
355.1330757940102
 30
0.0
 11
1723.896355994211
 21
357.3772150587022
 31
0.0
  0
ARC
  5
438F
330
1A
100
AcDbEntity
  8
SEIHIN
  6
Continuous
 62
     3
100
AcDbCircle
 10
1716.287983567662
 20
509.5942276891831
 30
0.0
 40
3.288179980390759
100
AcDbArc
 50
165.3160726414004
 51
222.2096587951585
  0
LINE
  5
4390
330
1A
100
AcDbEntity
  8
SEIHIN
  6
Continuous
 62
     3
100
AcDbLine
 10
1681.541180214892
 20
313.1219525085696
 30
0.0
 11
1681.629562396861
 21
313.6906301702504
 31
0.0
  0
LINE
  5
4391
330
1A
100
AcDbEntity
  8
SEIHIN
  6
Continuous
 62
     3
100
AcDbLine
 10
1626.097563455782
 20
313.69063017025
 30
0.0
 11
1626.185945637752
 21
313.1219525085696
 31
0.0
  0
LINE
  5
4392
330
1A
100
AcDbEntity
  8
SEIHIN
  6
Continuous
 62
     3
100
AcDbLine
 10
1670.465664767824
 20
341.7935734775245
 30
0.0
 11
1721.598548966998
 21
355.0277377392929
 31
0.0
  0
ARC
  5
4393
330
1A
100
AcDbEntity
  8
SEIHIN
  6
Continuous
 62
     3
100
AcDbCircle
 10
1670.340383364281
 20
342.2776236504844
 30
0.0
 40
0.5000000000082558
100
AcDbArc
 50
270.6746630793014
 51
284.510818699099
  0
LINE
  5
4394
330
1A
100
AcDbEntity
  8
SEIHIN
  6
Continuous
 62
     3
100
AcDbLine
 10
1602.550035555761
 20
354.5399198518219
 30
0.0
 11
1603.260535629295
 21
353.9219174245038
 31
0.0
  0
LINE
  5
4395
330
1A
100
AcDbEntity
  8
SEIHIN
  6
Continuous
 62
     3
100
AcDbLine
 10
1597.299357397666
 20
501.9705894201308
 30
0.0
 11
1599.874103629287
 21
359.4912179802934
 31
0.0
  0
LINE
  5
4396
330
1A
100
AcDbEntity
  8
SEIHIN
  6
Continuous
 62
     3
100
AcDbLine
 10
1624.158276519456
 20
509.5911325612944
 30
0.0
 11
1624.154636143451
 21
509.3071805975153
 31
0.0
  0
LINE
  5
4397
330
1A
100
AcDbEntity
  8
SEIHIN
  6
Continuous
 62
     3
100
AcDbLine
 10
1723.504221298286
 20
498.9928753496685
 30
0.0
 11
1723.496757814849
 21
499.3660946303891
 31
0.0
  0
LWPOLYLINE
  5
4398
330
1A
100
AcDbEntity
  8
SEIHIN
  6
Continuous
 62
     3
100
AcDbPolyline
 90
        3
 70
     0
 43
0.0
 10
1646.615087848867
 20
488.22608137694
 10
1646.591302288156
 20
488.2060577559834
 10
1646.320037779794
 20
488.028869623224
  0
ARC
  5
4399
330
1A
100
AcDbEntity
  8
SEIHIN
  6
Continuous
 62
     3
100
AcDbCircle
 10
1694.89822171932
 20
480.6928342821268
 30
0.0
 40
0.2999999999999863
100
AcDbArc
 50
284.5108186990454
 51
341.42655694831
  0
LINE
  5
439A
330
1A
100
AcDbEntity
  8
SEIHIN
  6
Continuous
 62
     3
100
AcDbLine
 10
1695.182596563663
 20
480.5972782885681
 30
0.0
 11
1696.166913382225
 21
483.5266072781739
 31
0.0
  0
LINE
  5
439B
330
1A
100
AcDbEntity
  8
SEIHIN
  6
Continuous
 62
     3
100
AcDbLine
 10
1696.169376193578
 20
483.541668656823
 30
0.0
 11
1696.169376193578
 21
483.6260035030011
 31
0.0
  0
LINE
  5
439C
330
1A
100
AcDbEntity
  8
SEIHIN
  6
Continuous
 62
     3
100
AcDbLine
 10
1690.133555072337
 20
479.1497625786162
 30
0.0
 11
1694.973390561446
 21
480.4024041783606
 31
0.0
  0
ARC
  5
439D
330
1A
100
AcDbEntity
  8
SEIHIN
  6
Continuous
 62
     3
100
AcDbCircle
 10
1643.730939346228
 20
540.6617093176111
 30
0.0
 40
53.5983228647742
100
AcDbArc
 50
255.46607274713
 51
267.4022150515549
  0
ARC
  5
439E
330
1A
100
AcDbEntity
  8
SEIHIN
  6
Continuous
 62
     3
100
AcDbCircle
 10
1647.881860513547
 20
570.4845596970024
 30
0.0
 40
83.63412390009441
100
AcDbArc
 50
265.485581927049
 51
269.2095486719763
  0
ARC
  5
439F
330
1A
100
AcDbEntity
  8
SEIHIN
  6
Continuous
 62
     3
100
AcDbCircle
 10
1695.042695979019
 20
336.0568252162122
 30
0.0
 40
78.04063421314279
100
AcDbArc
 50
182.5426118767869
 51
192.8473694453687
  0
ARC
  5
43A0
330
1A
100
AcDbEntity
  8
SEIHIN
  6
Continuous
 62
     3
100
AcDbCircle
 10
1606.76389360676
 20
336.794856438846
 30
0.0
 40
83.98175093809292
100
AcDbArc
 50
347.5535794802827
 51
357.1338840441801
  0
LINE
  5
43A1
330
1A
100
AcDbEntity
  8
SEIHIN
  6
Continuous
 62
     3
100
AcDbLine
 10
1690.664850349568
 20
332.5960210929372
 30
0.0
 11
1691.536912801439
 21
347.247213772703
 31
0.0
  0
LINE
  5
43A2
330
1A
100
AcDbEntity
  8
SEIHIN
  6
Continuous
 62
     3
100
AcDbLine
 10
1616.149711455778
 20
347.9276658173406
 30
0.0
 11
1617.062275503075
 21
332.5960210929372
 31
0.0
  0
ARC
  5
43A3
330
1A
100
AcDbEntity
  8
SEIHIN
  6
Continuous
 62
     3
100
AcDbCircle
 10
1482.642793197191
 20
249.0780774893369
 30
0.0
 40
21.99980320165997
100
AcDbArc
 50
83.13200725155798
 51
89.92224664003106
  0
ARC
  5
43A4
330
1A
100
AcDbEntity
  8
SEIHIN
  6
Continuous
 62
     3
100
AcDbCircle
 10
1550.510063645517
 20
249.0779290816108
 30
0.0
 40
21.99995160934799
100
AcDbArc
 50
90.06088706770729
 51
96.83236897620576
  0
LWPOLYLINE
  5
43A5
330
1A
100
AcDbEntity
  8
SEIHIN
  6
Continuous
 62
     3
100
AcDbPolyline
 90
        3
 70
     0
 43
0.0
 10
1485.281123290314
 20
270.9191101830065
 10
1495.932346920285
 20
269.6473289186797
 10
1506.544044717539
 20
268.3802532326717
  0
LWPOLYLINE
  5
43A6
330
1A
100
AcDbEntity
  8
SEIHIN
  6
Continuous
 62
     3
100
AcDbPolyline
 90
        3
 70
     0
 43
0.0
 10
1526.604396816949
 20
268.3797402999644
 10
1537.220394219162
 20
269.6473289186797
 10
1547.898391321725
 20
270.9223073967359
  0
ARC
  5
43A7
330
1A
100
AcDbEntity
  8
SEIHIN
  6
Continuous
 62
     3
100
AcDbCircle
 10
1526.827415945874
 20
267.5040917899523
 30
0.0
 40
0.895833768346131
100
AcDbArc
 50
107.3928642441526
 51
182.2607655871006
  0
ARC
  5
43A8
330
1A
100
AcDbEntity
  8
SEIHIN
  6
Continuous
 62
     3
100
AcDbCircle
 10
1506.351702016784
 20
267.5207656268112
 30
0.0
 40
0.8726704861635258
100
AcDbArc
 50
356.8379823074806
 51
73.86670421681531
  0
LINE
  5
43A9
330
1A
100
AcDbEntity
  8
SEIHIN
  6
Continuous
 62
     3
100
AcDbLine
 10
1507.237287491265
 20
267.4697718664374
 30
0.0
 11
1507.240862017007
 21
267.3674108419395
 31
0.0
  0
LINE
  5
43AA
330
1A
100
AcDbEntity
  8
SEIHIN
  6
Continuous
 62
     3
100
AcDbLine
 10
1525.911875553417
 20
267.3674108419395
 30
0.0
 11
1525.915452381354
 21
267.4698377927134
 31
0.0
  0
ARC
  5
43AB
330
1A
100
AcDbEntity
  8
SEIHIN
  6
Continuous
 62
     3
100
AcDbCircle
 10
1525.612058305311
 20
267.3778806909504
 30
0.0
 40
0.3000000000004083
100
AcDbArc
 50
270.0
 51
357.999999999996
  0
ARC
  5
43AC
330
1A
100
AcDbEntity
  8
SEIHIN
  6
Continuous
 62
     3
100
AcDbCircle
 10
1507.540679265112
 20
267.3778806909504
 30
0.0
 40
0.3000000000000114
100
AcDbArc
 50
182.000000000004
 51
270.0
  0
LWPOLYLINE
  5
43AD
330
1A
100
AcDbEntity
  8
SEIHIN
  6
Continuous
 62
     3
100
AcDbPolyline
 90
        6
 70
     0
 43
0.0
 10
1485.913862848553
 20
271.153874009563
 10
1487.717367436524
 20
271.1475349638295
 10
1490.053767342672
 20
271.1431742832083
 10
1492.675609915647
 20
271.1426539411514
 10
1495.360327083599
 20
271.1462203548949
 10
1498.186487701132
 20
271.1538740095625
  0
LWPOLYLINE
  5
43AE
330
1A
100
AcDbEntity
  8
SEIHIN
  6
Continuous
 62
     3
100
AcDbPolyline
 90
        3
 70
     0
 43
0.0
 10
1487.520950877408
 20
272.0778806909502
 10
1490.973351326534
 20
272.0582955648101
 10
1491.617672986015
 20
272.0538122527005
  0
LINE
  5
43AF
330
1A
100
AcDbEntity
  8
SEIHIN
  6
Continuous
 62
     3
100
AcDbLine
 10
1541.535064584406
 20
272.0538122527005
 30
0.0
 11
1545.631786693014
 21
272.0778806909502
 31
0.0
  0
LWPOLYLINE
  5
43B0
330
1A
100
AcDbEntity
  8
SEIHIN
  6
Continuous
 62
     3
100
AcDbPolyline
 90
        6
 70
     0
 43
0.0
 10
1534.966249869291
 20
271.1538740095625
 10
1537.336042800774
 20
271.1471987196637
 10
1540.065849495362
 20
271.1429462183551
 10
1542.722163719916
 20
271.1428321204575
 10
1545.080774614572
 20
271.1466100772968
 10
1547.238874721861
 20
271.1538740095625
  0
LINE
  5
43B1
330
1A
100
AcDbEntity
  8
SEIHIN
  6
Continuous
 62
     3
100
AcDbLine
 10
1491.617672986015
 20
272.0538122527005
 30
0.0
 11
1541.535064584406
 21
272.0538122527005
 31
0.0
  0
LINE
  5
43B2
330
1A
100
AcDbEntity
  8
SEIHIN
  6
Continuous
 62
     3
100
AcDbLine
 10
1487.520950877408
 20
272.0778806909502
 30
0.0
 11
1480.576551575895
 21
272.0778806909502
 31
0.0
  0
LINE
  5
43B3
330
1A
100
AcDbEntity
  8
SEIHIN
  6
Continuous
 62
     3
100
AcDbLine
 10
1552.576185994529
 20
272.0778806909502
 30
0.0
 11
1545.631786693014
 21
272.0778806909502
 31
0.0
  0
LINE
  5
43B4
330
1A
100
AcDbEntity
  8
SEIHIN
  6
Continuous
 62
     3
100
AcDbLine
 10
1498.186487701138
 20
271.153874009563
 30
0.0
 11
1534.966249869282
 21
271.1538740095625
 31
0.0
  0
LINE
  5
43B5
330
1A
100
AcDbEntity
  8
SEIHIN
  6
Continuous
 62
     3
100
AcDbLine
 10
1485.274310872981
 20
270.9229795058868
 30
0.0
 11
1485.281489201749
 21
270.922167486905
 31
0.0
  0
ARC
  5
43B6
330
1A
100
AcDbEntity
  8
SEIHIN
  6
Continuous
 62
     3
100
AcDbCircle
 10
1519.751369563961
 20
454.4338262145979
 30
0.0
 40
186.1759066130247
100
AcDbArc
 50
269.3334548975264
 51
272.1093463434607
  0
ARC
  5
43B7
330
1A
100
AcDbEntity
  8
SEIHIN
  6
Continuous
 62
     3
100
AcDbCircle
 10
1514.738239560469
 20
528.6189589407922
 30
0.0
 40
260.3640108006463
100
AcDbArc
 50
268.1965779032709
 51
270.6265942942329
  0
LINE
  5
43B8
330
1A
100
AcDbEntity
  8
SEIHIN
  6
Continuous
 62
     3
100
AcDbLine
 10
1524.456608991911
 20
267.0778806909502
 30
0.0
 11
1508.69612059156
 21
267.0778806909502
 31
0.0
  0
LINE
  5
43B9
330
1A
100
AcDbEntity
  8
SEIHIN
  6
Continuous
 62
     3
100
AcDbLine
 10
1508.69612059156
 20
267.0778806909502
 30
0.0
 11
1507.540679265112
 21
267.0778806909502
 31
0.0
  0
LINE
  5
43BA
330
1A
100
AcDbEntity
  8
SEIHIN
  6
Continuous
 62
     3
100
AcDbLine
 10
1525.612058305311
 20
267.0778806909502
 30
0.0
 11
1524.456608991911
 21
267.0778806909502
 31
0.0
  0
LINE
  5
43BB
330
1A
100
AcDbEntity
  8
SEIHIN
  6
Continuous
 62
     3
100
AcDbLine
 10
1552.576003203847
 20
270.0778806909502
 30
0.0
 11
1540.851587881387
 21
270.0778806909502
 31
0.0
  0
LINE
  5
43BC
330
1A
100
AcDbEntity
  8
SEIHIN
  6
Continuous
 62
     3
100
AcDbLine
 10
1492.297650307197
 20
270.0778806909502
 30
0.0
 11
1480.576734366578
 21
270.0778806909502
 31
0.0
  0
LINE
  5
43BD
330
1A
100
AcDbEntity
  8
SEIHIN
  6
Continuous
 62
     3
100
AcDbLine
 10
1547.238874721871
 20
271.1538740095634
 30
0.0
 11
1552.576101544623
 21
271.153874009563
 31
0.0
  0
LINE
  5
43BE
330
1A
100
AcDbEntity
  8
SEIHIN
  6
Continuous
 62
     3
100
AcDbLine
 10
1480.576636025801
 20
271.153874009563
 30
0.0
 11
1485.913862848554
 21
271.153874009563
 31
0.0
  0
LINE
  5
43BF
330
1A
100
AcDbEntity
  8
SEIHIN
  6
Continuous
 62
     3
100
AcDbLine
 10
1094.091440934763
 20
127.77788069095
 30
0.0
 11
1095.43578685604
 21
104.3925144324621
 31
0.0
  0
LINE
  5
43C0
330
1A
100
AcDbEntity
  8
SEIHIN
  6
Continuous
 62
     3
100
AcDbLine
 10
1169.047095013486
 20
104.3925144324621
 30
0.0
 11
1170.391440934763
 21
127.77788069095
 31
0.0
  0
ARC
  5
43C1
330
1A
100
AcDbEntity
  8
SEIHIN
  6
Continuous
 62
     3
100
AcDbCircle
 10
1069.211922233126
 20
110.131702172509
 30
0.0
 40
99.99999999999984
100
AcDbArc
 50
348.6069626737891
 51
356.7098797766635
  0
ARC
  5
43C2
330
1A
100
AcDbEntity
  8
SEIHIN
  6
Continuous
 62
     3
100
AcDbCircle
 10
1195.270959636401
 20
110.131702172509
 30
0.0
 40
99.99999999999996
100
AcDbArc
 50
183.2901202233363
 51
191.3930373262108
  0
LINE
  5
43C3
330
1A
100
AcDbEntity
  8
SEIHIN
  6
Continuous
 62
     3
100
AcDbLine
 10
1103.641440934763
 20
90.37788069095041
 30
0.0
 11
1104.541440934763
 21
84.3778806909504
 31
0.0
  0
LINE
  5
43C4
330
1A
100
AcDbEntity
  8
SEIHIN
  6
Continuous
 62
     3
100
AcDbLine
 10
1159.941440934763
 20
84.3778806909504
 30
0.0
 11
1160.841440934763
 21
90.37788069095041
 31
0.0
  0
LINE
  5
43C5
330
1A
100
AcDbEntity
  8
SEIHIN
  6
Continuous
 62
     3
100
AcDbLine
 10
1097.241440934763
 20
90.37788069095041
 30
0.0
 11
1167.241440934763
 21
90.37788069095041
 31
0.0
  0
LINE
  5
43C6
330
1A
100
AcDbEntity
  8
SEIHIN
  6
Continuous
 62
     3
100
AcDbLine
 10
1079.86732090234
 20
276.0778806909502
 30
0.0
 11
1184.615560967187
 21
276.0778806909502
 31
0.0
  0
LWPOLYLINE
  5
43C7
330
1A
100
AcDbEntity
  8
SEIHIN
  6
Continuous
 62
     3
100
AcDbPolyline
 90
        6
 70
     0
 43
0.0
 10
1182.035943674231
 20
128.5691544877491
 10
1182.044837795318
 20
129.0777051409886
 10
1182.114781974682
 20
133.0770030117173
 10
1182.394555886107
 20
149.0741956195393
 10
1183.513607599502
 20
213.0629837790812
 10
1184.615560967186
 20
276.0778806909502
  0
LWPOLYLINE
  5
43C8
330
1A
100
AcDbEntity
  8
SEIHIN
  6
Continuous
 62
     3
100
AcDbPolyline
 90
        6
 70
     0
 43
0.0
 10
1079.86732090234
 20
276.0778806909502
 10
1079.884804537777
 20
275.0780552468127
 10
1079.954739237383
 20
271.0787535350378
 10
1080.234480574894
 20
255.0815477281353
 10
1081.353487427902
 20
191.092741391175
 10
1082.446938195296
 20
128.5691544877318
  0
LINE
  5
43C9
330
1A
100
AcDbEntity
  8
SEIHIN
  6
Continuous
 62
     3
100
AcDbLine
 10
1181.666742693829
 20
128.0778806909502
 30
0.0
 11
1082.816139175697
 21
128.0778806909502
 31
0.0
  0
ARC
  5
43CA
330
1A
100
AcDbEntity
  8
SEIHIN
  6
Continuous
 62
     3
100
AcDbCircle
 10
1082.891282851014
 20
128.5187199412489
 30
0.0
 40
0.4471977376331564
100
AcDbArc
 50
173.5244580821488
 51
260.3265660987702
  0
ARC
  5
43CB
330
1A
100
AcDbEntity
  8
SEIHIN
  6
Continuous
 62
     3
100
AcDbCircle
 10
1181.591599018518
 20
128.5187199412467
 30
0.0
 40
0.4471977376301735
100
AcDbArc
 50
279.6734339006019
 51
6.475541920475799
  0
LINE
  5
43CC
330
1A
100
AcDbEntity
  8
SEIHIN
  6
Continuous
 62
     3
100
AcDbLine
 10
1132.241440934763
 20
84.3778806909504
 30
0.0
 11
1159.941440934763
 21
84.3778806909504
 31
0.0
  0
LINE
  5
43CD
330
1A
100
AcDbEntity
  8
SEIHIN
  6
Continuous
 62
     3
100
AcDbLine
 10
1104.541440934763
 20
84.3778806909504
 30
0.0
 11
1132.241440934763
 21
84.3778806909504
 31
0.0
  0
ARC
  5
43CE
330
1A
100
AcDbEntity
  8
SEIHIN
  6
Continuous
 62
     3
100
AcDbCircle
 10
1082.381576762072
 20
131.2702377736818
 30
0.0
 40
2.701873985698439
100
AcDbArc
 50
268.6138140832175
 51
271.3861859013012
  0
LINE
  5
43CF
330
1A
100
AcDbEntity
  8
SEIHIN
  6
Continuous
 62
     3
100
AcDbLine
 10
1079.741440934763
 20
276.0778806909502
 30
0.0
 11
1079.86732090234
 21
276.0778806909502
 31
0.0
  0
LINE
  5
43D0
330
1A
100
AcDbEntity
  8
SEIHIN
  6
Continuous
 62
     3
100
AcDbLine
 10
1184.615560967187
 20
276.0778806909502
 30
0.0
 11
1184.741440934764
 21
276.0778806909502
 31
0.0
  0
ARC
  5
43D1
330
1A
100
AcDbEntity
  8
SEIHIN
  6
Continuous
 62
     3
100
AcDbCircle
 10
1082.816139175697
 20
128.5778806909593
 30
0.0
 40
0.500000000008825
100
AcDbArc
 50
180.9999999989852
 51
270.000000000026
  0
LINE
  5
43D2
330
1A
100
AcDbEntity
  8
SEIHIN
  6
Continuous
 62
     3
100
AcDbLine
 10
1080.741440934763
 20
276.0778806909502
 30
0.0
 11
1080.886631302976
 21
276.0778806909502
 31
0.0
  0
LINE
  5
43D3
330
1A
100
AcDbEntity
  8
SEIHIN
  6
Continuous
 62
     3
100
AcDbLine
 10
1183.59625056655
 20
276.0778806909502
 30
0.0
 11
1183.741440934763
 21
276.0778806909502
 31
0.0
  0
LINE
  5
43D4
330
1A
100
AcDbEntity
  8
SEIHIN
  6
Continuous
 62
     3
100
AcDbLine
 10
1091.01635490968
 20
291.0048566389787
 30
0.0
 11
1088.261213509898
 21
291.0773603600255
 31
0.0
  0
LINE
  5
43D5
330
1A
100
AcDbEntity
  8
SEIHIN
  6
Continuous
 62
     3
100
AcDbLine
 10
1176.221668359628
 20
291.0773603600255
 30
0.0
 11
1173.466526959846
 21
291.0048566389787
 31
0.0
  0
LINE
  5
43D6
330
1A
100
AcDbEntity
  8
SEIHIN
  6
Continuous
 62
     3
100
AcDbLine
 10
1176.221668359628
 20
291.0773603600255
 30
0.0
 11
1176.241440934763
 21
291.0778806909502
 31
0.0
  0
LINE
  5
43D7
330
1A
100
AcDbEntity
  8
SEIHIN
  6
Continuous
 62
     3
100
AcDbLine
 10
1176.241440934763
 20
291.0778806909502
 30
0.0
 11
1176.776574206506
 21
291.0778806909502
 31
0.0
  0
LINE
  5
43D8
330
1A
100
AcDbEntity
  8
SEIHIN
  6
Continuous
 62
     3
100
AcDbLine
 10
1087.706307663021
 20
291.0778806909502
 30
0.0
 11
1088.241440934764
 21
291.0778806909502
 31
0.0
  0
LINE
  5
43D9
330
1A
100
AcDbEntity
  8
SEIHIN
  6
Continuous
 62
     3
100
AcDbLine
 10
1088.241440934764
 20
291.0778806909502
 30
0.0
 11
1088.261213509898
 21
291.0773603600255
 31
0.0
  0
LINE
  5
43DA
330
1A
100
AcDbEntity
  8
SEIHIN
  6
Continuous
 62
     3
100
AcDbLine
 10
1083.991440934763
 20
291.0778806909502
 30
0.0
 11
1083.991440934763
 21
276.0778806909502
 31
0.0
  0
LINE
  5
43DB
330
1A
100
AcDbEntity
  8
SEIHIN
  6
Continuous
 62
     3
100
AcDbLine
 10
1087.706307663021
 20
291.0778806909502
 30
0.0
 11
1083.991440934763
 21
291.0778806909502
 31
0.0
  0
LINE
  5
43DC
330
1A
100
AcDbEntity
  8
SEIHIN
  6
Continuous
 62
     3
100
AcDbLine
 10
1180.491440934763
 20
291.0778806909502
 30
0.0
 11
1176.776574206506
 21
291.0778806909502
 31
0.0
  0
LINE
  5
43DD
330
1A
100
AcDbEntity
  8
SEIHIN
  6
Continuous
 62
     3
100
AcDbLine
 10
1180.491440934763
 20
291.0778806909502
 30
0.0
 11
1180.491440934763
 21
276.0778806909502
 31
0.0
  0
CIRCLE
  5
43DE
330
1A
100
AcDbEntity
  8
SEIHIN
  6
Continuous
 62
     3
100
AcDbCircle
 10
1099.741440933554
 20
283.0781092613943
 30
0.0
 40
2.500822572052385
  0
CIRCLE
  5
43DF
330
1A
100
AcDbEntity
  8
SEIHIN
  6
Continuous
 62
     3
100
AcDbCircle
 10
1164.741440933554
 20
283.0781092613943
 30
0.0
 40
2.500822572052385
  0
LINE
  5
43E0
330
1A
100
AcDbEntity
  8
SEIHIN
  6
Continuous
 62
     3
100
AcDbLine
 10
1091.571024361636
 20
290.9902600744536
 30
0.0
 11
1107.241440934763
 21
290.5778806909502
 31
0.0
  0
ARC
  5
43E1
330
1A
100
AcDbEntity
  8
SEIHIN
  6
Continuous
 62
     3
100
AcDbCircle
 10
1132.241440934763
 20
445.8278806909456
 30
0.0
 40
157.2499999999955
100
AcDbArc
 50
260.8521574802052
 51
279.1478425197948
  0
LINE
  5
43E2
330
1A
100
AcDbEntity
  8
SEIHIN
  6
Continuous
 62
     3
100
AcDbLine
 10
1157.241440934763
 20
290.5778806909502
 30
0.0
 11
1172.91185750789
 21
290.9902600744536
 31
0.0
  0
LINE
  5
43E3
330
1A
100
AcDbEntity
  8
SEIHIN
  6
Continuous
 62
     3
100
AcDbLine
 10
1091.01635490968
 20
291.0048566389787
 30
0.0
 11
1091.571024361636
 21
290.9902600744536
 31
0.0
  0
LINE
  5
43E4
330
1A
100
AcDbEntity
  8
SEIHIN
  6
Continuous
 62
     3
100
AcDbLine
 10
1172.91185750789
 20
290.9902600744536
 30
0.0
 11
1173.466526959846
 21
291.0048566389787
 31
0.0
  0
LINE
  5
43E5
330
1A
100
AcDbEntity
  8
SEIHIN
  6
Continuous
 62
     3
100
AcDbLine
 10
1090.992690517629
 20
276.0778806909502
 30
0.0
 11
1091.01635490968
 21
291.0048566389787
 31
0.0
  0
LINE
  5
43E6
330
1A
100
AcDbEntity
  8
SEIHIN
  6
Continuous
 62
     3
100
AcDbLine
 10
1173.466526959846
 20
291.0048566389787
 30
0.0
 11
1173.490191351898
 21
276.0778806909502
 31
0.0
  0
LINE
  5
43E7
330
1A
100
AcDbEntity
  8
SEIHIN
  6
Continuous
 62
     3
100
AcDbLine
 10
1176.776574206506
 20
291.0778806909502
 30
0.0
 11
1176.525426207045
 21
276.0778806909502
 31
0.0
  0
LINE
  5
43E8
330
1A
100
AcDbEntity
  8
SEIHIN
  6
Continuous
 62
     3
100
AcDbLine
 10
1087.957455662482
 20
276.0778806909502
 30
0.0
 11
1087.706307663021
 21
291.0778806909502
 31
0.0
  0
LINE
  5
43E9
330
1A
100
AcDbEntity
  8
SEIHIN
  6
Continuous
 62
     3
100
AcDbLine
 10
1309.80861752064
 20
127.77788069095
 30
0.0
 11
1311.152963441917
 21
104.3925144324612
 31
0.0
  0
LINE
  5
43EA
330
1A
100
AcDbEntity
  8
SEIHIN
  6
Continuous
 62
     3
100
AcDbLine
 10
1384.764271599363
 20
104.3925144324621
 30
0.0
 11
1386.10861752064
 21
127.77788069095
 31
0.0
  0
ARC
  5
43EB
330
1A
100
AcDbEntity
  8
SEIHIN
  6
Continuous
 62
     3
100
AcDbCircle
 10
1284.929098819002
 20
110.131702172509
 30
0.0
 40
99.99999999999989
100
AcDbArc
 50
348.6069626737891
 51
356.7098797766635
  0
ARC
  5
43EC
330
1A
100
AcDbEntity
  8
SEIHIN
  6
Continuous
 62
     3
100
AcDbCircle
 10
1410.988136222278
 20
110.131702172509
 30
0.0
 40
100.0000000000004
100
AcDbArc
 50
183.2901202233363
 51
191.3930373262108
  0
LINE
  5
43ED
330
1A
100
AcDbEntity
  8
SEIHIN
  6
Continuous
 62
     3
100
AcDbLine
 10
1296.95861752064
 20
276.0778806909502
 30
0.0
 11
1299.533391913996
 21
128.5691544877318
 31
0.0
  0
ARC
  5
43EE
330
1A
100
AcDbEntity
  8
SEIHIN
  6
Continuous
 62
     3
100
AcDbCircle
 10
1300.033315761574
 20
128.5778806909502
 30
0.0
 40
0.5
100
AcDbArc
 50
180.9999999999757
 51
270.0
  0
LINE
  5
43EF
330
1A
100
AcDbEntity
  8
SEIHIN
  6
Continuous
 62
     3
100
AcDbLine
 10
1319.35861752064
 20
90.37788069095041
 30
0.0
 11
1320.25861752064
 21
84.3778806909504
 31
0.0
  0
LINE
  5
43F0
330
1A
100
AcDbEntity
  8
SEIHIN
  6
Continuous
 62
     3
100
AcDbLine
 10
1375.658617520639
 20
84.3778806909504
 30
0.0
 11
1376.55861752064
 21
90.37788069095041
 31
0.0
  0
LINE
  5
43F1
330
1A
100
AcDbEntity
  8
SEIHIN
  6
Continuous
 62
     3
100
AcDbLine
 10
1312.95861752064
 20
90.37788069095041
 30
0.0
 11
1382.95861752064
 21
90.37788069095041
 31
0.0
  0
LINE
  5
43F2
330
1A
100
AcDbEntity
  8
SEIHIN
  6
Continuous
 62
     3
100
AcDbLine
 10
1356.022244861062
 20
269.0770273289317
 30
0.0
 11
1356.020142453393
 21
265.6278806909504
 31
0.0
  0
LINE
  5
43F3
330
1A
100
AcDbEntity
  8
SEIHIN
  6
Continuous
 62
     3
100
AcDbLine
 10
1347.897092587887
 20
265.6278806909504
 30
0.0
 11
1347.894990180217
 21
269.0770273289317
 31
0.0
  0
LINE
  5
43F4
330
1A
100
AcDbEntity
  8
SEIHIN
  6
Continuous
 62
     3
100
AcDbLine
 10
1355.688207360444
 20
265.3278806909502
 30
0.0
 11
1348.229027680835
 21
265.3278806909502
 31
0.0
  0
ARC
  5
43F5
330
1A
100
AcDbEntity
  8
SEIHIN
  6
Continuous
 62
     3
100
AcDbCircle
 10
1355.719905400849
 20
265.6281178370309
 30
0.0
 40
0.300237146200809
100
AcDbArc
 50
270.0016203503699
 51
359.9547442042664
  0
LINE
  5
43F6
330
1A
100
AcDbEntity
  8
SEIHIN
  6
Continuous
 62
     3
100
AcDbLine
 10
1355.71991389169
 20
265.3278806909502
 30
0.0
 11
1355.688207360444
 21
265.3278806909502
 31
0.0
  0
LINE
  5
43F7
330
1A
100
AcDbEntity
  8
SEIHIN
  6
Continuous
 62
     3
100
AcDbLine
 10
1348.229027680835
 20
265.3278806909502
 30
0.0
 11
1348.197321149589
 21
265.3278806909502
 31
0.0
  0
ARC
  5
43F8
330
1A
100
AcDbEntity
  8
SEIHIN
  6
Continuous
 62
     3
100
AcDbCircle
 10
1348.19732702413
 20
265.6281152187367
 30
0.0
 40
0.3002345278440418
100
AcDbArc
 50
180.0447565235609
 51
269.9988789217531
  0
LWPOLYLINE
  5
43F9
330
1A
100
AcDbEntity
  8
SEIHIN
  6
Continuous
 62
     3
100
AcDbPolyline
 90
        6
 70
     0
 43
0.0
 10
1321.497991204716
 20
128.5691544877491
 10
1321.494567695832
 20
129.0777051409886
 10
1321.467653888563
 20
133.0770030117173
 10
1321.36015857198
 20
149.0741956195393
 10
1320.93270424149
 20
213.0629837790812
 10
1320.515625037066
 20
276.0778806909502
  0
LINE
  5
43FA
330
1A
100
AcDbEntity
  8
SEIHIN
  6
Continuous
 62
     3
100
AcDbLine
 10
1320.515625037066
 20
276.0778806909502
 30
0.0
 11
1320.847310172715
 21
276.0778806909502
 31
0.0
  0
LINE
  5
43FB
330
1A
100
AcDbEntity
  8
SEIHIN
  6
Continuous
 62
     3
100
AcDbLine
 10
1394.95861752064
 20
276.0778806909502
 30
0.0
 11
1394.238183724428
 21
128.5691544877318
 31
0.0
  0
LINE
  5
43FC
330
1A
100
AcDbEntity
  8
SEIHIN
  6
Continuous
 62
     3
100
AcDbLine
 10
1401.95861752064
 20
128.5778806909502
 30
0.0
 11
1401.95861752064
 21
276.0778806909502
 31
0.0
  0
LINE
  5
43FD
330
1A
100
AcDbEntity
  8
SEIHIN
  6
Continuous
 62
     3
100
AcDbLine
 10
1401.958541368218
 20
128.5691544877318
 30
0.0
 11
1401.95861752064
 21
128.5778806909502
 31
0.0
  0
LINE
  5
43FE
330
1A
100
AcDbEntity
  8
SEIHIN
  6
Continuous
 62
     3
100
AcDbLine
 10
1394.95861752064
 20
276.0778806909502
 30
0.0
 11
1401.95861752064
 21
276.0778806909502
 31
0.0
  0
ARC
  5
43FF
330
1A
100
AcDbEntity
  8
SEIHIN
  6
Continuous
 62
     3
100
AcDbCircle
 10
1347.426916219012
 20
265.5463317057852
 30
0.0
 40
0.5000000659343851
100
AcDbArc
 50
180.0261821764896
 51
270.0087208632571
  0
LINE
  5
4400
330
1A
100
AcDbEntity
  8
SEIHIN
  6
Continuous
 62
     3
100
AcDbLine
 10
1347.42699232291
 20
265.0463316456426
 30
0.0
 11
1356.490242718369
 21
265.0463316456426
 31
0.0
  0
ARC
  5
4401
330
1A
100
AcDbEntity
  8
SEIHIN
  6
Continuous
 62
     3
100
AcDbCircle
 10
1356.490318822267
 20
265.5463317057852
 30
0.0
 40
0.5000000659342714
100
AcDbArc
 50
269.991279136769
 51
359.9738178235104
  0
LINE
  5
4402
330
1A
100
AcDbEntity
  8
SEIHIN
  6
Continuous
 62
     3
100
AcDbLine
 10
1356.990318835997
 20
265.5461032231706
 30
0.0
 11
1356.99125252222
 21
268.6105918449521
 31
0.0
  0
ARC
  5
4403
330
1A
100
AcDbEntity
  8
SEIHIN
  6
Continuous
 62
     3
100
AcDbCircle
 10
1356.491456989975
 20
268.6108724449614
 30
0.0
 40
0.4997956110135213
100
AcDbArc
 50
359.967832456446
 51
89.99724322886049
  0
LINE
  5
4404
330
1A
100
AcDbEntity
  8
SEIHIN
  6
Continuous
 62
     3
100
AcDbLine
 10
1356.491481037508
 20
269.1106680553958
 30
0.0
 11
1347.425754003771
 21
269.1106680553958
 31
0.0
  0
ARC
  5
4405
330
1A
100
AcDbEntity
  8
SEIHIN
  6
Continuous
 62
     3
100
AcDbCircle
 10
1347.425778051304
 20
268.6108724449605
 30
0.0
 40
0.4997956110139192
100
AcDbArc
 50
90.00275677113952
 51
180.0321675435019
  0
LINE
  5
4406
330
1A
100
AcDbEntity
  8
SEIHIN
  6
Continuous
 62
     3
100
AcDbLine
 10
1346.925982519059
 20
268.6105918449521
 30
0.0
 11
1346.926916205282
 21
265.5461032231706
 31
0.0
  0
LINE
  5
4407
330
1A
100
AcDbEntity
  8
SEIHIN
  6
Continuous
 62
     3
100
AcDbLine
 10
1320.847310172715
 20
276.0778806909502
 30
0.0
 11
1394.95861752064
 21
276.0778806909502
 31
0.0
  0
LINE
  5
4408
330
1A
100
AcDbEntity
  8
SEIHIN
  6
Continuous
 62
     3
100
AcDbLine
 10
1296.95861752064
 20
276.0778806909502
 30
0.0
 11
1320.515625037066
 21
276.0778806909502
 31
0.0
  0
LINE
  5
4409
330
1A
100
AcDbEntity
  8
SEIHIN
  6
Continuous
 62
     3
100
AcDbLine
 10
1394.098302717277
 20
128.0778806909502
 30
0.0
 11
1321.835058689721
 21
128.0778806909502
 31
0.0
  0
LWPOLYLINE
  5
440A
330
1A
100
AcDbEntity
  8
SEIHIN
  6
Continuous
 62
     3
100
AcDbPolyline
 90
        9
 70
     0
 43
0.0
 10
1394.098302717277
 20
128.0778806909502
 10
1394.12529688544
 20
128.0872764074365
 10
1394.151276535398
 20
128.1151104389414
 10
1394.175265277452
 20
128.160336702791
 10
1394.196361545924
 20
128.2212554663729
 10
1394.213772482584
 20
128.2955772279629
 10
1394.226843734533
 20
128.3805087627579
 10
1394.235084046664
 20
128.4728581002714
 10
1394.238183724428
 20
128.5691544877318
  0
LINE
  5
440B
330
1A
100
AcDbEntity
  8
SEIHIN
  6
Continuous
 62
     3
100
AcDbLine
 10
1401.45861752064
 20
128.0778806909502
 30
0.0
 11
1394.098302717277
 21
128.0778806909502
 31
0.0
  0
ARC
  5
440C
330
1A
100
AcDbEntity
  8
SEIHIN
  6
Continuous
 62
     3
100
AcDbCircle
 10
1401.45861752064
 20
128.5778806909502
 30
0.0
 40
0.5000000000001066
100
AcDbArc
 50
270.0
 51
358.9999999999721
  0
LINE
  5
440D
330
1A
100
AcDbEntity
  8
SEIHIN
  6
Continuous
 62
     3
100
AcDbLine
 10
1321.835058689721
 20
128.0778806909502
 30
0.0
 11
1300.033315761574
 21
128.0778806909502
 31
0.0
  0
LINE
  5
440E
330
1A
100
AcDbEntity
  8
SEIHIN
  6
Continuous
 62
     3
100
AcDbLine
 10
1401.95861752064
 20
291.0778806909502
 30
0.0
 11
1400.220443494563
 21
291.0778806909502
 31
0.0
  0
LINE
  5
440F
330
1A
100
AcDbEntity
  8
SEIHIN
  6
Continuous
 62
     3
100
AcDbLine
 10
1401.95861752064
 20
291.0778806909502
 30
0.0
 11
1401.95861752064
 21
276.0778806909502
 31
0.0
  0
LINE
  5
4410
330
1A
100
AcDbEntity
  8
SEIHIN
  6
Continuous
 62
     3
100
AcDbLine
 10
1400.052412366996
 20
291.0773603600255
 30
0.0
 11
1400.065263704361
 21
291.0778806909502
 31
0.0
  0
LINE
  5
4411
330
1A
100
AcDbEntity
  8
SEIHIN
  6
Continuous
 62
     3
100
AcDbLine
 10
1400.052412366996
 20
291.0773603600255
 30
0.0
 11
1398.215195172849
 21
291.0048566389787
 31
0.0
  0
LINE
  5
4412
330
1A
100
AcDbEntity
  8
SEIHIN
  6
Continuous
 62
     3
100
AcDbLine
 10
1397.969089591851
 20
276.0778806909502
 30
0.0
 11
1398.047171341269
 21
290.9902600744536
 31
0.0
  0
ARC
  5
4413
330
1A
100
AcDbEntity
  8
SEIHIN
  6
Continuous
 62
     3
100
AcDbCircle
 10
1398.193595457776
 20
290.2791196389125
 30
0.0
 40
0.7260583591942142
100
AcDbArc
 50
88.29524016154222
 51
101.6346272338815
  0
LINE
  5
4414
330
1A
100
AcDbEntity
  8
SEIHIN
  6
Continuous
 62
     3
100
AcDbLine
 10
1320.25861752064
 20
84.3778806909504
 30
0.0
 11
1375.658617520639
 21
84.3778806909504
 31
0.0
  0
LINE
  5
4415
330
1A
100
AcDbEntity
  8
SEIHIN
  6
Continuous
 62
     3
100
AcDbLine
 10
1401.95861752064
 20
290.5778806909502
 30
0.0
 11
1401.95861752064
 21
288.5778806909502
 31
0.0
  0
LINE
  5
4416
330
1A
100
AcDbEntity
  8
SEIHIN
  6
Continuous
 62
     3
100
AcDbLine
 10
1398.04717134127
 20
290.9902600744536
 30
0.0
 11
1398.045012108134
 21
290.5778806909502
 31
0.0
  0
LINE
  5
4417
330
1A
100
AcDbEntity
  8
SEIHIN
  6
Continuous
 62
     3
100
AcDbLine
 10
1401.95861752064
 20
290.5778806909502
 30
0.0
 11
1401.95861752064
 21
291.0778806909502
 31
0.0
  0
LINE
  5
4418
330
1A
100
AcDbEntity
  8
SEIHIN
  6
Continuous
 62
     3
100
AcDbLine
 10
1401.95861752064
 20
273.6897966624529
 30
0.0
 11
1401.95861752064
 21
128.5778806909502
 31
0.0
  0
LINE
  5
4419
330
1A
100
AcDbEntity
  8
SEIHIN
  6
Continuous
 62
     3
100
AcDbLine
 10
1401.45861752064
 20
128.0778806909502
 30
0.0
 11
1397.45861752064
 21
128.0778806909502
 31
0.0
  0
LINE
  5
441A
330
1A
100
AcDbEntity
  8
SEIHIN
  6
Continuous
 62
     3
100
AcDbLine
 10
1399.790595475483
 20
276.0778806909502
 30
0.0
 11
1400.052412366996
 21
291.0773603600255
 31
0.0
  0
ARC
  5
441B
330
1A
100
AcDbEntity
  8
SEIHIN
  6
Continuous
 62
     3
100
AcDbCircle
 10
1133.856254512108
 20
426.652460415411
 30
0.0
 40
50.99999999999996
100
AcDbArc
 50
132.0330162307929
 51
164.9470607573027
  0
ARC
  5
441C
330
1A
100
AcDbEntity
  8
SEIHIN
  6
Continuous
 62
     3
100
AcDbCircle
 10
1133.856254512108
 20
426.652460415411
 30
0.0
 40
41.00000000000032
100
AcDbArc
 50
141.6225191522751
 51
38.3774808477249
  0
ARC
  5
441D
330
1A
100
AcDbEntity
  8
SEIHIN
  6
Continuous
 62
     3
100
AcDbCircle
 10
1133.856254512108
 20
426.652460415411
 30
0.0
 40
50.99999999999997
100
AcDbArc
 50
15.05293924269732
 51
47.96698376920701
  0
ARC
  5
441E
330
1A
100
AcDbEntity
  8
SEIHIN
  6
Continuous
 62
     3
100
AcDbCircle
 10
1133.856254512108
 20
426.652460415411
 30
0.0
 40
50.99999999999999
100
AcDbArc
 50
281.6181977266673
 51
344.9470607573027
  0
ARC
  5
441F
330
1A
100
AcDbEntity
  8
SEIHIN
  6
Continuous
 62
     3
100
AcDbCircle
 10
1133.856254512108
 20
426.652460415411
 30
0.0
 40
50.99999999999999
100
AcDbArc
 50
195.0529392427557
 51
258.3818022733327
  0
LINE
  5
4420
330
1A
100
AcDbEntity
  8
SEIHIN
  6
Continuous
 62
     3
100
AcDbLine
 10
1084.606254512109
 20
467.8162319148023
 30
0.0
 11
1084.606254512109
 21
397.5969391111357
 31
0.0
  0
LINE
  5
4421
330
1A
100
AcDbEntity
  8
SEIHIN
  6
Continuous
 62
     3
100
AcDbLine
 10
1183.106254512108
 20
467.8162319148023
 30
0.0
 11
1179.714615779596
 21
473.402460415411
 31
0.0
  0
LINE
  5
4422
330
1A
100
AcDbEntity
  8
SEIHIN
  6
Continuous
 62
     3
100
AcDbLine
 10
1179.714615779596
 20
473.402460415411
 30
0.0
 11
1178.537499697006
 21
473.402460415411
 31
0.0
  0
LINE
  5
4423
330
1A
100
AcDbEntity
  8
SEIHIN
  6
Continuous
 62
     3
100
AcDbLine
 10
1178.537499697006
 20
473.402460415411
 30
0.0
 11
1172.537499697006
 21
469.402460415411
 31
0.0
  0
LINE
  5
4424
330
1A
100
AcDbEntity
  8
SEIHIN
  6
Continuous
 62
     3
100
AcDbLine
 10
1172.537499697006
 20
469.402460415411
 30
0.0
 11
1095.175009327212
 21
469.402460415411
 31
0.0
  0
LINE
  5
4425
330
1A
100
AcDbEntity
  8
SEIHIN
  6
Continuous
 62
     3
100
AcDbLine
 10
1095.175009327212
 20
469.402460415411
 30
0.0
 11
1089.175009327212
 21
473.402460415411
 31
0.0
  0
LINE
  5
4426
330
1A
100
AcDbEntity
  8
SEIHIN
  6
Continuous
 62
     3
100
AcDbLine
 10
1089.175009327212
 20
473.402460415411
 30
0.0
 11
1087.997893244621
 21
473.402460415411
 31
0.0
  0
LINE
  5
4427
330
1A
100
AcDbEntity
  8
SEIHIN
  6
Continuous
 62
     3
100
AcDbLine
 10
1087.997893244621
 20
473.402460415411
 30
0.0
 11
1084.606254512109
 21
467.8162319148023
 31
0.0
  0
LINE
  5
4428
330
1A
100
AcDbEntity
  8
SEIHIN
  6
Continuous
 62
     3
100
AcDbLine
 10
1082.606254512109
 20
468.3758411746039
 30
0.0
 11
1082.606254512109
 21
431.902460415411
 31
0.0
  0
LINE
  5
4429
330
1A
100
AcDbEntity
  8
SEIHIN
  6
Continuous
 62
     3
100
AcDbLine
 10
1174.931948421542
 20
473.402460415411
 30
0.0
 11
1092.780560602676
 21
473.402460415411
 31
0.0
  0
LINE
  5
442A
330
1A
100
AcDbEntity
  8
SEIHIN
  6
Continuous
 62
     3
100
AcDbLine
 10
1177.931948421542
 20
475.402460415411
 30
0.0
 11
1174.931948421542
 21
473.402460415411
 31
0.0
  0
LINE
  5
442B
330
1A
100
AcDbEntity
  8
SEIHIN
  6
Continuous
 62
     3
100
AcDbLine
 10
1180.840092830191
 20
475.402460415411
 30
0.0
 11
1177.931948421542
 21
475.402460415411
 31
0.0
  0
LINE
  5
442C
330
1A
100
AcDbEntity
  8
SEIHIN
  6
Continuous
 62
     3
100
AcDbLine
 10
1185.106254512109
 20
423.402460415411
 30
0.0
 11
1184.106254512109
 21
423.402460415411
 31
0.0
  0
ARC
  5
442D
330
1A
100
AcDbEntity
  8
SEIHIN
  6
Continuous
 62
     3
100
AcDbCircle
 10
1133.856254512108
 20
442.652460415411
 30
0.0
 40
68.74999999999994
100
AcDbArc
 50
221.8018441931395
 51
318.1981558068605
  0
LINE
  5
442E
330
1A
100
AcDbEntity
  8
SEIHIN
  6
Continuous
 62
     3
100
AcDbLine
 10
1083.606254512109
 20
423.402460415411
 30
0.0
 11
1082.606254512109
 21
423.402460415411
 31
0.0
  0
LINE
  5
442F
330
1A
100
AcDbEntity
  8
SEIHIN
  6
Continuous
 62
     3
100
AcDbLine
 10
1082.606254512109
 20
431.902460415411
 30
0.0
 11
1083.606254512109
 21
431.902460415411
 31
0.0
  0
LINE
  5
4430
330
1A
100
AcDbEntity
  8
SEIHIN
  6
Continuous
 62
     3
100
AcDbLine
 10
1183.106254512108
 20
397.5969391111357
 30
0.0
 11
1183.106254512108
 21
467.8162319148023
 31
0.0
  0
LINE
  5
4431
330
1A
100
AcDbEntity
  8
SEIHIN
  6
Continuous
 62
     3
100
AcDbLine
 10
1185.106254512109
 20
431.902460415411
 30
0.0
 11
1185.106254512109
 21
468.3758411746039
 31
0.0
  0
LINE
  5
4432
330
1A
100
AcDbEntity
  8
SEIHIN
  6
Continuous
 62
     3
100
AcDbLine
 10
1083.606254512109
 20
431.902460415411
 30
0.0
 11
1083.606254512109
 21
423.402460415411
 31
0.0
  0
LINE
  5
4433
330
1A
100
AcDbEntity
  8
SEIHIN
  6
Continuous
 62
     3
100
AcDbLine
 10
1086.872416194027
 20
475.402460415411
 30
0.0
 11
1082.606254512109
 21
468.3758411746039
 31
0.0
  0
LINE
  5
4434
330
1A
100
AcDbEntity
  8
SEIHIN
  6
Continuous
 62
     3
100
AcDbLine
 10
1089.780560602676
 20
475.402460415411
 30
0.0
 11
1086.872416194027
 21
475.402460415411
 31
0.0
  0
LINE
  5
4435
330
1A
100
AcDbEntity
  8
SEIHIN
  6
Continuous
 62
     3
100
AcDbLine
 10
1092.780560602676
 20
473.402460415411
 30
0.0
 11
1089.780560602676
 21
475.402460415411
 31
0.0
  0
LINE
  5
4436
330
1A
100
AcDbEntity
  8
SEIHIN
  6
Continuous
 62
     3
100
AcDbLine
 10
1185.106254512109
 20
396.8267034658529
 30
0.0
 11
1185.106254512109
 21
423.402460415411
 31
0.0
  0
LINE
  5
4437
330
1A
100
AcDbEntity
  8
SEIHIN
  6
Continuous
 62
     3
100
AcDbLine
 10
1185.106254512109
 20
468.3758411746039
 30
0.0
 11
1180.840092830191
 21
475.402460415411
 31
0.0
  0
LINE
  5
4438
330
1A
100
AcDbEntity
  8
SEIHIN
  6
Continuous
 62
     3
100
AcDbLine
 10
1082.606254512109
 20
423.402460415411
 30
0.0
 11
1082.606254512109
 21
396.8267034658529
 31
0.0
  0
LINE
  5
4439
330
1A
100
AcDbEntity
  8
SEIHIN
  6
Continuous
 62
     3
100
AcDbLine
 10
1184.106254512109
 20
423.402460415411
 30
0.0
 11
1184.106254512109
 21
431.902460415411
 31
0.0
  0
LINE
  5
443A
330
1A
100
AcDbEntity
  8
SEIHIN
  6
Continuous
 62
     3
100
AcDbLine
 10
1184.106254512109
 20
431.902460415411
 30
0.0
 11
1185.106254512109
 21
431.902460415411
 31
0.0
  0
ARC
  5
443B
330
1A
100
AcDbEntity
  8
SEIHIN
  6
Continuous
 62
     3
100
AcDbCircle
 10
1133.856254512108
 20
442.652460415411
 30
0.0
 40
66.74999999999994
100
AcDbArc
 50
222.4533024588011
 51
317.5466975411989
  0
SPLINE
  5
443C
330
1A
100
AcDbEntity
  8
SEIHIN
  6
Continuous
 62
     3
100
AcDbSpline
210
0.0
220
0.0
230
1.0
 70
     8
 71
     3
 72
    16
 73
    12
 74
     0
 42
0.0000000001
 43
0.0000000001
 40
0.0
 40
0.0
 40
0.0
 40
0.0
 40
0.2499999999999933
 40
0.2499999999999933
 40
0.37499999999999
 40
0.37499999999999
 40
0.4999999999999866
 40
0.4999999999999866
 40
0.7499999999999934
 40
0.7499999999999934
 40
1.0
 40
1.0
 40
1.0
 40
1.0
 10
1157.958279721643
 20
469.402460415411
 30
0.0
 10
1158.885563911686
 20
469.2567929796886
 30
0.0
 10
1159.802124991696
 20
469.0454090332723
 30
0.0
 10
1161.159413932757
 20
468.6207616338633
 30
0.0
 10
1161.609707265653
 20
468.4607732677077
 30
0.0
 10
1162.488608492112
 20
468.1101774610342
 30
0.0
 10
1162.919175344011
 20
467.9190457213389
 30
0.0
 10
1164.185106984399
 20
467.2997216695202
 30
0.0
 10
1164.994732969761
 20
466.8256541946548
 30
0.0
 10
1166.549346551391
 20
465.7623119990994
 30
0.0
 10
1167.297019381449
 20
465.1702560957946
 30
0.0
 10
1168.003749561189
 20
464.533175586499
 30
0.0
  0
SPLINE
  5
443D
330
1A
100
AcDbEntity
  8
SEIHIN
  6
Continuous
 62
     3
100
AcDbSpline
210
0.0
220
0.0
230
1.0
 70
     8
 71
     3
 72
    16
 73
    12
 74
     0
 42
0.0000000001
 43
0.0000000001
 40
0.0
 40
0.0
 40
0.0
 40
0.0
 40
0.2499999999999985
 40
0.2499999999999985
 40
0.3750000000000015
 40
0.3750000000000015
 40
0.5000000000000046
 40
0.5000000000000046
 40
0.7500000000000023
 40
0.7500000000000023
 40
1.0
 40
1.0
 40
1.0
 40
1.0
 10
1165.997693184013
 20
452.1068887158126
 30
0.0
 10
1165.060953672965
 20
453.2897145561955
 30
0.0
 10
1164.026144448706
 20
454.3660325639453
 30
0.0
 10
1162.303185257053
 20
455.7950729394652
 30
0.0
 10
1161.700259210543
 20
456.2403520692032
 30
0.0
 10
1160.431155742454
 20
457.062216675471
 30
0.0
 10
1159.778502734743
 20
457.4299300167094
 30
0.0
 10
1157.76878142891
 20
458.4049711935604
 30
0.0
 10
1156.359276437827
 20
458.884614241967
 30
0.0
 10
1153.404977870498
 20
459.5131383296229
 30
0.0
 10
1151.90688763476
 20
459.6524604154114
 30
0.0
 10
1150.396753269184
 20
459.6524604154114
 30
0.0
  0
SPLINE
  5
443E
330
1A
100
AcDbEntity
  8
SEIHIN
  6
Continuous
 62
     3
100
AcDbSpline
210
0.0
220
0.0
230
1.0
 70
     8
 71
     3
 72
    16
 73
    12
 74
     0
 42
0.0000000001
 43
0.0000000001
 40
0.0
 40
0.0
 40
0.0
 40
0.0
 40
0.25
 40
0.25
 40
0.375
 40
0.375
 40
0.5
 40
0.5
 40
0.75
 40
0.75
 40
1.0
 40
1.0
 40
1.0
 40
1.0
 10
1117.315755755034
 20
459.6524604154114
 30
0.0
 10
1115.807318695374
 20
459.6524604154114
 30
0.0
 10
1114.320662594388
 20
459.5134917031414
 30
0.0
 10
1112.130470562678
 20
459.0511535910937
 30
0.0
 10
1111.406829031298
 20
458.8546047447662
 30
0.0
 10
1109.975079847917
 20
458.3682625718711
 30
0.0
 10
1109.282438034266
 20
458.0837081511289
 30
0.0
 10
1107.272102025901
 20
457.1096513621841
 30
0.0
 10
1106.021789236776
 20
456.300126014893
 30
0.0
 10
1103.693222214064
 20
454.3745964003147
 30
0.0
 10
1102.652319594924
 20
453.2906795706448
 30
0.0
 10
1101.714815840205
 20
452.1068887158135
 30
0.0
  0
SPLINE
  5
443F
330
1A
100
AcDbEntity
  8
SEIHIN
  6
Continuous
 62
     3
100
AcDbSpline
210
0.0
220
0.0
230
1.0
 70
     8
 71
     3
 72
    14
 73
    10
 74
     0
 42
0.0000000001
 43
0.0000000001
 40
0.0
 40
0.0
 40
0.0
 40
0.0
 40
0.4999999999999872
 40
0.4999999999999872
 40
0.6249999999999939
 40
0.6249999999999939
 40
0.7500000000000006
 40
0.7500000000000006
 40
1.0
 40
1.0
 40
1.0
 40
1.0
 10
1099.708759463029
 20
464.5331755865018
 30
0.0
 10
1101.123509808956
 20
465.8084994608024
 30
0.0
 10
1102.669543026112
 20
466.8798218759839
 30
0.0
 10
1104.794651343185
 20
467.9197438763403
 30
0.0
 10
1105.231292790659
 20
468.1134070470734
 30
0.0
 10
1106.114627828898
 20
468.4652037421346
 30
0.0
 10
1106.560353386872
 20
468.6231558170256
 30
0.0
 10
1107.909329412686
 20
469.04483058318
 30
0.0
 10
1108.824375282496
 20
469.2563892840844
 30
0.0
 10
1109.754229302561
 20
469.4024604154092
 30
0.0
  0
LINE
  5
4440
330
1A
100
AcDbEntity
  8
SEIHIN
  6
Continuous
 62
     3
100
AcDbLine
 10
1150.396753269184
 20
459.6524604154114
 30
0.0
 11
1117.315755755034
 21
459.6524604154114
 31
0.0
  0
SPLINE
  5
4441
330
1A
100
AcDbEntity
  8
SEIHIN
  6
Continuous
 62
     3
100
AcDbSpline
210
0.0
220
0.0
230
1.0
 70
    11
 71
     3
 72
   126
 73
   122
 74
     0
 42
0.0000000001
 43
0.0000000001
 40
0.0
 40
0.0
 40
0.0
 40
0.0
 40
0.0312499999999996
 40
0.0312499999999996
 40
0.0468749999999994
 40
0.0468749999999994
 40
0.0624999999999992
 40
0.0624999999999992
 40
0.0937499999999988
 40
0.0937499999999988
 40
0.1015624999999989
 40
0.1015624999999989
 40
0.109374999999999
 40
0.109374999999999
 40
0.1249999999999988
 40
0.1249999999999988
 40
0.156249999999998
 40
0.156249999999998
 40
0.1640624999999975
 40
0.1640624999999975
 40
0.171874999999997
 40
0.171874999999997
 40
0.1874999999999962
 40
0.1874999999999962
 40
0.2031249999999954
 40
0.2031249999999954
 40
0.2109374999999951
 40
0.2109374999999951
 40
0.2187499999999948
 40
0.2187499999999948
 40
0.249999999999994
 40
0.249999999999994
 40
0.2656249999999935
 40
0.2656249999999935
 40
0.2734374999999933
 40
0.2734374999999933
 40
0.2812499999999931
 40
0.2812499999999931
 40
0.3124999999999925
 40
0.3124999999999925
 40
0.3281249999999923
 40
0.3281249999999923
 40
0.343749999999992
 40
0.343749999999992
 40
0.3749999999999912
 40
0.3749999999999912
 40
0.4062499999999904
 40
0.4062499999999904
 40
0.4218749999999899
 40
0.4218749999999899
 40
0.4374999999999895
 40
0.4374999999999895
 40
0.4687499999999894
 40
0.4687499999999894
 40
0.4765624999999899
 40
0.4765624999999899
 40
0.4843749999999904
 40
0.4843749999999904
 40
0.4999999999999924
 40
0.4999999999999924
 40
0.531249999999997
 40
0.531249999999997
 40
0.5390624999999982
 40
0.5390624999999982
 40
0.5468749999999992
 40
0.5468749999999992
 40
0.5625000000000016
 40
0.5625000000000016
 40
0.578125000000004
 40
0.578125000000004
 40
0.5859375000000048
 40
0.5859375000000048
 40
0.5937500000000055
 40
0.5937500000000055
 40
0.6250000000000067
 40
0.6250000000000067
 40
0.640625000000007
 40
0.640625000000007
 40
0.6484375000000071
 40
0.6484375000000071
 40
0.6562500000000071
 40
0.6562500000000071
 40
0.6875000000000075
 40
0.6875000000000075
 40
0.6953125000000075
 40
0.6953125000000075
 40
0.7031250000000073
 40
0.7031250000000073
 40
0.718750000000007
 40
0.718750000000007
 40
0.7500000000000062
 40
0.7500000000000062
 40
0.7578125000000059
 40
0.7578125000000059
 40
0.7656250000000057
 40
0.7656250000000057
 40
0.7812500000000053
 40
0.7812500000000053
 40
0.7968750000000048
 40
0.7968750000000048
 40
0.8125000000000042
 40
0.8125000000000042
 40
0.8437500000000035
 40
0.8437500000000035
 40
0.8593750000000033
 40
0.8593750000000033
 40
0.8750000000000031
 40
0.8750000000000031
 40
0.8906250000000028
 40
0.8906250000000028
 40
0.9062500000000026
 40
0.9062500000000026
 40
0.9375000000000015
 40
0.9375000000000015
 40
0.9531250000000014
 40
0.9531250000000014
 40
0.9687500000000008
 40
0.9687500000000008
 40
0.9843750000000003
 40
0.9843750000000003
 40
1.0
 40
1.0
 40
1.0
 40
1.0
 10
1133.726444825124
 20
388.431633607298
 30
0.0
 10
1131.582863325721
 20
388.4400246829564
 30
0.0
 10
1129.474472122989
 20
388.6538087100035
 30
0.0
 10
1126.362997115597
 20
389.2728057018185
 30
0.0
 10
1125.33445766753
 20
389.5294433425807
 30
0.0
 10
1123.294950463963
 20
390.1452781970329
 30
0.0
 10
1122.281186188835
 20
390.5063760875173
 30
0.0
 10
1119.331850385204
 20
391.7237722463369
 30
0.0
 10
1117.466397999132
 20
392.7174639519908
 30
0.0
 10
1115.260434317181
 20
394.1869930333874
 30
0.0
 10
1114.825591551072
 20
394.4923732583547
 30
0.0
 10
1113.968824557434
 20
395.1264775327136
 30
0.0
 10
1113.545845161051
 20
395.4561248746918
 30
0.0
 10
1112.304964831183
 20
396.4741943988656
 30
0.0
 10
1111.517984477814
 20
397.1886432871097
 30
0.0
 10
1109.273970178719
 20
399.4357433112109
 30
0.0
 10
1107.933723288475
 20
401.0720238406529
 30
0.0
 10
1106.456066920554
 20
403.2927585139195
 30
0.0
 10
1106.169761766772
 20
403.7470448177064
 30
0.0
 10
1105.622620187715
 20
404.6652130104966
 30
0.0
 10
1105.36149228928
 20
405.1293790580403
 30
0.0
 10
1104.615013858013
 20
406.5369501244476
 30
0.0
 10
1104.166204745065
 20
407.4952794651071
 30
0.0
 10
1103.364285165311
 20
409.4510235841335
 30
0.0
 10
1103.011380142336
 20
410.4485222702915
 30
0.0
 10
1102.554749223064
 20
411.9744734531487
 30
0.0
 10
1102.414686681721
 20
412.4880852626111
 30
0.0
 10
1102.159431790903
 20
413.5254664164031
 30
0.0
 10
1102.044146580923
 20
414.0500341502092
 30
0.0
 10
1101.535999709706
 20
416.6697184219374
 30
0.0
 10
1101.340420854998
 20
418.7763278106249
 30
0.0
 10
1101.355773138392
 20
421.952138999502
 30
0.0
 10
1101.412778013239
 20
423.0134145959555
 30
0.0
 10
1101.578158366435
 20
424.6094409339502
 30
0.0
 10
1101.646691317727
 20
425.1414540755477
 30
0.0
 10
1101.808965545138
 20
426.1951484198989
 30
0.0
 10
1101.902813043906
 20
426.7182742939639
 30
0.0
 10
1102.434489774901
 20
429.3156229423421
 30
0.0
 10
1103.05837735357
 20
431.3353722628958
 30
0.0
 10
1104.294294418454
 20
434.2771382967703
 30
0.0
 10
1104.759397868812
 20
435.247665612459
 30
0.0
 10
1105.773958851396
 20
437.1207993490888
 30
0.0
 10
1106.324348174106
 20
438.0264863456432
 30
0.0
 10
1108.10041999476
 20
440.6540757625098
 30
0.0
 10
1109.450161659114
 20
442.2873179262806
 30
0.0
 10
1112.496951790721
 20
445.304192483526
 30
0.0
 10
1114.142500997417
 20
446.638703369008
 30
0.0
 10
1116.787273753336
 20
448.389236881826
 30
0.0
 10
1117.698441454569
 20
448.930635824071
 30
0.0
 10
1119.581232725389
 20
449.927354996451
 30
0.0
 10
1120.556042870407
 20
450.3833859016367
 30
0.0
 10
1123.509147055242
 20
451.5916812075352
 30
0.0
 10
1125.534411062751
 20
452.1969700428963
 30
0.0
 10
1128.136000674079
 20
452.7055827994764
 30
0.0
 10
1128.659862063089
 20
452.7947531627969
 30
0.0
 10
1129.714751884997
 20
452.9477057346452
 30
0.0
 10
1130.247143743014
 20
453.0116520376905
 30
0.0
 10
1131.844795411651
 20
453.1635381685937
 30
0.0
 10
1132.906563302399
 20
453.2113030367236
 30
0.0
 10
1136.082274519671
 20
453.2006550141923
 30
0.0
 10
1138.186674732087
 20
452.989091333803
 30
0.0
 10
1140.80084740802
 20
452.462606623254
 30
0.0
 10
1141.32430763818
 20
452.3436634203322
 30
0.0
 10
1142.360564922898
 20
452.0810766064378
 30
0.0
 10
1142.87351474548
 20
451.9375195250631
 30
0.0
 10
1144.397178553755
 20
451.4708879672698
 30
0.0
 10
1145.392670908899
 20
451.1117679960626
 30
0.0
 10
1147.34358577784
 20
450.2986408960278
 30
0.0
 10
1148.299046385961
 20
449.8447239762417
 30
0.0
 10
1149.701873392922
 20
449.0919455252233
 30
0.0
 10
1150.164411571141
 20
448.829011439001
 30
0.0
 10
1151.079169239265
 20
448.278708155969
 30
0.0
 10
1151.532431773325
 20
447.9905813621326
 30
0.0
 10
1153.749907895397
 20
446.5028556668867
 30
0.0
 10
1155.382005135882
 20
445.1563561812145
 30
0.0
 10
1157.624074079802
 20
442.9095637282325
 30
0.0
 10
1158.336815751985
 20
442.1224965673113
 30
0.0
 10
1159.351985982615
 20
440.882465449923
 30
0.0
 10
1159.681793532879
 20
440.4585952842516
 30
0.0
 10
1160.316349176945
 20
439.6003604235884
 30
0.0
 10
1160.622003967572
 20
439.164949554236
 30
0.0
 10
1162.093175567511
 20
436.9569764079751
 30
0.0
 10
1163.088213717052
 20
435.0921062802244
 30
0.0
 10
1164.103385793287
 20
432.6372263593921
 30
0.0
 10
1164.294885236258
 20
432.1400046169487
 30
0.0
 10
1164.654351384142
 20
431.1328190300446
 30
0.0
 10
1164.82218038781
 20
430.6230391583312
 30
0.0
 10
1165.284894033163
 20
429.0916582667801
 30
0.0
 10
1165.541054983873
 20
428.062376853798
 30
0.0
 10
1166.156461235722
 20
424.9500683069572
 30
0.0
 10
1166.364500737826
 20
422.8428758518421
 30
0.0
 10
1166.361639382014
 20
420.1668675668525
 30
0.0
 10
1166.347680116976
 20
419.6310862766531
 30
0.0
 10
1166.293712152785
 20
418.5667581146608
 30
0.0
 10
1166.253710253762
 20
418.0369592497945
 30
0.0
 10
1166.095203845251
 20
416.4545578222568
 30
0.0
 10
1165.938123461108
 20
415.4089640829993
 30
0.0
 10
1165.522392250551
 20
413.3362308663826
 30
0.0
 10
1165.263640197976
 20
412.3091097807328
 30
0.0
 10
1164.642045239546
 20
410.2737798030284
 30
0.0
 10
1164.277076276715
 20
409.2609681921694
 30
0.0
 10
1163.045896381412
 20
406.3133379695118
 30
0.0
 10
1162.0422063129
 20
404.4525459660063
 30
0.0
 10
1160.265760561659
 20
401.8158360293641
 30
0.0
 10
1159.62769554354
 20
400.9618240256095
 30
0.0
 10
1158.26006689804
 20
399.3113234382263
 30
0.0
 10
1157.537537066069
 20
398.523690904518
 30
0.0
 10
1156.016358546732
 20
397.0223863994206
 30
0.0
 10
1155.214164902601
 20
396.3060442136411
 30
0.0
 10
1153.555220280416
 20
394.9665907643712
 30
0.0
 10
1152.697905884416
 20
394.3424747088084
 30
0.0
 10
1150.044820180955
 20
392.6030535277487
 30
0.0
 10
1148.168670365659
 20
391.6194237970212
 30
0.0
 10
1145.18834169781
 20
390.4160892849213
 30
0.0
 10
1144.181206903604
 20
390.066613834626
 30
0.0
 10
1142.147303224743
 20
389.4689527852051
 30
0.0
 10
1141.119464779739
 20
389.2201784697308
 30
0.0
 10
1139.04210129115
 20
388.8223440159027
 30
0.0
 10
1137.992611265017
 20
388.6731228685958
 30
0.0
 10
1135.871744966135
 20
388.4753127253698
 30
0.0
 10
1134.798235574824
 20
388.4274380694692
 30
0.0
 10
1133.726444825124
 20
388.431633607298
 30
0.0
  0
SPLINE
  5
4442
330
1A
100
AcDbEntity
  8
SEIHIN
  6
Continuous
 62
     3
100
AcDbSpline
210
0.0
220
0.0
230
1.0
 70
    11
 71
     3
 72
    92
 73
    88
 74
     0
 42
0.0000000001
 43
0.0000000001
 40
0.0
 40
0.0
 40
0.0
 40
0.0
 40
0.0312499999999996
 40
0.0312499999999996
 40
0.0468749999999993
 40
0.0468749999999993
 40
0.0624999999999991
 40
0.0624999999999991
 40
0.0937499999999985
 40
0.0937499999999985
 40
0.1249999999999979
 40
0.1249999999999979
 40
0.1406249999999976
 40
0.1406249999999976
 40
0.1562499999999973
 40
0.1562499999999973
 40
0.1874999999999987
 40
0.1874999999999987
 40
0.2187500000000001
 40
0.2187500000000001
 40
0.2343750000000005
 40
0.2343750000000005
 40
0.2500000000000008
 40
0.2500000000000008
 40
0.2812500000000015
 40
0.2812500000000015
 40
0.3125000000000022
 40
0.3125000000000022
 40
0.3437500000000028
 40
0.3437500000000028
 40
0.3593750000000022
 40
0.3593750000000022
 40
0.3750000000000015
 40
0.3750000000000015
 40
0.3906250000000009
 40
0.3906250000000009
 40
0.4062500000000003
 40
0.4062500000000003
 40
0.4375000000000019
 40
0.4375000000000019
 40
0.4687500000000035
 40
0.4687500000000035
 40
0.5000000000000052
 40
0.5000000000000052
 40
0.5156250000000059
 40
0.5156250000000059
 40
0.5312500000000067
 40
0.5312500000000067
 40
0.5625000000000049
 40
0.5625000000000049
 40
0.5937500000000031
 40
0.5937500000000031
 40
0.6093750000000039
 40
0.6093750000000039
 40
0.6250000000000047
 40
0.6250000000000047
 40
0.6562500000000038
 40
0.6562500000000038
 40
0.6875000000000031
 40
0.6875000000000031
 40
0.7187500000000022
 40
0.7187500000000022
 40
0.7343750000000023
 40
0.7343750000000023
 40
0.7500000000000023
 40
0.7500000000000023
 40
0.7656250000000023
 40
0.7656250000000023
 40
0.7812500000000023
 40
0.7812500000000023
 40
0.8125000000000021
 40
0.8125000000000021
 40
0.8281250000000021
 40
0.8281250000000021
 40
0.8437500000000021
 40
0.8437500000000021
 40
0.8749999999999996
 40
0.8749999999999996
 40
0.8906249999999984
 40
0.8906249999999984
 40
0.9062499999999973
 40
0.9062499999999973
 40
0.9374999999999982
 40
0.9374999999999982
 40
0.9687499999999989
 40
0.9687499999999989
 40
1.0
 40
1.0
 40
1.0
 40
1.0
 10
1133.777663679861
 20
395.1528721946429
 30
0.0
 10
1133.282187433315
 20
395.1580644651285
 30
0.0
 10
1132.795556158056
 20
395.2117872455633
 30
0.0
 10
1132.078297268238
 20
395.3621557171382
 30
0.0
 10
1131.841341285055
 20
395.4239960969744
 30
0.0
 10
1131.371780867217
 20
395.5716439071752
 30
0.0
 10
1131.138559258582
 20
395.6578545824791
 30
0.0
 10
1130.460553050313
 20
395.9471845389921
 30
0.0
 10
1130.032312755187
 20
396.1819427992823
 30
0.0
 10
1129.22288500454
 20
396.7345202511901
 30
0.0
 10
1128.84056847885
 20
397.0545289434226
 30
0.0
 10
1128.32247273024
 20
397.5841031886571
 30
0.0
 10
1128.157702001596
 20
397.7701387360985
 30
0.0
 10
1127.849893175823
 20
398.1542175147515
 30
0.0
 10
1127.70635855366
 20
398.3526394616192
 30
0.0
 10
1127.306186395705
 20
398.9666321763161
 30
0.0
 10
1127.079597720731
 20
399.400952365902
 30
0.0
 10
1126.710819179172
 20
400.3204793333752
 30
0.0
 10
1126.57458620144
 20
400.7907172106447
 30
0.0
 10
1126.439576272266
 20
401.51115450838
 30
0.0
 10
1126.406215309945
 20
401.7538322999699
 30
0.0
 10
1126.363319301019
 20
402.2443690946801
 30
0.0
 10
1126.35392598057
 20
402.4928881120758
 30
0.0
 10
1126.362396640318
 20
403.2301117444112
 30
0.0
 10
1126.41583467181
 20
403.7156757852385
 30
0.0
 10
1126.61751457401
 20
404.675062311765
 30
0.0
 10
1126.76784184663
 20
405.1512109713457
 30
0.0
 10
1127.152520591632
 20
406.050886518823
 30
0.0
 10
1127.387395732958
 20
406.4796188947802
 30
0.0
 10
1127.805089004139
 20
407.0902768805044
 30
0.0
 10
1127.955256029865
 20
407.2880246620497
 30
0.0
 10
1128.270953064916
 20
407.6639119732085
 30
0.0
 10
1128.437234236007
 20
407.843208479856
 30
0.0
 10
1128.786413555553
 20
408.1847618259075
 30
0.0
 10
1128.969311739282
 20
408.3470186279937
 30
0.0
 10
1129.351958328743
 20
408.6542533803417
 30
0.0
 10
1129.552841629074
 20
408.7999403470567
 30
0.0
 10
1130.172830191727
 20
409.2042443773143
 30
0.0
 10
1130.606707979902
 20
409.4296069993752
 30
0.0
 10
1131.51450387794
 20
409.7942719820157
 30
0.0
 10
1131.993757791616
 20
409.9340472348849
 30
0.0
 10
1132.957614489479
 20
410.1145544079249
 30
0.0
 10
1133.444224765956
 20
410.157235956085
 30
0.0
 10
1134.181207971992
 20
410.149443899174
 30
0.0
 10
1134.429396451626
 20
410.1345840235635
 30
0.0
 10
1134.919064769857
 20
410.0808586092703
 30
0.0
 10
1135.161006225088
 20
410.0421376707795
 30
0.0
 10
1135.878357321471
 20
409.89123987831
 30
0.0
 10
1136.345376565364
 20
409.7446677392908
 30
0.0
 10
1137.256091196379
 20
409.3559105600152
 30
0.0
 10
1137.685872549841
 20
409.1195105132356
 30
0.0
 10
1138.29086258612
 20
408.705883335594
 30
0.0
 10
1138.486032860437
 20
408.5580239836099
 30
0.0
 10
1138.863108564308
 20
408.2419095038867
 30
0.0
 10
1139.045621459419
 20
408.0728800820042
 30
0.0
 10
1139.561533095763
 20
407.545487186866
 30
0.0
 10
1139.867259578851
 20
407.1644294492385
 30
0.0
 10
1140.403166989599
 20
406.3440702927823
 30
0.0
 10
1140.633856624615
 20
405.901094666242
 30
0.0
 10
1140.998555751913
 20
404.992769773381
 30
0.0
 10
1141.135774905081
 20
404.5236806497168
 30
0.0
 10
1141.272475236593
 20
403.7971834146429
 30
0.0
 10
1141.306288672108
 20
403.5509604283679
 30
0.0
 10
1141.34910871386
 20
403.0616635064811
 30
0.0
 10
1141.358420800349
 20
402.8172323222243
 30
0.0
 10
1141.353246656873
 20
402.3287976603515
 30
0.0
 10
1141.338760181277
 20
402.0847941434563
 30
0.0
 10
1141.285696195699
 20
401.5972199899306
 30
0.0
 10
1141.246859600548
 20
401.3524864501196
 30
0.0
 10
1141.094587505339
 20
400.6275063384146
 30
0.0
 10
1140.947280141749
 20
400.1611816444992
 30
0.0
 10
1140.659644060547
 20
399.4864425299829
 30
0.0
 10
1140.552572518628
 20
399.2656841879225
 30
0.0
 10
1140.315395344663
 20
398.8327185701096
 30
0.0
 10
1140.185635237502
 20
398.621443760771
 30
0.0
 10
1139.770303575005
 20
398.0140720929967
 30
0.0
 10
1139.456585765642
 20
397.6397424811535
 30
0.0
 10
1138.930622077494
 20
397.1242548638056
 30
0.0
 10
1138.744888488723
 20
396.9593072663015
 30
0.0
 10
1138.360600772057
 20
396.650660709739
 30
0.0
 10
1138.162166461039
 20
396.5068259893115
 30
0.0
 10
1137.548467181945
 20
396.105983008018
 30
0.0
 10
1137.114987125118
 20
395.8793377113488
 30
0.0
 10
1136.197495404233
 20
395.5101134277311
 30
0.0
 10
1135.725620002062
 20
395.3727590113485
 30
0.0
 10
1134.765635821591
 20
395.1917898355437
 30
0.0
 10
1134.273139926406
 20
395.1476799241568
 30
0.0
 10
1133.777663679861
 20
395.1528721946429
 30
0.0
  0
LINE
  5
4443
330
1A
100
AcDbEntity
  8
SEIHIN
  6
Continuous
 62
     3
100
AcDbLine
 10
1082.356254512109
 20
423.652460415411
 30
0.0
 11
1083.606254512109
 21
423.652460415411
 31
0.0
  0
LINE
  5
4444
330
1A
100
AcDbEntity
  8
SEIHIN
  6
Continuous
 62
     3
100
AcDbLine
 10
1082.356254512109
 20
431.652460415411
 30
0.0
 11
1083.606254512109
 21
431.652460415411
 31
0.0
  0
LINE
  5
4445
330
1A
100
AcDbEntity
  8
SEIHIN
  6
Continuous
 62
     3
100
AcDbLine
 10
1184.106254512109
 20
431.652460415411
 30
0.0
 11
1185.356254512109
 21
431.652460415411
 31
0.0
  0
LINE
  5
4446
330
1A
100
AcDbEntity
  8
SEIHIN
  6
Continuous
 62
     3
100
AcDbLine
 10
1184.106254512109
 20
423.652460415411
 30
0.0
 11
1185.356254512109
 21
423.652460415411
 31
0.0
  0
LINE
  5
4447
330
1A
100
AcDbEntity
  8
SEIHIN
  6
Continuous
 62
     3
100
AcDbLine
 10
1089.856254512109
 20
475.6024604154113
 30
0.0
 11
1085.606254512109
 21
475.6024604154113
 31
0.0
  0
LINE
  5
4448
330
1A
100
AcDbEntity
  8
SEIHIN
  6
Continuous
 62
     3
100
AcDbLine
 10
1085.606254512109
 20
475.6024604154113
 30
0.0
 11
1085.606254512109
 21
477.6024604154113
 31
0.0
  0
LINE
  5
4449
330
1A
100
AcDbEntity
  8
SEIHIN
  6
Continuous
 62
     3
100
AcDbLine
 10
1089.856254512109
 20
477.6024604154113
 30
0.0
 11
1085.606254512109
 21
477.6024604154113
 31
0.0
  0
LINE
  5
444A
330
1A
100
AcDbEntity
  8
SEIHIN
  6
Continuous
 62
     3
100
AcDbLine
 10
1089.856254512109
 20
477.6024604154113
 30
0.0
 11
1089.856254512109
 21
475.6024604154113
 31
0.0
  0
LINE
  5
444B
330
1A
100
AcDbEntity
  8
SEIHIN
  6
Continuous
 62
     3
100
AcDbLine
 10
1182.106254512109
 20
477.6024604154113
 30
0.0
 11
1177.856254512109
 21
477.6024604154113
 31
0.0
  0
LINE
  5
444C
330
1A
100
AcDbEntity
  8
SEIHIN
  6
Continuous
 62
     3
100
AcDbLine
 10
1182.106254512109
 20
477.6024604154113
 30
0.0
 11
1182.106254512109
 21
475.6024604154113
 31
0.0
  0
LINE
  5
444D
330
1A
100
AcDbEntity
  8
SEIHIN
  6
Continuous
 62
     3
100
AcDbLine
 10
1182.106254512109
 20
475.6024604154113
 30
0.0
 11
1177.856254512109
 21
475.6024604154113
 31
0.0
  0
LINE
  5
444E
330
1A
100
AcDbEntity
  8
SEIHIN
  6
Continuous
 62
     3
100
AcDbLine
 10
1177.856254512109
 20
477.6024604154113
 30
0.0
 11
1177.856254512109
 21
475.6024604154113
 31
0.0
  0
LINE
  5
444F
330
1A
100
AcDbEntity
  8
SEIHIN
  6
Continuous
 62
     3
100
AcDbLine
 10
1092.856254512108
 20
473.6024604154112
 30
0.0
 11
1108.856254512109
 21
473.6024604154112
 31
0.0
  0
LINE
  5
4450
330
1A
100
AcDbEntity
  8
SEIHIN
  6
Continuous
 62
     3
100
AcDbLine
 10
1092.856254512108
 20
473.6024604154112
 30
0.0
 11
1089.856254512109
 21
475.6024604154113
 31
0.0
  0
LINE
  5
4451
330
1A
100
AcDbEntity
  8
SEIHIN
  6
Continuous
 62
     3
100
AcDbLine
 10
1108.856254512109
 20
477.6024604154113
 30
0.0
 11
1089.856254512109
 21
477.6024604154113
 31
0.0
  0
LINE
  5
4452
330
1A
100
AcDbEntity
  8
SEIHIN
  6
Continuous
 62
     3
100
AcDbLine
 10
1108.856254512109
 20
477.6024604154113
 30
0.0
 11
1108.856254512109
 21
473.6024604154112
 31
0.0
  0
LINE
  5
4453
330
1A
100
AcDbEntity
  8
SEIHIN
  6
Continuous
 62
     3
100
AcDbLine
 10
1158.856254512109
 20
473.6024604154112
 30
0.0
 11
1174.856254512109
 21
473.6024604154112
 31
0.0
  0
LINE
  5
4454
330
1A
100
AcDbEntity
  8
SEIHIN
  6
Continuous
 62
     3
100
AcDbLine
 10
1158.856254512109
 20
477.6024604154113
 30
0.0
 11
1158.856254512109
 21
473.6024604154112
 31
0.0
  0
LINE
  5
4455
330
1A
100
AcDbEntity
  8
SEIHIN
  6
Continuous
 62
     3
100
AcDbLine
 10
1177.856254512109
 20
477.6024604154113
 30
0.0
 11
1158.856254512109
 21
477.6024604154113
 31
0.0
  0
LINE
  5
4456
330
1A
100
AcDbEntity
  8
SEIHIN
  6
Continuous
 62
     3
100
AcDbLine
 10
1177.856254512109
 20
475.6024604154113
 30
0.0
 11
1174.856254512109
 21
473.6024604154112
 31
0.0
  0
LINE
  5
4457
330
1A
100
AcDbEntity
  8
SEIHIN
  6
Continuous
 62
     3
100
AcDbLine
 10
1108.856254512109
 20
473.6024604154112
 30
0.0
 11
1158.856254512109
 21
473.6024604154112
 31
0.0
  0
LINE
  5
4458
330
1A
100
AcDbEntity
  8
SEIHIN
  6
Continuous
 62
     3
100
AcDbLine
 10
1108.856254512109
 20
477.6024604154113
 30
0.0
 11
1158.856254512109
 21
477.6024604154113
 31
0.0
  0
LINE
  5
4459
330
1A
100
AcDbEntity
  8
SEIHIN
  6
Continuous
 62
     3
100
AcDbLine
 10
1082.356254512109
 20
468.3957923320795
 30
0.0
 11
1082.356254512109
 21
396.6813323804863
 31
0.0
  0
LINE
  5
445A
330
1A
100
AcDbEntity
  8
SEIHIN
  6
Continuous
 62
     3
100
AcDbLine
 10
1082.356254512109
 20
468.3957923320795
 30
0.0
 11
1086.731731562703
 21
475.6024604154113
 31
0.0
  0
ARC
  5
445B
330
1A
100
AcDbEntity
  8
SEIHIN
  6
Continuous
 62
     3
100
AcDbCircle
 10
1133.856254512108
 20
442.6024604154113
 30
0.0
 40
68.99999999999995
100
AcDbArc
 50
221.7225066960045
 51
318.2774933039955
  0
ARC
  5
445C
330
1A
100
AcDbEntity
  8
SEIHIN
  6
Continuous
 62
     3
100
AcDbCircle
 10
1133.856254512108
 20
442.6024604154113
 30
0.0
 40
70.0
100
AcDbArc
 50
221.40962210928
 51
318.5903778907199
  0
LINE
  5
445D
330
1A
100
AcDbEntity
  8
SEIHIN
  6
Continuous
 62
     3
100
AcDbLine
 10
1081.356254512108
 20
470.6024604154118
 30
0.0
 11
1081.356254512108
 21
396.301812471781
 31
0.0
  0
LINE
  5
445E
330
1A
100
AcDbEntity
  8
SEIHIN
  6
Continuous
 62
     3
100
AcDbLine
 10
1180.980777461515
 20
475.6024604154113
 30
0.0
 11
1185.356254512109
 21
468.3957923320795
 31
0.0
  0
LINE
  5
445F
330
1A
100
AcDbEntity
  8
SEIHIN
  6
Continuous
 62
     3
100
AcDbLine
 10
1085.606254512109
 20
477.6024604154113
 30
0.0
 11
1081.356254512108
 21
470.6024604154118
 31
0.0
  0
LINE
  5
4460
330
1A
100
AcDbEntity
  8
SEIHIN
  6
Continuous
 62
     3
100
AcDbLine
 10
1185.356254512109
 20
396.6813323804863
 30
0.0
 11
1185.356254512109
 21
468.3957923320795
 31
0.0
  0
LINE
  5
4461
330
1A
100
AcDbEntity
  8
SEIHIN
  6
Continuous
 62
     3
100
AcDbLine
 10
1186.356254512109
 20
470.6024604154118
 30
0.0
 11
1182.106254512109
 21
477.6024604154113
 31
0.0
  0
LINE
  5
4462
330
1A
100
AcDbEntity
  8
SEIHIN
  6
Continuous
 62
     3
100
AcDbLine
 10
1186.356254512109
 20
396.301812471781
 30
0.0
 11
1186.356254512109
 21
470.6024604154118
 31
0.0
  0
LINE
  5
4463
330
1A
100
AcDbEntity
  8
SEIHIN
  6
Continuous
 62
     3
100
AcDbLine
 10
1186.356254512109
 20
470.6024604154118
 30
0.0
 11
1186.356254512109
 21
396.301812471781
 31
0.0
  0
LINE
  5
4464
330
1A
100
AcDbEntity
  8
SEIHIN
  6
Continuous
 62
     3
100
AcDbLine
 10
1108.856254512109
 20
477.6024604154113
 30
0.0
 11
1158.856254512109
 21
477.6024604154113
 31
0.0
  0
LINE
  5
4465
330
1A
100
AcDbEntity
  8
SEIHIN
  6
Continuous
 62
     3
100
AcDbLine
 10
1177.856254512109
 20
477.6024604154113
 30
0.0
 11
1158.856254512109
 21
477.6024604154113
 31
0.0
  0
LINE
  5
4466
330
1A
100
AcDbEntity
  8
SEIHIN
  6
Continuous
 62
     3
100
AcDbLine
 10
1108.856254512109
 20
477.6024604154113
 30
0.0
 11
1089.856254512109
 21
477.6024604154113
 31
0.0
  0
LINE
  5
4467
330
1A
100
AcDbEntity
  8
SEIHIN
  6
Continuous
 62
     3
100
AcDbLine
 10
1182.106254512109
 20
477.6024604154113
 30
0.0
 11
1177.856254512109
 21
477.6024604154113
 31
0.0
  0
LINE
  5
4468
330
1A
100
AcDbEntity
  8
SEIHIN
  6
Continuous
 62
     3
100
AcDbLine
 10
1089.856254512109
 20
477.6024604154113
 30
0.0
 11
1085.606254512109
 21
477.6024604154113
 31
0.0
  0
INSERT
  5
4469
330
1A
100
AcDbEntity
  8
SEIHIN
  6
Continuous
 62
     3
100
AcDbBlockReference
  2
SW_CENTERMARKSYMBOL_5
 10
1484.076368785212
 20
283.0778806909502
 30
0.0
  0
INSERT
  5
446A
330
1A
100
AcDbEntity
  8
SEIHIN
  6
Continuous
 62
     3
100
AcDbBlockReference
  2
SW_CENTERMARKSYMBOL_4
 10
1549.076368785212
 20
283.0778806909502
 30
0.0
  0
POINT
  5
446B
330
1A
100
AcDbEntity
  8
0_______
100
AcDbPoint
 10
1516.576368785212
 20
193.042970561094
 30
0.0
  0
LINE
  5
446C
330
1A
100
AcDbEntity
  8
SEIHIN
  6
Continuous
 62
     3
100
AcDbLine
 10
1465.076368785212
 20
276.0778806909502
 30
0.0
 11
1465.333681953965
 21
276.0778806909502
 31
0.0
  0
LINE
  5
446D
330
1A
100
AcDbEntity
  8
SEIHIN
  6
Continuous
 62
     3
100
AcDbLine
 10
1567.81905561646
 20
276.0778806909502
 30
0.0
 11
1568.076368785212
 21
276.0778806909502
 31
0.0
  0
ARC
  5
446E
330
1A
100
AcDbEntity
  8
SEIHIN
  6
Continuous
 62
     3
100
AcDbCircle
 10
1516.576368785212
 20
229.0778806909502
 30
0.0
 40
36.03491012985644
100
AcDbArc
 50
182.5222417403666
 51
357.4777582596333
  0
LINE
  5
446F
330
1A
100
AcDbEntity
  8
SEIHIN
  6
Continuous
 62
     3
100
AcDbLine
 10
1480.580481575578
 20
229.0778806909502
 30
0.0
 11
1480.541047633356
 21
229.0778806909502
 31
0.0
  0
LINE
  5
4470
330
1A
100
AcDbEntity
  8
SEIHIN
  6
Continuous
 62
     3
100
AcDbLine
 10
1480.576368785212
 20
274.0778806909502
 30
0.0
 11
1480.580481575578
 21
229.0778806909502
 31
0.0
  0
LINE
  5
4471
330
1A
100
AcDbEntity
  8
SEIHIN
  6
Continuous
 62
     3
100
AcDbLine
 10
1552.572255994846
 20
229.0778806909502
 30
0.0
 11
1552.576368785212
 21
274.0778806909502
 31
0.0
  0
ARC
  5
4472
330
1A
100
AcDbEntity
  8
SEIHIN
  6
Continuous
 62
     3
100
AcDbCircle
 10
1467.151067026146
 20
128.5778806909502
 30
0.0
 40
0.5000000000000853
100
AcDbArc
 50
180.9999999999757
 51
270.0
  0
LINE
  5
4473
330
1A
100
AcDbEntity
  8
SEIHIN
  6
Continuous
 62
     3
100
AcDbLine
 10
1471.61982958533
 20
128.0778806909502
 30
0.0
 11
1467.151067026146
 21
128.0778806909502
 31
0.0
  0
LINE
  5
4474
330
1A
100
AcDbEntity
  8
SEIHIN
  6
Continuous
 62
     3
100
AcDbLine
 10
1566.001670544278
 20
128.0778806909502
 30
0.0
 11
1561.532907985094
 21
128.0778806909502
 31
0.0
  0
ARC
  5
4475
330
1A
100
AcDbEntity
  8
SEIHIN
  6
Continuous
 62
     3
100
AcDbCircle
 10
1566.001670544278
 20
128.5778806909502
 30
0.0
 40
0.4999999999998902
100
AcDbArc
 50
269.9999999999739
 51
358.9999999999721
  0
LINE
  5
4476
330
1A
100
AcDbEntity
  8
SEIHIN
  6
Continuous
 62
     3
100
AcDbLine
 10
1464.076368785212
 20
276.0778806909502
 30
0.0
 11
1468.326368785212
 21
276.0778806909502
 31
0.0
  0
LINE
  5
4477
330
1A
100
AcDbEntity
  8
SEIHIN
  6
Continuous
 62
     3
100
AcDbLine
 10
1464.076368785212
 20
276.0778806909502
 30
0.0
 11
1466.651143178568
 21
128.5691544877318
 31
0.0
  0
LWPOLYLINE
  5
4478
330
1A
100
AcDbEntity
  8
SEIHIN
  6
Continuous
 62
     3
100
AcDbPolyline
 90
        9
 70
     0
 43
0.0
 10
1471.61982958533
 20
128.0778806909502
 10
1471.565539352933
 20
128.0872764074365
 10
1471.513289503062
 20
128.1151104389414
 10
1471.465043734822
 20
128.160336702791
 10
1471.422615262451
 20
128.2212554663729
 10
1471.387598669538
 20
128.2955772279629
 10
1471.361309980002
 20
128.3805087627579
 10
1471.344737198138
 20
128.4728581002714
 10
1471.338503176583
 20
128.5691544877318
  0
LINE
  5
4479
330
1A
100
AcDbEntity
  8
SEIHIN
  6
Continuous
 62
     3
100
AcDbLine
 10
1474.424980966346
 20
128.0778806909502
 30
0.0
 11
1471.61982958533
 21
128.0778806909502
 31
0.0
  0
LINE
  5
447A
330
1A
100
AcDbEntity
  8
SEIHIN
  6
Continuous
 62
     3
100
AcDbLine
 10
1471.338503176583
 20
128.5691544877318
 30
0.0
 11
1471.33837121981
 21
128.5778806909502
 31
0.0
  0
LWPOLYLINE
  5
447B
330
1A
100
AcDbEntity
  8
SEIHIN
  6
Continuous
 62
     3
100
AcDbPolyline
 90
       10
 70
     0
 43
0.0
 10
1474.576368785212
 20
128.5778806909502
 10
1474.574068864077
 20
128.4910566021167
 10
1474.567238982611
 20
128.4068706192875
 10
1474.556086663307
 20
128.3278806909502
 10
1474.540950763744
 20
128.2564868861072
 10
1474.52229118057
 20
128.1948584693909
 10
1474.500674875779
 20
128.1448679890582
 10
1474.476758649852
 20
128.108034380557
 10
1474.451269185213
 20
128.085476814444
 10
1474.424980966346
 20
128.0778806909502
  0
LINE
  5
447C
330
1A
100
AcDbEntity
  8
SEIHIN
  6
Continuous
 62
     3
100
AcDbLine
 10
1552.727756604078
 20
128.0778806909502
 30
0.0
 11
1474.424980966346
 21
128.0778806909502
 31
0.0
  0
LINE
  5
447D
330
1A
100
AcDbEntity
  8
SEIHIN
  6
Continuous
 62
     3
100
AcDbLine
 10
1480.576368785212
 20
128.5778806909502
 30
0.0
 11
1480.576368785212
 21
227.4920849705531
 31
0.0
  0
LWPOLYLINE
  5
447E
330
1A
100
AcDbEntity
  8
SEIHIN
  6
Continuous
 62
     3
100
AcDbPolyline
 90
        3
 70
     0
 43
0.0
 10
1480.576368785212
 20
227.4920849705531
 10
1480.549879016092
 20
228.284786200732
 10
1480.541047633356
 20
229.0778806909502
  0
CIRCLE
  5
447F
330
1A
100
AcDbEntity
  8
SEIHIN
  6
Continuous
 62
     3
100
AcDbCircle
 10
1484.076368785212
 20
283.0778806909502
 30
0.0
 40
2.561245043692679
  0
ARC
  5
4480
330
1A
100
AcDbEntity
  8
SEIHIN
  6
Continuous
 62
     3
100
AcDbCircle
 10
1515.001164090119
 20
284.6530853860436
 30
0.0
 40
0.7939549757049549
100
AcDbArc
 50
82.19443264934298
 51
187.805567350658
  0
LINE
  5
4481
330
1A
100
AcDbEntity
  8
SEIHIN
  6
Continuous
 62
     3
100
AcDbLine
 10
1514.214565386337
 20
284.5452568988253
 30
0.0
 11
1514.214565386337
 21
279.1105044830751
 31
0.0
  0
ARC
  5
4482
330
1A
100
AcDbEntity
  8
SEIHIN
  6
Continuous
 62
     3
100
AcDbCircle
 10
1515.001164090119
 20
279.0026759958569
 30
0.0
 40
0.7939549757050521
100
AcDbArc
 50
172.194432649342
 51
277.8055673506571
  0
LINE
  5
4483
330
1A
100
AcDbEntity
  8
SEIHIN
  6
Continuous
 62
     3
100
AcDbLine
 10
1515.108992577337
 20
278.2160772920752
 30
0.0
 11
1518.043744993087
 21
278.2160772920752
 31
0.0
  0
LINE
  5
4484
330
1A
100
AcDbEntity
  8
SEIHIN
  6
Continuous
 62
     3
100
AcDbLine
 10
1518.043744993087
 20
285.4396840898253
 30
0.0
 11
1515.108992577337
 21
285.4396840898253
 31
0.0
  0
ARC
  5
4485
330
1A
100
AcDbEntity
  8
SEIHIN
  6
Continuous
 62
     3
100
AcDbCircle
 10
1518.151573480305
 20
279.0026759958564
 30
0.0
 40
0.7939549757049704
100
AcDbArc
 50
262.194432649343
 51
7.805567350657975
  0
ARC
  5
4486
330
1A
100
AcDbEntity
  8
SEIHIN
  6
Continuous
 62
     3
100
AcDbCircle
 10
1518.151573480305
 20
284.6530853860436
 30
0.0
 40
0.7939549757050598
100
AcDbArc
 50
352.1944326493421
 51
97.80556735065703
  0
LINE
  5
4487
330
1A
100
AcDbEntity
  8
SEIHIN
  6
Continuous
 62
     3
100
AcDbLine
 10
1518.938172184087
 20
279.1105044830751
 30
0.0
 11
1518.938172184087
 21
284.5452568988253
 31
0.0
  0
CIRCLE
  5
4488
330
1A
100
AcDbEntity
  8
SEIHIN
  6
Continuous
 62
     3
100
AcDbCircle
 10
1549.076368785212
 20
283.0778806909502
 30
0.0
 40
2.561245043692565
  0
LINE
  5
4489
330
1A
100
AcDbEntity
  8
SEIHIN
  6
Continuous
 62
     3
100
AcDbLine
 10
1552.576368785212
 20
128.5778806909502
 30
0.0
 11
1552.576368785212
 21
227.4920849705559
 31
0.0
  0
LWPOLYLINE
  5
448A
330
1A
100
AcDbEntity
  8
SEIHIN
  6
Continuous
 62
     3
100
AcDbPolyline
 90
        3
 70
     0
 43
0.0
 10
1552.576368785212
 20
227.4920849705559
 10
1552.602858554332
 20
228.2847862007329
 10
1552.611689937068
 20
229.0778806909502
  0
LINE
  5
448B
330
1A
100
AcDbEntity
  8
SEIHIN
  6
Continuous
 62
     3
100
AcDbLine
 10
1558.727756604078
 20
128.0778806909502
 30
0.0
 11
1552.727756604078
 21
128.0778806909502
 31
0.0
  0
LWPOLYLINE
  5
448C
330
1A
100
AcDbEntity
  8
SEIHIN
  6
Continuous
 62
     3
100
AcDbPolyline
 90
       10
 70
     0
 43
0.0
 10
1558.576368785212
 20
128.5778806909502
 10
1558.578668706347
 20
128.4910566021167
 10
1558.585498587813
 20
128.4068706192875
 10
1558.596650907117
 20
128.3278806909502
 10
1558.61178680668
 20
128.2564868861072
 10
1558.630446389853
 20
128.1948584693909
 10
1558.652062694645
 20
128.1448679890582
 10
1558.675978920572
 20
128.108034380557
 10
1558.701468385211
 20
128.085476814444
 10
1558.727756604078
 20
128.0778806909502
  0
LINE
  5
448D
330
1A
100
AcDbEntity
  8
SEIHIN
  6
Continuous
 62
     3
100
AcDbLine
 10
1561.532907985094
 20
128.0778806909502
 30
0.0
 11
1558.727756604078
 21
128.0778806909502
 31
0.0
  0
LWPOLYLINE
  5
448E
330
1A
100
AcDbEntity
  8
SEIHIN
  6
Continuous
 62
     3
100
AcDbPolyline
 90
        9
 70
     0
 43
0.0
 10
1561.814234393841
 20
128.5691544877318
 10
1561.808000372286
 20
128.4728581002714
 10
1561.791427590421
 20
128.3805087627579
 10
1561.765138900886
 20
128.2955772279629
 10
1561.730122307974
 20
128.2212554663729
 10
1561.687693835602
 20
128.160336702791
 10
1561.639448067361
 20
128.1151104389414
 10
1561.58719821749
 20
128.0872764074365
 10
1561.532907985094
 20
128.0778806909502
  0
LINE
  5
448F
330
1A
100
AcDbEntity
  8
SEIHIN
  6
Continuous
 62
     3
100
AcDbLine
 10
1560.576368785212
 20
291.0778806909502
 30
0.0
 11
1564.826368785212
 21
291.0778806909502
 31
0.0
  0
LINE
  5
4490
330
1A
100
AcDbEntity
  8
SEIHIN
  6
Continuous
 62
     3
100
AcDbLine
 10
1558.576368785212
 20
273.6897966624529
 30
0.0
 11
1558.576368785212
 21
128.5778806909502
 31
0.0
  0
LINE
  5
4491
330
1A
100
AcDbEntity
  8
SEIHIN
  6
Continuous
 62
     3
100
AcDbLine
 10
1564.826368785212
 20
291.0778806909502
 30
0.0
 11
1564.826368785212
 21
276.0778806909502
 31
0.0
  0
LINE
  5
4492
330
1A
100
AcDbEntity
  8
SEIHIN
  6
Continuous
 62
     3
100
AcDbLine
 10
1541.576368785212
 20
290.5778806909502
 30
0.0
 11
1560.576368785212
 21
291.0778806909502
 31
0.0
  0
ARC
  5
4493
330
1A
100
AcDbEntity
  8
SEIHIN
  6
Continuous
 62
     3
100
AcDbCircle
 10
1516.576368785212
 20
445.8278806909507
 30
0.0
 40
157.2500000000004
100
AcDbArc
 50
260.8521574802052
 51
279.1478425197948
  0
LINE
  5
4494
330
1A
100
AcDbEntity
  8
SEIHIN
  6
Continuous
 62
     3
100
AcDbLine
 10
1472.576368785212
 20
291.0778806909502
 30
0.0
 11
1491.576368785212
 21
290.5778806909502
 31
0.0
  0
LINE
  5
4495
330
1A
100
AcDbEntity
  8
SEIHIN
  6
Continuous
 62
     3
100
AcDbLine
 10
1468.326368785212
 20
291.0778806909502
 30
0.0
 11
1472.576368785212
 21
291.0778806909502
 31
0.0
  0
LINE
  5
4496
330
1A
100
AcDbEntity
  8
SEIHIN
  6
Continuous
 62
     3
100
AcDbLine
 10
1468.326368785212
 20
291.0778806909502
 30
0.0
 11
1468.326368785212
 21
276.0778806909502
 31
0.0
  0
LINE
  5
4497
330
1A
100
AcDbEntity
  8
SEIHIN
  6
Continuous
 62
     3
100
AcDbLine
 10
1471.33837121981
 20
128.5778806909502
 30
0.0
 11
1468.326368785212
 21
276.0778806909502
 31
0.0
  0
LINE
  5
4498
330
1A
100
AcDbEntity
  8
SEIHIN
  6
Continuous
 62
     3
100
AcDbLine
 10
1474.576368785212
 20
128.5778806909502
 30
0.0
 11
1474.576368785212
 21
273.6897966624529
 31
0.0
  0
LWPOLYLINE
  5
4499
330
1A
100
AcDbEntity
  8
SEIHIN
  6
Continuous
 62
     3
100
AcDbPolyline
 90
        9
 70
     0
 43
0.0
 10
1474.576368785212
 20
273.6897966624529
 10
1474.593370945287
 20
273.7863190487969
 10
1474.64373602912
 20
273.8789262403843
 10
1474.725564043834
 20
273.9641246859119
 10
1474.835768076171
 20
274.0387003246187
 10
1474.970190744458
 20
274.0998398348247
 10
1475.123761033365
 20
274.1452367648153
 10
1475.290685594947
 20
274.1731785423685
 10
1475.46466729925
 20
274.1826110805196
  0
LINE
  5
449A
330
1A
100
AcDbEntity
  8
SEIHIN
  6
Continuous
 62
     3
100
AcDbLine
 10
1475.46466729925
 20
274.1826110805196
 30
0.0
 11
1557.688070271174
 21
274.1826110805196
 31
0.0
  0
LWPOLYLINE
  5
449B
330
1A
100
AcDbEntity
  8
SEIHIN
  6
Continuous
 62
     3
100
AcDbPolyline
 90
        9
 70
     0
 43
0.0
 10
1557.688070271174
 20
274.1826110805196
 10
1557.862051975477
 20
274.1731785423685
 10
1558.028976537058
 20
274.1452367648153
 10
1558.182546825966
 20
274.0998398348247
 10
1558.316969494254
 20
274.0387003246187
 10
1558.42717352659
 20
273.9641246859119
 10
1558.509001541304
 20
273.8789262403843
 10
1558.559366625137
 20
273.7863190487969
 10
1558.576368785212
 20
273.6897966624529
  0
LINE
  5
449C
330
1A
100
AcDbEntity
  8
SEIHIN
  6
Continuous
 62
     3
100
AcDbLine
 10
1564.826368785212
 20
276.0778806909502
 30
0.0
 11
1569.076368785212
 21
276.0778806909502
 31
0.0
  0
LINE
  5
449D
330
1A
100
AcDbEntity
  8
SEIHIN
  6
Continuous
 62
     3
100
AcDbLine
 10
1561.814366350614
 20
128.5778806909502
 30
0.0
 11
1561.814234393841
 21
128.5691544877318
 31
0.0
  0
LINE
  5
449E
330
1A
100
AcDbEntity
  8
SEIHIN
  6
Continuous
 62
     3
100
AcDbLine
 10
1566.501594391856
 20
128.5691544877318
 30
0.0
 11
1569.076368785212
 21
276.0778806909502
 31
0.0
  0
LINE
  5
449F
330
1A
100
AcDbEntity
  8
SEIHIN
  6
Continuous
 62
     3
100
AcDbLine
 10
1561.814366350614
 20
128.5778806909502
 30
0.0
 11
1564.826368785212
 21
276.0778806909502
 31
0.0
  0
LINE
  5
44A0
330
1A
100
AcDbEntity
  8
SEIHIN
  6
Continuous
 62
     3
100
AcDbLine
 10
1478.300488817635
 20
127.77788069095
 30
0.0
 11
1479.644834738912
 21
104.3925144324621
 31
0.0
  0
LINE
  5
44A1
330
1A
100
AcDbEntity
  8
SEIHIN
  6
Continuous
 62
     3
100
AcDbLine
 10
1553.256142896359
 20
104.3925144324621
 30
0.0
 11
1554.600488817635
 21
127.77788069095
 31
0.0
  0
ARC
  5
44A2
330
1A
100
AcDbEntity
  8
SEIHIN
  6
Continuous
 62
     3
100
AcDbCircle
 10
1453.420970115998
 20
110.131702172509
 30
0.0
 40
99.99999999999984
100
AcDbArc
 50
348.6069626737891
 51
356.7098797766635
  0
ARC
  5
44A3
330
1A
100
AcDbEntity
  8
SEIHIN
  6
Continuous
 62
     3
100
AcDbCircle
 10
1579.480007519273
 20
110.131702172509
 30
0.0
 40
99.99999999999996
100
AcDbArc
 50
183.2901202233363
 51
191.3930373262108
  0
LINE
  5
44A4
330
1A
100
AcDbEntity
  8
SEIHIN
  6
Continuous
 62
     3
100
AcDbLine
 10
1487.850488817635
 20
90.37788069095041
 30
0.0
 11
1488.750488817635
 21
84.3778806909504
 31
0.0
  0
LINE
  5
44A5
330
1A
100
AcDbEntity
  8
SEIHIN
  6
Continuous
 62
     3
100
AcDbLine
 10
1544.150488817636
 20
84.3778806909504
 30
0.0
 11
1545.050488817635
 21
90.37788069095041
 31
0.0
  0
LINE
  5
44A6
330
1A
100
AcDbEntity
  8
SEIHIN
  6
Continuous
 62
     3
100
AcDbLine
 10
1481.450488817635
 20
90.37788069095041
 30
0.0
 11
1551.450488817635
 21
90.37788069095041
 31
0.0
  0
LINE
  5
44A7
330
1A
100
AcDbEntity
  8
SEIHIN
  6
Continuous
 62
     3
100
AcDbLine
 10
1516.450488817636
 20
84.3778806909504
 30
0.0
 11
1544.150488817636
 21
84.3778806909504
 31
0.0
  0
LINE
  5
44A8
330
1A
100
AcDbEntity
  8
SEIHIN
  6
Continuous
 62
     3
100
AcDbLine
 10
1488.750488817635
 20
84.3778806909504
 30
0.0
 11
1516.450488817636
 21
84.3778806909504
 31
0.0
  0
LINE
  5
4E05
330
1A
100
AcDbEntity
  8
CENTER_L
  6
CENTER
 62
     1
 48
5.0
100
AcDbLine
 10
1132.241440934763
 20
302.6378161515684
 30
0.0
 11
1132.241440934763
 21
66.3024179017982
 31
0.0
  0
LINE
  5
4E06
330
1A
100
AcDbEntity
  8
CENTER_L
  6
CENTER
 62
     1
 48
5.0
100
AcDbLine
 10
1347.95861752064
 20
137.8514313736348
 30
0.0
 11
1347.95861752064
 21
72.81769795428568
 31
0.0
  0
LINE
  5
4E07
330
1A
100
AcDbEntity
  8
CENTER_L
  6
CENTER
 62
     1
 48
5.0
100
AcDbLine
 10
1516.450488817636
 20
302.6378161515684
 30
0.0
 11
1516.450488817636
 21
66.3024179017982
 31
0.0
  0
LINE
  5
4E08
330
1A
100
AcDbEntity
  8
CENTER_L
  6
CENTER
 62
     1
 48
5.0
100
AcDbLine
 10
1132.241440934763
 20
363.7446797587452
 30
0.0
 11
1132.241440934763
 21
486.0153509391109
 31
0.0
  0
DIMENSION
  5
4E74
330
1A
100
AcDbEntity
  8
SUNPOU
100
AcDbDimension
  2
*D78
 10
1186.35625451211
 20
504.262629044002
 30
0.0
 11
1133.856254512109
 21
509.2626290440021
 31
0.0
 70
    32
 71
     5
 42
105.0000000000009
  3
STANDARD
100
AcDbAlignedDimension
 13
1081.356254512108
 23
470.6024604154118
 33
0.0
 14
1186.35625451211
 24
470.6024604154099
 34
0.0
100
AcDbRotatedDimension
1001
ACAD
1000
DSTYLE
1002
{
1070
    41
1040
7.0
1070
    42
1040
6.0
1070
    43
1040
14.0
1070
    44
1040
3.0
1070
    73
1070
     0
1070
    74
1070
     0
1070
    77
1070
     3
1070
   140
1040
6.0
1070
   141
1040
150.0
1070
   147
1040
2.0
1070
   172
1070
     1
1070
   173
1070
     1
1070
   176
1070
   256
1070
   177
1070
   256
1070
   178
1070
   256
1070
   271
1070
     0
1070
   272
1070
     0
1070
   341
1005
6D
1070
   343
1005
6D
1070
   344
1005
6D
1070
   371
1070
    -1
1070
   372
1070
    -1
1002
}
  0
DIMENSION
  5
4E77
330
1A
100
AcDbEntity
  8
SUNPOU
100
AcDbDimension
  2
*D68
 10
1216.974119200725
 20
372.6222679254416
 30
0.0
 11
1211.974119200725
 21
425.1222679254419
 31
0.0
 70
    32
 71
     5
 42
105.0
  3
STANDARD
100
AcDbAlignedDimension
 13
1180.44112416682
 23
477.6222679254416
 33
0.0
 14
1132.19112416682
 24
372.6222679254417
 34
0.0
 50
90.0
100
AcDbRotatedDimension
1001
ACAD
1000
DSTYLE
1002
{
1070
    41
1040
7.0
1070
    42
1040
6.0
1070
    43
1040
14.0
1070
    44
1040
3.0
1070
    73
1070
     0
1070
    74
1070
     0
1070
    77
1070
     3
1070
   140
1040
6.0
1070
   141
1040
150.0
1070
   147
1040
2.0
1070
   172
1070
     1
1070
   173
1070
     1
1070
   176
1070
   256
1070
   177
1070
   256
1070
   178
1070
   256
1070
   271
1070
     0
1070
   272
1070
     0
1070
   341
1005
6D
1070
   343
1005
6D
1070
   344
1005
6D
1070
   371
1070
    -1
1070
   372
1070
    -1
1002
}
  0
DIMENSION
  5
4E78
330
1A
100
AcDbEntity
  8
SUNPOU
100
AcDbDimension
  2
*D67
 10
1184.615560967187
 20
322.1948757653026
 30
0.0
 11
1132.178500950975
 21
327.1948757653027
 31
0.0
 70
    32
 71
     5
 42
104.874120032423
  3
STANDARD
100
AcDbAlignedDimension
 13
1079.741440934764
 23
276.0778806909502
 33
0.0
 14
1184.615560967187
 24
276.0778806909502
 34
0.0
100
AcDbRotatedDimension
1001
ACAD
1000
DSTYLE
1002
{
1070
    41
1040
7.0
1070
    42
1040
6.0
1070
    43
1040
14.0
1070
    44
1040
3.0
1070
    73
1070
     0
1070
    74
1070
     0
1070
    77
1070
     3
1070
   140
1040
6.0
1070
   141
1040
150.0
1070
   147
1040
2.0
1070
   172
1070
     1
1070
   173
1070
     1
1070
   176
1070
   256
1070
   177
1070
   256
1070
   178
1070
   256
1070
   271
1070
     0
1070
   272
1070
     0
1070
   341
1005
6D
1070
   343
1005
6D
1070
   344
1005
6D
1070
   371
1070
    -1
1070
   372
1070
    -1
1002
}
  0
DIMENSION
  5
4E79
330
1A
100
AcDbEntity
  8
SUNPOU
100
AcDbDimension
  2
*D77
 10
1166.318886355893
 20
281.137547621963
 30
0.0
 11
1153.797659037087
 21
304.4678801663331
 31
0.0
 70
    35
 71
     5
 42
5.001645144107783
  3
STANDARD
100
AcDbDiametricDimension
 15
1163.163995511215
 25
285.0186709008278
 35
0.0
 40
0.0
1001
ACAD
1000
DSTYLE
1002
{
1070
    41
1040
7.0
1070
    42
1040
6.0
1070
    43
1040
14.0
1070
    44
1040
3.0
1070
    73
1070
     0
1070
    74
1070
     0
1070
    77
1070
     3
1070
   140
1040
6.0
1070
   141
1040
150.0
1070
   147
1040
2.0
1070
   172
1070
     1
1070
   173
1070
     1
1070
   176
1070
   256
1070
   177
1070
   256
1070
   178
1070
   256
1070
   271
1070
     0
1070
   272
1070
     0
1070
   341
1005
6D
1070
   343
1005
6D
1070
   344
1005
6D
1070
   371
1070
    -1
1070
   372
1070
    -1
1002
}
  0
DIMENSION
  5
4E7A
330
1A
100
AcDbEntity
  8
SUNPOU
100
AcDbDimension
  2
*D76
 10
1229.239185117261
 20
84.3778806909513
 30
0.0
 11
1224.239185117261
 21
187.7278806909509
 31
0.0
 70
    32
 71
     5
 42
206.6999999999989
  3
STANDARD
100
AcDbAlignedDimension
 13
1180.491440934764
 23
291.0778806909502
 33
0.0
 14
1159.941440934764
 24
84.37788069095132
 34
0.0
 50
90.0
100
AcDbRotatedDimension
1001
ACAD
1000
DSTYLE
1002
{
1070
    41
1040
7.0
1070
    42
1040
6.0
1070
    43
1040
14.0
1070
    44
1040
3.0
1070
    73
1070
     0
1070
    74
1070
     0
1070
    77
1070
     3
1070
   140
1040
6.0
1070
   141
1040
150.0
1070
   147
1040
2.0
1070
   172
1070
     1
1070
   173
1070
     1
1070
   176
1070
   256
1070
   177
1070
   256
1070
   178
1070
   256
1070
   271
1070
     0
1070
   272
1070
     0
1070
   341
1005
6D
1070
   343
1005
6D
1070
   344
1005
6D
1070
   371
1070
    -1
1070
   372
1070
    -1
1002
}
  0
DIMENSION
  5
4E7B
330
1A
100
AcDbEntity
  8
SUNPOU
100
AcDbDimension
  2
*D74
 10
1210.673204453356
 20
276.0778806909502
 30
0.0
 11
1205.673204453356
 21
283.5778806909504
 31
0.0
 70
    32
 71
     5
 42
15.0
  3
STANDARD
100
AcDbAlignedDimension
 13
1180.491440934764
 23
291.0778806909502
 33
0.0
 14
1184.741440934764
 24
276.0778806909502
 34
0.0
 50
90.0
100
AcDbRotatedDimension
1001
ACAD
1000
DSTYLE
1002
{
1070
    41
1040
7.0
1070
    42
1040
6.0
1070
    43
1040
14.0
1070
    44
1040
3.0
1070
    73
1070
     0
1070
    74
1070
     0
1070
    77
1070
     3
1070
   140
1040
6.0
1070
   141
1040
150.0
1070
   147
1040
2.0
1070
   172
1070
     1
1070
   173
1070
     1
1070
   176
1070
   256
1070
   177
1070
   256
1070
   178
1070
   256
1070
   271
1070
     0
1070
   272
1070
     0
1070
   341
1005
6D
1070
   343
1005
6D
1070
   344
1005
6D
1070
   371
1070
    -1
1070
   372
1070
    -1
1002
}
  0
DIMENSION
  5
4E7C
330
1A
100
AcDbEntity
  8
SUNPOU
100
AcDbDimension
  2
*D73
 10
1210.673204453356
 20
128.0778806909502
 30
0.0
 11
1205.673204453356
 21
202.0778806909504
 31
0.0
 70
    32
 71
     5
 42
148.0
  3
STANDARD
100
AcDbAlignedDimension
 13
1185.741440934764
 23
276.0778806909502
 33
0.0
 14
1181.66674269383
 24
128.0778806909502
 34
0.0
 50
90.0
100
AcDbRotatedDimension
1001
ACAD
1000
DSTYLE
1002
{
1070
    41
1040
7.0
1070
    42
1040
6.0
1070
    43
1040
14.0
1070
    44
1040
3.0
1070
    73
1070
     0
1070
    74
1070
     0
1070
    77
1070
     3
1070
   140
1040
6.0
1070
   141
1040
150.0
1070
   147
1040
2.0
1070
   172
1070
     1
1070
   173
1070
     1
1070
   176
1070
   256
1070
   177
1070
   256
1070
   178
1070
   256
1070
   271
1070
     0
1070
   272
1070
     0
1070
   341
1005
6D
1070
   343
1005
6D
1070
   344
1005
6D
1070
   371
1070
    -1
1070
   372
1070
    -1
1002
}
  0
DIMENSION
  5
4E7D
330
1A
100
AcDbEntity
  8
SUNPOU
100
AcDbDimension
  2
*D79
 10
1401.95861752064
 20
310.6008972872615
 30
0.0
 11
1349.458617520639
 21
315.6008972872614
 31
0.0
 70
    32
 71
     5
 42
105.0000000000009
  3
STANDARD
100
AcDbAlignedDimension
 13
1296.958617520639
 23
276.0778806909502
 33
0.0
 14
1401.95861752064
 24
290.8278806909502
 34
0.0
100
AcDbRotatedDimension
1001
ACAD
1000
DSTYLE
1002
{
1070
    41
1040
7.0
1070
    42
1040
6.0
1070
    43
1040
14.0
1070
    44
1040
3.0
1070
    73
1070
     0
1070
    74
1070
     0
1070
    77
1070
     3
1070
   140
1040
6.0
1070
   141
1040
150.0
1070
   147
1040
2.0
1070
   172
1070
     1
1070
   173
1070
     1
1070
   176
1070
   256
1070
   177
1070
   256
1070
   178
1070
   256
1070
   271
1070
     0
1070
   272
1070
     0
1070
   341
1005
6D
1070
   343
1005
6D
1070
   344
1005
6D
1070
   371
1070
    -1
1070
   372
1070
    -1
1002
}
  0
DIMENSION
  5
4E80
330
1A
100
AcDbEntity
  8
SUNPOU
100
AcDbDimension
  2
*D69
 10
1548.824608850059
 20
310.6008972872615
 30
0.0
 11
1516.324608850059
 21
315.6008972872614
 31
0.0
 70
    32
 71
     5
 42
65.0
  3
STANDARD
100
AcDbAlignedDimension
 13
1483.824608850059
 23
283.0778806909502
 33
0.0
 14
1548.824608850059
 24
283.0778806909502
 34
0.0
100
AcDbRotatedDimension
1001
ACAD
1000
DSTYLE
1002
{
1070
    41
1040
7.0
1070
    42
1040
6.0
1070
    43
1040
14.0
1070
    44
1040
3.0
1070
    73
1070
     0
1070
    74
1070
     0
1070
    77
1070
     3
1070
   140
1040
6.0
1070
   141
1040
150.0
1070
   147
1040
2.0
1070
   172
1070
     1
1070
   173
1070
     1
1070
   176
1070
   256
1070
   177
1070
   256
1070
   178
1070
   256
1070
   271
1070
     0
1070
   272
1070
     0
1070
   341
1005
6D
1070
   343
1005
6D
1070
   344
1005
6D
1070
   371
1070
    -1
1070
   372
1070
    -1
1002
}
  0
DIMENSION
  5
4E81
330
1A
100
AcDbEntity
  8
SUNPOU
100
AcDbDimension
  2
*D72
 10
1552.324608248635
 20
248.2620095474931
 30
0.0
 11
1516.324608549347
 21
253.2620095474931
 31
0.0
 70
    32
 71
     5
 42
71.99999939857616
  3
STANDARD
100
AcDbAlignedDimension
 13
1480.324608850059
 23
248.2620095474931
 33
0.0
 14
1552.324608248635
 24
248.2620095474931
 34
0.0
100
AcDbRotatedDimension
1001
ACAD
1000
DSTYLE
1002
{
1070
    41
1040
7.0
1070
    42
1040
6.0
1070
    43
1040
14.0
1070
    44
1040
3.0
1070
    73
1070
     0
1070
    74
1070
     0
1070
    77
1070
     3
1070
   140
1040
6.0
1070
   141
1040
150.0
1070
   147
1040
2.0
1070
   172
1070
     1
1070
   173
1070
     1
1070
   176
1070
   256
1070
   177
1070
   256
1070
   178
1070
   256
1070
   271
1070
     0
1070
   272
1070
     0
1070
   341
1005
6D
1070
   343
1005
6D
1070
   344
1005
6D
1070
   371
1070
    -1
1070
   372
1070
    -1
1002
}
  0
DIMENSION
  5
4E82
330
1A
100
AcDbEntity
  8
SUNPOU
100
AcDbDimension
  2
*D70
 10
1516.32460885006
 20
229.0778806909532
 30
0.0
 11
1509.414448619712
 21
219.2245184513577
 31
0.0
 70
   164
 71
     5
 42
36.03491012985842
  3
STANDARD
100
AcDbRadialDimension
 15
1495.63421729776
 25
199.5749580309947
 35
0.0
 40
0.0
1001
ACAD
1000
DSTYLE
1002
{
1070
    41
1040
7.0
1070
    42
1040
6.0
1070
    43
1040
14.0
1070
    44
1040
3.0
1070
    73
1070
     0
1070
    74
1070
     0
1070
    77
1070
     3
1070
   140
1040
6.0
1070
   141
1040
150.0
1070
   147
1040
2.0
1070
   172
1070
     1
1070
   173
1070
     1
1070
   176
1070
   256
1070
   177
1070
   256
1070
   178
1070
   256
1070
   271
1070
     0
1070
   272
1070
     0
1070
   341
1005
6D
1070
   343
1005
6D
1070
   344
1005
6D
1070
   371
1070
    -1
1070
   372
1070
    -1
1002
}
  0
DIMENSION
  5
4E83
330
1A
100
AcDbEntity
  8
SUNPOU
100
AcDbDimension
  2
*D71
 10
1592.732596365587
 20
193.042970561094
 30
0.0
 11
1587.732596365587
 21
233.6127908208075
 31
0.0
 70
    32
 71
     5
 42
81.13964051942639
  3
STANDARD
100
AcDbAlignedDimension
 13
1557.436310336021
 23
274.1826110805205
 33
0.0
 14
1516.324608850063
 24
193.042970561094
 34
0.0
 50
90.0
100
AcDbRotatedDimension
1001
ACAD
1000
DSTYLE
1002
{
1070
    41
1040
7.0
1070
    42
1040
6.0
1070
    43
1040
14.0
1070
    44
1040
3.0
1070
    73
1070
     0
1070
    74
1070
     0
1070
    77
1070
     3
1070
   140
1040
6.0
1070
   141
1040
150.0
1070
   147
1040
2.0
1070
   172
1070
     1
1070
   173
1070
     1
1070
   176
1070
   256
1070
   177
1070
   256
1070
   178
1070
   256
1070
   271
1070
     0
1070
   272
1070
     0
1070
   341
1005
6D
1070
   343
1005
6D
1070
   344
1005
6D
1070
   371
1070
    -1
1070
   372
1070
    -1
1002
}
  0
DIMENSION
  5
4E84
330
1A
100
AcDbEntity
  8
SUNPOU
100
AcDbDimension
  2
*D75
 10
1210.394326636117
 20
84.3778806909513
 30
0.0
 11
1205.394326636117
 21
106.2278806909509
 31
0.0
 70
    32
 71
     5
 42
43.6999999999989
  3
STANDARD
100
AcDbAlignedDimension
 13
1181.666742693832
 23
128.0778806909502
 33
0.0
 14
1160.941440934764
 24
84.37788069095132
 34
0.0
 50
90.0
100
AcDbRotatedDimension
1001
ACAD
1000
DSTYLE
1002
{
1070
    41
1040
7.0
1070
    42
1040
6.0
1070
    43
1040
14.0
1070
    44
1040
3.0
1070
    73
1070
     0
1070
    74
1070
     0
1070
    77
1070
     3
1070
   140
1040
6.0
1070
   141
1040
150.0
1070
   147
1040
2.0
1070
   172
1070
     1
1070
   173
1070
     1
1070
   176
1070
   256
1070
   177
1070
   256
1070
   178
1070
   256
1070
   271
1070
     0
1070
   272
1070
     0
1070
   341
1005
6D
1070
   343
1005
6D
1070
   344
1005
6D
1070
   371
1070
    -1
1070
   372
1070
    -1
1002
}
  0
TEXT
  5
4FAB
330
1A
100
AcDbEntity
  8
moji
100
AcDbText
 10
1065.786785523896
 20
20.72071542981962
 30
0.0
 40
6.0
  1
たてとい　丸トップ
 41
0.9
  7
MSｺﾞｼｯｸ
100
AcDbText
  0
VIEWPORT
  5
22
102
{ACAD_XDICTIONARY
360
4FC6
102
}
330
17
100
AcDbEntity
 67
     1
  8
0
100
AcDbViewport
 10
220.6437458997499
 20
161.210449050957
 30
0.0
 40
789.3193103329424
 41
515.740975574095
 68
     2
 69
     1
 12
220.6437458997499
 22
161.210449050957
 13
0.0
 23
0.0
 14
1.0
 24
1.0
 15
10.0
 25
10.0
 16
0.0
 26
0.0
 36
1.0
 17
0.0
 27
0.0
 37
0.0
 42
50.0
 43
0.0
 44
0.0
 45
515.740975574095
 50
0.0
 51
0.0
 72
   100
 90
    32768
  1

281
     0
 71
     1
 74
     0
110
0.0
120
0.0
130
0.0
111
1.0
121
0.0
131
0.0
112
0.0
122
1.0
132
0.0
 79
     0
146
0.0
  0
VIEWPORT
  5
64
102
{ACAD_XDICTIONARY
360
4FC8
102
}
330
17
100
AcDbEntity
 67
     1
  8
VIEWPORT
100
AcDbViewport
 10
210.0
 20
161.332740991577
 30
0.0
 40
420.0
 41
322.6654819831541
 68
     1
 69
     2
 12
1373.991148986929
 22
292.3989246221236
 13
0.0
 23
0.0
 14
10.0
 24
10.0
 15
0.0
 25
0.0
 16
0.0
 26
0.0
 36
1.0
 17
0.0
 27
0.0
 37
0.0
 42
50.0
 43
0.0
 44
0.0
 45
645.3309630320403
 50
0.0
 51
0.0
 72
   100
 90
    32768
  1

281
     0
 71
     1
 74
     0
110
0.0
120
0.0
130
0.0
111
1.0
121
0.0
131
0.0
112
0.0
122
1.0
132
0.0
 79
     0
146
0.0
  0
ENDSEC
  0
SECTION
  2
OBJECTS
  0
DICTIONARY
  5
C
330
0
100
AcDbDictionary
281
     1
  3
ACAD_COLOR
350
3D6A
  3
ACAD_GROUP
350
D
  3
ACAD_LAYOUT
350
14C
  3
ACAD_MATERIAL
350
3D69
  3
ACAD_MLINESTYLE
350
E
  3
ACAD_PLOTSETTINGS
350
14D
  3
ACAD_PLOTSTYLENAME
350
14A
  3
ACDBHEADERROUNDTRIPXREC
350
4FC3
  3
AcDbVariableDictionary
350
4FB9
  0
DICTIONARY
  5
3F9F
330
2
100
AcDbDictionary
280
     1
281
     1
  3
ACAD_LAYERSTATES
360
3FA0
  0
DICTIONARY
  5
3F9A
330
3F99
100
AcDbDictionary
280
     1
281
     1
  3
ADSK_XREC_LAYER_RECONCILED
360
3F9B
  0
DICTIONARY
  5
478A
330
4789
100
AcDbDictionary
280
     1
281
     1
  3
ADSK_XREC_LAYER_RECONCILED
360
478B
  0
DICTIONARY
  5
CFB
330
1A
100
AcDbDictionary
280
     1
281
     1
  3
ACAD_LAYOUTSELFREF
360
3D44
  0
DICTIONARY
  5
CF9
330
17
100
AcDbDictionary
280
     1
281
     1
  3
ACAD_LAYOUTSELFREF
360
3D43
  0
DICTIONARY
  5
4FC6
330
22
100
AcDbDictionary
280
     1
281
     1
  3
ACAD_XREC_ROUNDTRIP
360
4FC7
  0
DICTIONARY
  5
4FC8
330
64
100
AcDbDictionary
280
     1
281
     1
  3
ACAD_XREC_ROUNDTRIP
360
4FC9
  0
DICTIONARY
  5
3D6A
102
{ACAD_REACTORS
330
C
102
}
330
C
100
AcDbDictionary
281
     1
  0
DICTIONARY
  5
D
102
{ACAD_REACTORS
330
C
102
}
330
C
100
AcDbDictionary
281
     1
  0
DICTIONARY
  5
14C
102
{ACAD_REACTORS
330
C
102
}
330
C
100
AcDbDictionary
281
     1
  3
Model
350
14E
  3
ﾚｲｱｳﾄ1
350
14F
  0
DICTIONARY
  5
3D69
102
{ACAD_REACTORS
330
C
102
}
330
C
100
AcDbDictionary
281
     1
  0
DICTIONARY
  5
E
102
{ACAD_REACTORS
330
C
102
}
330
C
100
AcDbDictionary
281
     1
  3
STANDARD
350
13
  0
DICTIONARY
  5
14D
102
{ACAD_REACTORS
330
C
102
}
330
C
100
AcDbDictionary
281
     1
  0
ACDBDICTIONARYWDFLT
  5
14A
102
{ACAD_REACTORS
330
C
102
}
330
C
100
AcDbDictionary
281
     1
  3
Normal
350
14B
100
AcDbDictionaryWithDefault
340
14B
1001
ACAD
1000
TREAT_AS_HARD
1070
     0
1000
TREAT_AS_HARD
1070
     0
1000
TREAT_AS_HARD
1070
     0
1000
TREAT_AS_HARD
1070
     0
1000
TREAT_AS_HARD
1070
     0
1000
TREAT_AS_HARD
1070
     0
1000
TREAT_AS_HARD
1070
     0
1000
TREAT_AS_HARD
1070
     0
  0
DICTIONARY
  5
4FC3
102
{ACAD_REACTORS
330
C
102
}
330
C
100
AcDbDictionary
281
     1
  3
COLORDICT
350
4FC5
  3
MATERIALDICT
350
4FC4
  0
DICTIONARY
  5
4FB9
102
{ACAD_REACTORS
330
C
102
}
330
C
100
AcDbDictionary
281
     1
  3
DIMASSOC
350
4FBA
  3
PROJECTNAME
350
4FBB
  0
DICTIONARY
  5
3FA0
102
{ACAD_REACTORS
330
3F9F
102
}
330
3F9F
100
AcDbDictionary
281
     1
  0
XRECORD
  5
3F9B
102
{ACAD_REACTORS
330
3F9A
102
}
330
3F9A
100
AcDbXrecord
280
     1
290
     1
  0
XRECORD
  5
478B
102
{ACAD_REACTORS
330
478A
102
}
330
478A
100
AcDbXrecord
280
     1
290
     1
  0
XRECORD
  5
3D44
102
{ACAD_REACTORS
330
CFB
102
}
330
CFB
100
AcDbXrecord
280
     1
340
1A
  0
XRECORD
  5
3D43
102
{ACAD_REACTORS
330
CF9
102
}
330
CF9
100
AcDbXrecord
280
     1
340
17
  0
XRECORD
  5
4FC7
102
{ACAD_REACTORS
330
4FC6
102
}
330
4FC6
100
AcDbXrecord
280
     1
102
SHADEPLOT
 70
     0
  0
XRECORD
  5
4FC9
102
{ACAD_REACTORS
330
4FC8
102
}
330
4FC8
100
AcDbXrecord
280
     1
102
SHADEPLOT
 70
     0
  0
LAYOUT
  5
14E
102
{ACAD_XDICTIONARY
360
4FCA
102
}
102
{ACAD_REACTORS
330
14C
102
}
330
14C
100
AcDbPlotSettings
  1

  2
Acrobat Distiller
  4
A3
  6

 40
3.174999952316284
 41
3.174999952316284
 42
3.17498779296875
 43
3.17498779296875
 44
297.0318298339844
 45
420.1583251953125
 46
7.0
 47
7.0
 48
-3.141893428214643
 49
2.226765358008606
140
826.862778806495
141
580.5215870209385
142
1.0
143
2.0
 70
 11952
 72
     1
 73
     1
 74
     2
  7
print.ctb
 75
    17
147
0.5
148
0.0
149
0.0
100
AcDbLayout
  1
Model
 70
     1
 71
     0
 10
0.0
 20
0.0
 11
12.0
 21
9.0
 12
0.0
 22
0.0
 32
0.0
 14
0.0
 24
0.0
 34
0.0
 15
0.0
 25
0.0
 35
0.0
146
0.0
 13
0.0
 23
0.0
 33
0.0
 16
1.0
 26
0.0
 36
0.0
 17
0.0
 27
1.0
 37
0.0
 76
     0
330
1A
  0
LAYOUT
  5
14F
102
{ACAD_XDICTIONARY
360
4FCC
102
}
102
{ACAD_REACTORS
330
14C
102
}
330
14C
100
AcDbPlotSettings
  1

  2
none_device
  4
Letter_(8.50_x_11.00_Inches)
  6

 40
6.349999904632568
 41
6.349999904632568
 42
6.350006103515625
 43
6.350006103515625
 44
215.8999938964844
 45
279.3999938964844
 46
0.0
 47
0.0
 48
0.0
 49
0.0
140
0.0
141
0.0
142
1.0
143
1.574899339483712
 70
   688
 72
     1
 73
     1
 74
     1
  7
print.ctb
 75
     0
147
0.6349612162056162
148
0.0128164049386896
149
0.0090630292066862
100
AcDbLayout
  1
ﾚｲｱｳﾄ1
 70
     1
 71
     1
 10
-10.01343682308299
 20
-10.00967368473416
 11
430.0134290162437
 21
330.0110840973768
 12
0.0
 22
0.0
 32
0.0
 14
-0.0128164049386896
 24
-0.0090630292066862
 34
-0.0015258207003583
 15
420.0128183607161
 25
322.6654819831541
 35
0.0000000349246037
146
0.0
 13
0.0
 23
0.0
 33
0.0
 16
1.0
 26
0.0
 36
0.0
 17
0.0
 27
1.0
 37
0.0
 76
     0
330
17
331
64
  0
MLINESTYLE
  5
13
102
{ACAD_REACTORS
330
E
102
}
330
E
100
AcDbMlineStyle
  2
STANDARD
 70
     0
  3

 62
     0
 51
90.0
 52
90.0
 71
     2
 49
0.5
 62
   256
  6
BYLAYER
 49
-0.5
 62
   256
  6
BYLAYER
  0
ACDBPLACEHOLDER
  5
14B
102
{ACAD_REACTORS
330
14A
102
}
330
14A
  0
XRECORD
  5
4FC5
102
{ACAD_REACTORS
330
4FC3
102
}
330
4FC3
100
AcDbXrecord
280
     1
340
3D6A
  0
XRECORD
  5
4FC4
102
{ACAD_REACTORS
330
4FC3
102
}
330
4FC3
100
AcDbXrecord
280
     1
340
3D69
  0
DICTIONARYVAR
  5
4FBA
102
{ACAD_REACTORS
330
4FB9
102
}
330
4FB9
100
DictionaryVariables
280
     0
  1
1
  0
DICTIONARYVAR
  5
4FBB
102
{ACAD_REACTORS
330
4FB9
102
}
330
4FB9
100
DictionaryVariables
280
     0
  1

  0
DICTIONARY
  5
4FCA
330
14E
100
AcDbDictionary
280
     1
281
     1
  3
ACAD_XREC_ROUNDTRIP
360
4FCB
  0
DICTIONARY
  5
4FCC
330
14F
100
AcDbDictionary
280
     1
281
     1
  3
ACAD_XREC_ROUNDTRIP
360
4FCD
  0
XRECORD
  5
4FCB
102
{ACAD_REACTORS
330
4FCA
102
}
330
4FCA
100
AcDbXrecord
280
     1
102
SHADEPLOT
 70
     0
102
SHADEPLOTRESLEVEL
 70
     2
102
SHADEPLOTCUSTOMDPI
 70
   300
  0
XRECORD
  5
4FCD
102
{ACAD_REACTORS
330
4FCC
102
}
330
4FCC
100
AcDbXrecord
280
     1
102
SHADEPLOT
 70
     0
102
SHADEPLOTRESLEVEL
 70
     2
102
SHADEPLOTCUSTOMDPI
 70
   300
  0
ENDSEC
  0
EOF
