  0
SECTION
  2
HEADER
  9
$ACADVER
  1
AC1015
  9
$ACADMAINTVER
 70
    20
  9
$DWGCODEPAGE
  3
ANSI_932
  9
$INSBASE
 10
0.0
 20
0.0
 30
0.0
  9
$EXTMIN
 10
-0.0223812330617648
 20
-0.0026344982942419
 30
-0.0000000349181948
  9
$EXTMAX
 10
398.829996094061
 20
275.821459866954
 30
0.0000000814935746
  9
$LIMMIN
 10
0.0
 20
0.0
  9
$LIMMAX
 10
420.0
 20
297.0
  9
$ORTHOMODE
 70
     0
  9
$REGENMODE
 70
     1
  9
$FILLMODE
 70
     1
  9
$QTEXTMODE
 70
     0
  9
$MIRRTEXT
 70
     1
  9
$LTSCALE
 40
1.0
  9
$ATTMODE
 70
     1
  9
$TEXTSIZE
 40
2.5
  9
$TRACEWID
 40
1.0
  9
$TEXTSTYLE
  7
kanji
  9
$CLAYER
  8
0
  9
$CELTYPE
  6
BYLAYER
  9
$CECOLOR
 62
   256
  9
$CELTSCALE
 40
1.0
  9
$DISPSILH
 70
     0
  9
$DIMSCALE
 40
1.0
  9
$DIMASZ
 40
3.0
  9
$DIMEXO
 40
3.0
  9
$DIMDLI
 40
7.0
  9
$DIMRND
 40
0.0
  9
$DIMDLE
 40
0.0
  9
$DIMEXE
 40
1.5
  9
$DIMTP
 40
0.0
  9
$DIMTM
 40
0.0
  9
$DIMTXT
 40
3.0
  9
$DIMCEN
 40
15.0
  9
$DIMTSZ
 40
0.0
  9
$DIMTOL
 70
     0
  9
$DIMLIM
 70
     0
  9
$DIMTIH
 70
     0
  9
$DIMTOH
 70
     0
  9
$DIMSE1
 70
     0
  9
$DIMSE2
 70
     0
  9
$DIMTAD
 70
     3
  9
$DIMZIN
 70
     0
  9
$DIMBLK
  1
Open30
  9
$DIMASO
 70
     1
  9
$DIMSHO
 70
     1
  9
$DIMPOST
  1

  9
$DIMAPOST
  1

  9
$DIMALT
 70
     0
  9
$DIMALTD
 70
     2
  9
$DIMALTF
 40
25.4
  9
$DIMLFAC
 40
1.0
  9
$DIMTOFL
 70
     1
  9
$DIMTVP
 40
0.0
  9
$DIMTIX
 70
     0
  9
$DIMSOXD
 70
     0
  9
$DIMSAH
 70
     0
  9
$DIMBLK1
  1

  9
$DIMBLK2
  1

  9
$DIMSTYLE
  2
STANDARD
  9
$DIMCLRD
 70
     4
  9
$DIMCLRE
 70
     4
  9
$DIMCLRT
 70
     4
  9
$DIMTFAC
 40
1.0
  9
$DIMGAP
 40
1.0
  9
$DIMJUST
 70
     0
  9
$DIMSD1
 70
     0
  9
$DIMSD2
 70
     0
  9
$DIMTOLJ
 70
     1
  9
$DIMTZIN
 70
     0
  9
$DIMALTZ
 70
     0
  9
$DIMALTTZ
 70
     0
  9
$DIMUPT
 70
     0
  9
$DIMDEC
 70
     0
  9
$DIMTDEC
 70
     0
  9
$DIMALTU
 70
     2
  9
$DIMALTTD
 70
     2
  9
$DIMTXSTY
  7
STANDARD
  9
$DIMAUNIT
 70
     0
  9
$DIMADEC
 70
     0
  9
$DIMALTRND
 40
0.0
  9
$DIMAZIN
 70
     0
  9
$DIMDSEP
 70
    46
  9
$DIMATFIT
 70
     3
  9
$DIMFRAC
 70
     0
  9
$DIMLDRBLK
  1
Open30
  9
$DIMLUNIT
 70
     2
  9
$DIMLWD
 70
    -2
  9
$DIMLWE
 70
    -2
  9
$DIMTMOVE
 70
     0
  9
$LUNITS
 70
     2
  9
$LUPREC
 70
     4
  9
$SKETCHINC
 40
1.0
  9
$FILLETRAD
 40
10.0
  9
$AUNITS
 70
     0
  9
$AUPREC
 70
     0
  9
$MENU
  1
.
  9
$ELEVATION
 40
0.0
  9
$PELEVATION
 40
0.0
  9
$THICKNESS
 40
0.0
  9
$LIMCHECK
 70
     0
  9
$CHAMFERA
 40
10.0
  9
$CHAMFERB
 40
10.0
  9
$CHAMFERC
 40
20.0
  9
$CHAMFERD
 40
0.0
  9
$SKPOLY
 70
     0
  9
$TDCREATE
 40
2450994.350997107
  9
$TDUCREATE
 40
2450993.975997107
  9
$TDUPDATE
 40
2458984.420953600
  9
$TDUUPDATE
 40
2458984.045953600
  9
$TDINDWG
 40
0.0115621412
  9
$TDUSRTIMER
 40
0.0115621412
  9
$USRTIMER
 70
     1
  9
$ANGBASE
 50
0.0
  9
$ANGDIR
 70
     0
  9
$PDMODE
 70
     1
  9
$PDSIZE
 40
0.0
  9
$PLINEWID
 40
0.0
  9
$SPLFRAME
 70
     0
  9
$SPLINETYPE
 70
     6
  9
$SPLINESEGS
 70
     8
  9
$HANDSEED
  5
AD1
  9
$SURFTAB1
 70
     6
  9
$SURFTAB2
 70
     6
  9
$SURFTYPE
 70
     6
  9
$SURFU
 70
     6
  9
$SURFV
 70
     6
  9
$UCSBASE
  2

  9
$UCSNAME
  2

  9
$UCSORG
 10
0.0
 20
0.0
 30
0.0
  9
$UCSXDIR
 10
1.0
 20
0.0
 30
0.0
  9
$UCSYDIR
 10
0.0
 20
1.0
 30
0.0
  9
$UCSORTHOREF
  2

  9
$UCSORTHOVIEW
 70
     0
  9
$UCSORGTOP
 10
0.0
 20
0.0
 30
0.0
  9
$UCSORGBOTTOM
 10
0.0
 20
0.0
 30
0.0
  9
$UCSORGLEFT
 10
0.0
 20
0.0
 30
0.0
  9
$UCSORGRIGHT
 10
0.0
 20
0.0
 30
0.0
  9
$UCSORGFRONT
 10
0.0
 20
0.0
 30
0.0
  9
$UCSORGBACK
 10
0.0
 20
0.0
 30
0.0
  9
$PUCSBASE
  2

  9
$PUCSNAME
  2

  9
$PUCSORG
 10
0.0
 20
0.0
 30
0.0
  9
$PUCSXDIR
 10
1.0
 20
0.0
 30
0.0
  9
$PUCSYDIR
 10
0.0
 20
1.0
 30
0.0
  9
$PUCSORTHOREF
  2

  9
$PUCSORTHOVIEW
 70
     0
  9
$PUCSORGTOP
 10
0.0
 20
0.0
 30
0.0
  9
$PUCSORGBOTTOM
 10
0.0
 20
0.0
 30
0.0
  9
$PUCSORGLEFT
 10
0.0
 20
0.0
 30
0.0
  9
$PUCSORGRIGHT
 10
0.0
 20
0.0
 30
0.0
  9
$PUCSORGFRONT
 10
0.0
 20
0.0
 30
0.0
  9
$PUCSORGBACK
 10
0.0
 20
0.0
 30
0.0
  9
$USERI1
 70
     0
  9
$USERI2
 70
     0
  9
$USERI3
 70
     0
  9
$USERI4
 70
     0
  9
$USERI5
 70
     0
  9
$USERR1
 40
0.0
  9
$USERR2
 40
0.0
  9
$USERR3
 40
0.0
  9
$USERR4
 40
0.0
  9
$USERR5
 40
0.0
  9
$WORLDVIEW
 70
     1
  9
$SHADEDGE
 70
     3
  9
$SHADEDIF
 70
    70
  9
$TILEMODE
 70
     1
  9
$MAXACTVP
 70
    16
  9
$PINSBASE
 10
0.0
 20
0.0
 30
0.0
  9
$PLIMCHECK
 70
     0
  9
$PEXTMIN
 10
-0.0128164049386896
 20
-0.0090630292066862
 30
-0.0015258207003583
  9
$PEXTMAX
 10
420.0128183607161
 20
297.0090644122207
 30
0.0000000349246037
  9
$PLIMMIN
 10
0.0234348157644355
 20
-0.0028127621778777
  9
$PLIMMAX
 10
419.9700900892019
 20
297.0078378725877
  9
$UNITMODE
 70
     0
  9
$VISRETAIN
 70
     0
  9
$PLINEGEN
 70
     0
  9
$PSLTSCALE
 70
     1
  9
$TREEDEPTH
 70
  3020
  9
$CMLSTYLE
  2
STANDARD
  9
$CMLJUST
 70
     0
  9
$CMLSCALE
 40
1.0
  9
$PROXYGRAPHICS
 70
     1
  9
$MEASUREMENT
 70
     1
  9
$CELWEIGHT
370
    -1
  9
$ENDCAPS
280
     0
  9
$JOINSTYLE
280
     0
  9
$LWDISPLAY
290
     0
  9
$INSUNITS
 70
     0
  9
$HYPERLINKBASE
  1

  9
$STYLESHEET
  1
monochrome.ctb
  9
$XEDIT
290
     1
  9
$CEPSNTYPE
380
     0
  9
$PSTYLEMODE
290
     1
  9
$FINGERPRINTGUID
  2
{D5C42BA0-D3BA-11D7-B8F8-000039219C21}
  9
$VERSIONGUID
  2
{D86CA229-D32F-4493-9239-DA1AFC3251F2}
  9
$EXTNAMES
290
     1
  9
$PSVPSCALE
 40
0.0
  9
$OLESTARTUP
290
     0
  0
ENDSEC
  0
SECTION
  2
CLASSES
  0
CLASS
  1
ACDBDICTIONARYWDFLT
  2
AcDbDictionaryWithDefault
  3
ObjectDBX Classes
 90
        0
280
     0
281
     0
  0
CLASS
  1
ACDBPLACEHOLDER
  2
AcDbPlaceHolder
  3
ObjectDBX Classes
 90
        0
280
     0
281
     0
  0
CLASS
  1
LAYOUT
  2
AcDbLayout
  3
ObjectDBX Classes
 90
        0
280
     0
281
     0
  0
CLASS
  1
MATERIAL
  2
AcDbMaterial
  3
ObjectDBX Classes
 90
     1153
280
     0
281
     0
  0
CLASS
  1
VISUALSTYLE
  2
AcDbVisualStyle
  3
ObjectDBX Classes
 90
     4095
280
     0
281
     0
  0
CLASS
  1
TABLESTYLE
  2
AcDbTableStyle
  3
ObjectDBX Classes
 90
     4095
280
     0
281
     0
  0
CLASS
  1
SCALE
  2
AcDbScale
  3
ObjectDBX Classes
 90
     1153
280
     0
281
     0
  0
CLASS
  1
MLEADERSTYLE
  2
AcDbMLeaderStyle
  3
ACDB_MLEADERSTYLE_CLASS
 90
     4095
280
     0
281
     0
  0
CLASS
  1
DICTIONARYVAR
  2
AcDbDictionaryVar
  3
ObjectDBX Classes
 90
        0
280
     0
281
     0
  0
CLASS
  1
CELLSTYLEMAP
  2
AcDbCellStyleMap
  3
ObjectDBX Classes
 90
     1152
280
     0
281
     0
  0
ENDSEC
  0
SECTION
  2
TABLES
  0
TABLE
  2
VPORT
  5
8
330
0
100
AcDbSymbolTable
 70
     1
  0
VPORT
  5
817
330
8
100
AcDbSymbolTableRecord
100
AcDbViewportTableRecord
  2
*Active
 70
     0
 10
0.0
 20
0.0
 11
1.0
 21
1.0
 12
294.5131624227274
 22
16.27605142038305
 13
0.0
 23
0.0
 14
5.0
 24
5.0
 15
0.0
 25
0.0
 16
0.0
 26
0.0
 36
1.0
 17
0.0
 27
0.0
 37
0.0
 40
1673.705535140078
 41
1.046762589928057
 42
50.0
 43
0.0
 44
0.0
 50
0.0
 51
0.0
 71
     0
 72
   100
 73
     1
 74
     0
 75
     0
 76
     0
 77
     0
 78
     0
281
     0
 65
     1
110
0.0
120
0.0
130
0.0
111
1.0
121
0.0
131
0.0
112
0.0
122
1.0
132
0.0
 79
     0
146
0.0
  0
ENDTAB
  0
TABLE
  2
LTYPE
  5
5
330
0
100
AcDbSymbolTable
 70
     2
  0
LTYPE
  5
14
330
5
100
AcDbSymbolTableRecord
100
AcDbLinetypeTableRecord
  2
BYBLOCK
 70
     0
  3

 72
    65
 73
     0
 40
0.0
  0
LTYPE
  5
15
330
5
100
AcDbSymbolTableRecord
100
AcDbLinetypeTableRecord
  2
BYLAYER
 70
     0
  3

 72
    65
 73
     0
 40
0.0
  0
LTYPE
  5
16
330
5
100
AcDbSymbolTableRecord
100
AcDbLinetypeTableRecord
  2
CONTINUOUS
 70
     0
  3
Solid line
 72
    65
 73
     0
 40
0.0
  0
LTYPE
  5
120
330
5
100
AcDbSymbolTableRecord
100
AcDbLinetypeTableRecord
  2
CENTER
 70
     0
  3
____ _ ____ _ ____ _ ____ _ ____ _ ____ _ ____ 
 72
    65
 73
     4
 40
2.0
 49
1.25
 74
     0
 49
-0.25
 74
     0
 49
0.25
 74
     0
 49
-0.25
 74
     0
  0
ENDTAB
  0
TABLE
  2
LAYER
  5
2
330
0
100
AcDbSymbolTable
 70
     9
  0
LAYER
  5
F
102
{ACAD_XDICTIONARY
360
A6F
102
}
330
2
100
AcDbSymbolTableRecord
100
AcDbLayerTableRecord
  2
0
 70
     0
 62
     7
  6
CONTINUOUS
370
    -3
390
159
  0
LAYER
  5
62
102
{ACAD_XDICTIONARY
360
A71
102
}
330
2
100
AcDbSymbolTableRecord
100
AcDbLayerTableRecord
  2
VIEWPORT
 70
     0
 62
     7
  6
CONTINUOUS
370
    -3
390
159
  0
LAYER
  5
6B
102
{ACAD_XDICTIONARY
360
A73
102
}
330
2
100
AcDbSymbolTableRecord
100
AcDbLayerTableRecord
  2
図枠
 70
     0
 62
     7
  6
CONTINUOUS
370
    -3
390
159
  0
LAYER
  5
150
102
{ACAD_XDICTIONARY
360
A75
102
}
330
2
100
AcDbSymbolTableRecord
100
AcDbLayerTableRecord
  2
寸法
 70
     0
 62
     4
  6
CONTINUOUS
370
    -3
390
159
  0
LAYER
  5
16E
330
2
100
AcDbSymbolTableRecord
100
AcDbLayerTableRecord
  2
Defpoints
 70
     0
 62
     7
  6
CONTINUOUS
290
     0
370
    -3
390
159
  0
LAYER
  5
180
102
{ACAD_XDICTIONARY
360
A77
102
}
330
2
100
AcDbSymbolTableRecord
100
AcDbLayerTableRecord
  2
ZUWAKU
 70
     0
 62
     7
  6
CONTINUOUS
370
    -3
390
159
  0
LAYER
  5
181
102
{ACAD_XDICTIONARY
360
A79
102
}
330
2
100
AcDbSymbolTableRecord
100
AcDbLayerTableRecord
  2
MOJI
 70
     0
 62
     2
  6
CONTINUOUS
370
    -3
390
159
  0
LAYER
  5
336
102
{ACAD_XDICTIONARY
360
A7B
102
}
330
2
100
AcDbSymbolTableRecord
100
AcDbLayerTableRecord
  2
SEIHIN
 70
     0
 62
     3
  6
CONTINUOUS
370
    -3
390
159
  0
LAYER
  5
337
102
{ACAD_XDICTIONARY
360
A7D
102
}
330
2
100
AcDbSymbolTableRecord
100
AcDbLayerTableRecord
  2
CENTER L
 70
     0
 62
     1
  6
CENTER
370
    -3
390
159
  0
ENDTAB
  0
TABLE
  2
STYLE
  5
3
330
0
100
AcDbSymbolTable
 70
     4
  0
STYLE
  5
10
330
3
100
AcDbSymbolTableRecord
100
AcDbTextStyleTableRecord
  2
STANDARD
 70
     0
 40
0.0
 41
1.0
 50
0.0
 71
     0
 42
2.5
  3
TXT
  4
bigfont.shx
  0
STYLE
  5
16C
330
3
100
AcDbSymbolTableRecord
100
AcDbTextStyleTableRecord
  2
kanji
 70
     0
 40
0.0
 41
1.0
 50
0.0
 71
     0
 42
2.5
  3
TXT.shx
  4
bigfont.shx
  0
STYLE
  5
182
330
3
100
AcDbSymbolTableRecord
100
AcDbTextStyleTableRecord
  2
ｽﾀｲﾙ1
 70
     0
 40
0.0
 41
1.0
 50
0.0
 71
     0
 42
2.5
  3

  4

1001
ACAD
1000
MS PGothic
1071
    32818
  0
ENDTAB
  0
TABLE
  2
VIEW
  5
6
330
0
100
AcDbSymbolTable
 70
     0
  0
ENDTAB
  0
TABLE
  2
UCS
  5
7
330
0
100
AcDbSymbolTable
 70
     0
  0
ENDTAB
  0
TABLE
  2
APPID
  5
9
330
0
100
AcDbSymbolTable
 70
     3
  0
APPID
  5
11
330
9
100
AcDbSymbolTableRecord
100
AcDbRegAppTableRecord
  2
ACAD
 70
     0
  0
APPID
  5
A7F
330
9
100
AcDbSymbolTableRecord
100
AcDbRegAppTableRecord
  2
ACAD_PSEXT
 70
     0
  0
APPID
  5
AD0
330
9
100
AcDbSymbolTableRecord
100
AcDbRegAppTableRecord
  2
ACAD_MLEADERVER
 70
     0
  0
ENDTAB
  0
TABLE
  2
DIMSTYLE
  5
A
330
0
100
AcDbSymbolTable
 70
     2
100
AcDbDimStyleTable
 71
     1
340
1D
  0
DIMSTYLE
105
1D
102
{ACAD_REACTORS
330
55B
330
5F9
330
564
330
63E
102
}
330
A
100
AcDbSymbolTableRecord
100
AcDbDimStyleTableRecord
  2
STANDARD
 70
     0
340
10
  0
ENDTAB
  0
TABLE
  2
BLOCK_RECORD
  5
1
330
0
100
AcDbSymbolTable
 70
     7
  0
BLOCK_RECORD
  5
1A
102
{ACAD_XDICTIONARY
360
845
102
}
330
1
100
AcDbSymbolTableRecord
100
AcDbBlockTableRecord
  2
*MODEL_SPACE
340
15C
  0
BLOCK_RECORD
  5
17
102
{ACAD_XDICTIONARY
360
843
102
}
330
1
100
AcDbSymbolTableRecord
100
AcDbBlockTableRecord
  2
*PAPER_SPACE
340
15D
  0
BLOCK_RECORD
  5
166
330
1
100
AcDbSymbolTableRecord
100
AcDbBlockTableRecord
  2
_Open30
340
0
102
{BLKREFS
331
869
331
86A
331
872
331
873
331
A11
331
A12
331
A1A
331
A1B
102
}
  0
BLOCK_RECORD
  5
752
330
1
100
AcDbSymbolTableRecord
100
AcDbBlockTableRecord
  2
*D1
340
0
  0
BLOCK_RECORD
  5
75F
330
1
100
AcDbSymbolTableRecord
100
AcDbBlockTableRecord
  2
*D2
340
0
  0
BLOCK_RECORD
  5
76B
330
1
100
AcDbSymbolTableRecord
100
AcDbBlockTableRecord
  2
*D3
340
0
  0
BLOCK_RECORD
  5
778
330
1
100
AcDbSymbolTableRecord
100
AcDbBlockTableRecord
  2
*D4
340
0
  0
BLOCK_RECORD
  5
878
330
1
100
AcDbSymbolTableRecord
100
AcDbBlockTableRecord
  2
*X5
340
0
102
{BLKREFS
331
566
102
}
  0
ENDTAB
  0
ENDSEC
  0
SECTION
  2
BLOCKS
  0
BLOCK
  5
1B
330
1A
100
AcDbEntity
  8
0
100
AcDbBlockBegin
  2
*MODEL_SPACE
 70
     0
 10
0.0
 20
0.0
 30
0.0
  3
*MODEL_SPACE
  1

  0
ENDBLK
  5
1C
330
1A
100
AcDbEntity
  8
0
100
AcDbBlockEnd
  0
BLOCK
  5
18
330
17
100
AcDbEntity
 67
     1
  8
0
100
AcDbBlockBegin
  2
*PAPER_SPACE
 70
     0
 10
0.0
 20
0.0
 30
0.0
  3
*PAPER_SPACE
  1

  0
ENDBLK
  5
19
330
17
100
AcDbEntity
 67
     1
  8
0
100
AcDbBlockEnd
  0
BLOCK
  5
16A
330
166
100
AcDbEntity
  8
0
100
AcDbBlockBegin
  2
_Open30
 70
     0
 10
0.0
 20
0.0
 30
0.0
  3
_Open30
  1

  0
LINE
  5
167
330
166
100
AcDbEntity
  8
図枠
 62
     0
370
    -2
100
AcDbLine
 10
-1.0
 20
0.26794919
 30
0.0
 11
0.0
 21
0.0
 31
0.0
  0
LINE
  5
168
330
166
100
AcDbEntity
  8
図枠
 62
     0
370
    -2
100
AcDbLine
 10
0.0
 20
0.0
 30
0.0
 11
-1.0
 21
-0.26794919
 31
0.0
  0
LINE
  5
169
330
166
100
AcDbEntity
  8
図枠
 62
     0
370
    -2
100
AcDbLine
 10
0.0
 20
0.0
 30
0.0
 11
-1.0
 21
0.0
 31
0.0
  0
ENDBLK
  5
16B
330
166
100
AcDbEntity
  8
0
100
AcDbBlockEnd
  0
BLOCK
  5
75D
330
752
100
AcDbEntity
  8
0
100
AcDbBlockBegin
  2
*D1
 70
     1
 10
0.0
 20
0.0
 30
0.0
  3
*D1
  1

  0
LINE
  5
866
330
752
100
AcDbEntity
  8
寸法
 62
     4
100
AcDbLine
 10
192.0451808343787
 20
214.7466199742801
 30
0.0
 11
204.7201549797562
 21
214.7466199742801
 31
0.0
  0
LINE
  5
867
330
752
100
AcDbEntity
  8
寸法
 62
     4
100
AcDbLine
 10
192.0451808343787
 20
144.7466199742798
 30
0.0
 11
204.7201549797562
 21
144.7466199742798
 31
0.0
  0
LINE
  5
868
330
752
100
AcDbEntity
  8
寸法
 62
     4
100
AcDbLine
 10
203.2201549797562
 20
211.7466199742801
 30
0.0
 11
203.2201549797562
 21
147.7466199742798
 31
0.0
  0
INSERT
  5
869
330
752
100
AcDbEntity
  8
寸法
 62
     4
100
AcDbBlockReference
  2
_Open30
 10
203.2201549797562
 20
214.7466199742801
 30
0.0
 41
3.0
 42
3.0
 43
3.0
 50
90.0
  0
INSERT
  5
86A
330
752
100
AcDbEntity
  8
寸法
 62
     4
100
AcDbBlockReference
  2
_Open30
 10
203.2201549797562
 20
144.7466199742798
 30
0.0
 41
3.0
 42
3.0
 43
3.0
 50
270.0
  0
MTEXT
  5
86B
330
752
100
AcDbEntity
  8
寸法
 62
     4
100
AcDbMText
 10
200.7201549797562
 20
179.74661997428
 30
0.0
 40
3.0
 41
0.0
 71
     5
 72
     5
  1
\A1;70
 11
0.0000000000000001
 21
1.0
 31
0.0
 73
     1
 44
1.0
1001
ACAD
1000
MTEXTBEGIN
1070
    73
1070
     1
1070
    44
1040
1.0
1070
    74
1070
     0
1000
MTEXTEND
  0
POINT
  5
86C
330
752
100
AcDbEntity
  8
Defpoints
 62
     0
100
AcDbPoint
 10
189.0451808343787
 20
214.7466199742801
 30
0.0
  0
POINT
  5
86D
330
752
100
AcDbEntity
  8
Defpoints
 62
     0
100
AcDbPoint
 10
189.0451808343787
 20
144.7466199742798
 30
0.0
  0
POINT
  5
86E
330
752
100
AcDbEntity
  8
Defpoints
 62
     0
100
AcDbPoint
 10
203.2201549797562
 20
144.7466199742798
 30
0.0
  0
ENDBLK
  5
75E
330
752
100
AcDbEntity
  8
0
100
AcDbBlockEnd
  0
BLOCK
  5
769
330
75F
100
AcDbEntity
  8
0
100
AcDbBlockBegin
  2
*D2
 70
     1
 10
0.0
 20
0.0
 30
0.0
  3
*D2
  1

  0
LINE
  5
86F
330
75F
100
AcDbEntity
  8
寸法
 62
     4
100
AcDbLine
 10
70.74518083442876
 20
86.40533582117042
 30
0.0
 11
70.74518083442876
 21
105.9024829393529
 31
0.0
  0
LINE
  5
870
330
75F
100
AcDbEntity
  8
寸法
 62
     4
100
AcDbLine
 10
189.0451808344285
 20
86.40533582117042
 30
0.0
 11
189.0451808344285
 21
105.9024829393529
 31
0.0
  0
LINE
  5
871
330
75F
100
AcDbEntity
  8
寸法
 62
     4
100
AcDbLine
 10
73.74518083442876
 20
104.4024829393529
 30
0.0
 11
186.0451808344285
 21
104.4024829393529
 31
0.0
  0
INSERT
  5
872
330
75F
100
AcDbEntity
  8
寸法
 62
     4
100
AcDbBlockReference
  2
_Open30
 10
70.74518083442876
 20
104.4024829393529
 30
0.0
 41
3.0
 42
3.0
 43
3.0
 50
180.0
  0
INSERT
  5
873
330
75F
100
AcDbEntity
  8
寸法
 62
     4
100
AcDbBlockReference
  2
_Open30
 10
189.0451808344285
 20
104.4024829393529
 30
0.0
 41
3.0
 42
3.0
 43
3.0
  0
MTEXT
  5
874
330
75F
100
AcDbEntity
  8
寸法
 62
     4
100
AcDbMText
 10
129.8951808344286
 20
106.9024829393529
 30
0.0
 40
3.0
 41
0.0
 71
     5
 72
     5
  1
\A1;118.3
 73
     1
 44
1.0
1001
ACAD
1000
MTEXTBEGIN
1070
    73
1070
     1
1070
    44
1040
1.0
1070
    74
1070
     0
1000
MTEXTEND
  0
POINT
  5
875
330
75F
100
AcDbEntity
  8
Defpoints
 62
     0
100
AcDbPoint
 10
70.74518083442876
 20
83.40533582117041
 30
0.0
  0
POINT
  5
876
330
75F
100
AcDbEntity
  8
Defpoints
 62
     0
100
AcDbPoint
 10
189.0451808344285
 20
83.40533582117041
 30
0.0
  0
POINT
  5
877
330
75F
100
AcDbEntity
  8
Defpoints
 62
     0
100
AcDbPoint
 10
189.0451808344285
 20
104.4024829393529
 30
0.0
  0
ENDBLK
  5
76A
330
75F
100
AcDbEntity
  8
0
100
AcDbBlockEnd
  0
BLOCK
  5
776
330
76B
100
AcDbEntity
  8
0
100
AcDbBlockBegin
  2
*D3
 70
     1
 10
0.0
 20
0.0
 30
0.0
  3
*D3
  1

  0
LINE
  5
A0E
330
76B
100
AcDbEntity
  8
寸法
 62
     4
100
AcDbLine
 10
185.5451808344285
 20
89.90533582117041
 30
0.0
 11
204.7201549797562
 21
89.90533582117041
 31
0.0
  0
LINE
  5
A0F
330
76B
100
AcDbEntity
  8
寸法
 62
     4
100
AcDbLine
 10
132.8951808344286
 20
34.40533582117041
 30
0.0
 11
204.7201549797562
 21
34.40533582117039
 31
0.0
  0
LINE
  5
A10
330
76B
100
AcDbEntity
  8
寸法
 62
     4
100
AcDbLine
 10
203.2201549797562
 20
86.90533582117041
 30
0.0
 11
203.2201549797562
 21
37.40533582117039
 31
0.0
  0
INSERT
  5
A11
330
76B
100
AcDbEntity
  8
寸法
 62
     4
100
AcDbBlockReference
  2
_Open30
 10
203.2201549797562
 20
89.90533582117041
 30
0.0
 41
3.0
 42
3.0
 43
3.0
 50
90.0
  0
INSERT
  5
A12
330
76B
100
AcDbEntity
  8
寸法
 62
     4
100
AcDbBlockReference
  2
_Open30
 10
203.2201549797562
 20
34.40533582117039
 30
0.0
 41
3.0
 42
3.0
 43
3.0
 50
270.0
  0
MTEXT
  5
A13
330
76B
100
AcDbEntity
  8
寸法
 62
     4
100
AcDbMText
 10
200.7201549797562
 20
62.15533582117043
 30
0.0
 40
3.0
 41
0.0
 71
     5
 72
     5
  1
\A1;56
 11
0.0000000000000001
 21
1.0
 31
0.0
 73
     1
 44
1.0
1001
ACAD
1000
MTEXTBEGIN
1070
    73
1070
     1
1070
    44
1040
1.0
1070
    74
1070
     0
1000
MTEXTEND
  0
POINT
  5
A14
330
76B
100
AcDbEntity
  8
Defpoints
 62
     0
100
AcDbPoint
 10
182.5451808344285
 20
89.90533582117041
 30
0.0
  0
POINT
  5
A15
330
76B
100
AcDbEntity
  8
Defpoints
 62
     0
100
AcDbPoint
 10
129.8951808344286
 20
34.40533582117041
 30
0.0
  0
POINT
  5
A16
330
76B
100
AcDbEntity
  8
Defpoints
 62
     0
100
AcDbPoint
 10
203.2201549797562
 20
34.40533582117039
 30
0.0
  0
ENDBLK
  5
777
330
76B
100
AcDbEntity
  8
0
100
AcDbBlockEnd
  0
BLOCK
  5
782
330
778
100
AcDbEntity
  8
0
100
AcDbBlockBegin
  2
*D4
 70
     1
 10
0.0
 20
0.0
 30
0.0
  3
*D4
  1

  0
LINE
  5
A17
330
778
100
AcDbEntity
  8
寸法
 62
     4
100
AcDbLine
 10
189.0451808343787
 20
217.7466199742801
 30
0.0
 11
189.0451808343787
 21
232.2970820848555
 31
0.0
  0
LINE
  5
A18
330
778
100
AcDbEntity
  8
寸法
 62
     4
100
AcDbLine
 10
70.74518083437851
 20
217.7466199742801
 30
0.0
 11
70.74518083437851
 21
232.2970820848555
 31
0.0
  0
LINE
  5
A19
330
778
100
AcDbEntity
  8
寸法
 62
     4
100
AcDbLine
 10
186.0451808343787
 20
230.7970820848554
 30
0.0
 11
73.74518083437852
 21
230.7970820848554
 31
0.0
  0
INSERT
  5
A1A
330
778
100
AcDbEntity
  8
寸法
 62
     4
100
AcDbBlockReference
  2
_Open30
 10
189.0451808343787
 20
230.7970820848554
 30
0.0
 41
3.0
 42
3.0
 43
3.0
  0
INSERT
  5
A1B
330
778
100
AcDbEntity
  8
寸法
 62
     4
100
AcDbBlockReference
  2
_Open30
 10
70.74518083437851
 20
230.7970820848554
 30
0.0
 41
3.0
 42
3.0
 43
3.0
 50
180.0
  0
MTEXT
  5
A1C
330
778
100
AcDbEntity
  8
寸法
 62
     4
100
AcDbMText
 10
129.8951808343786
 20
233.2970820848554
 30
0.0
 40
3.0
 41
0.0
 71
     5
 72
     5
  1
\A1;118.3
 73
     1
 44
1.0
1001
ACAD
1000
MTEXTBEGIN
1070
    73
1070
     1
1070
    44
1040
1.0
1070
    74
1070
     0
1000
MTEXTEND
  0
POINT
  5
A1D
330
778
100
AcDbEntity
  8
Defpoints
 62
     0
100
AcDbPoint
 10
189.0451808343787
 20
214.7466199742801
 30
0.0
  0
POINT
  5
A1E
330
778
100
AcDbEntity
  8
Defpoints
 62
     0
100
AcDbPoint
 10
70.74518083437851
 20
214.7466199742801
 30
0.0
  0
POINT
  5
A1F
330
778
100
AcDbEntity
  8
Defpoints
 62
     0
100
AcDbPoint
 10
70.74518083437851
 20
230.7970820848554
 30
0.0
  0
ENDBLK
  5
783
330
778
100
AcDbEntity
  8
0
100
AcDbBlockEnd
  0
BLOCK
  5
A0C
330
878
100
AcDbEntity
  8
0
100
AcDbBlockBegin
  2
*X5
 70
     1
 10
0.0
 20
0.0
 30
0.0
  3
*X5
  1

  0
LINE
  5
879
330
878
100
AcDbEntity
  8
0
 62
     0
100
AcDbLine
 10
34.52110607739064
 20
11.30208453514251
 30
0.0
 11
34.19819061253313
 21
11.62500000000003
 31
0.0
  0
LINE
  5
87A
330
878
100
AcDbEntity
  8
0
 62
     0
100
AcDbLine
 10
34.52110607739061
 20
10.85307172908904
 30
0.0
 11
33.74917780647965
 21
11.62500000000003
 31
0.0
  0
LINE
  5
87B
330
878
100
AcDbEntity
  8
0
 62
     0
100
AcDbLine
 10
34.52110607739061
 20
10.40405892303559
 30
0.0
 11
33.31053910438309
 21
11.61462589604309
 31
0.0
  0
LINE
  5
87C
330
878
100
AcDbEntity
  8
0
 62
     0
100
AcDbLine
 10
34.52110607739061
 20
9.955046116982146
 30
0.0
 11
33.12110607739055
 21
11.35504611698221
 31
0.0
  0
LINE
  5
87D
330
878
100
AcDbEntity
  8
0
 62
     0
100
AcDbLine
 10
34.52110607739061
 20
9.5060333109287
 30
0.0
 11
33.12110607739055
 21
10.90603331092876
 31
0.0
  0
LINE
  5
87E
330
878
100
AcDbEntity
  8
0
 62
     0
100
AcDbLine
 10
34.52110607739061
 20
9.057020504875225
 30
0.0
 11
33.12110607739052
 21
10.45702050487529
 31
0.0
  0
LINE
  5
87F
330
878
100
AcDbEntity
  8
0
 62
     0
100
AcDbLine
 10
32.07110607739054
 20
11.05800769882185
 30
0.0
 11
31.50411377621239
 21
11.62500000000003
 31
0.0
  0
LINE
  5
880
330
878
100
AcDbEntity
  8
0
 62
     0
100
AcDbLine
 10
34.52110607739061
 20
8.608007698821779
 30
0.0
 11
33.12110607739055
 21
10.00800769882187
 31
0.0
  0
LINE
  5
881
330
878
100
AcDbEntity
  8
0
 62
     0
100
AcDbLine
 10
32.07110607739054
 20
10.60899489276841
 30
0.0
 11
31.05510097015892
 21
11.625
 31
0.0
  0
LINE
  5
882
330
878
100
AcDbEntity
  8
0
 62
     0
100
AcDbLine
 10
34.52110607739061
 20
8.158994892768333
 30
0.0
 11
33.12110607739055
 21
9.558994892768396
 31
0.0
  0
LINE
  5
883
330
878
100
AcDbEntity
  8
0
 62
     0
100
AcDbLine
 10
32.07110607739054
 20
10.15998208671493
 30
0.0
 11
30.718350594822
 21
11.51273756928347
 31
0.0
  0
LINE
  5
884
330
878
100
AcDbEntity
  8
0
 62
     0
100
AcDbLine
 10
34.52110607739058
 20
7.709982086714859
 30
0.0
 11
33.12110607739052
 21
9.109982086714921
 31
0.0
  0
LINE
  5
885
330
878
100
AcDbEntity
  8
0
 62
     0
100
AcDbLine
 10
32.0711060773906
 20
9.71096928066143
 30
0.0
 11
30.67110607739048
 21
11.11096928066155
 31
0.0
  0
LINE
  5
886
330
878
100
AcDbEntity
  8
0
 62
     0
100
AcDbLine
 10
34.52110607739061
 20
7.260969280661413
 30
0.0
 11
33.12110607739055
 21
8.660969280661475
 31
0.0
  0
LINE
  5
887
330
878
100
AcDbEntity
  8
0
 62
     0
100
AcDbLine
 10
32.07110607739057
 20
9.261956474607984
 30
0.0
 11
30.67110607739048
 21
10.6619564746081
 31
0.0
  0
LINE
  5
888
330
878
100
AcDbEntity
  8
0
 62
     0
100
AcDbLine
 10
34.52110607739061
 20
6.811956474607967
 30
0.0
 11
33.12110607739052
 21
8.21195647460803
 31
0.0
  0
LINE
  5
889
330
878
100
AcDbEntity
  8
0
 62
     0
100
AcDbLine
 10
32.07110607739057
 20
8.812943668554538
 30
0.0
 11
30.67110607739045
 21
10.21294366855463
 31
0.0
  0
LINE
  5
88A
330
878
100
AcDbEntity
  8
0
 62
     0
100
AcDbLine
 10
34.52110607739064
 20
6.362943668554464
 30
0.0
 11
33.12110607739052
 21
7.762943668554584
 31
0.0
  0
LINE
  5
88B
330
878
100
AcDbEntity
  8
0
 62
     0
100
AcDbLine
 10
32.07110607739054
 20
8.363930862501064
 30
0.0
 11
30.67110607739045
 21
9.763930862501183
 31
0.0
  0
LINE
  5
88C
330
878
100
AcDbEntity
  8
0
 62
     0
100
AcDbLine
 10
34.52110607739061
 20
5.91393086250099
 30
0.0
 11
33.12110607739052
 21
7.313930862501109
 31
0.0
  0
LINE
  5
88D
330
878
100
AcDbEntity
  8
0
 62
     0
100
AcDbLine
 10
32.07110607739057
 20
7.914918056447646
 30
0.0
 11
30.67110607739045
 21
9.314918056447737
 31
0.0
  0
LINE
  5
88E
330
878
100
AcDbEntity
  8
0
 62
     0
100
AcDbLine
 10
28.92110607739048
 20
11.06491805644771
 30
0.0
 11
28.36102413383816
 21
11.62500000000003
 31
0.0
  0
LINE
  5
88F
330
878
100
AcDbEntity
  8
0
 62
     0
100
AcDbLine
 10
34.52110607739064
 20
5.464918056447572
 30
0.0
 11
33.12110607739052
 21
6.864918056447663
 31
0.0
  0
LINE
  5
890
330
878
100
AcDbEntity
  8
0
 62
     0
100
AcDbLine
 10
32.07110607739057
 20
7.465905250394172
 30
0.0
 11
30.67110607739045
 21
8.865905250394291
 31
0.0
  0
LINE
  5
891
330
878
100
AcDbEntity
  8
0
 62
     0
100
AcDbLine
 10
28.92110607739048
 20
10.61590525039426
 30
0.0
 11
27.91201132778471
 21
11.62500000000003
 31
0.0
  0
LINE
  5
892
330
878
100
AcDbEntity
  8
0
 62
     0
100
AcDbLine
 10
34.52110607739061
 20
5.015905250394098
 30
0.0
 11
33.12110607739052
 21
6.415905250394217
 31
0.0
  0
LINE
  5
893
330
878
100
AcDbEntity
  8
0
 62
     0
100
AcDbLine
 10
32.07110607739054
 20
7.016892444340726
 30
0.0
 11
30.67110607739045
 21
8.416892444340817
 31
0.0
  0
LINE
  5
894
330
878
100
AcDbEntity
  8
0
 62
     0
100
AcDbLine
 10
28.92110607739048
 20
10.16689244434079
 30
0.0
 11
27.57122471572853
 21
11.51677380600273
 31
0.0
  0
LINE
  5
895
330
878
100
AcDbEntity
  8
0
 62
     0
100
AcDbLine
 10
34.52110607739061
 20
4.566892444340652
 30
0.0
 11
33.12110607739049
 21
5.966892444340743
 31
0.0
  0
LINE
  5
896
330
878
100
AcDbEntity
  8
0
 62
     0
100
AcDbLine
 10
32.0711060773906
 20
6.567879638287195
 30
0.0
 11
30.67110607739051
 21
7.967879638287314
 31
0.0
  0
LINE
  5
897
330
878
100
AcDbEntity
  8
0
 62
     0
100
AcDbLine
 10
28.92110607739048
 20
9.717879638287342
 30
0.0
 11
27.52110607739064
 21
11.11787963828715
 31
0.0
  0
LINE
  5
898
330
878
100
AcDbEntity
  8
0
 62
     0
100
AcDbLine
 10
34.52110607739064
 20
4.117879638287178
 30
0.0
 11
33.12110607739055
 21
5.51787963828724
 31
0.0
  0
LINE
  5
899
330
878
100
AcDbEntity
  8
0
 62
     0
100
AcDbLine
 10
32.0711060773906
 20
6.118866832233777
 30
0.0
 11
30.67110607739048
 21
7.518866832233868
 31
0.0
  0
LINE
  5
89A
330
878
100
AcDbEntity
  8
0
 62
     0
100
AcDbLine
 10
28.92110607739048
 20
9.268866832233896
 30
0.0
 11
27.52110607739064
 21
10.66886683223373
 31
0.0
  0
LINE
  5
89B
330
878
100
AcDbEntity
  8
0
 62
     0
100
AcDbLine
 10
34.48512339994568
 20
3.704849509678695
 30
0.0
 11
33.12110607739055
 21
5.068866832233823
 31
0.0
  0
LINE
  5
89C
330
878
100
AcDbEntity
  8
0
 62
     0
100
AcDbLine
 10
32.07110607739057
 20
5.669854026180303
 30
0.0
 11
30.67110607739048
 21
7.069854026180422
 31
0.0
  0
LINE
  5
89D
330
878
100
AcDbEntity
  8
0
 62
     0
100
AcDbLine
 10
28.92110607739045
 20
8.819854026180422
 30
0.0
 11
27.52110607739064
 21
10.21985402618025
 31
0.0
  0
LINE
  5
89E
330
878
100
AcDbEntity
  8
0
 62
     0
100
AcDbLine
 10
34.16596010357091
 20
3.574999999999988
 30
0.0
 11
33.12110607739055
 21
4.619854026180348
 31
0.0
  0
LINE
  5
89F
330
878
100
AcDbEntity
  8
0
 62
     0
100
AcDbLine
 10
28.92110607739045
 20
8.370841220126976
 30
0.0
 11
27.52110607739061
 21
9.770841220126811
 31
0.0
  0
LINE
  5
8A0
330
878
100
AcDbEntity
  8
0
 62
     0
100
AcDbLine
 10
32.07110607739057
 20
5.220841220126857
 30
0.0
 11
30.67110607739045
 21
6.620841220126948
 31
0.0
  0
LINE
  5
8A1
330
878
100
AcDbEntity
  8
0
 62
     0
100
AcDbLine
 10
26.20860607739059
 20
11.08334122012681
 30
0.0
 11
25.66694729751737
 21
11.62500000000003
 31
0.0
  0
LINE
  5
8A2
330
878
100
AcDbEntity
  8
0
 62
     0
100
AcDbLine
 10
33.71694729751744
 20
3.574999999999988
 30
0.0
 11
33.12110607739052
 21
4.170841220126902
 31
0.0
  0
LINE
  5
8A3
330
878
100
AcDbEntity
  8
0
 62
     0
100
AcDbLine
 10
28.92110607739045
 20
7.92182841407353
 30
0.0
 11
27.52110607739064
 21
9.321828414073365
 31
0.0
  0
LINE
  5
8A4
330
878
100
AcDbEntity
  8
0
 62
     0
100
AcDbLine
 10
26.20860607739061
 20
10.63432841407339
 30
0.0
 11
25.21793449146395
 21
11.62500000000005
 31
0.0
  0
LINE
  5
8A5
330
878
100
AcDbEntity
  8
0
 62
     0
100
AcDbLine
 10
32.05812692706769
 20
4.784807564396317
 30
0.0
 11
30.67110607739048
 21
6.17182841407353
 31
0.0
  0
LINE
  5
8A6
330
878
100
AcDbEntity
  8
0
 62
     0
100
AcDbLine
 10
28.92110607739051
 20
7.472815608020027
 30
0.0
 11
27.52110607739061
 21
8.872815608019891
 31
0.0
  0
LINE
  5
8A7
330
878
100
AcDbEntity
  8
0
 62
     0
100
AcDbLine
 10
26.11081580433361
 20
10.28310588107692
 30
0.0
 11
24.76892168541053
 21
11.625
 31
0.0
  0
LINE
  5
8A8
330
878
100
AcDbEntity
  8
0
 62
     0
100
AcDbLine
 10
31.96163427943913
 20
4.432287405971408
 30
0.0
 11
30.67110607739048
 21
5.722815608020056
 31
0.0
  0
LINE
  5
8A9
330
878
100
AcDbEntity
  8
0
 62
     0
100
AcDbLine
 10
28.92110607739048
 20
7.023802801966581
 30
0.0
 11
27.52110607739061
 21
8.423802801966445
 31
0.0
  0
LINE
  5
8AA
330
878
100
AcDbEntity
  8
0
 62
     0
100
AcDbLine
 10
25.71990887935704
 20
10.22499999999999
 30
0.0
 11
24.31990887935703
 21
11.62500000000003
 31
0.0
  0
LINE
  5
8AB
330
878
100
AcDbEntity
  8
0
 62
     0
100
AcDbLine
 10
31.79911834147734
 20
4.145790537879719
 30
0.0
 11
30.63534820781072
 21
5.309560671546336
 31
0.0
  0
LINE
  5
8AC
330
878
100
AcDbEntity
  8
0
 62
     0
100
AcDbLine
 10
28.92110607739051
 20
6.574789995913135
 30
0.0
 11
27.52110607739064
 21
7.974789995912999
 31
0.0
  0
LINE
  5
8AD
330
878
100
AcDbEntity
  8
0
 62
     0
100
AcDbLine
 10
25.27089607330362
 20
10.22500000000002
 30
0.0
 11
23.90211270871489
 21
11.59378336458874
 31
0.0
  0
LINE
  5
8AE
330
878
100
AcDbEntity
  8
0
 62
     0
100
AcDbLine
 10
31.58309744281485
 20
3.912798630488765
 30
0.0
 11
30.43455538857697
 21
5.061340684726673
 31
0.0
  0
LINE
  5
8AF
330
878
100
AcDbEntity
  8
0
 62
     0
100
AcDbLine
 10
28.92110607739048
 20
6.125777189859661
 30
0.0
 11
27.52110607739061
 21
7.525777189859553
 31
0.0
  0
LINE
  5
8B0
330
878
100
AcDbEntity
  8
0
 62
     0
100
AcDbLine
 10
24.82188326725014
 20
10.22500000000002
 30
0.0
 11
23.56979249644823
 21
11.4770907708019
 31
0.0
  0
LINE
  5
8B1
330
878
100
AcDbEntity
  8
0
 62
     0
100
AcDbLine
 10
31.31501627035183
 20
3.731866996898332
 30
0.0
 11
30.07188326725012
 21
4.975000000000051
 31
0.0
  0
LINE
  5
8B2
330
878
100
AcDbEntity
  8
0
 62
     0
100
AcDbLine
 10
28.92110607739048
 20
5.676764383806215
 30
0.0
 11
27.52110607739061
 21
7.076764383806079
 31
0.0
  0
LINE
  5
8B3
330
878
100
AcDbEntity
  8
0
 62
     0
100
AcDbLine
 10
24.3837653752058
 20
10.21410508599089
 30
0.0
 11
23.29849202784314
 21
11.29937843335352
 31
0.0
  0
LINE
  5
8B4
330
878
100
AcDbEntity
  8
0
 62
     0
100
AcDbLine
 10
30.98680999039618
 20
3.611060470800509
 30
0.0
 11
29.6228704611967
 21
4.974999999999994
 31
0.0
  0
LINE
  5
8B5
330
878
100
AcDbEntity
  8
0
 62
     0
100
AcDbLine
 10
24.19610607739057
 20
9.952751577752621
 30
0.0
 11
23.07943599832086
 21
11.06942165682233
 31
0.0
  0
LINE
  5
8B6
330
878
100
AcDbEntity
  8
0
 62
     0
100
AcDbLine
 10
30.5738576551432
 20
3.574999999999988
 30
0.0
 11
27.52110607739059
 21
6.627751577752604
 31
0.0
  0
LINE
  5
8B7
330
878
100
AcDbEntity
  8
0
 62
     0
100
AcDbLine
 10
24.1961060773906
 20
9.503738771699204
 30
0.0
 11
22.91355054214435
 21
10.78629430694545
 31
0.0
  0
LINE
  5
8B8
330
878
100
AcDbEntity
  8
0
 62
     0
100
AcDbLine
 10
30.12484484908981
 20
3.57499999999996
 30
0.0
 11
27.52110607739061
 21
6.178738771699187
 31
0.0
  0
LINE
  5
8B9
330
878
100
AcDbEntity
  8
0
 62
     0
100
AcDbLine
 10
24.29937821794226
 20
8.951453825094063
 30
0.0
 11
22.81246128246227
 21
10.43837076057406
 31
0.0
  0
LINE
  5
8BA
330
878
100
AcDbEntity
  8
0
 62
     0
100
AcDbLine
 10
29.67583204303631
 20
3.574999999999988
 30
0.0
 11
27.52110607739061
 21
5.729725965645712
 31
0.0
  0
LINE
  5
8BB
330
878
100
AcDbEntity
  8
0
 62
     0
100
AcDbLine
 10
26.40790792873628
 20
6.393911308246543
 30
0.0
 11
22.79610607739048
 21
10.00571315959237
 31
0.0
  0
LINE
  5
8BC
330
878
100
AcDbEntity
  8
0
 62
     0
100
AcDbLine
 10
21.74610607739049
 20
11.05571315959233
 30
0.0
 11
21.17681923698285
 21
11.625
 31
0.0
  0
LINE
  5
8BD
330
878
100
AcDbEntity
  8
0
 62
     0
100
AcDbLine
 10
29.22681923698286
 20
3.574999999999988
 30
0.0
 11
27.52110607739059
 21
5.280713159592266
 31
0.0
  0
LINE
  5
8BE
330
878
100
AcDbEntity
  8
0
 62
     0
100
AcDbLine
 10
26.47110607739057
 20
5.88170035353886
 30
0.0
 11
22.79610607739048
 21
9.556700353538957
 31
0.0
  0
LINE
  5
8BF
330
878
100
AcDbEntity
  8
0
 62
     0
100
AcDbLine
 10
21.74610607739055
 20
10.60670035353885
 30
0.0
 11
20.72780643092938
 21
11.62500000000005
 31
0.0
  0
LINE
  5
8C0
330
878
100
AcDbEntity
  8
0
 62
     0
100
AcDbLine
 10
28.76958249155703
 20
3.583223939372402
 30
0.0
 11
27.52933001676303
 21
4.823476414166378
 31
0.0
  0
LINE
  5
8C1
330
878
100
AcDbEntity
  8
0
 62
     0
100
AcDbLine
 10
21.74610607739055
 20
10.15768754748541
 30
0.0
 11
20.39241113350289
 21
11.51138249137304
 31
0.0
  0
LINE
  5
8C2
330
878
100
AcDbEntity
  8
0
 62
     0
100
AcDbLine
 10
26.47110607739055
 20
5.432687547485386
 30
0.0
 11
22.80781141133164
 21
9.095982213544317
 31
0.0
  0
LINE
  5
8C3
330
878
100
AcDbEntity
  8
0
 62
     0
100
AcDbLine
 10
21.74610607739055
 20
9.708674741431934
 30
0.0
 11
20.34610607739054
 21
11.10867474143191
 31
0.0
  0
LINE
  5
8C4
330
878
100
AcDbEntity
  8
0
 62
     0
100
AcDbLine
 10
26.47110607739055
 20
4.98367474143194
 30
0.0
 11
22.96687112025165
 21
8.487909698570831
 31
0.0
  0
LINE
  5
8C5
330
878
100
AcDbEntity
  8
0
 62
     0
100
AcDbLine
 10
21.74610607739055
 20
9.259661935378488
 30
0.0
 11
20.34610607739057
 21
10.65966193537846
 31
0.0
  0
LINE
  5
8C6
330
878
100
AcDbEntity
  8
0
 62
     0
100
AcDbLine
 10
26.41682516859601
 20
4.588942844173033
 30
0.0
 11
25.06900777407679
 21
5.936760238692215
 31
0.0
  0
LINE
  5
8C7
330
878
100
AcDbEntity
  8
0
 62
     0
100
AcDbLine
 10
21.74610607739055
 20
8.810649129325042
 30
0.0
 11
20.34610607739054
 21
10.21064912932502
 31
0.0
  0
LINE
  5
8C8
330
878
100
AcDbEntity
  8
0
 62
     0
100
AcDbLine
 10
19.20036262710198
 20
11.35639257961361
 30
0.0
 11
18.93175520671559
 21
11.625
 31
0.0
  0
LINE
  5
8C9
330
878
100
AcDbEntity
  8
0
 62
     0
100
AcDbLine
 10
26.28288731471523
 20
4.273867892000367
 30
0.0
 11
25.0711060773906
 21
5.485649129324997
 31
0.0
  0
LINE
  5
8CA
330
878
100
AcDbEntity
  8
0
 62
     0
100
AcDbLine
 10
21.74610607739052
 20
8.361636323271568
 30
0.0
 11
20.34610607739054
 21
9.761636323271574
 31
0.0
  0
LINE
  5
8CB
330
878
100
AcDbEntity
  8
0
 62
     0
100
AcDbLine
 10
19.1008987949757
 20
11.00684360568641
 30
0.0
 11
18.48274240066209
 21
11.62500000000003
 31
0.0
  0
LINE
  5
8CC
330
878
100
AcDbEntity
  8
0
 62
     0
100
AcDbLine
 10
26.09139391562758
 20
4.016348485034541
 30
0.0
 11
25.02246348594724
 21
5.085278914714876
 31
0.0
  0
LINE
  5
8CD
330
878
100
AcDbEntity
  8
0
 62
     0
100
AcDbLine
 10
21.74610607739052
 20
7.912623517218122
 30
0.0
 11
20.34610607739054
 21
9.312623517218099
 31
0.0
  0
LINE
  5
8CE
330
878
100
AcDbEntity
  8
0
 62
     0
100
AcDbLine
 10
18.99313572152289
 20
10.66559387308572
 30
0.0
 11
18.0385279397876
 21
11.62020165482104
 31
0.0
  0
LINE
  5
8CF
330
878
100
AcDbEntity
  8
0
 62
     0
100
AcDbLine
 10
25.84823443306976
 20
3.810495161538852
 30
0.0
 11
24.6837295946086
 21
4.975000000000022
 31
0.0
  0
LINE
  5
8D0
330
878
100
AcDbEntity
  8
0
 62
     0
100
AcDbLine
 10
21.74610607739055
 20
7.463610711164676
 30
0.0
 11
20.34610607739054
 21
8.863610711164653
 31
0.0
  0
LINE
  5
8D1
330
878
100
AcDbEntity
  8
0
 62
     0
100
AcDbLine
 10
18.88537264807004
 20
10.32434414048518
 30
0.0
 11
17.82137264806997
 21
11.38834414048523
 31
0.0
  0
LINE
  5
8D2
330
878
100
AcDbEntity
  8
0
 62
     0
100
AcDbLine
 10
25.55019245883958
 20
3.659524329715623
 30
0.0
 11
24.2347167885552
 21
4.975000000000022
 31
0.0
  0
LINE
  5
8D3
330
878
100
AcDbEntity
  8
0
 62
     0
100
AcDbLine
 10
21.74610607739052
 20
7.01459790511123
 30
0.0
 11
20.34610607739054
 21
8.414597905111207
 31
0.0
  0
LINE
  5
8D4
330
878
100
AcDbEntity
  8
0
 62
     0
100
AcDbLine
 10
18.7776095746172
 20
9.98309440788455
 30
0.0
 11
17.71360957461718
 21
11.04709440788457
 31
0.0
  0
LINE
  5
8D5
330
878
100
AcDbEntity
  8
0
 62
     0
100
AcDbLine
 10
25.18135613301584
 20
3.579347849485913
 30
0.0
 11
23.78570398250176
 21
4.974999999999994
 31
0.0
  0
LINE
  5
8D6
330
878
100
AcDbEntity
  8
0
 62
     0
100
AcDbLine
 10
21.74610607739052
 20
6.565585099057756
 30
0.0
 11
20.34610607739052
 21
7.965585099057733
 31
0.0
  0
LINE
  5
8D7
330
878
100
AcDbEntity
  8
0
 62
     0
100
AcDbLine
 10
18.66984650116441
 20
9.641844675283863
 30
0.0
 11
17.60584650116436
 21
10.70584467528388
 31
0.0
  0
LINE
  5
8D8
330
878
100
AcDbEntity
  8
0
 62
     0
100
AcDbLine
 10
24.73669117644832
 20
3.57499999999996
 30
0.0
 11
23.33669117644828
 21
4.974999999999994
 31
0.0
  0
LINE
  5
8D9
330
878
100
AcDbEntity
  8
0
 62
     0
100
AcDbLine
 10
21.74610607739052
 20
6.11657229300431
 30
0.0
 11
20.34610607739054
 21
7.516572293004315
 31
0.0
  0
LINE
  5
8DA
330
878
100
AcDbEntity
  8
0
 62
     0
100
AcDbLine
 10
18.5620834277116
 20
9.300594942683261
 30
0.0
 11
17.49808342771152
 21
10.36459494268334
 31
0.0
  0
LINE
  5
8DB
330
878
100
AcDbEntity
  8
0
 62
     0
100
AcDbLine
 10
24.28767837039493
 20
3.574999999999931
 30
0.0
 11
23.07087252174668
 21
4.791805848648181
 31
0.0
  0
LINE
  5
8DC
330
878
100
AcDbEntity
  8
0
 62
     0
100
AcDbLine
 10
18.45432035425875
 20
8.959345210082631
 30
0.0
 11
17.39032035425873
 21
10.02334521008265
 31
0.0
  0
LINE
  5
8DD
330
878
100
AcDbEntity
  8
0
 62
     0
100
AcDbLine
 10
21.74610607739052
 20
5.667559486950864
 30
0.0
 11
20.34610607739054
 21
7.067559486950841
 31
0.0
  0
LINE
  5
8DE
330
878
100
AcDbEntity
  8
0
 62
     0
100
AcDbLine
 10
16.32110607739059
 20
11.09255948695079
 30
0.0
 11
15.78866556434135
 21
11.62500000000003
 31
0.0
  0
LINE
  5
8DF
330
878
100
AcDbEntity
  8
0
 62
     0
100
AcDbLine
 10
23.83866556434143
 20
3.57499999999996
 30
0.0
 11
23.05860607739055
 21
4.355059486950835
 31
0.0
  0
LINE
  5
8E0
330
878
100
AcDbEntity
  8
0
 62
     0
100
AcDbLine
 10
18.34655728080591
 20
8.618095477482
 30
0.0
 11
17.28255728080592
 21
9.682095477481993
 31
0.0
  0
LINE
  5
8E1
330
878
100
AcDbEntity
  8
0
 62
     0
100
AcDbLine
 10
21.74610607739052
 20
5.218546680897389
 30
0.0
 11
20.34610607739052
 21
6.618546680897395
 31
0.0
  0
LINE
  5
8E2
330
878
100
AcDbEntity
  8
0
 62
     0
100
AcDbLine
 10
16.32110607739057
 20
10.64354668089734
 30
0.0
 11
15.33965275828788
 21
11.625
 31
0.0
  0
LINE
  5
8E3
330
878
100
AcDbEntity
  8
0
 62
     0
100
AcDbLine
 10
23.38965275828795
 20
3.57499999999996
 30
0.0
 11
23.05860607739052
 21
3.906046680897361
 31
0.0
  0
LINE
  5
8E4
330
878
100
AcDbEntity
  8
0
 62
     0
100
AcDbLine
 10
18.23879420735307
 20
8.27684574488137
 30
0.0
 11
17.17479420735307
 21
9.340845744881363
 31
0.0
  0
LINE
  5
8E5
330
878
100
AcDbEntity
  8
0
 62
     0
100
AcDbLine
 10
16.32110607739057
 20
10.19453387484387
 30
0.0
 11
14.98338361294171
 21
11.53225633929273
 31
0.0
  0
LINE
  5
8E6
330
878
100
AcDbEntity
  8
0
 62
     0
100
AcDbLine
 10
21.74610607739049
 20
4.769533874843943
 30
0.0
 11
20.34610607739054
 21
6.169533874843892
 31
0.0
  0
LINE
  5
8E7
330
878
100
AcDbEntity
  8
0
 62
     0
100
AcDbLine
 10
18.13103113390025
 20
7.935596012280768
 30
0.0
 11
17.06703113390026
 21
8.999596012280761
 31
0.0
  0
LINE
  5
8E8
330
878
100
AcDbEntity
  8
0
 62
     0
100
AcDbLine
 10
16.32110607739057
 20
9.745521068790424
 30
0.0
 11
14.9211060773905
 21
11.14552106879048
 31
0.0
  0
LINE
  5
8E9
330
878
100
AcDbEntity
  8
0
 62
     0
100
AcDbLine
 10
21.74610607739055
 20
4.320521068790469
 30
0.0
 11
20.34610607739057
 21
5.720521068790446
 31
0.0
  0
LINE
  5
8EA
330
878
100
AcDbEntity
  8
0
 62
     0
100
AcDbLine
 10
18.02848687920431
 20
7.589127460923236
 30
0.0
 11
16.95926806044747
 21
8.658346279680074
 31
0.0
  0
LINE
  5
8EB
330
878
100
AcDbEntity
  8
0
 62
     0
100
AcDbLine
 10
16.32110607739057
 20
9.296508262736978
 30
0.0
 11
14.9211060773905
 21
10.69650826273704
 31
0.0
  0
LINE
  5
8EC
330
878
100
AcDbEntity
  8
0
 62
     0
100
AcDbLine
 10
21.74610607739055
 20
3.871508262736995
 30
0.0
 11
20.34610607739054
 21
5.271508262736972
 31
0.0
  0
LINE
  5
8ED
330
878
100
AcDbEntity
  8
0
 62
     0
100
AcDbLine
 10
18.23572355892125
 20
6.932877975152791
 30
0.0
 11
16.81399431260507
 21
8.354607221468995
 31
0.0
  0
LINE
  5
8EE
330
878
100
AcDbEntity
  8
0
 62
     0
100
AcDbLine
 10
16.32110607739057
 20
8.847495456683503
 30
0.0
 11
14.92110607739047
 21
10.24749545668356
 31
0.0
  0
LINE
  5
8EF
330
878
100
AcDbEntity
  8
0
 62
     0
100
AcDbLine
 10
21.57658357872441
 20
3.592017955349632
 30
0.0
 11
20.34610607739054
 21
4.822495456683526
 31
0.0
  0
LINE
  5
8F0
330
878
100
AcDbEntity
  8
0
 62
     0
100
AcDbLine
 10
18.44296023863825
 20
6.276628489382403
 30
0.0
 11
14.9211060773905
 21
9.798482650630148
 31
0.0
  0
LINE
  5
8F1
330
878
100
AcDbEntity
  8
0
 62
     0
100
AcDbLine
 10
13.69610607739062
 20
11.02348265063003
 30
0.0
 11
13.09458872802062
 21
11.625
 31
0.0
  0
LINE
  5
8F2
330
878
100
AcDbEntity
  8
0
 62
     0
100
AcDbLine
 10
21.14458872802067
 20
3.574999999999988
 30
0.0
 11
20.34610607739057
 21
4.37348265063008
 31
0.0
  0
LINE
  5
8F3
330
878
100
AcDbEntity
  8
0
 62
     0
100
AcDbLine
 10
18.65019691835522
 20
5.620379003611958
 30
0.0
 11
14.9211060773905
 21
9.349469844576674
 31
0.0
  0
LINE
  5
8F4
330
878
100
AcDbEntity
  8
0
 62
     0
100
AcDbLine
 10
13.69610607739059
 20
10.57446984457658
 30
0.0
 11
12.64557592196718
 21
11.625
 31
0.0
  0
LINE
  5
8F5
330
878
100
AcDbEntity
  8
0
 62
     0
100
AcDbLine
 10
20.69557592196716
 20
3.575000000000017
 30
0.0
 11
20.34610607739054
 21
3.924469844576634
 31
0.0
  0
LINE
  5
8F6
330
878
100
AcDbEntity
  8
0
 62
     0
100
AcDbLine
 10
13.56265272969546
 20
10.25891038621824
 30
0.0
 11
12.21254187058972
 21
11.60902124532396
 31
0.0
  0
LINE
  5
8F7
330
878
100
AcDbEntity
  8
0
 62
     0
100
AcDbLine
 10
18.85743359807216
 20
4.964129517841541
 30
0.0
 11
14.92110607739047
 21
8.900457038523228
 31
0.0
  0
LINE
  5
8F8
330
878
100
AcDbEntity
  8
0
 62
     0
100
AcDbLine
 10
16.48986053856134
 20
6.882689771298913
 30
0.0
 11
14.9211060773905
 21
8.451444232469754
 31
0.0
  0
LINE
  5
8F9
330
878
100
AcDbEntity
  8
0
 62
     0
100
AcDbLine
 10
13.14755030986023
 20
10.22500000000002
 30
0.0
 11
11.84352033579611
 21
11.52902997406411
 31
0.0
  0
LINE
  5
8FA
330
878
100
AcDbEntity
  8
0
 62
     0
100
AcDbLine
 10
19.06467027778916
 20
4.307880032071096
 30
0.0
 11
17.01851643163539
 21
6.354033878224839
 31
0.0
  0
LINE
  5
8FB
330
878
100
AcDbEntity
  8
0
 62
     0
100
AcDbLine
 10
16.32110607739057
 20
6.602431426416245
 30
0.0
 11
14.92110607739047
 21
8.002431426416308
 31
0.0
  0
LINE
  5
8FC
330
878
100
AcDbEntity
  8
0
 62
     0
100
AcDbLine
 10
12.69853750380679
 20
10.22499999999999
 30
0.0
 11
11.52415962788078
 21
11.39937787592603
 31
0.0
  0
LINE
  5
8FD
330
878
100
AcDbEntity
  8
0
 62
     0
100
AcDbLine
 10
19.18218970664455
 20
3.741347797162234
 30
0.0
 11
17.22575311135236
 21
5.697784392454451
 31
0.0
  0
LINE
  5
8FE
330
878
100
AcDbEntity
  8
0
 62
     0
100
AcDbLine
 10
16.32110607739059
 20
6.153418620362742
 30
0.0
 11
14.92110607739047
 21
7.553418620362862
 31
0.0
  0
LINE
  5
8FF
330
878
100
AcDbEntity
  8
0
 62
     0
100
AcDbLine
 10
12.27698075253502
 20
10.19754394521831
 30
0.0
 11
11.24478514021345
 21
11.22973955753988
 31
0.0
  0
LINE
  5
900
330
878
100
AcDbEntity
  8
0
 62
     0
100
AcDbLine
 10
18.89952469775332
 20
3.575000000000017
 30
0.0
 11
17.43298979106924
 21
5.041534906684091
 31
0.0
  0
LINE
  5
901
330
878
100
AcDbEntity
  8
0
 62
     0
100
AcDbLine
 10
16.32110607739057
 20
5.704405814309296
 30
0.0
 11
14.9211060773905
 21
7.104405814309359
 31
0.0
  0
LINE
  5
902
330
878
100
AcDbEntity
  8
0
 62
     0
100
AcDbLine
 10
11.99105265611555
 20
10.03445923558428
 30
0.0
 11
11.00095753590756
 21
11.0245543557923
 31
0.0
  0
LINE
  5
903
330
878
100
AcDbEntity
  8
0
 62
     0
100
AcDbLine
 10
18.45051189169987
 20
3.574999999999988
 30
0.0
 11
17.64022647078619
 21
4.385285420913646
 31
0.0
  0
LINE
  5
904
330
878
100
AcDbEntity
  8
0
 62
     0
100
AcDbLine
 10
13.86382064378941
 20
7.712678441857036
 30
0.0
 11
13.10878451924753
 21
8.46771456639891
 31
0.0
  0
LINE
  5
905
330
878
100
AcDbEntity
  8
0
 62
     0
100
AcDbLine
 10
16.32110607739059
 20
5.25539300825585
 30
0.0
 11
14.92110607739053
 21
6.655393008255913
 31
0.0
  0
LINE
  5
906
330
878
100
AcDbEntity
  8
0
 62
     0
100
AcDbLine
 10
11.81299187105105
 20
9.763507214595392
 30
0.0
 11
10.79127452290194
 21
10.7852245627445
 31
0.0
  0
LINE
  5
907
330
878
100
AcDbEntity
  8
0
 62
     0
100
AcDbLine
 10
17.97633258354409
 20
3.600166502102325
 30
0.0
 11
17.85115549774843
 21
3.725343587897981
 31
0.0
  0
LINE
  5
908
330
878
100
AcDbEntity
  8
0
 62
     0
100
AcDbLine
 10
13.82056381371845
 20
7.306922465874521
 30
0.0
 11
12.70302854326502
 21
8.424457736327951
 31
0.0
  0
LINE
  5
909
330
878
100
AcDbEntity
  8
0
 62
     0
100
AcDbLine
 10
11.77110607739058
 20
9.356380202202387
 30
0.0
 11
10.61680501242117
 21
10.5106812671718
 31
0.0
  0
LINE
  5
90A
330
878
100
AcDbEntity
  8
0
 62
     0
100
AcDbLine
 10
16.32110607739057
 20
4.806380202202376
 30
0.0
 11
14.9211060773905
 21
6.206380202202467
 31
0.0
  0
LINE
  5
90B
330
878
100
AcDbEntity
  8
0
 62
     0
100
AcDbLine
 10
13.65463603406942
 20
7.023837439470042
 30
0.0
 11
12.41994351686054
 21
8.258529956678927
 31
0.0
  0
LINE
  5
90C
330
878
100
AcDbEntity
  8
0
 62
     0
100
AcDbLine
 10
11.77110607739058
 20
8.907367396148913
 30
0.0
 11
10.48151515881602
 21
10.19695831472344
 31
0.0
  0
LINE
  5
90D
330
878
100
AcDbEntity
  8
0
 62
     0
100
AcDbLine
 10
16.32110607739057
 20
4.35736739614893
 30
0.0
 11
14.9211060773905
 21
5.757367396148993
 31
0.0
  0
LINE
  5
90E
330
878
100
AcDbEntity
  8
0
 62
     0
100
AcDbLine
 10
11.77110607739058
 20
8.458354590095467
 30
0.0
 11
10.39415822235312
 21
9.835302445132924
 31
0.0
  0
LINE
  5
90F
330
878
100
AcDbEntity
  8
0
 62
     0
100
AcDbLine
 10
13.4037193130012
 20
6.825741354484875
 30
0.0
 11
12.22184743187537
 21
8.007613235610705
 31
0.0
  0
LINE
  5
910
330
878
100
AcDbEntity
  8
0
 62
     0
100
AcDbLine
 10
9.05860607739055
 20
11.17085459009553
 30
0.0
 11
8.604460667486051
 21
11.62500000000003
 31
0.0
  0
LINE
  5
911
330
878
100
AcDbEntity
  8
0
 62
     0
100
AcDbLine
 10
16.32110607739059
 20
3.908354590095484
 30
0.0
 11
14.9211060773905
 21
5.308354590095547
 31
0.0
  0
LINE
  5
912
330
878
100
AcDbEntity
  8
0
 62
     0
100
AcDbLine
 10
11.77110607739058
 20
8.009341784042021
 30
0.0
 11
10.37110607739055
 21
9.409341784042055
 31
0.0
  0
LINE
  5
913
330
878
100
AcDbEntity
  8
0
 62
     0
100
AcDbLine
 10
13.05355959178749
 20
6.726888269645115
 30
0.0
 11
12.12299434703561
 21
7.657453514396991
 31
0.0
  0
LINE
  5
914
330
878
100
AcDbEntity
  8
0
 62
     0
100
AcDbLine
 10
9.058606077390521
 20
10.72184178404205
 30
0.0
 11
8.155447861432577
 21
11.625
 31
0.0
  0
LINE
  5
915
330
878
100
AcDbEntity
  8
0
 62
     0
100
AcDbLine
 10
16.17715417675526
 20
3.603293684677339
 30
0.0
 11
14.9211060773905
 21
4.859341784042101
 31
0.0
  0
LINE
  5
916
330
878
100
AcDbEntity
  8
0
 62
     0
100
AcDbLine
 10
11.77110607739058
 20
7.560328977988547
 30
0.0
 11
10.37110607739055
 21
8.960328977988581
 31
0.0
  0
LINE
  5
917
330
878
100
AcDbEntity
  8
0
 62
     0
100
AcDbLine
 10
9.004089092255355
 20
10.32734596312377
 30
0.0
 11
7.706435055379131
 21
11.625
 31
0.0
  0
LINE
  5
918
330
878
100
AcDbEntity
  8
0
 62
     0
100
AcDbLine
 10
15.75643505537914
 20
3.574999999999988
 30
0.0
 11
14.9211060773905
 21
4.410328977988626
 31
0.0
  0
LINE
  5
919
330
878
100
AcDbEntity
  8
0
 62
     0
100
AcDbLine
 10
11.77110607739055
 20
7.111316171935101
 30
0.0
 11
10.37110607739052
 21
8.511316171935106
 31
0.0
  0
LINE
  5
91A
330
878
100
AcDbEntity
  8
0
 62
     0
100
AcDbLine
 10
8.657422249325662
 20
10.22499999999999
 30
0.0
 11
7.257422249325657
 21
11.62499999999997
 31
0.0
  0
LINE
  5
91B
330
878
100
AcDbEntity
  8
0
 62
     0
100
AcDbLine
 10
15.30742224932567
 20
3.57499999999996
 30
0.0
 11
14.92110607739047
 21
3.96131617193518
 31
0.0
  0
LINE
  5
91C
330
878
100
AcDbEntity
  8
0
 62
     0
100
AcDbLine
 10
11.77110607739061
 20
6.662303365881626
 30
0.0
 11
10.37110607739055
 21
8.062303365881689
 31
0.0
  0
LINE
  5
91D
330
878
100
AcDbEntity
  8
0
 62
     0
100
AcDbLine
 10
8.208409443272216
 20
10.22500000000002
 30
0.0
 11
6.825844807219795
 21
11.60756463605244
 31
0.0
  0
LINE
  5
91E
330
878
100
AcDbEntity
  8
0
 62
     0
100
AcDbLine
 10
13.69480485297205
 20
4.738604590300184
 30
0.0
 11
13.4597106676907
 21
4.973698775581539
 31
0.0
  0
LINE
  5
91F
330
878
100
AcDbEntity
  8
0
 62
     0
100
AcDbLine
 10
11.77110607739061
 20
6.213290559828152
 30
0.0
 11
10.37110607739055
 21
7.613290559828215
 31
0.0
  0
LINE
  5
920
330
878
100
AcDbEntity
  8
0
 62
     0
100
AcDbLine
 10
7.759396637218742
 20
10.22499999999999
 30
0.0
 11
6.479277402980557
 21
11.50511923423821
 31
0.0
  0
LINE
  5
921
330
878
100
AcDbEntity
  8
0
 62
     0
100
AcDbLine
 10
13.69610607739059
 20
4.288290559828169
 30
0.0
 11
13.00939663721877
 21
4.974999999999994
 31
0.0
  0
LINE
  5
922
330
878
100
AcDbEntity
  8
0
 62
     0
100
AcDbLine
 10
11.77110607739058
 20
5.764277753774678
 30
0.0
 11
10.37110607739058
 21
7.164277753774712
 31
0.0
  0
LINE
  5
923
330
878
100
AcDbEntity
  8
0
 62
     0
100
AcDbLine
 10
7.310383831165239
 20
10.22500000000002
 30
0.0
 11
6.197154073056935
 21
11.33822975810832
 31
0.0
  0
LINE
  5
924
330
878
100
AcDbEntity
  8
0
 62
     0
100
AcDbLine
 10
13.69610607739057
 20
3.839277753774695
 30
0.0
 11
12.56038383116527
 21
4.975000000000022
 31
0.0
  0
LINE
  5
925
330
878
100
AcDbEntity
  8
0
 62
     0
100
AcDbLine
 10
7.055237417358
 20
10.03113360775387
 30
0.0
 11
5.96810766693656
 21
11.11826335817531
 31
0.0
  0
LINE
  5
926
330
878
100
AcDbEntity
  8
0
 62
     0
100
AcDbLine
 10
13.50223968514441
 20
3.584131339967427
 30
0.0
 11
10.37110607739058
 21
6.715264947721294
 31
0.0
  0
LINE
  5
927
330
878
100
AcDbEntity
  8
0
 62
     0
100
AcDbLine
 10
7.046106077390476
 20
9.591252141667922
 30
0.0
 11
5.791367065702075
 21
10.84599115335632
 31
0.0
  0
LINE
  5
928
330
878
100
AcDbEntity
  8
0
 62
     0
100
AcDbLine
 10
13.06235821905844
 20
3.57499999999996
 30
0.0
 11
10.37110607739058
 21
6.26625214166782
 31
0.0
  0
LINE
  5
929
330
878
100
AcDbEntity
  8
0
 62
     0
100
AcDbLine
 10
7.077173931458219
 20
9.111171481546705
 30
0.0
 11
5.675927014555185
 21
10.51241839844974
 31
0.0
  0
LINE
  5
92A
330
878
100
AcDbEntity
  8
0
 62
     0
100
AcDbLine
 10
12.61334541300493
 20
3.574999999999988
 30
0.0
 11
10.37110607739055
 21
5.817239335614345
 31
0.0
  0
LINE
  5
92B
330
878
100
AcDbEntity
  8
0
 62
     0
100
AcDbLine
 10
9.223294123001892
 20
6.516038483949586
 30
0.0
 11
5.646106077390669
 21
10.09322652956081
 31
0.0
  0
LINE
  5
92C
330
878
100
AcDbEntity
  8
0
 62
     0
100
AcDbLine
 10
12.13769656342319
 20
3.601636043528287
 30
0.0
 11
10.3977421209189
 21
5.341590486032572
 31
0.0
  0
LINE
  5
92D
330
878
100
AcDbEntity
  8
0
 62
     0
100
AcDbLine
 10
9.31924138004453
 20
5.971078420853501
 30
0.0
 11
5.646106077390612
 21
9.644213723507419
 31
0.0
  0
LINE
  5
92E
330
878
100
AcDbEntity
  8
0
 62
     0
100
AcDbLine
 10
11.45079260712245
 20
3.83952719377558
 30
0.0
 11
10.63563327116617
 21
4.654686529731861
 31
0.0
  0
LINE
  5
92F
330
878
100
AcDbEntity
  8
0
 62
     0
100
AcDbLine
 10
9.321106077390595
 20
5.520200917453962
 30
0.0
 11
5.649888301101725
 21
9.191418693742804
 31
0.0
  0
LINE
  5
930
330
878
100
AcDbEntity
  8
0
 62
     0
100
AcDbLine
 10
9.321106077390595
 20
5.071188111400488
 30
0.0
 11
5.76153368026371
 21
8.630760508527373
 31
0.0
  0
LINE
  5
931
330
878
100
AcDbEntity
  8
0
 62
     0
100
AcDbLine
 10
9.284846079324552
 20
4.658435303413114
 30
0.0
 11
7.903150257514852
 21
6.040131125222814
 31
0.0
  0
LINE
  5
932
330
878
100
AcDbEntity
  8
0
 62
     0
100
AcDbLine
 10
9.163877109810158
 20
4.330391466874033
 30
0.0
 11
7.921106077390476
 21
5.573162499293715
 31
0.0
  0
LINE
  5
933
330
878
100
AcDbEntity
  8
0
 62
     0
100
AcDbLine
 10
8.982817486119216
 20
4.062438284511472
 30
0.0
 11
7.903156561240109
 21
5.142099209390607
 31
0.0
  0
LINE
  5
934
330
878
100
AcDbEntity
  8
0
 62
     0
100
AcDbLine
 10
8.749704299985808
 20
3.846538664591491
 30
0.0
 11
7.621242964577277
 21
4.975000000000022
 31
0.0
  0
LINE
  5
935
330
878
100
AcDbEntity
  8
0
 62
     0
100
AcDbLine
 10
8.463072076119402
 20
3.684158082404422
 30
0.0
 11
7.172230158523802
 21
4.974999999999994
 31
0.0
  0
LINE
  5
936
330
878
100
AcDbEntity
  8
0
 62
     0
100
AcDbLine
 10
8.110365781576405
 20
3.587851570893946
 30
0.0
 11
6.723217352470356
 21
4.974999999999994
 31
0.0
  0
LINE
  5
937
330
878
100
AcDbEntity
  8
0
 62
     0
100
AcDbLine
 10
7.674204546416916
 20
3.57499999999996
 30
0.0
 11
6.274204546416882
 21
4.974999999999994
 31
0.0
  0
LINE
  5
938
330
878
100
AcDbEntity
  8
0
 62
     0
100
AcDbLine
 10
7.22519174036347
 20
3.57499999999996
 30
0.0
 11
5.948529792954531
 21
4.851661947408928
 31
0.0
  0
LINE
  5
939
330
878
100
AcDbEntity
  8
0
 62
     0
100
AcDbLine
 10
6.776178934309967
 20
3.574999999999988
 30
0.0
 11
5.908606077390572
 21
4.442572856919383
 31
0.0
  0
LINE
  5
93A
330
878
100
AcDbEntity
  8
0
 62
     0
100
AcDbLine
 10
6.32716612825655
 20
3.57499999999996
 30
0.0
 11
5.908606077390572
 21
3.993560050865937
 31
0.0
  0
LINE
  5
93B
330
878
100
AcDbEntity
  8
0
 62
     0
100
AcDbLine
 10
34.316949719724
 20
3.581565888558685
 30
0.0
 11
34.51454018883197
 21
3.779156357666664
 31
0.0
  0
LINE
  5
93C
330
878
100
AcDbEntity
  8
0
 62
     0
100
AcDbLine
 10
33.8613710251118
 20
3.574999999999931
 30
0.0
 11
34.52110607739067
 21
4.234735052278807
 31
0.0
  0
LINE
  5
93D
330
878
100
AcDbEntity
  8
0
 62
     0
100
AcDbLine
 10
33.41235821905838
 20
3.574999999999988
 30
0.0
 11
34.52110607739067
 21
4.683747858332282
 31
0.0
  0
LINE
  5
93E
330
878
100
AcDbEntity
  8
0
 62
     0
100
AcDbLine
 10
33.13670485901648
 20
3.748359446011534
 30
0.0
 11
34.52110607739067
 21
5.132760664385727
 31
0.0
  0
LINE
  5
93F
330
878
100
AcDbEntity
  8
0
 62
     0
100
AcDbLine
 10
33.12110607739055
 20
4.181773470439054
 30
0.0
 11
34.52110607739064
 21
5.581773470439173
 31
0.0
  0
LINE
  5
940
330
878
100
AcDbEntity
  8
0
 62
     0
100
AcDbLine
 10
33.12110607739055
 20
4.630786276492528
 30
0.0
 11
34.52110607739067
 21
6.030786276492619
 31
0.0
  0
LINE
  5
941
330
878
100
AcDbEntity
  8
0
 62
     0
100
AcDbLine
 10
33.12110607739058
 20
5.079799082546031
 30
0.0
 11
34.52110607739064
 21
6.479799082546094
 31
0.0
  0
LINE
  5
942
330
878
100
AcDbEntity
  8
0
 62
     0
100
AcDbLine
 10
33.12110607739058
 20
5.528811888599477
 30
0.0
 11
34.52110607739064
 21
6.928811888599568
 31
0.0
  0
LINE
  5
943
330
878
100
AcDbEntity
  8
0
 62
     0
100
AcDbLine
 10
31.33438850842313
 20
3.74209431963203
 30
0.0
 11
31.9040117577585
 21
4.311717568967424
 31
0.0
  0
LINE
  5
944
330
878
100
AcDbEntity
  8
0
 62
     0
100
AcDbLine
 10
33.12110607739058
 20
5.977824694652923
 30
0.0
 11
34.52110607739067
 21
7.377824694652986
 31
0.0
  0
LINE
  5
945
330
878
100
AcDbEntity
  8
0
 62
     0
100
AcDbLine
 10
30.71910442516179
 20
3.575823042424104
 30
0.0
 11
32.07028303496642
 21
4.927001652228767
 31
0.0
  0
LINE
  5
946
330
878
100
AcDbEntity
  8
0
 62
     0
100
AcDbLine
 10
33.12110607739058
 20
6.426837500706398
 30
0.0
 11
34.52110607739064
 21
7.82683750070646
 31
0.0
  0
LINE
  5
947
330
878
100
AcDbEntity
  8
0
 62
     0
100
AcDbLine
 10
30.26926857668417
 20
3.57499999999996
 30
0.0
 11
32.07110607739057
 21
5.376837500706386
 31
0.0
  0
LINE
  5
948
330
878
100
AcDbEntity
  8
0
 62
     0
100
AcDbLine
 10
33.12110607739058
 20
6.875850306759843
 30
0.0
 11
34.52110607739064
 21
8.275850306759906
 31
0.0
  0
LINE
  5
949
330
878
100
AcDbEntity
  8
0
 62
     0
100
AcDbLine
 10
29.82025577063069
 20
3.574999999999988
 30
0.0
 11
32.07110607739057
 21
5.825850306759861
 31
0.0
  0
LINE
  5
94A
330
878
100
AcDbEntity
  8
0
 62
     0
100
AcDbLine
 10
33.12110607739058
 20
7.324863112813289
 30
0.0
 11
34.52110607739064
 21
8.724863112813352
 31
0.0
  0
LINE
  5
94B
330
878
100
AcDbEntity
  8
0
 62
     0
100
AcDbLine
 10
29.37124296457725
 20
3.57499999999996
 30
0.0
 11
32.07110607739063
 21
6.274863112813335
 31
0.0
  0
LINE
  5
94C
330
878
100
AcDbEntity
  8
0
 62
     0
100
AcDbLine
 10
30.61881047634995
 20
5.271580317826135
 30
0.0
 11
32.07110607739063
 21
6.723875918866781
 31
0.0
  0
LINE
  5
94D
330
878
100
AcDbEntity
  8
0
 62
     0
100
AcDbLine
 10
33.12110607739058
 20
7.773875918866735
 30
0.0
 11
34.52110607739064
 21
9.173875918866826
 31
0.0
  0
LINE
  5
94E
330
878
100
AcDbEntity
  8
0
 62
     0
100
AcDbLine
 10
28.9222301585238
 20
3.57499999999996
 30
0.0
 11
30.37452575956442
 21
5.027295601040606
 31
0.0
  0
LINE
  5
94F
330
878
100
AcDbEntity
  8
0
 62
     0
100
AcDbLine
 10
30.67110607739051
 20
5.772888724920136
 30
0.0
 11
32.0711060773906
 21
7.172888724920255
 31
0.0
  0
LINE
  5
950
330
878
100
AcDbEntity
  8
0
 62
     0
100
AcDbLine
 10
33.12110607739055
 20
8.22288872492021
 30
0.0
 11
34.52110607739064
 21
9.622888724920272
 31
0.0
  0
LINE
  5
951
330
878
100
AcDbEntity
  8
0
 62
     0
100
AcDbLine
 10
28.52919222815891
 20
3.630974875688536
 30
0.0
 11
29.87321735247034
 21
4.974999999999965
 31
0.0
  0
LINE
  5
952
330
878
100
AcDbEntity
  8
0
 62
     0
100
AcDbLine
 10
30.67110607739048
 20
6.22190153097361
 30
0.0
 11
32.0711060773906
 21
7.621901530973701
 31
0.0
  0
LINE
  5
953
330
878
100
AcDbEntity
  8
0
 62
     0
100
AcDbLine
 10
33.12110607739055
 20
8.671901530973684
 30
0.0
 11
34.52110607739067
 21
10.07190153097377
 31
0.0
  0
LINE
  5
954
330
878
100
AcDbEntity
  8
0
 62
     0
100
AcDbLine
 10
28.21519879455377
 20
3.765994248136905
 30
0.0
 11
29.42464343923914
 21
4.975438892822268
 31
0.0
  0
LINE
  5
955
330
878
100
AcDbEntity
  8
0
 62
     0
100
AcDbLine
 10
30.67110607739051
 20
6.670914337027028
 30
0.0
 11
32.0711060773906
 21
8.070914337027147
 31
0.0
  0
LINE
  5
956
330
878
100
AcDbEntity
  8
0
 62
     0
100
AcDbLine
 10
33.12110607739058
 20
9.120914337027102
 30
0.0
 11
34.52110607739067
 21
10.52091433702722
 31
0.0
  0
LINE
  5
957
330
878
100
AcDbEntity
  8
0
 62
     0
100
AcDbLine
 10
27.9585688538713
 20
3.958377113507822
 30
0.0
 11
29.1029041448827
 21
5.102712404519252
 31
0.0
  0
LINE
  5
958
330
878
100
AcDbEntity
  8
0
 62
     0
100
AcDbLine
 10
30.67110607739048
 20
7.119927143080502
 30
0.0
 11
32.0711060773906
 21
8.519927143080622
 31
0.0
  0
LINE
  5
959
330
878
100
AcDbEntity
  8
0
 62
     0
100
AcDbLine
 10
33.12110607739055
 20
9.569927143080576
 30
0.0
 11
34.52110607739067
 21
10.96992714308067
 31
0.0
  0
LINE
  5
95A
330
878
100
AcDbEntity
  8
0
 62
     0
100
AcDbLine
 10
27.75358676625874
 20
4.202407831948733
 30
0.0
 11
28.93428500567799
 21
5.383106071368018
 31
0.0
  0
LINE
  5
95B
330
878
100
AcDbEntity
  8
0
 62
     0
100
AcDbLine
 10
30.67110607739051
 20
7.568939949134005
 30
0.0
 11
32.0711060773906
 21
8.968939949134068
 31
0.0
  0
LINE
  5
95C
330
878
100
AcDbEntity
  8
0
 62
     0
100
AcDbLine
 10
33.12110607739055
 20
10.01893994913402
 30
0.0
 11
34.51603150061539
 21
11.41386537235888
 31
0.0
  0
LINE
  5
95D
330
878
100
AcDbEntity
  8
0
 62
     0
100
AcDbLine
 10
27.60362432704176
 20
4.501458198785257
 30
0.0
 11
28.92110607739051
 21
5.818939949134005
 31
0.0
  0
LINE
  5
95E
330
878
100
AcDbEntity
  8
0
 62
     0
100
AcDbLine
 10
30.67110607739053
 20
8.017952755187451
 30
0.0
 11
32.07110607739065
 21
9.417952755187542
 31
0.0
  0
LINE
  5
95F
330
878
100
AcDbEntity
  8
0
 62
     0
100
AcDbLine
 10
33.12110607739055
 20
10.46795275518747
 30
0.0
 11
34.27747432807553
 21
11.62432100587244
 31
0.0
  0
LINE
  5
960
330
878
100
AcDbEntity
  8
0
 62
     0
100
AcDbLine
 10
27.52491755956356
 20
4.87176423736048
 30
0.0
 11
28.92110607739051
 21
6.267952755187423
 31
0.0
  0
LINE
  5
961
330
878
100
AcDbEntity
  8
0
 62
     0
100
AcDbLine
 10
30.67110607739053
 20
8.466965561240897
 30
0.0
 11
32.07110607739063
 21
9.866965561241016
 31
0.0
  0
LINE
  5
962
330
878
100
AcDbEntity
  8
0
 62
     0
100
AcDbLine
 10
33.12110607739055
 20
10.91696556124094
 30
0.0
 11
33.82914051614958
 21
11.62499999999997
 31
0.0
  0
LINE
  5
963
330
878
100
AcDbEntity
  8
0
 62
     0
100
AcDbLine
 10
27.52110607739067
 20
5.316965561241062
 30
0.0
 11
28.92110607739051
 21
6.716965561240897
 31
0.0
  0
LINE
  5
964
330
878
100
AcDbEntity
  8
0
 62
     0
100
AcDbLine
 10
30.67110607739051
 20
8.915978367294371
 30
0.0
 11
32.07110607739063
 21
10.31597836729446
 31
0.0
  0
LINE
  5
965
330
878
100
AcDbEntity
  8
0
 62
     0
100
AcDbLine
 10
27.52110607739067
 20
5.765978367294536
 30
0.0
 11
28.92110607739051
 21
7.165978367294343
 31
0.0
  0
LINE
  5
966
330
878
100
AcDbEntity
  8
0
 62
     0
100
AcDbLine
 10
33.1211294347643
 20
11.36600172466816
 30
0.0
 11
33.38010435272244
 21
11.62497664262628
 31
0.0
  0
LINE
  5
967
330
878
100
AcDbEntity
  8
0
 62
     0
100
AcDbLine
 10
25.36032826203459
 20
3.605200551938423
 30
0.0
 11
26.44090552545217
 21
4.685777815356033
 31
0.0
  0
LINE
  5
968
330
878
100
AcDbEntity
  8
0
 62
     0
100
AcDbLine
 10
27.52110607739067
 20
6.214991173347982
 30
0.0
 11
28.92110607739054
 21
7.614991173347846
 31
0.0
  0
LINE
  5
969
330
878
100
AcDbEntity
  8
0
 62
     0
100
AcDbLine
 10
30.67110607739051
 20
9.364991173347817
 30
0.0
 11
32.0711060773906
 21
10.76499117334793
 31
0.0
  0
LINE
  5
96A
330
878
100
AcDbEntity
  8
0
 62
     0
100
AcDbLine
 10
24.88111490404265
 20
3.574999999999988
 30
0.0
 11
26.47110607739057
 21
5.164991173347914
 31
0.0
  0
LINE
  5
96B
330
878
100
AcDbEntity
  8
0
 62
     0
100
AcDbLine
 10
27.52110607739067
 20
6.664003979401428
 30
0.0
 11
28.92110607739054
 21
8.064003979401292
 31
0.0
  0
LINE
  5
96C
330
878
100
AcDbEntity
  8
0
 62
     0
100
AcDbLine
 10
30.67110607739051
 20
9.814003979401263
 30
0.0
 11
32.07110607739063
 21
11.21400397940138
 31
0.0
  0
LINE
  5
96D
330
878
100
AcDbEntity
  8
0
 62
     0
100
AcDbLine
 10
24.4321020979892
 20
3.57499999999996
 30
0.0
 11
26.4711060773906
 21
5.614003979401331
 31
0.0
  0
LINE
  5
96E
330
878
100
AcDbEntity
  8
0
 62
     0
100
AcDbLine
 10
27.52110607739067
 20
7.113016785454874
 30
0.0
 11
28.92110607739054
 21
8.513016785454738
 31
0.0
  0
LINE
  5
96F
330
878
100
AcDbEntity
  8
0
 62
     0
100
AcDbLine
 10
30.67110607739051
 20
10.26301678545474
 30
0.0
 11
31.97423734997352
 21
11.56614805803772
 31
0.0
  0
LINE
  5
970
330
878
100
AcDbEntity
  8
0
 62
     0
100
AcDbLine
 10
23.9830892919357
 20
3.574999999999931
 30
0.0
 11
26.46394677718416
 21
6.055857485248367
 31
0.0
  0
LINE
  5
971
330
878
100
AcDbEntity
  8
0
 62
     0
100
AcDbLine
 10
27.52110607739064
 20
7.562029591508348
 30
0.0
 11
28.92110607739051
 21
8.962029591508212
 31
0.0
  0
LINE
  5
972
330
878
100
AcDbEntity
  8
0
 62
     0
100
AcDbLine
 10
30.67110607739051
 20
10.71202959150818
 30
0.0
 11
31.58407648588227
 21
11.62499999999997
 31
0.0
  0
LINE
  5
973
330
878
100
AcDbEntity
  8
0
 62
     0
100
AcDbLine
 10
23.53407648588225
 20
3.57499999999996
 30
0.0
 11
26.39649059186979
 21
6.4374141059875
 31
0.0
  0
LINE
  5
974
330
878
100
AcDbEntity
  8
0
 62
     0
100
AcDbLine
 10
27.52110607739067
 20
8.011042397561794
 30
0.0
 11
28.92110607739054
 21
9.411042397561658
 31
0.0
  0
LINE
  5
975
330
878
100
AcDbEntity
  8
0
 62
     0
100
AcDbLine
 10
25.07110607739065
 20
5.561042397561749
 30
0.0
 11
26.27619686341049
 21
6.766133183581615
 31
0.0
  0
LINE
  5
976
330
878
100
AcDbEntity
  8
0
 62
     0
100
AcDbLine
 10
30.67110607739051
 20
11.16104239756163
 30
0.0
 11
31.13506367982888
 21
11.625
 31
0.0
  0
LINE
  5
977
330
878
100
AcDbEntity
  8
0
 62
     0
100
AcDbLine
 10
23.1491913563944
 20
3.639127676565522
 30
0.0
 11
24.48506367982884
 21
4.974999999999965
 31
0.0
  0
LINE
  5
978
330
878
100
AcDbEntity
  8
0
 62
     0
100
AcDbLine
 10
25.06117078982695
 20
6.000119916051517
 30
0.0
 11
26.11444721098022
 21
7.053396337204816
 31
0.0
  0
LINE
  5
979
330
878
100
AcDbEntity
  8
0
 62
     0
100
AcDbLine
 10
27.52110607739067
 20
8.46005520361524
 30
0.0
 11
28.92110607739054
 21
9.860055203615104
 31
0.0
  0
LINE
  5
97A
330
878
100
AcDbEntity
  8
0
 62
     0
100
AcDbLine
 10
23.05860607739061
 20
3.997555203615178
 30
0.0
 11
24.03605087377537
 21
4.974999999999965
 31
0.0
  0
LINE
  5
97B
330
878
100
AcDbEntity
  8
0
 62
     0
100
AcDbLine
 10
24.9239783712575
 20
6.311940303535578
 30
0.0
 11
25.91651165201631
 21
7.304473584294385
 31
0.0
  0
LINE
  5
97C
330
878
100
AcDbEntity
  8
0
 62
     0
100
AcDbLine
 10
27.52110607739064
 20
8.909068009668715
 30
0.0
 11
28.92110607739051
 21
10.30906800966858
 31
0.0
  0
LINE
  5
97D
330
878
100
AcDbEntity
  8
0
 62
     0
100
AcDbLine
 10
23.05860607739058
 20
4.446568009668652
 30
0.0
 11
23.58703806772192
 21
4.974999999999994
 31
0.0
  0
LINE
  5
97E
330
878
100
AcDbEntity
  8
0
 62
     0
100
AcDbLine
 10
27.52110607739067
 20
9.358080815722132
 30
0.0
 11
28.92110607739054
 21
10.75808081572199
 31
0.0
  0
LINE
  5
97F
330
878
100
AcDbEntity
  8
0
 62
     0
100
AcDbLine
 10
24.70334092269897
 20
6.540315661030433
 30
0.0
 11
25.69329041636013
 21
7.530265154691591
 31
0.0
  0
LINE
  5
980
330
878
100
AcDbEntity
  8
0
 62
     0
100
AcDbLine
 10
24.47883451967224
 20
6.76482206405717
 30
0.0
 11
25.46878401333339
 21
7.754771557718328
 31
0.0
  0
LINE
  5
981
330
878
100
AcDbEntity
  8
0
 62
     0
100
AcDbLine
 10
27.52110607739064
 20
9.807093621775607
 30
0.0
 11
28.92110607739051
 21
11.20709362177547
 31
0.0
  0
LINE
  5
982
330
878
100
AcDbEntity
  8
0
 62
     0
100
AcDbLine
 10
21.28901245561499
 20
3.57499999999996
 30
0.0
 11
21.74610607739058
 21
4.032093621775516
 31
0.0
  0
LINE
  5
983
330
878
100
AcDbEntity
  8
0
 62
     0
100
AcDbLine
 10
24.2543281166455
 20
6.989328467083907
 30
0.0
 11
25.24427761030665
 21
7.979277960745065
 31
0.0
  0
LINE
  5
984
330
878
100
AcDbEntity
  8
0
 62
     0
100
AcDbLine
 10
27.52110607739064
 20
10.25610642782908
 30
0.0
 11
28.8280156233412
 21
11.56301597377964
 31
0.0
  0
LINE
  5
985
330
878
100
AcDbEntity
  8
0
 62
     0
100
AcDbLine
 10
20.83999964956152
 20
3.57499999999996
 30
0.0
 11
21.74610607739055
 21
4.48110642782899
 31
0.0
  0
LINE
  5
986
330
878
100
AcDbEntity
  8
0
 62
     0
100
AcDbLine
 10
24.02982171361876
 20
7.213834870110645
 30
0.0
 11
25.01977120727992
 21
8.203784363771802
 31
0.0
  0
LINE
  5
987
330
878
100
AcDbEntity
  8
0
 62
     0
100
AcDbLine
 10
27.52110607739067
 20
10.70511923388258
 30
0.0
 11
28.44098684350811
 21
11.62500000000003
 31
0.0
  0
LINE
  5
988
330
878
100
AcDbEntity
  8
0
 62
     0
100
AcDbLine
 10
20.44679241243901
 20
3.630805568930924
 30
0.0
 11
21.74610607739055
 21
4.930119233882436
 31
0.0
  0
LINE
  5
989
330
878
100
AcDbEntity
  8
0
 62
     0
100
AcDbLine
 10
23.80531531059205
 20
7.438341273137353
 30
0.0
 11
24.79526480425321
 21
8.428290766798511
 31
0.0
  0
LINE
  5
98A
330
878
100
AcDbEntity
  8
0
 62
     0
100
AcDbLine
 10
27.5211060773907
 20
11.154132039936
 30
0.0
 11
27.9919740374547
 21
11.625
 31
0.0
  0
LINE
  5
98B
330
878
100
AcDbEntity
  8
0
 62
     0
100
AcDbLine
 10
20.3461060773906
 20
3.979132039935933
 30
0.0
 11
21.74610607739061
 21
5.37913203993591
 31
0.0
  0
LINE
  5
98C
330
878
100
AcDbEntity
  8
0
 62
     0
100
AcDbLine
 10
23.58080890756526
 20
7.662847676164062
 30
0.0
 11
24.57075840122647
 21
8.652797169825248
 31
0.0
  0
LINE
  5
98D
330
878
100
AcDbEntity
  8
0
 62
     0
100
AcDbLine
 10
20.3461060773906
 20
4.428144845989407
 30
0.0
 11
21.74610607739058
 21
5.828144845989385
 31
0.0
  0
LINE
  5
98E
330
878
100
AcDbEntity
  8
0
 62
     0
100
AcDbLine
 10
23.35731695704459
 20
7.888368531696841
 30
0.0
 11
24.3493037237356
 21
8.880355298387883
 31
0.0
  0
LINE
  5
98F
330
878
100
AcDbEntity
  8
0
 62
     0
100
AcDbLine
 10
20.3461060773906
 20
4.877157652042853
 30
0.0
 11
21.74610607739058
 21
6.277157652042859
 31
0.0
  0
LINE
  5
990
330
878
100
AcDbEntity
  8
0
 62
     0
100
AcDbLine
 10
25.69394842534774
 20
10.22499999999999
 30
0.0
 11
26.20860607739067
 21
10.73965765204295
 31
0.0
  0
LINE
  5
991
330
878
100
AcDbEntity
  8
0
 62
     0
100
AcDbLine
 10
19.09977796503531
 20
3.630829539687596
 30
0.0
 11
19.14460414576308
 21
3.675655720415335
 31
0.0
  0
LINE
  5
992
330
878
100
AcDbEntity
  8
0
 62
     0
100
AcDbLine
 10
23.1583158676336
 20
8.138380248339274
 30
0.0
 11
24.20813300634293
 21
9.188197387048631
 31
0.0
  0
LINE
  5
993
330
878
100
AcDbEntity
  8
0
 62
     0
100
AcDbLine
 10
20.3461060773906
 20
5.326170458096299
 30
0.0
 11
21.74610607739061
 21
6.726170458096277
 31
0.0
  0
LINE
  5
994
330
878
100
AcDbEntity
  8
0
 62
     0
100
AcDbLine
 10
25.2449356192943
 20
10.22499999999999
 30
0.0
 11
26.2086060773907
 21
11.18867045809639
 31
0.0
  0
LINE
  5
995
330
878
100
AcDbEntity
  8
0
 62
     0
100
AcDbLine
 10
18.59493561929426
 20
3.57499999999996
 30
0.0
 11
19.12782516744744
 21
4.107889548153139
 31
0.0
  0
LINE
  5
996
330
878
100
AcDbEntity
  8
0
 62
     0
100
AcDbLine
 10
22.99539873543523
 20
8.424475922194403
 30
0.0
 11
24.19610607739063
 21
9.625183264149768
 31
0.0
  0
LINE
  5
997
330
878
100
AcDbEntity
  8
0
 62
     0
100
AcDbLine
 10
20.3461060773906
 20
5.775183264149745
 30
0.0
 11
21.74610607739058
 21
7.175183264149751
 31
0.0
  0
LINE
  5
998
330
878
100
AcDbEntity
  8
0
 62
     0
100
AcDbLine
 10
24.79592281324085
 20
10.22499999999999
 30
0.0
 11
26.12527161149166
 21
11.55434879825083
 31
0.0
  0
LINE
  5
999
330
878
100
AcDbEntity
  8
0
 62
     0
100
AcDbLine
 10
18.14592281324076
 20
3.574999999999931
 30
0.0
 11
19.02006209399465
 21
4.449139280753826
 31
0.0
  0
LINE
  5
99A
330
878
100
AcDbEntity
  8
0
 62
     0
100
AcDbLine
 10
20.34610607739057
 20
6.22419607020322
 30
0.0
 11
21.74610607739058
 21
7.624196070203197
 31
0.0
  0
LINE
  5
99B
330
878
100
AcDbEntity
  8
0
 62
     0
100
AcDbLine
 10
22.87370770410019
 20
8.751797696912831
 30
0.0
 11
25.74691000718735
 21
11.625
 31
0.0
  0
LINE
  5
99C
330
878
100
AcDbEntity
  8
0
 62
     0
100
AcDbLine
 10
17.84991565791321
 20
3.728005650725862
 30
0.0
 11
18.91229902054181
 21
4.790389013354456
 31
0.0
  0
LINE
  5
99D
330
878
100
AcDbEntity
  8
0
 62
     0
100
AcDbLine
 10
20.34610607739057
 20
6.673208876256694
 30
0.0
 11
21.74610607739055
 21
8.073208876256671
 31
0.0
  0
LINE
  5
99E
330
878
100
AcDbEntity
  8
0
 62
     0
100
AcDbLine
 10
22.80435427455734
 20
9.131457073423462
 30
0.0
 11
25.29789720113391
 21
11.625
 31
0.0
  0
LINE
  5
99F
330
878
100
AcDbEntity
  8
0
 62
     0
100
AcDbLine
 10
17.74053594708894
 20
4.067638745955036
 30
0.0
 11
18.80453594708896
 21
5.131638745955086
 31
0.0
  0
LINE
  5
9A0
330
878
100
AcDbEntity
  8
0
 62
     0
100
AcDbLine
 10
20.3461060773906
 20
7.122221682310112
 30
0.0
 11
21.74610607739058
 21
8.522221682310117
 31
0.0
  0
LINE
  5
9A1
330
878
100
AcDbEntity
  8
0
 62
     0
100
AcDbLine
 10
22.79610607739053
 20
9.572221682310072
 30
0.0
 11
24.84888439508046
 21
11.625
 31
0.0
  0
LINE
  5
9A2
330
878
100
AcDbEntity
  8
0
 62
     0
100
AcDbLine
 10
17.63277287363613
 20
4.408888478555667
 30
0.0
 11
18.69677287363612
 21
5.472888478555631
 31
0.0
  0
LINE
  5
9A3
330
878
100
AcDbEntity
  8
0
 62
     0
100
AcDbLine
 10
20.34610607739057
 20
7.571234488363586
 30
0.0
 11
21.74610607739058
 21
8.971234488363563
 31
0.0
  0
LINE
  5
9A4
330
878
100
AcDbEntity
  8
0
 62
     0
100
AcDbLine
 10
22.79610607739053
 20
10.02123448836352
 30
0.0
 11
24.39987158902702
 21
11.625
 31
0.0
  0
LINE
  5
9A5
330
878
100
AcDbEntity
  8
0
 62
     0
100
AcDbLine
 10
17.52500980018328
 20
4.750138211156297
 30
0.0
 11
18.5890098001833
 21
5.814138211156318
 31
0.0
  0
LINE
  5
9A6
330
878
100
AcDbEntity
  8
0
 62
     0
100
AcDbLine
 10
20.34610607739057
 20
8.020247294417032
 30
0.0
 11
21.74610607739055
 21
9.420247294417038
 31
0.0
  0
LINE
  5
9A7
330
878
100
AcDbEntity
  8
0
 62
     0
100
AcDbLine
 10
17.41724672673047
 20
5.091387943756956
 30
0.0
 11
18.48124672673051
 21
6.155387943756977
 31
0.0
  0
LINE
  5
9A8
330
878
100
AcDbEntity
  8
0
 62
     0
100
AcDbLine
 10
22.82276441245116
 20
10.49690562947765
 30
0.0
 11
23.92420044791288
 21
11.59834166493937
 31
0.0
  0
LINE
  5
9A9
330
878
100
AcDbEntity
  8
0
 62
     0
100
AcDbLine
 10
15.90085878297347
 20
3.57499999999996
 30
0.0
 11
16.32110607739057
 21
3.995247294417055
 31
0.0
  0
LINE
  5
9AA
330
878
100
AcDbEntity
  8
0
 62
     0
100
AcDbLine
 10
17.30948365327768
 20
5.432637676357558
 30
0.0
 11
18.37348365327764
 21
6.496637676357551
 31
0.0
  0
LINE
  5
9AB
330
878
100
AcDbEntity
  8
0
 62
     0
100
AcDbLine
 10
20.34610607739057
 20
8.469260100470478
 30
0.0
 11
21.74610607739061
 21
9.869260100470512
 31
0.0
  0
LINE
  5
9AC
330
878
100
AcDbEntity
  8
0
 62
     0
100
AcDbLine
 10
15.45184597692005
 20
3.574999999999931
 30
0.0
 11
16.32110607739059
 21
4.444260100470501
 31
0.0
  0
LINE
  5
9AD
330
878
100
AcDbEntity
  8
0
 62
     0
100
AcDbLine
 10
17.20172057982483
 20
5.773887408958188
 30
0.0
 11
18.26572057982486
 21
6.837887408958238
 31
0.0
  0
LINE
  5
9AE
330
878
100
AcDbEntity
  8
0
 62
     0
100
AcDbLine
 10
20.34610607739057
 20
8.918272906523952
 30
0.0
 11
21.74610607739061
 21
10.31827290652396
 31
0.0
  0
LINE
  5
9AF
330
878
100
AcDbEntity
  8
0
 62
     0
100
AcDbLine
 10
15.04340804469222
 20
3.615574873825607
 30
0.0
 11
16.32110607739059
 21
4.893272906523947
 31
0.0
  0
LINE
  5
9B0
330
878
100
AcDbEntity
  8
0
 62
     0
100
AcDbLine
 10
17.09395750637202
 20
6.115137141558875
 30
0.0
 11
18.15795750637201
 21
7.179137141558868
 31
0.0
  0
LINE
  5
9B1
330
878
100
AcDbEntity
  8
0
 62
     0
100
AcDbLine
 10
20.34610607739057
 20
9.367285712577398
 30
0.0
 11
21.74610607739058
 21
10.76728571257743
 31
0.0
  0
LINE
  5
9B2
330
878
100
AcDbEntity
  8
0
 62
     0
100
AcDbLine
 10
14.9211060773905
 20
3.942285712577358
 30
0.0
 11
16.32110607739057
 21
5.342285712577421
 31
0.0
  0
LINE
  5
9B3
330
878
100
AcDbEntity
  8
0
 62
     0
100
AcDbLine
 10
16.9861944329192
 20
6.456386874159477
 30
0.0
 11
18.0501944329192
 21
7.52038687415947
 31
0.0
  0
LINE
  5
9B4
330
878
100
AcDbEntity
  8
0
 62
     0
100
AcDbLine
 10
20.34610607739057
 20
9.816298518630844
 30
0.0
 11
21.74610607739061
 21
11.21629851863088
 31
0.0
  0
LINE
  5
9B5
330
878
100
AcDbEntity
  8
0
 62
     0
100
AcDbLine
 10
14.92110607739053
 20
4.391298518630776
 30
0.0
 11
16.32110607739059
 21
5.791298518630838
 31
0.0
  0
LINE
  5
9B6
330
878
100
AcDbEntity
  8
0
 62
     0
100
AcDbLine
 10
16.86879503943331
 20
6.788000286727054
 30
0.0
 11
18.18394207339875
 21
8.103147320692499
 31
0.0
  0
LINE
  5
9B7
330
878
100
AcDbEntity
  8
0
 62
     0
100
AcDbLine
 10
20.3461060773906
 20
10.26531132468434
 30
0.0
 11
21.64796836614138
 21
11.5671736134351
 31
0.0
  0
LINE
  5
9B8
330
878
100
AcDbEntity
  8
0
 62
     0
100
AcDbLine
 10
14.9211060773905
 20
4.84031132468425
 30
0.0
 11
16.32110607739057
 21
6.240311324684313
 31
0.0
  0
LINE
  5
9B9
330
878
100
AcDbEntity
  8
0
 62
     0
100
AcDbLine
 10
16.52520235449961
 20
6.893420407846832
 30
0.0
 11
18.39117875311572
 21
8.759396806462945
 31
0.0
  0
LINE
  5
9BA
330
878
100
AcDbEntity
  8
0
 62
     0
100
AcDbLine
 10
14.9211060773905
 20
5.289324130737696
 30
0.0
 11
16.32768566954374
 21
6.695903722890932
 31
0.0
  0
LINE
  5
9BB
330
878
100
AcDbEntity
  8
0
 62
     0
100
AcDbLine
 10
20.3461060773906
 20
10.71432413073779
 30
0.0
 11
21.25678194665278
 21
11.625
 31
0.0
  0
LINE
  5
9BC
330
878
100
AcDbEntity
  8
0
 62
     0
100
AcDbLine
 10
13.20678194665277
 20
3.57499999999996
 30
0.0
 11
13.69610607739059
 21
4.064324130737816
 31
0.0
  0
LINE
  5
9BD
330
878
100
AcDbEntity
  8
0
 62
     0
100
AcDbLine
 10
14.92110607739047
 20
5.738336936791171
 30
0.0
 11
18.59841543283272
 21
9.415646292233418
 31
0.0
  0
LINE
  5
9BE
330
878
100
AcDbEntity
  8
0
 62
     0
100
AcDbLine
 10
20.34610607739057
 20
11.16333693679127
 30
0.0
 11
20.80776914059931
 21
11.625
 31
0.0
  0
LINE
  5
9BF
330
878
100
AcDbEntity
  8
0
 62
     0
100
AcDbLine
 10
12.75776914059929
 20
3.574999999999988
 30
0.0
 11
13.69610607739059
 21
4.51333693679129
 31
0.0
  0
LINE
  5
9C0
330
878
100
AcDbEntity
  8
0
 62
     0
100
AcDbLine
 10
14.9211060773905
 20
6.187349742844617
 30
0.0
 11
18.80565211254972
 21
10.0718957780038
 31
0.0
  0
LINE
  5
9C1
330
878
100
AcDbEntity
  8
0
 62
     0
100
AcDbLine
 10
12.31459664672081
 20
3.580840312174927
 30
0.0
 11
13.62543893558745
 21
4.891682601041566
 31
0.0
  0
LINE
  5
9C2
330
878
100
AcDbEntity
  8
0
 62
     0
100
AcDbLine
 10
14.9211060773905
 20
6.636362548898063
 30
0.0
 11
16.58474352849239
 21
8.299999999999982
 31
0.0
  0
LINE
  5
9C3
330
878
100
AcDbEntity
  8
0
 62
     0
100
AcDbLine
 10
16.96673494611284
 20
8.681991417620423
 30
0.0
 11
19.01288879226666
 21
10.72814526377425
 31
0.0
  0
LINE
  5
9C4
330
878
100
AcDbEntity
  8
0
 62
     0
100
AcDbLine
 10
11.93051638799733
 20
3.645772859504887
 30
0.0
 11
13.25974352849243
 21
4.974999999999994
 31
0.0
  0
LINE
  5
9C5
330
878
100
AcDbEntity
  8
0
 62
     0
100
AcDbLine
 10
14.92110607739047
 20
7.085375354951537
 30
0.0
 11
16.33010136274473
 21
8.49437064030576
 31
0.0
  0
LINE
  5
9C6
330
878
100
AcDbEntity
  8
0
 62
     0
100
AcDbLine
 10
17.17397162582981
 20
9.33824090339084
 30
0.0
 11
19.20042451816738
 21
11.36469379572844
 31
0.0
  0
LINE
  5
9C7
330
878
100
AcDbEntity
  8
0
 62
     0
100
AcDbLine
 10
11.59994925958418
 20
3.764218537145211
 30
0.0
 11
12.81073072243896
 21
4.975000000000022
 31
0.0
  0
LINE
  5
9C8
330
878
100
AcDbEntity
  8
0
 62
     0
100
AcDbLine
 10
14.9211060773905
 20
7.534388161004955
 30
0.0
 11
16.32110607739059
 21
8.934388161005074
 31
0.0
  0
LINE
  5
9C9
330
878
100
AcDbEntity
  8
0
 62
     0
100
AcDbLine
 10
17.38120830554669
 20
9.994490389161171
 30
0.0
 11
19.00341858188281
 21
11.61670066549729
 31
0.0
  0
LINE
  5
9CA
330
878
100
AcDbEntity
  8
0
 62
     0
100
AcDbLine
 10
11.311147617502
 20
3.92442970111648
 30
0.0
 11
12.36917854674854
 21
4.982460630362993
 31
0.0
  0
LINE
  5
9CB
330
878
100
AcDbEntity
  8
0
 62
     0
100
AcDbLine
 10
14.92110607739047
 20
7.983400967058429
 30
0.0
 11
16.32110607739059
 21
9.383400967058548
 31
0.0
  0
LINE
  5
9CC
330
878
100
AcDbEntity
  8
0
 62
     0
100
AcDbLine
 10
17.58844498526366
 20
10.65073987493161
 30
0.0
 11
18.56270511033205
 21
11.625
 31
0.0
  0
LINE
  5
9CD
330
878
100
AcDbEntity
  8
0
 62
     0
100
AcDbLine
 10
11.05867013431097
 20
4.120965023978925
 30
0.0
 11
12.05202047623936
 21
5.114315365907316
 31
0.0
  0
LINE
  5
9CE
330
878
100
AcDbEntity
  8
0
 62
     0
100
AcDbLine
 10
14.92110607739047
 20
8.432413773111903
 30
0.0
 11
16.32110607739059
 21
9.832413773111994
 31
0.0
  0
LINE
  5
9CF
330
878
100
AcDbEntity
  8
0
 62
     0
100
AcDbLine
 10
13.25192314327881
 20
6.763230839000243
 30
0.0
 11
13.83287523839036
 21
7.344182934111785
 31
0.0
  0
LINE
  5
9D0
330
878
100
AcDbEntity
  8
0
 62
     0
100
AcDbLine
 10
17.79568166498063
 20
11.30698936070203
 30
0.0
 11
18.1136923042786
 21
11.62500000000003
 31
0.0
  0
LINE
  5
9D1
330
878
100
AcDbEntity
  8
0
 62
     0
100
AcDbLine
 10
10.84045159764608
 20
4.351759293367479
 30
0.0
 11
11.84689500060324
 21
5.358202696324667
 31
0.0
  0
LINE
  5
9D2
330
878
100
AcDbEntity
  8
0
 62
     0
100
AcDbLine
 10
12.7894367224639
 20
6.749757224238805
 30
0.0
 11
13.84634885315179
 21
7.806669354926668
 31
0.0
  0
LINE
  5
9D3
330
878
100
AcDbEntity
  8
0
 62
     0
100
AcDbLine
 10
14.92110607739047
 20
8.881426579165349
 30
0.0
 11
16.32110607739057
 21
10.28142657916547
 31
0.0
  0
LINE
  5
9D4
330
878
100
AcDbEntity
  8
0
 62
     0
100
AcDbLine
 10
10.65694198517462
 20
4.617262486949499
 30
0.0
 11
11.77110607739061
 21
5.731426579165514
 31
0.0
  0
LINE
  5
9D5
330
878
100
AcDbEntity
  8
0
 62
     0
100
AcDbLine
 10
12.4823634377538
 20
6.891696745582095
 30
0.0
 11
13.70440933180848
 21
8.113742639636797
 31
0.0
  0
LINE
  5
9D6
330
878
100
AcDbEntity
  8
0
 62
     0
100
AcDbLine
 10
14.92110607739047
 20
9.330439385218795
 30
0.0
 11
16.32110607739059
 21
10.73043938521888
 31
0.0
  0
LINE
  5
9D7
330
878
100
AcDbEntity
  8
0
 62
     0
100
AcDbLine
 10
10.51128323021226
 20
4.920616538040576
 30
0.0
 11
11.77110607739067
 21
6.180439385218988
 31
0.0
  0
LINE
  5
9D8
330
878
100
AcDbEntity
  8
0
 62
     0
100
AcDbLine
 10
12.26338347425894
 20
7.121729588140738
 30
0.0
 11
13.47437648924986
 21
8.332722603131628
 31
0.0
  0
LINE
  5
9D9
330
878
100
AcDbEntity
  8
0
 62
     0
100
AcDbLine
 10
14.9211060773905
 20
9.779452191272298
 30
0.0
 11
16.32110607739057
 21
11.17945219127236
 31
0.0
  0
LINE
  5
9DA
330
878
100
AcDbEntity
  8
0
 62
     0
100
AcDbLine
 10
10.41071454812493
 20
5.269060662006722
 30
0.0
 11
11.77110607739067
 21
6.629452191272463
 31
0.0
  0
LINE
  5
9DB
330
878
100
AcDbEntity
  8
0
 62
     0
100
AcDbLine
 10
12.13535810805476
 20
7.442717027989999
 30
0.0
 11
13.15338904940057
 21
8.460747969335841
 31
0.0
  0
LINE
  5
9DC
330
878
100
AcDbEntity
  8
0
 62
     0
100
AcDbLine
 10
10.37110607739055
 20
5.678464997325818
 30
0.0
 11
11.77110607739064
 21
7.078464997325909
 31
0.0
  0
LINE
  5
9DD
330
878
100
AcDbEntity
  8
0
 62
     0
100
AcDbLine
 10
14.9211060773905
 20
10.22846499732574
 30
0.0
 11
16.24248102321297
 21
11.54983994314821
 31
0.0
  0
LINE
  5
9DE
330
878
100
AcDbEntity
  8
0
 62
     0
100
AcDbLine
 10
8.328107698452811
 20
3.635466618388079
 30
0.0
 11
9.260639459002504
 21
4.567998378937744
 31
0.0
  0
LINE
  5
9DF
330
878
100
AcDbEntity
  8
0
 62
     0
100
AcDbLine
 10
12.19456464979515
 20
7.95093637578384
 30
0.0
 11
12.64516970160676
 21
8.401541427595446
 31
0.0
  0
LINE
  5
9E0
330
878
100
AcDbEntity
  8
0
 62
     0
100
AcDbLine
 10
10.37110607739055
 20
6.127477803379235
 30
0.0
 11
11.77110607739067
 21
7.527477803379355
 31
0.0
  0
LINE
  5
9E1
330
878
100
AcDbEntity
  8
0
 62
     0
100
AcDbLine
 10
14.9211060773905
 20
10.67747780337919
 30
0.0
 11
15.86862827401134
 21
11.62500000000003
 31
0.0
  0
LINE
  5
9E2
330
878
100
AcDbEntity
  8
0
 62
     0
100
AcDbLine
 10
7.818628274011274
 20
3.57499999999996
 30
0.0
 11
9.321106077390652
 21
5.077477803379309
 31
0.0
  0
LINE
  5
9E3
330
878
100
AcDbEntity
  8
0
 62
     0
100
AcDbLine
 10
10.37110607739055
 20
6.57649060943271
 30
0.0
 11
11.77110607739067
 21
7.976490609432801
 31
0.0
  0
LINE
  5
9E4
330
878
100
AcDbEntity
  8
0
 62
     0
100
AcDbLine
 10
14.9211060773905
 20
11.12649060943266
 30
0.0
 11
15.41961546795784
 21
11.625
 31
0.0
  0
LINE
  5
9E5
330
878
100
AcDbEntity
  8
0
 62
     0
100
AcDbLine
 10
7.369615467957771
 20
3.574999999999931
 30
0.0
 11
9.321106077390624
 21
5.526490609432784
 31
0.0
  0
LINE
  5
9E6
330
878
100
AcDbEntity
  8
0
 62
     0
100
AcDbLine
 10
10.37110607739055
 20
7.025503415486156
 30
0.0
 11
11.77110607739064
 21
8.425503415486275
 31
0.0
  0
LINE
  5
9E7
330
878
100
AcDbEntity
  8
0
 62
     0
100
AcDbLine
 10
6.920602661904354
 20
3.574999999999988
 30
0.0
 11
9.31913640111
 21
5.973533739205635
 31
0.0
  0
LINE
  5
9E8
330
878
100
AcDbEntity
  8
0
 62
     0
100
AcDbLine
 10
10.37110607739055
 20
7.47451622153963
 30
0.0
 11
11.77110607739067
 21
8.874516221539749
 31
0.0
  0
LINE
  5
9E9
330
878
100
AcDbEntity
  8
0
 62
     0
100
AcDbLine
 10
13.12158985585094
 20
10.22500000000002
 30
0.0
 11
13.69610607739062
 21
10.79951622153967
 31
0.0
  0
LINE
  5
9EA
330
878
100
AcDbEntity
  8
0
 62
     0
100
AcDbLine
 10
6.471589855850879
 20
3.57499999999996
 30
0.0
 11
9.264305482949339
 21
6.367715627098419
 31
0.0
  0
LINE
  5
9EB
330
878
100
AcDbEntity
  8
0
 62
     0
100
AcDbLine
 10
10.37110607739055
 20
7.923529027593076
 30
0.0
 11
11.77110607739064
 21
9.323529027593167
 31
0.0
  0
LINE
  5
9EC
330
878
100
AcDbEntity
  8
0
 62
     0
100
AcDbLine
 10
7.921106077390504
 20
5.473529027593031
 30
0.0
 11
9.153136110927277
 21
6.705559061129804
 31
0.0
  0
LINE
  5
9ED
330
878
100
AcDbEntity
  8
0
 62
     0
100
AcDbLine
 10
12.67257704979749
 20
10.22499999999999
 30
0.0
 11
13.69610607739059
 21
11.24852902759312
 31
0.0
  0
LINE
  5
9EE
330
878
100
AcDbEntity
  8
0
 62
     0
100
AcDbLine
 10
6.051439987427357
 20
3.603862937629884
 30
0.0
 11
7.422577049797496
 21
4.974999999999994
 31
0.0
  0
LINE
  5
9EF
330
878
100
AcDbEntity
  8
0
 62
     0
100
AcDbLine
 10
10.37110607739052
 20
8.372541833646522
 30
0.0
 11
11.85401343028042
 21
9.855449186536418
 31
0.0
  0
LINE
  5
9F0
330
878
100
AcDbEntity
  8
0
 62
     0
100
AcDbLine
 10
7.920026531585818
 20
5.921462287841819
 30
0.0
 11
8.998920343591208
 21
7.000356099847209
 31
0.0
  0
LINE
  5
9F1
330
878
100
AcDbEntity
  8
0
 62
     0
100
AcDbLine
 10
12.14065689085419
 20
10.14209264711019
 30
0.0
 11
13.57937236993064
 21
11.58080812618664
 31
0.0
  0
LINE
  5
9F2
330
878
100
AcDbEntity
  8
0
 62
     0
100
AcDbLine
 10
5.908606077390544
 20
3.910041833646545
 30
0.0
 11
6.973564243744021
 21
4.975000000000022
 31
0.0
  0
LINE
  5
9F3
330
878
100
AcDbEntity
  8
0
 62
     0
100
AcDbLine
 10
7.81022502183552
 20
6.260673584144996
 30
0.0
 11
8.807799361171788
 21
7.258247923481263
 31
0.0
  0
LINE
  5
9F4
330
878
100
AcDbEntity
  8
0
 62
     0
100
AcDbLine
 10
10.37110607739052
 20
8.821554639699996
 30
0.0
 11
13.17455143769055
 21
11.62500000000003
 31
0.0
  0
LINE
  5
9F5
330
878
100
AcDbEntity
  8
0
 62
     0
100
AcDbLine
 10
5.908606077390544
 20
4.359054639700019
 30
0.0
 11
6.524551437690519
 21
4.974999999999994
 31
0.0
  0
LINE
  5
9F6
330
878
100
AcDbEntity
  8
0
 62
     0
100
AcDbLine
 10
7.597097607683195
 20
6.496558976046088
 30
0.0
 11
8.587047101344438
 21
7.486508469707331
 31
0.0
  0
LINE
  5
9F7
330
878
100
AcDbEntity
  8
0
 62
     0
100
AcDbLine
 10
10.37110607739058
 20
9.270567445753471
 30
0.0
 11
12.72553863163708
 21
11.62499999999997
 31
0.0
  0
LINE
  5
9F8
330
878
100
AcDbEntity
  8
0
 62
     0
100
AcDbLine
 10
5.943082038400461
 20
4.842543406763354
 30
0.0
 11
6.041062670627269
 21
4.940524038990162
 31
0.0
  0
LINE
  5
9F9
330
878
100
AcDbEntity
  8
0
 62
     0
100
AcDbLine
 10
10.3810936344687
 20
9.729567808885065
 30
0.0
 11
12.26653826850548
 21
11.61501244292182
 31
0.0
  0
LINE
  5
9FA
330
878
100
AcDbEntity
  8
0
 62
     0
100
AcDbLine
 10
7.372591204656458
 20
6.721065379072825
 30
0.0
 11
8.362540698317701
 21
7.711014872734068
 31
0.0
  0
LINE
  5
9FB
330
878
100
AcDbEntity
  8
0
 62
     0
100
AcDbLine
 10
10.53082535060153
 20
10.32831233107137
 30
0.0
 11
11.66779374631917
 21
11.46528072678901
 31
0.0
  0
LINE
  5
9FC
330
878
100
AcDbEntity
  8
0
 62
     0
100
AcDbLine
 10
7.148084801629721
 20
6.945571782099563
 30
0.0
 11
8.138034295290964
 21
7.935521275760805
 31
0.0
  0
LINE
  5
9FD
330
878
100
AcDbEntity
  8
0
 62
     0
100
AcDbLine
 10
6.923578398603069
 20
7.170078185126328
 30
0.0
 11
7.913527892264227
 21
8.160027678787457
 31
0.0
  0
LINE
  5
9FE
330
878
100
AcDbEntity
  8
0
 62
     0
100
AcDbLine
 10
6.69907199557636
 20
7.394584588153094
 30
0.0
 11
7.689021489237489
 21
8.384534081814194
 31
0.0
  0
LINE
  5
9FF
330
878
100
AcDbEntity
  8
0
 62
     0
100
AcDbLine
 10
6.474565592549595
 20
7.619090991179803
 30
0.0
 11
7.464515086210752
 21
8.609040484840932
 31
0.0
  0
LINE
  5
A00
330
878
100
AcDbEntity
  8
0
 62
     0
100
AcDbLine
 10
8.63146179531634
 20
10.22500000000002
 30
0.0
 11
9.05860607739055
 21
10.65214428207423
 31
0.0
  0
LINE
  5
A01
330
878
100
AcDbEntity
  8
0
 62
     0
100
AcDbLine
 10
6.250100846536952
 20
7.843639051220634
 30
0.0
 11
7.24013366825315
 21
8.833671872936832
 31
0.0
  0
LINE
  5
A02
330
878
100
AcDbEntity
  8
0
 62
     0
100
AcDbLine
 10
8.182448989262866
 20
10.22499999999996
 30
0.0
 11
9.058606077390578
 21
11.10115708812767
 31
0.0
  0
LINE
  5
A03
330
878
100
AcDbEntity
  8
0
 62
     0
100
AcDbLine
 10
6.044366884261165
 20
8.086917894998265
 30
0.0
 11
7.075185227609154
 21
9.117736238346253
 31
0.0
  0
LINE
  5
A04
330
878
100
AcDbEntity
  8
0
 62
     0
100
AcDbLine
 10
7.733436183209448
 20
10.22499999999999
 30
0.0
 11
9.015326627510006
 21
11.50689044430058
 31
0.0
  0
LINE
  5
A05
330
878
100
AcDbEntity
  8
0
 62
     0
100
AcDbLine
 10
5.874136581129931
 20
8.365700397920505
 30
0.0
 11
7.046106077390533
 21
9.537669894181107
 31
0.0
  0
LINE
  5
A06
330
878
100
AcDbEntity
  8
0
 62
     0
100
AcDbLine
 10
7.283190052570944
 20
10.22376667541499
 30
0.0
 11
8.68442337715598
 21
11.625
 31
0.0
  0
LINE
  5
A07
330
878
100
AcDbEntity
  8
0
 62
     0
100
AcDbLine
 10
5.743789933263855
 20
8.684366556107875
 30
0.0
 11
7.047339401975591
 21
9.987916024819611
 31
0.0
  0
LINE
  5
A08
330
878
100
AcDbEntity
  8
0
 62
     0
100
AcDbLine
 10
5.66288395213985
 20
9.052473381037316
 30
0.0
 11
8.235410571102534
 21
11.625
 31
0.0
  0
LINE
  5
A09
330
878
100
AcDbEntity
  8
0
 62
     0
100
AcDbLine
 10
5.646106077390669
 20
9.484708312341581
 30
0.0
 11
7.786397765049059
 21
11.625
 31
0.0
  0
LINE
  5
A0A
330
878
100
AcDbEntity
  8
0
 62
     0
100
AcDbLine
 10
5.646106077390641
 20
9.933721118395055
 30
0.0
 11
7.337384958995613
 21
11.625
 31
0.0
  0
LINE
  5
A0B
330
878
100
AcDbEntity
  8
0
 62
     0
100
AcDbLine
 10
5.656202082609809
 20
10.39282992966767
 30
0.0
 11
6.878276147723028
 21
11.61490399478089
 31
0.0
  0
ENDBLK
  5
A0D
330
878
100
AcDbEntity
  8
0
100
AcDbBlockEnd
  0
ENDSEC
  0
SECTION
  2
ENTITIES
  0
LWPOLYLINE
  5
547
330
1A
100
AcDbEntity
  8
ZUWAKU
100
AcDbPolyline
 90
        4
 70
     1
 43
0.0
 10
0.3999999999999772
 20
275.4000000000001
 10
0.3999999999999772
 20
0.4000000000000341
 10
398.3999999999999
 20
0.4000000000000341
 10
398.3999999999999
 20
275.4000000000001
  0
LWPOLYLINE
  5
548
330
1A
100
AcDbEntity
  8
ZUWAKU
100
AcDbPolyline
 90
        4
 70
     1
 43
0.0
 10
0.2000000000000455
 20
275.6
 10
0.2000000000000455
 20
0.2000000000000455
 10
398.6000000000002
 20
0.2000000000000455
 10
398.6000000000002
 20
275.6
  0
LWPOLYLINE
  5
549
330
1A
100
AcDbEntity
  8
ZUWAKU
100
AcDbPolyline
 90
        4
 70
     1
 43
0.0
 10
0.0
 20
275.8
 10
0.0
 20
0.0
 10
398.7999999999999
 20
0.0000000000000568
 10
398.7999999999999
 20
275.8000000000001
  0
LWPOLYLINE
  5
54A
330
1A
100
AcDbEntity
  8
ZUWAKU
100
AcDbPolyline
 90
        4
 70
     1
 43
0.0
 10
0.2999999999999545
 20
275.5
 10
0.2999999999999545
 20
0.3000000000000114
 10
398.5000000000002
 20
0.3000000000000114
 10
398.5
 20
275.5
  0
LWPOLYLINE
  5
54B
330
1A
100
AcDbEntity
  8
ZUWAKU
100
AcDbPolyline
 90
        4
 70
     1
 43
0.0
 10
0.0999999999999091
 20
275.7000000000001
 10
0.0999999999999091
 20
0.1000000000000227
 10
398.7
 20
0.1000000000000227
 10
398.7
 20
275.7000000000001
  0
LINE
  5
54C
330
1A
100
AcDbEntity
  8
ZUWAKU
100
AcDbLine
 10
104.3233006450339
 20
7.600000000000022
 30
0.0
 11
223.7121819854958
 21
7.600000000000022
 31
0.0
  0
LINE
  5
54D
330
1A
100
AcDbEntity
  8
ZUWAKU
100
AcDbLine
 10
104.3233006450339
 20
7.800000000000011
 30
0.0
 11
223.7121819854958
 21
7.800000000000011
 31
0.0
  0
LINE
  5
54E
330
1A
100
AcDbEntity
  8
ZUWAKU
100
AcDbLine
 10
104.3233006450339
 20
7.700000000000045
 30
0.0
 11
223.7121819854958
 21
7.700000000000045
 31
0.0
  0
LINE
  5
54F
330
1A
100
AcDbEntity
  8
ZUWAKU
100
AcDbLine
 10
0.0
 20
15.0
 30
0.0
 11
398.7
 21
15.0
 31
0.0
  0
LINE
  5
550
330
1A
100
AcDbEntity
  8
ZUWAKU
100
AcDbLine
 10
0.0
 20
15.10000000000002
 30
0.0
 11
398.7
 21
15.10000000000002
 31
0.0
  0
LINE
  5
551
330
1A
100
AcDbEntity
  8
ZUWAKU
100
AcDbLine
 10
0.0
 20
15.19999999999999
 30
0.0
 11
398.7
 21
15.19999999999999
 31
0.0
  0
LINE
  5
552
330
1A
100
AcDbEntity
  8
ZUWAKU
100
AcDbLine
 10
0.0
 20
15.30000000000001
 30
0.0
 11
398.7
 21
15.30000000000001
 31
0.0
  0
LINE
  5
553
330
1A
100
AcDbEntity
  8
ZUWAKU
100
AcDbLine
 10
0.0
 20
15.39999999999998
 30
0.0
 11
398.7
 21
15.39999999999998
 31
0.0
  0
LINE
  5
554
330
1A
100
AcDbEntity
  8
SEIHIN
  6
Continuous
 62
     3
 48
16.0
100
AcDbLine
 10
189.0451808343787
 20
179.0621420903798
 30
0.0
 11
189.0451808343787
 21
144.7466199742798
 31
0.0
  0
LINE
  5
555
330
1A
100
AcDbEntity
  8
SEIHIN
  6
Continuous
 62
     3
 48
16.0
100
AcDbLine
 10
179.8423779529785
 20
181.7466199742798
 30
0.0
 11
179.8423779529785
 21
144.7466199742798
 31
0.0
  0
LINE
  5
556
330
1A
100
AcDbEntity
  8
SEIHIN
  6
Continuous
 62
     3
 48
16.0
100
AcDbLine
 10
180.5451808343787
 20
144.7466199742798
 30
0.0
 11
180.5451808343787
 21
177.7466199742798
 31
0.0
  0
LINE
  5
557
330
1A
100
AcDbEntity
  8
CENTER L
  6
CENTER
 62
     1
 48
5.0
100
AcDbLine
 10
129.8951808344286
 20
135.309287231972
 30
0.0
 11
129.8951808344286
 21
221.728818481972
 31
0.0
  0
LINE
  5
558
330
1A
100
AcDbEntity
  8
SEIHIN
  6
Continuous
 62
     3
 48
16.0
100
AcDbLine
 10
79.24518083437852
 20
177.7466199742798
 30
0.0
 11
79.24518083437852
 21
144.7466199742798
 31
0.0
  0
LINE
  5
559
330
1A
100
AcDbEntity
  8
SEIHIN
  6
Continuous
 62
     3
 48
16.0
100
AcDbLine
 10
79.94798371587854
 20
144.7466199742798
 30
0.0
 11
79.94798371587854
 21
181.7466199742798
 31
0.0
  0
LINE
  5
55A
330
1A
100
AcDbEntity
  8
SEIHIN
  6
Continuous
 62
     3
 48
16.0
100
AcDbLine
 10
70.74518083437851
 20
144.7466199742798
 30
0.0
 11
70.74518083437851
 21
179.0621420903798
 31
0.0
  0
DIMENSION
  5
55B
330
1A
100
AcDbEntity
  8
寸法
100
AcDbDimension
  2
*D1
 10
203.2201549797562
 20
144.7466199742798
 30
0.0
 11
200.7201549797562
 21
179.74661997428
 31
0.0
 70
    32
 71
     5
 42
-1.0
  3
STANDARD
100
AcDbAlignedDimension
 13
189.0451808343787
 23
214.7466199742801
 33
0.0
 14
189.0451808343787
 24
144.7466199742798
 34
0.0
 50
90.0
100
AcDbRotatedDimension
1001
ACAD
1000
DSTYLE
1002
{
1070
    41
1040
3.0
1070
    42
1040
3.0
1070
    43
1040
7.0
1070
    44
1040
1.5
1070
    73
1070
     0
1070
    74
1070
     0
1070
    77
1070
     3
1070
   140
1040
3.0
1070
   141
1040
15.0
1070
   147
1040
1.0
1070
   172
1070
     1
1070
   176
1070
     4
1070
   177
1070
     4
1070
   178
1070
     4
1070
   271
1070
     0
1070
   272
1070
     0
1070
   341
1005
166
1070
     5
1000
OPEN30
1002
}
  0
LINE
  5
55C
330
1A
100
AcDbEntity
  8
SEIHIN
  6
Continuous
 62
     3
 48
16.0
100
AcDbLine
 10
79.24518083437852
 20
144.7466199742798
 30
0.0
 11
78.24518083437851
 21
144.7466199742798
 31
0.0
  0
ARC
  5
55D
330
1A
100
AcDbEntity
  8
SEIHIN
  6
Continuous
 62
     3
 48
16.0
100
AcDbCircle
 10
77.26795525932857
 20
83.40533582117041
 30
0.0
 40
6.499999999999993
100
AcDbArc
 50
52.73183800309929
 51
90.0
  0
ARC
  5
55E
330
1A
100
AcDbEntity
  8
SEIHIN
  6
Continuous
 62
     3
 48
16.0
100
AcDbCircle
 10
77.91675370972848
 20
83.40533582117041
 30
0.0
 40
4.500000000000012
100
AcDbArc
 50
54.90319877240212
 51
90.0
  0
ARC
  5
55F
330
1A
100
AcDbEntity
  8
SEIHIN
  6
Continuous
 62
     3
 48
16.0
100
AcDbCircle
 10
78.24518083442876
 20
86.00533582117042
 30
0.0
 40
1.0
100
AcDbArc
 50
0.0
 51
90.0
  0
ARC
  5
560
330
1A
100
AcDbEntity
  8
SEIHIN
  6
Continuous
 62
     3
 48
16.0
100
AcDbCircle
 10
78.24518083442876
 20
86.00533582117042
 30
0.0
 40
1.0
100
AcDbArc
 50
270.0
 51
0.0
  0
ARC
  5
561
330
1A
100
AcDbEntity
  8
SEIHIN
  6
Continuous
 62
     3
 48
16.0
100
AcDbCircle
 10
78.39059366006904
 20
72.90533582117041
 30
0.0
 40
1.0
100
AcDbArc
 50
15.02921688702377
 51
90.0
  0
LINE
  5
562
330
1A
100
AcDbEntity
  8
SEIHIN
  6
Continuous
 62
     3
 48
16.0
100
AcDbLine
 10
77.24518083442877
 20
73.90533582117041
 30
0.0
 11
79.42672565343855
 21
73.90533582117041
 31
0.0
  0
LINE
  5
563
330
1A
100
AcDbEntity
  8
SEIHIN
  6
Continuous
 62
     3
 48
16.0
100
AcDbLine
 10
79.94798371582851
 20
75.90533582117041
 30
0.0
 11
77.24518083442877
 21
75.90533582117041
 31
0.0
  0
DIMENSION
  5
564
330
1A
100
AcDbEntity
  8
寸法
100
AcDbDimension
  2
*D2
 10
189.0451808344285
 20
104.4024829393529
 30
0.0
 11
129.8951808344286
 21
106.9024829393529
 31
0.0
 70
    32
 71
     5
 42
-1.0
  3
STANDARD
100
AcDbAlignedDimension
 13
70.74518083442876
 23
83.40533582117041
 33
0.0
 14
189.0451808344285
 24
83.40533582117041
 34
0.0
100
AcDbRotatedDimension
1001
ACAD
1000
DSTYLE
1002
{
1070
    41
1040
3.0
1070
    42
1040
3.0
1070
    43
1040
7.0
1070
    44
1040
1.5
1070
    73
1070
     0
1070
    74
1070
     0
1070
    77
1070
     3
1070
   140
1040
3.0
1070
   141
1040
15.0
1070
   147
1040
1.0
1070
   172
1070
     1
1070
   176
1070
     4
1070
   177
1070
     4
1070
   178
1070
     4
1070
   271
1070
     1
1070
   272
1070
     0
1070
   341
1005
166
1070
     5
1000
OPEN30
1002
}
  0
TEXT
  5
565
330
1A
100
AcDbEntity
  8
MOJI
100
AcDbText
 10
46.47889479408457
 20
6.37058906513738
 30
0.0
 40
3.0
  1
丸トップのきとい・半丸といＨ型
 41
0.9
  7
ｽﾀｲﾙ1
100
AcDbText
  0
INSERT
  5
566
330
1A
100
AcDbEntity
  8
ZUWAKU
  6
Continuous
100
AcDbBlockReference
  2
*X5
 10
0.0
 20
0.0
 30
0.0
1001
ACAD
1000
HATCH
1002
{
1070
    19
1000
ANSI37
1040
0.1
1040
0.0
1000
R14_HATCH_DATA
1000
566
1011
1.0
1021
0.0
1031
0.0
1011
0.0
1021
1.0
1031
0.0
1011
0.0
1021
0.0
1031
1.0
1040
0.0
1010
0.0
1020
0.0
1030
1.0
1000
ANSI37
1070
     0
1070
     0
1071
        8
1071
        7
1070
     1
1070
     1
1071
       24
1040
7.251131330559928
1040
8.822424240491784
1040
-0.1989123673796348
1040
7.046106077390504
1040
9.317398987322292
1040
0.0
1040
7.046106077390504
1040
9.962499999999977
1040
-0.4142135623730912
1040
7.30860607739055
1040
10.22500000000002
1040
0.0
1040
8.796106077390504
1040
10.22500000000002
1040
0.4142135623731546
1040
9.05860607739055
1040
10.48750000000001
1040
0.0
1040
9.05860607739055
1040
11.36250000000001
1040
0.4142135623731586
1040
8.796106077390504
1040
11.625
1040
0.0
1040
7.046106077390504
1040
11.625
1040
0.4142135623730928
1040
5.646106077390641
1040
10.22500000000002
1040
0.0
1040
5.646106077390641
1040
9.317398987322405
1040
0.1989123673796619
1040
6.261181836898799
1040
7.832474746830598
1040
0.0
1040
7.71608082422108
1040
6.37757575950826
1040
-0.1989123673796613
1040
7.921106077390504
1040
5.882601012677639
1040
0.0
1040
7.921106077390504
1040
5.237500000000011
1040
-0.4142135623730911
1040
7.658606077390572
1040
4.975000000000022
1040
0.0
1040
6.171106077390618
1040
4.975000000000022
1040
0.4142135623731526
1040
5.908606077390572
1040
4.712500000000034
1040
0.0
1040
5.908606077390572
1040
3.837499999999977
1040
0.4142135623731526
1040
6.171106077390618
1040
3.574999999999988
1040
0.0
1040
7.921106077390504
1040
3.574999999999988
1040
0.4142135623731044
1040
9.321106077390595
1040
4.974999999999965
1040
0.0
1040
9.321106077390595
1040
5.882601012677639
1040
0.1989123673796604
1040
8.706030317882323
1040
7.367525253169389
1040
0.0
1071
        0
1071
        7
1070
     1
1070
     1
1071
       16
1040
11.77110607739064
1040
9.524999999999977
1040
-0.4142135623730935
1040
12.47110607739057
1040
10.22500000000002
1040
0.0
1040
13.43360607739055
1040
10.22500000000002
1040
0.4142135623731546
1040
13.69610607739059
1040
10.48750000000001
1040
0.0
1040
13.69610607739059
1040
11.36250000000001
1040
0.4142135623730951
1040
13.43360607739055
1040
11.625
1040
0.0
1040
12.47110607739046
1040
11.625
1040
0.4142135623730892
1040
10.37110607739055
1040
9.524999999999977
1040
0.0
1040
10.37110607739055
1040
5.675000000000011
1040
0.4142135623730969
1040
12.47110607739057
1040
3.574999999999988
1040
0.0
1040
13.43360607739055
1040
3.574999999999988
1040
0.4142135623731526
1040
13.69610607739059
1040
3.837499999999977
1040
0.0
1040
13.69610607739059
1040
4.712500000000034
1040
0.4142135623730891
1040
13.43360607739055
1040
4.975000000000022
1040
0.0
1040
12.47110607739057
1040
4.975000000000022
1040
-0.4142135623730928
1040
11.77110607739064
1040
5.675000000000011
1040
0.0
1071
        0
1071
        7
1070
     1
1070
     1
1071
        2
1040
12.12110607739055
1040
7.600000000000022
1040
1.0
1040
13.87110607739055
1040
7.600000000000022
1040
1.0
1071
        0
1071
        7
1070
     1
1070
     1
1071
       26
1040
18.65742931847956
1040
9.602523596781736
1040
0.0
1040
19.18824913504841
1040
11.2834530159165
1040
0.5069206636600134
1040
18.93793368545084
1040
11.625
1040
0.0
1040
18.08848899564623
1040
11.625
1040
0.3272098845218764
1040
17.83817354604844
1040
11.44154698408351
1040
0.0
1040
16.90403860873266
1040
8.483453015916552
1040
-0.3272098845219541
1040
16.65372315913487
1040
8.300000000000011
1040
0.0
1040
16.58360607739064
1040
8.300000000000011
1040
-0.4142135623731526
1040
16.32110607739059
1040
8.5625
1040
0.0
1040
16.32110607739059
1040
11.36250000000001
1040
0.4142135623730951
1040
16.05860607739055
1040
11.625
1040
0.0
1040
15.18360607739055
1040
11.625
1040
0.4142135623730871
1040
14.9211060773905
1040
11.36250000000001
1040
0.0
1040
14.9211060773905
1040
3.837499999999977
1040
0.4142135623730891
1040
15.18360607739055
1040
3.574999999999988
1040
0.0
1040
16.05860607739055
1040
3.574999999999988
1040
0.4142135623731526
1040
16.32110607739059
1040
3.837499999999977
1040
0.0
1040
16.32110607739059
1040
6.637499999999988
1040
-0.4142135623731526
1040
16.58360607739064
1040
6.899999999999977
1040
0.0
1040
16.65372315913487
1040
6.899999999999977
1040
-0.3272098845218915
1040
16.90403860873266
1040
6.716546984083493
1040
0.0
1040
17.83817354604844
1040
3.758453015916529
1040
0.3272098845218902
1040
18.08848899564623
1040
3.574999999999988
1040
0.0
1040
18.93793368545084
1040
3.574999999999988
1040
0.5069206636600335
1040
19.18824913504841
1040
3.916546984083481
1040
0.0
1040
18.02505344581163
1040
7.600000000000079
1040
0.0
1071
        0
1071
        7
1070
     1
1070
     1
1071
        8
1040
21.74610607739055
1040
11.36250000000001
1040
0.4142135623731546
1040
21.4836060773905
1040
11.625
1040
0.0
1040
20.60860607739062
1040
11.625
1040
0.4142135623731507
1040
20.34610607739057
1040
11.36250000000001
1040
0.0
1040
20.34610607739057
1040
3.837499999999977
1040
0.4142135623731526
1040
20.60860607739062
1040
3.574999999999988
1040
0.0
1040
21.4836060773905
1040
3.574999999999988
1040
0.4142135623731526
1040
21.74610607739055
1040
3.837499999999977
1040
0.0
1071
        0
1071
        7
1070
     1
1070
     1
1071
       24
1040
24.1961060773906
1040
9.962499999999977
1040
-0.4142135623731546
1040
24.45860607739064
1040
10.22500000000002
1040
0.0
1040
25.9461060773906
1040
10.22500000000002
1040
0.4142135623730911
1040
26.20860607739064
1040
10.48750000000001
1040
0.0
1040
26.20860607739064
1040
11.36250000000001
1040
0.4142135623730952
1040
25.9461060773906
1040
11.625
1040
0.0
1040
24.1961060773906
1040
11.625
1040
0.4142135623731048
1040
22.7961060773905
1040
10.22500000000002
1040
0.0
1040
22.7961060773905
1040
9.317398987322405
1040
0.1989123673796613
1040
23.41118183689878
1040
7.832474746830598
1040
0.0
1040
24.86608082422117
1040
6.37757575950826
1040
-0.1989123673796402
1040
25.0711060773906
1040
5.882601012677753
1040
0.0
1040
25.0711060773906
1040
5.237500000000011
1040
-0.4142135623730911
1040
24.80860607739055
1040
4.975000000000022
1040
0.0
1040
23.3211060773906
1040
4.975000000000022
1040
0.4142135623731526
1040
23.05860607739055
1040
4.712500000000034
1040
0.0
1040
23.05860607739055
1040
3.837499999999977
1040
0.4142135623730891
1040
23.3211060773906
1040
3.574999999999988
1040
0.0
1040
25.0711060773906
1040
3.574999999999988
1040
0.4142135623730925
1040
26.47110607739057
1040
4.974999999999965
1040
0.0
1040
26.47110607739057
1040
5.882601012677639
1040
0.1989123673796675
1040
25.8560303178823
1040
7.367525253169446
1040
0.0
1040
24.40113133056002
1040
8.822424240491727
1040
-0.1989123673796652
1040
24.1961060773906
1040
9.317398987322292
1040
0.0
1071
        0
1071
        7
1070
     1
1070
     1
1071
       16
1040
28.92110607739051
1040
11.36250000000001
1040
0.414213562373103
1040
28.65860607739057
1040
11.625
1040
0.0
1040
27.78360607739057
1040
11.625
1040
0.4142135623730871
1040
27.52110607739064
1040
11.36250000000001
1040
0.0
1040
27.52110607739064
1040
4.974999999999965
1040
0.4142135623730926
1040
28.92110607739051
1040
3.574999999999988
1040
0.0
1040
30.67110607739051
1040
3.574999999999988
1040
0.4142135623731044
1040
32.0711060773906
1040
4.974999999999965
1040
0.0
1040
32.0711060773906
1040
11.36250000000001
1040
0.4142135623730951
1040
31.80860607739055
1040
11.625
1040
0.0
1040
30.93360607739055
1040
11.625
1040
0.4142135623730871
1040
30.67110607739051
1040
11.36250000000001
1040
0.0
1040
30.67110607739051
1040
5.5
1040
-0.414213562373088
1040
30.14610607739064
1040
4.975000000000022
1040
0.0
1040
29.4461060773906
1040
4.975000000000022
1040
-0.4142135623731197
1040
28.92110607739051
1040
5.5
1040
0.0
1071
        0
1071
        7
1070
     1
1070
     1
1071
        8
1040
34.52110607739064
1040
11.36250000000001
1040
0.4142135623730871
1040
34.2586060773906
1040
11.625
1040
0.0
1040
33.3836060773906
1040
11.625
1040
0.4142135623731507
1040
33.12110607739055
1040
11.36250000000001
1040
0.0
1040
33.12110607739055
1040
3.837499999999977
1040
0.4142135623730891
1040
33.3836060773906
1040
3.574999999999988
1040
0.0
1040
34.2586060773906
1040
3.574999999999988
1040
0.4142135623730891
1040
34.52110607739064
1040
3.837499999999977
1040
0.0
1071
        0
1070
     0
1070
     1
1040
0.0
1040
0.1
1070
     0
1070
     2
1040
0.7853981633974483
1040
-450.4711521673394
1040
-6.599999999999965
1040
-0.2245064030267288
1040
0.2245064030267288
1070
     0
1040
2.356194490192344
1040
-450.4711521673394
1040
-6.599999999999965
1040
-0.2245064030267288
1040
-0.2245064030267288
1070
     0
1040
0.057451373970553
1071
        8
1040
8.039927481511654
1040
7.583586822942777
1040
0.0
1040
11.20225750321958
1040
9.422031091225505
1040
0.0
1040
12.58218394282983
1040
7.755940823035359
1040
0.0
1040
15.45702999081857
1040
8.100648823220751
1040
0.0
1040
20.91923600947837
1040
8.330454956991559
1040
0.0
1040
23.44910044756478
1040
9.709288158203605
1040
0.0
1040
28.27884298620018
1040
9.364578957547507
1040
0.0
1040
33.91353980981137
1040
9.594385091318315
1040
0.0
1002
}
  0
CIRCLE
  5
567
330
1A
100
AcDbEntity
  8
ZUWAKU
100
AcDbCircle
 10
12.99610607739055
 20
7.600000000000022
 30
0.0
 40
0.875
  0
LINE
  5
568
330
1A
100
AcDbEntity
  8
ZUWAKU
100
AcDbLine
 10
13.43360607739055
 20
3.574999999999988
 30
0.0
 11
12.47110607739057
 21
3.574999999999988
 31
0.0
  0
LINE
  5
569
330
1A
100
AcDbEntity
  8
ZUWAKU
100
AcDbLine
 10
12.47110607739057
 20
4.975000000000022
 30
0.0
 11
13.43360607739055
 21
4.975000000000022
 31
0.0
  0
LINE
  5
56A
330
1A
100
AcDbEntity
  8
ZUWAKU
100
AcDbLine
 10
13.43360607739055
 20
10.22500000000002
 30
0.0
 11
12.47110607739057
 21
10.22500000000002
 31
0.0
  0
LINE
  5
56B
330
1A
100
AcDbEntity
  8
ZUWAKU
100
AcDbLine
 10
12.47110607739057
 20
11.625
 30
0.0
 11
13.43360607739055
 21
11.625
 31
0.0
  0
LINE
  5
56C
330
1A
100
AcDbEntity
  8
ZUWAKU
100
AcDbLine
 10
10.37110607739055
 20
5.675000000000011
 30
0.0
 11
10.37110607739055
 21
9.524999999999977
 31
0.0
  0
LINE
  5
56D
330
1A
100
AcDbEntity
  8
ZUWAKU
100
AcDbLine
 10
11.77110607739064
 20
9.524999999999977
 30
0.0
 11
11.77110607739064
 21
5.675000000000011
 31
0.0
  0
ARC
  5
56E
330
1A
100
AcDbEntity
  8
ZUWAKU
100
AcDbCircle
 10
7.74610607739055
 20
9.317398987322349
 30
0.0
 40
0.7
100
AcDbArc
 50
180.0
 51
224.9999999999988
  0
ARC
  5
56F
330
1A
100
AcDbEntity
  8
ZUWAKU
100
AcDbCircle
 10
7.74610607739055
 20
9.317398987322349
 30
0.0
 40
2.099999999999999
100
AcDbArc
 50
180.0
 51
225.0
  0
ARC
  5
570
330
1A
100
AcDbEntity
  8
ZUWAKU
100
AcDbCircle
 10
12.47110607739057
 20
5.675000000000011
 30
0.0
 40
2.099999999999999
100
AcDbArc
 50
180.0
 51
270.0
  0
ARC
  5
571
330
1A
100
AcDbEntity
  8
ZUWAKU
100
AcDbCircle
 10
7.921106077390504
 20
4.975000000000022
 30
0.0
 40
1.399999999999999
100
AcDbArc
 50
270.0
 51
0.0
  0
ARC
  5
572
330
1A
100
AcDbEntity
  8
ZUWAKU
100
AcDbCircle
 10
7.221106077390572
 20
5.882601012677639
 30
0.0
 40
2.099999999999999
100
AcDbArc
 50
0.0
 51
45.0
  0
ARC
  5
573
330
1A
100
AcDbEntity
  8
ZUWAKU
100
AcDbCircle
 10
7.221106077390572
 20
5.882601012677696
 30
0.0
 40
0.7
100
AcDbArc
 50
0.0
 51
45.0
  0
LINE
  5
574
330
1A
100
AcDbEntity
  8
ZUWAKU
100
AcDbLine
 10
7.921106077390504
 20
5.237500000000011
 30
0.0
 11
7.921106077390504
 21
5.882601012677696
 31
0.0
  0
LINE
  5
575
330
1A
100
AcDbEntity
  8
ZUWAKU
100
AcDbLine
 10
6.171106077390504
 20
4.975000000000022
 30
0.0
 11
7.658606077390572
 21
4.975000000000022
 31
0.0
  0
ARC
  5
576
330
1A
100
AcDbEntity
  8
ZUWAKU
100
AcDbCircle
 10
6.171106077390504
 20
4.712499999999977
 30
0.0
 40
0.2625
100
AcDbArc
 50
90.0
 51
180.0
  0
ARC
  5
577
330
1A
100
AcDbEntity
  8
ZUWAKU
100
AcDbCircle
 10
6.171106077390504
 20
3.837499999999977
 30
0.0
 40
0.2625
100
AcDbArc
 50
180.0
 51
270.0
  0
LINE
  5
578
330
1A
100
AcDbEntity
  8
ZUWAKU
100
AcDbLine
 10
5.908606077390572
 20
3.837499999999977
 30
0.0
 11
5.908606077390572
 21
4.712499999999977
 31
0.0
  0
LINE
  5
579
330
1A
100
AcDbEntity
  8
ZUWAKU
100
AcDbLine
 10
6.261181836898799
 20
7.832474746830598
 30
0.0
 11
7.71608082422108
 21
6.37757575950826
 31
0.0
  0
LINE
  5
57A
330
1A
100
AcDbEntity
  8
ZUWAKU
100
AcDbLine
 10
6.171106077390504
 20
3.574999999999988
 30
0.0
 11
7.921106077390504
 21
3.574999999999988
 31
0.0
  0
ARC
  5
57B
330
1A
100
AcDbEntity
  8
ZUWAKU
100
AcDbCircle
 10
7.658606077390572
 20
5.237500000000011
 30
0.0
 40
0.2625
100
AcDbArc
 50
270.0
 51
0.0
  0
LINE
  5
57C
330
1A
100
AcDbEntity
  8
ZUWAKU
100
AcDbLine
 10
8.706030317882323
 20
7.367525253169389
 30
0.0
 11
7.251131330559928
 21
8.822424240491727
 31
0.0
  0
LINE
  5
57D
330
1A
100
AcDbEntity
  8
ZUWAKU
100
AcDbLine
 10
9.321106077390595
 20
4.975000000000022
 30
0.0
 11
9.321106077390595
 21
5.882601012677696
 31
0.0
  0
ARC
  5
57E
330
1A
100
AcDbEntity
  8
ZUWAKU
100
AcDbCircle
 10
12.47110607739057
 20
5.675000000000011
 30
0.0
 40
0.7
100
AcDbArc
 50
180.0
 51
270.0
  0
ARC
  5
57F
330
1A
100
AcDbEntity
  8
ZUWAKU
100
AcDbCircle
 10
8.796106077390504
 20
10.48750000000001
 30
0.0
 40
0.2625
100
AcDbArc
 50
270.0
 51
0.0
  0
ARC
  5
580
330
1A
100
AcDbEntity
  8
ZUWAKU
100
AcDbCircle
 10
8.796106077390504
 20
11.36250000000001
 30
0.0
 40
0.2625
100
AcDbArc
 50
0.0
 51
90.0
  0
ARC
  5
581
330
1A
100
AcDbEntity
  8
ZUWAKU
100
AcDbCircle
 10
7.046106077390504
 20
10.22500000000002
 30
0.0
 40
1.399999999999999
100
AcDbArc
 50
90.0
 51
180.0
  0
LINE
  5
582
330
1A
100
AcDbEntity
  8
ZUWAKU
100
AcDbLine
 10
5.646106077390641
 20
10.22500000000002
 30
0.0
 11
5.646106077390641
 21
9.317398987322349
 31
0.0
  0
LINE
  5
583
330
1A
100
AcDbEntity
  8
ZUWAKU
100
AcDbLine
 10
7.046106077390504
 20
9.962499999999977
 30
0.0
 11
7.046106077390504
 21
9.317398987322349
 31
0.0
  0
ARC
  5
584
330
1A
100
AcDbEntity
  8
ZUWAKU
100
AcDbCircle
 10
7.30860607739055
 20
9.962499999999977
 30
0.0
 40
0.2625
100
AcDbArc
 50
90.0
 51
180.0
  0
LINE
  5
585
330
1A
100
AcDbEntity
  8
ZUWAKU
100
AcDbLine
 10
8.796106077390504
 20
10.22500000000002
 30
0.0
 11
7.30860607739055
 21
10.22500000000002
 31
0.0
  0
LINE
  5
586
330
1A
100
AcDbEntity
  8
ZUWAKU
100
AcDbLine
 10
7.046106077390504
 20
11.625
 30
0.0
 11
8.796106077390504
 21
11.625
 31
0.0
  0
ARC
  5
587
330
1A
100
AcDbEntity
  8
ZUWAKU
100
AcDbCircle
 10
12.47110607739057
 20
9.524999999999977
 30
0.0
 40
2.099999999999999
100
AcDbArc
 50
90.0
 51
180.0
  0
LINE
  5
588
330
1A
100
AcDbEntity
  8
ZUWAKU
100
AcDbLine
 10
9.05860607739055
 20
11.36250000000001
 30
0.0
 11
9.05860607739055
 21
10.48750000000001
 31
0.0
  0
ARC
  5
589
330
1A
100
AcDbEntity
  8
ZUWAKU
100
AcDbCircle
 10
12.47110607739057
 20
9.524999999999977
 30
0.0
 40
0.7
100
AcDbArc
 50
90.0
 51
180.0
  0
LINE
  5
58A
330
1A
100
AcDbEntity
  8
ZUWAKU
100
AcDbLine
 10
17.83817354604844
 20
11.44154698408351
 30
0.0
 11
16.90403860873266
 21
8.483453015916495
 31
0.0
  0
LINE
  5
58B
330
1A
100
AcDbEntity
  8
ZUWAKU
100
AcDbLine
 10
16.32110607739059
 20
8.5625
 30
0.0
 11
16.32110607739059
 21
11.36250000000001
 31
0.0
  0
LINE
  5
58C
330
1A
100
AcDbEntity
  8
ZUWAKU
100
AcDbLine
 10
14.9211060773905
 20
11.36250000000001
 30
0.0
 11
14.9211060773905
 21
3.837499999999977
 31
0.0
  0
LINE
  5
58D
330
1A
100
AcDbEntity
  8
ZUWAKU
100
AcDbLine
 10
21.74610607739055
 20
3.837499999999977
 30
0.0
 11
21.74610607739055
 21
11.36250000000001
 31
0.0
  0
LINE
  5
58E
330
1A
100
AcDbEntity
  8
ZUWAKU
100
AcDbLine
 10
20.34610607739057
 20
11.36250000000001
 30
0.0
 11
20.34610607739057
 21
3.837499999999977
 31
0.0
  0
LINE
  5
58F
330
1A
100
AcDbEntity
  8
ZUWAKU
100
AcDbLine
 10
18.65742931847956
 20
9.602523596781736
 30
0.0
 11
18.02505344581163
 21
7.600000000000022
 31
0.0
  0
ARC
  5
590
330
1A
100
AcDbEntity
  8
ZUWAKU
100
AcDbCircle
 10
24.89610607739064
 20
9.317398987322349
 30
0.0
 40
2.099999999999999
100
AcDbArc
 50
180.0
 51
225.0
  0
ARC
  5
591
330
1A
100
AcDbEntity
  8
ZUWAKU
100
AcDbCircle
 10
24.89610607739064
 20
9.317398987322349
 30
0.0
 40
0.7
100
AcDbArc
 50
180.0
 51
224.9999999999988
  0
LINE
  5
592
330
1A
100
AcDbEntity
  8
ZUWAKU
100
AcDbLine
 10
28.92110607739051
 20
5.5
 30
0.0
 11
28.92110607739051
 21
11.36250000000001
 31
0.0
  0
LINE
  5
593
330
1A
100
AcDbEntity
  8
ZUWAKU
100
AcDbLine
 10
27.52110607739064
 20
11.36250000000001
 30
0.0
 11
27.52110607739064
 21
4.975000000000022
 31
0.0
  0
LINE
  5
594
330
1A
100
AcDbEntity
  8
ZUWAKU
100
AcDbLine
 10
33.12110607739055
 20
11.36250000000001
 30
0.0
 11
33.12110607739055
 21
3.837499999999977
 31
0.0
  0
LINE
  5
595
330
1A
100
AcDbEntity
  8
ZUWAKU
100
AcDbLine
 10
34.52110607739064
 20
3.837499999999977
 30
0.0
 11
34.52110607739064
 21
11.36250000000001
 31
0.0
  0
LINE
  5
596
330
1A
100
AcDbEntity
  8
ZUWAKU
100
AcDbLine
 10
30.67110607739051
 20
11.36250000000001
 30
0.0
 11
30.67110607739051
 21
5.5
 31
0.0
  0
LINE
  5
597
330
1A
100
AcDbEntity
  8
ZUWAKU
100
AcDbLine
 10
32.0711060773906
 20
4.975000000000022
 30
0.0
 11
32.0711060773906
 21
11.36250000000001
 31
0.0
  0
LINE
  5
598
330
1A
100
AcDbEntity
  8
ZUWAKU
100
AcDbLine
 10
39.5633147739942
 20
15.0
 30
0.0
 11
39.5633147739942
 21
0.4000000000000341
 31
0.0
  0
LINE
  5
599
330
1A
100
AcDbEntity
  8
ZUWAKU
100
AcDbLine
 10
39.76331477399412
 20
15.0
 30
0.0
 11
39.76331477399424
 21
0.4000000000000341
 31
0.0
  0
LINE
  5
59A
330
1A
100
AcDbEntity
  8
ZUWAKU
100
AcDbLine
 10
39.6633147739941
 20
15.0
 30
0.0
 11
39.66331477399421
 21
0.4000000000000341
 31
0.0
  0
LINE
  5
59B
330
1A
100
AcDbEntity
  8
ZUWAKU
100
AcDbLine
 10
28.92110607739051
 20
3.574999999999988
 30
0.0
 11
30.67110607739051
 21
3.574999999999988
 31
0.0
  0
LINE
  5
59C
330
1A
100
AcDbEntity
  8
ZUWAKU
100
AcDbLine
 10
30.14610607739064
 20
4.975000000000022
 30
0.0
 11
29.4461060773906
 21
4.975000000000022
 31
0.0
  0
LINE
  5
59D
330
1A
100
AcDbEntity
  8
ZUWAKU
100
AcDbLine
 10
20.6086060773905
 20
3.574999999999988
 30
0.0
 11
21.4836060773905
 21
3.574999999999988
 31
0.0
  0
LINE
  5
59E
330
1A
100
AcDbEntity
  8
ZUWAKU
100
AcDbLine
 10
17.83817354604844
 20
3.758453015916529
 30
0.0
 11
16.90403860873266
 21
6.716546984083493
 31
0.0
  0
ARC
  5
59F
330
1A
100
AcDbEntity
  8
ZUWAKU
100
AcDbCircle
 10
16.58360607739064
 20
6.637499999999988
 30
0.0
 40
0.2625
100
AcDbArc
 50
90.0
 51
180.0
  0
ARC
  5
5A0
330
1A
100
AcDbEntity
  8
ZUWAKU
100
AcDbCircle
 10
16.65372315913487
 20
6.637499999999988
 30
0.0
 40
0.2625
100
AcDbArc
 50
17.52556837372303
 51
90.0
  0
LINE
  5
5A1
330
1A
100
AcDbEntity
  8
ZUWAKU
100
AcDbLine
 10
16.32110607739059
 20
3.837499999999977
 30
0.0
 11
16.32110607739059
 21
6.637499999999988
 31
0.0
  0
ARC
  5
5A2
330
1A
100
AcDbEntity
  8
ZUWAKU
100
AcDbCircle
 10
16.05860607739055
 20
3.837499999999977
 30
0.0
 40
0.2625
100
AcDbArc
 50
270.0
 51
0.0
  0
LINE
  5
5A3
330
1A
100
AcDbEntity
  8
ZUWAKU
100
AcDbLine
 10
16.58360607739064
 20
6.899999999999977
 30
0.0
 11
16.65372315913487
 21
6.899999999999977
 31
0.0
  0
LINE
  5
5A4
330
1A
100
AcDbEntity
  8
ZUWAKU
100
AcDbLine
 10
16.65372315913487
 20
8.300000000000011
 30
0.0
 11
16.58360607739064
 21
8.300000000000011
 31
0.0
  0
ARC
  5
5A5
330
1A
100
AcDbEntity
  8
ZUWAKU
100
AcDbCircle
 10
15.18360607739055
 20
3.837499999999977
 30
0.0
 40
0.2625
100
AcDbArc
 50
180.0
 51
270.0
  0
ARC
  5
5A6
330
1A
100
AcDbEntity
  8
ZUWAKU
100
AcDbCircle
 10
13.43360607739055
 20
4.712499999999977
 30
0.0
 40
0.2625
100
AcDbArc
 50
0.0
 51
90.0
  0
ARC
  5
5A7
330
1A
100
AcDbEntity
  8
ZUWAKU
100
AcDbCircle
 10
13.43360607739055
 20
3.837499999999977
 30
0.0
 40
0.2625
100
AcDbArc
 50
270.0
 51
0.0
  0
LINE
  5
5A8
330
1A
100
AcDbEntity
  8
ZUWAKU
100
AcDbLine
 10
13.69610607739059
 20
4.712499999999977
 30
0.0
 11
13.69610607739059
 21
3.837499999999977
 31
0.0
  0
LINE
  5
5A9
330
1A
100
AcDbEntity
  8
ZUWAKU
100
AcDbLine
 10
15.18360607739055
 20
3.574999999999988
 30
0.0
 11
16.05860607739055
 21
3.574999999999988
 31
0.0
  0
ARC
  5
5AA
330
1A
100
AcDbEntity
  8
ZUWAKU
100
AcDbCircle
 10
16.58360607739064
 20
8.5625
 30
0.0
 40
0.2625
100
AcDbArc
 50
180.0
 51
270.0
  0
ARC
  5
5AB
330
1A
100
AcDbEntity
  8
ZUWAKU
100
AcDbCircle
 10
16.65372315913487
 20
8.5625
 30
0.0
 40
0.2625
100
AcDbArc
 50
270.0
 51
342.474431626277
  0
LINE
  5
5AC
330
1A
100
AcDbEntity
  8
ZUWAKU
100
AcDbLine
 10
19.18824913504841
 20
3.916546984083481
 30
0.0
 11
18.02505344581163
 21
7.600000000000022
 31
0.0
  0
LINE
  5
5AD
330
1A
100
AcDbEntity
  8
ZUWAKU
100
AcDbLine
 10
18.08848899564623
 20
3.574999999999988
 30
0.0
 11
18.93793368545073
 21
3.574999999999988
 31
0.0
  0
ARC
  5
5AE
330
1A
100
AcDbEntity
  8
ZUWAKU
100
AcDbCircle
 10
18.08848899564623
 20
3.837499999999977
 30
0.0
 40
0.2625
100
AcDbArc
 50
197.525568373723
 51
270.0
  0
ARC
  5
5AF
330
1A
100
AcDbEntity
  8
ZUWAKU
100
AcDbCircle
 10
18.93793368545073
 20
3.837499999999977
 30
0.0
 40
0.2625
100
AcDbArc
 50
270.0
 51
17.52556837372303
  0
ARC
  5
5B0
330
1A
100
AcDbEntity
  8
ZUWAKU
100
AcDbCircle
 10
20.6086060773905
 20
3.837499999999977
 30
0.0
 40
0.2625
100
AcDbArc
 50
180.0
 51
270.0
  0
ARC
  5
5B1
330
1A
100
AcDbEntity
  8
ZUWAKU
100
AcDbCircle
 10
25.0711060773906
 20
4.975000000000022
 30
0.0
 40
1.399999999999999
100
AcDbArc
 50
270.0
 51
0.0
  0
ARC
  5
5B2
330
1A
100
AcDbEntity
  8
ZUWAKU
100
AcDbCircle
 10
28.92110607739051
 20
4.975000000000022
 30
0.0
 40
1.399999999999999
100
AcDbArc
 50
180.0
 51
270.0
  0
LINE
  5
5B3
330
1A
100
AcDbEntity
  8
ZUWAKU
100
AcDbLine
 10
25.85603031788242
 20
7.367525253169389
 30
0.0
 11
24.40113133056002
 21
8.822424240491727
 31
0.0
  0
ARC
  5
5B4
330
1A
100
AcDbEntity
  8
ZUWAKU
100
AcDbCircle
 10
24.80860607739055
 20
5.237500000000011
 30
0.0
 40
0.2625
100
AcDbArc
 50
270.0
 51
0.0
  0
ARC
  5
5B5
330
1A
100
AcDbEntity
  8
ZUWAKU
100
AcDbCircle
 10
24.37110607739055
 20
5.882601012677696
 30
0.0
 40
0.7
100
AcDbArc
 50
0.0
 51
45.0
  0
LINE
  5
5B6
330
1A
100
AcDbEntity
  8
ZUWAKU
100
AcDbLine
 10
25.0711060773906
 20
5.237500000000011
 30
0.0
 11
25.0711060773906
 21
5.882601012677696
 31
0.0
  0
ARC
  5
5B7
330
1A
100
AcDbEntity
  8
ZUWAKU
100
AcDbCircle
 10
23.3211060773906
 20
4.712499999999977
 30
0.0
 40
0.2625
100
AcDbArc
 50
90.0
 51
180.0
  0
ARC
  5
5B8
330
1A
100
AcDbEntity
  8
ZUWAKU
100
AcDbCircle
 10
21.4836060773905
 20
3.837499999999977
 30
0.0
 40
0.2625
100
AcDbArc
 50
270.0
 51
0.0
  0
ARC
  5
5B9
330
1A
100
AcDbEntity
  8
ZUWAKU
100
AcDbCircle
 10
23.3211060773906
 20
3.837499999999977
 30
0.0
 40
0.2625
100
AcDbArc
 50
180.0
 51
270.0
  0
LINE
  5
5BA
330
1A
100
AcDbEntity
  8
ZUWAKU
100
AcDbLine
 10
23.05860607739055
 20
3.837499999999977
 30
0.0
 11
23.05860607739055
 21
4.712499999999977
 31
0.0
  0
LINE
  5
5BB
330
1A
100
AcDbEntity
  8
ZUWAKU
100
AcDbLine
 10
23.41118183689878
 20
7.832474746830598
 30
0.0
 11
24.86608082422117
 21
6.37757575950826
 31
0.0
  0
LINE
  5
5BC
330
1A
100
AcDbEntity
  8
ZUWAKU
100
AcDbLine
 10
23.3211060773906
 20
3.574999999999988
 30
0.0
 11
25.0711060773906
 21
3.574999999999988
 31
0.0
  0
LINE
  5
5BD
330
1A
100
AcDbEntity
  8
ZUWAKU
100
AcDbLine
 10
23.3211060773906
 20
4.975000000000022
 30
0.0
 11
24.80860607739055
 21
4.975000000000022
 31
0.0
  0
ARC
  5
5BE
330
1A
100
AcDbEntity
  8
ZUWAKU
100
AcDbCircle
 10
24.37110607739055
 20
5.882601012677639
 30
0.0
 40
2.099999999999999
100
AcDbArc
 50
0.0
 51
45.0
  0
LINE
  5
5BF
330
1A
100
AcDbEntity
  8
ZUWAKU
100
AcDbLine
 10
26.47110607739057
 20
4.975000000000022
 30
0.0
 11
26.47110607739057
 21
5.882601012677696
 31
0.0
  0
ARC
  5
5C0
330
1A
100
AcDbEntity
  8
ZUWAKU
100
AcDbCircle
 10
29.4461060773906
 20
5.5
 30
0.0
 40
0.525
100
AcDbArc
 50
180.0
 51
270.0
  0
ARC
  5
5C1
330
1A
100
AcDbEntity
  8
ZUWAKU
100
AcDbCircle
 10
30.67110607739051
 20
4.975000000000022
 30
0.0
 40
1.399999999999999
100
AcDbArc
 50
270.0
 51
0.0
  0
LINE
  5
5C2
330
1A
100
AcDbEntity
  8
ZUWAKU
100
AcDbLine
 10
33.3836060773906
 20
3.574999999999988
 30
0.0
 11
34.2586060773906
 21
3.574999999999988
 31
0.0
  0
ARC
  5
5C3
330
1A
100
AcDbEntity
  8
ZUWAKU
100
AcDbCircle
 10
33.3836060773906
 20
3.837499999999977
 30
0.0
 40
0.2625
100
AcDbArc
 50
180.0
 51
270.0
  0
ARC
  5
5C4
330
1A
100
AcDbEntity
  8
ZUWAKU
100
AcDbCircle
 10
30.14610607739064
 20
5.5
 30
0.0
 40
0.525
100
AcDbArc
 50
270.0
 51
0.0
  0
ARC
  5
5C5
330
1A
100
AcDbEntity
  8
ZUWAKU
100
AcDbCircle
 10
34.2586060773906
 20
3.837499999999977
 30
0.0
 40
0.2625
100
AcDbArc
 50
270.0
 51
0.0
  0
LINE
  5
5C6
330
1A
100
AcDbEntity
  8
ZUWAKU
100
AcDbLine
 10
21.4836060773905
 20
11.625
 30
0.0
 11
20.6086060773905
 21
11.625
 31
0.0
  0
ARC
  5
5C7
330
1A
100
AcDbEntity
  8
ZUWAKU
100
AcDbCircle
 10
16.05860607739055
 20
11.36250000000001
 30
0.0
 40
0.2625
100
AcDbArc
 50
0.0
 51
90.0
  0
LINE
  5
5C8
330
1A
100
AcDbEntity
  8
ZUWAKU
100
AcDbLine
 10
13.69610607739059
 20
11.36250000000001
 30
0.0
 11
13.69610607739059
 21
10.48750000000001
 31
0.0
  0
ARC
  5
5C9
330
1A
100
AcDbEntity
  8
ZUWAKU
100
AcDbCircle
 10
13.43360607739055
 20
10.48750000000001
 30
0.0
 40
0.2625
100
AcDbArc
 50
270.0
 51
0.0
  0
ARC
  5
5CA
330
1A
100
AcDbEntity
  8
ZUWAKU
100
AcDbCircle
 10
15.18360607739055
 20
11.36250000000001
 30
0.0
 40
0.2625
100
AcDbArc
 50
90.0
 51
180.0
  0
ARC
  5
5CB
330
1A
100
AcDbEntity
  8
ZUWAKU
100
AcDbCircle
 10
13.43360607739055
 20
11.36250000000001
 30
0.0
 40
0.2625
100
AcDbArc
 50
0.0
 51
90.0
  0
LINE
  5
5CC
330
1A
100
AcDbEntity
  8
ZUWAKU
100
AcDbLine
 10
16.05860607739055
 20
11.625
 30
0.0
 11
15.18360607739055
 21
11.625
 31
0.0
  0
LINE
  5
5CD
330
1A
100
AcDbEntity
  8
ZUWAKU
100
AcDbLine
 10
18.08848899564623
 20
11.625
 30
0.0
 11
18.93793368545073
 21
11.625
 31
0.0
  0
ARC
  5
5CE
330
1A
100
AcDbEntity
  8
ZUWAKU
100
AcDbCircle
 10
18.08848899564623
 20
11.36250000000001
 30
0.0
 40
0.2625
100
AcDbArc
 50
90.0
 51
162.474431626277
  0
LINE
  5
5CF
330
1A
100
AcDbEntity
  8
ZUWAKU
100
AcDbLine
 10
19.18824913504841
 20
11.2834530159165
 30
0.0
 11
18.65742931847956
 21
9.602523596781736
 31
0.0
  0
ARC
  5
5D0
330
1A
100
AcDbEntity
  8
ZUWAKU
100
AcDbCircle
 10
18.93793368545073
 20
11.36250000000001
 30
0.0
 40
0.2625
100
AcDbArc
 50
342.474431626277
 51
90.0
  0
ARC
  5
5D1
330
1A
100
AcDbEntity
  8
ZUWAKU
100
AcDbCircle
 10
20.6086060773905
 20
11.36250000000001
 30
0.0
 40
0.2625
100
AcDbArc
 50
90.0
 51
180.0
  0
LINE
  5
5D2
330
1A
100
AcDbEntity
  8
ZUWAKU
100
AcDbLine
 10
25.9461060773906
 20
10.22500000000002
 30
0.0
 11
24.45860607739064
 21
10.22500000000002
 31
0.0
  0
LINE
  5
5D3
330
1A
100
AcDbEntity
  8
ZUWAKU
100
AcDbLine
 10
24.1961060773906
 20
11.625
 30
0.0
 11
25.9461060773906
 21
11.625
 31
0.0
  0
ARC
  5
5D4
330
1A
100
AcDbEntity
  8
ZUWAKU
100
AcDbCircle
 10
24.1961060773906
 20
10.22500000000002
 30
0.0
 40
1.399999999999999
100
AcDbArc
 50
90.0
 51
180.0
  0
LINE
  5
5D5
330
1A
100
AcDbEntity
  8
ZUWAKU
100
AcDbLine
 10
22.7961060773905
 20
10.22500000000002
 30
0.0
 11
22.7961060773905
 21
9.317398987322349
 31
0.0
  0
ARC
  5
5D6
330
1A
100
AcDbEntity
  8
ZUWAKU
100
AcDbCircle
 10
21.4836060773905
 20
11.36250000000001
 30
0.0
 40
0.2625
100
AcDbArc
 50
0.0
 51
90.0
  0
LINE
  5
5D7
330
1A
100
AcDbEntity
  8
ZUWAKU
100
AcDbLine
 10
24.1961060773906
 20
9.962499999999977
 30
0.0
 11
24.1961060773906
 21
9.317398987322349
 31
0.0
  0
ARC
  5
5D8
330
1A
100
AcDbEntity
  8
ZUWAKU
100
AcDbCircle
 10
24.45860607739064
 20
9.962499999999977
 30
0.0
 40
0.2625
100
AcDbArc
 50
90.0
 51
180.0
  0
LINE
  5
5D9
330
1A
100
AcDbEntity
  8
ZUWAKU
100
AcDbLine
 10
26.20860607739064
 20
11.36250000000001
 30
0.0
 11
26.20860607739064
 21
10.48750000000001
 31
0.0
  0
ARC
  5
5DA
330
1A
100
AcDbEntity
  8
ZUWAKU
100
AcDbCircle
 10
25.9461060773906
 20
10.48750000000001
 30
0.0
 40
0.2625
100
AcDbArc
 50
270.0
 51
0.0
  0
ARC
  5
5DB
330
1A
100
AcDbEntity
  8
ZUWAKU
100
AcDbCircle
 10
25.9461060773906
 20
11.36250000000001
 30
0.0
 40
0.2625
100
AcDbArc
 50
0.0
 51
90.0
  0
LINE
  5
5DC
330
1A
100
AcDbEntity
  8
ZUWAKU
100
AcDbLine
 10
28.65860607739057
 20
11.625
 30
0.0
 11
27.78360607739057
 21
11.625
 31
0.0
  0
ARC
  5
5DD
330
1A
100
AcDbEntity
  8
ZUWAKU
100
AcDbCircle
 10
27.78360607739057
 20
11.36250000000001
 30
0.0
 40
0.2625
100
AcDbArc
 50
90.0
 51
180.0
  0
ARC
  5
5DE
330
1A
100
AcDbEntity
  8
ZUWAKU
100
AcDbCircle
 10
28.65860607739057
 20
11.36250000000001
 30
0.0
 40
0.2625
100
AcDbArc
 50
0.0
 51
90.0
  0
LINE
  5
5DF
330
1A
100
AcDbEntity
  8
ZUWAKU
100
AcDbLine
 10
34.2586060773906
 20
11.625
 30
0.0
 11
33.3836060773906
 21
11.625
 31
0.0
  0
ARC
  5
5E0
330
1A
100
AcDbEntity
  8
ZUWAKU
100
AcDbCircle
 10
33.3836060773906
 20
11.36250000000001
 30
0.0
 40
0.2625
100
AcDbArc
 50
90.0
 51
180.0
  0
ARC
  5
5E1
330
1A
100
AcDbEntity
  8
ZUWAKU
100
AcDbCircle
 10
30.93360607739055
 20
11.36250000000001
 30
0.0
 40
0.2625
100
AcDbArc
 50
90.0
 51
180.0
  0
LINE
  5
5E2
330
1A
100
AcDbEntity
  8
ZUWAKU
100
AcDbLine
 10
31.80860607739055
 20
11.625
 30
0.0
 11
30.93360607739055
 21
11.625
 31
0.0
  0
ARC
  5
5E3
330
1A
100
AcDbEntity
  8
ZUWAKU
100
AcDbCircle
 10
31.80860607739055
 20
11.36250000000001
 30
0.0
 40
0.2625
100
AcDbArc
 50
0.0
 51
90.0
  0
ARC
  5
5E4
330
1A
100
AcDbEntity
  8
ZUWAKU
100
AcDbCircle
 10
34.2586060773906
 20
11.36250000000001
 30
0.0
 40
0.2625
100
AcDbArc
 50
0.0
 51
90.0
  0
ARC
  5
5E5
330
1A
100
AcDbEntity
  8
SEIHIN
  6
Continuous
 62
     3
 48
16.0
100
AcDbCircle
 10
77.24518083442877
 20
80.4053358211704
 30
0.0
 40
4.5
100
AcDbArc
 50
180.0
 51
270.0
  0
ARC
  5
5E6
330
1A
100
AcDbEntity
  8
SEIHIN
  6
Continuous
 62
     3
 48
16.0
100
AcDbCircle
 10
77.24518083442877
 20
80.4053358211704
 30
0.0
 40
6.5
100
AcDbArc
 50
180.0
 51
270.0
  0
ARC
  5
5E7
330
1A
100
AcDbEntity
  8
SEIHIN
  6
Continuous
 62
     3
 48
16.0
100
AcDbCircle
 10
77.24518083442877
 20
83.40533582117041
 30
0.0
 40
6.5
100
AcDbArc
 50
90.0
 51
180.0
  0
ARC
  5
5E8
330
1A
100
AcDbEntity
  8
SEIHIN
  6
Continuous
 62
     3
 48
16.0
100
AcDbCircle
 10
77.24518083442877
 20
80.50533582117044
 30
0.0
 40
6.5
100
AcDbArc
 50
90.0
 51
180.0
  0
ARC
  5
5E9
330
1A
100
AcDbEntity
  8
SEIHIN
  6
Continuous
 62
     3
 48
16.0
100
AcDbCircle
 10
77.24518083442877
 20
80.50533582117044
 30
0.0
 40
4.5
100
AcDbArc
 50
90.0
 51
180.0
  0
LINE
  5
5EA
330
1A
100
AcDbEntity
  8
SEIHIN
  6
Continuous
 62
     3
 48
16.0
100
AcDbLine
 10
70.74518083442876
 20
83.40533582117041
 30
0.0
 11
70.74518083442876
 21
80.50533582117044
 31
0.0
  0
LINE
  5
5EB
330
1A
100
AcDbEntity
  8
SEIHIN
  6
Continuous
 62
     3
 48
16.0
100
AcDbLine
 10
70.74518083442876
 20
80.50533582117044
 30
0.0
 11
70.74518083442876
 21
80.4053358211704
 31
0.0
  0
LINE
  5
5EC
330
1A
100
AcDbEntity
  8
SEIHIN
  6
Continuous
 62
     3
 48
16.0
100
AcDbLine
 10
72.74518083442877
 20
80.4053358211704
 30
0.0
 11
72.74518083442877
 21
80.50533582117044
 31
0.0
  0
ARC
  5
5ED
330
1A
100
AcDbEntity
  8
SEIHIN
  6
Continuous
 62
     3
 48
16.0
100
AcDbCircle
 10
77.24518083442877
 20
83.40533582117041
 30
0.0
 40
4.5
100
AcDbArc
 50
90.0
 51
148.6214764213996
  0
LINE
  5
5EE
330
1A
100
AcDbEntity
  8
SEIHIN
  6
Continuous
 62
     3
 48
16.0
100
AcDbLine
 10
77.26795525932857
 20
89.90533582117041
 30
0.0
 11
77.24518083442877
 21
89.90533582117041
 31
0.0
  0
LINE
  5
5EF
330
1A
100
AcDbEntity
  8
SEIHIN
  6
Continuous
 62
     3
 48
16.0
100
AcDbLine
 10
77.24518083442877
 20
87.9053358211704
 30
0.0
 11
77.91675370972848
 21
87.9053358211704
 31
0.0
  0
LINE
  5
5F0
330
1A
100
AcDbEntity
  8
SEIHIN
  6
Continuous
 62
     3
 48
16.0
100
AcDbLine
 10
78.24518083442876
 20
87.00533582117044
 30
0.0
 11
77.24518083442877
 21
87.00533582117044
 31
0.0
  0
LINE
  5
5F1
330
1A
100
AcDbEntity
  8
SEIHIN
  6
Continuous
 62
     3
 48
16.0
100
AcDbLine
 10
77.24518083442877
 20
85.00533582117043
 30
0.0
 11
78.24518083442876
 21
85.00533582117043
 31
0.0
  0
LINE
  5
5F2
330
1A
100
AcDbEntity
  8
SEIHIN
  6
Continuous
 62
     3
 48
16.0
100
AcDbLine
 10
77.24518083437851
 20
144.7466199742798
 30
0.0
 11
70.74518083437851
 21
144.7466199742798
 31
0.0
  0
LINE
  5
5F3
330
1A
100
AcDbEntity
  8
SEIHIN
  6
Continuous
 62
     3
 48
16.0
100
AcDbLine
 10
78.24518083437851
 20
144.7466199742798
 30
0.0
 11
77.24518083437851
 21
144.7466199742798
 31
0.0
  0
ARC
  5
5F4
330
1A
100
AcDbEntity
  8
SEIHIN
  6
Continuous
 62
     3
 48
16.0
100
AcDbCircle
 10
129.8951808344286
 20
86.73410164397045
 30
0.0
 40
48.92876582279999
100
AcDbArc
 50
307.1811034733009
 51
322.7698114805019
  0
ARC
  5
5F5
330
1A
100
AcDbEntity
  8
SEIHIN
  6
Continuous
 62
     3
 48
16.0
100
AcDbCircle
 10
129.8951808344286
 20
86.73410164397045
 30
0.0
 40
48.9287658228
100
AcDbArc
 50
217.2301885194981
 51
232.8188965266991
  0
ARC
  5
5F6
330
1A
100
AcDbEntity
  8
SEIHIN
  6
Continuous
 62
     3
 48
16.0
100
AcDbCircle
 10
129.8951808344286
 20
86.73410164397045
 30
0.0
 40
51.3287658228
100
AcDbArc
 50
195.32340222359
 51
344.6765977764099
  0
ARC
  5
5F7
330
1A
100
AcDbEntity
  8
SEIHIN
  6
Continuous
 62
     3
 48
16.0
100
AcDbCircle
 10
129.8951808344286
 20
86.73410164397045
 30
0.0
 40
50.32876582280001
100
AcDbArc
 50
193.3236259183996
 51
346.6763740816004
  0
ARC
  5
5F8
330
1A
100
AcDbEntity
  8
SEIHIN
  6
Continuous
 62
     3
 48
16.0
100
AcDbCircle
 10
129.8951808344286
 20
86.73410164397045
 30
0.0
 40
52.3287658228
100
AcDbArc
 50
195.0292168870222
 51
344.9707831129778
  0
DIMENSION
  5
5F9
330
1A
100
AcDbEntity
  8
寸法
100
AcDbDimension
  2
*D3
 10
203.2201549797562
 20
34.40533582117039
 30
0.0
 11
200.7201549797562
 21
62.15533582117043
 31
0.0
 70
    32
 71
     5
 42
-1.0
  3
STANDARD
100
AcDbAlignedDimension
 13
182.5451808344285
 23
89.90533582117041
 33
0.0
 14
129.8951808344286
 24
34.40533582117041
 34
0.0
 50
90.0
100
AcDbRotatedDimension
1001
ACAD
1000
DSTYLE
1002
{
1070
    41
1040
3.0
1070
    42
1040
3.0
1070
    43
1040
7.0
1070
    44
1040
1.5
1070
    73
1070
     0
1070
    74
1070
     0
1070
    77
1070
     3
1070
   140
1040
3.0
1070
   141
1040
15.0
1070
   147
1040
1.0
1070
   172
1070
     1
1070
   176
1070
     4
1070
   177
1070
     4
1070
   178
1070
     4
1070
   271
1070
     0
1070
   272
1070
     0
1070
   341
1005
166
1070
     5
1000
OPEN30
1002
}
  0
ARC
  5
5FA
330
1A
100
AcDbEntity
  8
SEIHIN
  6
Continuous
 62
     3
 48
16.0
100
AcDbCircle
 10
129.8951808344286
 20
86.73410164397045
 30
0.0
 40
46.9287658228
100
AcDbArc
 50
273.6652280190976
 51
305.7785854364021
  0
TEXT
  5
5FB
330
1A
100
AcDbEntity
  8
MOJI
100
AcDbText
 10
119.9136013404256
 20
9.002460528703693
 30
0.0
 40
2.799999999999999
  1
リフォームジョイント
 41
0.9
  7
ｽﾀｲﾙ1
100
AcDbText
  0
LINE
  5
5FC
330
1A
100
AcDbEntity
  8
ZUWAKU
100
AcDbLine
 10
104.223300645034
 20
15.0
 30
0.0
 11
104.223300645034
 21
0.4000000000000341
 31
0.0
  0
LINE
  5
5FD
330
1A
100
AcDbEntity
  8
ZUWAKU
100
AcDbLine
 10
104.3233006450339
 20
15.0
 30
0.0
 11
104.3233006450339
 21
0.4000000000000341
 31
0.0
  0
LINE
  5
5FE
330
1A
100
AcDbEntity
  8
ZUWAKU
100
AcDbLine
 10
104.1233006450341
 20
15.0
 30
0.0
 11
104.1233006450341
 21
0.4000000000000341
 31
0.0
  0
TEXT
  5
5FF
330
1A
100
AcDbEntity
  8
ZUWAKU
100
AcDbText
 10
104.8620231561387
 20
4.827678269192801
 30
0.0
 40
2.0
  1
サイズ
 41
0.9
  7
ｽﾀｲﾙ1
100
AcDbText
  0
TEXT
  5
600
330
1A
100
AcDbEntity
  8
MOJI
100
AcDbText
 10
119.9136013404256
 20
1.602460528703716
 30
0.0
 40
2.799999999999999
  1
１０５（Ｈ－５０）
 41
0.9
  7
ｽﾀｲﾙ1
100
AcDbText
  0
ARC
  5
601
330
1A
100
AcDbEntity
  8
SEIHIN
  6
Continuous
 62
     3
 48
16.0
100
AcDbCircle
 10
129.8951808344286
 20
86.73410164397045
 30
0.0
 40
46.92876582279999
100
AcDbArc
 50
234.2214145635998
 51
266.3347719809024
  0
TEXT
  5
602
330
1A
100
AcDbEntity
  8
ZUWAKU
100
AcDbText
 10
104.8620231561387
 20
12.02767826919279
 30
0.0
 40
2.0
  1
品名
 41
0.9
  7
ｽﾀｲﾙ1
100
AcDbText
  0
LINE
  5
603
330
1A
100
AcDbEntity
  8
SEIHIN
  6
Continuous
 62
     3
 48
16.0
100
AcDbLine
 10
102.4580669386287
 20
48.66162020757042
 30
0.0
 11
101.6371907250286
 21
47.84074399397048
 31
0.0
  0
ARC
  5
604
330
1A
100
AcDbEntity
  8
SEIHIN
  6
Continuous
 62
     3
 48
16.0
100
AcDbCircle
 10
100.9300839438285
 20
48.54785077517044
 30
0.0
 40
0.9999999999999982
100
AcDbArc
 50
232.8188965266991
 51
315.0
  0
LINE
  5
605
330
1A
100
AcDbEntity
  8
CENTER L
  6
CENTER
 62
     1
 48
5.0
100
AcDbLine
 10
129.8951808344286
 20
49.80449729706407
 30
0.0
 11
129.8951808344286
 21
21.88088977000086
 31
0.0
  0
ARC
  5
606
330
1A
100
AcDbEntity
  8
SEIHIN
  6
Continuous
 62
     3
 48
16.0
100
AcDbCircle
 10
129.8951808344286
 20
86.73410164397045
 30
0.0
 40
48.92876582279999
100
AcDbArc
 50
267.6084332851974
 51
272.3915667148026
  0
ARC
  5
607
330
1A
100
AcDbEntity
  8
SEIHIN
  6
Continuous
 62
     3
 48
16.0
100
AcDbCircle
 10
127.8951808344286
 20
38.84708259607044
 30
0.0
 40
1.0
100
AcDbArc
 50
180.0
 51
267.6084332851974
  0
LINE
  5
608
330
1A
100
AcDbEntity
  8
SEIHIN
  6
Continuous
 62
     3
 48
16.0
100
AcDbLine
 10
126.8951808344286
 20
38.84708259607044
 30
0.0
 11
126.8951808344286
 21
39.9013240020704
 31
0.0
  0
ARC
  5
609
330
1A
100
AcDbEntity
  8
SEIHIN
  6
Continuous
 62
     3
 48
16.0
100
AcDbCircle
 10
131.8951808344286
 20
38.84708259607044
 30
0.0
 40
1.000000000000004
100
AcDbArc
 50
272.3915667148026
 51
0.0
  0
LINE
  5
60A
330
1A
100
AcDbEntity
  8
SEIHIN
  6
Continuous
 62
     3
 48
16.0
100
AcDbLine
 10
132.8951808344286
 20
39.9013240020704
 30
0.0
 11
132.8951808344286
 21
38.84708259607044
 31
0.0
  0
ARC
  5
60B
330
1A
100
AcDbEntity
  8
SEIHIN
  6
Continuous
 62
     3
 48
16.0
100
AcDbCircle
 10
158.8602777250287
 20
48.54785077517044
 30
0.0
 40
1.000000000000007
100
AcDbArc
 50
225.0
 51
307.1811034733009
  0
LINE
  5
60C
330
1A
100
AcDbEntity
  8
SEIHIN
  6
Continuous
 62
     3
 48
16.0
100
AcDbLine
 10
158.1531709438286
 20
47.84074399397048
 30
0.0
 11
157.3322947302285
 21
48.66162020757042
 31
0.0
  0
LINE
  5
60D
330
1A
100
AcDbEntity
  8
SEIHIN
  6
Continuous
 62
     3
 48
16.0
100
AcDbLine
 10
178.8692940239787
 20
144.7466199742798
 30
0.0
 11
80.92106764487857
 21
144.7466199742798
 31
0.0
  0
ARC
  5
60E
330
1A
100
AcDbEntity
  8
SEIHIN
  6
Continuous
 62
     3
 48
16.0
100
AcDbCircle
 10
129.8951808344286
 20
86.73410164397045
 30
0.0
 40
46.9287658228
100
AcDbArc
 50
193.3411725551991
 51
215.8288999884982
  0
LINE
  5
60F
330
1A
100
AcDbEntity
  8
SEIHIN
  6
Continuous
 62
     3
 48
16.0
100
AcDbLine
 10
91.02665146742856
 20
58.44340817197042
 30
0.0
 11
91.84680810252871
 21
59.26356480707045
 31
0.0
  0
ARC
  5
610
330
1A
100
AcDbEntity
  8
SEIHIN
  6
Continuous
 62
     3
 48
16.0
100
AcDbCircle
 10
91.73375824862864
 20
57.73630139077045
 30
0.0
 40
0.999999999999998
100
AcDbArc
 50
135.0
 51
217.2301885194981
  0
LINE
  5
611
330
1A
100
AcDbEntity
  8
SEIHIN
  6
Continuous
 62
     3
 48
16.0
100
AcDbLine
 10
84.23286713482866
 20
75.90533582117041
 30
0.0
 11
79.94798371582851
 21
75.90533582117041
 31
0.0
  0
ARC
  5
612
330
1A
100
AcDbEntity
  8
SEIHIN
  6
Continuous
 62
     3
 48
16.0
100
AcDbCircle
 10
79.94798371582851
 20
74.90533582117041
 30
0.0
 40
1.0
100
AcDbArc
 50
13.32362591839961
 51
90.0
  0
ARC
  5
613
330
1A
100
AcDbEntity
  8
SEIHIN
  6
Continuous
 62
     3
 48
16.0
100
AcDbCircle
 10
79.42672565343855
 20
72.90533582117041
 30
0.0
 40
1.0
100
AcDbArc
 50
15.32340222359006
 51
90.0
  0
LINE
  5
614
330
1A
100
AcDbEntity
  8
SEIHIN
  6
Continuous
 62
     3
 48
16.0
100
AcDbLine
 10
79.35771482262862
 20
73.15970435927045
 30
0.0
 11
79.35638738092871
 21
73.16464738797043
 31
0.0
  0
ARC
  5
615
330
1A
100
AcDbEntity
  8
SEIHIN
  6
Continuous
 62
     3
 48
16.0
100
AcDbCircle
 10
81.07903136982873
 20
87.9053358211704
 30
0.0
 40
1.000000000000002
100
AcDbArc
 50
234.9031987724012
 51
270.0
  0
ARC
  5
616
330
1A
100
AcDbEntity
  8
SEIHIN
  6
Continuous
 62
     3
 48
16.0
100
AcDbCircle
 10
80.59845979732859
 20
87.7822913295704
 30
0.0
 40
0.9999999999999877
100
AcDbArc
 50
298.7227389683037
 51
52.73183800309929
  0
LINE
  5
617
330
1A
100
AcDbEntity
  8
SEIHIN
  6
Continuous
 62
     3
 48
16.0
100
AcDbLine
 10
79.94798371587854
 20
144.7466199742798
 30
0.0
 11
79.24518083437852
 21
144.7466199742798
 31
0.0
  0
LINE
  5
618
330
1A
100
AcDbEntity
  8
SEIHIN
  6
Continuous
 62
     3
 48
16.0
100
AcDbLine
 10
80.92106764487857
 20
144.7466199742798
 30
0.0
 11
79.94798371587854
 21
144.7466199742798
 31
0.0
  0
LINE
  5
619
330
1A
100
AcDbEntity
  8
SEIHIN
  6
Continuous
 62
     3
 48
16.0
100
AcDbLine
 10
179.8423779530287
 20
75.90533582117041
 30
0.0
 11
175.5574945340286
 21
75.90533582117041
 31
0.0
  0
ARC
  5
61A
330
1A
100
AcDbEntity
  8
SEIHIN
  6
Continuous
 62
     3
 48
16.0
100
AcDbCircle
 10
129.8951808344286
 20
86.73410164397045
 30
0.0
 40
46.9287658228
100
AcDbArc
 50
324.1711000115018
 51
346.6588274448008
  0
ARC
  5
61B
330
1A
100
AcDbEntity
  8
SEIHIN
  6
Continuous
 62
     3
 48
16.0
100
AcDbCircle
 10
168.0566034202286
 20
57.73630139077045
 30
0.0
 40
1.000000000000007
100
AcDbArc
 50
322.7698114805019
 51
45.0
  0
LINE
  5
61C
330
1A
100
AcDbEntity
  8
SEIHIN
  6
Continuous
 62
     3
 48
16.0
100
AcDbLine
 10
167.9435535663285
 20
59.26356480707045
 30
0.0
 11
168.7637102014287
 21
58.44340817197042
 31
0.0
  0
ARC
  5
61D
330
1A
100
AcDbEntity
  8
SEIHIN
  6
Continuous
 62
     3
 48
16.0
100
AcDbCircle
 10
182.5451808344285
 20
80.4053358211704
 30
0.0
 40
6.5
100
AcDbArc
 50
270.0
 51
0.0
  0
ARC
  5
61E
330
1A
100
AcDbEntity
  8
SEIHIN
  6
Continuous
 62
     3
 48
16.0
100
AcDbCircle
 10
182.5451808344285
 20
80.4053358211704
 30
0.0
 40
4.5
100
AcDbArc
 50
270.0
 51
0.0
  0
ARC
  5
61F
330
1A
100
AcDbEntity
  8
SEIHIN
  6
Continuous
 62
     3
 48
16.0
100
AcDbCircle
 10
181.3997680087882
 20
72.90533582117041
 30
0.0
 40
1.0
100
AcDbArc
 50
90.0
 51
164.9707831129762
  0
LINE
  5
620
330
1A
100
AcDbEntity
  8
SEIHIN
  6
Continuous
 62
     3
 48
16.0
100
AcDbLine
 10
180.3636360154187
 20
73.90533582117041
 30
0.0
 11
182.5451808344285
 21
73.90533582117041
 31
0.0
  0
LINE
  5
621
330
1A
100
AcDbEntity
  8
SEIHIN
  6
Continuous
 62
     3
 48
16.0
100
AcDbLine
 10
182.5451808344285
 20
75.90533582117041
 30
0.0
 11
179.8423779530287
 21
75.90533582117041
 31
0.0
  0
ARC
  5
622
330
1A
100
AcDbEntity
  8
SEIHIN
  6
Continuous
 62
     3
 48
16.0
100
AcDbCircle
 10
180.3636360154187
 20
72.90533582117041
 30
0.0
 40
1.0
100
AcDbArc
 50
90.0
 51
164.6765977764099
  0
LINE
  5
623
330
1A
100
AcDbEntity
  8
SEIHIN
  6
Continuous
 62
     3
 48
16.0
100
AcDbLine
 10
180.4339742879285
 20
73.16464738797043
 30
0.0
 11
180.4326468462286
 21
73.15970435927045
 31
0.0
  0
ARC
  5
624
330
1A
100
AcDbEntity
  8
SEIHIN
  6
Continuous
 62
     3
 48
16.0
100
AcDbCircle
 10
179.8423779530287
 20
74.90533582117041
 30
0.0
 40
1.0
100
AcDbArc
 50
90.0
 51
166.6763740816004
  0
ARC
  5
625
330
1A
100
AcDbEntity
  8
SEIHIN
  6
Continuous
 62
     3
 48
16.0
100
AcDbCircle
 10
182.5451808344285
 20
83.40533582117041
 30
0.0
 40
6.5
100
AcDbArc
 50
0.0
 51
90.0
  0
ARC
  5
626
330
1A
100
AcDbEntity
  8
SEIHIN
  6
Continuous
 62
     3
 48
16.0
100
AcDbCircle
 10
182.5451808344285
 20
80.50533582117044
 30
0.0
 40
4.5
100
AcDbArc
 50
0.0
 51
90.0
  0
ARC
  5
627
330
1A
100
AcDbEntity
  8
SEIHIN
  6
Continuous
 62
     3
 48
16.0
100
AcDbCircle
 10
182.5451808344285
 20
80.50533582117044
 30
0.0
 40
6.5
100
AcDbArc
 50
0.0
 51
90.0
  0
ARC
  5
628
330
1A
100
AcDbEntity
  8
SEIHIN
  6
Continuous
 62
     3
 48
16.0
100
AcDbCircle
 10
182.5451808344285
 20
83.40533582117041
 30
0.0
 40
4.499999999999997
100
AcDbArc
 50
31.37852357900091
 51
90.0
  0
ARC
  5
629
330
1A
100
AcDbEntity
  8
SEIHIN
  6
Continuous
 62
     3
 48
16.0
100
AcDbCircle
 10
182.5224064095286
 20
83.40533582117041
 30
0.0
 40
6.5
100
AcDbArc
 50
90.0
 51
127.2681619969007
  0
ARC
  5
62A
330
1A
100
AcDbEntity
  8
SEIHIN
  6
Continuous
 62
     3
 48
16.0
100
AcDbCircle
 10
181.8736079591287
 20
83.40533582117041
 30
0.0
 40
4.5
100
AcDbArc
 50
90.0
 51
125.0968012275978
  0
ARC
  5
62B
330
1A
100
AcDbEntity
  8
SEIHIN
  6
Continuous
 62
     3
 48
16.0
100
AcDbCircle
 10
181.5451808344285
 20
86.00533582117042
 30
0.0
 40
1.0
100
AcDbArc
 50
90.0
 51
180.0
  0
ARC
  5
62C
330
1A
100
AcDbEntity
  8
SEIHIN
  6
Continuous
 62
     3
 48
16.0
100
AcDbCircle
 10
181.5451808344285
 20
86.00533582117042
 30
0.0
 40
1.0
100
AcDbArc
 50
180.0
 51
270.0
  0
ARC
  5
62D
330
1A
100
AcDbEntity
  8
SEIHIN
  6
Continuous
 62
     3
 48
16.0
100
AcDbCircle
 10
179.1919018715286
 20
87.7822913295704
 30
0.0
 40
1.000000000000005
100
AcDbArc
 50
127.2681619969007
 51
241.2772610317028
  0
ARC
  5
62E
330
1A
100
AcDbEntity
  8
SEIHIN
  6
Continuous
 62
     3
 48
16.0
100
AcDbCircle
 10
178.7113302990285
 20
87.9053358211704
 30
0.0
 40
1.0
100
AcDbArc
 50
270.0
 51
305.0968012275988
  0
LINE
  5
62F
330
1A
100
AcDbEntity
  8
SEIHIN
  6
Continuous
 62
     3
 48
16.0
100
AcDbLine
 10
182.5451808344285
 20
89.90533582117041
 30
0.0
 11
182.5224064095286
 21
89.90533582117041
 31
0.0
  0
LINE
  5
630
330
1A
100
AcDbEntity
  8
SEIHIN
  6
Continuous
 62
     3
 48
16.0
100
AcDbLine
 10
181.8736079591287
 20
87.9053358211704
 30
0.0
 11
182.5451808344285
 21
87.9053358211704
 31
0.0
  0
LINE
  5
631
330
1A
100
AcDbEntity
  8
SEIHIN
  6
Continuous
 62
     3
 48
16.0
100
AcDbLine
 10
182.5451808344285
 20
87.00533582117044
 30
0.0
 11
181.5451808344285
 21
87.00533582117044
 31
0.0
  0
LINE
  5
632
330
1A
100
AcDbEntity
  8
SEIHIN
  6
Continuous
 62
     3
 48
16.0
100
AcDbLine
 10
181.5451808344285
 20
85.00533582117043
 30
0.0
 11
182.5451808344285
 21
85.00533582117043
 31
0.0
  0
LINE
  5
633
330
1A
100
AcDbEntity
  8
SEIHIN
  6
Continuous
 62
     3
 48
16.0
100
AcDbLine
 10
189.0451808344285
 20
83.40533582117041
 30
0.0
 11
189.0451808344285
 21
80.50533582117044
 31
0.0
  0
LINE
  5
634
330
1A
100
AcDbEntity
  8
SEIHIN
  6
Continuous
 62
     3
 48
16.0
100
AcDbLine
 10
189.0451808344285
 20
80.4053358211704
 30
0.0
 11
189.0451808344285
 21
80.50533582117044
 31
0.0
  0
LINE
  5
635
330
1A
100
AcDbEntity
  8
SEIHIN
  6
Continuous
 62
     3
 48
16.0
100
AcDbLine
 10
187.0451808344285
 20
80.50533582117044
 30
0.0
 11
187.0451808344285
 21
80.4053358211704
 31
0.0
  0
LINE
  5
636
330
1A
100
AcDbEntity
  8
SEIHIN
  6
Continuous
 62
     3
 48
16.0
100
AcDbLine
 10
189.0451808343787
 20
144.7466199742798
 30
0.0
 11
182.5451808343787
 21
144.7466199742798
 31
0.0
  0
LINE
  5
637
330
1A
100
AcDbEntity
  8
SEIHIN
  6
Continuous
 62
     3
 48
16.0
100
AcDbLine
 10
181.5451808343787
 20
144.7466199742798
 30
0.0
 11
180.5451808343787
 21
144.7466199742798
 31
0.0
  0
LINE
  5
638
330
1A
100
AcDbEntity
  8
SEIHIN
  6
Continuous
 62
     3
 48
16.0
100
AcDbLine
 10
180.5451808343787
 20
144.7466199742798
 30
0.0
 11
179.8423779529785
 21
144.7466199742798
 31
0.0
  0
LINE
  5
639
330
1A
100
AcDbEntity
  8
SEIHIN
  6
Continuous
 62
     3
 48
16.0
100
AcDbLine
 10
179.8423779529785
 20
144.7466199742798
 30
0.0
 11
178.8692940239787
 21
144.7466199742798
 31
0.0
  0
LINE
  5
63A
330
1A
100
AcDbEntity
  8
SEIHIN
  6
Continuous
 62
     3
 48
16.0
100
AcDbLine
 10
182.5451808343787
 20
144.7466199742798
 30
0.0
 11
181.5451808343787
 21
144.7466199742798
 31
0.0
  0
LINE
  5
63B
330
1A
100
AcDbEntity
  8
SEIHIN
  6
Continuous
 62
     3
 48
16.0
100
AcDbLine
 10
77.26795525937859
 20
214.7466199742801
 30
0.0
 11
81.20400607697865
 21
214.7466199742801
 31
0.0
  0
LINE
  5
63C
330
1A
100
AcDbEntity
  8
SEIHIN
  6
Continuous
 62
     3
 48
16.0
100
AcDbLine
 10
78.24518083437851
 20
177.7466199742798
 30
0.0
 11
79.24518083437852
 21
177.7466199742798
 31
0.0
  0
LINE
  5
63D
330
1A
100
AcDbEntity
  8
SEIHIN
  6
Continuous
 62
     3
 48
16.0
100
AcDbLine
 10
81.20400607697865
 20
181.7466199742798
 30
0.0
 11
77.26795525937859
 21
181.7466199742798
 31
0.0
  0
DIMENSION
  5
63E
330
1A
100
AcDbEntity
  8
寸法
100
AcDbDimension
  2
*D4
 10
70.74518083437851
 20
230.7970820848554
 30
0.0
 11
129.8951808343786
 21
233.2970820848554
 31
0.0
 70
    32
 71
     5
 42
-1.0
  3
STANDARD
100
AcDbAlignedDimension
 13
189.0451808343787
 23
214.7466199742801
 33
0.0
 14
70.74518083437851
 24
214.7466199742801
 34
0.0
100
AcDbRotatedDimension
1001
ACAD
1000
DSTYLE
1002
{
1070
    41
1040
3.0
1070
    42
1040
3.0
1070
    43
1040
7.0
1070
    44
1040
1.5
1070
    73
1070
     0
1070
    74
1070
     0
1070
    77
1070
     3
1070
   140
1040
3.0
1070
   141
1040
15.0
1070
   147
1040
1.0
1070
   172
1070
     1
1070
   176
1070
     4
1070
   177
1070
     4
1070
   178
1070
     4
1070
   271
1070
     1
1070
   272
1070
     0
1070
   341
1005
166
1070
     5
1000
OPEN30
1002
}
  0
LINE
  5
63F
330
1A
100
AcDbEntity
  8
SEIHIN
  6
Continuous
 62
     3
 48
16.0
100
AcDbLine
 10
70.74518083437851
 20
181.7466199742798
 30
0.0
 11
70.74518083437851
 21
214.7466199742801
 31
0.0
  0
LINE
  5
640
330
1A
100
AcDbEntity
  8
SEIHIN
  6
Continuous
 62
     3
 48
16.0
100
AcDbLine
 10
71.02276088927851
 20
177.7466199742798
 30
0.0
 11
77.24518083437851
 21
177.7466199742798
 31
0.0
  0
LINE
  5
641
330
1A
100
AcDbEntity
  8
SEIHIN
  6
Continuous
 62
     3
 48
16.0
100
AcDbLine
 10
77.24518083437851
 20
181.7466199742798
 30
0.0
 11
70.74518083437851
 21
181.7466199742798
 31
0.0
  0
LINE
  5
642
330
1A
100
AcDbEntity
  8
SEIHIN
  6
Continuous
 62
     3
 48
16.0
100
AcDbLine
 10
70.74518083437851
 20
180.0341348280798
 30
0.0
 11
70.74518083437851
 21
181.7466199742798
 31
0.0
  0
LINE
  5
643
330
1A
100
AcDbEntity
  8
SEIHIN
  6
Continuous
 62
     3
 48
16.0
100
AcDbLine
 10
70.74521519057862
 20
179.7466199742798
 30
0.0
 11
70.74518083437851
 21
180.0341348280798
 31
0.0
  0
LINE
  5
644
330
1A
100
AcDbEntity
  8
SEIHIN
  6
Continuous
 62
     3
 48
16.0
100
AcDbLine
 10
70.74518083437851
 20
179.0621420903798
 30
0.0
 11
70.74518083437851
 21
179.4591051203798
 31
0.0
  0
LINE
  5
645
330
1A
100
AcDbEntity
  8
SEIHIN
  6
Continuous
 62
     3
 48
16.0
100
AcDbLine
 10
70.74518083437851
 20
179.4591051203798
 30
0.0
 11
70.74521519057862
 21
179.7466199742798
 31
0.0
  0
LINE
  5
646
330
1A
100
AcDbEntity
  8
SEIHIN
  6
Continuous
 62
     3
 48
16.0
100
AcDbLine
 10
71.02276049367856
 20
177.7466198792798
 30
0.0
 11
70.86487896547874
 21
177.8509624665798
 31
0.0
  0
LINE
  5
647
330
1A
100
AcDbEntity
  8
SEIHIN
  6
Continuous
 62
     3
 48
16.0
100
AcDbLine
 10
70.86487896547874
 20
177.8509624665798
 30
0.0
 11
70.77869809977869
 21
178.1618175692798
 31
0.0
  0
LINE
  5
648
330
1A
100
AcDbEntity
  8
SEIHIN
  6
Continuous
 62
     3
 48
16.0
100
AcDbLine
 10
70.77869809977869
 20
178.1618175692798
 30
0.0
 11
70.74871323807861
 21
178.6385185215798
 31
0.0
  0
LINE
  5
649
330
1A
100
AcDbEntity
  8
SEIHIN
  6
Continuous
 62
     3
 48
16.0
100
AcDbLine
 10
70.74871323807861
 20
178.6385185215798
 30
0.0
 11
70.74518166287862
 21
179.0621420614798
 31
0.0
  0
LINE
  5
64A
330
1A
100
AcDbEntity
  8
SEIHIN
  6
Continuous
 62
     3
 48
16.0
100
AcDbLine
 10
77.26795525937859
 20
181.7466199742798
 30
0.0
 11
77.24518083437851
 21
181.7466199742798
 31
0.0
  0
LINE
  5
64B
330
1A
100
AcDbEntity
  8
SEIHIN
  6
Continuous
 62
     3
 48
16.0
100
AcDbLine
 10
78.24518083437851
 20
177.7466199742798
 30
0.0
 11
77.24518083437851
 21
177.7466199742798
 31
0.0
  0
LINE
  5
64C
330
1A
100
AcDbEntity
  8
SEIHIN
  6
Continuous
 62
     3
 48
16.0
100
AcDbLine
 10
70.74518083437851
 20
214.7466199742801
 30
0.0
 11
77.24518083437851
 21
214.7466199742801
 31
0.0
  0
LINE
  5
64D
330
1A
100
AcDbEntity
  8
SEIHIN
  6
Continuous
 62
     3
 48
16.0
100
AcDbLine
 10
77.24518083437851
 20
214.7466199742801
 30
0.0
 11
77.26795525937859
 21
214.7466199742801
 31
0.0
  0
LINE
  5
64E
330
1A
100
AcDbEntity
  8
SEIHIN
  6
Continuous
 62
     3
 48
16.0
100
AcDbLine
 10
132.8951808344786
 20
179.2466199742798
 30
0.0
 11
157.3322947301785
 21
179.2466199742798
 31
0.0
  0
LINE
  5
64F
330
1A
100
AcDbEntity
  8
SEIHIN
  6
Continuous
 62
     3
 48
16.0
100
AcDbLine
 10
154.5081472295787
 20
190.7466199742799
 30
0.0
 11
136.5004926717786
 21
190.7466199742799
 31
0.0
  0
LINE
  5
650
330
1A
100
AcDbEntity
  8
SEIHIN
  6
Continuous
 62
     3
 48
16.0
100
AcDbLine
 10
81.59845979737861
 20
214.7466199742801
 30
0.0
 11
178.1919018714786
 21
214.7466199742801
 31
0.0
  0
LINE
  5
651
330
1A
100
AcDbEntity
  8
SEIHIN
  6
Continuous
 62
     3
 48
16.0
100
AcDbLine
 10
81.59845979737861
 20
181.7466199742798
 30
0.0
 11
81.59845979737861
 21
214.7466199742801
 31
0.0
  0
LINE
  5
652
330
1A
100
AcDbEntity
  8
SEIHIN
  6
Continuous
 62
     3
 48
16.0
100
AcDbLine
 10
126.8951808343786
 20
179.2466199742798
 30
0.0
 11
102.4580669386787
 21
179.2466199742798
 31
0.0
  0
LINE
  5
653
330
1A
100
AcDbEntity
  8
SEIHIN
  6
Continuous
 62
     3
 48
16.0
100
AcDbLine
 10
105.2822144392785
 20
190.7466199742799
 30
0.0
 11
123.2898689970786
 21
190.7466199742799
 31
0.0
  0
LINE
  5
654
330
1A
100
AcDbEntity
  8
SEIHIN
  6
Continuous
 62
     3
 48
16.0
100
AcDbLine
 10
91.77761967677861
 20
181.0466199742798
 30
0.0
 11
102.1406447583786
 21
181.0466199742798
 31
0.0
  0
LINE
  5
655
330
1A
100
AcDbEntity
  8
SEIHIN
  6
Continuous
 62
     3
 48
16.0
100
AcDbLine
 10
100.3257475626785
 20
179.2466199742798
 30
0.0
 11
91.83425196147869
 21
179.2466199742798
 31
0.0
  0
LINE
  5
656
330
1A
100
AcDbEntity
  8
SEIHIN
  6
Continuous
 62
     3
 48
16.0
100
AcDbLine
 10
91.78557283987856
 20
180.9886099900798
 30
0.0
 11
91.22943915237852
 21
185.0802447544798
 31
0.0
  0
LINE
  5
657
330
1A
100
AcDbEntity
  8
SEIHIN
  6
Continuous
 62
     3
 48
16.0
100
AcDbLine
 10
83.22002403247848
 20
187.2106269830798
 30
0.0
 11
82.76328109017844
 21
181.0242507736798
 31
0.0
  0
LINE
  5
658
330
1A
100
AcDbEntity
  8
SEIHIN
  6
Continuous
 62
     3
 48
16.0
100
AcDbLine
 10
84.29011367067847
 20
185.0842676022798
 30
0.0
 11
84.1976519654786
 21
180.9883282649798
 31
0.0
  0
LINE
  5
659
330
1A
100
AcDbEntity
  8
SEIHIN
  6
Continuous
 62
     3
 48
16.0
100
AcDbLine
 10
91.8468081025785
 20
179.2466199742798
 30
0.0
 11
84.23286713477864
 21
179.2466199742798
 31
0.0
  0
LINE
  5
65A
330
1A
100
AcDbEntity
  8
SEIHIN
  6
Continuous
 62
     3
 48
16.0
100
AcDbLine
 10
84.23286713477864
 20
179.2466199742798
 30
0.0
 11
81.06601647837852
 21
179.2466199504798
 31
0.0
  0
LINE
  5
65B
330
1A
100
AcDbEntity
  8
SEIHIN
  6
Continuous
 62
     3
 48
16.0
100
AcDbLine
 10
83.57413150177853
 20
180.7466200217798
 30
0.0
 11
80.77864758477858
 21
180.7466200217798
 31
0.0
  0
LINE
  5
65C
330
1A
100
AcDbEntity
  8
SEIHIN
  6
Continuous
 62
     3
 48
16.0
100
AcDbLine
 10
80.92106915817863
 20
181.7466200692798
 30
0.0
 11
80.92106764487857
 21
181.0466199742798
 31
0.0
  0
LINE
  5
65D
330
1A
100
AcDbEntity
  8
SEIHIN
  6
Continuous
 62
     3
 48
16.0
100
AcDbLine
 10
81.59845979737861
 20
181.7466199742798
 30
0.0
 11
81.20400607697865
 21
181.7466199742798
 31
0.0
  0
LINE
  5
65E
330
1A
100
AcDbEntity
  8
SEIHIN
  6
Continuous
 62
     3
 48
16.0
100
AcDbLine
 10
79.94798371587854
 20
181.0466199742798
 30
0.0
 11
79.9479823540787
 21
181.7466200692798
 31
0.0
  0
LINE
  5
65F
330
1A
100
AcDbEntity
  8
SEIHIN
  6
Continuous
 62
     3
 48
16.0
100
AcDbLine
 10
80.77864758477858
 20
180.7466200217798
 30
0.0
 11
80.49481399167849
 21
180.7930081514798
 31
0.0
  0
LINE
  5
660
330
1A
100
AcDbEntity
  8
SEIHIN
  6
Continuous
 62
     3
 48
16.0
100
AcDbLine
 10
80.49481399167849
 20
180.7930081514798
 30
0.0
 11
79.95352931127854
 21
181.0435817706798
 31
0.0
  0
LINE
  5
661
330
1A
100
AcDbEntity
  8
SEIHIN
  6
Continuous
 62
     3
 48
16.0
100
AcDbLine
 10
79.95352931127854
 20
181.0435817706798
 30
0.0
 11
79.94798235407848
 21
181.0466199777798
 31
0.0
  0
LINE
  5
662
330
1A
100
AcDbEntity
  8
SEIHIN
  6
Continuous
 62
     3
 48
16.0
100
AcDbLine
 10
79.94798235407848
 20
178.7466199267798
 30
0.0
 11
79.95314933167856
 21
178.7502714097797
 31
0.0
  0
LINE
  5
663
330
1A
100
AcDbEntity
  8
SEIHIN
  6
Continuous
 62
     3
 48
16.0
100
AcDbLine
 10
79.95314933167856
 20
178.7502714097797
 30
0.0
 11
80.04817403657852
 21
178.8172000334798
 31
0.0
  0
LINE
  5
664
330
1A
100
AcDbEntity
  8
SEIHIN
  6
Continuous
 62
     3
 48
16.0
100
AcDbLine
 10
80.04817403657852
 20
178.8172000334798
 30
0.0
 11
80.71988485567862
 21
179.1870235711798
 31
0.0
  0
LINE
  5
665
330
1A
100
AcDbEntity
  8
SEIHIN
  6
Continuous
 62
     3
 48
16.0
100
AcDbLine
 10
80.71988485567862
 20
179.1870235711798
 30
0.0
 11
81.06601647837875
 21
179.2466199504798
 31
0.0
  0
LINE
  5
666
330
1A
100
AcDbEntity
  8
SEIHIN
  6
Continuous
 62
     3
 48
16.0
100
AcDbLine
 10
81.2129940818786
 20
180.7466200217798
 30
0.0
 11
81.15604184377867
 21
180.7523844428798
 31
0.0
  0
LINE
  5
667
330
1A
100
AcDbEntity
  8
SEIHIN
  6
Continuous
 62
     3
 48
16.0
100
AcDbLine
 10
81.15604184377867
 20
180.7523844428798
 30
0.0
 11
81.1012763510787
 21
180.7694561676798
 31
0.0
  0
LINE
  5
668
330
1A
100
AcDbEntity
  8
SEIHIN
  6
Continuous
 62
     3
 48
16.0
100
AcDbLine
 10
81.1012763510787
 20
180.7694561676798
 30
0.0
 11
81.05080611817857
 21
180.7971790795798
 31
0.0
  0
LINE
  5
669
330
1A
100
AcDbEntity
  8
SEIHIN
  6
Continuous
 62
     3
 48
16.0
100
AcDbLine
 10
81.05080611817857
 20
180.7971790795798
 30
0.0
 11
81.00657202117849
 21
180.8344879783798
 31
0.0
  0
LINE
  5
66A
330
1A
100
AcDbEntity
  8
SEIHIN
  6
Continuous
 62
     3
 48
16.0
100
AcDbLine
 10
81.00657202117849
 20
180.8344879783798
 30
0.0
 11
80.97026534187852
 21
180.8799488599797
 31
0.0
  0
LINE
  5
66B
330
1A
100
AcDbEntity
  8
SEIHIN
  6
Continuous
 62
     3
 48
16.0
100
AcDbLine
 10
80.97026534187852
 20
180.8799488599797
 30
0.0
 11
80.94329051487852
 21
180.9318149126798
 31
0.0
  0
LINE
  5
66C
330
1A
100
AcDbEntity
  8
SEIHIN
  6
Continuous
 62
     3
 48
16.0
100
AcDbLine
 10
80.94329051487852
 20
180.9318149126798
 30
0.0
 11
80.92667572007872
 21
180.9880928732798
 31
0.0
  0
LINE
  5
66D
330
1A
100
AcDbEntity
  8
SEIHIN
  6
Continuous
 62
     3
 48
16.0
100
AcDbLine
 10
80.92667572007872
 20
180.9880928732798
 30
0.0
 11
80.92106915817863
 21
181.0466199777798
 31
0.0
  0
LINE
  5
66E
330
1A
100
AcDbEntity
  8
SEIHIN
  6
Continuous
 62
     3
 48
16.0
100
AcDbLine
 10
82.45973698607873
 20
180.7466200217798
 30
0.0
 11
82.51567967047845
 21
180.7518995729798
 31
0.0
  0
LINE
  5
66F
330
1A
100
AcDbEntity
  8
SEIHIN
  6
Continuous
 62
     3
 48
16.0
100
AcDbLine
 10
82.51567967047845
 20
180.7518995729798
 30
0.0
 11
82.56965167627845
 21
180.7675176197798
 31
0.0
  0
LINE
  5
670
330
1A
100
AcDbEntity
  8
SEIHIN
  6
Continuous
 62
     3
 48
16.0
100
AcDbLine
 10
82.56965167627845
 20
180.7675176197798
 30
0.0
 11
82.61976800667866
 21
180.7929263114798
 31
0.0
  0
LINE
  5
671
330
1A
100
AcDbEntity
  8
SEIHIN
  6
Continuous
 62
     3
 48
16.0
100
AcDbLine
 10
82.61976800667866
 20
180.7929263114798
 30
0.0
 11
82.66426287397848
 21
180.8272341396798
 31
0.0
  0
LINE
  5
672
330
1A
100
AcDbEntity
  8
SEIHIN
  6
Continuous
 62
     3
 48
16.0
100
AcDbLine
 10
82.66426287397848
 20
180.8272341396798
 30
0.0
 11
82.70158283217847
 21
180.8692378354798
 31
0.0
  0
LINE
  5
673
330
1A
100
AcDbEntity
  8
SEIHIN
  6
Continuous
 62
     3
 48
16.0
100
AcDbLine
 10
82.70158283217847
 20
180.8692378354798
 30
0.0
 11
82.73041657917861
 21
180.9174638138799
 31
0.0
  0
LINE
  5
674
330
1A
100
AcDbEntity
  8
SEIHIN
  6
Continuous
 62
     3
 48
16.0
100
AcDbLine
 10
82.73041657917861
 20
180.9174638138799
 30
0.0
 11
82.74975083577851
 21
180.9702205601799
 31
0.0
  0
LINE
  5
675
330
1A
100
AcDbEntity
  8
SEIHIN
  6
Continuous
 62
     3
 48
16.0
100
AcDbLine
 10
82.74975083577851
 20
180.9702205601799
 30
0.0
 11
82.75891132457855
 21
181.0256571871798
 31
0.0
  0
LINE
  5
676
330
1A
100
AcDbEntity
  8
SEIHIN
  6
Continuous
 62
     3
 48
16.0
100
AcDbLine
 10
82.7632550130786
 20
181.0247680069798
 30
0.0
 11
82.75901563277853
 21
181.0238819699798
 31
0.0
  0
LINE
  5
677
330
1A
100
AcDbEntity
  8
SEIHIN
  6
Continuous
 62
     3
 48
16.0
100
AcDbLine
 10
84.23286713477864
 20
179.2466199742798
 30
0.0
 11
84.18923280947865
 21
180.8741566156798
 31
0.0
  0
LINE
  5
678
330
1A
100
AcDbEntity
  8
SEIHIN
  6
Continuous
 62
     3
 48
16.0
100
AcDbLine
 10
84.18923280947865
 20
180.8741566156798
 30
0.0
 11
83.89174230207869
 21
180.7842574445798
 31
0.0
  0
LINE
  5
679
330
1A
100
AcDbEntity
  8
SEIHIN
  6
Continuous
 62
     3
 48
16.0
100
AcDbLine
 10
83.89174230207869
 20
180.7842574445798
 30
0.0
 11
83.57413150177853
 21
180.7466200217798
 31
0.0
  0
LINE
  5
67A
330
1A
100
AcDbEntity
  8
SEIHIN
  6
Continuous
 62
     3
 48
16.0
100
AcDbLine
 10
84.1976519654786
 20
180.9883282649798
 30
0.0
 11
84.19170640217862
 21
180.8941495502798
 31
0.0
  0
LINE
  5
67B
330
1A
100
AcDbEntity
  8
SEIHIN
  6
Continuous
 62
     3
 48
16.0
100
AcDbLine
 10
84.19170640217862
 20
180.8941495502798
 30
0.0
 11
84.18923280947865
 21
180.8741566156798
 31
0.0
  0
LINE
  5
67C
330
1A
100
AcDbEntity
  8
SEIHIN
  6
Continuous
 62
     3
 48
16.0
100
AcDbLine
 10
91.81638471587849
 20
180.8748509166798
 30
0.0
 11
91.8468081025785
 21
179.2466199742798
 31
0.0
  0
LINE
  5
67D
330
1A
100
AcDbEntity
  8
SEIHIN
  6
Continuous
 62
     3
 48
16.0
100
AcDbLine
 10
91.81638471587872
 20
180.8748509166798
 30
0.0
 11
91.78921244847856
 21
180.9660008540799
 31
0.0
  0
LINE
  5
67E
330
1A
100
AcDbEntity
  8
SEIHIN
  6
Continuous
 62
     3
 48
16.0
100
AcDbLine
 10
91.78921244847856
 20
180.9660008540799
 30
0.0
 11
91.78557283987856
 21
180.9886099900798
 31
0.0
  0
LINE
  5
67F
330
1A
100
AcDbEntity
  8
SEIHIN
  6
Continuous
 62
     3
 48
16.0
100
AcDbLine
 10
84.90716353917855
 20
190.7466199742799
 30
0.0
 11
89.60853971177858
 21
190.7466199742799
 31
0.0
  0
ARC
  5
680
330
1A
100
AcDbEntity
  8
SEIHIN
  6
Continuous
 62
     3
 48
16.0
100
AcDbCircle
 10
85.34674818907864
 20
188.8005889315799
 30
0.0
 40
2.000000000000028
100
AcDbArc
 50
104.1262610106996
 51
175.6331994090027
  0
LINE
  5
681
330
1A
100
AcDbEntity
  8
SEIHIN
  6
Continuous
 62
     3
 48
16.0
100
AcDbLine
 10
84.39701087577873
 20
189.17126356528
 30
0.0
 11
84.29011367067847
 21
185.0842676022798
 31
0.0
  0
LINE
  5
682
330
1A
100
AcDbEntity
  8
SEIHIN
  6
Continuous
 62
     3
 48
16.0
100
AcDbLine
 10
83.35349373327858
 20
188.9534970642799
 30
0.0
 11
83.22002403247848
 21
187.2106269830798
 31
0.0
  0
LINE
  5
683
330
1A
100
AcDbEntity
  8
SEIHIN
  6
Continuous
 62
     3
 48
16.0
100
AcDbLine
 10
84.90716330517853
 20
190.74661991468
 30
0.0
 11
84.71563495507849
 21
190.63584188838
 31
0.0
  0
LINE
  5
684
330
1A
100
AcDbEntity
  8
SEIHIN
  6
Continuous
 62
     3
 48
16.0
100
AcDbLine
 10
84.71563495507849
 20
190.63584188838
 30
0.0
 11
84.55840162737855
 21
190.3156373547799
 31
0.0
  0
LINE
  5
685
330
1A
100
AcDbEntity
  8
SEIHIN
  6
Continuous
 62
     3
 48
16.0
100
AcDbLine
 10
84.55840162737855
 20
190.3156373547799
 30
0.0
 11
84.4499323497787
 21
189.82240891918
 31
0.0
  0
LINE
  5
686
330
1A
100
AcDbEntity
  8
SEIHIN
  6
Continuous
 62
     3
 48
16.0
100
AcDbLine
 10
84.4499323497787
 20
189.82240891918
 30
0.0
 11
84.39701087577873
 21
189.17126356528
 31
0.0
  0
LINE
  5
687
330
1A
100
AcDbEntity
  8
SEIHIN
  6
Continuous
 62
     3
 48
16.0
100
AcDbLine
 10
91.22943915237852
 20
185.0802447544798
 30
0.0
 11
90.68382940997867
 21
189.16844352058
 31
0.0
  0
LINE
  5
688
330
1A
100
AcDbEntity
  8
SEIHIN
  6
Continuous
 62
     3
 48
16.0
100
AcDbLine
 10
90.68382940997867
 20
189.16844352058
 30
0.0
 11
90.54071493257856
 21
189.7811857880799
 31
0.0
  0
LINE
  5
689
330
1A
100
AcDbEntity
  8
SEIHIN
  6
Continuous
 62
     3
 48
16.0
100
AcDbLine
 10
90.54071493257856
 20
189.7811857880799
 30
0.0
 11
90.29745720137862
 21
190.28203337358
 31
0.0
  0
LINE
  5
68A
330
1A
100
AcDbEntity
  8
SEIHIN
  6
Continuous
 62
     3
 48
16.0
100
AcDbLine
 10
90.29745720137862
 20
190.28203337358
 30
0.0
 11
89.98436145297864
 21
190.61625244938
 31
0.0
  0
LINE
  5
68B
330
1A
100
AcDbEntity
  8
SEIHIN
  6
Continuous
 62
     3
 48
16.0
100
AcDbLine
 10
89.98436145297864
 20
190.61625244938
 30
0.0
 11
89.6085392664786
 21
190.74661991468
 31
0.0
  0
LINE
  5
68C
330
1A
100
AcDbEntity
  8
SEIHIN
  6
Continuous
 62
     3
 48
16.0
100
AcDbLine
 10
103.0669774840787
 20
185.0802871295798
 30
0.0
 11
102.4653039853785
 21
180.9886084766798
 31
0.0
  0
LINE
  5
68D
330
1A
100
AcDbEntity
  8
SEIHIN
  6
Continuous
 62
     3
 48
16.0
100
AcDbLine
 10
103.5456679742785
 20
189.13725073358
 30
0.0
 11
102.4388227592785
 21
182.6776306507798
 31
0.0
  0
LINE
  5
68E
330
1A
100
AcDbEntity
  8
SEIHIN
  6
Continuous
 62
     3
 48
16.0
100
AcDbLine
 10
102.4580669386787
 20
179.2466199742798
 30
0.0
 11
102.4276394377787
 21
180.8748448630798
 31
0.0
  0
LINE
  5
68F
330
1A
100
AcDbEntity
  8
SEIHIN
  6
Continuous
 62
     3
 48
16.0
100
AcDbLine
 10
102.4580669386787
 20
179.2466199742798
 30
0.0
 11
101.6371907249786
 21
179.2466199742798
 31
0.0
  0
LINE
  5
690
330
1A
100
AcDbEntity
  8
SEIHIN
  6
Continuous
 62
     3
 48
16.0
100
AcDbLine
 10
101.6371907249786
 20
179.2466199742798
 30
0.0
 11
100.3257475626785
 21
179.2466199742798
 31
0.0
  0
LINE
  5
691
330
1A
100
AcDbEntity
  8
SEIHIN
  6
Continuous
 62
     3
 48
16.0
100
AcDbLine
 10
102.4653039853785
 20
180.9886084766798
 30
0.0
 11
102.4375542979785
 21
180.8943960014797
 31
0.0
  0
LINE
  5
692
330
1A
100
AcDbEntity
  8
SEIHIN
  6
Continuous
 62
     3
 48
16.0
100
AcDbLine
 10
102.4375542979785
 20
180.8943960014797
 30
0.0
 11
102.4276394377787
 21
180.8748448630798
 31
0.0
  0
LINE
  5
693
330
1A
100
AcDbEntity
  8
SEIHIN
  6
Continuous
 62
     3
 48
16.0
100
AcDbLine
 10
102.1600779126786
 20
180.9951790738798
 30
0.0
 11
102.2237803767787
 21
180.9893805430798
 31
0.0
  0
LINE
  5
694
330
1A
100
AcDbEntity
  8
SEIHIN
  6
Continuous
 62
     3
 48
16.0
100
AcDbLine
 10
102.2237803767787
 20
180.9893805430798
 30
0.0
 11
102.4653039853785
 21
180.9886084766798
 31
0.0
  0
LINE
  5
695
330
1A
100
AcDbEntity
  8
SEIHIN
  6
Continuous
 62
     3
 48
16.0
100
AcDbLine
 10
102.4388227592785
 20
182.6776306507798
 30
0.0
 11
102.1407939474786
 21
180.9989292770798
 31
0.0
  0
LINE
  5
696
330
1A
100
AcDbEntity
  8
SEIHIN
  6
Continuous
 62
     3
 48
16.0
100
AcDbLine
 10
103.6781951765786
 20
189.16846494098
 30
0.0
 11
103.0669774840787
 21
185.0802871295798
 31
0.0
  0
ARC
  5
697
330
1A
100
AcDbEntity
  8
SEIHIN
  6
Continuous
 62
     3
 48
16.0
100
AcDbCircle
 10
105.5227114174786
 20
188.8005889315799
 30
0.0
 40
1.999999999999978
100
AcDbArc
 50
115.5905921450013
 51
170.3604851864001
  0
LINE
  5
698
330
1A
100
AcDbEntity
  8
SEIHIN
  6
Continuous
 62
     3
 48
16.0
100
AcDbLine
 10
105.2822139094785
 20
190.74661991468
 30
0.0
 11
104.7292467187785
 21
190.63584188838
 31
0.0
  0
LINE
  5
699
330
1A
100
AcDbEntity
  8
SEIHIN
  6
Continuous
 62
     3
 48
16.0
100
AcDbLine
 10
104.7292467187785
 20
190.63584188838
 30
0.0
 11
104.2455606143785
 21
190.3156373547799
 31
0.0
  0
LINE
  5
69A
330
1A
100
AcDbEntity
  8
SEIHIN
  6
Continuous
 62
     3
 48
16.0
100
AcDbLine
 10
104.2455606143785
 20
190.3156373547799
 30
0.0
 11
103.8847178201786
 21
189.82240891918
 31
0.0
  0
LINE
  5
69B
330
1A
100
AcDbEntity
  8
SEIHIN
  6
Continuous
 62
     3
 48
16.0
100
AcDbLine
 10
103.8847178201786
 20
189.82240891918
 30
0.0
 11
103.6781951765786
 21
189.16846494098
 31
0.0
  0
LINE
  5
69C
330
1A
100
AcDbEntity
  8
SEIHIN
  6
Continuous
 62
     3
 48
16.0
100
AcDbLine
 10
103.6781951765786
 20
189.16846494098
 30
0.0
 11
103.5860817860787
 21
189.1575628788799
 31
0.0
  0
LINE
  5
69D
330
1A
100
AcDbEntity
  8
SEIHIN
  6
Continuous
 62
     3
 48
16.0
100
AcDbLine
 10
103.5860817860787
 20
189.1575628788799
 30
0.0
 11
103.5510770957787
 21
189.13613500908
 31
0.0
  0
LINE
  5
69E
330
1A
100
AcDbEntity
  8
SEIHIN
  6
Continuous
 62
     3
 48
16.0
100
AcDbLine
 10
103.5510770957787
 20
189.13613500908
 30
0.0
 11
103.5510789583786
 21
189.13614339098
 31
0.0
  0
LINE
  5
69F
330
1A
100
AcDbEntity
  8
SEIHIN
  6
Continuous
 62
     3
 48
16.0
100
AcDbLine
 10
126.8351808343786
 20
181.0466199742798
 30
0.0
 11
132.9551808343785
 21
181.0466199742798
 31
0.0
  0
LINE
  5
6A0
330
1A
100
AcDbEntity
  8
SEIHIN
  6
Continuous
 62
     3
 48
16.0
100
AcDbLine
 10
131.9369094281785
 20
179.2466199742798
 30
0.0
 11
127.8534522405787
 21
179.2466199742798
 31
0.0
  0
LINE
  5
6A1
330
1A
100
AcDbEntity
  8
SEIHIN
  6
Continuous
 62
     3
 48
16.0
100
AcDbLine
 10
126.8468023258785
 20
180.9885128996798
 30
0.0
 11
126.0292149595786
 21
185.0764491492798
 31
0.0
  0
LINE
  5
6A2
330
1A
100
AcDbEntity
  8
SEIHIN
  6
Continuous
 62
     3
 48
16.0
100
AcDbLine
 10
127.8534522405787
 20
179.2466199742798
 30
0.0
 11
126.8951808343786
 21
179.2466199742798
 31
0.0
  0
LINE
  5
6A3
330
1A
100
AcDbEntity
  8
SEIHIN
  6
Continuous
 62
     3
 48
16.0
100
AcDbLine
 10
126.8951808083786
 20
180.8751937597797
 30
0.0
 11
126.8951808343786
 21
179.2466199742798
 31
0.0
  0
LINE
  5
6A4
330
1A
100
AcDbEntity
  8
SEIHIN
  6
Continuous
 62
     3
 48
16.0
100
AcDbLine
 10
126.8951808083786
 20
180.8751937597797
 30
0.0
 11
126.8521001543786
 21
180.9664034181799
 31
0.0
  0
LINE
  5
6A5
330
1A
100
AcDbEntity
  8
SEIHIN
  6
Continuous
 62
     3
 48
16.0
100
AcDbLine
 10
126.8521001543786
 20
180.9664034181799
 30
0.0
 11
126.8468023258785
 21
180.9885128996798
 31
0.0
  0
LINE
  5
6A6
330
1A
100
AcDbEntity
  8
SEIHIN
  6
Continuous
 62
     3
 48
16.0
100
AcDbLine
 10
126.0292149595786
 20
185.0764491492798
 30
0.0
 11
125.2109365518786
 21
189.16784188618
 31
0.0
  0
LINE
  5
6A7
330
1A
100
AcDbEntity
  8
SEIHIN
  6
Continuous
 62
     3
 48
16.0
100
AcDbLine
 10
123.9906497280785
 20
190.6160307945799
 30
0.0
 11
123.2898690718787
 21
190.74661991468
 31
0.0
  0
LINE
  5
6A8
330
1A
100
AcDbEntity
  8
SEIHIN
  6
Continuous
 62
     3
 48
16.0
100
AcDbLine
 10
125.2109365518786
 20
189.16784188618
 30
0.0
 11
124.9765063616785
 21
189.7806567968799
 31
0.0
  0
LINE
  5
6A9
330
1A
100
AcDbEntity
  8
SEIHIN
  6
Continuous
 62
     3
 48
16.0
100
AcDbLine
 10
124.9765063616785
 20
189.7806567968799
 30
0.0
 11
124.5541338789787
 21
190.28163569888
 31
0.0
  0
LINE
  5
6AA
330
1A
100
AcDbEntity
  8
SEIHIN
  6
Continuous
 62
     3
 48
16.0
100
AcDbLine
 10
124.5541338789787
 20
190.28163569888
 30
0.0
 11
123.9906497280785
 21
190.6160307945799
 31
0.0
  0
LINE
  5
6AB
330
1A
100
AcDbEntity
  8
SEIHIN
  6
Continuous
 62
     3
 48
16.0
100
AcDbLine
 10
132.9435593429787
 20
180.9885128996798
 30
0.0
 11
133.7611467092786
 21
185.0764491492798
 31
0.0
  0
LINE
  5
6AC
330
1A
100
AcDbEntity
  8
SEIHIN
  6
Continuous
 62
     3
 48
16.0
100
AcDbLine
 10
131.9369094282786
 20
179.2466199742798
 30
0.0
 11
132.8951808344786
 21
179.2466199742798
 31
0.0
  0
LINE
  5
6AD
330
1A
100
AcDbEntity
  8
SEIHIN
  6
Continuous
 62
     3
 48
16.0
100
AcDbLine
 10
132.8951808604786
 20
180.8751937597797
 30
0.0
 11
132.8951808344786
 21
179.2466199742798
 31
0.0
  0
LINE
  5
6AE
330
1A
100
AcDbEntity
  8
SEIHIN
  6
Continuous
 62
     3
 48
16.0
100
AcDbLine
 10
132.8951808604786
 20
180.8751937597797
 30
0.0
 11
132.9382615144786
 21
180.9664034181799
 31
0.0
  0
LINE
  5
6AF
330
1A
100
AcDbEntity
  8
SEIHIN
  6
Continuous
 62
     3
 48
16.0
100
AcDbLine
 10
132.9382615144786
 20
180.9664034181799
 30
0.0
 11
132.9435593429787
 21
180.9885128996798
 31
0.0
  0
LINE
  5
6B0
330
1A
100
AcDbEntity
  8
SEIHIN
  6
Continuous
 62
     3
 48
16.0
100
AcDbLine
 10
135.7997119407787
 20
190.6160307945799
 30
0.0
 11
136.5004925969786
 21
190.74661991468
 31
0.0
  0
LINE
  5
6B1
330
1A
100
AcDbEntity
  8
SEIHIN
  6
Continuous
 62
     3
 48
16.0
100
AcDbLine
 10
133.7611467092786
 20
185.0764491492798
 30
0.0
 11
134.5794251169786
 21
189.16784188618
 31
0.0
  0
LINE
  5
6B2
330
1A
100
AcDbEntity
  8
SEIHIN
  6
Continuous
 62
     3
 48
16.0
100
AcDbLine
 10
134.5794251169786
 20
189.16784188618
 30
0.0
 11
134.8138553071787
 21
189.7806567968799
 31
0.0
  0
LINE
  5
6B3
330
1A
100
AcDbEntity
  8
SEIHIN
  6
Continuous
 62
     3
 48
16.0
100
AcDbLine
 10
134.8138553071787
 20
189.7806567968799
 30
0.0
 11
135.2362277898785
 21
190.28163569888
 31
0.0
  0
LINE
  5
6B4
330
1A
100
AcDbEntity
  8
SEIHIN
  6
Continuous
 62
     3
 48
16.0
100
AcDbLine
 10
135.2362277898785
 20
190.28163569888
 30
0.0
 11
135.7997119407787
 21
190.6160307945799
 31
0.0
  0
LINE
  5
6B5
330
1A
100
AcDbEntity
  8
SEIHIN
  6
Continuous
 62
     3
 48
16.0
100
AcDbLine
 10
81.20400607697865
 20
214.7466199742801
 30
0.0
 11
81.59845979737861
 21
214.7466199742801
 31
0.0
  0
LINE
  5
6B6
330
1A
100
AcDbEntity
  8
SEIHIN
  6
Continuous
 62
     3
 48
16.0
100
AcDbLine
 10
189.0451808343787
 20
214.7466199742801
 30
0.0
 11
189.0451808343787
 21
181.7466199742798
 31
0.0
  0
LINE
  5
6B7
330
1A
100
AcDbEntity
  8
SEIHIN
  6
Continuous
 62
     3
 48
16.0
100
AcDbLine
 10
178.1919018714786
 20
214.7466199742801
 30
0.0
 11
178.1919018714786
 21
181.7466199742798
 31
0.0
  0
LINE
  5
6B8
330
1A
100
AcDbEntity
  8
SEIHIN
  6
Continuous
 62
     3
 48
16.0
100
AcDbLine
 10
175.5574945340786
 20
179.2466199742798
 30
0.0
 11
178.7243451904787
 21
179.2466199504798
 31
0.0
  0
LINE
  5
6B9
330
1A
100
AcDbEntity
  8
SEIHIN
  6
Continuous
 62
     3
 48
16.0
100
AcDbLine
 10
176.2162301670787
 20
180.7466200217798
 30
0.0
 11
179.0117140840786
 21
180.7466200217798
 31
0.0
  0
LINE
  5
6BA
330
1A
100
AcDbEntity
  8
SEIHIN
  6
Continuous
 62
     3
 48
16.0
100
AcDbLine
 10
177.2207099925788
 20
180.7675176197798
 30
0.0
 11
177.1705936621786
 21
180.7929263114798
 31
0.0
  0
LINE
  5
6BB
330
1A
100
AcDbEntity
  8
SEIHIN
  6
Continuous
 62
     3
 48
16.0
100
AcDbLine
 10
159.4646141061787
 20
179.2466199742798
 30
0.0
 11
167.9561097073785
 21
179.2466199742798
 31
0.0
  0
LINE
  5
6BC
330
1A
100
AcDbEntity
  8
SEIHIN
  6
Continuous
 62
     3
 48
16.0
100
AcDbLine
 10
168.0127419920786
 20
181.0466199742798
 30
0.0
 11
157.6497169104787
 21
181.0466199742798
 31
0.0
  0
LINE
  5
6BD
330
1A
100
AcDbEntity
  8
SEIHIN
  6
Continuous
 62
     3
 48
16.0
100
AcDbLine
 10
156.2446936945787
 20
189.13725073358
 30
0.0
 11
157.3515389095787
 21
182.6776306507798
 31
0.0
  0
LINE
  5
6BE
330
1A
100
AcDbEntity
  8
SEIHIN
  6
Continuous
 62
     3
 48
16.0
100
AcDbLine
 10
156.7233841847785
 20
185.0802871295798
 30
0.0
 11
157.3250576834787
 21
180.9886084766798
 31
0.0
  0
LINE
  5
6BF
330
1A
100
AcDbEntity
  8
SEIHIN
  6
Continuous
 62
     3
 48
16.0
100
AcDbLine
 10
157.3322947301785
 20
179.2466199742798
 30
0.0
 11
157.3627222310786
 21
180.8748448630798
 31
0.0
  0
LINE
  5
6C0
330
1A
100
AcDbEntity
  8
SEIHIN
  6
Continuous
 62
     3
 48
16.0
100
AcDbLine
 10
157.3322947301785
 20
179.2466199742798
 30
0.0
 11
158.1531709438786
 21
179.2466199742798
 31
0.0
  0
LINE
  5
6C1
330
1A
100
AcDbEntity
  8
SEIHIN
  6
Continuous
 62
     3
 48
16.0
100
AcDbLine
 10
158.1531709438786
 20
179.2466199742798
 30
0.0
 11
159.4646141061787
 21
179.2466199742798
 31
0.0
  0
LINE
  5
6C2
330
1A
100
AcDbEntity
  8
SEIHIN
  6
Continuous
 62
     3
 48
16.0
100
AcDbLine
 10
157.3250576834787
 20
180.9886084766798
 30
0.0
 11
157.3528073708787
 21
180.8943960014797
 31
0.0
  0
LINE
  5
6C3
330
1A
100
AcDbEntity
  8
SEIHIN
  6
Continuous
 62
     3
 48
16.0
100
AcDbLine
 10
157.3528073708787
 20
180.8943960014797
 30
0.0
 11
157.3627222310786
 21
180.8748448630798
 31
0.0
  0
LINE
  5
6C4
330
1A
100
AcDbEntity
  8
SEIHIN
  6
Continuous
 62
     3
 48
16.0
100
AcDbLine
 10
157.6302837561786
 20
180.9951790738798
 30
0.0
 11
157.5665812920786
 21
180.9893805430798
 31
0.0
  0
LINE
  5
6C5
330
1A
100
AcDbEntity
  8
SEIHIN
  6
Continuous
 62
     3
 48
16.0
100
AcDbLine
 10
157.5665812920786
 20
180.9893805430798
 30
0.0
 11
157.3250576834787
 21
180.9886084766798
 31
0.0
  0
LINE
  5
6C6
330
1A
100
AcDbEntity
  8
SEIHIN
  6
Continuous
 62
     3
 48
16.0
100
AcDbLine
 10
157.3515389095787
 20
182.6776306507798
 30
0.0
 11
157.6495677213786
 21
180.9989292770798
 31
0.0
  0
LINE
  5
6C7
330
1A
100
AcDbEntity
  8
SEIHIN
  6
Continuous
 62
     3
 48
16.0
100
AcDbLine
 10
156.1121664922787
 20
189.16846494098
 30
0.0
 11
156.7233841847785
 21
185.0802871295798
 31
0.0
  0
ARC
  5
6C8
330
1A
100
AcDbEntity
  8
SEIHIN
  6
Continuous
 62
     3
 48
16.0
100
AcDbCircle
 10
154.2676502513786
 20
188.8005889315799
 30
0.0
 40
1.999999999999978
100
AcDbArc
 50
9.639514813599891
 51
64.40940785499865
  0
LINE
  5
6C9
330
1A
100
AcDbEntity
  8
SEIHIN
  6
Continuous
 62
     3
 48
16.0
100
AcDbLine
 10
154.5081477593787
 20
190.74661991468
 30
0.0
 11
155.0611149500787
 21
190.63584188838
 31
0.0
  0
LINE
  5
6CA
330
1A
100
AcDbEntity
  8
SEIHIN
  6
Continuous
 62
     3
 48
16.0
100
AcDbLine
 10
155.0611149500787
 20
190.63584188838
 30
0.0
 11
155.5448010544787
 21
190.3156373547799
 31
0.0
  0
LINE
  5
6CB
330
1A
100
AcDbEntity
  8
SEIHIN
  6
Continuous
 62
     3
 48
16.0
100
AcDbLine
 10
155.5448010544787
 20
190.3156373547799
 30
0.0
 11
155.9056438486786
 21
189.82240891918
 31
0.0
  0
LINE
  5
6CC
330
1A
100
AcDbEntity
  8
SEIHIN
  6
Continuous
 62
     3
 48
16.0
100
AcDbLine
 10
155.9056438486786
 20
189.82240891918
 30
0.0
 11
156.1121664922787
 21
189.16846494098
 31
0.0
  0
LINE
  5
6CD
330
1A
100
AcDbEntity
  8
SEIHIN
  6
Continuous
 62
     3
 48
16.0
100
AcDbLine
 10
156.1121664922787
 20
189.16846494098
 30
0.0
 11
156.2042798827785
 21
189.1575628788799
 31
0.0
  0
LINE
  5
6CE
330
1A
100
AcDbEntity
  8
SEIHIN
  6
Continuous
 62
     3
 48
16.0
100
AcDbLine
 10
156.2042798827785
 20
189.1575628788799
 30
0.0
 11
156.2392845730785
 21
189.13613500908
 31
0.0
  0
LINE
  5
6CF
330
1A
100
AcDbEntity
  8
SEIHIN
  6
Continuous
 62
     3
 48
16.0
100
AcDbLine
 10
156.2392845730785
 20
189.13613500908
 30
0.0
 11
156.2392827104786
 21
189.13614339098
 31
0.0
  0
LINE
  5
6D0
330
1A
100
AcDbEntity
  8
SEIHIN
  6
Continuous
 62
     3
 48
16.0
100
AcDbLine
 10
176.5703376363788
 20
187.2106269830798
 30
0.0
 11
177.0270805786788
 21
181.0242507736798
 31
0.0
  0
LINE
  5
6D1
330
1A
100
AcDbEntity
  8
SEIHIN
  6
Continuous
 62
     3
 48
16.0
100
AcDbLine
 10
175.5002479981788
 20
185.0842676022798
 30
0.0
 11
175.5927097033786
 21
180.9883282649798
 31
0.0
  0
LINE
  5
6D2
330
1A
100
AcDbEntity
  8
SEIHIN
  6
Continuous
 62
     3
 48
16.0
100
AcDbLine
 10
168.0047888289787
 20
180.9886099900798
 30
0.0
 11
168.5609225164787
 21
185.0802447544798
 31
0.0
  0
LINE
  5
6D3
330
1A
100
AcDbEntity
  8
SEIHIN
  6
Continuous
 62
     3
 48
16.0
100
AcDbLine
 10
167.9435535662787
 20
179.2466199742798
 30
0.0
 11
175.5574945340786
 21
179.2466199742798
 31
0.0
  0
LINE
  5
6D4
330
1A
100
AcDbEntity
  8
SEIHIN
  6
Continuous
 62
     3
 48
16.0
100
AcDbLine
 10
167.9739769529785
 20
180.8748509166798
 30
0.0
 11
168.0011492203787
 21
180.9660008540799
 31
0.0
  0
LINE
  5
6D5
330
1A
100
AcDbEntity
  8
SEIHIN
  6
Continuous
 62
     3
 48
16.0
100
AcDbLine
 10
168.0011492203787
 20
180.9660008540799
 30
0.0
 11
168.0047888289787
 21
180.9886099900798
 31
0.0
  0
LINE
  5
6D6
330
1A
100
AcDbEntity
  8
SEIHIN
  6
Continuous
 62
     3
 48
16.0
100
AcDbLine
 10
167.9739769529787
 20
180.8748509166798
 30
0.0
 11
167.9435535662787
 21
179.2466199742798
 31
0.0
  0
LINE
  5
6D7
330
1A
100
AcDbEntity
  8
SEIHIN
  6
Continuous
 62
     3
 48
16.0
100
AcDbLine
 10
177.0599450896786
 20
180.9174638138799
 30
0.0
 11
177.0406108330787
 21
180.9702205601799
 31
0.0
  0
LINE
  5
6D8
330
1A
100
AcDbEntity
  8
SEIHIN
  6
Continuous
 62
     3
 48
16.0
100
AcDbLine
 10
177.0406108330787
 20
180.9702205601799
 30
0.0
 11
177.0314503442787
 21
181.0256571871798
 31
0.0
  0
LINE
  5
6D9
330
1A
100
AcDbEntity
  8
SEIHIN
  6
Continuous
 62
     3
 48
16.0
100
AcDbLine
 10
177.0271066557786
 20
181.0247680069798
 30
0.0
 11
177.0313460360787
 21
181.0238819699798
 31
0.0
  0
LINE
  5
6DA
330
1A
100
AcDbEntity
  8
SEIHIN
  6
Continuous
 62
     3
 48
16.0
100
AcDbLine
 10
175.5574945340786
 20
179.2466199742798
 30
0.0
 11
175.6011288593786
 21
180.8741566156798
 31
0.0
  0
LINE
  5
6DB
330
1A
100
AcDbEntity
  8
SEIHIN
  6
Continuous
 62
     3
 48
16.0
100
AcDbLine
 10
175.6011288593786
 20
180.8741566156798
 30
0.0
 11
175.8986193667785
 21
180.7842574445798
 31
0.0
  0
LINE
  5
6DC
330
1A
100
AcDbEntity
  8
SEIHIN
  6
Continuous
 62
     3
 48
16.0
100
AcDbLine
 10
175.8986193667785
 20
180.7842574445798
 30
0.0
 11
176.2162301670787
 21
180.7466200217798
 31
0.0
  0
LINE
  5
6DD
330
1A
100
AcDbEntity
  8
SEIHIN
  6
Continuous
 62
     3
 48
16.0
100
AcDbLine
 10
177.1705936621786
 20
180.7929263114798
 30
0.0
 11
177.1260987948787
 21
180.8272341396798
 31
0.0
  0
LINE
  5
6DE
330
1A
100
AcDbEntity
  8
SEIHIN
  6
Continuous
 62
     3
 48
16.0
100
AcDbLine
 10
177.1260987948787
 20
180.8272341396798
 30
0.0
 11
177.0887788366788
 21
180.8692378354798
 31
0.0
  0
LINE
  5
6DF
330
1A
100
AcDbEntity
  8
SEIHIN
  6
Continuous
 62
     3
 48
16.0
100
AcDbLine
 10
177.0887788366788
 20
180.8692378354798
 30
0.0
 11
177.0599450896786
 21
180.9174638138799
 31
0.0
  0
LINE
  5
6E0
330
1A
100
AcDbEntity
  8
SEIHIN
  6
Continuous
 62
     3
 48
16.0
100
AcDbLine
 10
175.5927097033786
 20
180.9883282649798
 30
0.0
 11
175.5986552666786
 21
180.8941495502798
 31
0.0
  0
LINE
  5
6E1
330
1A
100
AcDbEntity
  8
SEIHIN
  6
Continuous
 62
     3
 48
16.0
100
AcDbLine
 10
175.5986552666786
 20
180.8941495502798
 30
0.0
 11
175.6011288593786
 21
180.8741566156798
 31
0.0
  0
LINE
  5
6E2
330
1A
100
AcDbEntity
  8
SEIHIN
  6
Continuous
 62
     3
 48
16.0
100
AcDbLine
 10
168.5609225164787
 20
185.0802447544798
 30
0.0
 11
169.1065322588786
 21
189.16844352058
 31
0.0
  0
ARC
  5
6E3
330
1A
100
AcDbEntity
  8
SEIHIN
  6
Continuous
 62
     3
 48
16.0
100
AcDbCircle
 10
174.4436134797786
 20
188.8005889315799
 30
0.0
 40
2.000000000000028
100
AcDbArc
 50
4.366800590997269
 51
75.87373898930035
  0
LINE
  5
6E4
330
1A
100
AcDbEntity
  8
SEIHIN
  6
Continuous
 62
     3
 48
16.0
100
AcDbLine
 10
175.3933507930785
 20
189.17126356528
 30
0.0
 11
175.5002479981788
 21
185.0842676022798
 31
0.0
  0
LINE
  5
6E5
330
1A
100
AcDbEntity
  8
SEIHIN
  6
Continuous
 62
     3
 48
16.0
100
AcDbLine
 10
176.4368679355787
 20
188.9534970642799
 30
0.0
 11
176.5703376363788
 21
187.2106269830798
 31
0.0
  0
LINE
  5
6E6
330
1A
100
AcDbEntity
  8
SEIHIN
  6
Continuous
 62
     3
 48
16.0
100
AcDbLine
 10
174.8831981296787
 20
190.7466199742799
 30
0.0
 11
170.1818219570787
 21
190.7466199742799
 31
0.0
  0
LINE
  5
6E7
330
1A
100
AcDbEntity
  8
SEIHIN
  6
Continuous
 62
     3
 48
16.0
100
AcDbLine
 10
169.2496467362787
 20
189.7811857880799
 30
0.0
 11
169.4929044674786
 21
190.28203337358
 31
0.0
  0
LINE
  5
6E8
330
1A
100
AcDbEntity
  8
SEIHIN
  6
Continuous
 62
     3
 48
16.0
100
AcDbLine
 10
169.4929044674786
 20
190.28203337358
 30
0.0
 11
169.8060002158786
 21
190.61625244938
 31
0.0
  0
LINE
  5
6E9
330
1A
100
AcDbEntity
  8
SEIHIN
  6
Continuous
 62
     3
 48
16.0
100
AcDbLine
 10
169.8060002158786
 20
190.61625244938
 30
0.0
 11
170.1818224023786
 21
190.74661991468
 31
0.0
  0
LINE
  5
6EA
330
1A
100
AcDbEntity
  8
SEIHIN
  6
Continuous
 62
     3
 48
16.0
100
AcDbLine
 10
169.1065322588786
 20
189.16844352058
 30
0.0
 11
169.2496467362787
 21
189.7811857880799
 31
0.0
  0
LINE
  5
6EB
330
1A
100
AcDbEntity
  8
SEIHIN
  6
Continuous
 62
     3
 48
16.0
100
AcDbLine
 10
174.8831983636787
 20
190.74661991468
 30
0.0
 11
175.0747267137787
 21
190.63584188838
 31
0.0
  0
LINE
  5
6EC
330
1A
100
AcDbEntity
  8
SEIHIN
  6
Continuous
 62
     3
 48
16.0
100
AcDbLine
 10
175.0747267137787
 20
190.63584188838
 30
0.0
 11
175.2319600414787
 21
190.3156373547799
 31
0.0
  0
LINE
  5
6ED
330
1A
100
AcDbEntity
  8
SEIHIN
  6
Continuous
 62
     3
 48
16.0
100
AcDbLine
 10
175.2319600414787
 20
190.3156373547799
 30
0.0
 11
175.3404293190785
 21
189.82240891918
 31
0.0
  0
LINE
  5
6EE
330
1A
100
AcDbEntity
  8
SEIHIN
  6
Continuous
 62
     3
 48
16.0
100
AcDbLine
 10
175.3404293190785
 20
189.82240891918
 30
0.0
 11
175.3933507930785
 21
189.17126356528
 31
0.0
  0
LINE
  5
6EF
330
1A
100
AcDbEntity
  8
SEIHIN
  6
Continuous
 62
     3
 48
16.0
100
AcDbLine
 10
189.0451808343787
 20
181.7466199742798
 30
0.0
 11
182.5451808343787
 21
181.7466199742798
 31
0.0
  0
LINE
  5
6F0
330
1A
100
AcDbEntity
  8
SEIHIN
  6
Continuous
 62
     3
 48
16.0
100
AcDbLine
 10
182.5451808343787
 20
177.7466199742798
 30
0.0
 11
188.7676007795787
 21
177.7466199742798
 31
0.0
  0
LINE
  5
6F1
330
1A
100
AcDbEntity
  8
SEIHIN
  6
Continuous
 62
     3
 48
16.0
100
AcDbLine
 10
181.5451808344787
 20
177.7466199742798
 30
0.0
 11
180.5451808344787
 21
177.7466199742798
 31
0.0
  0
LINE
  5
6F2
330
1A
100
AcDbEntity
  8
SEIHIN
  6
Continuous
 62
     3
 48
16.0
100
AcDbLine
 10
178.5863555918786
 20
181.7466199742798
 30
0.0
 11
182.5224064094786
 21
181.7466199742798
 31
0.0
  0
LINE
  5
6F3
330
1A
100
AcDbEntity
  8
SEIHIN
  6
Continuous
 62
     3
 48
16.0
100
AcDbLine
 10
178.8692925106786
 20
181.7466200692798
 30
0.0
 11
178.8692940239787
 21
181.0466199742798
 31
0.0
  0
LINE
  5
6F4
330
1A
100
AcDbEntity
  8
SEIHIN
  6
Continuous
 62
     3
 48
16.0
100
AcDbLine
 10
178.1919018714786
 20
181.7466199742798
 30
0.0
 11
178.5863555918786
 21
181.7466199742798
 31
0.0
  0
LINE
  5
6F5
330
1A
100
AcDbEntity
  8
SEIHIN
  6
Continuous
 62
     3
 48
16.0
100
AcDbLine
 10
179.8423779529787
 20
181.0466199742798
 30
0.0
 11
179.8423793147785
 21
181.7466200692798
 31
0.0
  0
LINE
  5
6F6
330
1A
100
AcDbEntity
  8
SEIHIN
  6
Continuous
 62
     3
 48
16.0
100
AcDbLine
 10
179.0117140840786
 20
180.7466200217798
 30
0.0
 11
179.2955476771787
 21
180.7930081514798
 31
0.0
  0
LINE
  5
6F7
330
1A
100
AcDbEntity
  8
SEIHIN
  6
Continuous
 62
     3
 48
16.0
100
AcDbLine
 10
179.2955476771787
 20
180.7930081514798
 30
0.0
 11
179.8368323575787
 21
181.0435817706798
 31
0.0
  0
LINE
  5
6F8
330
1A
100
AcDbEntity
  8
SEIHIN
  6
Continuous
 62
     3
 48
16.0
100
AcDbLine
 10
179.8368323575787
 20
181.0435817706798
 30
0.0
 11
179.8423793147787
 21
181.0466199777798
 31
0.0
  0
LINE
  5
6F9
330
1A
100
AcDbEntity
  8
SEIHIN
  6
Continuous
 62
     3
 48
16.0
100
AcDbLine
 10
179.8423793147787
 20
178.7466199267798
 30
0.0
 11
179.8372123371787
 21
178.7502714097797
 31
0.0
  0
LINE
  5
6FA
330
1A
100
AcDbEntity
  8
SEIHIN
  6
Continuous
 62
     3
 48
16.0
100
AcDbLine
 10
179.8372123371787
 20
178.7502714097797
 30
0.0
 11
179.7421876322787
 21
178.8172000334798
 31
0.0
  0
LINE
  5
6FB
330
1A
100
AcDbEntity
  8
SEIHIN
  6
Continuous
 62
     3
 48
16.0
100
AcDbLine
 10
179.7421876322787
 20
178.8172000334798
 30
0.0
 11
179.0704768131786
 21
179.1870235711798
 31
0.0
  0
LINE
  5
6FC
330
1A
100
AcDbEntity
  8
SEIHIN
  6
Continuous
 62
     3
 48
16.0
100
AcDbLine
 10
179.0704768131786
 20
179.1870235711798
 30
0.0
 11
178.7243451904785
 21
179.2466199504798
 31
0.0
  0
LINE
  5
6FD
330
1A
100
AcDbEntity
  8
SEIHIN
  6
Continuous
 62
     3
 48
16.0
100
AcDbLine
 10
178.5773675869786
 20
180.7466200217798
 30
0.0
 11
178.6343198250786
 21
180.7523844428798
 31
0.0
  0
LINE
  5
6FE
330
1A
100
AcDbEntity
  8
SEIHIN
  6
Continuous
 62
     3
 48
16.0
100
AcDbLine
 10
178.6343198250786
 20
180.7523844428798
 30
0.0
 11
178.6890853177785
 21
180.7694561676798
 31
0.0
  0
LINE
  5
6FF
330
1A
100
AcDbEntity
  8
SEIHIN
  6
Continuous
 62
     3
 48
16.0
100
AcDbLine
 10
178.6890853177785
 20
180.7694561676798
 30
0.0
 11
178.7395555506787
 21
180.7971790795798
 31
0.0
  0
LINE
  5
700
330
1A
100
AcDbEntity
  8
SEIHIN
  6
Continuous
 62
     3
 48
16.0
100
AcDbLine
 10
178.7395555506787
 20
180.7971790795798
 30
0.0
 11
178.7837896476787
 21
180.8344879783798
 31
0.0
  0
LINE
  5
701
330
1A
100
AcDbEntity
  8
SEIHIN
  6
Continuous
 62
     3
 48
16.0
100
AcDbLine
 10
178.7837896476787
 20
180.8344879783798
 30
0.0
 11
178.8200963269787
 21
180.8799488599797
 31
0.0
  0
LINE
  5
702
330
1A
100
AcDbEntity
  8
SEIHIN
  6
Continuous
 62
     3
 48
16.0
100
AcDbLine
 10
178.8200963269787
 20
180.8799488599797
 30
0.0
 11
178.8470711539787
 21
180.9318149126798
 31
0.0
  0
LINE
  5
703
330
1A
100
AcDbEntity
  8
SEIHIN
  6
Continuous
 62
     3
 48
16.0
100
AcDbLine
 10
178.8470711539787
 20
180.9318149126798
 30
0.0
 11
178.8636859487785
 21
180.9880928732798
 31
0.0
  0
LINE
  5
704
330
1A
100
AcDbEntity
  8
SEIHIN
  6
Continuous
 62
     3
 48
16.0
100
AcDbLine
 10
178.8636859487785
 20
180.9880928732798
 30
0.0
 11
178.8692925106786
 21
181.0466199777798
 31
0.0
  0
LINE
  5
705
330
1A
100
AcDbEntity
  8
SEIHIN
  6
Continuous
 62
     3
 48
16.0
100
AcDbLine
 10
177.3306246827785
 20
180.7466200217798
 30
0.0
 11
177.2746819983788
 21
180.7518995729798
 31
0.0
  0
LINE
  5
706
330
1A
100
AcDbEntity
  8
SEIHIN
  6
Continuous
 62
     3
 48
16.0
100
AcDbLine
 10
177.2746819983788
 20
180.7518995729798
 30
0.0
 11
177.2207099925788
 21
180.7675176197798
 31
0.0
  0
LINE
  5
707
330
1A
100
AcDbEntity
  8
SEIHIN
  6
Continuous
 62
     3
 48
16.0
100
AcDbLine
 10
182.5224064094786
 20
181.7466199742798
 30
0.0
 11
182.5451808344787
 21
181.7466199742798
 31
0.0
  0
LINE
  5
708
330
1A
100
AcDbEntity
  8
SEIHIN
  6
Continuous
 62
     3
 48
16.0
100
AcDbLine
 10
181.5451808344787
 20
177.7466199742798
 30
0.0
 11
182.5451808344787
 21
177.7466199742798
 31
0.0
  0
LINE
  5
709
330
1A
100
AcDbEntity
  8
SEIHIN
  6
Continuous
 62
     3
 48
16.0
100
AcDbLine
 10
189.0451808343787
 20
179.4591051203798
 30
0.0
 11
189.0451808343787
 21
179.0621420903798
 31
0.0
  0
LINE
  5
70A
330
1A
100
AcDbEntity
  8
SEIHIN
  6
Continuous
 62
     3
 48
16.0
100
AcDbLine
 10
189.0451808343787
 20
180.0341348280798
 30
0.0
 11
189.0451464782786
 21
179.7466199742798
 31
0.0
  0
LINE
  5
70B
330
1A
100
AcDbEntity
  8
SEIHIN
  6
Continuous
 62
     3
 48
16.0
100
AcDbLine
 10
189.0451808343787
 20
181.7466199742798
 30
0.0
 11
189.0451808343787
 21
180.0341348280798
 31
0.0
  0
LINE
  5
70C
330
1A
100
AcDbEntity
  8
SEIHIN
  6
Continuous
 62
     3
 48
16.0
100
AcDbLine
 10
189.0451464782786
 20
179.7466199742798
 30
0.0
 11
189.0451808343787
 21
179.4591051203798
 31
0.0
  0
LINE
  5
70D
330
1A
100
AcDbEntity
  8
SEIHIN
  6
Continuous
 62
     3
 48
16.0
100
AcDbLine
 10
189.0451800058786
 20
179.0621420614798
 30
0.0
 11
189.0368502567787
 21
178.4829985946798
 31
0.0
  0
LINE
  5
70E
330
1A
100
AcDbEntity
  8
SEIHIN
  6
Continuous
 62
     3
 48
16.0
100
AcDbLine
 10
189.0368502567787
 20
178.4829985946798
 30
0.0
 11
188.9921095202787
 21
178.0446107396798
 31
0.0
  0
LINE
  5
70F
330
1A
100
AcDbEntity
  8
SEIHIN
  6
Continuous
 62
     3
 48
16.0
100
AcDbLine
 10
188.9921095202787
 20
178.0446107396798
 30
0.0
 11
188.8860840331788
 21
177.7978801065797
 31
0.0
  0
LINE
  5
710
330
1A
100
AcDbEntity
  8
SEIHIN
  6
Continuous
 62
     3
 48
16.0
100
AcDbLine
 10
188.8860840331788
 20
177.7978801065797
 30
0.0
 11
188.7676011751785
 21
177.7466198792798
 31
0.0
  0
LINE
  5
711
330
1A
100
AcDbEntity
  8
SEIHIN
  6
Continuous
 62
     3
 48
16.0
100
AcDbLine
 10
182.5451808343787
 20
214.7466199742801
 30
0.0
 11
189.0451808343787
 21
214.7466199742801
 31
0.0
  0
LINE
  5
712
330
1A
100
AcDbEntity
  8
SEIHIN
  6
Continuous
 62
     3
 48
16.0
100
AcDbLine
 10
178.5863555918786
 20
214.7466199742801
 30
0.0
 11
182.5224064094786
 21
214.7466199742801
 31
0.0
  0
LINE
  5
713
330
1A
100
AcDbEntity
  8
SEIHIN
  6
Continuous
 62
     3
 48
16.0
100
AcDbLine
 10
178.1919018714786
 20
214.7466199742801
 30
0.0
 11
178.5863555918786
 21
214.7466199742801
 31
0.0
  0
LINE
  5
714
330
1A
100
AcDbEntity
  8
SEIHIN
  6
Continuous
 62
     3
 48
16.0
100
AcDbLine
 10
182.5224064094786
 20
214.7466199742801
 30
0.0
 11
182.5451808343787
 21
214.7466199742801
 31
0.0
  0
TEXT
  5
715
330
1A
100
AcDbEntity
  8
ZUWAKU
100
AcDbText
 10
329.1019688436511
 20
9.002460528703693
 30
0.0
 40
2.799999999999999
  1
　　．　　．　　
 41
0.9
  7
ｽﾀｲﾙ1
100
AcDbText
  0
LINE
  5
716
330
1A
100
AcDbEntity
  8
ZUWAKU
100
AcDbLine
 10
324.4086012551022
 20
7.600000000000022
 30
0.0
 11
348.6245052742706
 21
7.600000000000022
 31
0.0
  0
LINE
  5
717
330
1A
100
AcDbEntity
  8
ZUWAKU
100
AcDbLine
 10
324.4086012551022
 20
7.700000000000045
 30
0.0
 11
348.6245052742706
 21
7.700000000000045
 31
0.0
  0
LINE
  5
718
330
1A
100
AcDbEntity
  8
ZUWAKU
100
AcDbLine
 10
324.4086012551022
 20
7.800000000000011
 30
0.0
 11
348.6245052742706
 21
7.800000000000011
 31
0.0
  0
LINE
  5
719
330
1A
100
AcDbEntity
  8
SEIHIN
  6
Continuous
 62
     3
 48
16.0
100
AcDbLine
 10
316.8168053205163
 20
73.16456713337038
 30
0.0
 11
316.8168053205163
 21
35.40533582117041
 31
0.0
  0
LINE
  5
71A
330
1A
100
AcDbEntity
  8
CENTER L
  6
CENTER
 62
     1
 48
5.0
100
AcDbLine
 10
281.8168053205163
 20
26.93633162254867
 30
0.0
 11
281.8168053205163
 21
92.45678616800319
 31
0.0
  0
LINE
  5
71B
330
1A
100
AcDbEntity
  8
SEIHIN
  6
Continuous
 62
     3
 48
16.0
100
AcDbLine
 10
246.8168053205163
 20
35.40533582117041
 30
0.0
 11
246.8168053205163
 21
73.16456713337038
 31
0.0
  0
LINE
  5
71C
330
1A
100
AcDbEntity
  8
SEIHIN
  6
Continuous
 62
     3
 48
16.0
100
AcDbLine
 10
251.8168053205163
 20
34.40533582117041
 30
0.0
 11
311.8168053205163
 21
34.40533582117041
 31
0.0
  0
LINE
  5
71D
330
1A
100
AcDbEntity
  8
ZUWAKU
100
AcDbLine
 10
252.5995897490704
 20
7.600000000000022
 30
0.0
 11
276.2634778830563
 21
7.600000000000022
 31
0.0
  0
LINE
  5
71E
330
1A
100
AcDbEntity
  8
ZUWAKU
100
AcDbLine
 10
252.5995897490704
 20
7.700000000000045
 30
0.0
 11
276.2634778830563
 21
7.700000000000045
 31
0.0
  0
LINE
  5
71F
330
1A
100
AcDbEntity
  8
ZUWAKU
100
AcDbLine
 10
252.5995897490704
 20
7.800000000000011
 30
0.0
 11
276.2634778830563
 21
7.800000000000011
 31
0.0
  0
TEXT
  5
720
330
1A
100
AcDbEntity
  8
MOJI
100
AcDbText
 10
264.0204539861563
 20
9.002460528703693
 30
0.0
 40
2.799999999999999
  1
Ａ３
 41
0.9
  7
ｽﾀｲﾙ1
100
AcDbText
  0
LINE
  5
721
330
1A
100
AcDbEntity
  8
ZUWAKU
100
AcDbLine
 10
252.4995897490705
 20
15.0
 30
0.0
 11
252.4995897490705
 21
0.4000000000000341
 31
0.0
  0
LINE
  5
722
330
1A
100
AcDbEntity
  8
ZUWAKU
100
AcDbLine
 10
252.5995897490704
 20
15.0
 30
0.0
 11
252.5995897490704
 21
0.4000000000000341
 31
0.0
  0
LINE
  5
723
330
1A
100
AcDbEntity
  8
ZUWAKU
100
AcDbLine
 10
252.3995897490706
 20
15.0
 30
0.0
 11
252.3995897490706
 21
0.4000000000000341
 31
0.0
  0
LINE
  5
724
330
1A
100
AcDbEntity
  8
ZUWAKU
100
AcDbLine
 10
223.8121819854957
 20
15.0
 30
0.0
 11
223.8121819854957
 21
0.4000000000000341
 31
0.0
  0
LINE
  5
725
330
1A
100
AcDbEntity
  8
ZUWAKU
100
AcDbLine
 10
223.9121819854956
 20
15.0
 30
0.0
 11
223.9121819854956
 21
0.4000000000000341
 31
0.0
  0
LINE
  5
726
330
1A
100
AcDbEntity
  8
ZUWAKU
100
AcDbLine
 10
223.7121819854958
 20
15.0
 30
0.0
 11
223.7121819854958
 21
0.4000000000000341
 31
0.0
  0
TEXT
  5
727
330
1A
100
AcDbEntity
  8
MOJI
100
AcDbText
 10
231.5820982778994
 20
6.478656514164811
 30
0.0
 40
2.799999999999999
  1
ＧＴ５８□
 41
0.9
  7
ｽﾀｲﾙ1
100
AcDbText
  0
TEXT
  5
728
330
1A
100
AcDbEntity
  8
ZUWAKU
100
AcDbText
 10
230.9446340342026
 20
1.307035455569746
 30
0.0
 40
1.5
  1
□には色品番が入ります
 41
0.9
  7
ｽﾀｲﾙ1
100
AcDbText
  0
TEXT
  5
729
330
1A
100
AcDbEntity
  8
ZUWAKU
100
AcDbText
 10
253.3383122601754
 20
4.827678269192801
 30
0.0
 40
2.0
  1
縮尺
 41
0.9
  7
ｽﾀｲﾙ1
100
AcDbText
  0
TEXT
  5
72A
330
1A
100
AcDbEntity
  8
MOJI
100
AcDbText
 10
264.0204539861563
 20
1.602460528703716
 30
0.0
 40
2.799999999999999
  1
１/１
 41
0.9
  7
ｽﾀｲﾙ1
100
AcDbText
  0
TEXT
  5
72B
330
1A
100
AcDbEntity
  8
ZUWAKU
100
AcDbText
 10
224.6509044966003
 20
12.02767826919279
 30
0.0
 40
2.0
  1
品番
 41
0.9
  7
ｽﾀｲﾙ1
100
AcDbText
  0
TEXT
  5
72C
330
1A
100
AcDbEntity
  8
ZUWAKU
100
AcDbText
 10
253.3383122601752
 20
12.02767826919279
 30
0.0
 40
2.0
  1
用紙
 41
0.9
  7
ｽﾀｲﾙ1
100
AcDbText
  0
LINE
  5
72D
330
1A
100
AcDbEntity
  8
SEIHIN
  6
Continuous
 62
     3
 48
16.0
100
AcDbLine
 10
246.8168053205163
 20
35.40533582117041
 30
0.0
 11
251.8168053205163
 21
34.40533582117041
 31
0.0
  0
LINE
  5
72E
330
1A
100
AcDbEntity
  8
ZUWAKU
100
AcDbLine
 10
276.2634778830563
 20
15.0
 30
0.0
 11
276.2634778830563
 21
0.4000000000000341
 31
0.0
  0
LINE
  5
72F
330
1A
100
AcDbEntity
  8
ZUWAKU
100
AcDbLine
 10
276.4634778830561
 20
15.0
 30
0.0
 11
276.4634778830561
 21
0.4000000000000341
 31
0.0
  0
LINE
  5
730
330
1A
100
AcDbEntity
  8
ZUWAKU
100
AcDbLine
 10
276.3634778830562
 20
15.0
 30
0.0
 11
276.3634778830562
 21
0.4000000000000341
 31
0.0
  0
LINE
  5
731
330
1A
100
AcDbEntity
  8
ZUWAKU
100
AcDbLine
 10
324.2086012551024
 20
15.0
 30
0.0
 11
324.2086012551024
 21
0.4000000000000341
 31
0.0
  0
LINE
  5
732
330
1A
100
AcDbEntity
  8
ZUWAKU
100
AcDbLine
 10
324.4086012551022
 20
15.0
 30
0.0
 11
324.4086012551022
 21
0.4000000000000341
 31
0.0
  0
LINE
  5
733
330
1A
100
AcDbEntity
  8
ZUWAKU
100
AcDbLine
 10
324.3086012551023
 20
15.0
 30
0.0
 11
324.3086012551023
 21
0.4000000000000341
 31
0.0
  0
TEXT
  5
734
330
1A
100
AcDbEntity
  8
ZUWAKU
100
AcDbText
 10
325.1473237662069
 20
12.02767826919279
 30
0.0
 40
2.0
  1
DATE
 41
0.9
  7
ｽﾀｲﾙ1
100
AcDbText
  0
LINE
  5
735
330
1A
100
AcDbEntity
  8
SEIHIN
  6
Continuous
 62
     3
 48
16.0
100
AcDbLine
 10
311.8168053205163
 20
34.40533582117041
 30
0.0
 11
316.8168053205163
 21
35.40533582117041
 31
0.0
  0
LINE
  5
736
330
1A
100
AcDbEntity
  8
SEIHIN
  6
Continuous
 62
     3
 48
16.0
100
AcDbLine
 10
316.8168053205163
 20
73.90533582117041
 30
0.0
 11
246.8168053205163
 21
73.90533582117041
 31
0.0
  0
LINE
  5
737
330
1A
100
AcDbEntity
  8
SEIHIN
  6
Continuous
 62
     3
 48
16.0
100
AcDbLine
 10
246.8168053205163
 20
87.00533582117044
 30
0.0
 11
279.8168053205163
 21
87.00533582117044
 31
0.0
  0
LINE
  5
738
330
1A
100
AcDbEntity
  8
SEIHIN
  6
Continuous
 62
     3
 48
16.0
100
AcDbLine
 10
246.8168053205163
 20
73.90533582117041
 30
0.0
 11
246.8168053205163
 21
80.4053358211704
 31
0.0
  0
LINE
  5
739
330
1A
100
AcDbEntity
  8
SEIHIN
  6
Continuous
 62
     3
 48
16.0
100
AcDbLine
 10
246.8168053205163
 20
73.16456713337038
 30
0.0
 11
246.8168053205163
 21
73.90533582117041
 31
0.0
  0
LINE
  5
73A
330
1A
100
AcDbEntity
  8
SEIHIN
  6
Continuous
 62
     3
 48
16.0
100
AcDbLine
 10
246.8168053205163
 20
80.50533582117044
 30
0.0
 11
246.8168053205163
 21
87.00533582117044
 31
0.0
  0
LINE
  5
73B
330
1A
100
AcDbEntity
  8
SEIHIN
  6
Continuous
 62
     3
 48
16.0
100
AcDbLine
 10
246.8168053205163
 20
80.4053358211704
 30
0.0
 11
246.8168053205163
 21
80.50533582117044
 31
0.0
  0
LINE
  5
73C
330
1A
100
AcDbEntity
  8
SEIHIN
  6
Continuous
 62
     3
 48
16.0
100
AcDbLine
 10
283.8168053205163
 20
89.90533582117041
 30
0.0
 11
316.8168053205163
 21
89.90533582117041
 31
0.0
  0
ARC
  5
73D
330
1A
100
AcDbEntity
  8
SEIHIN
  6
Continuous
 62
     3
 48
16.0
100
AcDbCircle
 10
281.8168053205163
 20
82.38456173267037
 30
0.0
 40
1.999999999999952
100
AcDbArc
 50
278.2653311557987
 51
0.0
  0
LINE
  5
73E
330
1A
100
AcDbEntity
  8
SEIHIN
  6
Continuous
 62
     3
 48
16.0
100
AcDbLine
 10
279.8168053205163
 20
87.00533582117044
 30
0.0
 11
279.8168053205163
 21
82.38456173267037
 31
0.0
  0
LINE
  5
73F
330
1A
100
AcDbEntity
  8
SEIHIN
  6
Continuous
 62
     3
 48
16.0
100
AcDbLine
 10
283.8168053205163
 20
83.40533582117041
 30
0.0
 11
283.8168053205163
 21
89.90533582117041
 31
0.0
  0
LINE
  5
740
330
1A
100
AcDbEntity
  8
SEIHIN
  6
Continuous
 62
     3
 48
16.0
100
AcDbLine
 10
283.8168053205163
 20
83.40533582117041
 30
0.0
 11
283.8168053205163
 21
82.38456173267037
 31
0.0
  0
ARC
  5
741
330
1A
100
AcDbEntity
  8
SEIHIN
  6
Continuous
 62
     3
 48
16.0
100
AcDbCircle
 10
281.8168053205163
 20
82.38456173267037
 30
0.0
 40
1.999999999999996
100
AcDbArc
 50
249.9866586504005
 51
261.7346688442014
  0
LINE
  5
742
330
1A
100
AcDbEntity
  8
SEIHIN
  6
Continuous
 62
     3
 48
16.0
100
AcDbLine
 10
282.1043201744162
 20
80.4053358211704
 30
0.0
 11
281.8168053205163
 21
80.38456173267036
 31
0.0
  0
LINE
  5
743
330
1A
100
AcDbEntity
  8
SEIHIN
  6
Continuous
 62
     3
 48
16.0
100
AcDbLine
 10
281.8168053205163
 20
80.38456173267036
 30
0.0
 11
281.5292904666162
 21
80.4053358211704
 31
0.0
  0
LINE
  5
744
330
1A
100
AcDbEntity
  8
SEIHIN
  6
Continuous
 62
     3
 48
16.0
100
AcDbLine
 10
281.1323274366161
 20
80.50533582117044
 30
0.0
 11
280.5531838886161
 21
80.83431630797042
 31
0.0
  0
LINE
  5
745
330
1A
100
AcDbEntity
  8
SEIHIN
  6
Continuous
 62
     3
 48
16.0
100
AcDbLine
 10
280.5531838886161
 20
80.83431630797042
 30
0.0
 11
280.1147961155161
 21
81.33424527267038
 31
0.0
  0
LINE
  5
746
330
1A
100
AcDbEntity
  8
SEIHIN
  6
Continuous
 62
     3
 48
16.0
100
AcDbLine
 10
280.1147961155161
 20
81.33424527267038
 30
0.0
 11
279.8680654571163
 21
81.93465847087043
 31
0.0
  0
LINE
  5
747
330
1A
100
AcDbEntity
  8
SEIHIN
  6
Continuous
 62
     3
 48
16.0
100
AcDbLine
 10
279.8680654571163
 20
81.93465847087043
 30
0.0
 11
279.8168053205161
 21
82.38456173267037
 31
0.0
  0
LINE
  5
748
330
1A
100
AcDbEntity
  8
SEIHIN
  6
Continuous
 62
     3
 48
16.0
100
AcDbLine
 10
316.8168053205163
 20
80.4053358211704
 30
0.0
 11
316.8168053205163
 21
73.90533582117041
 31
0.0
  0
LINE
  5
749
330
1A
100
AcDbEntity
  8
SEIHIN
  6
Continuous
 62
     3
 48
16.0
100
AcDbLine
 10
316.8168053205163
 20
73.90533582117041
 30
0.0
 11
316.8168053205163
 21
73.16456713337038
 31
0.0
  0
LINE
  5
74A
330
1A
100
AcDbEntity
  8
SEIHIN
  6
Continuous
 62
     3
 48
16.0
100
AcDbLine
 10
316.8168053205163
 20
89.90533582117041
 30
0.0
 11
316.8168053205163
 21
83.40533582117041
 31
0.0
  0
LINE
  5
74B
330
1A
100
AcDbEntity
  8
SEIHIN
  6
Continuous
 62
     3
 48
16.0
100
AcDbLine
 10
316.8168053205163
 20
83.40533582117041
 30
0.0
 11
316.8168053205163
 21
80.4053358211704
 31
0.0
  0
TEXT
  5
74C
330
1A
100
AcDbEntity
  8
ZUWAKU
100
AcDbText
 10
354.2640420961218
 20
6.176919667843378
 30
0.0
 40
3.0
  1
積水化学工業株式会社
 41
0.9
  7
ｽﾀｲﾙ1
100
AcDbText
  0
LINE
  5
74D
330
1A
100
AcDbEntity
  8
ZUWAKU
100
AcDbLine
 10
348.9245052742706
 20
15.0
 30
0.0
 11
348.9245052742706
 21
0.4000000000000341
 31
0.0
  0
LINE
  5
74E
330
1A
100
AcDbEntity
  8
ZUWAKU
100
AcDbLine
 10
348.8245052742707
 20
15.0
 30
0.0
 11
348.8245052742707
 21
0.4000000000000341
 31
0.0
  0
LINE
  5
74F
330
1A
100
AcDbEntity
  8
ZUWAKU
100
AcDbLine
 10
348.7245052742708
 20
15.0
 30
0.0
 11
348.7245052742708
 21
0.4000000000000341
 31
0.0
  0
LINE
  5
750
330
1A
100
AcDbEntity
  8
ZUWAKU
100
AcDbLine
 10
348.6245052742706
 20
15.0
 30
0.0
 11
348.6245052742706
 21
0.4000000000000341
 31
0.0
  0
VIEWPORT
  5
22
102
{ACAD_XDICTIONARY
360
A94
102
}
330
17
100
AcDbEntity
 67
     1
  8
0
100
AcDbViewport
 10
245.143442478156
 20
180.4473375916276
 30
0.0
 40
702.1080523887404
 41
459.519223656418
 68
     1
 69
     1
 12
245.143442478156
 22
180.4473375916276
 13
0.0
 23
0.0
 14
1.0
 24
1.0
 15
10.0
 25
10.0
 16
0.0
 26
0.0
 36
1.0
 17
0.0
 27
0.0
 37
0.0
 42
50.0
 43
0.0
 44
0.0
 45
459.519223656418
 50
0.0
 51
0.0
 72
   100
 90
    32768
  1

281
     0
 71
     1
 74
     0
110
0.0
120
0.0
130
0.0
111
1.0
121
0.0
131
0.0
112
0.0
122
1.0
132
0.0
 79
     0
146
0.0
  0
VIEWPORT
  5
64
102
{ACAD_XDICTIONARY
360
A96
102
}
330
17
100
AcDbEntity
 67
     1
  8
VIEWPORT
100
AcDbViewport
 10
210.0
 20
148.5
 30
0.0
 40
420.0
 41
297.0
 68
     2
 69
     2
 12
739.3262239509572
 22
393.1221607969858
 13
0.0
 23
0.0
 14
5.0
 24
5.0
 15
0.0
 25
0.0
 16
0.0
 26
0.0
 36
1.0
 17
0.0
 27
0.0
 37
0.0
 42
50.0
 43
0.0
 44
0.0
 45
292.8854430495992
 50
0.0
 51
0.0
 72
   100
 90
    32768
  1

281
     0
 71
     1
 74
     0
110
0.0
120
0.0
130
0.0
111
1.0
121
0.0
131
0.0
112
0.0
122
1.0
132
0.0
 79
     0
146
0.0
  0
ENDSEC
  0
SECTION
  2
OBJECTS
  0
DICTIONARY
  5
C
330
0
100
AcDbDictionary
281
     1
  3
ACAD_COLOR
350
A53
  3
ACAD_GROUP
350
D
  3
ACAD_LAYOUT
350
15A
  3
ACAD_MATERIAL
350
A21
  3
ACAD_MLEADERSTYLE
350
A68
  3
ACAD_MLINESTYLE
350
E
  3
ACAD_PLOTSETTINGS
350
15B
  3
ACAD_PLOTSTYLENAME
350
158
  3
ACAD_SCALELIST
350
A56
  3
ACAD_TABLESTYLE
350
A54
  3
ACAD_VISUALSTYLE
350
A3A
  3
ACDB_RECOMPOSE_DATA
350
A92
  3
AcDbVariableDictionary
350
A88
  3
DWGPROPS
350
A93
  0
DICTIONARY
  5
A6F
330
F
100
AcDbDictionary
280
     1
281
     1
  3
ADSK_XREC_LAYER_RECONCILED
360
A70
  0
DICTIONARY
  5
A71
330
62
100
AcDbDictionary
280
     1
281
     1
  3
ADSK_XREC_LAYER_RECONCILED
360
A72
  0
DICTIONARY
  5
A73
330
6B
100
AcDbDictionary
280
     1
281
     1
  3
ADSK_XREC_LAYER_RECONCILED
360
A74
  0
DICTIONARY
  5
A75
330
150
100
AcDbDictionary
280
     1
281
     1
  3
ADSK_XREC_LAYER_RECONCILED
360
A76
  0
DICTIONARY
  5
A77
330
180
100
AcDbDictionary
280
     1
281
     1
  3
ADSK_XREC_LAYER_RECONCILED
360
A78
  0
DICTIONARY
  5
A79
330
181
100
AcDbDictionary
280
     1
281
     1
  3
ADSK_XREC_LAYER_RECONCILED
360
A7A
  0
DICTIONARY
  5
A7B
330
336
100
AcDbDictionary
280
     1
281
     1
  3
ADSK_XREC_LAYER_RECONCILED
360
A7C
  0
DICTIONARY
  5
A7D
330
337
100
AcDbDictionary
280
     1
281
     1
  3
ADSK_XREC_LAYER_RECONCILED
360
A7E
  0
DICTIONARY
  5
845
330
1A
100
AcDbDictionary
280
     1
281
     1
  3
ACAD_LAYOUTSELFREF
360
846
  0
DICTIONARY
  5
843
330
17
100
AcDbDictionary
280
     1
281
     1
  3
ACAD_LAYOUTSELFREF
360
844
  0
DICTIONARY
  5
A94
330
22
100
AcDbDictionary
280
     1
281
     1
  3
ACAD_XREC_ROUNDTRIP
360
A95
  0
DICTIONARY
  5
A96
330
64
100
AcDbDictionary
280
     1
281
     1
  3
ACAD_XREC_ROUNDTRIP
360
A97
  0
DICTIONARY
  5
A53
102
{ACAD_REACTORS
330
C
102
}
330
C
100
AcDbDictionary
281
     1
  0
DICTIONARY
  5
D
102
{ACAD_REACTORS
330
C
102
}
330
C
100
AcDbDictionary
281
     1
  3
*A1
350
2F2
  0
DICTIONARY
  5
15A
102
{ACAD_REACTORS
330
C
102
}
330
C
100
AcDbDictionary
281
     1
  3
Model
350
15C
  3
ﾚｲｱｳﾄ1
350
15D
  0
DICTIONARY
  5
A21
102
{ACAD_REACTORS
330
C
102
}
330
C
100
AcDbDictionary
281
     1
  3
ByBlock
350
A2A
  3
ByLayer
350
A22
  3
Global
350
A32
  0
DICTIONARY
  5
A68
102
{ACAD_REACTORS
330
C
102
}
330
C
100
AcDbDictionary
281
     1
  3
Standard
350
A69
  0
DICTIONARY
  5
E
102
{ACAD_REACTORS
330
C
102
}
330
C
100
AcDbDictionary
281
     1
  3
STANDARD
350
13
  0
DICTIONARY
  5
15B
102
{ACAD_REACTORS
330
C
102
}
330
C
100
AcDbDictionary
281
     1
  0
ACDBDICTIONARYWDFLT
  5
158
102
{ACAD_REACTORS
330
C
102
}
330
C
100
AcDbDictionary
281
     1
  3
Normal
350
159
100
AcDbDictionaryWithDefault
340
159
  0
DICTIONARY
  5
A56
102
{ACAD_REACTORS
330
C
102
}
330
C
100
AcDbDictionary
281
     1
  3
A0
350
A57
  3
A1
350
A58
  3
A2
350
A59
  3
A3
350
A5A
  3
A4
350
A5B
  3
A5
350
A5C
  3
A6
350
A5D
  3
A7
350
A5E
  3
A8
350
A5F
  3
A9
350
A60
  3
B0
350
A61
  3
B1
350
A62
  3
B2
350
A63
  3
B3
350
A64
  3
B4
350
A65
  3
B5
350
A66
  3
B6
350
A67
  0
DICTIONARY
  5
A54
102
{ACAD_REACTORS
330
C
102
}
330
C
100
AcDbDictionary
281
     1
  3
Standard
350
A55
  0
DICTIONARY
  5
A3A
102
{ACAD_REACTORS
330
C
102
}
330
C
100
AcDbDictionary
281
     1
  3
2dWireframe
350
A40
  3
Basic
350
A3F
  3
Brighten
350
A46
  3
ColorChange
350
A4A
  3
Conceptual
350
A43
  3
Dim
350
A45
  3
EdgeColorOff
350
A52
  3
Facepattern
350
A49
  3
Flat
350
A3B
  3
FlatWithEdges
350
A3C
  3
Gouraud
350
A3D
  3
GouraudWithEdges
350
A3E
  3
Hidden
350
A42
  3
JitterOff
350
A50
  3
Linepattern
350
A48
  3
OverhangOff
350
A51
  3
Realistic
350
A44
  3
Shaded
350
A4F
  3
Shaded with edges
350
A4E
  3
Shades of Gray
350
A4B
  3
Sketchy
350
A4C
  3
Thicken
350
A47
  3
Wireframe
350
A41
  3
X-Ray
350
A4D
  0
XRECORD
  5
A92
102
{ACAD_REACTORS
330
C
102
}
330
C
100
AcDbXrecord
280
     1
 90
        1
330
A55
  0
DICTIONARY
  5
A88
102
{ACAD_REACTORS
330
C
102
}
330
C
100
AcDbDictionary
281
     1
  3
CANNOSCALE
350
A8B
  3
CMLEADERSTYLE
350
A8A
  3
CTABLESTYLE
350
A89
  3
DIMASSOC
350
A8E
  3
INDEXCTL
350
A8D
  3
SORTENTS
350
A8C
  3
XCLIPFRAME
350
A8F
  0
XRECORD
  5
A93
102
{ACAD_REACTORS
330
C
102
}
330
C
100
AcDbXrecord
280
     1
  1
DWGPROPS COOKIE
  2

  3

  4

  6

  7

  8
kogure009
  9

300
=
301
=
302
=
303
=
304
=
305
=
306
=
307
=
308
=
309
=
 40
0.0115620601851852
 41
2450994.350997107
 42
2458984.4209536
  1

 90
        0
  0
XRECORD
  5
A70
102
{ACAD_REACTORS
330
A6F
102
}
330
A6F
100
AcDbXrecord
280
     1
290
     1
  0
XRECORD
  5
A72
102
{ACAD_REACTORS
330
A71
102
}
330
A71
100
AcDbXrecord
280
     1
290
     1
  0
XRECORD
  5
A74
102
{ACAD_REACTORS
330
A73
102
}
330
A73
100
AcDbXrecord
280
     1
290
     1
  0
XRECORD
  5
A76
102
{ACAD_REACTORS
330
A75
102
}
330
A75
100
AcDbXrecord
280
     1
290
     1
  0
XRECORD
  5
A78
102
{ACAD_REACTORS
330
A77
102
}
330
A77
100
AcDbXrecord
280
     1
290
     1
  0
XRECORD
  5
A7A
102
{ACAD_REACTORS
330
A79
102
}
330
A79
100
AcDbXrecord
280
     1
290
     1
  0
XRECORD
  5
A7C
102
{ACAD_REACTORS
330
A7B
102
}
330
A7B
100
AcDbXrecord
280
     1
290
     1
  0
XRECORD
  5
A7E
102
{ACAD_REACTORS
330
A7D
102
}
330
A7D
100
AcDbXrecord
280
     1
290
     1
  0
XRECORD
  5
846
102
{ACAD_REACTORS
330
845
102
}
330
845
100
AcDbXrecord
280
     1
340
1A
  0
XRECORD
  5
844
102
{ACAD_REACTORS
330
843
102
}
330
843
100
AcDbXrecord
280
     1
340
17
  0
XRECORD
  5
A95
102
{ACAD_REACTORS
330
A94
102
}
330
A94
100
AcDbXrecord
280
     1
102
SHADEPLOT
 70
     0
  0
XRECORD
  5
A97
102
{ACAD_REACTORS
330
A96
102
}
330
A96
100
AcDbXrecord
280
     1
102
SHADEPLOT
 70
     0
  0
GROUP
  5
2F2
102
{ACAD_REACTORS
330
D
102
}
330
D
100
AcDbGroup
300

 70
     1
 71
     1
  0
LAYOUT
  5
15C
102
{ACAD_XDICTIONARY
360
A98
102
}
102
{ACAD_REACTORS
330
15A
102
}
330
15A
100
AcDbPlotSettings
  1

  2
none_device
  4
ISO_A4_(210.00_x_297.00_MM)
  6

 40
7.5
 41
20.0
 42
7.5
 43
20.0
 44
210.0
 45
297.0
 46
0.0
 47
0.0
 48
0.0
 49
0.0
140
0.0
141
0.0
142
1.0
143
8.582612471587108
 70
 11952
 72
     1
 73
     1
 74
     0
  7
systemprinter.ctb
 75
     0
147
0.1165146397219399
148
581.422709340241
149
820.52866455936
100
AcDbLayout
  1
Model
 70
     1
 71
     0
 10
0.0
 20
0.0
 11
12.0
 21
9.0
 12
0.0
 22
0.0
 32
0.0
 14
0.0
 24
0.0
 34
0.0
 15
0.0
 25
0.0
 35
0.0
146
0.0
 13
0.0
 23
0.0
 33
0.0
 16
1.0
 26
0.0
 36
0.0
 17
0.0
 27
1.0
 37
0.0
 76
     0
330
1A
331
817
1001
ACAD_PSEXT
1000
なし
1000
なし
1000
適切ではありません
1000
新しいプロッタ環境設定名を選択しない限り、レイアウトは印刷されません。
1070
     0
  0
LAYOUT
  5
15D
102
{ACAD_XDICTIONARY
360
A9A
102
}
102
{ACAD_REACTORS
330
15A
102
}
330
15A
100
AcDbPlotSettings
  1

  2
LP-9200C(CC9E34)
  4
A3
  6

 40
5.873749732971191
 41
5.873747825622558
 42
5.873748779296875
 43
5.873748779296875
 44
297.0106506347656
 45
419.9466552734374
 46
-5.879999999999999
 47
-5.91
 48
0.0
 49
0.0
140
0.0
141
0.0
142
1.0
143
1.0
 70
   692
 72
     1
 73
     1
 74
     1
  7
monochrome.ctb
 75
    16
147
1.0
148
0.0128164049386896
149
0.0090630292066862
100
AcDbLayout
  1
ﾚｲｱｳﾄ1
 70
     1
 71
     1
 10
0.0234348157644355
 20
-0.0028127621778777
 11
419.9700900892019
 21
297.0078378725877
 12
0.0
 22
0.0
 32
0.0
 14
-0.0128164049386896
 24
-0.0090630292066862
 34
-0.0015258207003583
 15
420.0128183607161
 25
297.0090644122207
 35
0.0000000349246037
146
0.0
 13
0.0
 23
0.0
 33
0.0
 16
1.0
 26
0.0
 36
0.0
 17
0.0
 27
1.0
 37
0.0
 76
     0
330
17
331
22
  0
MATERIAL
  5
A2A
102
{ACAD_XDICTIONARY
360
A2B
102
}
102
{ACAD_REACTORS
330
A21
102
}
330
A21
100
AcDbMaterial
  1
ByBlock
 72
     0
 43
0.0208333333333333
 43
0.0
 43
0.0
 43
0.0
 43
0.0
 43
0.0208333333333333
 43
0.0
 43
0.0
 43
0.0
 43
0.0
 43
1.0
 43
0.0
 43
0.0
 43
0.0
 43
0.0
 43
1.0
 77
     0
 47
0.0208333333333333
 47
0.0
 47
0.0
 47
0.0
 47
0.0
 47
0.0208333333333333
 47
0.0
 47
0.0
 47
0.0
 47
0.0
 47
1.0
 47
0.0
 47
0.0
 47
0.0
 47
0.0
 47
1.0
171
     0
 49
0.0208333333333333
 49
0.0
 49
0.0
 49
0.0
 49
0.0
 49
0.0208333333333333
 49
0.0
 49
0.0
 49
0.0
 49
0.0
 49
1.0
 49
0.0
 49
0.0
 49
0.0
 49
0.0
 49
1.0
175
     0
142
0.0208333333333333
142
0.0
142
0.0
142
0.0
142
0.0
142
0.0208333333333333
142
0.0
142
0.0
142
0.0
142
0.0
142
1.0
142
0.0
142
0.0
142
0.0
142
0.0
142
1.0
179
     0
144
0.0208333333333333
144
0.0
144
0.0
144
0.0
144
0.0
144
0.0208333333333333
144
0.0
144
0.0
144
0.0
144
0.0
144
1.0
144
0.0
144
0.0
144
0.0
144
0.0
144
1.0
147
0.0208333333333333
147
0.0
147
0.0
147
0.0
147
0.0
147
0.0208333333333333
147
0.0
147
0.0
147
0.0
147
0.0
147
1.0
147
0.0
147
0.0
147
0.0
147
0.0
147
1.0
  0
MATERIAL
  5
A22
102
{ACAD_XDICTIONARY
360
A23
102
}
102
{ACAD_REACTORS
330
A21
102
}
330
A21
100
AcDbMaterial
  1
ByLayer
 72
     0
 43
0.0208333333333333
 43
0.0
 43
0.0
 43
0.0
 43
0.0
 43
0.0208333333333333
 43
0.0
 43
0.0
 43
0.0
 43
0.0
 43
1.0
 43
0.0
 43
0.0
 43
0.0
 43
0.0
 43
1.0
 77
     0
 47
0.0208333333333333
 47
0.0
 47
0.0
 47
0.0
 47
0.0
 47
0.0208333333333333
 47
0.0
 47
0.0
 47
0.0
 47
0.0
 47
1.0
 47
0.0
 47
0.0
 47
0.0
 47
0.0
 47
1.0
171
     0
 49
0.0208333333333333
 49
0.0
 49
0.0
 49
0.0
 49
0.0
 49
0.0208333333333333
 49
0.0
 49
0.0
 49
0.0
 49
0.0
 49
1.0
 49
0.0
 49
0.0
 49
0.0
 49
0.0
 49
1.0
175
     0
142
0.0208333333333333
142
0.0
142
0.0
142
0.0
142
0.0
142
0.0208333333333333
142
0.0
142
0.0
142
0.0
142
0.0
142
1.0
142
0.0
142
0.0
142
0.0
142
0.0
142
1.0
179
     0
144
0.0208333333333333
144
0.0
144
0.0
144
0.0
144
0.0
144
0.0208333333333333
144
0.0
144
0.0
144
0.0
144
0.0
144
1.0
144
0.0
144
0.0
144
0.0
144
0.0
144
1.0
147
0.0208333333333333
147
0.0
147
0.0
147
0.0
147
0.0
147
0.0208333333333333
147
0.0
147
0.0
147
0.0
147
0.0
147
1.0
147
0.0
147
0.0
147
0.0
147
0.0
147
1.0
  0
MATERIAL
  5
A32
102
{ACAD_XDICTIONARY
360
A33
102
}
102
{ACAD_REACTORS
330
A21
102
}
330
A21
100
AcDbMaterial
  1
Global
 72
     0
 43
0.0208333333333333
 43
0.0
 43
0.0
 43
0.0
 43
0.0
 43
0.0208333333333333
 43
0.0
 43
0.0
 43
0.0
 43
0.0
 43
1.0
 43
0.0
 43
0.0
 43
0.0
 43
0.0
 43
1.0
 77
     0
 47
0.0208333333333333
 47
0.0
 47
0.0
 47
0.0
 47
0.0
 47
0.0208333333333333
 47
0.0
 47
0.0
 47
0.0
 47
0.0
 47
1.0
 47
0.0
 47
0.0
 47
0.0
 47
0.0
 47
1.0
171
     0
 49
0.0208333333333333
 49
0.0
 49
0.0
 49
0.0
 49
0.0
 49
0.0208333333333333
 49
0.0
 49
0.0
 49
0.0
 49
0.0
 49
1.0
 49
0.0
 49
0.0
 49
0.0
 49
0.0
 49
1.0
175
     0
142
0.0208333333333333
142
0.0
142
0.0
142
0.0
142
0.0
142
0.0208333333333333
142
0.0
142
0.0
142
0.0
142
0.0
142
1.0
142
0.0
142
0.0
142
0.0
142
0.0
142
1.0
179
     0
144
0.0208333333333333
144
0.0
144
0.0
144
0.0
144
0.0
144
0.0208333333333333
144
0.0
144
0.0
144
0.0
144
0.0
144
1.0
144
0.0
144
0.0
144
0.0
144
0.0
144
1.0
147
0.0208333333333333
147
0.0
147
0.0
147
0.0
147
0.0
147
0.0208333333333333
147
0.0
147
0.0
147
0.0
147
0.0
147
1.0
147
0.0
147
0.0
147
0.0
147
0.0
147
1.0
  0
MLEADERSTYLE
  5
A69
102
{ACAD_REACTORS
330
A68
102
}
330
A68
100
AcDbMLeaderStyle
170
     2
171
     1
172
     0
 90
        2
 40
0.0
 41
0.0
173
     1
 91
-1056964608
340
14
 92
       -2
290
     1
 42
2.0
291
     1
 43
0.36
  3
Standard
 44
4.0
300

342
10
174
     1
178
     6
175
     1
176
     0
 93
-1056964608
 45
4.0
292
     0
297
     0
 46
4.0
 94
-1056964608
 47
1.0
 49
1.0
140
1.0
293
     1
141
0.0
294
     1
177
     0
142
1.0
295
     0
296
     0
143
0.125
1001
ACAD_MLEADERVER
1070
     2
  0
MLINESTYLE
  5
13
102
{ACAD_REACTORS
330
E
102
}
330
E
100
AcDbMlineStyle
  2
STANDARD
 70
     0
  3

 62
     0
 51
90.0
 52
90.0
 71
     2
 49
0.5
 62
   256
  6
BYLAYER
 49
-0.5
 62
   256
  6
BYLAYER
  0
ACDBPLACEHOLDER
  5
159
102
{ACAD_REACTORS
330
158
102
}
330
158
  0
SCALE
  5
A57
102
{ACAD_REACTORS
330
A56
102
}
330
A56
100
AcDbScale
 70
     0
300
1:1
140
1.0
141
1.0
290
     1
  0
SCALE
  5
A58
102
{ACAD_REACTORS
330
A56
102
}
330
A56
100
AcDbScale
 70
     0
300
1:2
140
1.0
141
2.0
290
     0
  0
SCALE
  5
A59
102
{ACAD_REACTORS
330
A56
102
}
330
A56
100
AcDbScale
 70
     0
300
1:4
140
1.0
141
4.0
290
     0
  0
SCALE
  5
A5A
102
{ACAD_REACTORS
330
A56
102
}
330
A56
100
AcDbScale
 70
     0
300
1:5
140
1.0
141
5.0
290
     0
  0
SCALE
  5
A5B
102
{ACAD_REACTORS
330
A56
102
}
330
A56
100
AcDbScale
 70
     0
300
1:8
140
1.0
141
8.0
290
     0
  0
SCALE
  5
A5C
102
{ACAD_REACTORS
330
A56
102
}
330
A56
100
AcDbScale
 70
     0
300
1:10
140
1.0
141
10.0
290
     0
  0
SCALE
  5
A5D
102
{ACAD_REACTORS
330
A56
102
}
330
A56
100
AcDbScale
 70
     0
300
1:16
140
1.0
141
16.0
290
     0
  0
SCALE
  5
A5E
102
{ACAD_REACTORS
330
A56
102
}
330
A56
100
AcDbScale
 70
     0
300
1:20
140
1.0
141
20.0
290
     0
  0
SCALE
  5
A5F
102
{ACAD_REACTORS
330
A56
102
}
330
A56
100
AcDbScale
 70
     0
300
1:30
140
1.0
141
30.0
290
     0
  0
SCALE
  5
A60
102
{ACAD_REACTORS
330
A56
102
}
330
A56
100
AcDbScale
 70
     0
300
1:40
140
1.0
141
40.0
290
     0
  0
SCALE
  5
A61
102
{ACAD_REACTORS
330
A56
102
}
330
A56
100
AcDbScale
 70
     0
300
1:50
140
1.0
141
50.0
290
     0
  0
SCALE
  5
A62
102
{ACAD_REACTORS
330
A56
102
}
330
A56
100
AcDbScale
 70
     0
300
1:100
140
1.0
141
100.0
290
     0
  0
SCALE
  5
A63
102
{ACAD_REACTORS
330
A56
102
}
330
A56
100
AcDbScale
 70
     0
300
2:1
140
2.0
141
1.0
290
     0
  0
SCALE
  5
A64
102
{ACAD_REACTORS
330
A56
102
}
330
A56
100
AcDbScale
 70
     0
300
4:1
140
4.0
141
1.0
290
     0
  0
SCALE
  5
A65
102
{ACAD_REACTORS
330
A56
102
}
330
A56
100
AcDbScale
 70
     0
300
8:1
140
8.0
141
1.0
290
     0
  0
SCALE
  5
A66
102
{ACAD_REACTORS
330
A56
102
}
330
A56
100
AcDbScale
 70
     0
300
10:1
140
10.0
141
1.0
290
     0
  0
SCALE
  5
A67
102
{ACAD_REACTORS
330
A56
102
}
330
A56
100
AcDbScale
 70
     0
300
100:1
140
100.0
141
1.0
290
     0
  0
TABLESTYLE
  5
A55
102
{ACAD_XDICTIONARY
360
A90
102
}
102
{ACAD_REACTORS
330
A54
102
}
330
A54
100
AcDbTableStyle
  3
Standard
 70
     0
 71
     0
 40
1.5
 41
1.5
280
     0
281
     0
  7
STANDARD
140
4.5
170
     2
 62
     0
 63
     7
283
     0
274
    -2
284
     1
 64
     0
275
    -2
285
     1
 65
     0
276
    -2
286
     1
 66
     0
277
    -2
287
     1
 67
     0
278
    -2
288
     1
 68
     0
279
    -2
289
     1
 69
     0
  7
STANDARD
140
6.0
170
     5
 62
     0
 63
     7
283
     0
274
    -2
284
     1
 64
     0
275
    -2
285
     1
 65
     0
276
    -2
286
     1
 66
     0
277
    -2
287
     1
 67
     0
278
    -2
288
     1
 68
     0
279
    -2
289
     1
 69
     0
  7
STANDARD
140
4.5
170
     5
 62
     0
 63
     7
283
     0
274
    -2
284
     1
 64
     0
275
    -2
285
     1
 65
     0
276
    -2
286
     1
 66
     0
277
    -2
287
     1
 67
     0
278
    -2
288
     1
 68
     0
279
    -2
289
     1
 69
     0
  0
VISUALSTYLE
  5
A40
102
{ACAD_XDICTIONARY
360
AA9
102
}
102
{ACAD_REACTORS
330
A3A
102
}
330
A3A
100
AcDbVisualStyle
  2
2dWireframe
 70
     4
 71
     0
 72
     2
 73
     0
 90
        0
 40
-0.6
 41
-30.0
 62
     5
 63
     7
 74
     1
 91
        4
 64
     7
 65
   257
 75
     1
175
     1
 42
1.0
 92
        0
 66
   257
 43
1.0
 76
     1
 77
     6
 78
     2
 67
     7
 79
     5
170
     0
171
     0
290
     0
174
     0
 93
        1
 44
0.0
173
     0
291
     0
 45
0.0
1001
ACAD
1000
AcDbSavedByObjectVersion
1070
     0
  0
VISUALSTYLE
  5
A3F
102
{ACAD_XDICTIONARY
360
AA7
102
}
102
{ACAD_REACTORS
330
A3A
102
}
330
A3A
100
AcDbVisualStyle
  2
Basic
 70
     7
 71
     1
 72
     0
 73
     1
 90
        0
 40
-0.6
 41
-30.0
 62
     5
 63
     7
 74
     0
 91
        4
 64
     7
 65
   257
 75
     1
175
     1
 42
1.0
 92
        8
 66
     7
 43
1.0
 76
     1
 77
     6
 78
     2
 67
     7
 79
     5
170
     0
171
     0
290
     0
174
     0
 93
        1
 44
0.0
173
     0
291
     1
 45
0.0
1001
ACAD
1000
AcDbSavedByObjectVersion
1070
     0
  0
VISUALSTYLE
  5
A46
102
{ACAD_XDICTIONARY
360
AB5
102
}
102
{ACAD_REACTORS
330
A3A
102
}
330
A3A
100
AcDbVisualStyle
  2
Brighten
 70
    12
 71
     2
 72
     2
 73
     0
 90
        0
 40
-0.6
 41
-30.0
 62
     5
 63
     7
 74
     1
 91
        4
 64
     7
 65
   257
 75
     1
175
     1
 42
1.0
 92
        8
 66
     7
 43
1.0
 76
     1
 77
     6
 78
     2
 67
     7
 79
     5
170
     0
171
     0
290
     0
174
     0
 93
        1
 44
50.0
173
     0
291
     1
 45
0.0
1001
ACAD
1000
AcDbSavedByObjectVersion
1070
     0
  0
VISUALSTYLE
  5
A4A
102
{ACAD_XDICTIONARY
360
ABD
102
}
102
{ACAD_REACTORS
330
A3A
102
}
330
A3A
100
AcDbVisualStyle
  2
ColorChange
 70
    16
 71
     2
 72
     2
 73
     3
 90
        0
 40
-0.6
 41
-30.0
 62
     5
 63
     8
 74
     1
 91
        4
 64
     7
 65
   257
 75
     1
175
     1
 42
1.0
 92
        8
 66
     8
 43
1.0
 76
     1
 77
     6
 78
     2
 67
     7
 79
     5
170
     0
171
     0
290
     0
174
     0
 93
        1
 44
0.0
173
     0
291
     1
 45
0.0
1001
ACAD
1000
AcDbSavedByObjectVersion
1070
     0
  0
VISUALSTYLE
  5
A43
102
{ACAD_XDICTIONARY
360
AAF
102
}
102
{ACAD_REACTORS
330
A3A
102
}
330
A3A
100
AcDbVisualStyle
  2
Conceptual
 70
     9
 71
     3
 72
     2
 73
     0
 90
        0
 40
-0.6
 41
-30.0
 62
     5
 63
     7
 74
     2
 91
        2
 64
     7
 65
   257
 75
     1
175
     1
 42
179.0
 92
        8
 66
     7
 43
1.0
 76
     1
 77
     6
 78
     2
 67
     7
 79
     3
170
     0
171
     0
290
     0
174
     0
 93
        1
 44
0.0
173
     0
291
     0
 45
0.0
1001
ACAD
1000
AcDbSavedByObjectVersion
1070
     0
  0
VISUALSTYLE
  5
A45
102
{ACAD_XDICTIONARY
360
AB3
102
}
102
{ACAD_REACTORS
330
A3A
102
}
330
A3A
100
AcDbVisualStyle
  2
Dim
 70
    11
 71
     2
 72
     2
 73
     0
 90
        0
 40
-0.6
 41
-30.0
 62
     5
 63
     7
 74
     1
 91
        4
 64
     7
 65
   257
 75
     1
175
     1
 42
1.0
 92
        8
 66
     7
 43
1.0
 76
     1
 77
     6
 78
     2
 67
     7
 79
     5
170
     0
171
     0
290
     0
174
     0
 93
        1
 44
-50.0
173
     0
291
     1
 45
0.0
1001
ACAD
1000
AcDbSavedByObjectVersion
1070
     0
  0
VISUALSTYLE
  5
A52
102
{ACAD_XDICTIONARY
360
ACD
102
}
102
{ACAD_REACTORS
330
A3A
102
}
330
A3A
100
AcDbVisualStyle
  2
EdgeColorOff
 70
    22
 71
     2
 72
     2
 73
     0
 90
        0
 40
-0.6
 41
-30.0
 62
     5
 63
     7
 74
     1
 91
        4
 64
     7
 65
   257
 75
     1
175
     1
 42
1.0
 92
        8
 66
     7
 43
1.0
 76
     1
 77
     6
 78
     2
 67
     7
 79
     5
170
     0
171
     0
290
     0
174
     0
 93
        1
 44
0.0
173
     0
291
     1
 45
0.0
1001
ACAD
1000
AcDbSavedByObjectVersion
1070
     0
  0
VISUALSTYLE
  5
A49
102
{ACAD_XDICTIONARY
360
ABB
102
}
102
{ACAD_REACTORS
330
A3A
102
}
330
A3A
100
AcDbVisualStyle
  2
Facepattern
 70
    15
 71
     2
 72
     2
 73
     0
 90
        0
 40
-0.6
 41
-30.0
 62
     5
 63
     7
 74
     1
 91
        4
 64
     7
 65
   257
 75
     1
175
     1
 42
1.0
 92
        8
 66
     7
 43
1.0
 76
     1
 77
     6
 78
     2
 67
     7
 79
     5
170
     0
171
     0
290
     0
174
     0
 93
        1
 44
0.0
173
     0
291
     1
 45
0.0
1001
ACAD
1000
AcDbSavedByObjectVersion
1070
     0
  0
VISUALSTYLE
  5
A3B
102
{ACAD_XDICTIONARY
360
A9F
102
}
102
{ACAD_REACTORS
330
A3A
102
}
330
A3A
100
AcDbVisualStyle
  2
Flat
 70
     0
 71
     2
 72
     1
 73
     1
 90
        2
 40
-0.6
 41
30.0
 62
     5
 63
     7
 74
     0
 91
        0
 64
     7
 65
   257
 75
     1
175
     1
 42
1.0
 92
        8
 66
     7
 43
1.0
 76
     1
 77
     6
 78
     2
 67
     7
 79
     5
170
     0
171
     0
290
     0
174
     0
 93
       13
 44
0.0
173
     0
291
     1
 45
0.0
1001
ACAD
1000
AcDbSavedByObjectVersion
1070
     0
  0
VISUALSTYLE
  5
A3C
102
{ACAD_XDICTIONARY
360
AA1
102
}
102
{ACAD_REACTORS
330
A3A
102
}
330
A3A
100
AcDbVisualStyle
  2
FlatWithEdges
 70
     1
 71
     2
 72
     1
 73
     1
 90
        2
 40
-0.6
 41
30.0
 62
     5
 63
     7
 74
     1
 91
        0
 64
     7
 65
   257
 75
     1
175
     1
 42
1.0
 92
        0
 66
   257
 43
1.0
 76
     1
 77
     6
 78
     2
 67
     7
 79
     5
170
     0
171
     0
290
     0
174
     0
 93
       13
 44
0.0
173
     0
291
     1
 45
0.0
1001
ACAD
1000
AcDbSavedByObjectVersion
1070
     0
  0
VISUALSTYLE
  5
A3D
102
{ACAD_XDICTIONARY
360
AA3
102
}
102
{ACAD_REACTORS
330
A3A
102
}
330
A3A
100
AcDbVisualStyle
  2
Gouraud
 70
     2
 71
     2
 72
     2
 73
     1
 90
        2
 40
-0.6
 41
30.0
 62
     5
 63
     7
 74
     0
 91
        0
 64
     7
 65
   257
 75
     1
175
     1
 42
1.0
 92
        0
 66
     7
 43
1.0
 76
     1
 77
     6
 78
     2
 67
     7
 79
     5
170
     0
171
     0
290
     0
174
     0
 93
       13
 44
0.0
173
     0
291
     1
 45
0.0
1001
ACAD
1000
AcDbSavedByObjectVersion
1070
     0
  0
VISUALSTYLE
  5
A3E
102
{ACAD_XDICTIONARY
360
AA5
102
}
102
{ACAD_REACTORS
330
A3A
102
}
330
A3A
100
AcDbVisualStyle
  2
GouraudWithEdges
 70
     3
 71
     2
 72
     2
 73
     1
 90
        2
 40
-0.6
 41
30.0
 62
     5
 63
     7
 74
     1
 91
        0
 64
     7
 65
   257
 75
     1
175
     1
 42
1.0
 92
        0
 66
   257
 43
1.0
 76
     1
 77
     6
 78
     2
 67
     7
 79
     5
170
     0
171
     0
290
     0
174
     0
 93
       13
 44
0.0
173
     0
291
     1
 45
0.0
1001
ACAD
1000
AcDbSavedByObjectVersion
1070
     0
  0
VISUALSTYLE
  5
A42
102
{ACAD_XDICTIONARY
360
AAD
102
}
102
{ACAD_REACTORS
330
A3A
102
}
330
A3A
100
AcDbVisualStyle
  2
Hidden
 70
     6
 71
     1
 72
     2
 73
     2
 90
        0
 40
-0.6
 41
-30.0
 62
     5
 63
     7
 74
     2
 91
        2
 64
     7
 65
   257
 75
     2
175
     1
 42
40.0
 92
        0
 66
   257
 43
1.0
 76
     1
 77
     6
 78
     2
 67
     7
 79
     3
170
     0
171
     0
290
     0
174
     0
 93
        1
 44
0.0
173
     0
291
     0
 45
0.0
1001
ACAD
1000
AcDbSavedByObjectVersion
1070
     0
  0
VISUALSTYLE
  5
A50
102
{ACAD_XDICTIONARY
360
AC9
102
}
102
{ACAD_REACTORS
330
A3A
102
}
330
A3A
100
AcDbVisualStyle
  2
JitterOff
 70
    20
 71
     2
 72
     2
 73
     0
 90
        0
 40
-0.6
 41
-30.0
 62
     5
 63
     7
 74
     1
 91
        4
 64
     7
 65
   257
 75
     1
175
     1
 42
1.0
 92
       10
 66
     7
 43
1.0
 76
     1
 77
     6
 78
     2
 67
     7
 79
     5
170
     0
171
     0
290
     0
174
     0
 93
        1
 44
0.0
173
     0
291
     1
 45
0.0
1001
ACAD
1000
AcDbSavedByObjectVersion
1070
     0
  0
VISUALSTYLE
  5
A48
102
{ACAD_XDICTIONARY
360
AB9
102
}
102
{ACAD_REACTORS
330
A3A
102
}
330
A3A
100
AcDbVisualStyle
  2
Linepattern
 70
    14
 71
     2
 72
     2
 73
     0
 90
        0
 40
-0.6
 41
-30.0
 62
     5
 63
     7
 74
     1
 91
        4
 64
     7
 65
   257
 75
     7
175
     7
 42
1.0
 92
        8
 66
     7
 43
1.0
 76
     1
 77
     6
 78
     2
 67
     7
 79
     5
170
     0
171
     0
290
     0
174
     0
 93
        1
 44
0.0
173
     0
291
     1
 45
0.0
1001
ACAD
1000
AcDbSavedByObjectVersion
1070
     0
  0
VISUALSTYLE
  5
A51
102
{ACAD_XDICTIONARY
360
ACB
102
}
102
{ACAD_REACTORS
330
A3A
102
}
330
A3A
100
AcDbVisualStyle
  2
OverhangOff
 70
    21
 71
     2
 72
     2
 73
     0
 90
        0
 40
-0.6
 41
-30.0
 62
     5
 63
     7
 74
     1
 91
        4
 64
     7
 65
   257
 75
     1
175
     1
 42
1.0
 92
        9
 66
     7
 43
1.0
 76
     1
 77
     6
 78
     2
 67
     7
 79
     5
170
     0
171
     0
290
     0
174
     0
 93
        1
 44
0.0
173
     0
291
     1
 45
0.0
1001
ACAD
1000
AcDbSavedByObjectVersion
1070
     0
  0
VISUALSTYLE
  5
A44
102
{ACAD_XDICTIONARY
360
AB1
102
}
102
{ACAD_REACTORS
330
A3A
102
}
330
A3A
100
AcDbVisualStyle
  2
Realistic
 70
     8
 71
     2
 72
     3
 73
     0
 90
        2
 40
-0.6
 41
30.0
 62
     5
 63
     7
 74
     0
 91
        0
 64
     7
 65
   257
 75
     1
175
     1
 42
1.0
 92
        8
 66
   257
 43
1.0
 76
     1
 77
     6
 78
     2
 67
     7
 79
     3
170
     0
171
     0
290
     0
174
     0
 93
       13
 44
0.0
173
     0
291
     0
 45
0.0
1001
ACAD
1000
AcDbSavedByObjectVersion
1070
     0
  0
VISUALSTYLE
  5
A4F
102
{ACAD_XDICTIONARY
360
AC7
102
}
102
{ACAD_REACTORS
330
A3A
102
}
330
A3A
100
AcDbVisualStyle
  2
Shaded
 70
    27
 71
     2
 72
     2
 73
     1
 90
        2
 40
-0.6
 41
30.0
 62
     5
 63
     7
 74
     0
 91
        4
 64
     7
 65
   257
 75
     1
175
     1
 42
1.0
 92
        8
 66
   257
 43
1.0
 76
     1
 77
     6
 78
     2
 67
     8
 79
     3
170
     0
171
     0
290
     0
174
     0
 93
        5
 44
0.0
173
     0
291
     0
 45
0.0
1001
ACAD
1000
AcDbSavedByObjectVersion
1070
     0
  0
VISUALSTYLE
  5
A4E
102
{ACAD_XDICTIONARY
360
AC5
102
}
102
{ACAD_REACTORS
330
A3A
102
}
330
A3A
100
AcDbVisualStyle
  2
Shaded with edges
 70
    26
 71
     2
 72
     2
 73
     1
 90
        2
 40
-0.6
 41
30.0
 62
     5
 63
     7
 74
     1
 91
       10
 64
     7
 65
   257
 75
     2
175
     1
 42
1.0
 92
        8
 66
   257
 43
1.0
 76
     1
 77
     6
 78
     2
 67
     7
 79
     3
170
     0
171
     0
290
     0
174
     0
 93
        5
 44
0.0
173
     0
291
     0
 45
0.0
1001
ACAD
1000
AcDbSavedByObjectVersion
1070
     0
  0
VISUALSTYLE
  5
A4B
102
{ACAD_XDICTIONARY
360
ABF
102
}
102
{ACAD_REACTORS
330
A3A
102
}
330
A3A
100
AcDbVisualStyle
  2
Shades of Gray
 70
    23
 71
     2
 72
     2
 73
     3
 90
        0
 40
-0.6
 41
-30.0
 62
     5
 63
     7
 74
     2
 91
        2
 64
     7
 65
     7
 75
     1
175
     1
 42
40.0
 92
        8
 66
     7
 43
1.0
 76
     1
 77
     6
 78
     2
 67
     7
 79
     3
170
     0
171
     0
290
     0
174
     0
 93
        1
 44
0.0
173
     0
291
     0
 45
0.0
1001
ACAD
1000
AcDbSavedByObjectVersion
1070
     0
  0
VISUALSTYLE
  5
A4C
102
{ACAD_XDICTIONARY
360
AC1
102
}
102
{ACAD_REACTORS
330
A3A
102
}
330
A3A
100
AcDbVisualStyle
  2
Sketchy
 70
    24
 71
     1
 72
     2
 73
     2
 90
        0
 40
-0.6
 41
-30.0
 62
     5
 63
     7
 74
     2
 91
        2
 64
     7
 65
     7
 75
     1
175
     1
 42
40.0
 92
       11
 66
     7
 43
1.0
 76
     1
 77
     6
 78
     2
 67
     7
 79
     6
170
     0
171
     0
290
     0
174
     0
 93
        1
 44
0.0
173
     0
291
     0
 45
0.0
1001
ACAD
1000
AcDbSavedByObjectVersion
1070
     0
  0
VISUALSTYLE
  5
A47
102
{ACAD_XDICTIONARY
360
AB7
102
}
102
{ACAD_REACTORS
330
A3A
102
}
330
A3A
100
AcDbVisualStyle
  2
Thicken
 70
    13
 71
     2
 72
     2
 73
     0
 90
        0
 40
-0.6
 41
-30.0
 62
     5
 63
     7
 74
     1
 91
        4
 64
     7
 65
   257
 75
     1
175
     1
 42
1.0
 92
       12
 66
     7
 43
1.0
 76
     1
 77
     6
 78
     2
 67
     7
 79
     5
170
     0
171
     0
290
     0
174
     0
 93
        1
 44
0.0
173
     0
291
     1
 45
0.0
1001
ACAD
1000
AcDbSavedByObjectVersion
1070
     0
  0
VISUALSTYLE
  5
A41
102
{ACAD_XDICTIONARY
360
AAB
102
}
102
{ACAD_REACTORS
330
A3A
102
}
330
A3A
100
AcDbVisualStyle
  2
Wireframe
 70
     5
 71
     0
 72
     2
 73
     0
 90
        0
 40
-0.6
 41
-30.0
 62
     5
 63
     7
 74
     1
 91
        4
 64
     7
 65
   257
 75
     1
175
     1
 42
1.0
 92
        0
 66
   257
 43
1.0
 76
     1
 77
     6
 78
     2
 67
     7
 79
     3
170
     0
171
     0
290
     0
174
     0
 93
        1
 44
0.0
173
     0
291
     0
 45
0.0
1001
ACAD
1000
AcDbSavedByObjectVersion
1070
     0
  0
VISUALSTYLE
  5
A4D
102
{ACAD_XDICTIONARY
360
AC3
102
}
102
{ACAD_REACTORS
330
A3A
102
}
330
A3A
100
AcDbVisualStyle
  2
X-Ray
 70
    25
 71
     2
 72
     2
 73
     1
 90
        1
 40
0.5
 41
-30.0
 62
     5
 63
     7
 74
     1
 91
        0
 64
     7
 65
   257
 75
     1
175
     1
 42
1.0
 92
        8
 66
     7
 43
1.0
 76
     1
 77
     6
 78
     2
 67
     7
 79
     3
170
     0
171
     0
290
     0
174
     0
 93
       13
 44
0.0
173
     0
291
     0
 45
0.0
1001
ACAD
1000
AcDbSavedByObjectVersion
1070
     0
  0
DICTIONARYVAR
  5
A8B
102
{ACAD_REACTORS
330
A88
102
}
330
A88
100
DictionaryVariables
280
     0
  1
1:1
  0
DICTIONARYVAR
  5
A8A
102
{ACAD_REACTORS
330
A88
102
}
330
A88
100
DictionaryVariables
280
     0
  1
STANDARD
  0
DICTIONARYVAR
  5
A89
102
{ACAD_REACTORS
330
A88
102
}
330
A88
100
DictionaryVariables
280
     0
  1
STANDARD
  0
DICTIONARYVAR
  5
A8E
102
{ACAD_REACTORS
330
A88
102
}
330
A88
100
DictionaryVariables
280
     0
  1
1
  0
DICTIONARYVAR
  5
A8D
102
{ACAD_REACTORS
330
A88
102
}
330
A88
100
DictionaryVariables
280
     0
  1
0
  0
DICTIONARYVAR
  5
A8C
102
{ACAD_REACTORS
330
A88
102
}
330
A88
100
DictionaryVariables
280
     0
  1
127
  0
DICTIONARYVAR
  5
A8F
102
{ACAD_REACTORS
330
A88
102
}
330
A88
100
DictionaryVariables
280
     0
  1
2
  0
DICTIONARY
  5
A98
330
15C
100
AcDbDictionary
280
     1
281
     1
  3
ACAD_XREC_ROUNDTRIP
360
A99
  0
DICTIONARY
  5
A9A
330
15D
100
AcDbDictionary
280
     1
281
     1
  3
ACAD_XREC_ROUNDTRIP
360
A9B
  0
DICTIONARY
  5
A2B
330
A2A
100
AcDbDictionary
280
     1
281
     1
  3
ACAD_XREC_ROUNDTRIP
360
A9D
  3
BUMPTILE
360
A2D
  3
DIFFUSETILE
360
A2C
  3
OPACITYTILE
360
A30
  3
REFLECTIONTILE
360
A2F
  3
REFRACTIONTILE
360
A31
  3
SPECULARTILE
360
A2E
  0
DICTIONARY
  5
A23
330
A22
100
AcDbDictionary
280
     1
281
     1
  3
ACAD_XREC_ROUNDTRIP
360
A9C
  3
BUMPTILE
360
A25
  3
DIFFUSETILE
360
A24
  3
OPACITYTILE
360
A28
  3
REFLECTIONTILE
360
A27
  3
REFRACTIONTILE
360
A29
  3
SPECULARTILE
360
A26
  0
DICTIONARY
  5
A33
330
A32
100
AcDbDictionary
280
     1
281
     1
  3
ACAD_XREC_ROUNDTRIP
360
A9E
  3
BUMPTILE
360
A35
  3
DIFFUSETILE
360
A34
  3
OPACITYTILE
360
A38
  3
REFLECTIONTILE
360
A37
  3
REFRACTIONTILE
360
A39
  3
SPECULARTILE
360
A36
  0
DICTIONARY
  5
A90
330
A55
100
AcDbDictionary
280
     1
281
     1
  3
ACAD_ROUNDTRIP_2008_TABLESTYLE_CELLSTYLEMAP
360
A91
  3
ACAD_XREC_ROUNDTRIP
360
ACF
  0
DICTIONARY
  5
AA9
330
A40
100
AcDbDictionary
280
     1
281
     1
  3
ACAD_XREC_ROUNDTRIP
360
AAA
  0
DICTIONARY
  5
AA7
330
A3F
100
AcDbDictionary
280
     1
281
     1
  3
ACAD_XREC_ROUNDTRIP
360
AA8
  0
DICTIONARY
  5
AB5
330
A46
100
AcDbDictionary
280
     1
281
     1
  3
ACAD_XREC_ROUNDTRIP
360
AB6
  0
DICTIONARY
  5
ABD
330
A4A
100
AcDbDictionary
280
     1
281
     1
  3
ACAD_XREC_ROUNDTRIP
360
ABE
  0
DICTIONARY
  5
AAF
330
A43
100
AcDbDictionary
280
     1
281
     1
  3
ACAD_XREC_ROUNDTRIP
360
AB0
  0
DICTIONARY
  5
AB3
330
A45
100
AcDbDictionary
280
     1
281
     1
  3
ACAD_XREC_ROUNDTRIP
360
AB4
  0
DICTIONARY
  5
ACD
330
A52
100
AcDbDictionary
280
     1
281
     1
  3
ACAD_XREC_ROUNDTRIP
360
ACE
  0
DICTIONARY
  5
ABB
330
A49
100
AcDbDictionary
280
     1
281
     1
  3
ACAD_XREC_ROUNDTRIP
360
ABC
  0
DICTIONARY
  5
A9F
330
A3B
100
AcDbDictionary
280
     1
281
     1
  3
ACAD_XREC_ROUNDTRIP
360
AA0
  0
DICTIONARY
  5
AA1
330
A3C
100
AcDbDictionary
280
     1
281
     1
  3
ACAD_XREC_ROUNDTRIP
360
AA2
  0
DICTIONARY
  5
AA3
330
A3D
100
AcDbDictionary
280
     1
281
     1
  3
ACAD_XREC_ROUNDTRIP
360
AA4
  0
DICTIONARY
  5
AA5
330
A3E
100
AcDbDictionary
280
     1
281
     1
  3
ACAD_XREC_ROUNDTRIP
360
AA6
  0
DICTIONARY
  5
AAD
330
A42
100
AcDbDictionary
280
     1
281
     1
  3
ACAD_XREC_ROUNDTRIP
360
AAE
  0
DICTIONARY
  5
AC9
330
A50
100
AcDbDictionary
280
     1
281
     1
  3
ACAD_XREC_ROUNDTRIP
360
ACA
  0
DICTIONARY
  5
AB9
330
A48
100
AcDbDictionary
280
     1
281
     1
  3
ACAD_XREC_ROUNDTRIP
360
ABA
  0
DICTIONARY
  5
ACB
330
A51
100
AcDbDictionary
280
     1
281
     1
  3
ACAD_XREC_ROUNDTRIP
360
ACC
  0
DICTIONARY
  5
AB1
330
A44
100
AcDbDictionary
280
     1
281
     1
  3
ACAD_XREC_ROUNDTRIP
360
AB2
  0
DICTIONARY
  5
AC7
330
A4F
100
AcDbDictionary
280
     1
281
     1
  3
ACAD_XREC_ROUNDTRIP
360
AC8
  0
DICTIONARY
  5
AC5
330
A4E
100
AcDbDictionary
280
     1
281
     1
  3
ACAD_XREC_ROUNDTRIP
360
AC6
  0
DICTIONARY
  5
ABF
330
A4B
100
AcDbDictionary
280
     1
281
     1
  3
ACAD_XREC_ROUNDTRIP
360
AC0
  0
DICTIONARY
  5
AC1
330
A4C
100
AcDbDictionary
280
     1
281
     1
  3
ACAD_XREC_ROUNDTRIP
360
AC2
  0
DICTIONARY
  5
AB7
330
A47
100
AcDbDictionary
280
     1
281
     1
  3
ACAD_XREC_ROUNDTRIP
360
AB8
  0
DICTIONARY
  5
AAB
330
A41
100
AcDbDictionary
280
     1
281
     1
  3
ACAD_XREC_ROUNDTRIP
360
AAC
  0
DICTIONARY
  5
AC3
330
A4D
100
AcDbDictionary
280
     1
281
     1
  3
ACAD_XREC_ROUNDTRIP
360
AC4
  0
XRECORD
  5
A99
102
{ACAD_REACTORS
330
A98
102
}
330
A98
100
AcDbXrecord
280
     1
102
SHADEPLOT
 70
     0
102
SHADEPLOTRESLEVEL
 70
     2
102
SHADEPLOTCUSTOMDPI
 70
   300
  0
XRECORD
  5
A9B
102
{ACAD_REACTORS
330
A9A
102
}
330
A9A
100
AcDbXrecord
280
     1
102
SHADEPLOT
 70
     0
102
SHADEPLOTRESLEVEL
 70
     2
102
SHADEPLOTCUSTOMDPI
 70
   300
  0
XRECORD
  5
A9D
102
{ACAD_REACTORS
330
A2B
102
}
330
A2B
100
AcDbXrecord
280
     1
102
MATERIAL
148
0.0
149
0.0
149
0.0
 93
        0
 94
      127
282
     0
 72
     0
 77
     0
171
     0
175
     0
179
     0
273
     0
  0
XRECORD
  5
A2D
102
{ACAD_REACTORS
330
A2B
102
}
330
A2B
100
AcDbXrecord
280
     1
270
     1
271
     1
  0
XRECORD
  5
A2C
102
{ACAD_REACTORS
330
A2B
102
}
330
A2B
100
AcDbXrecord
280
     1
270
     1
271
     1
  0
XRECORD
  5
A30
102
{ACAD_REACTORS
330
A2B
102
}
330
A2B
100
AcDbXrecord
280
     1
270
     1
271
     1
  0
XRECORD
  5
A2F
102
{ACAD_REACTORS
330
A2B
102
}
330
A2B
100
AcDbXrecord
280
     1
270
     1
271
     1
  0
XRECORD
  5
A31
102
{ACAD_REACTORS
330
A2B
102
}
330
A2B
100
AcDbXrecord
280
     1
270
     1
271
     1
  0
XRECORD
  5
A2E
102
{ACAD_REACTORS
330
A2B
102
}
330
A2B
100
AcDbXrecord
280
     1
270
     1
271
     1
  0
XRECORD
  5
A9C
102
{ACAD_REACTORS
330
A23
102
}
330
A23
100
AcDbXrecord
280
     1
102
MATERIAL
148
0.0
149
0.0
149
0.0
 93
        0
 94
      127
282
     0
 72
     0
 77
     0
171
     0
175
     0
179
     0
273
     0
  0
XRECORD
  5
A25
102
{ACAD_REACTORS
330
A23
102
}
330
A23
100
AcDbXrecord
280
     1
270
     1
271
     1
  0
XRECORD
  5
A24
102
{ACAD_REACTORS
330
A23
102
}
330
A23
100
AcDbXrecord
280
     1
270
     1
271
     1
  0
XRECORD
  5
A28
102
{ACAD_REACTORS
330
A23
102
}
330
A23
100
AcDbXrecord
280
     1
270
     1
271
     1
  0
XRECORD
  5
A27
102
{ACAD_REACTORS
330
A23
102
}
330
A23
100
AcDbXrecord
280
     1
270
     1
271
     1
  0
XRECORD
  5
A29
102
{ACAD_REACTORS
330
A23
102
}
330
A23
100
AcDbXrecord
280
     1
270
     1
271
     1
  0
XRECORD
  5
A26
102
{ACAD_REACTORS
330
A23
102
}
330
A23
100
AcDbXrecord
280
     1
270
     1
271
     1
  0
XRECORD
  5
A9E
102
{ACAD_REACTORS
330
A33
102
}
330
A33
100
AcDbXrecord
280
     1
102
MATERIAL
148
0.0
149
0.0
149
0.0
 93
        0
 94
      127
282
     0
 72
     0
 77
     0
171
     0
175
     0
179
     0
273
     0
  0
XRECORD
  5
A35
102
{ACAD_REACTORS
330
A33
102
}
330
A33
100
AcDbXrecord
280
     1
270
     1
271
     1
  0
XRECORD
  5
A34
102
{ACAD_REACTORS
330
A33
102
}
330
A33
100
AcDbXrecord
280
     1
270
     1
271
     1
  0
XRECORD
  5
A38
102
{ACAD_REACTORS
330
A33
102
}
330
A33
100
AcDbXrecord
280
     1
270
     1
271
     1
  0
XRECORD
  5
A37
102
{ACAD_REACTORS
330
A33
102
}
330
A33
100
AcDbXrecord
280
     1
270
     1
271
     1
  0
XRECORD
  5
A39
102
{ACAD_REACTORS
330
A33
102
}
330
A33
100
AcDbXrecord
280
     1
270
     1
271
     1
  0
XRECORD
  5
A36
102
{ACAD_REACTORS
330
A33
102
}
330
A33
100
AcDbXrecord
280
     1
270
     1
271
     1
  0
CELLSTYLEMAP
  5
A91
102
{ACAD_REACTORS
330
A90
102
}
330
A90
100
AcDbCellStyleMap
 90
        3
300
CELLSTYLE
  1
TABLEFORMAT_BEGIN
 90
        5
170
     1
 91
        0
 92
    32768
 62
   257
 93
        1
300
CONTENTFORMAT
  1
CONTENTFORMAT_BEGIN
 90
        0
 91
        0
 92
      512
 93
        0
300

 40
0.0
140
1.0
 94
        5
 62
     0
340
10
144
6.0
309
CONTENTFORMAT_END
171
     1
301
MARGIN
  1
CELLMARGIN_BEGIN
 40
1.5
 40
1.5
 40
1.5
 40
1.5
 40
4.5
 40
4.5
309
CELLMARGIN_END
 94
        6
 95
        1
302
GRIDFORMAT
  1
GRIDFORMAT_BEGIN
 90
        0
 91
        1
 62
     0
 92
       -2
340
0
 93
        0
 40
1.125
309
GRIDFORMAT_END
 95
        2
302
GRIDFORMAT
  1
GRIDFORMAT_BEGIN
 90
        0
 91
        1
 62
     0
 92
       -2
340
0
 93
        0
 40
1.125
309
GRIDFORMAT_END
 95
        4
302
GRIDFORMAT
  1
GRIDFORMAT_BEGIN
 90
        0
 91
        1
 62
     0
 92
       -2
340
0
 93
        0
 40
1.125
309
GRIDFORMAT_END
 95
        8
302
GRIDFORMAT
  1
GRIDFORMAT_BEGIN
 90
        0
 91
        1
 62
     0
 92
       -2
340
0
 93
        0
 40
1.125
309
GRIDFORMAT_END
 95
       16
302
GRIDFORMAT
  1
GRIDFORMAT_BEGIN
 90
        0
 91
        1
 62
     0
 92
       -2
340
0
 93
        0
 40
1.125
309
GRIDFORMAT_END
 95
       32
302
GRIDFORMAT
  1
GRIDFORMAT_BEGIN
 90
        0
 91
        1
 62
     0
 92
       -2
340
0
 93
        0
 40
1.125
309
GRIDFORMAT_END
309
TABLEFORMAT_END
  1
CELLSTYLE_BEGIN
 90
        1
 91
        1
300
_TITLE
309
CELLSTYLE_END
300
CELLSTYLE
  1
TABLEFORMAT_BEGIN
 90
        5
170
     1
 91
        0
 92
        0
 62
   257
 93
        1
300
CONTENTFORMAT
  1
CONTENTFORMAT_BEGIN
 90
        0
 91
        0
 92
      512
 93
        0
300

 40
0.0
140
1.0
 94
        5
 62
     0
340
10
144
4.5
309
CONTENTFORMAT_END
171
     1
301
MARGIN
  1
CELLMARGIN_BEGIN
 40
1.5
 40
1.5
 40
1.5
 40
1.5
 40
4.5
 40
4.5
309
CELLMARGIN_END
 94
        6
 95
        1
302
GRIDFORMAT
  1
GRIDFORMAT_BEGIN
 90
        0
 91
        1
 62
     0
 92
       -2
340
0
 93
        0
 40
1.125
309
GRIDFORMAT_END
 95
        2
302
GRIDFORMAT
  1
GRIDFORMAT_BEGIN
 90
        0
 91
        1
 62
     0
 92
       -2
340
0
 93
        0
 40
1.125
309
GRIDFORMAT_END
 95
        4
302
GRIDFORMAT
  1
GRIDFORMAT_BEGIN
 90
        0
 91
        1
 62
     0
 92
       -2
340
0
 93
        0
 40
1.125
309
GRIDFORMAT_END
 95
        8
302
GRIDFORMAT
  1
GRIDFORMAT_BEGIN
 90
        0
 91
        1
 62
     0
 92
       -2
340
0
 93
        0
 40
1.125
309
GRIDFORMAT_END
 95
       16
302
GRIDFORMAT
  1
GRIDFORMAT_BEGIN
 90
        0
 91
        1
 62
     0
 92
       -2
340
0
 93
        0
 40
1.125
309
GRIDFORMAT_END
 95
       32
302
GRIDFORMAT
  1
GRIDFORMAT_BEGIN
 90
        0
 91
        1
 62
     0
 92
       -2
340
0
 93
        0
 40
1.125
309
GRIDFORMAT_END
309
TABLEFORMAT_END
  1
CELLSTYLE_BEGIN
 90
        2
 91
        1
300
_HEADER
309
CELLSTYLE_END
300
CELLSTYLE
  1
TABLEFORMAT_BEGIN
 90
        5
170
     1
 91
        0
 92
        0
 62
   257
 93
        1
300
CONTENTFORMAT
  1
CONTENTFORMAT_BEGIN
 90
        0
 91
        0
 92
      512
 93
        0
300

 40
0.0
140
1.0
 94
        2
 62
     0
340
10
144
4.5
309
CONTENTFORMAT_END
171
     1
301
MARGIN
  1
CELLMARGIN_BEGIN
 40
1.5
 40
1.5
 40
1.5
 40
1.5
 40
4.5
 40
4.5
309
CELLMARGIN_END
 94
        6
 95
        1
302
GRIDFORMAT
  1
GRIDFORMAT_BEGIN
 90
        0
 91
        1
 62
     0
 92
       -2
340
0
 93
        0
 40
1.125
309
GRIDFORMAT_END
 95
        2
302
GRIDFORMAT
  1
GRIDFORMAT_BEGIN
 90
        0
 91
        1
 62
     0
 92
       -2
340
0
 93
        0
 40
1.125
309
GRIDFORMAT_END
 95
        4
302
GRIDFORMAT
  1
GRIDFORMAT_BEGIN
 90
        0
 91
        1
 62
     0
 92
       -2
340
0
 93
        0
 40
1.125
309
GRIDFORMAT_END
 95
        8
302
GRIDFORMAT
  1
GRIDFORMAT_BEGIN
 90
        0
 91
        1
 62
     0
 92
       -2
340
0
 93
        0
 40
1.125
309
GRIDFORMAT_END
 95
       16
302
GRIDFORMAT
  1
GRIDFORMAT_BEGIN
 90
        0
 91
        1
 62
     0
 92
       -2
340
0
 93
        0
 40
1.125
309
GRIDFORMAT_END
 95
       32
302
GRIDFORMAT
  1
GRIDFORMAT_BEGIN
 90
        0
 91
        1
 62
     0
 92
       -2
340
0
 93
        0
 40
1.125
309
GRIDFORMAT_END
309
TABLEFORMAT_END
  1
CELLSTYLE_BEGIN
 90
        3
 91
        2
300
_DATA
309
CELLSTYLE_END
  0
XRECORD
  5
ACF
102
{ACAD_REACTORS
330
A90
102
}
330
A90
100
AcDbXrecord
280
     1
102
ACAD_ROUNDTRIP_PRE2007_TABLESTYLE
 90
      512
 91
        0
  1

 92
      512
 93
        0
  2

 94
      512
 95
        0
  3

  0
XRECORD
  5
AAA
102
{ACAD_REACTORS
330
AA9
102
}
330
AA9
100
AcDbXrecord
280
     1
102
RTVSPropertyOp0
 70
     1
102
RTVSPropertyOp1
 70
     1
102
RTVSPropertyOp2
 70
     1
102
RTVSPropertyOp3
 70
     1
102
RTVSPropertyOp4
 70
     1
102
RTVSPropertyOp5
 70
     1
102
RTVSPropertyOp6
 70
     1
102
RTVSPropertyOp7
 70
     1
102
RTVSPropertyOp8
 70
     1
102
RTVSPropertyOp9
 70
     1
102
RTVSPropertyOp10
 70
     1
102
RTVSPropertyOp11
 70
     1
102
RTVSPropertyOp12
 70
     1
102
RTVSPropertyOp13
 70
     1
102
RTVSPropertyOp14
 70
     1
102
RTVSPropertyOp15
 70
     1
102
RTVSPropertyOp16
 70
     1
102
RTVSPropertyOp17
 70
     1
102
RTVSPropertyOp18
 70
     1
102
RTVSPropertyOp19
 70
     1
102
RTVSPropertyOp20
 70
     1
102
RTVSPropertyOp21
 70
     1
102
RTVSPropertyOp22
 70
     1
102
RTVSPropertyOp23
 70
     1
102
RTVSPropertyOp24
 70
     1
102
RTVSPropertyOp25
 70
     1
102
RTVSPropertyOp26
 70
     1
102
RTVSPropertyOp27
 70
     1
102
RTVSPropertyOp28
 70
     1
102
RTVSPropertyOp29
 70
     1
102
RTVSPropertyOp30
 70
     1
102
RTVSPropertyOp31
 70
     1
102
RTVSPropertyOp32
 70
     1
  0
XRECORD
  5
AA8
102
{ACAD_REACTORS
330
AA7
102
}
330
AA7
100
AcDbXrecord
280
     1
102
RTVSPropertyOp0
 70
     1
102
RTVSPropertyOp1
 70
     1
102
RTVSPropertyOp2
 70
     1
102
RTVSPropertyOp3
 70
     1
102
RTVSPropertyOp4
 70
     1
102
RTVSPropertyOp5
 70
     1
102
RTVSPropertyOp6
 70
     1
102
RTVSPropertyOp7
 70
     1
102
RTVSPropertyOp8
 70
     1
102
RTVSPropertyOp9
 70
     1
102
RTVSPropertyOp10
 70
     1
102
RTVSPropertyOp11
 70
     1
102
RTVSPropertyOp12
 70
     1
102
RTVSPropertyOp13
 70
     1
102
RTVSPropertyOp14
 70
     1
102
RTVSPropertyOp15
 70
     1
102
RTVSPropertyOp16
 70
     1
102
RTVSPropertyOp17
 70
     1
102
RTVSPropertyOp18
 70
     1
102
RTVSPropertyOp19
 70
     1
102
RTVSPropertyOp20
 70
     1
102
RTVSPropertyOp21
 70
     1
102
RTVSPropertyOp22
 70
     1
102
RTVSPropertyOp23
 70
     1
102
RTVSPropertyOp24
 70
     1
102
RTVSPropertyOp25
 70
     1
102
RTVSPropertyOp26
 70
     1
102
RTVSPropertyOp27
 70
     1
102
RTVSPropertyOp28
 70
     1
102
RTVSPropertyOp29
 70
     1
102
RTVSPropertyOp30
 70
     1
102
RTVSPropertyOp31
 70
     1
102
RTVSPropertyOp32
 70
     1
  0
XRECORD
  5
AB6
102
{ACAD_REACTORS
330
AB5
102
}
330
AB5
100
AcDbXrecord
280
     1
102
RTVSPropertyOp0
 70
     1
102
RTVSPropertyOp1
 70
     1
102
RTVSPropertyOp2
 70
     1
102
RTVSPropertyOp3
 70
     1
102
RTVSPropertyOp4
 70
     1
102
RTVSPropertyOp5
 70
     1
102
RTVSPropertyOp6
 70
     1
102
RTVSPropertyOp7
 70
     1
102
RTVSPropertyOp8
 70
     1
102
RTVSPropertyOp9
 70
     1
102
RTVSPropertyOp10
 70
     1
102
RTVSPropertyOp11
 70
     1
102
RTVSPropertyOp12
 70
     1
102
RTVSPropertyOp13
 70
     1
102
RTVSPropertyOp14
 70
     1
102
RTVSPropertyOp15
 70
     1
102
RTVSPropertyOp16
 70
     1
102
RTVSPropertyOp17
 70
     1
102
RTVSPropertyOp18
 70
     1
102
RTVSPropertyOp19
 70
     1
102
RTVSPropertyOp20
 70
     1
102
RTVSPropertyOp21
 70
     1
102
RTVSPropertyOp22
 70
     1
102
RTVSPropertyOp23
 70
     1
102
RTVSPropertyOp24
 70
     1
102
RTVSPropertyOp25
 70
     1
102
RTVSPropertyOp26
 70
     1
102
RTVSPropertyOp27
 70
     1
102
RTVSPropertyOp28
 70
     1
102
RTVSPropertyOp29
 70
     1
102
RTVSPropertyOp30
 70
     1
102
RTVSPropertyOp31
 70
     1
102
RTVSPropertyOp32
 70
     1
  0
XRECORD
  5
ABE
102
{ACAD_REACTORS
330
ABD
102
}
330
ABD
100
AcDbXrecord
280
     1
102
RTVSPropertyOp0
 70
     1
102
RTVSPropertyOp1
 70
     1
102
RTVSPropertyOp2
 70
     1
102
RTVSPropertyOp3
 70
     1
102
RTVSPropertyOp4
 70
     1
102
RTVSPropertyOp5
 70
     1
102
RTVSPropertyOp6
 70
     1
102
RTVSPropertyOp7
 70
     1
102
RTVSPropertyOp8
 70
     1
102
RTVSPropertyOp9
 70
     1
102
RTVSPropertyOp10
 70
     1
102
RTVSPropertyOp11
 70
     1
102
RTVSPropertyOp12
 70
     1
102
RTVSPropertyOp13
 70
     1
102
RTVSPropertyOp14
 70
     1
102
RTVSPropertyOp15
 70
     1
102
RTVSPropertyOp16
 70
     1
102
RTVSPropertyOp17
 70
     1
102
RTVSPropertyOp18
 70
     1
102
RTVSPropertyOp19
 70
     1
102
RTVSPropertyOp20
 70
     1
102
RTVSPropertyOp21
 70
     1
102
RTVSPropertyOp22
 70
     1
102
RTVSPropertyOp23
 70
     1
102
RTVSPropertyOp24
 70
     1
102
RTVSPropertyOp25
 70
     1
102
RTVSPropertyOp26
 70
     1
102
RTVSPropertyOp27
 70
     1
102
RTVSPropertyOp28
 70
     1
102
RTVSPropertyOp29
 70
     1
102
RTVSPropertyOp30
 70
     1
102
RTVSPropertyOp31
 70
     1
102
RTVSPropertyOp32
 70
     1
  0
XRECORD
  5
AB0
102
{ACAD_REACTORS
330
AAF
102
}
330
AAF
100
AcDbXrecord
280
     1
102
RTVSPropertyOp0
 70
     1
102
RTVSPropertyOp1
 70
     1
102
RTVSPropertyOp2
 70
     1
102
RTVSPropertyOp3
 70
     1
102
RTVSPropertyOp4
 70
     1
102
RTVSPropertyOp5
 70
     1
102
RTVSPropertyOp6
 70
     1
102
RTVSPropertyOp7
 70
     1
102
RTVSPropertyOp8
 70
     1
102
RTVSPropertyOp9
 70
     1
102
RTVSPropertyOp10
 70
     1
102
RTVSPropertyOp11
 70
     1
102
RTVSPropertyOp12
 70
     1
102
RTVSPropertyOp13
 70
     1
102
RTVSPropertyOp14
 70
     1
102
RTVSPropertyOp15
 70
     1
102
RTVSPropertyOp16
 70
     1
102
RTVSPropertyOp17
 70
     1
102
RTVSPropertyOp18
 70
     1
102
RTVSPropertyOp19
 70
     1
102
RTVSPropertyOp20
 70
     1
102
RTVSPropertyOp21
 70
     1
102
RTVSPropertyOp22
 70
     1
102
RTVSPropertyOp23
 70
     1
102
RTVSPropertyOp24
 70
     1
102
RTVSPropertyOp25
 70
     1
102
RTVSPropertyOp26
 70
     1
102
RTVSPropertyOp27
 70
     1
102
RTVSPropertyOp28
 70
     1
102
RTVSPropertyOp29
 70
     1
102
RTVSPropertyOp30
 70
     1
102
RTVSPropertyOp31
 70
     1
102
RTVSPropertyOp32
 70
     1
  0
XRECORD
  5
AB4
102
{ACAD_REACTORS
330
AB3
102
}
330
AB3
100
AcDbXrecord
280
     1
102
RTVSPropertyOp0
 70
     1
102
RTVSPropertyOp1
 70
     1
102
RTVSPropertyOp2
 70
     1
102
RTVSPropertyOp3
 70
     1
102
RTVSPropertyOp4
 70
     1
102
RTVSPropertyOp5
 70
     1
102
RTVSPropertyOp6
 70
     1
102
RTVSPropertyOp7
 70
     1
102
RTVSPropertyOp8
 70
     1
102
RTVSPropertyOp9
 70
     1
102
RTVSPropertyOp10
 70
     1
102
RTVSPropertyOp11
 70
     1
102
RTVSPropertyOp12
 70
     1
102
RTVSPropertyOp13
 70
     1
102
RTVSPropertyOp14
 70
     1
102
RTVSPropertyOp15
 70
     1
102
RTVSPropertyOp16
 70
     1
102
RTVSPropertyOp17
 70
     1
102
RTVSPropertyOp18
 70
     1
102
RTVSPropertyOp19
 70
     1
102
RTVSPropertyOp20
 70
     1
102
RTVSPropertyOp21
 70
     1
102
RTVSPropertyOp22
 70
     1
102
RTVSPropertyOp23
 70
     1
102
RTVSPropertyOp24
 70
     1
102
RTVSPropertyOp25
 70
     1
102
RTVSPropertyOp26
 70
     1
102
RTVSPropertyOp27
 70
     1
102
RTVSPropertyOp28
 70
     1
102
RTVSPropertyOp29
 70
     1
102
RTVSPropertyOp30
 70
     1
102
RTVSPropertyOp31
 70
     1
102
RTVSPropertyOp32
 70
     1
  0
XRECORD
  5
ACE
102
{ACAD_REACTORS
330
ACD
102
}
330
ACD
100
AcDbXrecord
280
     1
102
RTVSPropertyOp0
 70
     0
102
RTVSPropertyOp1
 70
     0
102
RTVSPropertyOp2
 70
     0
102
RTVSPropertyOp3
 70
     0
102
RTVSPropertyOp4
 70
     0
102
RTVSPropertyOp5
 70
     0
102
RTVSPropertyOp6
 70
     0
102
RTVSPropertyOp7
 70
     0
102
RTVSPropertyOp8
 70
     0
102
RTVSPropertyOp9
 70
     0
102
RTVSPropertyOp10
 70
     0
102
RTVSPropertyOp11
 70
     0
102
RTVSPropertyOp12
 70
     0
102
RTVSPropertyOp13
 70
     0
102
RTVSPropertyOp14
 70
     2
102
RTVSPropertyOp15
 70
     0
102
RTVSPropertyOp16
 70
     0
102
RTVSPropertyOp17
 70
     0
102
RTVSPropertyOp18
 70
     0
102
RTVSPropertyOp19
 70
     0
102
RTVSPropertyOp20
 70
     0
102
RTVSPropertyOp21
 70
     0
102
RTVSPropertyOp22
 70
     0
102
RTVSPropertyOp23
 70
     0
102
RTVSPropertyOp24
 70
     0
102
RTVSPropertyOp25
 70
     0
102
RTVSPropertyOp26
 70
     0
102
RTVSPropertyOp27
 70
     0
102
RTVSPropertyOp28
 70
     0
102
RTVSPropertyOp29
 70
     0
102
RTVSPropertyOp30
 70
     0
102
RTVSPropertyOp31
 70
     0
102
RTVSPropertyOp32
 70
     0
  0
XRECORD
  5
ABC
102
{ACAD_REACTORS
330
ABB
102
}
330
ABB
100
AcDbXrecord
280
     1
102
RTVSPropertyOp0
 70
     1
102
RTVSPropertyOp1
 70
     1
102
RTVSPropertyOp2
 70
     1
102
RTVSPropertyOp3
 70
     1
102
RTVSPropertyOp4
 70
     1
102
RTVSPropertyOp5
 70
     1
102
RTVSPropertyOp6
 70
     1
102
RTVSPropertyOp7
 70
     1
102
RTVSPropertyOp8
 70
     1
102
RTVSPropertyOp9
 70
     1
102
RTVSPropertyOp10
 70
     1
102
RTVSPropertyOp11
 70
     1
102
RTVSPropertyOp12
 70
     1
102
RTVSPropertyOp13
 70
     1
102
RTVSPropertyOp14
 70
     1
102
RTVSPropertyOp15
 70
     1
102
RTVSPropertyOp16
 70
     1
102
RTVSPropertyOp17
 70
     1
102
RTVSPropertyOp18
 70
     1
102
RTVSPropertyOp19
 70
     1
102
RTVSPropertyOp20
 70
     1
102
RTVSPropertyOp21
 70
     1
102
RTVSPropertyOp22
 70
     1
102
RTVSPropertyOp23
 70
     1
102
RTVSPropertyOp24
 70
     1
102
RTVSPropertyOp25
 70
     1
102
RTVSPropertyOp26
 70
     1
102
RTVSPropertyOp27
 70
     1
102
RTVSPropertyOp28
 70
     1
102
RTVSPropertyOp29
 70
     1
102
RTVSPropertyOp30
 70
     1
102
RTVSPropertyOp31
 70
     1
102
RTVSPropertyOp32
 70
     1
  0
XRECORD
  5
AA0
102
{ACAD_REACTORS
330
A9F
102
}
330
A9F
100
AcDbXrecord
280
     1
102
RTVSPropertyOp0
 70
     1
102
RTVSPropertyOp1
 70
     1
102
RTVSPropertyOp2
 70
     1
102
RTVSPropertyOp3
 70
     1
102
RTVSPropertyOp4
 70
     1
102
RTVSPropertyOp5
 70
     1
102
RTVSPropertyOp6
 70
     1
102
RTVSPropertyOp7
 70
     1
102
RTVSPropertyOp8
 70
     1
102
RTVSPropertyOp9
 70
     1
102
RTVSPropertyOp10
 70
     1
102
RTVSPropertyOp11
 70
     1
102
RTVSPropertyOp12
 70
     1
102
RTVSPropertyOp13
 70
     1
102
RTVSPropertyOp14
 70
     1
102
RTVSPropertyOp15
 70
     1
102
RTVSPropertyOp16
 70
     1
102
RTVSPropertyOp17
 70
     1
102
RTVSPropertyOp18
 70
     1
102
RTVSPropertyOp19
 70
     1
102
RTVSPropertyOp20
 70
     1
102
RTVSPropertyOp21
 70
     1
102
RTVSPropertyOp22
 70
     1
102
RTVSPropertyOp23
 70
     1
102
RTVSPropertyOp24
 70
     1
102
RTVSPropertyOp25
 70
     1
102
RTVSPropertyOp26
 70
     1
102
RTVSPropertyOp27
 70
     1
102
RTVSPropertyOp28
 70
     1
102
RTVSPropertyOp29
 70
     1
102
RTVSPropertyOp30
 70
     1
102
RTVSPropertyOp31
 70
     1
102
RTVSPropertyOp32
 70
     1
  0
XRECORD
  5
AA2
102
{ACAD_REACTORS
330
AA1
102
}
330
AA1
100
AcDbXrecord
280
     1
102
RTVSPropertyOp0
 70
     1
102
RTVSPropertyOp1
 70
     1
102
RTVSPropertyOp2
 70
     1
102
RTVSPropertyOp3
 70
     1
102
RTVSPropertyOp4
 70
     1
102
RTVSPropertyOp5
 70
     1
102
RTVSPropertyOp6
 70
     1
102
RTVSPropertyOp7
 70
     1
102
RTVSPropertyOp8
 70
     1
102
RTVSPropertyOp9
 70
     1
102
RTVSPropertyOp10
 70
     1
102
RTVSPropertyOp11
 70
     1
102
RTVSPropertyOp12
 70
     1
102
RTVSPropertyOp13
 70
     1
102
RTVSPropertyOp14
 70
     1
102
RTVSPropertyOp15
 70
     1
102
RTVSPropertyOp16
 70
     1
102
RTVSPropertyOp17
 70
     1
102
RTVSPropertyOp18
 70
     1
102
RTVSPropertyOp19
 70
     1
102
RTVSPropertyOp20
 70
     1
102
RTVSPropertyOp21
 70
     1
102
RTVSPropertyOp22
 70
     1
102
RTVSPropertyOp23
 70
     1
102
RTVSPropertyOp24
 70
     1
102
RTVSPropertyOp25
 70
     1
102
RTVSPropertyOp26
 70
     1
102
RTVSPropertyOp27
 70
     1
102
RTVSPropertyOp28
 70
     1
102
RTVSPropertyOp29
 70
     1
102
RTVSPropertyOp30
 70
     1
102
RTVSPropertyOp31
 70
     1
102
RTVSPropertyOp32
 70
     1
  0
XRECORD
  5
AA4
102
{ACAD_REACTORS
330
AA3
102
}
330
AA3
100
AcDbXrecord
280
     1
102
RTVSPropertyOp0
 70
     1
102
RTVSPropertyOp1
 70
     1
102
RTVSPropertyOp2
 70
     1
102
RTVSPropertyOp3
 70
     1
102
RTVSPropertyOp4
 70
     1
102
RTVSPropertyOp5
 70
     1
102
RTVSPropertyOp6
 70
     1
102
RTVSPropertyOp7
 70
     1
102
RTVSPropertyOp8
 70
     1
102
RTVSPropertyOp9
 70
     1
102
RTVSPropertyOp10
 70
     1
102
RTVSPropertyOp11
 70
     1
102
RTVSPropertyOp12
 70
     1
102
RTVSPropertyOp13
 70
     1
102
RTVSPropertyOp14
 70
     1
102
RTVSPropertyOp15
 70
     1
102
RTVSPropertyOp16
 70
     1
102
RTVSPropertyOp17
 70
     1
102
RTVSPropertyOp18
 70
     1
102
RTVSPropertyOp19
 70
     1
102
RTVSPropertyOp20
 70
     1
102
RTVSPropertyOp21
 70
     1
102
RTVSPropertyOp22
 70
     1
102
RTVSPropertyOp23
 70
     1
102
RTVSPropertyOp24
 70
     1
102
RTVSPropertyOp25
 70
     1
102
RTVSPropertyOp26
 70
     1
102
RTVSPropertyOp27
 70
     1
102
RTVSPropertyOp28
 70
     1
102
RTVSPropertyOp29
 70
     1
102
RTVSPropertyOp30
 70
     1
102
RTVSPropertyOp31
 70
     1
102
RTVSPropertyOp32
 70
     1
  0
XRECORD
  5
AA6
102
{ACAD_REACTORS
330
AA5
102
}
330
AA5
100
AcDbXrecord
280
     1
102
RTVSPropertyOp0
 70
     1
102
RTVSPropertyOp1
 70
     1
102
RTVSPropertyOp2
 70
     1
102
RTVSPropertyOp3
 70
     1
102
RTVSPropertyOp4
 70
     1
102
RTVSPropertyOp5
 70
     1
102
RTVSPropertyOp6
 70
     1
102
RTVSPropertyOp7
 70
     1
102
RTVSPropertyOp8
 70
     1
102
RTVSPropertyOp9
 70
     1
102
RTVSPropertyOp10
 70
     1
102
RTVSPropertyOp11
 70
     1
102
RTVSPropertyOp12
 70
     1
102
RTVSPropertyOp13
 70
     1
102
RTVSPropertyOp14
 70
     1
102
RTVSPropertyOp15
 70
     1
102
RTVSPropertyOp16
 70
     1
102
RTVSPropertyOp17
 70
     1
102
RTVSPropertyOp18
 70
     1
102
RTVSPropertyOp19
 70
     1
102
RTVSPropertyOp20
 70
     1
102
RTVSPropertyOp21
 70
     1
102
RTVSPropertyOp22
 70
     1
102
RTVSPropertyOp23
 70
     1
102
RTVSPropertyOp24
 70
     1
102
RTVSPropertyOp25
 70
     1
102
RTVSPropertyOp26
 70
     1
102
RTVSPropertyOp27
 70
     1
102
RTVSPropertyOp28
 70
     1
102
RTVSPropertyOp29
 70
     1
102
RTVSPropertyOp30
 70
     1
102
RTVSPropertyOp31
 70
     1
102
RTVSPropertyOp32
 70
     1
  0
XRECORD
  5
AAE
102
{ACAD_REACTORS
330
AAD
102
}
330
AAD
100
AcDbXrecord
280
     1
102
RTVSPropertyOp0
 70
     1
102
RTVSPropertyOp1
 70
     1
102
RTVSPropertyOp2
 70
     1
102
RTVSPropertyOp3
 70
     1
102
RTVSPropertyOp4
 70
     1
102
RTVSPropertyOp5
 70
     1
102
RTVSPropertyOp6
 70
     1
102
RTVSPropertyOp7
 70
     1
102
RTVSPropertyOp8
 70
     1
102
RTVSPropertyOp9
 70
     1
102
RTVSPropertyOp10
 70
     1
102
RTVSPropertyOp11
 70
     1
102
RTVSPropertyOp12
 70
     1
102
RTVSPropertyOp13
 70
     1
102
RTVSPropertyOp14
 70
     1
102
RTVSPropertyOp15
 70
     1
102
RTVSPropertyOp16
 70
     1
102
RTVSPropertyOp17
 70
     1
102
RTVSPropertyOp18
 70
     1
102
RTVSPropertyOp19
 70
     1
102
RTVSPropertyOp20
 70
     1
102
RTVSPropertyOp21
 70
     1
102
RTVSPropertyOp22
 70
     1
102
RTVSPropertyOp23
 70
     1
102
RTVSPropertyOp24
 70
     1
102
RTVSPropertyOp25
 70
     1
102
RTVSPropertyOp26
 70
     1
102
RTVSPropertyOp27
 70
     1
102
RTVSPropertyOp28
 70
     1
102
RTVSPropertyOp29
 70
     1
102
RTVSPropertyOp30
 70
     1
102
RTVSPropertyOp31
 70
     1
102
RTVSPropertyOp32
 70
     1
  0
XRECORD
  5
ACA
102
{ACAD_REACTORS
330
AC9
102
}
330
AC9
100
AcDbXrecord
280
     1
102
RTVSPropertyOp0
 70
     0
102
RTVSPropertyOp1
 70
     0
102
RTVSPropertyOp2
 70
     0
102
RTVSPropertyOp3
 70
     0
102
RTVSPropertyOp4
 70
     0
102
RTVSPropertyOp5
 70
     0
102
RTVSPropertyOp6
 70
     0
102
RTVSPropertyOp7
 70
     0
102
RTVSPropertyOp8
 70
     0
102
RTVSPropertyOp9
 70
     0
102
RTVSPropertyOp10
 70
     0
102
RTVSPropertyOp11
 70
     0
102
RTVSPropertyOp12
 70
     0
102
RTVSPropertyOp13
 70
     0
102
RTVSPropertyOp14
 70
     2
102
RTVSPropertyOp15
 70
     0
102
RTVSPropertyOp16
 70
     0
102
RTVSPropertyOp17
 70
     0
102
RTVSPropertyOp18
 70
     0
102
RTVSPropertyOp19
 70
     0
102
RTVSPropertyOp20
 70
     0
102
RTVSPropertyOp21
 70
     0
102
RTVSPropertyOp22
 70
     0
102
RTVSPropertyOp23
 70
     0
102
RTVSPropertyOp24
 70
     0
102
RTVSPropertyOp25
 70
     0
102
RTVSPropertyOp26
 70
     0
102
RTVSPropertyOp27
 70
     0
102
RTVSPropertyOp28
 70
     0
102
RTVSPropertyOp29
 70
     0
102
RTVSPropertyOp30
 70
     0
102
RTVSPropertyOp31
 70
     0
102
RTVSPropertyOp32
 70
     0
  0
XRECORD
  5
ABA
102
{ACAD_REACTORS
330
AB9
102
}
330
AB9
100
AcDbXrecord
280
     1
102
RTVSPropertyOp0
 70
     1
102
RTVSPropertyOp1
 70
     1
102
RTVSPropertyOp2
 70
     1
102
RTVSPropertyOp3
 70
     1
102
RTVSPropertyOp4
 70
     1
102
RTVSPropertyOp5
 70
     1
102
RTVSPropertyOp6
 70
     1
102
RTVSPropertyOp7
 70
     1
102
RTVSPropertyOp8
 70
     1
102
RTVSPropertyOp9
 70
     1
102
RTVSPropertyOp10
 70
     1
102
RTVSPropertyOp11
 70
     1
102
RTVSPropertyOp12
 70
     1
102
RTVSPropertyOp13
 70
     1
102
RTVSPropertyOp14
 70
     1
102
RTVSPropertyOp15
 70
     1
102
RTVSPropertyOp16
 70
     1
102
RTVSPropertyOp17
 70
     1
102
RTVSPropertyOp18
 70
     1
102
RTVSPropertyOp19
 70
     1
102
RTVSPropertyOp20
 70
     1
102
RTVSPropertyOp21
 70
     1
102
RTVSPropertyOp22
 70
     1
102
RTVSPropertyOp23
 70
     1
102
RTVSPropertyOp24
 70
     1
102
RTVSPropertyOp25
 70
     1
102
RTVSPropertyOp26
 70
     1
102
RTVSPropertyOp27
 70
     1
102
RTVSPropertyOp28
 70
     1
102
RTVSPropertyOp29
 70
     1
102
RTVSPropertyOp30
 70
     1
102
RTVSPropertyOp31
 70
     1
102
RTVSPropertyOp32
 70
     1
  0
XRECORD
  5
ACC
102
{ACAD_REACTORS
330
ACB
102
}
330
ACB
100
AcDbXrecord
280
     1
102
RTVSPropertyOp0
 70
     0
102
RTVSPropertyOp1
 70
     0
102
RTVSPropertyOp2
 70
     0
102
RTVSPropertyOp3
 70
     0
102
RTVSPropertyOp4
 70
     0
102
RTVSPropertyOp5
 70
     0
102
RTVSPropertyOp6
 70
     0
102
RTVSPropertyOp7
 70
     0
102
RTVSPropertyOp8
 70
     0
102
RTVSPropertyOp9
 70
     0
102
RTVSPropertyOp10
 70
     0
102
RTVSPropertyOp11
 70
     0
102
RTVSPropertyOp12
 70
     0
102
RTVSPropertyOp13
 70
     0
102
RTVSPropertyOp14
 70
     2
102
RTVSPropertyOp15
 70
     0
102
RTVSPropertyOp16
 70
     0
102
RTVSPropertyOp17
 70
     0
102
RTVSPropertyOp18
 70
     0
102
RTVSPropertyOp19
 70
     0
102
RTVSPropertyOp20
 70
     0
102
RTVSPropertyOp21
 70
     0
102
RTVSPropertyOp22
 70
     0
102
RTVSPropertyOp23
 70
     0
102
RTVSPropertyOp24
 70
     0
102
RTVSPropertyOp25
 70
     0
102
RTVSPropertyOp26
 70
     0
102
RTVSPropertyOp27
 70
     0
102
RTVSPropertyOp28
 70
     0
102
RTVSPropertyOp29
 70
     0
102
RTVSPropertyOp30
 70
     0
102
RTVSPropertyOp31
 70
     0
102
RTVSPropertyOp32
 70
     0
  0
XRECORD
  5
AB2
102
{ACAD_REACTORS
330
AB1
102
}
330
AB1
100
AcDbXrecord
280
     1
102
RTVSPropertyOp0
 70
     1
102
RTVSPropertyOp1
 70
     1
102
RTVSPropertyOp2
 70
     1
102
RTVSPropertyOp3
 70
     1
102
RTVSPropertyOp4
 70
     1
102
RTVSPropertyOp5
 70
     1
102
RTVSPropertyOp6
 70
     1
102
RTVSPropertyOp7
 70
     1
102
RTVSPropertyOp8
 70
     1
102
RTVSPropertyOp9
 70
     1
102
RTVSPropertyOp10
 70
     1
102
RTVSPropertyOp11
 70
     1
102
RTVSPropertyOp12
 70
     1
102
RTVSPropertyOp13
 70
     1
102
RTVSPropertyOp14
 70
     1
102
RTVSPropertyOp15
 70
     1
102
RTVSPropertyOp16
 70
     1
102
RTVSPropertyOp17
 70
     1
102
RTVSPropertyOp18
 70
     1
102
RTVSPropertyOp19
 70
     1
102
RTVSPropertyOp20
 70
     1
102
RTVSPropertyOp21
 70
     1
102
RTVSPropertyOp22
 70
     1
102
RTVSPropertyOp23
 70
     1
102
RTVSPropertyOp24
 70
     1
102
RTVSPropertyOp25
 70
     1
102
RTVSPropertyOp26
 70
     1
102
RTVSPropertyOp27
 70
     1
102
RTVSPropertyOp28
 70
     1
102
RTVSPropertyOp29
 70
     1
102
RTVSPropertyOp30
 70
     1
102
RTVSPropertyOp31
 70
     1
102
RTVSPropertyOp32
 70
     1
  0
XRECORD
  5
AC8
102
{ACAD_REACTORS
330
AC7
102
}
330
AC7
100
AcDbXrecord
280
     1
102
RTVSPropertyOp0
 70
     1
102
RTVSPropertyOp1
 70
     1
102
RTVSPropertyOp2
 70
     1
102
RTVSPropertyOp3
 70
     1
102
RTVSPropertyOp4
 70
     1
102
RTVSPropertyOp5
 70
     1
102
RTVSPropertyOp6
 70
     1
102
RTVSPropertyOp7
 70
     1
102
RTVSPropertyOp8
 70
     1
102
RTVSPropertyOp9
 70
     1
102
RTVSPropertyOp10
 70
     1
102
RTVSPropertyOp11
 70
     1
102
RTVSPropertyOp12
 70
     1
102
RTVSPropertyOp13
 70
     1
102
RTVSPropertyOp14
 70
     1
102
RTVSPropertyOp15
 70
     1
102
RTVSPropertyOp16
 70
     1
102
RTVSPropertyOp17
 70
     1
102
RTVSPropertyOp18
 70
     1
102
RTVSPropertyOp19
 70
     1
102
RTVSPropertyOp20
 70
     1
102
RTVSPropertyOp21
 70
     1
102
RTVSPropertyOp22
 70
     1
102
RTVSPropertyOp23
 70
     1
102
RTVSPropertyOp24
 70
     1
102
RTVSPropertyOp25
 70
     1
102
RTVSPropertyOp26
 70
     1
102
RTVSPropertyOp27
 70
     1
102
RTVSPropertyOp28
 70
     1
102
RTVSPropertyOp29
 70
     1
102
RTVSPropertyOp30
 70
     1
102
RTVSPropertyOp31
 70
     1
102
RTVSPropertyOp32
 70
     1
  0
XRECORD
  5
AC6
102
{ACAD_REACTORS
330
AC5
102
}
330
AC5
100
AcDbXrecord
280
     1
102
RTVSPropertyOp0
 70
     1
102
RTVSPropertyOp1
 70
     1
102
RTVSPropertyOp2
 70
     1
102
RTVSPropertyOp3
 70
     1
102
RTVSPropertyOp4
 70
     1
102
RTVSPropertyOp5
 70
     1
102
RTVSPropertyOp6
 70
     1
102
RTVSPropertyOp7
 70
     1
102
RTVSPropertyOp8
 70
     1
102
RTVSPropertyOp9
 70
     1
102
RTVSPropertyOp10
 70
     1
102
RTVSPropertyOp11
 70
     1
102
RTVSPropertyOp12
 70
     1
102
RTVSPropertyOp13
 70
     1
102
RTVSPropertyOp14
 70
     1
102
RTVSPropertyOp15
 70
     1
102
RTVSPropertyOp16
 70
     1
102
RTVSPropertyOp17
 70
     1
102
RTVSPropertyOp18
 70
     1
102
RTVSPropertyOp19
 70
     1
102
RTVSPropertyOp20
 70
     1
102
RTVSPropertyOp21
 70
     1
102
RTVSPropertyOp22
 70
     1
102
RTVSPropertyOp23
 70
     1
102
RTVSPropertyOp24
 70
     1
102
RTVSPropertyOp25
 70
     1
102
RTVSPropertyOp26
 70
     1
102
RTVSPropertyOp27
 70
     1
102
RTVSPropertyOp28
 70
     1
102
RTVSPropertyOp29
 70
     1
102
RTVSPropertyOp30
 70
     1
102
RTVSPropertyOp31
 70
     1
102
RTVSPropertyOp32
 70
     1
  0
XRECORD
  5
AC0
102
{ACAD_REACTORS
330
ABF
102
}
330
ABF
100
AcDbXrecord
280
     1
102
RTVSPropertyOp0
 70
     1
102
RTVSPropertyOp1
 70
     1
102
RTVSPropertyOp2
 70
     1
102
RTVSPropertyOp3
 70
     1
102
RTVSPropertyOp4
 70
     1
102
RTVSPropertyOp5
 70
     1
102
RTVSPropertyOp6
 70
     1
102
RTVSPropertyOp7
 70
     1
102
RTVSPropertyOp8
 70
     1
102
RTVSPropertyOp9
 70
     1
102
RTVSPropertyOp10
 70
     1
102
RTVSPropertyOp11
 70
     1
102
RTVSPropertyOp12
 70
     1
102
RTVSPropertyOp13
 70
     1
102
RTVSPropertyOp14
 70
     1
102
RTVSPropertyOp15
 70
     1
102
RTVSPropertyOp16
 70
     1
102
RTVSPropertyOp17
 70
     1
102
RTVSPropertyOp18
 70
     1
102
RTVSPropertyOp19
 70
     1
102
RTVSPropertyOp20
 70
     1
102
RTVSPropertyOp21
 70
     1
102
RTVSPropertyOp22
 70
     1
102
RTVSPropertyOp23
 70
     1
102
RTVSPropertyOp24
 70
     1
102
RTVSPropertyOp25
 70
     1
102
RTVSPropertyOp26
 70
     1
102
RTVSPropertyOp27
 70
     1
102
RTVSPropertyOp28
 70
     1
102
RTVSPropertyOp29
 70
     1
102
RTVSPropertyOp30
 70
     1
102
RTVSPropertyOp31
 70
     1
102
RTVSPropertyOp32
 70
     1
  0
XRECORD
  5
AC2
102
{ACAD_REACTORS
330
AC1
102
}
330
AC1
100
AcDbXrecord
280
     1
102
RTVSPropertyOp0
 70
     1
102
RTVSPropertyOp1
 70
     1
102
RTVSPropertyOp2
 70
     1
102
RTVSPropertyOp3
 70
     1
102
RTVSPropertyOp4
 70
     1
102
RTVSPropertyOp5
 70
     1
102
RTVSPropertyOp6
 70
     1
102
RTVSPropertyOp7
 70
     1
102
RTVSPropertyOp8
 70
     1
102
RTVSPropertyOp9
 70
     1
102
RTVSPropertyOp10
 70
     1
102
RTVSPropertyOp11
 70
     1
102
RTVSPropertyOp12
 70
     1
102
RTVSPropertyOp13
 70
     1
102
RTVSPropertyOp14
 70
     1
102
RTVSPropertyOp15
 70
     1
102
RTVSPropertyOp16
 70
     1
102
RTVSPropertyOp17
 70
     1
102
RTVSPropertyOp18
 70
     1
102
RTVSPropertyOp19
 70
     1
102
RTVSPropertyOp20
 70
     1
102
RTVSPropertyOp21
 70
     1
102
RTVSPropertyOp22
 70
     1
102
RTVSPropertyOp23
 70
     1
102
RTVSPropertyOp24
 70
     1
102
RTVSPropertyOp25
 70
     1
102
RTVSPropertyOp26
 70
     1
102
RTVSPropertyOp27
 70
     1
102
RTVSPropertyOp28
 70
     1
102
RTVSPropertyOp29
 70
     1
102
RTVSPropertyOp30
 70
     1
102
RTVSPropertyOp31
 70
     1
102
RTVSPropertyOp32
 70
     1
  0
XRECORD
  5
AB8
102
{ACAD_REACTORS
330
AB7
102
}
330
AB7
100
AcDbXrecord
280
     1
102
RTVSPropertyOp0
 70
     1
102
RTVSPropertyOp1
 70
     1
102
RTVSPropertyOp2
 70
     1
102
RTVSPropertyOp3
 70
     1
102
RTVSPropertyOp4
 70
     1
102
RTVSPropertyOp5
 70
     1
102
RTVSPropertyOp6
 70
     1
102
RTVSPropertyOp7
 70
     1
102
RTVSPropertyOp8
 70
     1
102
RTVSPropertyOp9
 70
     1
102
RTVSPropertyOp10
 70
     1
102
RTVSPropertyOp11
 70
     1
102
RTVSPropertyOp12
 70
     1
102
RTVSPropertyOp13
 70
     1
102
RTVSPropertyOp14
 70
     1
102
RTVSPropertyOp15
 70
     1
102
RTVSPropertyOp16
 70
     1
102
RTVSPropertyOp17
 70
     1
102
RTVSPropertyOp18
 70
     1
102
RTVSPropertyOp19
 70
     1
102
RTVSPropertyOp20
 70
     1
102
RTVSPropertyOp21
 70
     1
102
RTVSPropertyOp22
 70
     1
102
RTVSPropertyOp23
 70
     1
102
RTVSPropertyOp24
 70
     1
102
RTVSPropertyOp25
 70
     1
102
RTVSPropertyOp26
 70
     1
102
RTVSPropertyOp27
 70
     1
102
RTVSPropertyOp28
 70
     1
102
RTVSPropertyOp29
 70
     1
102
RTVSPropertyOp30
 70
     1
102
RTVSPropertyOp31
 70
     1
102
RTVSPropertyOp32
 70
     1
  0
XRECORD
  5
AAC
102
{ACAD_REACTORS
330
AAB
102
}
330
AAB
100
AcDbXrecord
280
     1
102
RTVSPropertyOp0
 70
     1
102
RTVSPropertyOp1
 70
     1
102
RTVSPropertyOp2
 70
     1
102
RTVSPropertyOp3
 70
     1
102
RTVSPropertyOp4
 70
     1
102
RTVSPropertyOp5
 70
     1
102
RTVSPropertyOp6
 70
     1
102
RTVSPropertyOp7
 70
     1
102
RTVSPropertyOp8
 70
     1
102
RTVSPropertyOp9
 70
     1
102
RTVSPropertyOp10
 70
     1
102
RTVSPropertyOp11
 70
     1
102
RTVSPropertyOp12
 70
     1
102
RTVSPropertyOp13
 70
     1
102
RTVSPropertyOp14
 70
     1
102
RTVSPropertyOp15
 70
     1
102
RTVSPropertyOp16
 70
     1
102
RTVSPropertyOp17
 70
     1
102
RTVSPropertyOp18
 70
     1
102
RTVSPropertyOp19
 70
     1
102
RTVSPropertyOp20
 70
     1
102
RTVSPropertyOp21
 70
     1
102
RTVSPropertyOp22
 70
     1
102
RTVSPropertyOp23
 70
     1
102
RTVSPropertyOp24
 70
     1
102
RTVSPropertyOp25
 70
     1
102
RTVSPropertyOp26
 70
     1
102
RTVSPropertyOp27
 70
     1
102
RTVSPropertyOp28
 70
     1
102
RTVSPropertyOp29
 70
     1
102
RTVSPropertyOp30
 70
     1
102
RTVSPropertyOp31
 70
     1
102
RTVSPropertyOp32
 70
     1
  0
XRECORD
  5
AC4
102
{ACAD_REACTORS
330
AC3
102
}
330
AC3
100
AcDbXrecord
280
     1
102
RTVSPropertyOp0
 70
     1
102
RTVSPropertyOp1
 70
     1
102
RTVSPropertyOp2
 70
     1
102
RTVSPropertyOp3
 70
     1
102
RTVSPropertyOp4
 70
     1
102
RTVSPropertyOp5
 70
     1
102
RTVSPropertyOp6
 70
     1
102
RTVSPropertyOp7
 70
     1
102
RTVSPropertyOp8
 70
     1
102
RTVSPropertyOp9
 70
     1
102
RTVSPropertyOp10
 70
     1
102
RTVSPropertyOp11
 70
     1
102
RTVSPropertyOp12
 70
     1
102
RTVSPropertyOp13
 70
     1
102
RTVSPropertyOp14
 70
     1
102
RTVSPropertyOp15
 70
     1
102
RTVSPropertyOp16
 70
     1
102
RTVSPropertyOp17
 70
     1
102
RTVSPropertyOp18
 70
     1
102
RTVSPropertyOp19
 70
     1
102
RTVSPropertyOp20
 70
     1
102
RTVSPropertyOp21
 70
     1
102
RTVSPropertyOp22
 70
     1
102
RTVSPropertyOp23
 70
     1
102
RTVSPropertyOp24
 70
     1
102
RTVSPropertyOp25
 70
     1
102
RTVSPropertyOp26
 70
     1
102
RTVSPropertyOp27
 70
     1
102
RTVSPropertyOp28
 70
     1
102
RTVSPropertyOp29
 70
     1
102
RTVSPropertyOp30
 70
     1
102
RTVSPropertyOp31
 70
     1
102
RTVSPropertyOp32
 70
     1
  0
ENDSEC
  0
EOF
