  0
SECTION
  2
HEADER
  9
$ACADVER
  1
AC1015
  9
$ACADMAINTVER
 70
    11
  9
$DWGCODEPAGE
  3
ANSI_932
  9
$INSBASE
 10
0.0
 20
0.0
 30
0.0
  9
$EXTMIN
 10
0.0000000135560185
 20
-0.0000001317113174
 30
0.0
  9
$EXTMAX
 10
398.800000013556
 20
275.7999998682887
 30
0.0
  9
$LIMMIN
 10
0.0
 20
0.0
  9
$LIMMAX
 10
420.0
 20
297.0
  9
$ORTHOMODE
 70
     0
  9
$REGENMODE
 70
     1
  9
$FILLMODE
 70
     1
  9
$QTEXTMODE
 70
     0
  9
$MIRRTEXT
 70
     1
  9
$LTSCALE
 40
1.0
  9
$ATTMODE
 70
     1
  9
$TEXTSIZE
 40
2.5
  9
$TRACEWID
 40
1.0
  9
$TEXTSTYLE
  7
STANDARD
  9
$CLAYER
  8
SEIHIN
  9
$CELTYPE
  6
BYLAYER
  9
$CECOLOR
 62
   256
  9
$CELTSCALE
 40
1.0
  9
$DISPSILH
 70
     0
  9
$DIMSCALE
 40
1.0
  9
$DIMASZ
 40
3.0
  9
$DIMEXO
 40
3.0
  9
$DIMDLI
 40
7.0
  9
$DIMRND
 40
0.0
  9
$DIMDLE
 40
0.0
  9
$DIMEXE
 40
1.5
  9
$DIMTP
 40
0.0
  9
$DIMTM
 40
0.0
  9
$DIMTXT
 40
3.0
  9
$DIMCEN
 40
150.0
  9
$DIMTSZ
 40
0.0
  9
$DIMTOL
 70
     0
  9
$DIMLIM
 70
     0
  9
$DIMTIH
 70
     0
  9
$DIMTOH
 70
     0
  9
$DIMSE1
 70
     0
  9
$DIMSE2
 70
     0
  9
$DIMTAD
 70
     3
  9
$DIMZIN
 70
     0
  9
$DIMBLK
  1

  9
$DIMASO
 70
     1
  9
$DIMSHO
 70
     1
  9
$DIMPOST
  1

  9
$DIMAPOST
  1

  9
$DIMALT
 70
     0
  9
$DIMALTD
 70
     2
  9
$DIMALTF
 40
25.4
  9
$DIMLFAC
 40
1.0
  9
$DIMTOFL
 70
     1
  9
$DIMTVP
 40
0.0
  9
$DIMTIX
 70
     0
  9
$DIMSOXD
 70
     0
  9
$DIMSAH
 70
     1
  9
$DIMBLK1
  1
OPEN
  9
$DIMBLK2
  1
OPEN
  9
$DIMSTYLE
  2
STANDARD
  9
$DIMCLRD
 70
   256
  9
$DIMCLRE
 70
   256
  9
$DIMCLRT
 70
   256
  9
$DIMTFAC
 40
1.0
  9
$DIMGAP
 40
1.0
  9
$DIMJUST
 70
     0
  9
$DIMSD1
 70
     0
  9
$DIMSD2
 70
     0
  9
$DIMTOLJ
 70
     1
  9
$DIMTZIN
 70
     0
  9
$DIMALTZ
 70
     0
  9
$DIMALTTZ
 70
     0
  9
$DIMUPT
 70
     0
  9
$DIMDEC
 70
     0
  9
$DIMTDEC
 70
     0
  9
$DIMALTU
 70
     2
  9
$DIMALTTD
 70
     2
  9
$DIMTXSTY
  7
STANDARD
  9
$DIMAUNIT
 70
     0
  9
$DIMADEC
 70
     0
  9
$DIMALTRND
 40
0.0
  9
$DIMAZIN
 70
     0
  9
$DIMDSEP
 70
    46
  9
$DIMATFIT
 70
     3
  9
$DIMFRAC
 70
     0
  9
$DIMLDRBLK
  1
OPEN
  9
$DIMLUNIT
 70
     2
  9
$DIMLWD
 70
    -1
  9
$DIMLWE
 70
    -1
  9
$DIMTMOVE
 70
     0
  9
$LUNITS
 70
     2
  9
$LUPREC
 70
     4
  9
$SKETCHINC
 40
1.0
  9
$FILLETRAD
 40
0.3
  9
$AUNITS
 70
     0
  9
$AUPREC
 70
     0
  9
$MENU
  1
.
  9
$ELEVATION
 40
0.0
  9
$PELEVATION
 40
0.0
  9
$THICKNESS
 40
0.0
  9
$LIMCHECK
 70
     0
  9
$CHAMFERA
 40
10.0
  9
$CHAMFERB
 40
10.0
  9
$CHAMFERC
 40
20.0
  9
$CHAMFERD
 40
0.0
  9
$SKPOLY
 70
     0
  9
$TDCREATE
 40
2451023.564106250
  9
$TDUCREATE
 40
2451023.189106250
  9
$TDUPDATE
 40
2454680.437465035
  9
$TDUUPDATE
 40
2454680.062465035
  9
$TDINDWG
 40
0.0320255671
  9
$TDUSRTIMER
 40
0.0320255671
  9
$USRTIMER
 70
     1
  9
$ANGBASE
 50
0.0
  9
$ANGDIR
 70
     0
  9
$PDMODE
 70
     0
  9
$PDSIZE
 40
0.0
  9
$PLINEWID
 40
0.0
  9
$SPLFRAME
 70
     0
  9
$SPLINETYPE
 70
     6
  9
$SPLINESEGS
 70
     8
  9
$HANDSEED
  5
12E5
  9
$SURFTAB1
 70
     6
  9
$SURFTAB2
 70
     6
  9
$SURFTYPE
 70
     6
  9
$SURFU
 70
     6
  9
$SURFV
 70
     6
  9
$UCSBASE
  2

  9
$UCSNAME
  2

  9
$UCSORG
 10
0.0
 20
0.0
 30
0.0
  9
$UCSXDIR
 10
1.0
 20
0.0
 30
0.0
  9
$UCSYDIR
 10
0.0
 20
1.0
 30
0.0
  9
$UCSORTHOREF
  2

  9
$UCSORTHOVIEW
 70
     0
  9
$UCSORGTOP
 10
0.0
 20
0.0
 30
0.0
  9
$UCSORGBOTTOM
 10
0.0
 20
0.0
 30
0.0
  9
$UCSORGLEFT
 10
0.0
 20
0.0
 30
0.0
  9
$UCSORGRIGHT
 10
0.0
 20
0.0
 30
0.0
  9
$UCSORGFRONT
 10
0.0
 20
0.0
 30
0.0
  9
$UCSORGBACK
 10
0.0
 20
0.0
 30
0.0
  9
$PUCSBASE
  2

  9
$PUCSNAME
  2

  9
$PUCSORG
 10
0.0
 20
0.0
 30
0.0
  9
$PUCSXDIR
 10
1.0
 20
0.0
 30
0.0
  9
$PUCSYDIR
 10
0.0
 20
1.0
 30
0.0
  9
$PUCSORTHOREF
  2

  9
$PUCSORTHOVIEW
 70
     0
  9
$PUCSORGTOP
 10
0.0
 20
0.0
 30
0.0
  9
$PUCSORGBOTTOM
 10
0.0
 20
0.0
 30
0.0
  9
$PUCSORGLEFT
 10
0.0
 20
0.0
 30
0.0
  9
$PUCSORGRIGHT
 10
0.0
 20
0.0
 30
0.0
  9
$PUCSORGFRONT
 10
0.0
 20
0.0
 30
0.0
  9
$PUCSORGBACK
 10
0.0
 20
0.0
 30
0.0
  9
$USERI1
 70
     0
  9
$USERI2
 70
     0
  9
$USERI3
 70
     0
  9
$USERI4
 70
     0
  9
$USERI5
 70
     0
  9
$USERR1
 40
0.0
  9
$USERR2
 40
0.0
  9
$USERR3
 40
0.0
  9
$USERR4
 40
0.0
  9
$USERR5
 40
0.0
  9
$WORLDVIEW
 70
     1
  9
$SHADEDGE
 70
     3
  9
$SHADEDIF
 70
    70
  9
$TILEMODE
 70
     1
  9
$MAXACTVP
 70
    16
  9
$PINSBASE
 10
0.0
 20
0.0
 30
0.0
  9
$PLIMCHECK
 70
     0
  9
$PEXTMIN
 10
0.0
 20
0.0
 30
0.0
  9
$PEXTMAX
 10
420.0
 20
297.0
 30
0.0
  9
$PLIMMIN
 10
0.0
 20
0.0
  9
$PLIMMAX
 10
420.0
 20
297.0
  9
$UNITMODE
 70
     0
  9
$VISRETAIN
 70
     0
  9
$PLINEGEN
 70
     0
  9
$PSLTSCALE
 70
     1
  9
$TREEDEPTH
 70
  3020
  9
$CMLSTYLE
  2
STANDARD
  9
$CMLJUST
 70
     0
  9
$CMLSCALE
 40
1.0
  9
$PROXYGRAPHICS
 70
     1
  9
$MEASUREMENT
 70
     1
  9
$CELWEIGHT
370
    -1
  9
$ENDCAPS
280
     0
  9
$JOINSTYLE
280
     0
  9
$LWDISPLAY
290
     0
  9
$INSUNITS
 70
     0
  9
$HYPERLINKBASE
  1

  9
$STYLESHEET
  1
print.ctb
  9
$XEDIT
290
     1
  9
$CEPSNTYPE
380
     0
  9
$PSTYLEMODE
290
     1
  9
$FINGERPRINTGUID
  2
{95F2E6B4-0D5A-481E-8670-BB4FD1113E3B}
  9
$VERSIONGUID
  2
{395A8A9D-4A77-4C29-9243-6278B0628B6D}
  9
$EXTNAMES
290
     1
  9
$PSVPSCALE
 40
0.0
  9
$OLESTARTUP
290
     0
  0
ENDSEC
  0
SECTION
  2
CLASSES
  0
CLASS
  1
ACDBDICTIONARYWDFLT
  2
AcDbDictionaryWithDefault
  3
AutoCAD 2000
 90
        0
280
     0
281
     0
  0
CLASS
  1
ACDBPLACEHOLDER
  2
AcDbPlaceHolder
  3
AutoCAD 2000
 90
        0
280
     0
281
     0
  0
CLASS
  1
LAYOUT
  2
AcDbLayout
  3
AutoCAD 2000
 90
        0
280
     0
281
     0
  0
CLASS
  1
LONG_TRANSACTION
  2
AcDbLongTransaction
  3
AutoCAD 2000
 90
    32768
280
     0
281
     0
  0
CLASS
  1
LWPOLYLINE
  2
AcDbPolyline
  3
AutoCAD 2000
 90
    32768
280
     0
281
     1
  0
CLASS
  1
HATCH
  2
AcDbHatch
  3
AutoCAD 2000
 90
    32768
280
     0
281
     1
  0
CLASS
  1
XRECORD
  2
AcDbXrecord
  3
AutoCAD 2000
 90
    32768
280
     0
281
     0
  0
CLASS
  1
LONG_TRANSACTION
  2
AcDbLongTransaction
  3
AutoCAD 2000
 90
    32768
280
     0
281
     0
  0
CLASS
  1
LWPOLYLINE
  2
AcDbPolyline
  3
AutoCAD 2000
 90
    32768
280
     0
281
     1
  0
CLASS
  1
HATCH
  2
AcDbHatch
  3
AutoCAD 2000
 90
    32768
280
     0
281
     1
  0
CLASS
  1
XRECORD
  2
AcDbXrecord
  3
AutoCAD 2000
 90
    32768
280
     0
281
     0
  0
CLASS
  1
LONG_TRANSACTION
  2
AcDbLongTransaction
  3
AutoCAD 2000
 90
    32768
280
     0
281
     0
  0
CLASS
  1
LWPOLYLINE
  2
AcDbPolyline
  3
AutoCAD 2000
 90
    32768
280
     0
281
     1
  0
CLASS
  1
HATCH
  2
AcDbHatch
  3
AutoCAD 2000
 90
    32768
280
     0
281
     1
  0
CLASS
  1
XRECORD
  2
AcDbXrecord
  3
AutoCAD 2000
 90
    32768
280
     0
281
     0
  0
CLASS
  1
LONG_TRANSACTION
  2
AcDbLongTransaction
  3
AutoCAD 2000
 90
    32768
280
     0
281
     0
  0
CLASS
  1
LWPOLYLINE
  2
AcDbPolyline
  3
AutoCAD 2000
 90
    32768
280
     0
281
     1
  0
CLASS
  1
HATCH
  2
AcDbHatch
  3
AutoCAD 2000
 90
    32768
280
     0
281
     1
  0
CLASS
  1
XRECORD
  2
AcDbXrecord
  3
AutoCAD 2000
 90
    32768
280
     0
281
     0
  0
CLASS
  1
LONG_TRANSACTION
  2
AcDbLongTransaction
  3
AutoCAD 2000
 90
    32768
280
     0
281
     0
  0
CLASS
  1
LWPOLYLINE
  2
AcDbPolyline
  3
AutoCAD 2000
 90
    32768
280
     0
281
     1
  0
CLASS
  1
HATCH
  2
AcDbHatch
  3
AutoCAD 2000
 90
    32768
280
     0
281
     1
  0
CLASS
  1
XRECORD
  2
AcDbXrecord
  3
AutoCAD 2000
 90
    32768
280
     0
281
     0
  0
ENDSEC
  0
SECTION
  2
TABLES
  0
TABLE
  2
VPORT
  5
8
330
0
100
AcDbSymbolTable
 70
     2
  0
VPORT
  5
12E4
330
8
100
AcDbSymbolTableRecord
100
AcDbViewportTableRecord
  2
*Active
 70
     0
 10
0.0
 20
0.0
 11
1.0
 21
1.0
 12
213.969217449449
 22
139.3033410668759
 13
0.0
 23
0.0
 14
5.0
 24
5.0
 15
0.0
 25
0.0
 16
0.0
 26
0.0
 36
1.0
 17
0.0
 27
0.0
 37
0.0
 40
345.1270960682301
 41
1.577931034482758
 42
50.0
 43
0.0
 44
0.0
 50
0.0
 51
0.0
 71
     0
 72
   100
 73
     1
 74
     0
 75
     0
 76
     0
 77
     0
 78
     0
281
     0
 65
     1
110
0.0
120
0.0
130
0.0
111
1.0
121
0.0
131
0.0
112
0.0
122
1.0
132
0.0
 79
     0
146
0.0
  0
ENDTAB
  0
TABLE
  2
LTYPE
  5
5
330
0
100
AcDbSymbolTable
 70
     1
  0
LTYPE
  5
14
330
5
100
AcDbSymbolTableRecord
100
AcDbLinetypeTableRecord
  2
BYBLOCK
 70
     0
  3

 72
    65
 73
     0
 40
0.0
  0
LTYPE
  5
15
330
5
100
AcDbSymbolTableRecord
100
AcDbLinetypeTableRecord
  2
BYLAYER
 70
     0
  3

 72
    65
 73
     0
 40
0.0
  0
LTYPE
  5
16
330
5
100
AcDbSymbolTableRecord
100
AcDbLinetypeTableRecord
  2
CONTINUOUS
 70
     0
  3
Solid line
 72
    65
 73
     0
 40
0.0
  0
ENDTAB
  0
TABLE
  2
LAYER
  5
2
330
0
100
AcDbSymbolTable
 70
     7
  0
LAYER
  5
F
330
2
100
AcDbSymbolTableRecord
100
AcDbLayerTableRecord
  2
0
 70
     0
 62
     7
  6
CONTINUOUS
370
    -3
390
482
  0
LAYER
  5
62
330
2
100
AcDbSymbolTableRecord
100
AcDbLayerTableRecord
  2
VIEWPORT
 70
     0
 62
     7
  6
CONTINUOUS
370
    -3
390
482
  0
LAYER
  5
6B
330
2
100
AcDbSymbolTableRecord
100
AcDbLayerTableRecord
  2
ZUWAKU
 70
     0
 62
     7
  6
CONTINUOUS
370
    -3
390
482
  0
LAYER
  5
1EF
330
2
100
AcDbSymbolTableRecord
100
AcDbLayerTableRecord
  2
SEIHIN
 70
     0
 62
     3
  6
CONTINUOUS
370
    -3
390
482
  0
LAYER
  5
1F0
330
2
100
AcDbSymbolTableRecord
100
AcDbLayerTableRecord
  2
DEFPOINTS
 70
     0
 62
     7
  6
CONTINUOUS
290
     0
370
    -3
390
482
  0
LAYER
  5
436
330
2
100
AcDbSymbolTableRecord
100
AcDbLayerTableRecord
  2
SUNPOU
 70
     0
 62
     4
  6
CONTINUOUS
370
    -3
390
482
  0
LAYER
  5
BD6
330
2
100
AcDbSymbolTableRecord
100
AcDbLayerTableRecord
  2
moji
 70
     0
 62
     2
  6
CONTINUOUS
370
    -3
390
482
  0
ENDTAB
  0
TABLE
  2
STYLE
  5
3
330
0
100
AcDbSymbolTable
 70
     2
  0
STYLE
  5
10
330
3
100
AcDbSymbolTableRecord
100
AcDbTextStyleTableRecord
  2
STANDARD
 70
     0
 40
0.0
 41
1.0
 50
0.0
 71
     0
 42
2.5
  3
TXT
  4
bigfont.shx
  0
STYLE
  5
BD7
330
3
100
AcDbSymbolTableRecord
100
AcDbTextStyleTableRecord
  2
ｽﾀｲﾙ1
 70
     0
 40
0.0
 41
1.0
 50
0.0
 71
     0
 42
2.5
  3
MS PGothic.ttf
  4

1001
ACAD
1000
MS PGothic
1071
    32818
  0
ENDTAB
  0
TABLE
  2
VIEW
  5
6
330
0
100
AcDbSymbolTable
 70
     0
  0
ENDTAB
  0
TABLE
  2
UCS
  5
7
330
0
100
AcDbSymbolTable
 70
     0
  0
ENDTAB
  0
TABLE
  2
APPID
  5
9
330
0
100
AcDbSymbolTable
 70
     1
  0
APPID
  5
11
330
9
100
AcDbSymbolTableRecord
100
AcDbRegAppTableRecord
  2
ACAD
 70
     0
  0
ENDTAB
  0
TABLE
  2
DIMSTYLE
  5
A
330
0
100
AcDbSymbolTable
 70
     2
100
AcDbDimStyleTable
 71
     1
340
24
  0
DIMSTYLE
105
1D
330
A
100
AcDbSymbolTableRecord
100
AcDbDimStyleTableRecord
  2
STANDARD
 70
     0
340
10
  0
DIMSTYLE
105
24
102
{ACAD_REACTORS
330
FD3
330
FD5
330
FD4
330
FC3
330
1139
330
FC9
102
}
330
A
100
AcDbSymbolTableRecord
100
AcDbDimStyleTableRecord
  2
ISO-25
 70
     0
 41
2.5
 42
0.625
 43
3.75
 44
1.25
 74
     0
 77
     1
 78
     8
140
2.5
141
2.5
143
0.0394
145
1.0
147
0.625
172
     1
340
10
  0
ENDTAB
  0
TABLE
  2
BLOCK_RECORD
  5
1
330
0
100
AcDbSymbolTable
 70
     7
  0
BLOCK_RECORD
  5
1A
102
{ACAD_XDICTIONARY
360
A02
102
}
330
1
100
AcDbSymbolTableRecord
100
AcDbBlockTableRecord
  2
*MODEL_SPACE
340
485
  0
BLOCK_RECORD
  5
17
102
{ACAD_XDICTIONARY
360
A00
102
}
330
1
100
AcDbSymbolTableRecord
100
AcDbBlockTableRecord
  2
*PAPER_SPACE
340
486
  0
BLOCK_RECORD
  5
B2
330
1
100
AcDbSymbolTableRecord
100
AcDbBlockTableRecord
  2
_OPEN
340
0
102
{BLKREFS
331
128F
331
1290
331
12A1
331
12A2
331
12BC
331
12BD
331
12C5
331
12C6
331
12CE
331
12CF
331
12D7
331
12D8
102
}
  0
BLOCK_RECORD
  5
1150
330
1
100
AcDbSymbolTableRecord
100
AcDbBlockTableRecord
  2
*D1
340
0
  0
BLOCK_RECORD
  5
115C
330
1
100
AcDbSymbolTableRecord
100
AcDbBlockTableRecord
  2
*D2
340
0
  0
BLOCK_RECORD
  5
1168
330
1
100
AcDbSymbolTableRecord
100
AcDbBlockTableRecord
  2
*D3
340
0
  0
BLOCK_RECORD
  5
1174
330
1
100
AcDbSymbolTableRecord
100
AcDbBlockTableRecord
  2
*D4
340
0
  0
BLOCK_RECORD
  5
1180
330
1
100
AcDbSymbolTableRecord
100
AcDbBlockTableRecord
  2
*D5
340
0
  0
BLOCK_RECORD
  5
118C
330
1
100
AcDbSymbolTableRecord
100
AcDbBlockTableRecord
  2
*D6
340
0
  0
ENDTAB
  0
ENDSEC
  0
SECTION
  2
BLOCKS
  0
BLOCK
  5
1B
330
1A
100
AcDbEntity
  8
0
100
AcDbBlockBegin
  2
*MODEL_SPACE
 70
     0
 10
0.0
 20
0.0
 30
0.0
  3
*MODEL_SPACE
  1

  0
ENDBLK
  5
1C
330
1A
100
AcDbEntity
  8
0
100
AcDbBlockEnd
  0
BLOCK
  5
18
330
17
100
AcDbEntity
 67
     1
  8
0
100
AcDbBlockBegin
  2
*PAPER_SPACE
 70
     0
 10
0.0
 20
0.0
 30
0.0
  3
*PAPER_SPACE
  1

  0
ENDBLK
  5
19
330
17
100
AcDbEntity
 67
     1
  8
0
100
AcDbBlockEnd
  0
BLOCK
  5
B3
330
B2
100
AcDbEntity
  8
0
100
AcDbBlockBegin
  2
_OPEN
 70
     0
 10
0.0
 20
0.0
 30
0.0
  3
_OPEN
  1

  0
LINE
  5
B4
330
B2
100
AcDbEntity
  8
0
  6
ByBlock
 62
     0
100
AcDbLine
 10
-1.0
 20
0.1666666666666666
 30
0.0
 11
0.0
 21
0.0
 31
0.0
  0
LINE
  5
B5
330
B2
100
AcDbEntity
  8
0
  6
ByBlock
 62
     0
100
AcDbLine
 10
0.0
 20
0.0
 30
0.0
 11
-1.0
 21
-0.1666666666666666
 31
0.0
  0
LINE
  5
B6
330
B2
100
AcDbEntity
  8
0
  6
ByBlock
 62
     0
100
AcDbLine
 10
0.0
 20
0.0
 30
0.0
 11
-1.0
 21
0.0
 31
0.0
  0
ENDBLK
  5
B7
330
B2
100
AcDbEntity
  8
0
100
AcDbBlockEnd
  0
BLOCK
  5
115A
330
1150
100
AcDbEntity
  8
0
100
AcDbBlockBegin
  2
*D1
 70
     1
 10
0.0
 20
0.0
 30
0.0
  3
*D1
  1

  0
LINE
  5
12C2
330
1150
100
AcDbEntity
  8
SUNPOU
100
AcDbLine
 10
228.1720665316384
 20
220.9150566618518
 30
0.0
 11
228.1720665316384
 21
232.2704232757646
 31
0.0
  0
LINE
  5
12C3
330
1150
100
AcDbEntity
  8
SUNPOU
100
AcDbLine
 10
359.1719665316386
 20
181.9150566618518
 30
0.0
 11
359.1719665316386
 21
232.2704232757646
 31
0.0
  0
LINE
  5
12C4
330
1150
100
AcDbEntity
  8
SUNPOU
100
AcDbLine
 10
231.1720665316383
 20
231.0204232757646
 30
0.0
 11
356.1719665316386
 21
231.0204232757646
 31
0.0
  0
INSERT
  5
12C5
330
1150
100
AcDbEntity
  8
SUNPOU
100
AcDbBlockReference
  2
_OPEN
 10
228.1720665316384
 20
231.0204232757646
 30
0.0
 41
3.0
 42
3.0
 43
3.0
 50
180.0
  0
INSERT
  5
12C6
330
1150
100
AcDbEntity
  8
SUNPOU
100
AcDbBlockReference
  2
_OPEN
 10
359.1719665316386
 20
231.0204232757646
 30
0.0
 41
3.0
 42
3.0
 43
3.0
  0
MTEXT
  5
12C7
330
1150
100
AcDbEntity
  8
SUNPOU
100
AcDbMText
 10
293.6720165316385
 20
233.5204232757646
 30
0.0
 40
3.0
 41
0.0
 71
     5
 72
     1
  1
\A1;131
 73
     1
 44
1.0
  0
POINT
  5
12C8
330
1150
100
AcDbEntity
  8
DEFPOINTS
 62
     0
100
AcDbPoint
 10
228.1720665316384
 20
218.9150566618518
 30
0.0
  0
POINT
  5
12C9
330
1150
100
AcDbEntity
  8
DEFPOINTS
 62
     0
100
AcDbPoint
 10
359.1719665316386
 20
179.9150566618518
 30
0.0
  0
POINT
  5
12CA
330
1150
100
AcDbEntity
  8
DEFPOINTS
 62
     0
100
AcDbPoint
 10
359.1719665316386
 20
231.0204232757646
 30
0.0
  0
ENDBLK
  5
115B
330
1150
100
AcDbEntity
  8
0
100
AcDbBlockEnd
  0
BLOCK
  5
1166
330
115C
100
AcDbEntity
  8
0
100
AcDbBlockBegin
  2
*D2
 70
     1
 10
0.0
 20
0.0
 30
0.0
  3
*D2
  1

  0
LINE
  5
12D4
330
115C
100
AcDbEntity
  8
SUNPOU
100
AcDbLine
 10
278.6718665316382
 20
100.4151566619054
 30
0.0
 11
278.6718665316382
 21
35.23780343637815
 31
0.0
  0
LINE
  5
12D5
330
115C
100
AcDbEntity
  8
SUNPOU
100
AcDbLine
 10
346.6718665316382
 20
100.5010251142518
 30
0.0
 11
346.6718665316382
 21
35.23780343637815
 31
0.0
  0
LINE
  5
12D6
330
115C
100
AcDbEntity
  8
SUNPOU
100
AcDbLine
 10
281.6718665316382
 20
36.48780343637815
 30
0.0
 11
343.6718665316382
 21
36.48780343637815
 31
0.0
  0
INSERT
  5
12D7
330
115C
100
AcDbEntity
  8
SUNPOU
100
AcDbBlockReference
  2
_OPEN
 10
278.6718665316382
 20
36.48780343637815
 30
0.0
 41
3.0
 42
3.0
 43
3.0
 50
180.0
  0
INSERT
  5
12D8
330
115C
100
AcDbEntity
  8
SUNPOU
100
AcDbBlockReference
  2
_OPEN
 10
346.6718665316382
 20
36.48780343637815
 30
0.0
 41
3.0
 42
3.0
 43
3.0
  0
MTEXT
  5
12D9
330
115C
100
AcDbEntity
  8
SUNPOU
100
AcDbMText
 10
312.6718665316382
 20
38.98780343637815
 30
0.0
 40
3.0
 41
0.0
 71
     5
 72
     1
  1
\A1;68
 73
     1
 44
1.0
  0
POINT
  5
12DA
330
115C
100
AcDbEntity
  8
DEFPOINTS
 62
     0
100
AcDbPoint
 10
278.6718665316382
 20
102.4151566619054
 30
0.0
  0
POINT
  5
12DB
330
115C
100
AcDbEntity
  8
DEFPOINTS
 62
     0
100
AcDbPoint
 10
346.6718665316382
 20
102.5010251142518
 30
0.0
  0
POINT
  5
12DC
330
115C
100
AcDbEntity
  8
DEFPOINTS
 62
     0
100
AcDbPoint
 10
346.6718665316382
 20
36.48780343637815
 30
0.0
  0
ENDBLK
  5
1167
330
115C
100
AcDbEntity
  8
0
100
AcDbBlockEnd
  0
BLOCK
  5
1172
330
1168
100
AcDbEntity
  8
0
100
AcDbBlockBegin
  2
*D3
 70
     1
 10
0.0
 20
0.0
 30
0.0
  3
*D3
  1

  0
LINE
  5
12B9
330
1168
100
AcDbEntity
  8
SUNPOU
100
AcDbLine
 10
48.88994186007335
 20
220.9154566618517
 30
0.0
 11
48.88994186007335
 21
232.2704232757646
 31
0.0
  0
LINE
  5
12BA
330
1168
100
AcDbEntity
  8
SUNPOU
100
AcDbLine
 10
205.8899418600733
 20
220.9151566618517
 30
0.0
 11
205.8899418600733
 21
232.2704232757646
 31
0.0
  0
LINE
  5
12BB
330
1168
100
AcDbEntity
  8
SUNPOU
100
AcDbLine
 10
51.88994186007334
 20
231.0204232757646
 30
0.0
 11
202.8899418600733
 21
231.0204232757646
 31
0.0
  0
INSERT
  5
12BC
330
1168
100
AcDbEntity
  8
SUNPOU
100
AcDbBlockReference
  2
_OPEN
 10
48.88994186007335
 20
231.0204232757646
 30
0.0
 41
3.0
 42
3.0
 43
3.0
 50
180.0
  0
INSERT
  5
12BD
330
1168
100
AcDbEntity
  8
SUNPOU
100
AcDbBlockReference
  2
_OPEN
 10
205.8899418600733
 20
231.0204232757646
 30
0.0
 41
3.0
 42
3.0
 43
3.0
  0
MTEXT
  5
12BE
330
1168
100
AcDbEntity
  8
SUNPOU
100
AcDbMText
 10
127.3899418600733
 20
233.5204232757646
 30
0.0
 40
3.0
 41
0.0
 71
     5
 72
     1
  1
\A1;157
 73
     1
 44
1.0
  0
POINT
  5
12BF
330
1168
100
AcDbEntity
  8
DEFPOINTS
 62
     0
100
AcDbPoint
 10
48.88994186007335
 20
218.9154566618517
 30
0.0
  0
POINT
  5
12C0
330
1168
100
AcDbEntity
  8
DEFPOINTS
 62
     0
100
AcDbPoint
 10
205.8899418600733
 20
218.9151566618517
 30
0.0
  0
POINT
  5
12C1
330
1168
100
AcDbEntity
  8
DEFPOINTS
 62
     0
100
AcDbPoint
 10
205.8899418600733
 20
231.0204232757646
 30
0.0
  0
ENDBLK
  5
1173
330
1168
100
AcDbEntity
  8
0
100
AcDbBlockEnd
  0
BLOCK
  5
117E
330
1174
100
AcDbEntity
  8
0
100
AcDbBlockBegin
  2
*D4
 70
     1
 10
0.0
 20
0.0
 30
0.0
  3
*D4
  1

  0
LINE
  5
12CB
330
1174
100
AcDbEntity
  8
SUNPOU
100
AcDbLine
 10
104.3895418600732
 20
59.41525666185157
 30
0.0
 11
46.20839798117549
 21
59.41525666185159
 31
0.0
  0
LINE
  5
12CC
330
1174
100
AcDbEntity
  8
SUNPOU
100
AcDbLine
 10
85.88984186007337
 20
105.9153566618515
 30
0.0
 11
46.20839798117549
 21
105.9153566618515
 31
0.0
  0
LINE
  5
12CD
330
1174
100
AcDbEntity
  8
SUNPOU
100
AcDbLine
 10
47.45839798117549
 20
62.41525666185159
 30
0.0
 11
47.45839798117549
 21
102.9153566618515
 31
0.0
  0
INSERT
  5
12CE
330
1174
100
AcDbEntity
  8
SUNPOU
100
AcDbBlockReference
  2
_OPEN
 10
47.45839798117549
 20
59.41525666185159
 30
0.0
 41
3.0
 42
3.0
 43
3.0
 50
270.0
  0
INSERT
  5
12CF
330
1174
100
AcDbEntity
  8
SUNPOU
100
AcDbBlockReference
  2
_OPEN
 10
47.45839798117549
 20
105.9153566618515
 30
0.0
 41
3.0
 42
3.0
 43
3.0
 50
90.0
  0
MTEXT
  5
12D0
330
1174
100
AcDbEntity
  8
SUNPOU
100
AcDbMText
 10
44.95839798117548
 20
82.66530666185159
 30
0.0
 40
3.0
 41
0.0
 71
     5
 72
     1
  1
\A1;47
 11
0.0000000000000001
 21
1.0
 31
0.0
 73
     1
 44
1.0
  0
POINT
  5
12D1
330
1174
100
AcDbEntity
  8
DEFPOINTS
 62
     0
100
AcDbPoint
 10
106.3895418600732
 20
59.41525666185157
 30
0.0
  0
POINT
  5
12D2
330
1174
100
AcDbEntity
  8
DEFPOINTS
 62
     0
100
AcDbPoint
 10
87.88984186007338
 20
105.9153566618515
 30
0.0
  0
POINT
  5
12D3
330
1174
100
AcDbEntity
  8
DEFPOINTS
 62
     0
100
AcDbPoint
 10
47.45839798117549
 20
105.9153566618515
 30
0.0
  0
ENDBLK
  5
117F
330
1174
100
AcDbEntity
  8
0
100
AcDbBlockEnd
  0
BLOCK
  5
118A
330
1180
100
AcDbEntity
  8
0
100
AcDbBlockBegin
  2
*D5
 70
     1
 10
0.0
 20
0.0
 30
0.0
  3
*D5
  1

  0
LINE
  5
128C
330
1180
100
AcDbEntity
  8
SUNPOU
100
AcDbLine
 10
46.88994186007334
 20
218.9154566618517
 30
0.0
 11
35.8621042681514
 21
218.9154566618517
 31
0.0
  0
LINE
  5
128D
330
1180
100
AcDbEntity
  8
SUNPOU
100
AcDbLine
 10
104.3895418600732
 20
59.41525666185157
 30
0.0
 11
35.86210426815137
 21
59.41525666185159
 31
0.0
  0
LINE
  5
128E
330
1180
100
AcDbEntity
  8
SUNPOU
100
AcDbLine
 10
37.1121042681514
 20
215.9154566618517
 30
0.0
 11
37.11210426815137
 21
62.41525666185159
 31
0.0
  0
INSERT
  5
128F
330
1180
100
AcDbEntity
  8
SUNPOU
100
AcDbBlockReference
  2
_OPEN
 10
37.1121042681514
 20
218.9154566618517
 30
0.0
 41
3.0
 42
3.0
 43
3.0
 50
90.0
  0
INSERT
  5
1290
330
1180
100
AcDbEntity
  8
SUNPOU
100
AcDbBlockReference
  2
_OPEN
 10
37.11210426815137
 20
59.41525666185159
 30
0.0
 41
3.0
 42
3.0
 43
3.0
 50
270.0
  0
MTEXT
  5
1291
330
1180
100
AcDbEntity
  8
SUNPOU
100
AcDbMText
 10
34.61210426815136
 20
139.1653566618516
 30
0.0
 40
3.0
 41
0.0
 71
     5
 72
     1
  1
\A1;160
 11
0.0000000000000001
 21
1.0
 31
0.0
 73
     1
 44
1.0
  0
POINT
  5
1292
330
1180
100
AcDbEntity
  8
DEFPOINTS
 62
     0
100
AcDbPoint
 10
48.88994186007335
 20
218.9154566618517
 30
0.0
  0
POINT
  5
1293
330
1180
100
AcDbEntity
  8
DEFPOINTS
 62
     0
100
AcDbPoint
 10
106.3895418600732
 20
59.41525666185157
 30
0.0
  0
POINT
  5
1294
330
1180
100
AcDbEntity
  8
DEFPOINTS
 62
     0
100
AcDbPoint
 10
37.11210426815137
 20
59.41525666185159
 30
0.0
  0
ENDBLK
  5
118B
330
1180
100
AcDbEntity
  8
0
100
AcDbBlockEnd
  0
BLOCK
  5
1196
330
118C
100
AcDbEntity
  8
0
100
AcDbBlockBegin
  2
*D6
 70
     1
 10
0.0
 20
0.0
 30
0.0
  3
*D6
  1

  0
LINE
  5
129E
330
118C
100
AcDbEntity
  8
SUNPOU
100
AcDbLine
 10
291.6718665316382
 20
57.4151566618516
 30
0.0
 11
291.6718665316382
 21
44.57526819038434
 31
0.0
  0
LINE
  5
129F
330
118C
100
AcDbEntity
  8
SUNPOU
100
AcDbLine
 10
333.6718665316382
 20
57.4151566618516
 30
0.0
 11
333.6718665316382
 21
44.57526819038434
 31
0.0
  0
LINE
  5
12A0
330
118C
100
AcDbEntity
  8
SUNPOU
100
AcDbLine
 10
294.6718665316382
 20
45.82526819038434
 30
0.0
 11
330.6718665316382
 21
45.82526819038434
 31
0.0
  0
INSERT
  5
12A1
330
118C
100
AcDbEntity
  8
SUNPOU
100
AcDbBlockReference
  2
_OPEN
 10
291.6718665316382
 20
45.82526819038434
 30
0.0
 41
3.0
 42
3.0
 43
3.0
 50
180.0
  0
INSERT
  5
12A2
330
118C
100
AcDbEntity
  8
SUNPOU
100
AcDbBlockReference
  2
_OPEN
 10
333.6718665316382
 20
45.82526819038434
 30
0.0
 41
3.0
 42
3.0
 43
3.0
  0
MTEXT
  5
12A3
330
118C
100
AcDbEntity
  8
SUNPOU
100
AcDbMText
 10
312.6718665316382
 20
48.32526819038434
 30
0.0
 40
3.0
 41
0.0
 71
     5
 72
     1
  1
\A1;42
 73
     1
 44
1.0
  0
POINT
  5
12A4
330
118C
100
AcDbEntity
  8
DEFPOINTS
 62
     0
100
AcDbPoint
 10
291.6718665316382
 20
59.4151566618516
 30
0.0
  0
POINT
  5
12A5
330
118C
100
AcDbEntity
  8
DEFPOINTS
 62
     0
100
AcDbPoint
 10
333.6718665316382
 20
59.4151566618516
 30
0.0
  0
POINT
  5
12A6
330
118C
100
AcDbEntity
  8
DEFPOINTS
 62
     0
100
AcDbPoint
 10
333.6718665316382
 20
45.82526819038434
 30
0.0
  0
ENDBLK
  5
1197
330
118C
100
AcDbEntity
  8
0
100
AcDbBlockEnd
  0
ENDSEC
  0
SECTION
  2
ENTITIES
  0
LINE
  5
D1A
330
1A
100
AcDbEntity
  8
ZUWAKU
100
AcDbLine
 10
104.32330065859
 20
7.599999868288701
 30
0.0
 11
223.7121819990517
 21
7.599999868288698
 31
0.0
  0
LINE
  5
D1B
330
1A
100
AcDbEntity
  8
ZUWAKU
100
AcDbLine
 10
104.32330065859
 20
7.799999868288699
 30
0.0
 11
223.7121819990517
 21
7.799999868288702
 31
0.0
  0
LINE
  5
D1C
330
1A
100
AcDbEntity
  8
ZUWAKU
100
AcDbLine
 10
104.32330065859
 20
7.699999868288699
 30
0.0
 11
223.7121819990517
 21
7.699999868288699
 31
0.0
  0
LINE
  5
D1D
330
1A
100
AcDbEntity
  8
ZUWAKU
100
AcDbLine
 10
0.0000000135560185
 20
15.39999986828869
 30
0.0
 11
398.7000000135559
 21
15.39999986828869
 31
0.0
  0
LINE
  5
D1E
330
1A
100
AcDbEntity
  8
ZUWAKU
100
AcDbLine
 10
0.0000000135560185
 20
15.29999986828868
 30
0.0
 11
398.7000000135559
 21
15.29999986828868
 31
0.0
  0
LINE
  5
D1F
330
1A
100
AcDbEntity
  8
ZUWAKU
100
AcDbLine
 10
0.0000000135560185
 20
15.19999986828868
 30
0.0
 11
398.7000000135559
 21
15.19999986828868
 31
0.0
  0
LINE
  5
D20
330
1A
100
AcDbEntity
  8
ZUWAKU
100
AcDbLine
 10
0.0000000135560185
 20
15.09999986828868
 30
0.0
 11
398.7000000135559
 21
15.09999986828868
 31
0.0
  0
LINE
  5
D21
330
1A
100
AcDbEntity
  8
ZUWAKU
100
AcDbLine
 10
0.0000000135560185
 20
14.99999986828868
 30
0.0
 11
398.7000000135559
 21
14.99999986828868
 31
0.0
  0
LWPOLYLINE
  5
D22
330
1A
100
AcDbEntity
  8
ZUWAKU
100
AcDbPolyline
 90
        4
 70
     1
 43
0.0
 10
0.1000000135559844
 20
275.6999998682887
 10
0.1000000135559844
 20
0.0999998682887054
 10
398.7000000135559
 20
0.0999998682887169
 10
398.700000013556
 20
275.6999998682887
  0
LWPOLYLINE
  5
D23
330
1A
100
AcDbEntity
  8
ZUWAKU
100
AcDbPolyline
 90
        4
 70
     1
 43
0.0
 10
0.300000013555973
 20
275.4999998682887
 10
0.300000013555973
 20
0.2999998682886939
 10
398.5000000135561
 20
0.299999868288717
 10
398.500000013556
 20
275.4999998682887
  0
LWPOLYLINE
  5
D24
330
1A
100
AcDbEntity
  8
ZUWAKU
100
AcDbPolyline
 90
        4
 70
     1
 43
0.0
 10
0.0000000135560185
 20
275.7999998682886
 10
0.0000000135560185
 20
-0.0000001317113174
 10
398.800000013556
 20
-0.0000001317112837
 10
398.800000013556
 20
275.7999998682887
  0
LWPOLYLINE
  5
D25
330
1A
100
AcDbEntity
  8
ZUWAKU
100
AcDbPolyline
 90
        4
 70
     1
 43
0.0
 10
0.2000000135560072
 20
275.5999998682887
 10
0.2000000135560072
 20
0.1999998682887281
 10
398.600000013556
 20
0.1999998682887165
 10
398.600000013556
 20
275.5999998682887
  0
LWPOLYLINE
  5
D26
330
1A
100
AcDbEntity
  8
ZUWAKU
100
AcDbPolyline
 90
        4
 70
     1
 43
0.0
 10
0.4000000135559958
 20
275.3999998682887
 10
0.4000000135559958
 20
0.3999998682887167
 10
398.4000000135559
 20
0.3999998682887167
 10
398.4000000135559
 20
275.3999998682887
  0
TEXT
  5
D27
330
1A
100
AcDbEntity
  8
moji
100
AcDbText
 10
46.47889480764058
 20
6.370588933426063
 30
0.0
 40
3.0
  1
ライナートップＸ４０
 41
0.9
  7
ｽﾀｲﾙ1
100
AcDbText
  0
HATCH
  5
D28
330
1A
100
AcDbEntity
  8
ZUWAKU
100
AcDbHatch
 10
0.0
 20
0.0
 30
0.0
210
0.0
220
0.0
230
1.0
  2
ANSI37
 70
     0
 71
     0
 91
        8
 92
        7
 72
     1
 73
     1
 93
       24
 10
7.251131344115947
 20
8.822424108780474
 42
-0.1989123673796348
 10
7.04610609094658
 20
9.317398855610999
 42
0.0
 10
7.04610609094658
 20
9.962499868288688
 42
-0.4142135623730912
 10
7.308606090946568
 20
10.22499986828868
 42
0.0
 10
8.796106090946523
 20
10.22499986828868
 42
0.4142135623731546
 10
9.058606090946568
 20
10.48749986828868
 42
0.0
 10
9.058606090946568
 20
11.36249986828868
 42
0.4142135623731586
 10
8.796106090946523
 20
11.62499986828868
 42
0.0
 10
7.04610609094658
 20
11.62499986828868
 42
0.4142135623730928
 10
5.646106090946602
 20
10.22499986828869
 42
0.0
 10
5.646106090946602
 20
9.317398855611063
 42
0.1989123673796619
 10
6.261181850454818
 20
7.832474615119259
 42
0.0
 10
7.716080837777155
 20
6.377575627796931
 42
-0.1989123673796613
 10
7.92110609094658
 20
5.882600880966338
 42
0.0
 10
7.92110609094658
 20
5.237499868288679
 42
-0.4142135623730911
 10
7.658606090946591
 20
4.974999868288684
 42
0.0
 10
6.171106090946636
 20
4.974999868288684
 42
0.4142135623731526
 10
5.908606090946591
 20
4.71249986828869
 42
0.0
 10
5.908606090946591
 20
3.837499868288679
 42
0.4142135623731526
 10
6.171106090946636
 20
3.574999868288685
 42
0.0
 10
7.92110609094658
 20
3.574999868288685
 42
0.4142135623731044
 10
9.321106090946614
 20
4.974999868288673
 42
0.0
 10
9.321106090946614
 20
5.882600880966309
 42
0.1989123673796604
 10
8.706030331438341
 20
7.367525121458079
 42
0.0
 97
        0
 92
        7
 72
     1
 73
     1
 93
       16
 10
11.7711060909466
 20
9.524999868288688
 42
-0.4142135623730935
 10
12.47110609094659
 20
10.22499986828868
 42
0.0
 10
13.43360609094657
 20
10.22499986828868
 42
0.4142135623731546
 10
13.69610609094661
 20
10.48749986828868
 42
0.0
 10
13.69610609094661
 20
11.36249986828868
 42
0.4142135623730951
 10
13.43360609094662
 20
11.62499986828868
 42
0.0
 10
12.47110609094653
 20
11.62499986828866
 42
0.4142135623730892
 10
10.37110609094656
 20
9.524999868288652
 42
0.0
 10
10.37110609094656
 20
5.674999868288697
 42
0.4142135623730969
 10
12.47110609094659
 20
3.574999868288685
 42
0.0
 10
13.43360609094657
 20
3.574999868288685
 42
0.4142135623731526
 10
13.69610609094661
 20
3.837499868288679
 42
0.0
 10
13.69610609094661
 20
4.71249986828869
 42
0.4142135623730891
 10
13.43360609094662
 20
4.974999868288684
 42
0.0
 10
12.47110609094659
 20
4.974999868288684
 42
-0.4142135623730928
 10
11.7711060909466
 20
5.674999868288677
 42
0.0
 97
        0
 92
        7
 72
     1
 73
     1
 93
        2
 10
12.12110609094656
 20
7.599999868288684
 42
1.0
 10
13.87110609094657
 20
7.599999868288684
 42
1.0
 97
        0
 92
        7
 72
     1
 73
     1
 93
       26
 10
18.65742933203557
 20
9.602523465070397
 42
0.0
 10
19.18824914860448
 20
11.28345288420519
 42
0.5069206636600134
 10
18.9379336990068
 20
11.62499986828868
 42
0.0
 10
18.08848900920219
 20
11.62499986828868
 42
0.3272098845218764
 10
17.83817355960451
 20
11.44154685237217
 42
0.0
 10
16.90403862228862
 20
8.483452884205224
 42
-0.3272098845219541
 10
16.65372317269088
 20
8.299999868288683
 42
0.0
 10
16.58360609094666
 20
8.299999868288683
 42
-0.4142135623731526
 10
16.32110609094661
 20
8.562499868288677
 42
0.0
 10
16.32110609094661
 20
11.36249986828868
 42
0.4142135623730951
 10
16.05860609094662
 20
11.62499986828868
 42
0.0
 10
15.18360609094656
 20
11.62499986828868
 42
0.4142135623730871
 10
14.92110609094658
 20
11.36249986828869
 42
0.0
 10
14.92110609094658
 20
3.837499868288679
 42
0.4142135623730891
 10
15.18360609094656
 20
3.574999868288685
 42
0.0
 10
16.05860609094657
 20
3.574999868288685
 42
0.4142135623731526
 10
16.32110609094661
 20
3.837499868288679
 42
0.0
 10
16.32110609094661
 20
6.63749986828869
 42
-0.4142135623731526
 10
16.58360609094666
 20
6.899999868288684
 42
0.0
 10
16.65372317269094
 20
6.899999868288684
 42
-0.3272098845218915
 10
16.90403862228862
 20
6.716546852372147
 42
0.0
 10
17.83817355960451
 20
3.758452884205221
 42
0.3272098845218902
 10
18.08848900920219
 20
3.574999868288685
 42
0.0
 10
18.9379336990068
 20
3.574999868288685
 42
0.5069206636600335
 10
19.18824914860448
 20
3.916546852372189
 42
0.0
 10
18.02505345936765
 20
7.599999868288753
 42
0.0
 97
        0
 92
        7
 72
     1
 73
     1
 93
        8
 10
21.74610609094656
 20
11.36249986828869
 42
0.4142135623731546
 10
21.48360609094652
 20
11.62499986828868
 42
0.0
 10
20.60860609094663
 20
11.62499986828868
 42
0.4142135623731507
 10
20.34610609094659
 20
11.36249986828869
 42
0.0
 10
20.34610609094659
 20
3.837499868288679
 42
0.4142135623731526
 10
20.60860609094663
 20
3.574999868288685
 42
0.0
 10
21.48360609094652
 20
3.574999868288685
 42
0.4142135623731526
 10
21.74610609094656
 20
3.837499868288679
 42
0.0
 97
        0
 92
        7
 72
     1
 73
     1
 93
       24
 10
24.19610609094661
 20
9.962499868288688
 42
-0.4142135623731546
 10
24.45860609094665
 20
10.22499986828868
 42
0.0
 10
25.94610609094661
 20
10.22499986828868
 42
0.4142135623730911
 10
26.2086060909466
 20
10.48749986828868
 42
0.0
 10
26.2086060909466
 20
11.36249986828868
 42
0.4142135623730952
 10
25.94610609094661
 20
11.62499986828868
 42
0.0
 10
24.19610609094661
 20
11.62499986828868
 42
0.4142135623731048
 10
22.79610609094658
 20
10.22499986828869
 42
0.0
 10
22.79610609094658
 20
9.317398855611063
 42
0.1989123673796613
 10
23.41118185045485
 20
7.832474615119288
 42
0.0
 10
24.86608083777719
 20
6.377575627796954
 42
-0.1989123673796402
 10
25.07110609094661
 20
5.882600880966418
 42
0.0
 10
25.07110609094661
 20
5.237499868288679
 42
-0.4142135623730911
 10
24.80860609094662
 20
4.974999868288684
 42
0.0
 10
23.32110609094661
 20
4.974999868288684
 42
0.4142135623731526
 10
23.05860609094656
 20
4.71249986828869
 42
0.0
 10
23.05860609094656
 20
3.837499868288679
 42
0.4142135623730891
 10
23.32110609094655
 20
3.574999868288685
 42
0.0
 10
25.07110609094661
 20
3.574999868288685
 42
0.4142135623730925
 10
26.47110609094659
 20
4.974999868288673
 42
0.0
 10
26.47110609094659
 20
5.882600880966309
 42
0.1989123673796675
 10
25.85603033143831
 20
7.367525121458136
 42
0.0
 10
24.40113134411603
 20
8.822424108780394
 42
-0.1989123673796652
 10
24.19610609094661
 20
9.317398855610978
 42
0.0
 97
        0
 92
        7
 72
     1
 73
     1
 93
       16
 10
28.92110609094658
 20
11.36249986828868
 42
0.414213562373103
 10
28.65860609094659
 20
11.62499986828868
 42
0.0
 10
27.78360609094659
 20
11.62499986828868
 42
0.4142135623730871
 10
27.5211060909466
 20
11.36249986828869
 42
0.0
 10
27.5211060909466
 20
4.974999868288673
 42
0.4142135623730926
 10
28.92110609094658
 20
3.574999868288685
 42
0.0
 10
30.67110609094658
 20
3.574999868288685
 42
0.4142135623731044
 10
32.07110609094661
 20
4.974999868288673
 42
0.0
 10
32.07110609094661
 20
11.36249986828868
 42
0.4142135623730951
 10
31.80860609094662
 20
11.62499986828868
 42
0.0
 10
30.93360609094657
 20
11.62499986828868
 42
0.4142135623730871
 10
30.67110609094658
 20
11.36249986828869
 42
0.0
 10
30.67110609094658
 20
5.499999868288671
 42
-0.414213562373088
 10
30.1461060909466
 20
4.974999868288684
 42
0.0
 10
29.44610609094661
 20
4.974999868288684
 42
-0.4142135623731197
 10
28.92110609094658
 20
5.499999868288671
 42
0.0
 97
        0
 92
        7
 72
     1
 73
     1
 93
        8
 10
34.5211060909466
 20
11.36249986828869
 42
0.4142135623730871
 10
34.25860609094661
 20
11.62499986828868
 42
0.0
 10
33.38360609094661
 20
11.62499986828868
 42
0.4142135623731507
 10
33.12110609094657
 20
11.36249986828869
 42
0.0
 10
33.12110609094657
 20
3.837499868288679
 42
0.4142135623730891
 10
33.38360609094655
 20
3.574999868288685
 42
0.0
 10
34.25860609094661
 20
3.574999868288685
 42
0.4142135623730891
 10
34.5211060909466
 20
3.837499868288679
 42
0.0
 97
        0
 75
     0
 76
     1
 52
0.0
 41
0.1
 77
     0
 78
     2
 53
45.0
 43
-450.4711521537834
 44
-6.600000131711283
 45
-0.2245064030267288
 46
0.2245064030267288
 79
     0
 53
135.0
 43
-450.4711521537834
 44
-6.600000131711283
 45
-0.2245064030267288
 46
-0.2245064030267288
 79
     0
 47
0.057451373970553
 98
        8
 10
8.039927495067672
 20
7.58358669123146
 10
11.2022575167756
 20
9.422030959514188
 10
12.58218395638584
 20
7.755940691324042
 10
15.45703000437458
 20
8.100648691509434
 10
20.91923602303438
 20
8.330454825280241
 10
23.44910046112079
 20
9.709288026492288
 10
28.27884299975619
 20
9.36457882583619
 10
33.91353982336738
 20
9.594384959606998
  0
LINE
  5
D29
330
1A
100
AcDbEntity
  8
ZUWAKU
100
AcDbLine
 10
12.47110609094659
 20
11.62499986828866
 30
0.0
 11
13.43360609094657
 21
11.62499986828868
 31
0.0
  0
LINE
  5
D2A
330
1A
100
AcDbEntity
  8
ZUWAKU
100
AcDbLine
 10
13.43360609094657
 20
10.22499986828868
 30
0.0
 11
12.47110609094659
 21
10.22499986828868
 31
0.0
  0
LINE
  5
D2B
330
1A
100
AcDbEntity
  8
ZUWAKU
100
AcDbLine
 10
12.47110609094659
 20
4.974999868288684
 30
0.0
 11
13.43360609094657
 21
4.974999868288684
 31
0.0
  0
LINE
  5
D2C
330
1A
100
AcDbEntity
  8
ZUWAKU
100
AcDbLine
 10
13.43360609094657
 20
3.574999868288685
 30
0.0
 11
12.47110609094659
 21
3.574999868288685
 31
0.0
  0
CIRCLE
  5
D2D
330
1A
100
AcDbEntity
  8
ZUWAKU
100
AcDbCircle
 10
12.99610609094656
 20
7.599999868288684
 30
0.0
 40
0.875
  0
ARC
  5
D2E
330
1A
100
AcDbEntity
  8
ZUWAKU
100
AcDbCircle
 10
7.746106090946568
 20
9.317398855611035
 30
0.0
 40
0.7
100
AcDbArc
 50
180.0000000000016
 51
224.9999999999988
  0
LINE
  5
D2F
330
1A
100
AcDbEntity
  8
ZUWAKU
100
AcDbLine
 10
11.7711060909466
 20
9.524999868288684
 30
0.0
 11
11.7711060909466
 21
5.674999868288686
 31
0.0
  0
LINE
  5
D30
330
1A
100
AcDbEntity
  8
ZUWAKU
100
AcDbLine
 10
10.37110609094656
 20
5.674999868288686
 30
0.0
 11
10.37110609094656
 21
9.524999868288663
 31
0.0
  0
ARC
  5
D31
330
1A
100
AcDbEntity
  8
ZUWAKU
100
AcDbCircle
 10
7.746106090946568
 20
9.317398855611035
 30
0.0
 40
2.099999999999999
100
AcDbArc
 50
180.0
 51
225.0
  0
ARC
  5
D32
330
1A
100
AcDbEntity
  8
ZUWAKU
100
AcDbCircle
 10
7.92110609094658
 20
4.974999868288684
 30
0.0
 40
1.399999999999999
100
AcDbArc
 50
270.0
 51
0.0
  0
ARC
  5
D33
330
1A
100
AcDbEntity
  8
ZUWAKU
100
AcDbCircle
 10
12.47110609094659
 20
5.674999868288686
 30
0.0
 40
2.099999999999999
100
AcDbArc
 50
180.0
 51
270.0
  0
ARC
  5
D34
330
1A
100
AcDbEntity
  8
ZUWAKU
100
AcDbCircle
 10
7.221106090946591
 20
5.882600880966336
 30
0.0
 40
2.099999999999999
100
AcDbArc
 50
0.0
 51
45.0
  0
LINE
  5
D35
330
1A
100
AcDbEntity
  8
ZUWAKU
100
AcDbLine
 10
8.706030331438341
 20
7.367525121458097
 30
0.0
 11
7.251131344116004
 21
8.822424108780435
 31
0.0
  0
LINE
  5
D36
330
1A
100
AcDbEntity
  8
ZUWAKU
100
AcDbLine
 10
7.92110609094658
 20
5.237499868288686
 30
0.0
 11
7.92110609094658
 21
5.882600880966357
 31
0.0
  0
ARC
  5
D37
330
1A
100
AcDbEntity
  8
ZUWAKU
100
AcDbCircle
 10
7.658606090946591
 20
5.237499868288686
 30
0.0
 40
0.2625
100
AcDbArc
 50
270.0
 51
0.0
  0
ARC
  5
D38
330
1A
100
AcDbEntity
  8
ZUWAKU
100
AcDbCircle
 10
7.221106090946591
 20
5.882600880966357
 30
0.0
 40
0.7
100
AcDbArc
 50
0.0
 51
45.0
  0
LINE
  5
D39
330
1A
100
AcDbEntity
  8
ZUWAKU
100
AcDbLine
 10
5.908606090946591
 20
3.837499868288684
 30
0.0
 11
5.908606090946591
 21
4.712499868288684
 31
0.0
  0
ARC
  5
D3A
330
1A
100
AcDbEntity
  8
ZUWAKU
100
AcDbCircle
 10
6.17110609094658
 20
3.837499868288684
 30
0.0
 40
0.2625
100
AcDbArc
 50
180.0
 51
270.0
  0
ARC
  5
D3B
330
1A
100
AcDbEntity
  8
ZUWAKU
100
AcDbCircle
 10
6.17110609094658
 20
4.712499868288684
 30
0.0
 40
0.2625
100
AcDbArc
 50
90.0
 51
180.0
  0
LINE
  5
D3C
330
1A
100
AcDbEntity
  8
ZUWAKU
100
AcDbLine
 10
6.17110609094658
 20
3.574999868288685
 30
0.0
 11
7.92110609094658
 21
3.574999868288685
 31
0.0
  0
LINE
  5
D3D
330
1A
100
AcDbEntity
  8
ZUWAKU
100
AcDbLine
 10
6.17110609094658
 20
4.974999868288684
 30
0.0
 11
7.658606090946591
 21
4.974999868288684
 31
0.0
  0
LINE
  5
D3E
330
1A
100
AcDbEntity
  8
ZUWAKU
100
AcDbLine
 10
6.261181850454818
 20
7.832474615119274
 30
0.0
 11
7.716080837777155
 21
6.377575627796943
 31
0.0
  0
LINE
  5
D3F
330
1A
100
AcDbEntity
  8
ZUWAKU
100
AcDbLine
 10
9.321106090946614
 20
4.974999868288684
 30
0.0
 11
9.321106090946614
 21
5.882600880966357
 31
0.0
  0
ARC
  5
D40
330
1A
100
AcDbEntity
  8
ZUWAKU
100
AcDbCircle
 10
12.47110609094659
 20
5.674999868288686
 30
0.0
 40
0.7
100
AcDbArc
 50
180.0
 51
270.0
  0
ARC
  5
D41
330
1A
100
AcDbEntity
  8
ZUWAKU
100
AcDbCircle
 10
8.79610609094658
 20
11.36249986828868
 30
0.0
 40
0.2625
100
AcDbArc
 50
0.0
 51
90.0
  0
ARC
  5
D42
330
1A
100
AcDbEntity
  8
ZUWAKU
100
AcDbCircle
 10
8.79610609094658
 20
10.48749986828868
 30
0.0
 40
0.2625
100
AcDbArc
 50
270.0
 51
0.0
  0
LINE
  5
D43
330
1A
100
AcDbEntity
  8
ZUWAKU
100
AcDbLine
 10
7.04610609094658
 20
11.62499986828868
 30
0.0
 11
8.79610609094658
 21
11.62499986828868
 31
0.0
  0
ARC
  5
D44
330
1A
100
AcDbEntity
  8
ZUWAKU
100
AcDbCircle
 10
7.308606090946568
 20
9.962499868288684
 30
0.0
 40
0.2625
100
AcDbArc
 50
90.0
 51
180.0
  0
LINE
  5
D45
330
1A
100
AcDbEntity
  8
ZUWAKU
100
AcDbLine
 10
7.04610609094658
 20
9.962499868288684
 30
0.0
 11
7.04610609094658
 21
9.317398855611013
 31
0.0
  0
LINE
  5
D46
330
1A
100
AcDbEntity
  8
ZUWAKU
100
AcDbLine
 10
8.79610609094658
 20
10.22499986828868
 30
0.0
 11
7.308606090946568
 21
10.22499986828868
 31
0.0
  0
LINE
  5
D47
330
1A
100
AcDbEntity
  8
ZUWAKU
100
AcDbLine
 10
5.646106090946602
 20
10.22499986828868
 30
0.0
 11
5.646106090946602
 21
9.317398855611013
 31
0.0
  0
ARC
  5
D48
330
1A
100
AcDbEntity
  8
ZUWAKU
100
AcDbCircle
 10
7.04610609094658
 20
10.22499986828868
 30
0.0
 40
1.399999999999999
100
AcDbArc
 50
90.0
 51
180.0
  0
LINE
  5
D49
330
1A
100
AcDbEntity
  8
ZUWAKU
100
AcDbLine
 10
9.058606090946568
 20
11.36249986828868
 30
0.0
 11
9.058606090946568
 21
10.48749986828868
 31
0.0
  0
ARC
  5
D4A
330
1A
100
AcDbEntity
  8
ZUWAKU
100
AcDbCircle
 10
12.47110609094659
 20
9.524999868288684
 30
0.0
 40
0.7
100
AcDbArc
 50
90.0
 51
180.0
  0
ARC
  5
D4B
330
1A
100
AcDbEntity
  8
ZUWAKU
100
AcDbCircle
 10
12.47110609094659
 20
9.524999868288663
 30
0.0
 40
2.099999999999999
100
AcDbArc
 50
90.0
 51
180.0
  0
LINE
  5
D4C
330
1A
100
AcDbEntity
  8
ZUWAKU
100
AcDbLine
 10
39.66331478755012
 20
14.99999986828868
 30
0.0
 11
39.66331478755023
 21
0.3999998682887167
 31
0.0
  0
LINE
  5
D4D
330
1A
100
AcDbEntity
  8
ZUWAKU
100
AcDbLine
 10
39.76331478755014
 20
14.99999986828868
 30
0.0
 11
39.76331478755025
 21
0.3999998682887167
 31
0.0
  0
LINE
  5
D4E
330
1A
100
AcDbEntity
  8
ZUWAKU
100
AcDbLine
 10
39.56331478755021
 20
14.99999986828868
 30
0.0
 11
39.56331478755021
 21
0.3999998682887167
 31
0.0
  0
LINE
  5
D4F
330
1A
100
AcDbEntity
  8
ZUWAKU
100
AcDbLine
 10
32.07110609094661
 20
4.974999868288684
 30
0.0
 11
32.07110609094661
 21
11.36249986828868
 31
0.0
  0
LINE
  5
D50
330
1A
100
AcDbEntity
  8
ZUWAKU
100
AcDbLine
 10
30.67110609094658
 20
11.36249986828868
 30
0.0
 11
30.67110609094658
 21
5.499999868288682
 31
0.0
  0
LINE
  5
D51
330
1A
100
AcDbEntity
  8
ZUWAKU
100
AcDbLine
 10
34.5211060909466
 20
3.837499868288684
 30
0.0
 11
34.5211060909466
 21
11.36249986828868
 31
0.0
  0
LINE
  5
D52
330
1A
100
AcDbEntity
  8
ZUWAKU
100
AcDbLine
 10
33.12110609094657
 20
11.36249986828868
 30
0.0
 11
33.12110609094657
 21
3.837499868288684
 31
0.0
  0
ARC
  5
D53
330
1A
100
AcDbEntity
  8
ZUWAKU
100
AcDbCircle
 10
24.8961060909466
 20
9.317398855611035
 30
0.0
 40
0.7
100
AcDbArc
 50
180.0000000000016
 51
224.9999999999988
  0
ARC
  5
D54
330
1A
100
AcDbEntity
  8
ZUWAKU
100
AcDbCircle
 10
24.8961060909466
 20
9.317398855611035
 30
0.0
 40
2.099999999999999
100
AcDbArc
 50
180.0
 51
225.0
  0
LINE
  5
D55
330
1A
100
AcDbEntity
  8
ZUWAKU
100
AcDbLine
 10
18.65742933203557
 20
9.602523465070397
 30
0.0
 11
18.02505345936765
 21
7.599999868288694
 31
0.0
  0
LINE
  5
D56
330
1A
100
AcDbEntity
  8
ZUWAKU
100
AcDbLine
 10
20.34610609094659
 20
11.36249986828868
 30
0.0
 11
20.34610609094659
 21
3.837499868288684
 31
0.0
  0
LINE
  5
D57
330
1A
100
AcDbEntity
  8
ZUWAKU
100
AcDbLine
 10
21.74610609094656
 20
3.837499868288684
 30
0.0
 11
21.74610609094656
 21
11.36249986828868
 31
0.0
  0
LINE
  5
D58
330
1A
100
AcDbEntity
  8
ZUWAKU
100
AcDbLine
 10
27.5211060909466
 20
11.36249986828868
 30
0.0
 11
27.5211060909466
 21
4.974999868288684
 31
0.0
  0
LINE
  5
D59
330
1A
100
AcDbEntity
  8
ZUWAKU
100
AcDbLine
 10
28.92110609094658
 20
5.499999868288682
 30
0.0
 11
28.92110609094658
 21
11.36249986828868
 31
0.0
  0
LINE
  5
D5A
330
1A
100
AcDbEntity
  8
ZUWAKU
100
AcDbLine
 10
16.32110609094661
 20
8.562499868288686
 30
0.0
 11
16.32110609094661
 21
11.36249986828868
 31
0.0
  0
LINE
  5
D5B
330
1A
100
AcDbEntity
  8
ZUWAKU
100
AcDbLine
 10
14.92110609094658
 20
11.36249986828868
 30
0.0
 11
14.92110609094658
 21
3.837499868288684
 31
0.0
  0
LINE
  5
D5C
330
1A
100
AcDbEntity
  8
ZUWAKU
100
AcDbLine
 10
17.83817355960451
 20
11.44154685237217
 30
0.0
 11
16.90403862228862
 21
8.483452884205199
 31
0.0
  0
LINE
  5
D5D
330
1A
100
AcDbEntity
  8
ZUWAKU
100
AcDbLine
 10
30.1461060909466
 20
4.974999868288684
 30
0.0
 11
29.44610609094661
 21
4.974999868288684
 31
0.0
  0
LINE
  5
D5E
330
1A
100
AcDbEntity
  8
ZUWAKU
100
AcDbLine
 10
28.92110609094658
 20
3.574999868288685
 30
0.0
 11
30.67110609094658
 21
3.574999868288685
 31
0.0
  0
LINE
  5
D5F
330
1A
100
AcDbEntity
  8
ZUWAKU
100
AcDbLine
 10
20.60860609094658
 20
3.574999868288685
 30
0.0
 11
21.48360609094658
 21
3.574999868288685
 31
0.0
  0
LINE
  5
D60
330
1A
100
AcDbEntity
  8
ZUWAKU
100
AcDbLine
 10
17.83817355960451
 20
3.758452884205198
 30
0.0
 11
16.90403862228862
 21
6.716546852372168
 31
0.0
  0
ARC
  5
D61
330
1A
100
AcDbEntity
  8
ZUWAKU
100
AcDbCircle
 10
16.65372317269094
 20
8.562499868288686
 30
0.0
 40
0.2625
100
AcDbArc
 50
270.0
 51
342.4744316262769
  0
LINE
  5
D62
330
1A
100
AcDbEntity
  8
ZUWAKU
100
AcDbLine
 10
16.65372317269094
 20
8.299999868288683
 30
0.0
 11
16.5836060909466
 21
8.299999868288683
 31
0.0
  0
LINE
  5
D63
330
1A
100
AcDbEntity
  8
ZUWAKU
100
AcDbLine
 10
16.5836060909466
 20
6.899999868288684
 30
0.0
 11
16.65372317269094
 21
6.899999868288684
 31
0.0
  0
ARC
  5
D64
330
1A
100
AcDbEntity
  8
ZUWAKU
100
AcDbCircle
 10
16.5836060909466
 20
8.562499868288686
 30
0.0
 40
0.2625
100
AcDbArc
 50
180.0
 51
270.0
  0
LINE
  5
D65
330
1A
100
AcDbEntity
  8
ZUWAKU
100
AcDbLine
 10
15.18360609094656
 20
3.574999868288685
 30
0.0
 11
16.05860609094657
 21
3.574999868288685
 31
0.0
  0
ARC
  5
D66
330
1A
100
AcDbEntity
  8
ZUWAKU
100
AcDbCircle
 10
16.05860609094657
 20
3.837499868288684
 30
0.0
 40
0.2625
100
AcDbArc
 50
270.0
 51
0.0
  0
LINE
  5
D67
330
1A
100
AcDbEntity
  8
ZUWAKU
100
AcDbLine
 10
16.32110609094661
 20
3.837499868288684
 30
0.0
 11
16.32110609094661
 21
6.637499868288685
 31
0.0
  0
LINE
  5
D68
330
1A
100
AcDbEntity
  8
ZUWAKU
100
AcDbLine
 10
13.69610609094661
 20
4.712499868288684
 30
0.0
 11
13.69610609094661
 21
3.837499868288684
 31
0.0
  0
ARC
  5
D69
330
1A
100
AcDbEntity
  8
ZUWAKU
100
AcDbCircle
 10
13.43360609094657
 20
3.837499868288684
 30
0.0
 40
0.2625
100
AcDbArc
 50
270.0
 51
0.0
  0
ARC
  5
D6A
330
1A
100
AcDbEntity
  8
ZUWAKU
100
AcDbCircle
 10
13.43360609094657
 20
4.712499868288684
 30
0.0
 40
0.2625
100
AcDbArc
 50
0.0
 51
90.0
  0
ARC
  5
D6B
330
1A
100
AcDbEntity
  8
ZUWAKU
100
AcDbCircle
 10
15.18360609094656
 20
3.837499868288684
 30
0.0
 40
0.2625
100
AcDbArc
 50
180.0
 51
270.0
  0
ARC
  5
D6C
330
1A
100
AcDbEntity
  8
ZUWAKU
100
AcDbCircle
 10
16.65372317269094
 20
6.637499868288685
 30
0.0
 40
0.2625
100
AcDbArc
 50
17.52556837372303
 51
90.0
  0
ARC
  5
D6D
330
1A
100
AcDbEntity
  8
ZUWAKU
100
AcDbCircle
 10
16.5836060909466
 20
6.637499868288685
 30
0.0
 40
0.2625
100
AcDbArc
 50
90.0
 51
180.0
  0
ARC
  5
D6E
330
1A
100
AcDbEntity
  8
ZUWAKU
100
AcDbCircle
 10
20.60860609094658
 20
3.837499868288684
 30
0.0
 40
0.2625
100
AcDbArc
 50
180.0
 51
270.0
  0
LINE
  5
D6F
330
1A
100
AcDbEntity
  8
ZUWAKU
100
AcDbLine
 10
18.08848900920224
 20
3.574999868288685
 30
0.0
 11
18.93793369900675
 21
3.574999868288685
 31
0.0
  0
ARC
  5
D70
330
1A
100
AcDbEntity
  8
ZUWAKU
100
AcDbCircle
 10
18.93793369900675
 20
3.837499868288684
 30
0.0
 40
0.2625
100
AcDbArc
 50
270.0
 51
17.52556837372303
  0
LINE
  5
D71
330
1A
100
AcDbEntity
  8
ZUWAKU
100
AcDbLine
 10
19.18824914860448
 20
3.916546852372171
 30
0.0
 11
18.02505345936765
 21
7.599999868288694
 31
0.0
  0
ARC
  5
D72
330
1A
100
AcDbEntity
  8
ZUWAKU
100
AcDbCircle
 10
18.08848900920224
 20
3.837499868288684
 30
0.0
 40
0.2625
100
AcDbArc
 50
197.525568373723
 51
270.0
  0
ARC
  5
D73
330
1A
100
AcDbEntity
  8
ZUWAKU
100
AcDbCircle
 10
28.92110609094658
 20
4.974999868288684
 30
0.0
 40
1.399999999999999
100
AcDbArc
 50
180.0
 51
270.0
  0
ARC
  5
D74
330
1A
100
AcDbEntity
  8
ZUWAKU
100
AcDbCircle
 10
25.07110609094661
 20
4.974999868288684
 30
0.0
 40
1.399999999999999
100
AcDbArc
 50
270.0
 51
0.0
  0
LINE
  5
D75
330
1A
100
AcDbEntity
  8
ZUWAKU
100
AcDbLine
 10
25.85603033143837
 20
7.367525121458097
 30
0.0
 11
24.40113134411598
 21
8.822424108780435
 31
0.0
  0
LINE
  5
D76
330
1A
100
AcDbEntity
  8
ZUWAKU
100
AcDbLine
 10
25.07110609094661
 20
5.237499868288686
 30
0.0
 11
25.07110609094661
 21
5.882600880966357
 31
0.0
  0
ARC
  5
D77
330
1A
100
AcDbEntity
  8
ZUWAKU
100
AcDbCircle
 10
24.37110609094657
 20
5.882600880966357
 30
0.0
 40
0.7
100
AcDbArc
 50
0.0
 51
45.0
  0
ARC
  5
D78
330
1A
100
AcDbEntity
  8
ZUWAKU
100
AcDbCircle
 10
24.80860609094657
 20
5.237499868288686
 30
0.0
 40
0.2625
100
AcDbArc
 50
270.0
 51
0.0
  0
LINE
  5
D79
330
1A
100
AcDbEntity
  8
ZUWAKU
100
AcDbLine
 10
23.05860609094656
 20
3.837499868288684
 30
0.0
 11
23.05860609094656
 21
4.712499868288684
 31
0.0
  0
ARC
  5
D7A
330
1A
100
AcDbEntity
  8
ZUWAKU
100
AcDbCircle
 10
23.32110609094661
 20
3.837499868288684
 30
0.0
 40
0.2625
100
AcDbArc
 50
180.0
 51
270.0
  0
ARC
  5
D7B
330
1A
100
AcDbEntity
  8
ZUWAKU
100
AcDbCircle
 10
21.48360609094658
 20
3.837499868288684
 30
0.0
 40
0.2625
100
AcDbArc
 50
270.0
 51
0.0
  0
ARC
  5
D7C
330
1A
100
AcDbEntity
  8
ZUWAKU
100
AcDbCircle
 10
23.32110609094661
 20
4.712499868288684
 30
0.0
 40
0.2625
100
AcDbArc
 50
90.0
 51
180.0
  0
LINE
  5
D7D
330
1A
100
AcDbEntity
  8
ZUWAKU
100
AcDbLine
 10
23.32110609094661
 20
4.974999868288684
 30
0.0
 11
24.80860609094657
 21
4.974999868288684
 31
0.0
  0
LINE
  5
D7E
330
1A
100
AcDbEntity
  8
ZUWAKU
100
AcDbLine
 10
23.32110609094661
 20
3.574999868288685
 30
0.0
 11
25.07110609094661
 21
3.574999868288685
 31
0.0
  0
LINE
  5
D7F
330
1A
100
AcDbEntity
  8
ZUWAKU
100
AcDbLine
 10
23.41118185045485
 20
7.832474615119274
 30
0.0
 11
24.86608083777719
 21
6.377575627796943
 31
0.0
  0
LINE
  5
D80
330
1A
100
AcDbEntity
  8
ZUWAKU
100
AcDbLine
 10
26.47110609094659
 20
4.974999868288684
 30
0.0
 11
26.47110609094659
 21
5.882600880966357
 31
0.0
  0
ARC
  5
D81
330
1A
100
AcDbEntity
  8
ZUWAKU
100
AcDbCircle
 10
24.37110609094657
 20
5.882600880966336
 30
0.0
 40
2.099999999999999
100
AcDbArc
 50
0.0
 51
45.0
  0
ARC
  5
D82
330
1A
100
AcDbEntity
  8
ZUWAKU
100
AcDbCircle
 10
29.44610609094661
 20
5.499999868288682
 30
0.0
 40
0.525
100
AcDbArc
 50
180.0
 51
270.0
  0
ARC
  5
D83
330
1A
100
AcDbEntity
  8
ZUWAKU
100
AcDbCircle
 10
30.67110609094658
 20
4.974999868288684
 30
0.0
 40
1.399999999999999
100
AcDbArc
 50
270.0
 51
0.0
  0
LINE
  5
D84
330
1A
100
AcDbEntity
  8
ZUWAKU
100
AcDbLine
 10
33.38360609094661
 20
3.574999868288685
 30
0.0
 11
34.25860609094661
 21
3.574999868288685
 31
0.0
  0
ARC
  5
D85
330
1A
100
AcDbEntity
  8
ZUWAKU
100
AcDbCircle
 10
33.38360609094661
 20
3.837499868288684
 30
0.0
 40
0.2625
100
AcDbArc
 50
180.0
 51
270.0
  0
ARC
  5
D86
330
1A
100
AcDbEntity
  8
ZUWAKU
100
AcDbCircle
 10
30.1461060909466
 20
5.499999868288682
 30
0.0
 40
0.525
100
AcDbArc
 50
270.0
 51
0.0
  0
ARC
  5
D87
330
1A
100
AcDbEntity
  8
ZUWAKU
100
AcDbCircle
 10
34.25860609094661
 20
3.837499868288684
 30
0.0
 40
0.2625
100
AcDbArc
 50
270.0
 51
0.0
  0
LINE
  5
D88
330
1A
100
AcDbEntity
  8
ZUWAKU
100
AcDbLine
 10
21.48360609094658
 20
11.62499986828868
 30
0.0
 11
20.60860609094658
 21
11.62499986828868
 31
0.0
  0
ARC
  5
D89
330
1A
100
AcDbEntity
  8
ZUWAKU
100
AcDbCircle
 10
16.05860609094657
 20
11.36249986828868
 30
0.0
 40
0.2625
100
AcDbArc
 50
0.0
 51
90.0
  0
LINE
  5
D8A
330
1A
100
AcDbEntity
  8
ZUWAKU
100
AcDbLine
 10
16.05860609094657
 20
11.62499986828868
 30
0.0
 11
15.18360609094656
 21
11.62499986828868
 31
0.0
  0
ARC
  5
D8B
330
1A
100
AcDbEntity
  8
ZUWAKU
100
AcDbCircle
 10
13.43360609094657
 20
11.36249986828868
 30
0.0
 40
0.2625
100
AcDbArc
 50
0.0
 51
90.0
  0
ARC
  5
D8C
330
1A
100
AcDbEntity
  8
ZUWAKU
100
AcDbCircle
 10
15.18360609094656
 20
11.36249986828868
 30
0.0
 40
0.2625
100
AcDbArc
 50
90.0
 51
180.0
  0
ARC
  5
D8D
330
1A
100
AcDbEntity
  8
ZUWAKU
100
AcDbCircle
 10
13.43360609094657
 20
10.48749986828868
 30
0.0
 40
0.2625
100
AcDbArc
 50
270.0
 51
0.0
  0
LINE
  5
D8E
330
1A
100
AcDbEntity
  8
ZUWAKU
100
AcDbLine
 10
13.69610609094661
 20
11.36249986828868
 30
0.0
 11
13.69610609094661
 21
10.48749986828868
 31
0.0
  0
ARC
  5
D8F
330
1A
100
AcDbEntity
  8
ZUWAKU
100
AcDbCircle
 10
20.60860609094658
 20
11.36249986828868
 30
0.0
 40
0.2625
100
AcDbArc
 50
90.0
 51
180.0
  0
LINE
  5
D90
330
1A
100
AcDbEntity
  8
ZUWAKU
100
AcDbLine
 10
18.08848900920224
 20
11.62499986828868
 30
0.0
 11
18.93793369900675
 21
11.62499986828868
 31
0.0
  0
ARC
  5
D91
330
1A
100
AcDbEntity
  8
ZUWAKU
100
AcDbCircle
 10
18.93793369900675
 20
11.36249986828868
 30
0.0
 40
0.2625
100
AcDbArc
 50
342.4744316262769
 51
90.0
  0
LINE
  5
D92
330
1A
100
AcDbEntity
  8
ZUWAKU
100
AcDbLine
 10
19.18824914860448
 20
11.2834528842052
 30
0.0
 11
18.65742933203557
 21
9.602523465070397
 31
0.0
  0
ARC
  5
D93
330
1A
100
AcDbEntity
  8
ZUWAKU
100
AcDbCircle
 10
18.08848900920224
 20
11.36249986828868
 30
0.0
 40
0.2625
100
AcDbArc
 50
90.0
 51
162.4744316262769
  0
LINE
  5
D94
330
1A
100
AcDbEntity
  8
ZUWAKU
100
AcDbLine
 10
24.19610609094661
 20
11.62499986828868
 30
0.0
 11
25.94610609094661
 21
11.62499986828868
 31
0.0
  0
LINE
  5
D95
330
1A
100
AcDbEntity
  8
ZUWAKU
100
AcDbLine
 10
25.94610609094661
 20
10.22499986828868
 30
0.0
 11
24.4586060909466
 21
10.22499986828868
 31
0.0
  0
ARC
  5
D96
330
1A
100
AcDbEntity
  8
ZUWAKU
100
AcDbCircle
 10
24.4586060909466
 20
9.962499868288684
 30
0.0
 40
0.2625
100
AcDbArc
 50
90.0
 51
180.0
  0
LINE
  5
D97
330
1A
100
AcDbEntity
  8
ZUWAKU
100
AcDbLine
 10
24.19610609094661
 20
9.962499868288684
 30
0.0
 11
24.19610609094661
 21
9.317398855611013
 31
0.0
  0
ARC
  5
D98
330
1A
100
AcDbEntity
  8
ZUWAKU
100
AcDbCircle
 10
21.48360609094658
 20
11.36249986828868
 30
0.0
 40
0.2625
100
AcDbArc
 50
0.0
 51
90.0
  0
LINE
  5
D99
330
1A
100
AcDbEntity
  8
ZUWAKU
100
AcDbLine
 10
22.79610609094658
 20
10.22499986828868
 30
0.0
 11
22.79610609094658
 21
9.317398855611013
 31
0.0
  0
ARC
  5
D9A
330
1A
100
AcDbEntity
  8
ZUWAKU
100
AcDbCircle
 10
24.19610609094661
 20
10.22499986828868
 30
0.0
 40
1.399999999999999
100
AcDbArc
 50
90.0
 51
180.0
  0
ARC
  5
D9B
330
1A
100
AcDbEntity
  8
ZUWAKU
100
AcDbCircle
 10
28.65860609094659
 20
11.36249986828868
 30
0.0
 40
0.2625
100
AcDbArc
 50
0.0
 51
90.0
  0
ARC
  5
D9C
330
1A
100
AcDbEntity
  8
ZUWAKU
100
AcDbCircle
 10
27.78360609094659
 20
11.36249986828868
 30
0.0
 40
0.2625
100
AcDbArc
 50
90.0
 51
180.0
  0
LINE
  5
D9D
330
1A
100
AcDbEntity
  8
ZUWAKU
100
AcDbLine
 10
28.65860609094659
 20
11.62499986828868
 30
0.0
 11
27.78360609094659
 21
11.62499986828868
 31
0.0
  0
ARC
  5
D9E
330
1A
100
AcDbEntity
  8
ZUWAKU
100
AcDbCircle
 10
25.94610609094661
 20
11.36249986828868
 30
0.0
 40
0.2625
100
AcDbArc
 50
0.0
 51
90.0
  0
ARC
  5
D9F
330
1A
100
AcDbEntity
  8
ZUWAKU
100
AcDbCircle
 10
25.94610609094661
 20
10.48749986828868
 30
0.0
 40
0.2625
100
AcDbArc
 50
270.0
 51
0.0
  0
LINE
  5
DA0
330
1A
100
AcDbEntity
  8
ZUWAKU
100
AcDbLine
 10
26.2086060909466
 20
11.36249986828868
 30
0.0
 11
26.2086060909466
 21
10.48749986828868
 31
0.0
  0
LINE
  5
DA1
330
1A
100
AcDbEntity
  8
ZUWAKU
100
AcDbLine
 10
34.25860609094661
 20
11.62499986828868
 30
0.0
 11
33.38360609094661
 21
11.62499986828868
 31
0.0
  0
ARC
  5
DA2
330
1A
100
AcDbEntity
  8
ZUWAKU
100
AcDbCircle
 10
33.38360609094661
 20
11.36249986828868
 30
0.0
 40
0.2625
100
AcDbArc
 50
90.0
 51
180.0
  0
ARC
  5
DA3
330
1A
100
AcDbEntity
  8
ZUWAKU
100
AcDbCircle
 10
31.80860609094656
 20
11.36249986828868
 30
0.0
 40
0.2625
100
AcDbArc
 50
0.0
 51
90.0
  0
LINE
  5
DA4
330
1A
100
AcDbEntity
  8
ZUWAKU
100
AcDbLine
 10
31.80860609094656
 20
11.62499986828868
 30
0.0
 11
30.93360609094657
 21
11.62499986828868
 31
0.0
  0
ARC
  5
DA5
330
1A
100
AcDbEntity
  8
ZUWAKU
100
AcDbCircle
 10
30.93360609094657
 20
11.36249986828868
 30
0.0
 40
0.2625
100
AcDbArc
 50
90.0
 51
180.0
  0
ARC
  5
DA6
330
1A
100
AcDbEntity
  8
ZUWAKU
100
AcDbCircle
 10
34.25860609094661
 20
11.36249986828868
 30
0.0
 40
0.2625
100
AcDbArc
 50
0.0
 51
90.0
  0
TEXT
  5
DA7
330
1A
100
AcDbEntity
  8
moji
100
AcDbText
 10
119.9136013539815
 20
9.002460396992375
 30
0.0
 40
2.799999999999999
  1
華頭飾りじょうご
 41
0.9
  7
ｽﾀｲﾙ1
100
AcDbText
  0
TEXT
  5
DA8
330
1A
100
AcDbEntity
  8
moji
100
AcDbText
 10
119.9136013539815
 20
1.602460396992393
 30
0.0
 40
2.799999999999999
  1
Ｘ４０－ＵＴ４２
 41
0.9
  7
ｽﾀｲﾙ1
100
AcDbText
  0
LINE
  5
DA9
330
1A
100
AcDbEntity
  8
ZUWAKU
100
AcDbLine
 10
104.1233006585899
 20
14.99999986828868
 30
0.0
 11
104.1233006585899
 21
0.3999998682887167
 31
0.0
  0
LINE
  5
DAA
330
1A
100
AcDbEntity
  8
ZUWAKU
100
AcDbLine
 10
104.3233006585899
 20
14.99999986828868
 30
0.0
 11
104.32330065859
 21
0.3999998682887167
 31
0.0
  0
LINE
  5
DAB
330
1A
100
AcDbEntity
  8
ZUWAKU
100
AcDbLine
 10
104.2233006585898
 20
14.99999986828868
 30
0.0
 11
104.22330065859
 21
0.3999998682887167
 31
0.0
  0
TEXT
  5
DAC
330
1A
100
AcDbEntity
  8
ZUWAKU
100
AcDbText
 10
104.8620231696947
 20
4.827678137481491
 30
0.0
 40
2.0
  1
サイズ
 41
0.9
  7
ｽﾀｲﾙ1
100
AcDbText
  0
TEXT
  5
DAD
330
1A
100
AcDbEntity
  8
ZUWAKU
100
AcDbText
 10
104.8620231696946
 20
12.02767813748147
 30
0.0
 40
2.0
  1
品名
 41
0.9
  7
ｽﾀｲﾙ1
100
AcDbText
  0
LINE
  5
DAE
330
1A
100
AcDbEntity
  8
ZUWAKU
100
AcDbLine
 10
324.4086012686581
 20
7.599999868288698
 30
0.0
 11
348.6245052878266
 21
7.5999998682887
 31
0.0
  0
LINE
  5
DAF
330
1A
100
AcDbEntity
  8
ZUWAKU
100
AcDbLine
 10
324.4086012686582
 20
7.699999868288701
 30
0.0
 11
348.6245052878266
 21
7.699999868288699
 31
0.0
  0
LINE
  5
DB0
330
1A
100
AcDbEntity
  8
ZUWAKU
100
AcDbLine
 10
324.4086012686581
 20
7.799999868288699
 30
0.0
 11
348.6245052878266
 21
7.799999868288699
 31
0.0
  0
TEXT
  5
DB1
330
1A
100
AcDbEntity
  8
ZUWAKU
100
AcDbText
 10
329.1019688572072
 20
9.002460396992375
 30
0.0
 40
2.799999999999999
  1
　　．　　．　　
 41
0.9
  7
ｽﾀｲﾙ1
100
AcDbText
  0
LINE
  5
DB2
330
1A
100
AcDbEntity
  8
ZUWAKU
100
AcDbLine
 10
252.5995897626264
 20
7.599999868288701
 30
0.0
 11
276.2634778966122
 21
7.599999868288701
 31
0.0
  0
LINE
  5
DB3
330
1A
100
AcDbEntity
  8
ZUWAKU
100
AcDbLine
 10
252.5995897626264
 20
7.699999868288699
 30
0.0
 11
276.2634778966122
 21
7.699999868288699
 31
0.0
  0
LINE
  5
DB4
330
1A
100
AcDbEntity
  8
ZUWAKU
100
AcDbLine
 10
252.5995897626264
 20
7.799999868288699
 30
0.0
 11
276.2634778966122
 21
7.799999868288699
 31
0.0
  0
TEXT
  5
DB5
330
1A
100
AcDbEntity
  8
moji
100
AcDbText
 10
231.623216009057
 20
5.971308729118675
 30
0.0
 40
2.799999999999999
  1
ＧＵ１４□
 41
0.9
  7
ｽﾀｲﾙ1
100
AcDbText
  0
LINE
  5
DB6
330
1A
100
AcDbEntity
  8
ZUWAKU
100
AcDbLine
 10
223.8121819990516
 20
14.99999986828868
 30
0.0
 11
223.8121819990517
 21
0.3999998682887167
 31
0.0
  0
LINE
  5
DB7
330
1A
100
AcDbEntity
  8
ZUWAKU
100
AcDbLine
 10
223.9121819990516
 20
14.99999986828868
 30
0.0
 11
223.9121819990517
 21
0.3999998682887167
 31
0.0
  0
LINE
  5
DB8
330
1A
100
AcDbEntity
  8
ZUWAKU
100
AcDbLine
 10
223.7121819990517
 20
14.99999986828868
 30
0.0
 11
223.7121819990517
 21
0.3999998682887167
 31
0.0
  0
TEXT
  5
DB9
330
1A
100
AcDbEntity
  8
moji
100
AcDbText
 10
264.0204539997124
 20
9.002460396992375
 30
0.0
 40
2.799999999999999
  1
Ａ３
 41
0.9
  7
ｽﾀｲﾙ1
100
AcDbText
  0
LINE
  5
DBA
330
1A
100
AcDbEntity
  8
ZUWAKU
100
AcDbLine
 10
252.4995897626264
 20
14.99999986828868
 30
0.0
 11
252.4995897626265
 21
0.3999998682887167
 31
0.0
  0
LINE
  5
DBB
330
1A
100
AcDbEntity
  8
ZUWAKU
100
AcDbLine
 10
252.5995897626264
 20
14.99999986828868
 30
0.0
 11
252.5995897626265
 21
0.3999998682887167
 31
0.0
  0
LINE
  5
DBC
330
1A
100
AcDbEntity
  8
ZUWAKU
100
AcDbLine
 10
252.3995897626265
 20
14.99999986828868
 30
0.0
 11
252.3995897626265
 21
0.3999998682887167
 31
0.0
  0
TEXT
  5
DBD
330
1A
100
AcDbEntity
  8
ZUWAKU
100
AcDbText
 10
230.6528767248174
 20
1.307035323858428
 30
0.0
 40
1.5
  1
□には色品番が入ります
 41
0.9
  7
ｽﾀｲﾙ1
100
AcDbText
  0
TEXT
  5
DBE
330
1A
100
AcDbEntity
  8
ZUWAKU
100
AcDbText
 10
253.3383122737313
 20
4.827678137481491
 30
0.0
 40
2.0
  1
縮尺
 41
0.9
  7
ｽﾀｲﾙ1
100
AcDbText
  0
TEXT
  5
DBF
330
1A
100
AcDbEntity
  8
moji
100
AcDbText
 10
264.0204539997124
 20
1.602460396992393
 30
0.0
 40
2.799999999999999
  1
１/１
 41
0.9
  7
ｽﾀｲﾙ1
100
AcDbText
  0
TEXT
  5
DC0
330
1A
100
AcDbEntity
  8
ZUWAKU
100
AcDbText
 10
224.6509045101564
 20
12.02767813748147
 30
0.0
 40
2.0
  1
品番
 41
0.9
  7
ｽﾀｲﾙ1
100
AcDbText
  0
TEXT
  5
DC1
330
1A
100
AcDbEntity
  8
ZUWAKU
100
AcDbText
 10
253.3383122737312
 20
12.02767813748147
 30
0.0
 40
2.0
  1
用紙
 41
0.9
  7
ｽﾀｲﾙ1
100
AcDbText
  0
LINE
  5
DC2
330
1A
100
AcDbEntity
  8
ZUWAKU
100
AcDbLine
 10
324.3086012686582
 20
14.99999986828868
 30
0.0
 11
324.3086012686583
 21
0.3999998682887167
 31
0.0
  0
LINE
  5
DC3
330
1A
100
AcDbEntity
  8
ZUWAKU
100
AcDbLine
 10
324.4086012686582
 20
14.99999986828868
 30
0.0
 11
324.4086012686583
 21
0.3999998682887167
 31
0.0
  0
LINE
  5
DC4
330
1A
100
AcDbEntity
  8
ZUWAKU
100
AcDbLine
 10
324.2086012686582
 20
14.99999986828868
 30
0.0
 11
324.2086012686582
 21
0.3999998682887167
 31
0.0
  0
LINE
  5
DC5
330
1A
100
AcDbEntity
  8
ZUWAKU
100
AcDbLine
 10
276.3634778966121
 20
14.99999986828868
 30
0.0
 11
276.3634778966122
 21
0.3999998682887167
 31
0.0
  0
LINE
  5
DC6
330
1A
100
AcDbEntity
  8
ZUWAKU
100
AcDbLine
 10
276.4634778966121
 20
14.99999986828868
 30
0.0
 11
276.4634778966122
 21
0.3999998682887167
 31
0.0
  0
LINE
  5
DC7
330
1A
100
AcDbEntity
  8
ZUWAKU
100
AcDbLine
 10
276.2634778966122
 20
14.99999986828868
 30
0.0
 11
276.2634778966122
 21
0.3999998682887167
 31
0.0
  0
TEXT
  5
DC8
330
1A
100
AcDbEntity
  8
ZUWAKU
100
AcDbText
 10
325.147323779763
 20
12.02767813748147
 30
0.0
 40
2.0
  1
DATE
 41
0.9
  7
ｽﾀｲﾙ1
100
AcDbText
  0
LINE
  5
DC9
330
1A
100
AcDbEntity
  8
ZUWAKU
100
AcDbLine
 10
348.6245052878266
 20
14.99999986828868
 30
0.0
 11
348.6245052878266
 21
0.3999998682887167
 31
0.0
  0
LINE
  5
DCA
330
1A
100
AcDbEntity
  8
ZUWAKU
100
AcDbLine
 10
348.7245052878266
 20
14.99999986828868
 30
0.0
 11
348.7245052878266
 21
0.3999998682887167
 31
0.0
  0
LINE
  5
DCB
330
1A
100
AcDbEntity
  8
ZUWAKU
100
AcDbLine
 10
348.8245052878265
 20
14.99999986828868
 30
0.0
 11
348.8245052878267
 21
0.3999998682887167
 31
0.0
  0
LINE
  5
DCC
330
1A
100
AcDbEntity
  8
ZUWAKU
100
AcDbLine
 10
348.9245052878266
 20
14.99999986828868
 30
0.0
 11
348.9245052878267
 21
0.3999998682887167
 31
0.0
  0
TEXT
  5
DCD
330
1A
100
AcDbEntity
  8
ZUWAKU
100
AcDbText
 10
354.2640421096779
 20
8.776919536132083
 30
0.0
 40
3.0
  1
積水化学工業株式会社
 41
0.9
  7
ｽﾀｲﾙ1
100
AcDbText
  0
TEXT
  5
DCE
330
1A
100
AcDbEntity
  8
ZUWAKU
100
AcDbText
 10
354.2640421096779
 20
3.324420025215715
 30
0.0
 40
3.0
  1
建材事業部
 41
0.9
  7
ｽﾀｲﾙ1
100
AcDbText
  0
LINE
  5
FC1
330
1A
100
AcDbEntity
  8
SEIHIN
  6
Continuous
 62
     3
 48
5.0
100
AcDbLine
 10
289.1719665316384
 20
185.9150566618518
 30
0.0
 11
247.6719665316384
 21
185.9150566618518
 31
0.0
  0
LINE
  5
FC2
330
1A
100
AcDbEntity
  8
SEIHIN
  6
Continuous
 62
     3
 48
5.0
100
AcDbLine
 10
277.4197665316385
 20
215.7476566618516
 30
0.0
 11
289.1719665316384
 21
185.9150566618518
 31
0.0
  0
DIMENSION
  5
FC3
330
1A
100
AcDbEntity
  8
SUNPOU
 48
5.0
100
AcDbDimension
  2
*D1
 10
359.1719665316386
 20
231.0204232757646
 30
0.0
 11
293.6720165316385
 21
233.5204232757646
 31
0.0
 70
    32
 71
     5
 42
130.9999000000002
  3
ISO-25
100
AcDbAlignedDimension
 13
228.1720665316384
 23
218.9150566618518
 33
0.0
 14
359.1719665316386
 24
179.9150566618518
 34
0.0
100
AcDbRotatedDimension
1001
ACAD
1000
DSTYLE
1002
{
1070
    41
1040
3.0
1070
    42
1040
2.0
1070
    43
1040
4.0
1070
    73
1070
     0
1070
    77
1070
     3
1070
   140
1040
3.0
1070
   147
1040
1.0
1070
   173
1070
     1
1070
   176
1070
   256
1070
   177
1070
   256
1070
   178
1070
   256
1070
   271
1070
     0
1070
   272
1070
     2
1070
   343
1005
B2
1070
   344
1005
B2
1070
   371
1070
    -1
1070
   372
1070
    -1
1002
}
  0
LINE
  5
FC4
330
1A
100
AcDbEntity
  8
SEIHIN
  6
Continuous
 62
     3
 48
5.0
100
AcDbLine
 10
287.202366531638
 20
190.9150566618518
 30
0.0
 11
247.6719665316384
 21
190.9150566618518
 31
0.0
  0
LINE
  5
FC5
330
1A
100
AcDbEntity
  8
SEIHIN
  6
Continuous
 62
     3
 48
5.0
100
AcDbLine
 10
346.6718665316382
 20
105.9151566618518
 30
0.0
 11
278.6718665316382
 21
105.9151566618518
 31
0.0
  0
LINE
  5
FC6
330
1A
100
AcDbEntity
  8
SEIHIN
  6
Continuous
 62
     3
 48
5.0
100
AcDbLine
 10
273.6762665316384
 20
107.4151566618518
 30
0.0
 11
352.1718665316382
 21
107.4151566618518
 31
0.0
  0
LINE
  5
FC7
330
1A
100
AcDbEntity
  8
SEIHIN
  6
Continuous
 62
     3
 48
5.0
100
AcDbLine
 10
273.1718665316382
 20
105.9151566618518
 30
0.0
 11
312.6718665316382
 21
105.9151566618518
 31
0.0
  0
LINE
  5
FC8
330
1A
100
AcDbEntity
  8
SEIHIN
  6
Continuous
 62
     3
 48
5.0
100
AcDbLine
 10
278.6718665316382
 20
99.08689356665195
 30
0.0
 11
312.6718665316382
 21
99.08689356665195
 31
0.0
  0
DIMENSION
  5
FC9
330
1A
100
AcDbEntity
  8
SUNPOU
 48
5.0
100
AcDbDimension
  2
*D2
 10
346.6718665316382
 20
36.48780343637815
 30
0.0
 11
312.6718665316382
 21
38.98780343637815
 31
0.0
 70
    32
 71
     5
 42
68.0
  3
ISO-25
100
AcDbAlignedDimension
 13
278.6718665316382
 23
102.4151566619054
 33
0.0
 14
346.6718665316382
 24
102.5010251142518
 34
0.0
100
AcDbRotatedDimension
1001
ACAD
1000
DSTYLE
1002
{
1070
    41
1040
3.0
1070
    42
1040
2.0
1070
    43
1040
4.0
1070
    73
1070
     0
1070
    77
1070
     3
1070
   140
1040
3.0
1070
   147
1040
1.0
1070
   173
1070
     1
1070
   176
1070
   256
1070
   177
1070
   256
1070
   178
1070
   256
1070
   271
1070
     0
1070
   272
1070
     2
1070
   343
1005
B2
1070
   344
1005
B2
1070
   371
1070
    -1
1070
   372
1070
    -1
1002
}
  0
ARC
  5
FCA
330
1A
100
AcDbEntity
  8
SEIHIN
  6
Continuous
 62
     3
 48
5.0
100
AcDbCircle
 10
276.0796733823347
 20
132.9588489713799
 30
0.0
 40
10.99997280905965
100
AcDbArc
 50
9.716006937182307
 51
73.67358582936002
  0
ARC
  5
FCB
330
1A
100
AcDbEntity
  8
SEIHIN
  6
Continuous
 62
     3
 48
5.0
100
AcDbCircle
 10
242.4328513292382
 20
70.58259982075174
 30
0.0
 40
45.99999999999967
100
AcDbArc
 50
10.9497179800033
 51
38.0191740381925
  0
ARC
  5
FCC
330
1A
100
AcDbEntity
  8
SEIHIN
  6
Continuous
 62
     3
 48
5.0
100
AcDbCircle
 10
274.5846962424223
 20
189.4095794396626
 30
0.0
 40
15.00000479784207
100
AcDbArc
 50
268.4229080255326
 51
346.5281199396387
  0
ARC
  5
FCD
330
1A
100
AcDbEntity
  8
SEIHIN
  6
Continuous
 62
     3
 48
5.0
100
AcDbCircle
 10
63.81764186007353
 20
177.0219566618516
 30
0.0
 40
9.999967754447828
100
AcDbArc
 50
16.81910132547306
 51
62.79204085906289
  0
LINE
  5
FCE
330
1A
100
AcDbEntity
  8
SEIHIN
  6
Continuous
 62
     3
 48
5.0
100
AcDbLine
 10
127.3897418600734
 20
185.9152566618518
 30
0.0
 11
68.38984186007337
 21
185.9154566618517
 31
0.0
  0
LINE
  5
FCF
330
1A
100
AcDbEntity
  8
SEIHIN
  6
Continuous
 62
     3
 48
5.0
100
AcDbLine
 10
127.3897418600734
 20
190.9152566618518
 30
0.0
 11
68.38984186007337
 21
190.9154566618516
 31
0.0
  0
LINE
  5
FD0
330
1A
100
AcDbEntity
  8
SEIHIN
  6
Continuous
 62
     3
 48
5.0
100
AcDbLine
 10
127.3898418600733
 20
208.9152566618518
 30
0.0
 11
51.88984186007338
 21
208.9154566618516
 31
0.0
  0
LINE
  5
FD1
330
1A
100
AcDbEntity
  8
SEIHIN
  6
Continuous
 62
     3
 48
5.0
100
AcDbLine
 10
127.3898418600733
 20
210.4152566618517
 30
0.0
 11
50.38984186007337
 21
210.4154566618517
 31
0.0
  0
LINE
  5
FD2
330
1A
100
AcDbEntity
  8
SEIHIN
  6
Continuous
 62
     3
 48
5.0
100
AcDbLine
 10
127.3899418600735
 20
218.9152566618517
 30
0.0
 11
48.88994186007335
 21
218.9154566618517
 31
0.0
  0
DIMENSION
  5
FD3
330
1A
100
AcDbEntity
  8
SUNPOU
 48
5.0
100
AcDbDimension
  2
*D3
 10
205.8899418600733
 20
231.0204232757646
 30
0.0
 11
127.3899418600733
 21
233.5204232757646
 31
0.0
 70
    32
 71
     5
 42
157.0
  3
ISO-25
100
AcDbAlignedDimension
 13
48.88994186007335
 23
218.9154566618517
 33
0.0
 14
205.8899418600733
 24
218.9151566618517
 34
0.0
100
AcDbRotatedDimension
1001
ACAD
1000
DSTYLE
1002
{
1070
    41
1040
3.0
1070
    42
1040
2.0
1070
    43
1040
4.0
1070
    73
1070
     0
1070
    77
1070
     3
1070
   140
1040
3.0
1070
   147
1040
1.0
1070
   173
1070
     1
1070
   176
1070
   256
1070
   177
1070
   256
1070
   178
1070
   256
1070
   271
1070
     0
1070
   272
1070
     2
1070
   343
1005
B2
1070
   344
1005
B2
1070
   371
1070
    -1
1070
   372
1070
    -1
1002
}
  0
DIMENSION
  5
FD4
330
1A
100
AcDbEntity
  8
SUNPOU
 48
5.0
100
AcDbDimension
  2
*D4
 10
47.45839798117549
 20
105.9153566618515
 30
0.0
 11
44.95839798117548
 21
82.66530666185159
 31
0.0
 70
    32
 71
     5
 42
46.50009999999997
  3
ISO-25
100
AcDbAlignedDimension
 13
106.3895418600732
 23
59.41525666185157
 33
0.0
 14
87.88984186007338
 24
105.9153566618515
 34
0.0
 50
90.0
100
AcDbRotatedDimension
1001
ACAD
1000
DSTYLE
1002
{
1070
    41
1040
3.0
1070
    42
1040
2.0
1070
    43
1040
4.0
1070
    73
1070
     0
1070
    77
1070
     3
1070
   140
1040
3.0
1070
   147
1040
1.0
1070
   173
1070
     1
1070
   176
1070
   256
1070
   177
1070
   256
1070
   178
1070
   256
1070
   271
1070
     0
1070
   272
1070
     2
1070
   343
1005
B2
1070
   344
1005
B2
1070
   371
1070
    -1
1070
   372
1070
    -1
1002
}
  0
DIMENSION
  5
FD5
330
1A
100
AcDbEntity
  8
SUNPOU
 48
5.0
100
AcDbDimension
  2
*D5
 10
37.11210426815137
 20
59.41525666185159
 30
0.0
 11
34.61210426815136
 21
139.1653566618516
 31
0.0
 70
    32
 71
     5
 42
159.5002000000001
  3
ISO-25
100
AcDbAlignedDimension
 13
48.88994186007335
 23
218.9154566618517
 33
0.0
 14
106.3895418600732
 24
59.41525666185157
 34
0.0
 50
90.0
100
AcDbRotatedDimension
1001
ACAD
1000
DSTYLE
1002
{
1070
    41
1040
3.0
1070
    42
1040
2.0
1070
    43
1040
4.0
1070
    73
1070
     0
1070
    77
1070
     3
1070
   140
1040
3.0
1070
   147
1040
1.0
1070
   173
1070
     1
1070
   176
1070
   256
1070
   177
1070
   256
1070
   178
1070
   256
1070
   271
1070
     0
1070
   272
1070
     2
1070
   343
1005
B2
1070
   344
1005
B2
1070
   371
1070
    -1
1070
   372
1070
    -1
1002
}
  0
ARC
  5
FD6
330
1A
100
AcDbEntity
  8
SEIHIN
  6
Continuous
 62
     3
 48
5.0
100
AcDbCircle
 10
48.48707408553014
 20
198.4549379910408
 30
0.0
 40
11.00005815393042
100
AcDbArc
 50
7.629904694607675
 51
71.98048606575942
  0
LINE
  5
FD7
330
1A
100
AcDbEntity
  8
SEIHIN
  6
Continuous
 62
     3
 48
5.0
100
AcDbLine
 10
68.38984186007337
 20
185.9154566618517
 30
0.0
 11
68.38994186007358
 21
190.9154566618516
 31
0.0
  0
ARC
  5
FD8
330
1A
100
AcDbEntity
  8
SEIHIN
  6
Continuous
 62
     3
 48
5.0
100
AcDbCircle
 10
70.23415210580378
 20
201.7596464160294
 30
0.0
 40
11.00000457068396
100
AcDbArc
 50
189.6514190960378
 51
260.3479442877275
  0
ARC
  5
FD9
330
1A
100
AcDbEntity
  8
SEIHIN
  6
Continuous
 62
     3
 48
5.0
100
AcDbCircle
 10
68.87157705779419
 20
218.0590572063292
 30
0.0
 40
19.99997913004449
100
AcDbArc
 50
177.5458433595411
 51
202.4688088202313
  0
LINE
  5
FDA
330
1A
100
AcDbEntity
  8
SEIHIN
  6
Continuous
 62
     3
 48
5.0
100
AcDbLine
 10
51.88984186007338
 20
210.4154566618517
 30
0.0
 11
51.88984186007338
 21
208.9154566618516
 31
0.0
  0
LINE
  5
FDB
330
1A
100
AcDbEntity
  8
SEIHIN
  6
Continuous
 62
     3
 48
5.0
100
AcDbLine
 10
106.3895418600732
 20
78.91525666185157
 30
0.0
 11
106.3895418600732
 21
59.41525666185157
 31
0.0
  0
LINE
  5
FDC
330
1A
100
AcDbEntity
  8
SEIHIN
  6
Continuous
 62
     3
 48
5.0
100
AcDbLine
 10
148.3895418600732
 20
59.41525666185157
 30
0.0
 11
148.3895418600732
 21
78.91525666185157
 31
0.0
  0
LINE
  5
FDD
330
1A
100
AcDbEntity
  8
SEIHIN
  6
Continuous
 62
     3
 48
5.0
100
AcDbLine
 10
148.3895418600732
 20
59.41525666185157
 30
0.0
 11
106.3895418600732
 21
59.41525666185157
 31
0.0
  0
LINE
  5
FDE
330
1A
100
AcDbEntity
  8
SEIHIN
  6
Continuous
 62
     3
 48
5.0
100
AcDbLine
 10
171.3897418600734
 20
175.9152566618517
 30
0.0
 11
177.3897418600734
 21
175.9152566618517
 31
0.0
  0
LINE
  5
FDF
330
1A
100
AcDbEntity
  8
SEIHIN
  6
Continuous
 62
     3
 48
5.0
100
AcDbLine
 10
127.3899418600735
 20
210.4152566618517
 30
0.0
 11
204.3899418600735
 21
210.4152566618517
 31
0.0
  0
LINE
  5
FE0
330
1A
100
AcDbEntity
  8
SEIHIN
  6
Continuous
 62
     3
 48
5.0
100
AcDbLine
 10
127.3899418600735
 20
218.9152566618517
 30
0.0
 11
205.8899418600735
 21
218.9152566618517
 31
0.0
  0
LINE
  5
FE1
330
1A
100
AcDbEntity
  8
SEIHIN
  6
Continuous
 62
     3
 48
5.0
100
AcDbLine
 10
127.3899418600735
 20
208.9152566618518
 30
0.0
 11
202.8899418600735
 21
208.9152566618518
 31
0.0
  0
LINE
  5
FE2
330
1A
100
AcDbEntity
  8
SEIHIN
  6
Continuous
 62
     3
 48
5.0
100
AcDbLine
 10
127.3899418600735
 20
185.9152566618518
 30
0.0
 11
186.3897418600731
 21
185.9152566618518
 31
0.0
  0
LINE
  5
FE3
330
1A
100
AcDbEntity
  8
SEIHIN
  6
Continuous
 62
     3
 48
5.0
100
AcDbLine
 10
127.3899418600735
 20
190.9152566618518
 30
0.0
 11
186.3898418600733
 21
190.9152566618518
 31
0.0
  0
LINE
  5
FE4
330
1A
100
AcDbEntity
  8
SEIHIN
  6
Continuous
 62
     3
 48
5.0
100
AcDbLine
 10
177.3897418600734
 20
175.9152566618517
 30
0.0
 11
174.8899418600735
 21
145.9152566618518
 31
0.0
  0
LINE
  5
FE5
330
1A
100
AcDbEntity
  8
SEIHIN
  6
Continuous
 62
     3
 48
5.0
100
AcDbLine
 10
145.3897418600734
 20
160.9263566618519
 30
0.0
 11
145.3897418600734
 21
156.3075566618517
 31
0.0
  0
LINE
  5
FE6
330
1A
100
AcDbEntity
  8
SEIHIN
  6
Continuous
 62
     3
 48
5.0
100
AcDbLine
 10
141.3896418600734
 20
160.9263566618519
 30
0.0
 11
141.3896418600734
 21
156.3076566618517
 31
0.0
  0
LINE
  5
FE7
330
1A
100
AcDbEntity
  8
SEIHIN
  6
Continuous
 62
     3
 48
5.0
100
AcDbLine
 10
129.3897418600733
 20
160.9264566618517
 30
0.0
 11
129.3897418600733
 21
156.3076566618517
 31
0.0
  0
LINE
  5
FE8
330
1A
100
AcDbEntity
  8
SEIHIN
  6
Continuous
 62
     3
 48
5.0
100
AcDbLine
 10
125.3898418600733
 20
160.9264566618517
 30
0.0
 11
125.3898418600733
 21
156.3076566618517
 31
0.0
  0
LINE
  5
FE9
330
1A
100
AcDbEntity
  8
SEIHIN
  6
Continuous
 62
     3
 48
5.0
100
AcDbLine
 10
113.3899418600733
 20
160.9264566618517
 30
0.0
 11
113.3899418600733
 21
156.3077566618517
 31
0.0
  0
LINE
  5
FEA
330
1A
100
AcDbEntity
  8
SEIHIN
  6
Continuous
 62
     3
 48
5.0
100
AcDbLine
 10
109.3898418600733
 20
160.9264566618517
 30
0.0
 11
109.3898418600733
 21
156.3076566618517
 31
0.0
  0
ARC
  5
FEB
330
1A
100
AcDbEntity
  8
SEIHIN
  6
Continuous
 62
     3
 48
5.0
100
AcDbCircle
 10
103.739947379558
 20
152.0138621827368
 30
0.0
 40
7.4999786286367
100
AcDbArc
 50
93.33272531384571
 51
176.6818986248031
  0
ARC
  5
FEC
330
1A
100
AcDbEntity
  8
SEIHIN
  6
Continuous
 62
     3
 48
5.0
100
AcDbCircle
 10
101.8896418600734
 20
153.4153566618517
 30
0.0
 40
7.5
100
AcDbArc
 50
90.0
 51
180.0
  0
ARC
  5
FED
330
1A
100
AcDbEntity
  8
SEIHIN
  6
Continuous
 62
     3
 48
5.0
100
AcDbCircle
 10
105.5869632053102
 20
150.6373782495559
 30
0.0
 40
7.499971942960886
100
AcDbArc
 50
96.65226649126195
 51
173.9952537781951
  0
ARC
  5
FEE
330
1A
100
AcDbEntity
  8
SEIHIN
  6
Continuous
 62
     3
 48
5.0
100
AcDbCircle
 10
149.1925640641288
 20
150.6373342049466
 30
0.0
 40
7.500022230648353
100
AcDbArc
 50
6.004275987308367
 51
83.34734414014185
  0
ARC
  5
FEF
330
1A
100
AcDbEntity
  8
SEIHIN
  6
Continuous
 62
     3
 48
5.0
100
AcDbCircle
 10
151.0395332494326
 20
152.0137652747919
 30
0.0
 40
7.499981535644923
100
AcDbArc
 50
3.318076426374212
 51
86.66648708451388
  0
ARC
  5
FF0
330
1A
100
AcDbEntity
  8
SEIHIN
  6
Continuous
 62
     3
 48
5.0
100
AcDbCircle
 10
152.88984185974
 20
153.4152566621853
 30
0.0
 40
7.500000000333102
100
AcDbArc
 50
359.9999999974465
 51
89.99923605372165
  0
LINE
  5
FF1
330
1A
100
AcDbEntity
  8
SEIHIN
  6
Continuous
 62
     3
 48
5.0
100
AcDbLine
 10
83.38984186007337
 20
175.9154566618517
 30
0.0
 11
85.88964186007343
 21
145.9154566618517
 31
0.0
  0
LINE
  5
FF2
330
1A
100
AcDbEntity
  8
SEIHIN
  6
Continuous
 62
     3
 48
5.0
100
AcDbLine
 10
171.3897418600734
 20
175.9152566618517
 30
0.0
 11
168.8899418600735
 21
145.9152566618518
 31
0.0
  0
LINE
  5
FF3
330
1A
100
AcDbEntity
  8
SEIHIN
  6
Continuous
 62
     3
 48
5.0
100
AcDbLine
 10
77.38984186007337
 20
175.9154566618517
 30
0.0
 11
79.88964186007343
 21
145.9154566618517
 31
0.0
  0
LINE
  5
FF4
330
1A
100
AcDbEntity
  8
SEIHIN
  6
Continuous
 62
     3
 48
5.0
100
AcDbLine
 10
125.3898418600733
 20
156.3076566618517
 30
0.0
 11
121.3898418600733
 21
153.9982566618516
 31
0.0
  0
LINE
  5
FF5
330
1A
100
AcDbEntity
  8
SEIHIN
  6
Continuous
 62
     3
 48
5.0
100
AcDbLine
 10
127.3897418600734
 20
143.6059566618519
 30
0.0
 11
123.3896418600734
 21
141.2964566618518
 31
0.0
  0
LINE
  5
FF6
330
1A
100
AcDbEntity
  8
SEIHIN
  6
Continuous
 62
     3
 48
5.0
100
AcDbLine
 10
127.3895418600732
 20
134.3682566618517
 30
0.0
 11
123.3894418600734
 21
132.0587566618516
 31
0.0
  0
LINE
  5
FF7
330
1A
100
AcDbEntity
  8
SEIHIN
  6
Continuous
 62
     3
 48
5.0
100
AcDbLine
 10
125.3896418600734
 20
147.0699566618518
 30
0.0
 11
121.3896418600734
 21
144.7605566618517
 31
0.0
  0
LINE
  5
FF8
330
1A
100
AcDbEntity
  8
SEIHIN
  6
Continuous
 62
     3
 48
5.0
100
AcDbLine
 10
121.3896418600734
 20
142.4511566618516
 30
0.0
 11
125.3896418600734
 21
140.1417566618517
 31
0.0
  0
LINE
  5
FF9
330
1A
100
AcDbEntity
  8
SEIHIN
  6
Continuous
 62
     3
 48
5.0
100
AcDbLine
 10
125.3895418600734
 20
137.8323566618516
 30
0.0
 11
121.3895418600734
 21
135.5228566618518
 31
0.0
  0
LINE
  5
FFA
330
1A
100
AcDbEntity
  8
SEIHIN
  6
Continuous
 62
     3
 48
5.0
100
AcDbLine
 10
121.3895418600734
 20
133.2134566618517
 30
0.0
 11
125.3895418600734
 21
130.9040566618518
 31
0.0
  0
LINE
  5
FFB
330
1A
100
AcDbEntity
  8
SEIHIN
  6
Continuous
 62
     3
 48
5.0
100
AcDbLine
 10
121.3894418600734
 20
133.2134566618517
 30
0.0
 11
125.3894418600734
 21
130.9040566618518
 31
0.0
  0
LINE
  5
FFC
330
1A
100
AcDbEntity
  8
SEIHIN
  6
Continuous
 62
     3
 48
5.0
100
AcDbLine
 10
121.3896418600734
 20
151.6887566618518
 30
0.0
 11
125.3896418600734
 21
149.3793566618517
 31
0.0
  0
LINE
  5
FFD
330
1A
100
AcDbEntity
  8
SEIHIN
  6
Continuous
 62
     3
 48
5.0
100
AcDbLine
 10
127.3897418600734
 20
152.8435566618518
 30
0.0
 11
123.3896418600734
 21
150.5340566618517
 31
0.0
  0
ARC
  5
FFE
330
1A
100
AcDbEntity
  8
SEIHIN
  6
Continuous
 62
     3
 48
5.0
100
AcDbCircle
 10
104.3072900764379
 20
55.830388320677
 30
0.0
 40
69.99996824737258
100
AcDbArc
 50
70.74669061026249
 51
85.68953995803942
  0
ARC
  5
FFF
330
1A
100
AcDbEntity
  8
SEIHIN
  6
Continuous
 62
     3
 48
5.0
100
AcDbCircle
 10
104.3074464730432
 20
57.83035565123419
 30
0.0
 40
69.99994751876598
100
AcDbArc
 50
70.74682028047785
 51
84.53873080987895
  0
ARC
  5
1000
330
1A
100
AcDbEntity
  8
SEIHIN
  6
Continuous
 62
     3
 48
5.0
100
AcDbCircle
 10
104.3071629961773
 20
53.83041243522803
 30
0.0
 40
69.99998738576874
100
AcDbArc
 50
70.74658590277315
 51
86.63285218241854
  0
LINE
  5
1001
330
1A
100
AcDbEntity
  8
SEIHIN
  6
Continuous
 62
     3
 48
5.0
100
AcDbLine
 10
127.3895418600732
 20
113.4152566618517
 30
0.0
 11
95.15044186007344
 21
113.4153566618517
 31
0.0
  0
LINE
  5
1002
330
1A
100
AcDbEntity
  8
SEIHIN
  6
Continuous
 62
     3
 48
5.0
100
AcDbLine
 10
125.3895418600734
 20
128.5947566618517
 30
0.0
 11
121.3895418600734
 21
126.2852566618516
 31
0.0
  0
LINE
  5
1003
330
1A
100
AcDbEntity
  8
SEIHIN
  6
Continuous
 62
     3
 48
5.0
100
AcDbLine
 10
125.3894418600734
 20
128.5946566618517
 30
0.0
 11
121.3894418600734
 21
126.2852566618516
 31
0.0
  0
LINE
  5
1004
330
1A
100
AcDbEntity
  8
SEIHIN
  6
Continuous
 62
     3
 48
5.0
100
AcDbLine
 10
93.38954186007322
 20
99.08699356665193
 30
0.0
 11
127.3895418600732
 21
99.08699356665193
 31
0.0
  0
LINE
  5
1005
330
1A
100
AcDbEntity
  8
SEIHIN
  6
Continuous
 62
     3
 48
5.0
100
AcDbLine
 10
87.88984186007338
 20
105.9153566618515
 30
0.0
 11
127.3895418600732
 21
105.9152566618517
 31
0.0
  0
LINE
  5
1006
330
1A
100
AcDbEntity
  8
SEIHIN
  6
Continuous
 62
     3
 48
5.0
100
AcDbLine
 10
127.3895418600732
 20
107.4152566618518
 30
0.0
 11
88.6415418600734
 21
107.4153566618517
 31
0.0
  0
LINE
  5
1007
330
1A
100
AcDbEntity
  8
SEIHIN
  6
Continuous
 62
     3
 48
5.0
100
AcDbLine
 10
161.3895418600732
 20
105.9152566618517
 30
0.0
 11
93.38954186007322
 21
105.9152566618517
 31
0.0
  0
LINE
  5
1008
330
1A
100
AcDbEntity
  8
SEIHIN
  6
Continuous
 62
     3
 48
5.0
100
AcDbLine
 10
152.3895418600973
 20
78.91525666185157
 30
0.0
 11
102.3895418601487
 21
78.91525666185157
 31
0.0
  0
ARC
  5
1009
330
1A
100
AcDbEntity
  8
SEIHIN
  6
Continuous
 62
     3
 48
5.0
100
AcDbCircle
 10
359.1563709839331
 20
166.1667439119196
 30
0.0
 40
279.9999732661153
100
AcDbArc
 50
184.1477004368726
 51
191.4420314773718
  0
ARC
  5
100A
330
1A
100
AcDbEntity
  8
SEIHIN
  6
Continuous
 62
     3
 48
5.0
100
AcDbCircle
 10
57.15052665767325
 20
70.58269982075149
 30
0.0
 40
45.99999999999975
100
AcDbArc
 50
10.43631659785699
 51
37.80641837896173
  0
LINE
  5
100B
330
1A
100
AcDbEntity
  8
SEIHIN
  6
Continuous
 62
     3
 48
5.0
100
AcDbLine
 10
93.38954186007322
 20
105.9152566618517
 30
0.0
 11
93.38954186007322
 21
99.08699356674379
 31
0.0
  0
ARC
  5
100C
330
1A
100
AcDbEntity
  8
SEIHIN
  6
Continuous
 62
     3
 48
5.0
100
AcDbCircle
 10
93.88954186007323
 20
99.08699356665193
 30
0.0
 40
0.5
100
AcDbArc
 50
180.0
 51
217.8064183788129
  0
ARC
  5
100D
330
1A
100
AcDbEntity
  8
SEIHIN
  6
Continuous
 62
     3
 48
5.0
100
AcDbCircle
 10
88.6415447257184
 20
111.4153543181005
 30
0.0
 40
3.999997656249626
100
AcDbArc
 50
191.4419220635775
 51
269.9999589526328
  0
LINE
  5
100E
330
1A
100
AcDbEntity
  8
SEIHIN
  6
Continuous
 62
     3
 48
5.0
100
AcDbLine
 10
87.88984186007338
 20
105.9153566618515
 30
0.0
 11
87.88984186007338
 21
107.4153566618517
 31
0.0
  0
ARC
  5
100F
330
1A
100
AcDbEntity
  8
SEIHIN
  6
Continuous
 62
     3
 48
5.0
100
AcDbCircle
 10
102.8039596024732
 20
79.41525666185157
 30
0.0
 40
0.5000000000002918
100
AcDbArc
 50
190.9497179799909
 51
270.0
  0
ARC
  5
1010
330
1A
100
AcDbEntity
  8
SEIHIN
  6
Continuous
 62
     3
 48
5.0
100
AcDbCircle
 10
101.8896418600736
 20
138.4153566618517
 30
0.0
 40
7.500000000000227
100
AcDbArc
 50
180.0
 51
270.0
  0
ARC
  5
1011
330
1A
100
AcDbEntity
  8
SEIHIN
  6
Continuous
 62
     3
 48
5.0
100
AcDbCircle
 10
103.7399473931057
 20
139.8168511274157
 30
0.0
 40
7.499984429984341
100
AcDbArc
 50
183.3188639304732
 51
266.6665119235099
  0
ARC
  5
1012
330
1A
100
AcDbEntity
  8
SEIHIN
  6
Continuous
 62
     3
 48
5.0
100
AcDbCircle
 10
359.2019767365032
 20
165.3160687131539
 30
0.0
 40
273.9999721938093
100
AcDbArc
 50
184.0603600624436
 51
189.7516024865208
  0
ARC
  5
1013
330
1A
100
AcDbEntity
  8
SEIHIN
  6
Continuous
 62
     3
 48
5.0
100
AcDbCircle
 10
361.7043123254825
 20
165.3033622788777
 30
0.0
 40
273.9999366499517
100
AcDbArc
 50
190.2780694096433
 51
190.3931056773606
  0
ARC
  5
1014
330
1A
100
AcDbEntity
  8
SEIHIN
  6
Continuous
 62
     3
 48
5.0
100
AcDbCircle
 10
95.15041922480145
 20
116.4153755225665
 30
0.0
 40
3.000018860800261
100
AcDbArc
 50
190.3953013995034
 51
270.0004322991326
  0
ARC
  5
1015
330
1A
100
AcDbEntity
  8
SEIHIN
  6
Continuous
 62
     3
 48
5.0
100
AcDbCircle
 10
92.11747654908004
 20
119.4153274257332
 30
0.0
 40
2.999970764082362
100
AcDbArc
 50
189.7505271669388
 51
269.99933748232
  0
ARC
  5
1016
330
1A
100
AcDbEntity
  8
SEIHIN
  6
Continuous
 62
     3
 48
5.0
100
AcDbCircle
 10
145.8239344425724
 20
145.9152550036851
 30
0.0
 40
49.9999925825958
100
AcDbArc
 50
180.0001126914511
 51
188.6269259263638
  0
ARC
  5
1017
330
1A
100
AcDbEntity
  8
SEIHIN
  6
Continuous
 62
     3
 48
5.0
100
AcDbCircle
 10
143.8239344425724
 20
145.915255003686
 30
0.0
 40
49.9999925825958
100
AcDbArc
 50
180.0001126914642
 51
188.6269259263638
  0
ARC
  5
1018
330
1A
100
AcDbEntity
  8
SEIHIN
  6
Continuous
 62
     3
 48
5.0
100
AcDbCircle
 10
145.823949442723
 20
145.9152571892516
 30
0.0
 40
50.00000758264955
100
AcDbArc
 50
171.3730753708634
 51
180.0000006043611
  0
ARC
  5
1019
330
1A
100
AcDbEntity
  8
SEIHIN
  6
Continuous
 62
     3
 48
5.0
100
AcDbCircle
 10
143.8239494427232
 20
145.9152571892509
 30
0.0
 40
50.00000758264987
100
AcDbArc
 50
171.3730753708634
 51
180.0000006043611
  0
LINE
  5
101A
330
1A
100
AcDbEntity
  8
SEIHIN
  6
Continuous
 62
     3
 48
5.0
100
AcDbLine
 10
117.3895418600734
 20
137.8323566618516
 30
0.0
 11
117.3895418600734
 21
133.2135566618519
 31
0.0
  0
LINE
  5
101B
330
1A
100
AcDbEntity
  8
SEIHIN
  6
Continuous
 62
     3
 48
5.0
100
AcDbLine
 10
105.3897418600733
 20
137.8325566618516
 30
0.0
 11
105.3897418600733
 21
133.2135566618519
 31
0.0
  0
LINE
  5
101C
330
1A
100
AcDbEntity
  8
SEIHIN
  6
Continuous
 62
     3
 48
5.0
100
AcDbLine
 10
121.3896418600734
 20
137.8323566618516
 30
0.0
 11
121.3896418600734
 21
133.2135566618519
 31
0.0
  0
ARC
  5
101D
330
1A
100
AcDbEntity
  8
SEIHIN
  6
Continuous
 62
     3
 48
5.0
100
AcDbCircle
 10
105.5869690902486
 20
141.193229121995
 30
0.0
 40
7.499966712614643
100
AcDbArc
 50
186.0039365414036
 51
263.3476835860687
  0
LINE
  5
101E
330
1A
100
AcDbEntity
  8
SEIHIN
  6
Continuous
 62
     3
 48
5.0
100
AcDbLine
 10
111.3898418600733
 20
134.3683566618517
 30
0.0
 11
107.3897418600733
 21
132.0588566618516
 31
0.0
  0
ARC
  5
101F
330
1A
100
AcDbEntity
  8
SEIHIN
  6
Continuous
 62
     3
 48
5.0
100
AcDbCircle
 10
110.7705672964143
 20
133.0354333744719
 30
0.0
 40
7.500016711655899
100
AcDbArc
 50
185.4004818179114
 51
269.6499180555544
  0
ARC
  5
1020
330
1A
100
AcDbEntity
  8
SEIHIN
  6
Continuous
 62
     3
 48
5.0
100
AcDbCircle
 10
112.1247658168922
 20
134.923132784146
 30
0.0
 40
7.500032520619748
100
AcDbArc
 50
189.0472813874678
 51
261.1418225116809
  0
LINE
  5
1021
330
1A
100
AcDbEntity
  8
SEIHIN
  6
Continuous
 62
     3
 48
5.0
100
AcDbLine
 10
105.3897418600733
 20
133.2135566618519
 30
0.0
 11
109.3897418600733
 21
130.9042566618516
 31
0.0
  0
LINE
  5
1022
330
1A
100
AcDbEntity
  8
SEIHIN
  6
Continuous
 62
     3
 48
5.0
100
AcDbLine
 10
109.3897418600733
 20
128.5948566618517
 30
0.0
 11
108.7498418600732
 21
128.2253566618517
 31
0.0
  0
LINE
  5
1023
330
1A
100
AcDbEntity
  8
SEIHIN
  6
Continuous
 62
     3
 48
5.0
100
AcDbLine
 10
109.3897418600733
 20
128.5948566618517
 30
0.0
 11
108.7498418600732
 21
128.2253566618517
 31
0.0
  0
LINE
  5
1024
330
1A
100
AcDbEntity
  8
SEIHIN
  6
Continuous
 62
     3
 48
5.0
100
AcDbLine
 10
109.3897418600733
 20
128.5948566618517
 30
0.0
 11
108.7498418600732
 21
128.2253566618517
 31
0.0
  0
ARC
  5
1025
330
1A
100
AcDbEntity
  8
SEIHIN
  6
Continuous
 62
     3
 48
5.0
100
AcDbCircle
 10
109.3860244371435
 20
131.1468758906601
 30
0.0
 40
7.499956859549811
100
AcDbArc
 50
181.7689678219681
 51
262.5898221441601
  0
LINE
  5
1026
330
1A
100
AcDbEntity
  8
SEIHIN
  6
Continuous
 62
     3
 48
5.0
100
AcDbLine
 10
109.3897418600733
 20
133.2136566618516
 30
0.0
 11
109.3897418600733
 21
128.5948566618517
 31
0.0
  0
LINE
  5
1027
330
1A
100
AcDbEntity
  8
SEIHIN
  6
Continuous
 62
     3
 48
5.0
100
AcDbLine
 10
117.3895418600734
 20
133.2135566618519
 30
0.0
 11
113.3895418600734
 21
130.9041566618518
 31
0.0
  0
LINE
  5
1028
330
1A
100
AcDbEntity
  8
SEIHIN
  6
Continuous
 62
     3
 48
5.0
100
AcDbLine
 10
117.3896418600734
 20
133.2135566618519
 30
0.0
 11
113.3896418600734
 21
130.9041566618518
 31
0.0
  0
LINE
  5
1029
330
1A
100
AcDbEntity
  8
SEIHIN
  6
Continuous
 62
     3
 48
5.0
100
AcDbLine
 10
111.3898418600733
 20
134.3683566618517
 30
0.0
 11
115.3899418600733
 21
132.0588566618516
 31
0.0
  0
LINE
  5
102A
330
1A
100
AcDbEntity
  8
SEIHIN
  6
Continuous
 62
     3
 48
5.0
100
AcDbLine
 10
117.3895418600734
 20
128.5947566618517
 30
0.0
 11
117.3895418600734
 21
126.5970566618516
 31
0.0
  0
LINE
  5
102B
330
1A
100
AcDbEntity
  8
SEIHIN
  6
Continuous
 62
     3
 48
5.0
100
AcDbLine
 10
113.3895418600734
 20
128.5946566618517
 30
0.0
 11
116.5965418600735
 21
126.7431566618515
 31
0.0
  0
LINE
  5
102C
330
1A
100
AcDbEntity
  8
SEIHIN
  6
Continuous
 62
     3
 48
5.0
100
AcDbLine
 10
113.3896418600734
 20
128.5947566618517
 30
0.0
 11
116.5968418600734
 21
126.7431566618515
 31
0.0
  0
LINE
  5
102D
330
1A
100
AcDbEntity
  8
SEIHIN
  6
Continuous
 62
     3
 48
5.0
100
AcDbLine
 10
121.3895418600734
 20
128.5948566618517
 30
0.0
 11
121.3895418600734
 21
125.7140566618518
 31
0.0
  0
LINE
  5
102E
330
1A
100
AcDbEntity
  8
SEIHIN
  6
Continuous
 62
     3
 48
5.0
100
AcDbLine
 10
113.3897418600734
 20
133.2136566618516
 30
0.0
 11
113.3897418600734
 21
128.5948566618517
 31
0.0
  0
LINE
  5
102F
330
1A
100
AcDbEntity
  8
SEIHIN
  6
Continuous
 62
     3
 48
5.0
100
AcDbLine
 10
119.3896418600734
 20
129.7494566618518
 30
0.0
 11
115.3895418600734
 21
127.4400566618519
 31
0.0
  0
LINE
  5
1030
330
1A
100
AcDbEntity
  8
SEIHIN
  6
Continuous
 62
     3
 48
5.0
100
AcDbLine
 10
119.3896418600734
 20
129.7494566618518
 30
0.0
 11
123.3897418600734
 21
127.4399566618517
 31
0.0
  0
LINE
  5
1031
330
1A
100
AcDbEntity
  8
SEIHIN
  6
Continuous
 62
     3
 48
5.0
100
AcDbLine
 10
111.3898418600733
 20
143.6059566618519
 30
0.0
 11
107.3897418600733
 21
141.2965566618518
 31
0.0
  0
LINE
  5
1032
330
1A
100
AcDbEntity
  8
SEIHIN
  6
Continuous
 62
     3
 48
5.0
100
AcDbLine
 10
111.3898418600733
 20
152.8435566618518
 30
0.0
 11
107.3897418600733
 21
150.5341566618519
 31
0.0
  0
LINE
  5
1033
330
1A
100
AcDbEntity
  8
SEIHIN
  6
Continuous
 62
     3
 48
5.0
100
AcDbLine
 10
109.3898418600733
 20
156.3076566618517
 30
0.0
 11
105.3898418600733
 21
153.9982566618516
 31
0.0
  0
LINE
  5
1034
330
1A
100
AcDbEntity
  8
SEIHIN
  6
Continuous
 62
     3
 48
5.0
100
AcDbLine
 10
109.3898418600733
 20
156.3076566618517
 30
0.0
 11
105.3898418600733
 21
153.9982566618516
 31
0.0
  0
LINE
  5
1035
330
1A
100
AcDbEntity
  8
SEIHIN
  6
Continuous
 62
     3
 48
5.0
100
AcDbLine
 10
109.3899418600733
 20
156.3077566618517
 30
0.0
 11
105.3899418600733
 21
153.9983566618518
 31
0.0
  0
LINE
  5
1036
330
1A
100
AcDbEntity
  8
SEIHIN
  6
Continuous
 62
     3
 48
5.0
100
AcDbLine
 10
103.3899418600733
 20
157.4623566618518
 30
0.0
 11
99.77134186007333
 21
155.3732566618518
 31
0.0
  0
LINE
  5
1037
330
1A
100
AcDbEntity
  8
SEIHIN
  6
Continuous
 62
     3
 48
5.0
100
AcDbLine
 10
103.3899418600733
 20
157.4623566618518
 30
0.0
 11
107.3900418600733
 21
155.1529566618517
 31
0.0
  0
LINE
  5
1038
330
1A
100
AcDbEntity
  8
SEIHIN
  6
Continuous
 62
     3
 48
5.0
100
AcDbLine
 10
109.3897418600733
 20
147.0700566618518
 30
0.0
 11
105.3897418600733
 21
144.7606566618519
 31
0.0
  0
LINE
  5
1039
330
1A
100
AcDbEntity
  8
SEIHIN
  6
Continuous
 62
     3
 48
5.0
100
AcDbLine
 10
105.3897418600733
 20
147.0701566618517
 30
0.0
 11
105.3897418600733
 21
142.4511566618516
 31
0.0
  0
LINE
  5
103A
330
1A
100
AcDbEntity
  8
SEIHIN
  6
Continuous
 62
     3
 48
5.0
100
AcDbLine
 10
109.3897418600733
 20
147.0700566618518
 30
0.0
 11
105.3897418600733
 21
144.7606566618519
 31
0.0
  0
LINE
  5
103B
330
1A
100
AcDbEntity
  8
SEIHIN
  6
Continuous
 62
     3
 48
5.0
100
AcDbLine
 10
109.3897418600733
 20
147.0700566618518
 30
0.0
 11
105.3897418600733
 21
144.7606566618519
 31
0.0
  0
LINE
  5
103C
330
1A
100
AcDbEntity
  8
SEIHIN
  6
Continuous
 62
     3
 48
5.0
100
AcDbLine
 10
109.3897418600733
 20
151.6888566618517
 30
0.0
 11
109.3897418600733
 21
147.0700566618518
 31
0.0
  0
LINE
  5
103D
330
1A
100
AcDbEntity
  8
SEIHIN
  6
Continuous
 62
     3
 48
5.0
100
AcDbLine
 10
105.3897418600733
 20
151.6888566618517
 30
0.0
 11
109.3897418600733
 21
149.3794566618516
 31
0.0
  0
LINE
  5
103E
330
1A
100
AcDbEntity
  8
SEIHIN
  6
Continuous
 62
     3
 48
5.0
100
AcDbLine
 10
97.83204186007333
 20
146.8146566618518
 30
0.0
 11
101.3897418600734
 21
144.7606566618519
 31
0.0
  0
LINE
  5
103F
330
1A
100
AcDbEntity
  8
SEIHIN
  6
Continuous
 62
     3
 48
5.0
100
AcDbLine
 10
101.3897418600734
 20
147.0700566618518
 30
0.0
 11
101.3897418600734
 21
142.4512566618518
 31
0.0
  0
ARC
  5
1040
330
1A
100
AcDbEntity
  8
SEIHIN
  6
Continuous
 62
     3
 48
5.0
100
AcDbCircle
 10
147.8239355554478
 20
145.9150445422517
 30
0.0
 40
49.99999369582451
100
AcDbArc
 50
173.5631383657146
 51
179.9997569288086
  0
LINE
  5
1041
330
1A
100
AcDbEntity
  8
SEIHIN
  6
Continuous
 62
     3
 48
5.0
100
AcDbLine
 10
103.3898418600733
 20
148.2248566618518
 30
0.0
 11
99.38974186007341
 21
145.9153566618517
 31
0.0
  0
LINE
  5
1042
330
1A
100
AcDbEntity
  8
SEIHIN
  6
Continuous
 62
     3
 48
5.0
100
AcDbLine
 10
101.3897418600734
 20
142.4512566618518
 30
0.0
 11
98.11174186007338
 21
140.5587566618517
 31
0.0
  0
LINE
  5
1043
330
1A
100
AcDbEntity
  8
SEIHIN
  6
Continuous
 62
     3
 48
5.0
100
AcDbLine
 10
97.96844186007342
 20
142.1173566618517
 30
0.0
 11
99.38994186007334
 21
141.2965566618518
 31
0.0
  0
LINE
  5
1044
330
1A
100
AcDbEntity
  8
SEIHIN
  6
Continuous
 62
     3
 48
5.0
100
AcDbLine
 10
101.3897418600734
 20
151.6888566618517
 30
0.0
 11
97.96844186007342
 21
149.7135566618519
 31
0.0
  0
LINE
  5
1045
330
1A
100
AcDbEntity
  8
SEIHIN
  6
Continuous
 62
     3
 48
5.0
100
AcDbLine
 10
103.3898418600733
 20
148.2248566618518
 30
0.0
 11
107.3899418600733
 21
145.9153566618517
 31
0.0
  0
LINE
  5
1046
330
1A
100
AcDbEntity
  8
SEIHIN
  6
Continuous
 62
     3
 48
5.0
100
AcDbLine
 10
109.3897418600733
 20
137.8324566618518
 30
0.0
 11
105.3897418600733
 21
135.5230566618518
 31
0.0
  0
LINE
  5
1047
330
1A
100
AcDbEntity
  8
SEIHIN
  6
Continuous
 62
     3
 48
5.0
100
AcDbLine
 10
101.3897418600734
 20
137.8324566618518
 30
0.0
 11
101.3897418600734
 21
134.9776566618518
 31
0.0
  0
LINE
  5
1048
330
1A
100
AcDbEntity
  8
SEIHIN
  6
Continuous
 62
     3
 48
5.0
100
AcDbLine
 10
103.3898418600733
 20
138.9871566618517
 30
0.0
 11
99.53594186007331
 21
136.7621566618515
 31
0.0
  0
LINE
  5
1049
330
1A
100
AcDbEntity
  8
SEIHIN
  6
Continuous
 62
     3
 48
5.0
100
AcDbLine
 10
103.3898418600733
 20
138.9871566618517
 30
0.0
 11
107.3899418600733
 21
136.6777566618518
 31
0.0
  0
LINE
  5
104A
330
1A
100
AcDbEntity
  8
SEIHIN
  6
Continuous
 62
     3
 48
5.0
100
AcDbLine
 10
109.3897418600733
 20
142.4512566618518
 30
0.0
 11
109.3897418600733
 21
137.8324566618518
 31
0.0
  0
LINE
  5
104B
330
1A
100
AcDbEntity
  8
SEIHIN
  6
Continuous
 62
     3
 48
5.0
100
AcDbLine
 10
105.3897418600733
 20
142.4511566618516
 30
0.0
 11
109.3897418600733
 21
140.1418566618517
 31
0.0
  0
ARC
  5
104C
330
1A
100
AcDbEntity
  8
SEIHIN
  6
Continuous
 62
     3
 48
5.0
100
AcDbCircle
 10
147.8239299508445
 20
145.9153684633988
 30
0.0
 40
49.99998809089624
100
AcDbArc
 50
180.0001281151608
 51
186.4368619921162
  0
LINE
  5
104D
330
1A
100
AcDbEntity
  8
SEIHIN
  6
Continuous
 62
     3
 48
5.0
100
AcDbLine
 10
101.3898418600733
 20
156.3076566618517
 30
0.0
 11
101.3897418600734
 21
151.6888566618517
 31
0.0
  0
LINE
  5
104E
330
1A
100
AcDbEntity
  8
SEIHIN
  6
Continuous
 62
     3
 48
5.0
100
AcDbLine
 10
105.3899418600733
 20
156.3077566618517
 30
0.0
 11
105.3898418600733
 21
151.6888566618517
 31
0.0
  0
LINE
  5
104F
330
1A
100
AcDbEntity
  8
SEIHIN
  6
Continuous
 62
     3
 48
5.0
100
AcDbLine
 10
119.3898418600733
 20
157.4623566618518
 30
0.0
 11
115.3897418600734
 21
155.1529566618517
 31
0.0
  0
LINE
  5
1050
330
1A
100
AcDbEntity
  8
SEIHIN
  6
Continuous
 62
     3
 48
5.0
100
AcDbLine
 10
113.3897418600734
 20
156.3075566618517
 30
0.0
 11
117.3897418600734
 21
153.9982566618516
 31
0.0
  0
LINE
  5
1051
330
1A
100
AcDbEntity
  8
SEIHIN
  6
Continuous
 62
     3
 48
5.0
100
AcDbLine
 10
119.3898418600733
 20
157.4623566618518
 30
0.0
 11
123.3899418600735
 21
155.1528566618519
 31
0.0
  0
LINE
  5
1052
330
1A
100
AcDbEntity
  8
SEIHIN
  6
Continuous
 62
     3
 48
5.0
100
AcDbLine
 10
119.3898418600733
 20
148.2247566618516
 30
0.0
 11
115.3897418600734
 21
145.9152566618518
 31
0.0
  0
LINE
  5
1053
330
1A
100
AcDbEntity
  8
SEIHIN
  6
Continuous
 62
     3
 48
5.0
100
AcDbLine
 10
113.3897418600734
 20
147.0700566618518
 30
0.0
 11
117.3897418600734
 21
144.7605566618517
 31
0.0
  0
LINE
  5
1054
330
1A
100
AcDbEntity
  8
SEIHIN
  6
Continuous
 62
     3
 48
5.0
100
AcDbLine
 10
121.3896418600734
 20
147.0701566618517
 30
0.0
 11
121.3896418600734
 21
142.4511566618516
 31
0.0
  0
LINE
  5
1055
330
1A
100
AcDbEntity
  8
SEIHIN
  6
Continuous
 62
     3
 48
5.0
100
AcDbLine
 10
117.3897418600734
 20
147.0700566618518
 30
0.0
 11
117.3897418600734
 21
142.4512566618518
 31
0.0
  0
LINE
  5
1056
330
1A
100
AcDbEntity
  8
SEIHIN
  6
Continuous
 62
     3
 48
5.0
100
AcDbLine
 10
111.3898418600733
 20
143.6059566618519
 30
0.0
 11
115.3899418600733
 21
141.2964566618518
 31
0.0
  0
LINE
  5
1057
330
1A
100
AcDbEntity
  8
SEIHIN
  6
Continuous
 62
     3
 48
5.0
100
AcDbLine
 10
113.3898418600733
 20
151.6888566618517
 30
0.0
 11
113.3898418600733
 21
147.0700566618518
 31
0.0
  0
LINE
  5
1058
330
1A
100
AcDbEntity
  8
SEIHIN
  6
Continuous
 62
     3
 48
5.0
100
AcDbLine
 10
117.3897418600734
 20
151.6888566618517
 30
0.0
 11
113.3897418600734
 21
149.3793566618517
 31
0.0
  0
LINE
  5
1059
330
1A
100
AcDbEntity
  8
SEIHIN
  6
Continuous
 62
     3
 48
5.0
100
AcDbLine
 10
117.3898418600733
 20
151.6889566618517
 30
0.0
 11
113.3898418600733
 21
149.3794566618516
 31
0.0
  0
LINE
  5
105A
330
1A
100
AcDbEntity
  8
SEIHIN
  6
Continuous
 62
     3
 48
5.0
100
AcDbLine
 10
119.3898418600733
 20
138.9871566618517
 30
0.0
 11
115.3896418600734
 21
136.6777566618518
 31
0.0
  0
LINE
  5
105B
330
1A
100
AcDbEntity
  8
SEIHIN
  6
Continuous
 62
     3
 48
5.0
100
AcDbLine
 10
113.3896418600734
 20
137.8323566618516
 30
0.0
 11
117.3896418600734
 21
135.5230566618518
 31
0.0
  0
LINE
  5
105C
330
1A
100
AcDbEntity
  8
SEIHIN
  6
Continuous
 62
     3
 48
5.0
100
AcDbLine
 10
117.3897418600734
 20
142.4512566618518
 30
0.0
 11
113.3897418600734
 21
140.1418566618517
 31
0.0
  0
LINE
  5
105D
330
1A
100
AcDbEntity
  8
SEIHIN
  6
Continuous
 62
     3
 48
5.0
100
AcDbLine
 10
117.3897418600734
 20
142.4512566618518
 30
0.0
 11
113.3897418600734
 21
140.1418566618517
 31
0.0
  0
LINE
  5
105E
330
1A
100
AcDbEntity
  8
SEIHIN
  6
Continuous
 62
     3
 48
5.0
100
AcDbLine
 10
113.3897418600734
 20
142.4513566618518
 30
0.0
 11
113.3896418600734
 21
137.8323566618516
 31
0.0
  0
LINE
  5
105F
330
1A
100
AcDbEntity
  8
SEIHIN
  6
Continuous
 62
     3
 48
5.0
100
AcDbLine
 10
119.3898418600733
 20
148.2247566618516
 30
0.0
 11
123.3899418600735
 21
145.9152566618518
 31
0.0
  0
LINE
  5
1060
330
1A
100
AcDbEntity
  8
SEIHIN
  6
Continuous
 62
     3
 48
5.0
100
AcDbLine
 10
119.3898418600733
 20
138.9871566618517
 30
0.0
 11
123.3898418600733
 21
136.6776566618518
 31
0.0
  0
LINE
  5
1061
330
1A
100
AcDbEntity
  8
SEIHIN
  6
Continuous
 62
     3
 48
5.0
100
AcDbLine
 10
117.3897418600734
 20
156.3076566618517
 30
0.0
 11
117.3897418600734
 21
151.6888566618517
 31
0.0
  0
LINE
  5
1062
330
1A
100
AcDbEntity
  8
SEIHIN
  6
Continuous
 62
     3
 48
5.0
100
AcDbLine
 10
111.3898418600733
 20
152.8435566618518
 30
0.0
 11
115.3899418600733
 21
150.5341566618519
 31
0.0
  0
LINE
  5
1063
330
1A
100
AcDbEntity
  8
SEIHIN
  6
Continuous
 62
     3
 48
5.0
100
AcDbLine
 10
121.3898418600733
 20
156.3076566618517
 30
0.0
 11
121.3897418600734
 21
151.6888566618517
 31
0.0
  0
ARC
  5
1064
330
1A
100
AcDbEntity
  8
SEIHIN
  6
Continuous
 62
     3
 48
5.0
100
AcDbCircle
 10
-104.3766641713841
 20
166.1681969878493
 30
0.0
 40
279.9999845312013
100
AcDbArc
 50
348.5576238646546
 51
355.8519195436131
  0
LINE
  5
1065
330
1A
100
AcDbEntity
  8
SEIHIN
  6
Continuous
 62
     3
 48
5.0
100
AcDbLine
 10
166.8895418600732
 20
105.9152566618517
 30
0.0
 11
127.3899418600735
 21
105.9152566618517
 31
0.0
  0
LINE
  5
1066
330
1A
100
AcDbEntity
  8
SEIHIN
  6
Continuous
 62
     3
 48
5.0
100
AcDbLine
 10
127.3895418600732
 20
99.08699356665193
 30
0.0
 11
161.3895418600732
 21
99.08699356665193
 31
0.0
  0
LINE
  5
1067
330
1A
100
AcDbEntity
  8
SEIHIN
  6
Continuous
 62
     3
 48
5.0
100
AcDbLine
 10
127.3899418600735
 20
107.4152566618518
 30
0.0
 11
166.1379418600733
 21
107.4152566618518
 31
0.0
  0
ARC
  5
1068
330
1A
100
AcDbEntity
  8
SEIHIN
  6
Continuous
 62
     3
 48
5.0
100
AcDbCircle
 10
197.628557062573
 20
70.58269982075149
 30
0.0
 40
45.99999999999984
100
AcDbArc
 50
142.1935816212043
 51
169.563683402143
  0
ARC
  5
1069
330
1A
100
AcDbEntity
  8
SEIHIN
  6
Continuous
 62
     3
 48
5.0
100
AcDbCircle
 10
151.9751241177732
 20
79.41525666185157
 30
0.0
 40
0.5
100
AcDbArc
 50
270.0
 51
349.050282020009
  0
LINE
  5
106A
330
1A
100
AcDbEntity
  8
SEIHIN
  6
Continuous
 62
     3
 48
5.0
100
AcDbLine
 10
161.3895418600732
 20
99.08699356665193
 30
0.0
 11
161.3895418600732
 21
105.9152566618517
 31
0.0
  0
ARC
  5
106B
330
1A
100
AcDbEntity
  8
SEIHIN
  6
Continuous
 62
     3
 48
5.0
100
AcDbCircle
 10
160.8895418600732
 20
99.08699356665193
 30
0.0
 40
0.5000000000000482
100
AcDbArc
 50
322.1935816211591
 51
0.0
  0
ARC
  5
106C
330
1A
100
AcDbEntity
  8
SEIHIN
  6
Continuous
 62
     3
 48
5.0
100
AcDbCircle
 10
166.1379389944281
 20
111.4152543181003
 30
0.0
 40
3.999997656249778
100
AcDbArc
 50
270.0000410473671
 51
348.5580779364224
  0
LINE
  5
106D
330
1A
100
AcDbEntity
  8
SEIHIN
  6
Continuous
 62
     3
 48
5.0
100
AcDbLine
 10
166.8895418600732
 20
105.9152566618517
 30
0.0
 11
166.8895418600732
 21
107.4152566618518
 31
0.0
  0
LINE
  5
106E
330
1A
100
AcDbEntity
  8
SEIHIN
  6
Continuous
 62
     3
 48
5.0
100
AcDbLine
 10
151.3896418600734
 20
157.4623566618518
 30
0.0
 11
147.3895418600732
 21
155.1528566618519
 31
0.0
  0
LINE
  5
106F
330
1A
100
AcDbEntity
  8
SEIHIN
  6
Continuous
 62
     3
 48
5.0
100
AcDbLine
 10
151.3896418600734
 20
148.2247566618516
 30
0.0
 11
147.3895418600732
 21
145.9152566618518
 31
0.0
  0
LINE
  5
1070
330
1A
100
AcDbEntity
  8
SEIHIN
  6
Continuous
 62
     3
 48
5.0
100
AcDbLine
 10
151.3896418600734
 20
138.9871566618517
 30
0.0
 11
147.3895418600732
 21
136.6776566618518
 31
0.0
  0
ARC
  5
1071
330
1A
100
AcDbEntity
  8
SEIHIN
  6
Continuous
 62
     3
 48
5.0
100
AcDbCircle
 10
145.3934095250315
 20
131.1468209758377
 30
0.0
 40
7.500007985686965
100
AcDbArc
 50
277.4105103825606
 51
358.2306996513078
  0
ARC
  5
1072
330
1A
100
AcDbEntity
  8
SEIHIN
  6
Continuous
 62
     3
 48
5.0
100
AcDbCircle
 10
144.0089164237326
 20
133.0353333744719
 30
0.0
 40
7.50001671165609
100
AcDbArc
 50
270.3500819444455
 51
354.5995181820886
  0
ARC
  5
1073
330
1A
100
AcDbEntity
  8
SEIHIN
  6
Continuous
 62
     3
 48
5.0
100
AcDbCircle
 10
142.6547773666598
 20
134.9230920512568
 30
0.0
 40
7.49998311703254
100
AcDbArc
 50
278.8577765565171
 51
350.9522000436784
  0
LINE
  5
1074
330
1A
100
AcDbEntity
  8
SEIHIN
  6
Continuous
 62
     3
 48
5.0
100
AcDbLine
 10
127.3899418600735
 20
113.4152566618517
 30
0.0
 11
159.6290418600733
 21
113.4152566618517
 31
0.0
  0
LINE
  5
1075
330
1A
100
AcDbEntity
  8
SEIHIN
  6
Continuous
 62
     3
 48
5.0
100
AcDbLine
 10
149.3897418600734
 20
137.8324566618518
 30
0.0
 11
149.3897418600734
 21
133.2135566618519
 31
0.0
  0
LINE
  5
1076
330
1A
100
AcDbEntity
  8
SEIHIN
  6
Continuous
 62
     3
 48
5.0
100
AcDbLine
 10
137.3899418600735
 20
137.8322566618517
 30
0.0
 11
137.3899418600735
 21
133.2134566618517
 31
0.0
  0
LINE
  5
1077
330
1A
100
AcDbEntity
  8
SEIHIN
  6
Continuous
 62
     3
 48
5.0
100
AcDbLine
 10
133.3898418600733
 20
137.8323566618516
 30
0.0
 11
133.3898418600733
 21
133.2135566618519
 31
0.0
  0
ARC
  5
1078
330
1A
100
AcDbEntity
  8
SEIHIN
  6
Continuous
 62
     3
 48
5.0
100
AcDbCircle
 10
150.4719922877907
 20
57.83028961767172
 30
0.0
 40
70.00002800840897
100
AcDbArc
 50
95.46139037255267
 51
109.2532044288931
  0
ARC
  5
1079
330
1A
100
AcDbEntity
  8
SEIHIN
  6
Continuous
 62
     3
 48
5.0
100
AcDbCircle
 10
150.4717341064952
 20
55.83023418693892
 30
0.0
 40
69.99999520583343
100
AcDbArc
 50
94.3101632588266
 51
109.2529899631646
  0
ARC
  5
107A
330
1A
100
AcDbEntity
  8
SEIHIN
  6
Continuous
 62
     3
 48
5.0
100
AcDbCircle
 10
150.4718819272479
 20
53.83026467530476
 30
0.0
 40
70.00001516518839
100
AcDbArc
 50
93.36686869145429
 51
109.2531124178379
  0
LINE
  5
107B
330
1A
100
AcDbEntity
  8
SEIHIN
  6
Continuous
 62
     3
 48
5.0
100
AcDbLine
 10
135.3898418600733
 20
129.7494566618518
 30
0.0
 11
139.3899418600735
 21
127.4399566618517
 31
0.0
  0
LINE
  5
107C
330
1A
100
AcDbEntity
  8
SEIHIN
  6
Continuous
 62
     3
 48
5.0
100
AcDbLine
 10
133.3899418600735
 20
133.2134566618517
 30
0.0
 11
129.3899418600735
 21
130.9040566618518
 31
0.0
  0
LINE
  5
107D
330
1A
100
AcDbEntity
  8
SEIHIN
  6
Continuous
 62
     3
 48
5.0
100
AcDbLine
 10
133.3900418600733
 20
133.2134566618517
 30
0.0
 11
129.3900418600733
 21
130.9040566618518
 31
0.0
  0
LINE
  5
107E
330
1A
100
AcDbEntity
  8
SEIHIN
  6
Continuous
 62
     3
 48
5.0
100
AcDbLine
 10
127.3899418600735
 20
134.3681566618518
 30
0.0
 11
131.3900418600733
 21
132.0587566618516
 31
0.0
  0
LINE
  5
107F
330
1A
100
AcDbEntity
  8
SEIHIN
  6
Continuous
 62
     3
 48
5.0
100
AcDbLine
 10
133.3899418600735
 20
128.5948566618517
 30
0.0
 11
133.3899418600735
 21
125.7140566618518
 31
0.0
  0
LINE
  5
1080
330
1A
100
AcDbEntity
  8
SEIHIN
  6
Continuous
 62
     3
 48
5.0
100
AcDbLine
 10
127.3899418600735
 20
125.1305566618516
 30
0.0
 11
128.7175418600732
 21
124.3640566618516
 31
0.0
  0
LINE
  5
1081
330
1A
100
AcDbEntity
  8
SEIHIN
  6
Continuous
 62
     3
 48
5.0
100
AcDbLine
 10
127.3895418600732
 20
125.1305566618516
 30
0.0
 11
126.0620418600735
 21
124.3640566618516
 31
0.0
  0
LINE
  5
1082
330
1A
100
AcDbEntity
  8
SEIHIN
  6
Continuous
 62
     3
 48
5.0
100
AcDbLine
 10
129.3899418600735
 20
128.5946566618517
 30
0.0
 11
133.3899418600735
 21
126.2852566618516
 31
0.0
  0
LINE
  5
1083
330
1A
100
AcDbEntity
  8
SEIHIN
  6
Continuous
 62
     3
 48
5.0
100
AcDbLine
 10
129.3900418600733
 20
128.5946566618517
 30
0.0
 11
133.3900418600733
 21
126.2852566618516
 31
0.0
  0
LINE
  5
1084
330
1A
100
AcDbEntity
  8
SEIHIN
  6
Continuous
 62
     3
 48
5.0
100
AcDbLine
 10
135.3898418600733
 20
129.7494566618518
 30
0.0
 11
131.3897418600733
 21
127.4399566618517
 31
0.0
  0
LINE
  5
1085
330
1A
100
AcDbEntity
  8
SEIHIN
  6
Continuous
 62
     3
 48
5.0
100
AcDbLine
 10
129.3900418600733
 20
133.2134566618517
 30
0.0
 11
129.3900418600733
 21
128.5946566618517
 31
0.0
  0
LINE
  5
1086
330
1A
100
AcDbEntity
  8
SEIHIN
  6
Continuous
 62
     3
 48
5.0
100
AcDbLine
 10
125.3894418600734
 20
133.2134566618517
 30
0.0
 11
125.3894418600734
 21
128.5946566618517
 31
0.0
  0
LINE
  5
1087
330
1A
100
AcDbEntity
  8
SEIHIN
  6
Continuous
 62
     3
 48
5.0
100
AcDbLine
 10
143.3897418600734
 20
134.3682566618517
 30
0.0
 11
139.3896418600734
 21
132.0588566618516
 31
0.0
  0
LINE
  5
1088
330
1A
100
AcDbEntity
  8
SEIHIN
  6
Continuous
 62
     3
 48
5.0
100
AcDbLine
 10
149.3897418600734
 20
133.2135566618519
 30
0.0
 11
145.3897418600734
 21
130.9041566618518
 31
0.0
  0
LINE
  5
1089
330
1A
100
AcDbEntity
  8
SEIHIN
  6
Continuous
 62
     3
 48
5.0
100
AcDbLine
 10
143.3897418600734
 20
134.3682566618517
 30
0.0
 11
147.3897418600734
 21
132.0588566618516
 31
0.0
  0
LINE
  5
108A
330
1A
100
AcDbEntity
  8
SEIHIN
  6
Continuous
 62
     3
 48
5.0
100
AcDbLine
 10
137.3899418600735
 20
133.2134566618517
 30
0.0
 11
141.3899418600735
 21
130.9040566618518
 31
0.0
  0
LINE
  5
108B
330
1A
100
AcDbEntity
  8
SEIHIN
  6
Continuous
 62
     3
 48
5.0
100
AcDbLine
 10
137.3898418600733
 20
133.2135566618519
 30
0.0
 11
141.3898418600733
 21
130.9041566618518
 31
0.0
  0
LINE
  5
108C
330
1A
100
AcDbEntity
  8
SEIHIN
  6
Continuous
 62
     3
 48
5.0
100
AcDbLine
 10
145.3897418600734
 20
128.5947566618517
 30
0.0
 11
146.0297418600734
 21
128.2253566618517
 31
0.0
  0
LINE
  5
108D
330
1A
100
AcDbEntity
  8
SEIHIN
  6
Continuous
 62
     3
 48
5.0
100
AcDbLine
 10
145.3897418600734
 20
128.5947566618517
 30
0.0
 11
146.0297418600734
 21
128.2253566618517
 31
0.0
  0
LINE
  5
108E
330
1A
100
AcDbEntity
  8
SEIHIN
  6
Continuous
 62
     3
 48
5.0
100
AcDbLine
 10
145.3897418600734
 20
128.5947566618517
 30
0.0
 11
146.0297418600734
 21
128.2253566618517
 31
0.0
  0
LINE
  5
108F
330
1A
100
AcDbEntity
  8
SEIHIN
  6
Continuous
 62
     3
 48
5.0
100
AcDbLine
 10
141.3899418600735
 20
128.5946566618517
 30
0.0
 11
138.1829418600734
 21
126.7431566618515
 31
0.0
  0
LINE
  5
1090
330
1A
100
AcDbEntity
  8
SEIHIN
  6
Continuous
 62
     3
 48
5.0
100
AcDbLine
 10
141.3898418600733
 20
128.5947566618517
 30
0.0
 11
138.1826418600735
 21
126.7430566618518
 31
0.0
  0
LINE
  5
1091
330
1A
100
AcDbEntity
  8
SEIHIN
  6
Continuous
 62
     3
 48
5.0
100
AcDbLine
 10
137.3899418600735
 20
128.5946566618517
 30
0.0
 11
137.3899418600735
 21
126.5969566618518
 31
0.0
  0
LINE
  5
1092
330
1A
100
AcDbEntity
  8
SEIHIN
  6
Continuous
 62
     3
 48
5.0
100
AcDbLine
 10
145.3897418600734
 20
133.2135566618519
 30
0.0
 11
145.3897418600734
 21
128.5947566618517
 31
0.0
  0
LINE
  5
1093
330
1A
100
AcDbEntity
  8
SEIHIN
  6
Continuous
 62
     3
 48
5.0
100
AcDbLine
 10
141.3897418600734
 20
133.2136566618516
 30
0.0
 11
141.3897418600734
 21
128.5947566618517
 31
0.0
  0
LINE
  5
1094
330
1A
100
AcDbEntity
  8
SEIHIN
  6
Continuous
 62
     3
 48
5.0
100
AcDbLine
 10
135.3897418600733
 20
157.4623566618518
 30
0.0
 11
139.3898418600733
 21
155.1528566618519
 31
0.0
  0
LINE
  5
1095
330
1A
100
AcDbEntity
  8
SEIHIN
  6
Continuous
 62
     3
 48
5.0
100
AcDbLine
 10
135.3897418600733
 20
148.2247566618516
 30
0.0
 11
139.3898418600733
 21
145.9152566618518
 31
0.0
  0
LINE
  5
1096
330
1A
100
AcDbEntity
  8
SEIHIN
  6
Continuous
 62
     3
 48
5.0
100
AcDbLine
 10
135.3897418600733
 20
138.9871566618517
 30
0.0
 11
139.3898418600733
 21
136.6776566618518
 31
0.0
  0
LINE
  5
1097
330
1A
100
AcDbEntity
  8
SEIHIN
  6
Continuous
 62
     3
 48
5.0
100
AcDbLine
 10
129.3897418600733
 20
156.3076566618517
 30
0.0
 11
133.3897418600733
 21
153.9982566618516
 31
0.0
  0
LINE
  5
1098
330
1A
100
AcDbEntity
  8
SEIHIN
  6
Continuous
 62
     3
 48
5.0
100
AcDbLine
 10
135.3897418600733
 20
157.4623566618518
 30
0.0
 11
131.3896418600734
 21
155.1528566618519
 31
0.0
  0
LINE
  5
1099
330
1A
100
AcDbEntity
  8
SEIHIN
  6
Continuous
 62
     3
 48
5.0
100
AcDbLine
 10
135.3897418600733
 20
148.2247566618516
 30
0.0
 11
131.3896418600734
 21
145.9152566618518
 31
0.0
  0
LINE
  5
109A
330
1A
100
AcDbEntity
  8
SEIHIN
  6
Continuous
 62
     3
 48
5.0
100
AcDbLine
 10
129.3898418600733
 20
147.0699566618518
 30
0.0
 11
133.3898418600733
 21
144.7605566618517
 31
0.0
  0
LINE
  5
109B
330
1A
100
AcDbEntity
  8
SEIHIN
  6
Continuous
 62
     3
 48
5.0
100
AcDbLine
 10
133.3898418600733
 20
147.0700566618518
 30
0.0
 11
133.3898418600733
 21
142.4511566618516
 31
0.0
  0
LINE
  5
109C
330
1A
100
AcDbEntity
  8
SEIHIN
  6
Continuous
 62
     3
 48
5.0
100
AcDbLine
 10
127.3897418600734
 20
143.6059566618519
 30
0.0
 11
131.3898418600733
 21
141.2964566618518
 31
0.0
  0
LINE
  5
109D
330
1A
100
AcDbEntity
  8
SEIHIN
  6
Continuous
 62
     3
 48
5.0
100
AcDbLine
 10
133.3898418600733
 20
151.6887566618518
 30
0.0
 11
129.3898418600733
 21
149.3793566618517
 31
0.0
  0
LINE
  5
109E
330
1A
100
AcDbEntity
  8
SEIHIN
  6
Continuous
 62
     3
 48
5.0
100
AcDbLine
 10
129.3898418600733
 20
151.6887566618518
 30
0.0
 11
129.3898418600733
 21
147.0699566618518
 31
0.0
  0
LINE
  5
109F
330
1A
100
AcDbEntity
  8
SEIHIN
  6
Continuous
 62
     3
 48
5.0
100
AcDbLine
 10
125.3896418600734
 20
151.6888566618517
 30
0.0
 11
125.3896418600734
 21
147.0699566618518
 31
0.0
  0
LINE
  5
10A0
330
1A
100
AcDbEntity
  8
SEIHIN
  6
Continuous
 62
     3
 48
5.0
100
AcDbLine
 10
135.3897418600733
 20
138.9871566618517
 30
0.0
 11
131.3896418600734
 21
136.6776566618518
 31
0.0
  0
LINE
  5
10A1
330
1A
100
AcDbEntity
  8
SEIHIN
  6
Continuous
 62
     3
 48
5.0
100
AcDbLine
 10
129.3899418600735
 20
137.8323566618516
 30
0.0
 11
133.3899418600735
 21
135.5228566618518
 31
0.0
  0
LINE
  5
10A2
330
1A
100
AcDbEntity
  8
SEIHIN
  6
Continuous
 62
     3
 48
5.0
100
AcDbLine
 10
129.3899418600735
 20
142.4511566618516
 30
0.0
 11
129.3899418600735
 21
137.8323566618516
 31
0.0
  0
LINE
  5
10A3
330
1A
100
AcDbEntity
  8
SEIHIN
  6
Continuous
 62
     3
 48
5.0
100
AcDbLine
 10
125.3895418600734
 20
142.4511566618516
 30
0.0
 11
125.3895418600734
 21
137.8323566618516
 31
0.0
  0
LINE
  5
10A4
330
1A
100
AcDbEntity
  8
SEIHIN
  6
Continuous
 62
     3
 48
5.0
100
AcDbLine
 10
133.3898418600733
 20
142.4511566618516
 30
0.0
 11
129.3898418600733
 21
140.1417566618517
 31
0.0
  0
LINE
  5
10A5
330
1A
100
AcDbEntity
  8
SEIHIN
  6
Continuous
 62
     3
 48
5.0
100
AcDbLine
 10
133.3897418600733
 20
156.3076566618517
 30
0.0
 11
133.3897418600733
 21
151.6888566618517
 31
0.0
  0
LINE
  5
10A6
330
1A
100
AcDbEntity
  8
SEIHIN
  6
Continuous
 62
     3
 48
5.0
100
AcDbLine
 10
127.3897418600734
 20
152.8435566618518
 30
0.0
 11
131.3898418600733
 21
150.5340566618517
 31
0.0
  0
LINE
  5
10A7
330
1A
100
AcDbEntity
  8
SEIHIN
  6
Continuous
 62
     3
 48
5.0
100
AcDbLine
 10
145.3897418600734
 20
156.3076566618517
 30
0.0
 11
149.3897418600734
 21
153.9982566618516
 31
0.0
  0
LINE
  5
10A8
330
1A
100
AcDbEntity
  8
SEIHIN
  6
Continuous
 62
     3
 48
5.0
100
AcDbLine
 10
145.3897418600734
 20
156.3075566618517
 30
0.0
 11
149.3897418600734
 21
153.9981566618519
 31
0.0
  0
LINE
  5
10A9
330
1A
100
AcDbEntity
  8
SEIHIN
  6
Continuous
 62
     3
 48
5.0
100
AcDbLine
 10
145.3897418600734
 20
156.3075566618517
 30
0.0
 11
149.3897418600734
 21
153.9981566618519
 31
0.0
  0
LINE
  5
10AA
330
1A
100
AcDbEntity
  8
SEIHIN
  6
Continuous
 62
     3
 48
5.0
100
AcDbLine
 10
141.3898418600733
 20
156.3075566618517
 30
0.0
 11
137.3898418600733
 21
153.9981566618519
 31
0.0
  0
LINE
  5
10AB
330
1A
100
AcDbEntity
  8
SEIHIN
  6
Continuous
 62
     3
 48
5.0
100
AcDbLine
 10
145.3897418600734
 20
147.0699566618518
 30
0.0
 11
149.3897418600734
 21
144.7605566618517
 31
0.0
  0
LINE
  5
10AC
330
1A
100
AcDbEntity
  8
SEIHIN
  6
Continuous
 62
     3
 48
5.0
100
AcDbLine
 10
145.3897418600734
 20
147.0699566618518
 30
0.0
 11
149.3897418600734
 21
144.7605566618517
 31
0.0
  0
LINE
  5
10AD
330
1A
100
AcDbEntity
  8
SEIHIN
  6
Continuous
 62
     3
 48
5.0
100
AcDbLine
 10
145.3897418600734
 20
147.0699566618518
 30
0.0
 11
149.3897418600734
 21
144.7605566618517
 31
0.0
  0
LINE
  5
10AE
330
1A
100
AcDbEntity
  8
SEIHIN
  6
Continuous
 62
     3
 48
5.0
100
AcDbLine
 10
149.3897418600734
 20
147.0700566618518
 30
0.0
 11
149.3897418600734
 21
142.4511566618516
 31
0.0
  0
LINE
  5
10AF
330
1A
100
AcDbEntity
  8
SEIHIN
  6
Continuous
 62
     3
 48
5.0
100
AcDbLine
 10
143.3897418600734
 20
143.6059566618519
 30
0.0
 11
147.3897418600734
 21
141.2964566618518
 31
0.0
  0
LINE
  5
10B0
330
1A
100
AcDbEntity
  8
SEIHIN
  6
Continuous
 62
     3
 48
5.0
100
AcDbLine
 10
143.3897418600734
 20
143.6059566618519
 30
0.0
 11
139.3896418600734
 21
141.2964566618518
 31
0.0
  0
LINE
  5
10B1
330
1A
100
AcDbEntity
  8
SEIHIN
  6
Continuous
 62
     3
 48
5.0
100
AcDbLine
 10
149.3897418600734
 20
151.6887566618518
 30
0.0
 11
145.3897418600734
 21
149.3793566618517
 31
0.0
  0
LINE
  5
10B2
330
1A
100
AcDbEntity
  8
SEIHIN
  6
Continuous
 62
     3
 48
5.0
100
AcDbLine
 10
145.3897418600734
 20
151.6887566618518
 30
0.0
 11
145.3897418600734
 21
147.0699566618518
 31
0.0
  0
LINE
  5
10B3
330
1A
100
AcDbEntity
  8
SEIHIN
  6
Continuous
 62
     3
 48
5.0
100
AcDbLine
 10
141.3897418600734
 20
151.6888566618517
 30
0.0
 11
141.3897418600734
 21
147.0700566618518
 31
0.0
  0
LINE
  5
10B4
330
1A
100
AcDbEntity
  8
SEIHIN
  6
Continuous
 62
     3
 48
5.0
100
AcDbLine
 10
137.3898418600733
 20
147.0699566618518
 30
0.0
 11
137.3898418600733
 21
142.4511566618516
 31
0.0
  0
LINE
  5
10B5
330
1A
100
AcDbEntity
  8
SEIHIN
  6
Continuous
 62
     3
 48
5.0
100
AcDbLine
 10
141.3898418600733
 20
147.0699566618518
 30
0.0
 11
137.3898418600733
 21
144.7605566618517
 31
0.0
  0
LINE
  5
10B6
330
1A
100
AcDbEntity
  8
SEIHIN
  6
Continuous
 62
     3
 48
5.0
100
AcDbLine
 10
137.3898418600733
 20
151.6887566618518
 30
0.0
 11
141.3898418600733
 21
149.3793566618517
 31
0.0
  0
LINE
  5
10B7
330
1A
100
AcDbEntity
  8
SEIHIN
  6
Continuous
 62
     3
 48
5.0
100
AcDbLine
 10
137.3897418600733
 20
151.6888566618517
 30
0.0
 11
141.3897418600734
 21
149.3794566618516
 31
0.0
  0
LINE
  5
10B8
330
1A
100
AcDbEntity
  8
SEIHIN
  6
Continuous
 62
     3
 48
5.0
100
AcDbLine
 10
145.3897418600734
 20
137.8323566618516
 30
0.0
 11
149.3897418600734
 21
135.5229566618518
 31
0.0
  0
LINE
  5
10B9
330
1A
100
AcDbEntity
  8
SEIHIN
  6
Continuous
 62
     3
 48
5.0
100
AcDbLine
 10
141.3898418600733
 20
137.8323566618516
 30
0.0
 11
137.3898418600733
 21
135.5229566618518
 31
0.0
  0
LINE
  5
10BA
330
1A
100
AcDbEntity
  8
SEIHIN
  6
Continuous
 62
     3
 48
5.0
100
AcDbLine
 10
149.3897418600734
 20
142.4511566618516
 30
0.0
 11
145.3897418600734
 21
140.1417566618517
 31
0.0
  0
LINE
  5
10BB
330
1A
100
AcDbEntity
  8
SEIHIN
  6
Continuous
 62
     3
 48
5.0
100
AcDbLine
 10
137.3898418600733
 20
142.4511566618516
 30
0.0
 11
141.3898418600733
 21
140.1417566618517
 31
0.0
  0
LINE
  5
10BC
330
1A
100
AcDbEntity
  8
SEIHIN
  6
Continuous
 62
     3
 48
5.0
100
AcDbLine
 10
137.3898418600733
 20
142.4511566618516
 30
0.0
 11
141.3898418600733
 21
140.1417566618517
 31
0.0
  0
LINE
  5
10BD
330
1A
100
AcDbEntity
  8
SEIHIN
  6
Continuous
 62
     3
 48
5.0
100
AcDbLine
 10
141.3898418600733
 20
142.4512566618518
 30
0.0
 11
141.3898418600733
 21
137.8323566618516
 31
0.0
  0
LINE
  5
10BE
330
1A
100
AcDbEntity
  8
SEIHIN
  6
Continuous
 62
     3
 48
5.0
100
AcDbLine
 10
145.3897418600734
 20
142.4511566618516
 30
0.0
 11
145.3897418600734
 21
137.8323566618516
 31
0.0
  0
LINE
  5
10BF
330
1A
100
AcDbEntity
  8
SEIHIN
  6
Continuous
 62
     3
 48
5.0
100
AcDbLine
 10
149.3897418600734
 20
156.3076566618517
 30
0.0
 11
149.3897418600734
 21
151.6888566618517
 31
0.0
  0
LINE
  5
10C0
330
1A
100
AcDbEntity
  8
SEIHIN
  6
Continuous
 62
     3
 48
5.0
100
AcDbLine
 10
143.3897418600734
 20
152.8435566618518
 30
0.0
 11
147.3897418600734
 21
150.5340566618517
 31
0.0
  0
LINE
  5
10C1
330
1A
100
AcDbEntity
  8
SEIHIN
  6
Continuous
 62
     3
 48
5.0
100
AcDbLine
 10
143.3897418600734
 20
152.8435566618518
 30
0.0
 11
139.3896418600734
 21
150.5340566618517
 31
0.0
  0
LINE
  5
10C2
330
1A
100
AcDbEntity
  8
SEIHIN
  6
Continuous
 62
     3
 48
5.0
100
AcDbLine
 10
137.3898418600733
 20
156.3075566618517
 30
0.0
 11
137.3898418600733
 21
151.6887566618518
 31
0.0
  0
ARC
  5
10C3
330
1A
100
AcDbEntity
  8
SEIHIN
  6
Continuous
 62
     3
 48
5.0
100
AcDbCircle
 10
-104.4223515315211
 20
165.3167635402287
 30
0.0
 40
274.0000012559775
100
AcDbArc
 50
350.2481874810834
 51
355.9394318184812
  0
ARC
  5
10C4
330
1A
100
AcDbEntity
  8
SEIHIN
  6
Continuous
 62
     3
 48
5.0
100
AcDbCircle
 10
151.0395332494326
 20
139.8167480489116
 30
0.0
 40
7.499981535645056
100
AcDbArc
 50
273.333512915486
 51
356.6819235736257
  0
ARC
  5
10C5
330
1A
100
AcDbEntity
  8
SEIHIN
  6
Continuous
 62
     3
 48
5.0
100
AcDbCircle
 10
152.8898418600733
 20
138.4152566618515
 30
0.0
 40
7.499999999999772
100
AcDbArc
 50
270.0
 51
0.0
  0
ARC
  5
10C6
330
1A
100
AcDbEntity
  8
SEIHIN
  6
Continuous
 62
     3
 48
5.0
100
AcDbCircle
 10
149.1925640641288
 20
141.1931791187569
 30
0.0
 40
7.500022230648208
100
AcDbArc
 50
276.6526558598581
 51
353.9957240126916
  0
ARC
  5
10C7
330
1A
100
AcDbEntity
  8
SEIHIN
  6
Continuous
 62
     3
 48
5.0
100
AcDbCircle
 10
162.6619656394573
 20
119.4152767033847
 30
0.0
 40
3.000020041627176
100
AcDbArc
 50
269.9995458502495
 51
350.2486796341073
  0
ARC
  5
10C8
330
1A
100
AcDbEntity
  8
SEIHIN
  6
Continuous
 62
     3
 48
5.0
100
AcDbCircle
 10
159.6290163011576
 20
116.4152353658671
 30
0.0
 40
2.999978704124452
100
AcDbArc
 50
270.0004881428024
 51
349.6033958989146
  0
ARC
  5
10C9
330
1A
100
AcDbEntity
  8
SEIHIN
  6
Continuous
 62
     3
 48
5.0
100
AcDbCircle
 10
-106.9192585553551
 20
165.3337831876833
 30
0.0
 40
274.0000018418566
100
AcDbArc
 50
349.600365590302
 51
349.715446726229
  0
ARC
  5
10CA
330
1A
100
AcDbEntity
  8
SEIHIN
  6
Continuous
 62
     3
 48
5.0
100
AcDbCircle
 10
106.9555537696767
 20
145.9150448574391
 30
0.0
 40
49.99998809084514
100
AcDbArc
 50
0.000242710041572
 51
6.436861995432249
  0
LINE
  5
10CB
330
1A
100
AcDbEntity
  8
SEIHIN
  6
Continuous
 62
     3
 48
5.0
100
AcDbLine
 10
156.8111418600733
 20
142.1171566618518
 30
0.0
 11
155.3895418600734
 21
141.2964566618518
 31
0.0
  0
ARC
  5
10CC
330
1A
100
AcDbEntity
  8
SEIHIN
  6
Continuous
 62
     3
 48
5.0
100
AcDbCircle
 10
106.9555481646984
 20
145.9153687814518
 30
0.0
 40
49.99999369582471
100
AcDbArc
 50
353.5631383657146
 51
359.9997569288086
  0
ARC
  5
10CD
330
1A
100
AcDbEntity
  8
SEIHIN
  6
Continuous
 62
     3
 48
5.0
100
AcDbCircle
 10
108.9555342773721
 20
145.9151561351159
 30
0.0
 40
50.00000758280016
100
AcDbArc
 50
351.3730753701247
 51
359.9998860120468
  0
ARC
  5
10CE
330
1A
100
AcDbEntity
  8
SEIHIN
  6
Continuous
 62
     3
 48
5.0
100
AcDbCircle
 10
110.9555342773721
 20
145.9151561351159
 30
0.0
 40
50.00000758280016
100
AcDbArc
 50
351.3730753701247
 51
359.9998860120468
  0
ARC
  5
10CF
330
1A
100
AcDbEntity
  8
SEIHIN
  6
Continuous
 62
     3
 48
5.0
100
AcDbCircle
 10
110.9555417776234
 20
145.9152577549662
 30
0.0
 40
50.0000000824498
100
AcDbArc
 50
359.9999987473878
 51
8.626925277388938
  0
ARC
  5
10D0
330
1A
100
AcDbEntity
  8
SEIHIN
  6
Continuous
 62
     3
 48
5.0
100
AcDbCircle
 10
108.9555417776234
 20
145.9152577549662
 30
0.0
 40
50.0000000824498
100
AcDbArc
 50
359.9999987473878
 51
8.626925277388938
  0
LINE
  5
10D1
330
1A
100
AcDbEntity
  8
SEIHIN
  6
Continuous
 62
     3
 48
5.0
100
AcDbLine
 10
153.3897418600734
 20
147.0699566618518
 30
0.0
 11
153.3897418600734
 21
142.4511566618516
 31
0.0
  0
LINE
  5
10D2
330
1A
100
AcDbEntity
  8
SEIHIN
  6
Continuous
 62
     3
 48
5.0
100
AcDbLine
 10
153.3897418600734
 20
137.8323566618516
 30
0.0
 11
153.3897418600734
 21
134.9775566618516
 31
0.0
  0
LINE
  5
10D3
330
1A
100
AcDbEntity
  8
SEIHIN
  6
Continuous
 62
     3
 48
5.0
100
AcDbLine
 10
153.3897418600734
 20
156.3075566618517
 30
0.0
 11
153.3897418600734
 21
151.6887566618518
 31
0.0
  0
LINE
  5
10D4
330
1A
100
AcDbEntity
  8
SEIHIN
  6
Continuous
 62
     3
 48
5.0
100
AcDbLine
 10
151.3896418600734
 20
148.2247566618516
 30
0.0
 11
155.3897418600733
 21
145.9152566618518
 31
0.0
  0
LINE
  5
10D5
330
1A
100
AcDbEntity
  8
SEIHIN
  6
Continuous
 62
     3
 48
5.0
100
AcDbLine
 10
156.9474418600734
 20
146.8146566618518
 30
0.0
 11
153.3897418600734
 21
144.7605566618517
 31
0.0
  0
LINE
  5
10D6
330
1A
100
AcDbEntity
  8
SEIHIN
  6
Continuous
 62
     3
 48
5.0
100
AcDbLine
 10
151.3896418600734
 20
138.9871566618517
 30
0.0
 11
155.2436418600734
 21
136.7620566618518
 31
0.0
  0
LINE
  5
10D7
330
1A
100
AcDbEntity
  8
SEIHIN
  6
Continuous
 62
     3
 48
5.0
100
AcDbLine
 10
153.3897418600734
 20
142.4511566618516
 30
0.0
 11
156.6678418600734
 21
140.5585566618517
 31
0.0
  0
LINE
  5
10D8
330
1A
100
AcDbEntity
  8
SEIHIN
  6
Continuous
 62
     3
 48
5.0
100
AcDbLine
 10
153.3897418600734
 20
151.6887566618518
 30
0.0
 11
156.8111418600733
 21
149.7134566618517
 31
0.0
  0
LINE
  5
10D9
330
1A
100
AcDbEntity
  8
SEIHIN
  6
Continuous
 62
     3
 48
5.0
100
AcDbLine
 10
151.3896418600734
 20
157.4623566618518
 30
0.0
 11
155.0082418600732
 21
155.3731566618519
 31
0.0
  0
LINE
  5
10DA
330
1A
100
AcDbEntity
  8
SEIHIN
  6
Continuous
 62
     3
 48
5.0
100
AcDbLine
 10
127.3897418600734
 20
179.9152566618517
 30
0.0
 11
91.38984186007338
 21
179.9154566618517
 31
0.0
  0
LINE
  5
10DB
330
1A
100
AcDbEntity
  8
SEIHIN
  6
Continuous
 62
     3
 48
5.0
100
AcDbLine
 10
127.3899418600735
 20
162.0812566618519
 30
0.0
 11
123.3897418600734
 21
159.7716566618516
 31
0.0
  0
ARC
  5
10DC
330
1A
100
AcDbEntity
  8
SEIHIN
  6
Continuous
 62
     3
 48
5.0
100
AcDbCircle
 10
104.3082009558604
 20
234.0003915164599
 30
0.0
 40
69.99995698974242
100
AcDbArc
 50
275.4610592020313
 51
289.2528696747026
  0
ARC
  5
10DD
330
1A
100
AcDbEntity
  8
SEIHIN
  6
Continuous
 62
     3
 48
5.0
100
AcDbCircle
 10
104.3080017928991
 20
238.0003486483988
 30
0.0
 40
70.00001516518837
100
AcDbArc
 50
273.3668686914412
 51
289.2531124178379
  0
ARC
  5
10DE
330
1A
100
AcDbEntity
  8
SEIHIN
  6
Continuous
 62
     3
 48
5.0
100
AcDbCircle
 10
104.308177903428
 20
236.0003850372588
 30
0.0
 40
69.99999144806124
100
AcDbArc
 50
274.3100581862147
 51
289.2529665101955
  0
LINE
  5
10DF
330
1A
100
AcDbEntity
  8
SEIHIN
  6
Continuous
 62
     3
 48
5.0
100
AcDbLine
 10
125.3899418600735
 20
165.5453566618518
 30
0.0
 11
121.3899418600733
 21
163.2359566618517
 31
0.0
  0
LINE
  5
10E0
330
1A
100
AcDbEntity
  8
SEIHIN
  6
Continuous
 62
     3
 48
5.0
100
AcDbLine
 10
121.3897418600734
 20
160.9263566618519
 30
0.0
 11
125.3897418600734
 21
158.6169566618518
 31
0.0
  0
ARC
  5
10E1
330
1A
100
AcDbEntity
  8
SEIHIN
  6
Continuous
 62
     3
 48
5.0
100
AcDbCircle
 10
91.38984186007338
 20
169.9154566618515
 30
0.0
 40
10.00000000000011
100
AcDbArc
 50
90.0
 51
143.1301023541579
  0
LINE
  5
10E2
330
1A
100
AcDbEntity
  8
SEIHIN
  6
Continuous
 62
     3
 48
5.0
100
AcDbLine
 10
83.38984186007337
 20
175.9154566618517
 30
0.0
 11
77.38984186007337
 21
175.9154566618517
 31
0.0
  0
ARC
  5
10E3
330
1A
100
AcDbEntity
  8
SEIHIN
  6
Continuous
 62
     3
 48
5.0
100
AcDbCircle
 10
77.38984186007337
 20
179.9154566618517
 30
0.0
 40
4.0
100
AcDbArc
 50
180.0
 51
270.0
  0
LINE
  5
10E4
330
1A
100
AcDbEntity
  8
SEIHIN
  6
Continuous
 62
     3
 48
5.0
100
AcDbLine
 10
111.3899418600733
 20
162.0811566618517
 30
0.0
 11
107.3898418600733
 21
159.7717566618516
 31
0.0
  0
ARC
  5
10E5
330
1A
100
AcDbEntity
  8
SEIHIN
  6
Continuous
 62
     3
 48
5.0
100
AcDbCircle
 10
110.7706672964143
 20
158.7951799492316
 30
0.0
 40
7.50001671165609
100
AcDbArc
 50
90.35008194444554
 51
174.5995181820885
  0
ARC
  5
10E6
330
1A
100
AcDbEntity
  8
SEIHIN
  6
Continuous
 62
     3
 48
5.0
100
AcDbCircle
 10
112.1248658168922
 20
156.9074805395573
 30
0.0
 40
7.500032520619665
100
AcDbArc
 50
98.85817748831907
 51
170.952718612532
  0
LINE
  5
10E7
330
1A
100
AcDbEntity
  8
SEIHIN
  6
Continuous
 62
     3
 48
5.0
100
AcDbLine
 10
105.6868418600733
 20
160.7549566618517
 30
0.0
 11
109.3898418600733
 21
158.6170566618518
 31
0.0
  0
ARC
  5
10E8
330
1A
100
AcDbEntity
  8
SEIHIN
  6
Continuous
 62
     3
 48
5.0
100
AcDbCircle
 10
109.3861244371435
 20
160.6838374330434
 30
0.0
 40
7.499956859549564
100
AcDbArc
 50
97.41017785583984
 51
178.2310321780318
  0
LINE
  5
10E9
330
1A
100
AcDbEntity
  8
SEIHIN
  6
Continuous
 62
     3
 48
5.0
100
AcDbLine
 10
116.5969418600734
 20
165.0874566618517
 30
0.0
 11
115.3897418600734
 21
164.3904566618516
 31
0.0
  0
LINE
  5
10EA
330
1A
100
AcDbEntity
  8
SEIHIN
  6
Continuous
 62
     3
 48
5.0
100
AcDbLine
 10
114.7175418600734
 20
164.7786566618517
 30
0.0
 11
117.3897418600734
 21
163.2358566618518
 31
0.0
  0
LINE
  5
10EB
330
1A
100
AcDbEntity
  8
SEIHIN
  6
Continuous
 62
     3
 48
5.0
100
AcDbLine
 10
117.3897418600734
 20
160.9264566618517
 30
0.0
 11
113.3897418600734
 21
158.6170566618518
 31
0.0
  0
LINE
  5
10EC
330
1A
100
AcDbEntity
  8
SEIHIN
  6
Continuous
 62
     3
 48
5.0
100
AcDbLine
 10
117.3899418600733
 20
160.9265566618516
 30
0.0
 11
113.3899418600733
 21
158.6171566618518
 31
0.0
  0
LINE
  5
10ED
330
1A
100
AcDbEntity
  8
SEIHIN
  6
Continuous
 62
     3
 48
5.0
100
AcDbLine
 10
111.3899418600733
 20
162.0811566618517
 30
0.0
 11
115.3899418600733
 21
159.7716566618516
 31
0.0
  0
LINE
  5
10EE
330
1A
100
AcDbEntity
  8
SEIHIN
  6
Continuous
 62
     3
 48
5.0
100
AcDbLine
 10
117.3897418600734
 20
165.2335566618517
 30
0.0
 11
117.3897418600734
 21
160.9264566618517
 31
0.0
  0
LINE
  5
10EF
330
1A
100
AcDbEntity
  8
SEIHIN
  6
Continuous
 62
     3
 48
5.0
100
AcDbLine
 10
121.3899418600733
 20
165.5452566618519
 30
0.0
 11
121.3899418600733
 21
160.9265566618516
 31
0.0
  0
LINE
  5
10F0
330
1A
100
AcDbEntity
  8
SEIHIN
  6
Continuous
 62
     3
 48
5.0
100
AcDbLine
 10
120.6962418600735
 20
165.9457566618516
 30
0.0
 11
123.3899418600735
 21
164.3904566618516
 31
0.0
  0
LINE
  5
10F1
330
1A
100
AcDbEntity
  8
SEIHIN
  6
Continuous
 62
     3
 48
5.0
100
AcDbLine
 10
127.3899418600735
 20
179.9152566618517
 30
0.0
 11
163.3897418600731
 21
179.9152566618517
 31
0.0
  0
ARC
  5
10F2
330
1A
100
AcDbEntity
  8
SEIHIN
  6
Continuous
 62
     3
 48
5.0
100
AcDbCircle
 10
145.3934592830032
 20
160.6837374330434
 30
0.0
 40
7.499956859549811
100
AcDbArc
 50
1.76896782196813
 51
82.58982214416015
  0
ARC
  5
10F3
330
1A
100
AcDbEntity
  8
SEIHIN
  6
Continuous
 62
     3
 48
5.0
100
AcDbCircle
 10
144.0089164237324
 20
158.7951799492316
 30
0.0
 40
7.500016711655877
100
AcDbArc
 50
5.400481817911419
 51
89.64991805556749
  0
ARC
  5
10F4
330
1A
100
AcDbEntity
  8
SEIHIN
  6
Continuous
 62
     3
 48
5.0
100
AcDbCircle
 10
142.6547086357463
 20
156.9074897768978
 30
0.0
 40
7.500040220270406
100
AcDbArc
 50
9.047200564722725
 51
81.14098686351963
  0
ARC
  5
10F5
330
1A
100
AcDbEntity
  8
SEIHIN
  6
Continuous
 62
     3
 48
5.0
100
AcDbCircle
 10
150.4721467674366
 20
234.0001898617787
 30
0.0
 40
70.000018538352
100
AcDbArc
 50
250.7464855289425
 51
264.5383996420946
  0
ARC
  5
10F6
330
1A
100
AcDbEntity
  8
SEIHIN
  6
Continuous
 62
     3
 48
5.0
100
AcDbCircle
 10
150.4720245702294
 20
238.0002201191657
 30
0.0
 40
70.00000680916674
100
AcDbArc
 50
250.7465881210371
 51
266.6328499641527
  0
ARC
  5
10F7
330
1A
100
AcDbEntity
  8
SEIHIN
  6
Continuous
 62
     3
 48
5.0
100
AcDbCircle
 10
150.4718695212059
 20
236.0002508923104
 30
0.0
 40
69.99998473439635
100
AcDbArc
 50
250.7467162380165
 51
265.689642859045
  0
LINE
  5
10F8
330
1A
100
AcDbEntity
  8
SEIHIN
  6
Continuous
 62
     3
 48
5.0
100
AcDbLine
 10
129.3896418600734
 20
165.5453566618518
 30
0.0
 11
133.3896418600734
 21
163.2358566618518
 31
0.0
  0
LINE
  5
10F9
330
1A
100
AcDbEntity
  8
SEIHIN
  6
Continuous
 62
     3
 48
5.0
100
AcDbLine
 10
129.3896418600734
 20
167.2503566618515
 30
0.0
 11
129.3896418600734
 21
165.5453566618518
 31
0.0
  0
LINE
  5
10FA
330
1A
100
AcDbEntity
  8
SEIHIN
  6
Continuous
 62
     3
 48
5.0
100
AcDbLine
 10
134.0833418600734
 20
165.9457566618516
 30
0.0
 11
131.3896418600734
 21
164.3904566618516
 31
0.0
  0
LINE
  5
10FB
330
1A
100
AcDbEntity
  8
SEIHIN
  6
Continuous
 62
     3
 48
5.0
100
AcDbLine
 10
125.3899418600735
 20
167.2504566618517
 30
0.0
 11
125.3899418600735
 21
165.5453566618518
 31
0.0
  0
LINE
  5
10FC
330
1A
100
AcDbEntity
  8
SEIHIN
  6
Continuous
 62
     3
 48
5.0
100
AcDbLine
 10
127.3897418600734
 20
162.0812566618519
 30
0.0
 11
131.3899418600735
 21
159.7716566618516
 31
0.0
  0
LINE
  5
10FD
330
1A
100
AcDbEntity
  8
SEIHIN
  6
Continuous
 62
     3
 48
5.0
100
AcDbLine
 10
133.3898418600733
 20
160.9263566618519
 30
0.0
 11
129.3898418600733
 21
158.6169566618518
 31
0.0
  0
LINE
  5
10FE
330
1A
100
AcDbEntity
  8
SEIHIN
  6
Continuous
 62
     3
 48
5.0
100
AcDbLine
 10
133.3896418600734
 20
165.5451566618516
 30
0.0
 11
133.3896418600734
 21
160.9264566618517
 31
0.0
  0
LINE
  5
10FF
330
1A
100
AcDbEntity
  8
SEIHIN
  6
Continuous
 62
     3
 48
5.0
100
AcDbLine
 10
138.1827418600732
 20
165.0873566618518
 30
0.0
 11
139.3898418600733
 21
164.3904566618516
 31
0.0
  0
LINE
  5
1100
330
1A
100
AcDbEntity
  8
SEIHIN
  6
Continuous
 62
     3
 48
5.0
100
AcDbLine
 10
140.0620418600735
 20
164.7785566618517
 30
0.0
 11
137.3898418600733
 21
163.2357566618516
 31
0.0
  0
LINE
  5
1101
330
1A
100
AcDbEntity
  8
SEIHIN
  6
Continuous
 62
     3
 48
5.0
100
AcDbLine
 10
143.3897418600734
 20
162.0811566618517
 30
0.0
 11
147.3897418600734
 21
159.7716566618516
 31
0.0
  0
LINE
  5
1102
330
1A
100
AcDbEntity
  8
SEIHIN
  6
Continuous
 62
     3
 48
5.0
100
AcDbLine
 10
143.3897418600734
 20
162.0811566618517
 30
0.0
 11
139.3896418600734
 21
159.7716566618516
 31
0.0
  0
LINE
  5
1103
330
1A
100
AcDbEntity
  8
SEIHIN
  6
Continuous
 62
     3
 48
5.0
100
AcDbLine
 10
149.0927418600733
 20
160.7548566618518
 30
0.0
 11
145.3897418600734
 21
158.6169566618518
 31
0.0
  0
LINE
  5
1104
330
1A
100
AcDbEntity
  8
SEIHIN
  6
Continuous
 62
     3
 48
5.0
100
AcDbLine
 10
137.3898418600733
 20
160.9263566618519
 30
0.0
 11
141.3898418600733
 21
158.6169566618518
 31
0.0
  0
LINE
  5
1105
330
1A
100
AcDbEntity
  8
SEIHIN
  6
Continuous
 62
     3
 48
5.0
100
AcDbLine
 10
137.3896418600734
 20
160.9265566618516
 30
0.0
 11
141.3896418600734
 21
158.6170566618518
 31
0.0
  0
LINE
  5
1106
330
1A
100
AcDbEntity
  8
SEIHIN
  6
Continuous
 62
     3
 48
5.0
100
AcDbLine
 10
137.3898418600733
 20
165.2335566618517
 30
0.0
 11
137.3898418600733
 21
160.9263566618519
 31
0.0
  0
ARC
  5
1107
330
1A
100
AcDbEntity
  8
SEIHIN
  6
Continuous
 62
     3
 48
5.0
100
AcDbCircle
 10
163.3897418600731
 20
169.9152566618515
 30
0.0
 40
10.00000000000025
100
AcDbArc
 50
36.86989764584206
 51
90.0
  0
LINE
  5
1108
330
1A
100
AcDbEntity
  8
SEIHIN
  6
Continuous
 62
     3
 48
5.0
100
AcDbLine
 10
273.8044952882762
 20
167.8151543368267
 30
0.0
 11
279.1718665316384
 21
143.5152566618517
 31
0.0
  0
LINE
  5
1109
330
1A
100
AcDbEntity
  8
SEIHIN
  6
Continuous
 62
     3
 48
5.0
100
AcDbLine
 10
255.9635665316384
 20
173.4150566618518
 30
0.0
 11
259.1718665316384
 21
145.9150566618518
 31
0.0
  0
LINE
  5
110A
330
1A
100
AcDbEntity
  8
SEIHIN
  6
Continuous
 62
     3
 48
5.0
100
AcDbLine
 10
255.1386665316383
 20
171.9150566618516
 30
0.0
 11
258.1718665316384
 21
145.9150566618518
 31
0.0
  0
LINE
  5
110B
330
1A
100
AcDbEntity
  8
SEIHIN
  6
Continuous
 62
     3
 48
5.0
100
AcDbLine
 10
258.6719665316384
 20
175.9150566618518
 30
0.0
 11
262.1718665316384
 21
145.9150566618518
 31
0.0
  0
LINE
  5
110C
330
1A
100
AcDbEntity
  8
SEIHIN
  6
Continuous
 62
     3
 48
5.0
100
AcDbLine
 10
256.6719665316384
 20
175.9150566618518
 30
0.0
 11
260.1718665316384
 21
145.9150566618518
 31
0.0
  0
ARC
  5
110D
330
1A
100
AcDbEntity
  8
SEIHIN
  6
Continuous
 62
     3
 48
5.0
100
AcDbCircle
 10
539.1589527689054
 20
186.8803855017907
 30
0.0
 40
280.0000477401741
100
AcDbArc
 50
188.412757247961
 51
195.8680946791408
  0
ARC
  5
110E
330
1A
100
AcDbEntity
  8
SEIHIN
  6
Continuous
 62
     3
 48
5.0
100
AcDbCircle
 10
273.6763132037951
 20
111.415121407791
 30
0.0
 40
3.999964746211354
100
AcDbArc
 50
195.8677949711978
 51
269.9993314647114
  0
ARC
  5
110F
330
1A
100
AcDbEntity
  8
SEIHIN
  6
Continuous
 62
     3
 48
5.0
100
AcDbCircle
 10
279.1718665316382
 20
99.08689356665195
 30
0.0
 40
0.5
100
AcDbArc
 50
180.0
 51
217.8064183787956
  0
LINE
  5
1110
330
1A
100
AcDbEntity
  8
SEIHIN
  6
Continuous
 62
     3
 48
5.0
100
AcDbLine
 10
278.6718665316382
 20
105.9151566618518
 30
0.0
 11
278.6718665316382
 21
98.91515666195914
 31
0.0
  0
LINE
  5
1111
330
1A
100
AcDbEntity
  8
SEIHIN
  6
Continuous
 62
     3
 48
5.0
100
AcDbLine
 10
273.1718665316382
 20
105.9151566618518
 30
0.0
 11
273.1718665316382
 21
107.4151566618518
 31
0.0
  0
ARC
  5
1112
330
1A
100
AcDbEntity
  8
SEIHIN
  6
Continuous
 62
     3
 48
5.0
100
AcDbCircle
 10
535.0609653496424
 20
186.2821585046685
 30
0.0
 40
280.0000088583607
100
AcDbArc
 50
188.4125459866934
 51
194.0271368743823
  0
ARC
  5
1113
330
1A
100
AcDbEntity
  8
SEIHIN
  6
Continuous
 62
     3
 48
5.0
100
AcDbCircle
 10
536.0608320165668
 20
186.2828281737719
 30
0.0
 40
279.9999749330885
100
AcDbArc
 50
188.4126855367714
 51
194.34385476807
  0
ARC
  5
1114
330
1A
100
AcDbEntity
  8
SEIHIN
  6
Continuous
 62
     3
 48
5.0
100
AcDbCircle
 10
537.1589781015812
 20
186.8802795188844
 30
0.0
 40
280.0000572946376
100
AcDbArc
 50
188.4127350358775
 51
195.2109710744888
  0
LINE
  5
1115
330
1A
100
AcDbEntity
  8
SEIHIN
  6
Continuous
 62
     3
 48
5.0
100
AcDbLine
 10
260.5896665316383
 20
130.9150566618516
 30
0.0
 11
261.8964665316384
 21
129.4150566618518
 31
0.0
  0
LINE
  5
1116
330
1A
100
AcDbEntity
  8
SEIHIN
  6
Continuous
 62
     3
 48
5.0
100
AcDbLine
 10
261.8964665316384
 20
129.4150566618518
 30
0.0
 11
263.0815665316383
 21
129.5950566618516
 31
0.0
  0
LINE
  5
1117
330
1A
100
AcDbEntity
  8
SEIHIN
  6
Continuous
 62
     3
 48
5.0
100
AcDbLine
 10
264.7894665316385
 20
116.9150566618518
 30
0.0
 11
265.9739665316385
 21
117.1757566618518
 31
0.0
  0
LINE
  5
1118
330
1A
100
AcDbEntity
  8
SEIHIN
  6
Continuous
 62
     3
 48
5.0
100
AcDbLine
 10
268.9684665316385
 20
113.4151566618516
 30
0.0
 11
266.9684665316385
 21
113.4151566618516
 31
0.0
  0
LINE
  5
1119
330
1A
100
AcDbEntity
  8
SEIHIN
  6
Continuous
 62
     3
 48
5.0
100
AcDbLine
 10
263.4103665316386
 20
118.4150566618518
 30
0.0
 11
264.7894665316385
 21
116.9150566618518
 31
0.0
  0
LINE
  5
111A
330
1A
100
AcDbEntity
  8
SEIHIN
  6
Continuous
 62
     3
 48
5.0
100
AcDbLine
 10
229.6720665316386
 20
210.4150566618518
 30
0.0
 11
231.1720665316386
 21
210.4150566618518
 31
0.0
  0
LINE
  5
111B
330
1A
100
AcDbEntity
  8
SEIHIN
  6
Continuous
 62
     3
 48
5.0
100
AcDbLine
 10
272.7677665316384
 20
218.9150566618518
 30
0.0
 11
228.1720665316386
 21
218.9150566618518
 31
0.0
  0
ARC
  5
111C
330
1A
100
AcDbEntity
  8
SEIHIN
  6
Continuous
 62
     3
 48
5.0
100
AcDbCircle
 10
206.2925418600734
 20
198.4547566618517
 30
0.0
 40
10.99998850044859
100
AcDbArc
 50
108.0187129917369
 51
172.3701448237265
  0
ARC
  5
111D
330
1A
100
AcDbEntity
  8
SEIHIN
  6
Continuous
 62
     3
 48
5.0
100
AcDbCircle
 10
190.9620008767565
 20
177.0217074812826
 30
0.0
 40
10.00003847706819
100
AcDbArc
 50
117.2081310290179
 51
163.1807267864605
  0
ARC
  5
111E
330
1A
100
AcDbEntity
  8
SEIHIN
  6
Continuous
 62
     3
 48
5.0
100
AcDbCircle
 10
177.3897418600734
 20
179.9152566618517
 30
0.0
 40
4.0
100
AcDbArc
 50
270.0
 51
0.0
  0
ARC
  5
111F
330
1A
100
AcDbEntity
  8
SEIHIN
  6
Continuous
 62
     3
 48
5.0
100
AcDbCircle
 10
184.5456021051854
 20
201.7595169077371
 30
0.0
 40
10.99994689605567
100
AcDbArc
 50
279.6512060122815
 51
350.3481573714765
  0
LINE
  5
1120
330
1A
100
AcDbEntity
  8
SEIHIN
  6
Continuous
 62
     3
 48
5.0
100
AcDbLine
 10
186.3897418600731
 20
185.9152566618518
 30
0.0
 11
186.3897418600731
 21
190.9152566618518
 31
0.0
  0
LINE
  5
1121
330
1A
100
AcDbEntity
  8
SEIHIN
  6
Continuous
 62
     3
 48
5.0
100
AcDbLine
 10
202.8899418600735
 20
210.4152566618517
 30
0.0
 11
202.8899418600735
 21
208.9152566618518
 31
0.0
  0
ARC
  5
1122
330
1A
100
AcDbEntity
  8
SEIHIN
  6
Continuous
 62
     3
 48
5.0
100
AcDbCircle
 10
185.9082451698966
 20
218.0590754173978
 30
0.0
 40
20.00002694286511
100
AcDbArc
 50
337.5305713462674
 51
2.453238326950003
  0
ARC
  5
1123
330
1A
100
AcDbEntity
  8
SEIHIN
  6
Continuous
 62
     3
 48
5.0
100
AcDbCircle
 10
248.1537017293592
 20
218.0586572063293
 30
0.0
 40
19.99997913004449
100
AcDbArc
 50
177.5458433595411
 51
202.4688088202313
  0
ARC
  5
1124
330
1A
100
AcDbEntity
  8
SEIHIN
  6
Continuous
 62
     3
 48
5.0
100
AcDbCircle
 10
227.7694075150027
 20
198.4545074813222
 30
0.0
 40
11.00005352449558
100
AcDbArc
 50
7.630068259804031
 51
71.98107392472379
  0
ARC
  5
1125
330
1A
100
AcDbEntity
  8
SEIHIN
  6
Continuous
 62
     3
 48
5.0
100
AcDbCircle
 10
256.6719665316384
 20
179.9150566618518
 30
0.0
 40
4.0
100
AcDbArc
 50
180.0
 51
270.0
  0
LINE
  5
1126
330
1A
100
AcDbEntity
  8
SEIHIN
  6
Continuous
 62
     3
 48
5.0
100
AcDbLine
 10
255.9635665316384
 20
173.4150566618518
 30
0.0
 11
256.9467665316381
 21
173.5598566618518
 31
0.0
  0
ARC
  5
1127
330
1A
100
AcDbEntity
  8
SEIHIN
  6
Continuous
 62
     3
 48
5.0
100
AcDbCircle
 10
243.0997665316383
 20
177.0215566618515
 30
0.0
 40
9.999967754448112
100
AcDbArc
 50
16.81910132547306
 51
62.79204085906289
  0
LINE
  5
1128
330
1A
100
AcDbEntity
  8
SEIHIN
  6
Continuous
 62
     3
 48
5.0
100
AcDbLine
 10
255.1386665316383
 20
171.9150566618516
 30
0.0
 11
255.9635665316384
 21
173.4150566618518
 31
0.0
  0
ARC
  5
1129
330
1A
100
AcDbEntity
  8
SEIHIN
  6
Continuous
 62
     3
 48
5.0
100
AcDbCircle
 10
249.5162665316381
 20
201.7593566618519
 30
0.0
 40
11.0000129536285
100
AcDbArc
 50
189.6519941529643
 51
260.3480058470355
  0
LINE
  5
112A
330
1A
100
AcDbEntity
  8
SEIHIN
  6
Continuous
 62
     3
 48
5.0
100
AcDbLine
 10
247.6719665316384
 20
190.9150566618518
 30
0.0
 11
247.6719665316384
 21
185.9150566618518
 31
0.0
  0
LINE
  5
112B
330
1A
100
AcDbEntity
  8
SEIHIN
  6
Continuous
 62
     3
 48
5.0
100
AcDbLine
 10
274.1718665316384
 20
175.9152566618517
 30
0.0
 11
267.9719665316383
 21
175.9152566618517
 31
0.0
  0
LINE
  5
112C
330
1A
100
AcDbEntity
  8
SEIHIN
  6
Continuous
 62
     3
 48
5.0
100
AcDbLine
 10
281.1344665316385
 20
175.9150566618518
 30
0.0
 11
256.6719665316384
 21
175.9150566618518
 31
0.0
  0
LINE
  5
112D
330
1A
100
AcDbEntity
  8
SEIHIN
  6
Continuous
 62
     3
 48
5.0
100
AcDbLine
 10
267.9718585316386
 20
167.8152566619921
 30
0.0
 11
273.804495288276
 21
167.8151543368267
 31
0.0
  0
LINE
  5
112E
330
1A
100
AcDbEntity
  8
SEIHIN
  6
Continuous
 62
     3
 48
5.0
100
AcDbLine
 10
257.2468665316384
 20
162.4150566618518
 30
0.0
 11
258.2300665316386
 21
162.5598566618518
 31
0.0
  0
LINE
  5
112F
330
1A
100
AcDbEntity
  8
SEIHIN
  6
Continuous
 62
     3
 48
5.0
100
AcDbLine
 10
256.4219665316384
 20
160.9150566618518
 30
0.0
 11
257.2468665316384
 21
162.4150566618518
 31
0.0
  0
LINE
  5
1130
330
1A
100
AcDbEntity
  8
SEIHIN
  6
Continuous
 62
     3
 48
5.0
100
AcDbLine
 10
267.9719665316383
 20
175.9152566618517
 30
0.0
 11
267.9718585316386
 21
167.8152566619921
 31
0.0
  0
LINE
  5
1131
330
1A
100
AcDbEntity
  8
SEIHIN
  6
Continuous
 62
     3
 48
5.0
100
AcDbLine
 10
274.1718665316384
 20
174.4152566618518
 30
0.0
 11
274.1718665316384
 21
175.9152566618517
 31
0.0
  0
LINE
  5
1132
330
1A
100
AcDbEntity
  8
SEIHIN
  6
Continuous
 62
     3
 48
5.0
100
AcDbLine
 10
279.5205665316384
 20
210.4150566618518
 30
0.0
 11
231.1720665316386
 21
210.4150566618518
 31
0.0
  0
LINE
  5
1133
330
1A
100
AcDbEntity
  8
SEIHIN
  6
Continuous
 62
     3
 48
5.0
100
AcDbLine
 10
280.1113665316386
 20
208.9150566618518
 30
0.0
 11
231.1720665316386
 21
208.9150566618518
 31
0.0
  0
LINE
  5
1134
330
1A
100
AcDbEntity
  8
SEIHIN
  6
Continuous
 62
     3
 48
5.0
100
AcDbLine
 10
231.1720665316386
 20
210.4150566618518
 30
0.0
 11
231.1720665316386
 21
208.9150566618518
 31
0.0
  0
ARC
  5
1135
330
1A
100
AcDbEntity
  8
SEIHIN
  6
Continuous
 62
     3
 48
5.0
100
AcDbCircle
 10
272.7677317782793
 20
213.9150803239638
 30
0.0
 40
4.999976338008886
100
AcDbArc
 50
21.50097146105721
 51
89.99960175395026
  0
LINE
  5
1136
330
1A
100
AcDbEntity
  8
SEIHIN
  6
Continuous
 62
     3
 48
5.0
100
AcDbLine
 10
291.6718665316382
 20
78.91515666185182
 30
0.0
 11
291.6718665316382
 21
59.4151566618516
 31
0.0
  0
LINE
  5
1137
330
1A
100
AcDbEntity
  8
SEIHIN
  6
Continuous
 62
     3
 48
5.0
100
AcDbLine
 10
333.6718665316382
 20
59.4151566618516
 30
0.0
 11
333.6718665316382
 21
78.91515666185182
 31
0.0
  0
LINE
  5
1138
330
1A
100
AcDbEntity
  8
SEIHIN
  6
Continuous
 62
     3
 48
5.0
100
AcDbLine
 10
333.6718665316382
 20
59.4151566618516
 30
0.0
 11
291.6718665316382
 21
59.4151566618516
 31
0.0
  0
DIMENSION
  5
1139
330
1A
100
AcDbEntity
  8
SUNPOU
 48
5.0
100
AcDbDimension
  2
*D6
 10
333.6718665316382
 20
45.82526819038434
 30
0.0
 11
312.6718665316382
 21
48.32526819038434
 31
0.0
 70
    32
 71
     5
 42
42.0
  3
ISO-25
100
AcDbAlignedDimension
 13
291.6718665316382
 23
59.4151566618516
 33
0.0
 14
333.6718665316382
 24
59.4151566618516
 34
0.0
100
AcDbRotatedDimension
1001
ACAD
1000
DSTYLE
1002
{
1070
    41
1040
3.0
1070
    42
1040
2.0
1070
    43
1040
4.0
1070
    73
1070
     0
1070
    77
1070
     3
1070
   140
1040
3.0
1070
   147
1040
1.0
1070
   173
1070
     1
1070
   176
1070
   256
1070
   177
1070
   256
1070
   178
1070
   256
1070
   271
1070
     0
1070
   272
1070
     2
1070
   343
1005
B2
1070
   344
1005
B2
1070
   371
1070
    -1
1070
   372
1070
    -1
1002
}
  0
LINE
  5
113A
330
1A
100
AcDbEntity
  8
SEIHIN
  6
Continuous
 62
     3
 48
5.0
100
AcDbLine
 10
349.3394334692568
 20
167.8150566618519
 30
0.0
 11
343.9718665316384
 21
143.5151566618519
 31
0.0
  0
LINE
  5
113B
330
1A
100
AcDbEntity
  8
SEIHIN
  6
Continuous
 62
     3
 48
5.0
100
AcDbLine
 10
356.6718665316382
 20
163.9150566618518
 30
0.0
 11
352.1718665316382
 21
105.9151566618518
 31
0.0
  0
ARC
  5
113C
330
1A
100
AcDbEntity
  8
SEIHIN
  6
Continuous
 62
     3
 48
5.0
100
AcDbCircle
 10
347.064042028144
 20
132.9587291549012
 30
0.0
 40
10.99995875381338
100
AcDbArc
 50
106.3257970451898
 51
170.2838758070345
  0
LINE
  5
113D
330
1A
100
AcDbEntity
  8
SEIHIN
  6
Continuous
 62
     3
 48
5.0
100
AcDbLine
 10
311.5718665316383
 20
134.8151566618516
 30
0.0
 11
336.2218665316384
 21
134.8151566618516
 31
0.0
  0
LINE
  5
113E
330
1A
100
AcDbEntity
  8
SEIHIN
  6
Continuous
 62
     3
 48
5.0
100
AcDbLine
 10
312.6718665316382
 20
99.08689356665195
 30
0.0
 11
346.6718665316382
 21
99.08689356665195
 31
0.0
  0
LINE
  5
113F
330
1A
100
AcDbEntity
  8
SEIHIN
  6
Continuous
 62
     3
 48
5.0
100
AcDbLine
 10
312.6718665316382
 20
105.9151566618518
 30
0.0
 11
352.1718665316382
 21
105.9151566618518
 31
0.0
  0
LINE
  5
1140
330
1A
100
AcDbEntity
  8
SEIHIN
  6
Continuous
 62
     3
 48
5.0
100
AcDbLine
 10
337.2574487893014
 20
78.91515666185182
 30
0.0
 11
288.0862842740753
 21
78.91515666185182
 31
0.0
  0
ARC
  5
1141
330
1A
100
AcDbEntity
  8
SEIHIN
  6
Continuous
 62
     3
 48
5.0
100
AcDbCircle
 10
288.0862842740382
 20
79.41515666185182
 30
0.0
 40
0.5000000000002918
100
AcDbArc
 50
190.9497179799909
 51
270.0
  0
LINE
  5
1142
330
1A
100
AcDbEntity
  8
SEIHIN
  6
Continuous
 62
     3
 48
5.0
100
AcDbLine
 10
311.5718665316383
 20
134.8151566618516
 30
0.0
 11
286.9218665316384
 21
134.8152566618516
 31
0.0
  0
LINE
  5
1143
330
1A
100
AcDbEntity
  8
SEIHIN
  6
Continuous
 62
     3
 48
5.0
100
AcDbLine
 10
287.2718952917798
 20
134.8151566618516
 30
0.0
 11
311.5718952917798
 21
134.8151566618516
 31
0.0
  0
ARC
  5
1144
330
1A
100
AcDbEntity
  8
SEIHIN
  6
Continuous
 62
     3
 48
5.0
100
AcDbCircle
 10
382.910881734138
 20
70.58259982075174
 30
0.0
 40
45.99999999999984
100
AcDbArc
 50
142.1935816212043
 51
169.0502820199967
  0
ARC
  5
1145
330
1A
100
AcDbEntity
  8
SEIHIN
  6
Continuous
 62
     3
 48
5.0
100
AcDbCircle
 10
337.2574487893382
 20
79.41515666185182
 30
0.0
 40
0.5
100
AcDbArc
 50
270.0
 51
349.050282020009
  0
LINE
  5
1146
330
1A
100
AcDbEntity
  8
SEIHIN
  6
Continuous
 62
     3
 48
5.0
100
AcDbLine
 10
346.6718665316382
 20
99.08689356665195
 30
0.0
 11
346.6718665316382
 21
105.9151566618518
 31
0.0
  0
ARC
  5
1147
330
1A
100
AcDbEntity
  8
SEIHIN
  6
Continuous
 62
     3
 48
5.0
100
AcDbCircle
 10
346.171866531638
 20
99.08689356665195
 30
0.0
 40
0.5000000000000884
100
AcDbArc
 50
322.1935816211871
 51
0.0
  0
LINE
  5
1148
330
1A
100
AcDbEntity
  8
SEIHIN
  6
Continuous
 62
     3
 48
5.0
100
AcDbLine
 10
348.9219665316386
 20
179.9150566618518
 30
0.0
 11
359.1719665316386
 21
179.9150566618518
 31
0.0
  0
LINE
  5
1149
330
1A
100
AcDbEntity
  8
SEIHIN
  6
Continuous
 62
     3
 48
5.0
100
AcDbLine
 10
348.9719665316385
 20
175.9150566618518
 30
0.0
 11
355.1719665316386
 21
175.9150566618518
 31
0.0
  0
LINE
  5
114A
330
1A
100
AcDbEntity
  8
SEIHIN
  6
Continuous
 62
     3
 48
5.0
100
AcDbLine
 10
348.4779665316384
 20
163.9150566618518
 30
0.0
 11
359.1718665316382
 21
163.9150566618518
 31
0.0
  0
LINE
  5
114B
330
1A
100
AcDbEntity
  8
SEIHIN
  6
Continuous
 62
     3
 48
5.0
100
AcDbLine
 10
355.1718665316382
 20
167.8150566618519
 30
0.0
 11
349.3394334692568
 21
167.8150566618519
 31
0.0
  0
LINE
  5
114C
330
1A
100
AcDbEntity
  8
SEIHIN
  6
Continuous
 62
     3
 48
5.0
100
AcDbLine
 10
348.9719665316385
 20
174.4150566618518
 30
0.0
 11
348.9719665316385
 21
175.9150566618518
 31
0.0
  0
ARC
  5
114D
330
1A
100
AcDbEntity
  8
SEIHIN
  6
Continuous
 62
     3
 48
5.0
100
AcDbCircle
 10
348.9219665316386
 20
177.1650566618518
 30
0.0
 40
2.75
100
AcDbArc
 50
90.0
 51
270.0
  0
LINE
  5
114E
330
1A
100
AcDbEntity
  8
SEIHIN
  6
Continuous
 62
     3
 48
5.0
100
AcDbLine
 10
359.1718665316382
 20
163.9150566618518
 30
0.0
 11
359.1719665316386
 21
179.9150566618518
 31
0.0
  0
LINE
  5
114F
330
1A
100
AcDbEntity
  8
SEIHIN
  6
Continuous
 62
     3
 48
5.0
100
AcDbLine
 10
355.1719665316386
 20
175.9150566618518
 30
0.0
 11
355.1718585316384
 21
167.8150566618519
 31
0.0
  0
VIEWPORT
  5
22
330
17
100
AcDbEntity
 67
     1
  8
0
100
AcDbViewport
 10
313.6808219178082
 20
148.5
 30
0.0
 40
627.3616438356165
 41
297.0
 68
     2
 69
     1
 12
313.6808219178082
 22
148.5
 13
0.0
 23
0.0
 14
1.0
 24
1.0
 15
10.0
 25
10.0
 16
0.0
 26
0.0
 36
1.0
 17
0.0
 27
0.0
 37
0.0
 42
50.0
 43
0.0
 44
0.0
 45
297.0
 50
0.0
 51
0.0
 72
   100
 90
    32768
  1

281
     0
 71
     1
 74
     0
110
0.0
120
0.0
130
0.0
111
1.0
121
0.0
131
0.0
112
0.0
122
1.0
132
0.0
 79
     0
146
0.0
  0
VIEWPORT
  5
64
330
17
100
AcDbEntity
 67
     1
  8
VIEWPORT
100
AcDbViewport
 10
210.0
 20
148.5
 30
0.0
 40
420.0
 41
297.0
 68
     1
 69
     2
 12
210.0
 22
148.5
 13
0.0
 23
0.0
 14
5.0
 24
5.0
 15
0.0
 25
0.0
 16
0.0
 26
0.0
 36
1.0
 17
0.0
 27
0.0
 37
0.0
 42
50.0
 43
0.0
 44
0.0
 45
302.9399999999998
 50
0.0
 51
0.0
 72
   100
 90
    32768
  1

281
     0
 71
     1
 74
     0
110
0.0
120
0.0
130
0.0
111
1.0
121
0.0
131
0.0
112
0.0
122
1.0
132
0.0
 79
     0
146
0.0
  0
ENDSEC
  0
SECTION
  2
OBJECTS
  0
DICTIONARY
  5
C
330
0
100
AcDbDictionary
281
     1
  3
ACAD_GROUP
350
D
  3
ACAD_LAYOUT
350
483
  3
ACAD_MLINESTYLE
350
E
  3
ACAD_PLOTSETTINGS
350
484
  3
ACAD_PLOTSTYLENAME
350
481
  0
DICTIONARY
  5
A02
330
1A
100
AcDbDictionary
280
     1
281
     1
  3
ACAD_LAYOUTSELFREF
360
BBC
  0
DICTIONARY
  5
A00
330
17
100
AcDbDictionary
280
     1
281
     1
  3
ACAD_LAYOUTSELFREF
360
BBB
  0
DICTIONARY
  5
D
102
{ACAD_REACTORS
330
C
102
}
330
C
100
AcDbDictionary
281
     1
  0
DICTIONARY
  5
483
102
{ACAD_REACTORS
330
C
102
}
330
C
100
AcDbDictionary
281
     1
  3
Model
350
485
  3
ﾚｲｱｳﾄ1
350
486
  0
DICTIONARY
  5
E
102
{ACAD_REACTORS
330
C
102
}
330
C
100
AcDbDictionary
281
     1
  3
STANDARD
350
13
  0
DICTIONARY
  5
484
102
{ACAD_REACTORS
330
C
102
}
330
C
100
AcDbDictionary
281
     1
  0
ACDBDICTIONARYWDFLT
  5
481
102
{ACAD_REACTORS
330
C
102
}
330
C
100
AcDbDictionary
281
     1
  3
Normal
350
482
100
AcDbDictionaryWithDefault
340
482
1001
ACAD
1000
TREAT_AS_HARD
1070
     0
1000
TREAT_AS_HARD
1070
     0
1000
TREAT_AS_HARD
1070
     0
1000
TREAT_AS_HARD
1070
     0
1000
TREAT_AS_HARD
1070
     0
  0
XRECORD
  5
BBC
102
{ACAD_REACTORS
330
A02
102
}
330
A02
100
AcDbXrecord
280
     1
340
1A
  0
XRECORD
  5
BBB
102
{ACAD_REACTORS
330
A00
102
}
330
A00
100
AcDbXrecord
280
     1
340
17
  0
LAYOUT
  5
485
102
{ACAD_REACTORS
330
483
102
}
330
483
100
AcDbPlotSettings
  1

  2
Acrobat Distiller
  4
A3
  6

 40
3.174999952316284
 41
3.174999952316284
 42
3.17498779296875
 43
3.17498779296875
 44
297.0318298339843
 45
420.1583251953125
 46
0.0
 47
0.0
 48
0.0
 49
0.0
140
0.0
141
0.0
142
1.0
143
1.0
 70
 28336
 72
     1
 73
     1
 74
     2
  7
print.ctb
 75
    16
147
1.0
148
0.0
149
0.0
100
AcDbLayout
  1
Model
 70
     1
 71
     0
 10
0.0
 20
0.0
 11
12.0
 21
9.0
 12
0.0
 22
0.0
 32
0.0
 14
0.0
 24
0.0
 34
0.0
 15
0.0
 25
0.0
 35
0.0
146
0.0
 13
0.0
 23
0.0
 33
0.0
 16
1.0
 26
0.0
 36
0.0
 17
0.0
 27
1.0
 37
0.0
 76
     0
330
1A
  0
LAYOUT
  5
486
102
{ACAD_REACTORS
330
483
102
}
330
483
100
AcDbPlotSettings
  1

  2
C:\PROGRAM FILES\ACAD LT 2000\plotters\DWF ePlot.pc3
  4

  6

 40
0.0
 41
0.0
 42
0.0
 43
0.0
 44
0.0
 45
0.0
 46
0.0
 47
0.0
 48
0.0
 49
0.0
140
0.0
141
0.0
142
1.0
143
1.0
 70
   688
 72
     0
 73
     0
 74
     5
  7
print.ctb
 75
    16
147
1.0
148
0.0
149
0.0
100
AcDbLayout
  1
ﾚｲｱｳﾄ1
 70
     1
 71
     1
 10
0.0
 20
0.0
 11
420.0
 21
297.0
 12
0.0
 22
0.0
 32
0.0
 14
0.0
 24
0.0
 34
0.0
 15
420.0
 25
297.0
 35
0.0
146
0.0
 13
0.0
 23
0.0
 33
0.0
 16
1.0
 26
0.0
 36
0.0
 17
0.0
 27
1.0
 37
0.0
 76
     0
330
17
331
64
  0
MLINESTYLE
  5
13
102
{ACAD_REACTORS
330
E
102
}
330
E
100
AcDbMlineStyle
  2
STANDARD
 70
     0
  3

 62
     0
 51
90.0
 52
90.0
 71
     2
 49
0.5
 62
   256
  6
BYLAYER
 49
-0.5
 62
   256
  6
BYLAYER
  0
ACDBPLACEHOLDER
  5
482
102
{ACAD_REACTORS
330
481
102
}
330
481
  0
ENDSEC
  0
EOF
