  0
SECTION
  2
HEADER
  9
$ACADVER
  1
AC1012
  9
$DWGCODEPAGE
  3
dos932
  9
$INSBASE
 10
0.0
 20
0.0
 30
0.0
  9
$EXTMIN
 10
-0.0010309485155631
 20
-0.0090630678515709
 30
-0.0015258207003583
  9
$EXTMAX
 10
398.8406619042848
 20
275.8226172412462
 30
0.0000000349246037
  9
$LIMMIN
 10
0.0
 20
0.0
  9
$LIMMAX
 10
420.0
 20
297.0
  9
$ORTHOMODE
 70
     0
  9
$REGENMODE
 70
     1
  9
$FILLMODE
 70
     1
  9
$QTEXTMODE
 70
     0
  9
$MIRRTEXT
 70
     1
  9
$DRAGMODE
 70
     2
  9
$LTSCALE
 40
1.0
  9
$OSMODE
 70
    63
  9
$ATTMODE
 70
     1
  9
$TEXTSIZE
 40
2.5
  9
$TRACEWID
 40
1.0
  9
$TEXTSTYLE
  7
STANDARD
  9
$CLAYER
  8
SUNPOU
  9
$CELTYPE
  6
BYLAYER
  9
$CECOLOR
 62
   256
  9
$CELTSCALE
 40
1.0
  9
$DELOBJ
 70
     1
  9
$DISPSILH
 70
     0
  9
$DIMSCALE
 40
1.0
  9
$DIMASZ
 40
3.0
  9
$DIMEXO
 40
3.0
  9
$DIMDLI
 40
7.0
  9
$DIMRND
 40
0.0
  9
$DIMDLE
 40
0.0
  9
$DIMEXE
 40
1.5
  9
$DIMTP
 40
0.0
  9
$DIMTM
 40
0.0
  9
$DIMTXT
 40
3.0
  9
$DIMCEN
 40
150.0
  9
$DIMTSZ
 40
0.0
  9
$DIMTOL
 70
     0
  9
$DIMLIM
 70
     0
  9
$DIMTIH
 70
     0
  9
$DIMTOH
 70
     0
  9
$DIMSE1
 70
     0
  9
$DIMSE2
 70
     0
  9
$DIMTAD
 70
     1
  9
$DIMZIN
 70
     0
  9
$DIMBLK
  1

  9
$DIMASO
 70
     1
  9
$DIMSHO
 70
     1
  9
$DIMPOST
  1

  9
$DIMAPOST
  1

  9
$DIMALT
 70
     0
  9
$DIMALTD
 70
     2
  9
$DIMALTF
 40
25.4
  9
$DIMLFAC
 40
1.0
  9
$DIMTOFL
 70
     1
  9
$DIMTVP
 40
0.0
  9
$DIMTIX
 70
     0
  9
$DIMSOXD
 70
     0
  9
$DIMSAH
 70
     1
  9
$DIMBLK1
  1
OPEN
  9
$DIMBLK2
  1
OPEN
  9
$DIMSTYLE
  2
STANDARD
  9
$DIMCLRD
 70
   256
  9
$DIMCLRE
 70
   256
  9
$DIMCLRT
 70
   256
  9
$DIMTFAC
 40
1.0
  9
$DIMGAP
 40
1.0
  9
$DIMJUST
 70
     0
  9
$DIMSD1
 70
     0
  9
$DIMSD2
 70
     0
  9
$DIMTOLJ
 70
     1
  9
$DIMTZIN
 70
     0
  9
$DIMALTZ
 70
     0
  9
$DIMALTTZ
 70
     0
  9
$DIMFIT
 70
     3
  9
$DIMUPT
 70
     0
  9
$DIMUNIT
 70
     2
  9
$DIMDEC
 70
     0
  9
$DIMTDEC
 70
     0
  9
$DIMALTU
 70
     2
  9
$DIMALTTD
 70
     2
  9
$DIMTXSTY
  7
STANDARD
  9
$DIMAUNIT
 70
     0
  9
$LUNITS
 70
     2
  9
$LUPREC
 70
     4
  9
$SKETCHINC
 40
1.0
  9
$FILLETRAD
 40
0.6
  9
$AUNITS
 70
     0
  9
$AUPREC
 70
     0
  9
$MENU
  1
.
  9
$ELEVATION
 40
0.0
  9
$PELEVATION
 40
0.0
  9
$THICKNESS
 40
0.0
  9
$LIMCHECK
 70
     0
  9
$BLIPMODE
 70
     0
  9
$CHAMFERA
 40
10.0
  9
$CHAMFERB
 40
10.0
  9
$CHAMFERC
 40
20.0
  9
$CHAMFERD
 40
0.0
  9
$SKPOLY
 70
     0
  9
$TDCREATE
 40
2451100.394552546
  9
$TDUPDATE
 40
2454748.582513229
  9
$TDINDWG
 40
0.1412417014
  9
$TDUSRTIMER
 40
0.1412417014
  9
$USRTIMER
 70
     1
  9
$ANGBASE
 50
0.0
  9
$ANGDIR
 70
     0
  9
$PDMODE
 70
     0
  9
$PDSIZE
 40
0.0
  9
$PLINEWID
 40
0.0
  9
$COORDS
 70
     0
  9
$SPLFRAME
 70
     0
  9
$SPLINETYPE
 70
     6
  9
$SPLINESEGS
 70
     8
  9
$ATTDIA
 70
     0
  9
$ATTREQ
 70
     1
  9
$HANDLING
 70
 10241
  9
$HANDSEED
  5
1543
  9
$SURFTAB1
 70
     6
  9
$SURFTAB2
 70
     6
  9
$SURFTYPE
 70
     6
  9
$SURFU
 70
     6
  9
$SURFV
 70
     6
  9
$UCSNAME
  2

  9
$UCSORG
 10
0.0
 20
0.0
 30
0.0
  9
$UCSXDIR
 10
1.0
 20
0.0
 30
0.0
  9
$UCSYDIR
 10
0.0
 20
1.0
 30
0.0
  9
$PUCSNAME
  2

  9
$PUCSORG
 10
0.0
 20
0.0
 30
0.0
  9
$PUCSXDIR
 10
1.0
 20
0.0
 30
0.0
  9
$PUCSYDIR
 10
0.0
 20
1.0
 30
0.0
  9
$USERI1
 70
     0
  9
$USERI2
 70
     0
  9
$USERI3
 70
     0
  9
$USERI4
 70
     0
  9
$USERI5
 70
     0
  9
$USERR1
 40
0.0
  9
$USERR2
 40
0.0
  9
$USERR3
 40
0.0
  9
$USERR4
 40
0.0
  9
$USERR5
 40
0.0
  9
$WORLDVIEW
 70
     1
  9
$SHADEDGE
 70
     3
  9
$SHADEDIF
 70
    70
  9
$TILEMODE
 70
     1
  9
$MAXACTVP
 70
    16
  9
$PINSBASE
 10
0.0
 20
0.0
 30
0.0
  9
$PLIMCHECK
 70
     0
  9
$PEXTMIN
 10
0.0
 20
0.0
 30
0.0
  9
$PEXTMAX
 10
420.0
 20
297.0
 30
0.0
  9
$PLIMMIN
 10
0.0
 20
0.0
  9
$PLIMMAX
 10
420.0
 20
297.0
  9
$UNITMODE
 70
     0
  9
$VISRETAIN
 70
     0
  9
$PLINEGEN
 70
     0
  9
$PSLTSCALE
 70
     1
  9
$TREEDEPTH
 70
  3020
  9
$PICKSTYLE
 70
     1
  9
$CMLSTYLE
  2
STANDARD
  9
$CMLJUST
 70
     0
  9
$CMLSCALE
 40
1.0
  9
$SAVEIMAGES
 70
     1
  0
ENDSEC
  0
SECTION
  2
CLASSES
  0
CLASS
  1
ACDBDICTIONARYWDFLT
  2
AcDbDictionaryWithDefault
  3
AutoCAD 2000
 90
    32768
280
     0
281
     0
  0
CLASS
  1
ACDBPLACEHOLDER
  2
AcDbPlaceHolder
  3
AutoCAD 2000
 90
    32768
280
     0
281
     0
  0
CLASS
  1
LAYOUT
  2
AcDbLayout
  3
AutoCAD 2000
 90
    32768
280
     0
281
     0
  0
CLASS
  1
LONG_TRANSACTION
  2
AcDbLongTransaction
  3
AutoCAD 2000
 90
    32768
280
     0
281
     0
  0
CLASS
  1
LWPOLYLINE
  2
AcDbPolyline
  3
AutoCAD 2000
 90
    32768
280
     0
281
     1
  0
CLASS
  1
HATCH
  2
AcDbHatch
  3
AutoCAD 2000
 90
    32768
280
     0
281
     1
  0
CLASS
  1
XRECORD
  2
AcDbXrecord
  3
AutoCAD 2000
 90
    32768
280
     0
281
     0
  0
CLASS
  1
LONG_TRANSACTION
  2
AcDbLongTransaction
  3
AutoCAD 2000
 90
    32768
280
     0
281
     0
  0
CLASS
  1
LWPOLYLINE
  2
AcDbPolyline
  3
AutoCAD 2000
 90
    32768
280
     0
281
     1
  0
CLASS
  1
HATCH
  2
AcDbHatch
  3
AutoCAD 2000
 90
    32768
280
     0
281
     1
  0
CLASS
  1
XRECORD
  2
AcDbXrecord
  3
AutoCAD 2000
 90
    32768
280
     0
281
     0
  0
CLASS
  1
LONG_TRANSACTION
  2
AcDbLongTransaction
  3
AutoCAD 2000
 90
    32768
280
     0
281
     0
  0
CLASS
  1
LWPOLYLINE
  2
AcDbPolyline
  3
AutoCAD 2000
 90
    32768
280
     0
281
     1
  0
CLASS
  1
HATCH
  2
AcDbHatch
  3
AutoCAD 2000
 90
    32768
280
     0
281
     1
  0
CLASS
  1
XRECORD
  2
AcDbXrecord
  3
AutoCAD 2000
 90
    32768
280
     0
281
     0
  0
CLASS
  1
LONG_TRANSACTION
  2
AcDbLongTransaction
  3
AutoCAD 2000
 90
    32768
280
     0
281
     0
  0
CLASS
  1
LWPOLYLINE
  2
AcDbPolyline
  3
AutoCAD 2000
 90
    32768
280
     0
281
     1
  0
CLASS
  1
HATCH
  2
AcDbHatch
  3
AutoCAD 2000
 90
    32768
280
     0
281
     1
  0
CLASS
  1
XRECORD
  2
AcDbXrecord
  3
AutoCAD 2000
 90
    32768
280
     0
281
     0
  0
CLASS
  1
LONG_TRANSACTION
  2
AcDbLongTransaction
  3
AutoCAD 2000
 90
    32768
280
     0
281
     0
  0
CLASS
  1
LWPOLYLINE
  2
AcDbPolyline
  3
AutoCAD 2000
 90
    32768
280
     0
281
     1
  0
CLASS
  1
HATCH
  2
AcDbHatch
  3
AutoCAD 2000
 90
    32768
280
     0
281
     1
  0
CLASS
  1
XRECORD
  2
AcDbXrecord
  3
AutoCAD 2000
 90
    32768
280
     0
281
     0
  0
ENDSEC
  0
SECTION
  2
TABLES
  0
TABLE
  2
VPORT
  5
8
330
0
100
AcDbSymbolTable
 70
     4
  0
VPORT
  5
1364
330
8
100
AcDbSymbolTableRecord
100
AcDbViewportTableRecord
  2
*ACTIVE
 70
     0
 10
0.0
 20
0.0
 11
1.0
 21
1.0
 12
209.9994845257421
 22
148.4954684660742
 13
0.0
 23
0.0
 14
5.0
 24
5.0
 15
0.0
 25
0.0
 16
0.0
 26
0.0
 36
1.0
 17
0.0
 27
0.0
 37
0.0
 40
299.3114589055868
 41
1.503234152652005
 42
50.0
 43
0.0
 44
0.0
 50
0.0
 51
0.0
 71
     0
 72
   100
 73
     1
 74
     0
 75
     0
 76
     0
 77
     0
 78
     0
  0
ENDTAB
  0
TABLE
  2
LTYPE
  5
5
330
0
100
AcDbSymbolTable
 70
     2
  0
LTYPE
  5
14
330
5
100
AcDbSymbolTableRecord
100
AcDbLinetypeTableRecord
  2
BYBLOCK
 70
     0
  3

 72
    65
 73
     0
 40
0.0
  0
LTYPE
  5
15
330
5
100
AcDbSymbolTableRecord
100
AcDbLinetypeTableRecord
  2
BYLAYER
 70
     0
  3

 72
    65
 73
     0
 40
0.0
  0
LTYPE
  5
16
330
5
100
AcDbSymbolTableRecord
100
AcDbLinetypeTableRecord
  2
CONTINUOUS
 70
     0
  3
Solid line
 72
    65
 73
     0
 40
0.0
  0
LTYPE
  5
120
330
5
100
AcDbSymbolTableRecord
100
AcDbLinetypeTableRecord
  2
CENTER
 70
     0
  3
____ _ ____ _ ____ _ ____ _ ____ _ ____ _ ____ 
 72
    65
 73
     4
 40
2.0
 49
1.25
 74
     0
 49
-0.25
 74
     0
 49
0.25
 74
     0
 49
-0.25
 74
     0
  0
ENDTAB
  0
TABLE
  2
LAYER
  5
2
330
0
100
AcDbSymbolTable
 70
     8
  0
LAYER
  5
F
330
2
100
AcDbSymbolTableRecord
100
AcDbLayerTableRecord
  2
0
 70
     0
 62
     7
  6
CONTINUOUS
  0
LAYER
  5
62
330
2
100
AcDbSymbolTableRecord
100
AcDbLayerTableRecord
  2
VIEWPORT
 70
     0
 62
     7
  6
CONTINUOUS
  0
LAYER
  5
6B
330
2
100
AcDbSymbolTableRecord
100
AcDbLayerTableRecord
  2
ZUWAKU
 70
     0
 62
     7
  6
CONTINUOUS
  0
LAYER
  5
1F2
330
2
100
AcDbSymbolTableRecord
100
AcDbLayerTableRecord
  2
SEIHIN
 70
     0
 62
     3
  6
CONTINUOUS
  0
LAYER
  5
1F3
330
2
100
AcDbSymbolTableRecord
100
AcDbLayerTableRecord
  2
SUNPOU
 70
     0
 62
     4
  6
CONTINUOUS
  0
LAYER
  5
1F4
330
2
100
AcDbSymbolTableRecord
100
AcDbLayerTableRecord
  2
CENTER_L
 70
     0
 62
     1
  6
CENTER
  0
LAYER
  5
1F5
330
2
100
AcDbSymbolTableRecord
100
AcDbLayerTableRecord
  2
DEFPOINTS
 70
     0
 62
     7
  6
CONTINUOUS
  0
LAYER
  5
A03
330
2
100
AcDbSymbolTableRecord
100
AcDbLayerTableRecord
  2
MOJI
 70
     0
 62
     2
  6
CONTINUOUS
  0
ENDTAB
  0
TABLE
  2
STYLE
  5
3
330
0
100
AcDbSymbolTable
 70
     2
  0
STYLE
  5
10
330
3
100
AcDbSymbolTableRecord
100
AcDbTextStyleTableRecord
  2
STANDARD
 70
     0
 40
0.0
 41
1.0
 50
0.0
 71
     0
 42
2.5
  3
TXT
  4
bigfont.shx
  0
STYLE
  5
A04
330
3
100
AcDbSymbolTableRecord
100
AcDbTextStyleTableRecord
  2
ｽﾀｲﾙ1
 70
     0
 40
0.0
 41
1.0
 50
0.0
 71
     0
 42
2.5
  3
MS PGothic.ttf
  4

1001
ACAD
1000
MS PGothic
1071
    32818
  0
ENDTAB
  0
TABLE
  2
VIEW
  5
6
330
0
100
AcDbSymbolTable
 70
     0
  0
ENDTAB
  0
TABLE
  2
UCS
  5
7
330
0
100
AcDbSymbolTable
 70
     0
  0
ENDTAB
  0
TABLE
  2
APPID
  5
9
330
0
100
AcDbSymbolTable
 70
     1
  0
APPID
  5
11
330
9
100
AcDbSymbolTableRecord
100
AcDbRegAppTableRecord
  2
ACAD
 70
     0
  0
ENDTAB
  0
TABLE
  2
DIMSTYLE
  5
A
330
0
100
AcDbSymbolTable
 70
     1
  0
DIMSTYLE
105
1D
102
{ACAD_REACTORS
330
1073
330
1080
330
108D
330
109A
330
10D4
330
ED1
330
EC3
330
EF9
330
F1C
330
FA4
330
FEC
330
F06
330
1104
102
}
330
A
100
AcDbSymbolTableRecord
100
AcDbDimStyleTableRecord
  2
STANDARD
 70
     0
  3

  4

  5

  6

  7

 40
1.0
 41
0.18
 42
0.0625
 43
0.38
 44
0.18
 45
0.0
 46
0.0
 47
0.0
 48
0.0
140
0.18
141
0.09
142
0.0
143
25.4
144
1.0
145
0.0
146
1.0
147
0.09
 71
     0
 72
     0
 73
     1
 74
     1
 75
     0
 76
     0
 77
     0
 78
     0
170
     0
171
     2
172
     0
173
     0
174
     0
175
     0
176
     0
177
     0
178
     0
270
     2
271
     4
272
     4
273
     2
274
     2
340
10
275
     0
280
     0
281
     0
282
     0
283
     1
284
     0
285
     0
286
     0
287
     3
288
     0
  0
ENDTAB
  0
TABLE
  2
BLOCK_RECORD
  5
1
330
0
100
AcDbSymbolTable
 70
    18
  0
BLOCK_RECORD
  5
1A
102
{ACAD_XDICTIONARY
360
651
102
}
330
1
100
AcDbSymbolTableRecord
100
AcDbBlockTableRecord
  2
*MODEL_SPACE
  0
BLOCK_RECORD
  5
17
102
{ACAD_XDICTIONARY
360
64F
102
}
330
1
100
AcDbSymbolTableRecord
100
AcDbBlockTableRecord
  2
*PAPER_SPACE
  0
BLOCK_RECORD
  5
B2
330
1
100
AcDbSymbolTableRecord
100
AcDbBlockTableRecord
  2
_OPEN
  0
BLOCK_RECORD
  5
1074
330
1
100
AcDbSymbolTableRecord
100
AcDbBlockTableRecord
  2
*D9
  0
BLOCK_RECORD
  5
1081
330
1
100
AcDbSymbolTableRecord
100
AcDbBlockTableRecord
  2
*D10
  0
BLOCK_RECORD
  5
108E
330
1
100
AcDbSymbolTableRecord
100
AcDbBlockTableRecord
  2
*D11
  0
BLOCK_RECORD
  5
109B
330
1
100
AcDbSymbolTableRecord
100
AcDbBlockTableRecord
  2
*D12
  0
BLOCK_RECORD
  5
10D5
330
1
100
AcDbSymbolTableRecord
100
AcDbBlockTableRecord
  2
*D13
  0
BLOCK_RECORD
  5
1380
330
1
100
AcDbSymbolTableRecord
100
AcDbBlockTableRecord
  2
*X17
  0
ENDTAB
  0
ENDSEC
  0
SECTION
  2
BLOCKS
  0
BLOCK
  5
1B
330
1A
100
AcDbEntity
  8
0
100
AcDbBlockBegin
  2
*MODEL_SPACE
 70
     0
 10
0.0
 20
0.0
 30
0.0
  3
*MODEL_SPACE
  1

  0
ENDBLK
  5
1C
330
1A
100
AcDbEntity
  8
0
100
AcDbBlockEnd
  0
BLOCK
  5
18
330
17
100
AcDbEntity
 67
     1
  8
0
100
AcDbBlockBegin
  2
*PAPER_SPACE
 70
     0
 10
0.0
 20
0.0
 30
0.0
  3
*PAPER_SPACE
  1

  0
ENDBLK
  5
19
330
17
100
AcDbEntity
 67
     1
  8
0
100
AcDbBlockEnd
  0
BLOCK
  5
B3
330
B2
100
AcDbEntity
  8
0
100
AcDbBlockBegin
  2
_OPEN
 70
     0
 10
0.0
 20
0.0
 30
0.0
  3
_OPEN
  1

  0
LINE
  5
B4
330
B2
100
AcDbEntity
  8
0
  6
BYBLOCK
 62
     0
100
AcDbLine
 10
-1.0
 20
0.1666666666666666
 30
0.0
 11
0.0
 21
0.0
 31
0.0
  0
LINE
  5
B5
330
B2
100
AcDbEntity
  8
0
  6
BYBLOCK
 62
     0
100
AcDbLine
 10
0.0
 20
0.0
 30
0.0
 11
-1.0
 21
-0.1666666666666666
 31
0.0
  0
LINE
  5
B6
330
B2
100
AcDbEntity
  8
0
  6
BYBLOCK
 62
     0
100
AcDbLine
 10
0.0
 20
0.0
 30
0.0
 11
-1.0
 21
0.0
 31
0.0
  0
ENDBLK
  5
B7
330
B2
100
AcDbEntity
  8
0
100
AcDbBlockEnd
  0
BLOCK
  5
107E
330
1074
100
AcDbEntity
  8
0
100
AcDbBlockBegin
  2
*D9
 70
     1
 10
0.0
 20
0.0
 30
0.0
  3
*D9
  1

  0
LINE
  5
1516
330
1074
100
AcDbEntity
  8
SUNPOU
100
AcDbLine
 10
202.2111702611223
 20
223.1602070025775
 30
0.0
 11
223.9479268423756
 21
223.1602070025775
 31
0.0
  0
LINE
  5
1517
330
1074
100
AcDbEntity
  8
SUNPOU
100
AcDbLine
 10
175.6239577867247
 20
153.1602070025776
 30
0.0
 11
223.9479268423756
 21
153.1602070025775
 31
0.0
  0
LINE
  5
1518
330
1074
100
AcDbEntity
  8
SUNPOU
100
AcDbLine
 10
222.4479268423757
 20
220.1602070025775
 30
0.0
 11
222.4479268423756
 21
156.1602070025775
 31
0.0
  0
INSERT
  5
1519
330
1074
100
AcDbEntity
  8
SUNPOU
100
AcDbBlockReference
  2
_OPEN
 10
222.4479268423757
 20
223.1602070025775
 30
0.0
 41
3.0
 42
3.0
 43
3.0
 50
90.0
  0
INSERT
  5
151A
330
1074
100
AcDbEntity
  8
SUNPOU
100
AcDbBlockReference
  2
_OPEN
 10
222.4479268423756
 20
153.1602070025775
 30
0.0
 41
3.0
 42
3.0
 43
3.0
 50
270.0
  0
MTEXT
  5
151B
330
1074
100
AcDbEntity
  8
SUNPOU
100
AcDbMText
 10
219.9479268423756
 20
184.441540991937
 30
0.0
 40
3.0
 41
0.0
 71
     5
 72
     1
  1
\A1;70
 11
0.0000000000000001
 21
1.0
 31
0.0
  0
POINT
  5
151C
330
1074
100
AcDbEntity
  8
DEFPOINTS
 62
     0
100
AcDbPoint
 10
199.2111702611223
 20
223.1602070025775
 30
0.0
  0
POINT
  5
151D
330
1074
100
AcDbEntity
  8
DEFPOINTS
 62
     0
100
AcDbPoint
 10
172.6239577867247
 20
153.1602070025776
 30
0.0
  0
POINT
  5
151E
330
1074
100
AcDbEntity
  8
DEFPOINTS
 62
     0
100
AcDbPoint
 10
222.4479268423756
 20
153.1602070025775
 30
0.0
  0
ENDBLK
  5
107F
330
1074
100
AcDbEntity
  8
0
100
AcDbBlockEnd
  0
BLOCK
  5
108B
330
1081
100
AcDbEntity
  8
0
100
AcDbBlockBegin
  2
*D10
 70
     1
 10
0.0
 20
0.0
 30
0.0
  3
*D10
  1

  0
LINE
  5
151F
330
1081
100
AcDbEntity
  8
SUNPOU
100
AcDbLine
 10
202.2111702611223
 20
223.1602070025776
 30
0.0
 11
234.8747611102976
 21
223.1602070025776
 31
0.0
  0
LINE
  5
1520
330
1081
100
AcDbEntity
  8
SUNPOU
100
AcDbLine
 10
202.2111702611223
 20
99.66020700257764
 30
0.0
 11
234.8747611102976
 21
99.66020700257763
 31
0.0
  0
LINE
  5
1521
330
1081
100
AcDbEntity
  8
SUNPOU
100
AcDbLine
 10
233.3747611102976
 20
220.1602070025776
 30
0.0
 11
233.3747611102976
 21
102.6602070025776
 31
0.0
  0
INSERT
  5
1522
330
1081
100
AcDbEntity
  8
SUNPOU
100
AcDbBlockReference
  2
_OPEN
 10
233.3747611102976
 20
223.1602070025776
 30
0.0
 41
3.0
 42
3.0
 43
3.0
 50
90.0
  0
INSERT
  5
1523
330
1081
100
AcDbEntity
  8
SUNPOU
100
AcDbBlockReference
  2
_OPEN
 10
233.3747611102976
 20
99.66020700257763
 30
0.0
 41
3.0
 42
3.0
 43
3.0
 50
270.0
  0
MTEXT
  5
1524
330
1081
100
AcDbEntity
  8
SUNPOU
100
AcDbMText
 10
230.8747611102976
 20
161.4102070025776
 30
0.0
 40
3.0
 41
0.0
 71
     5
 72
     1
  1
\A1;124
 11
0.0000000000000001
 21
1.0
 31
0.0
  0
POINT
  5
1525
330
1081
100
AcDbEntity
  8
DEFPOINTS
 62
     0
100
AcDbPoint
 10
199.2111702611223
 20
223.1602070025776
 30
0.0
  0
POINT
  5
1526
330
1081
100
AcDbEntity
  8
DEFPOINTS
 62
     0
100
AcDbPoint
 10
199.2111702611223
 20
99.66020700257764
 30
0.0
  0
POINT
  5
1527
330
1081
100
AcDbEntity
  8
DEFPOINTS
 62
     0
100
AcDbPoint
 10
233.3747611102976
 20
99.66020700257763
 30
0.0
  0
ENDBLK
  5
108C
330
1081
100
AcDbEntity
  8
0
100
AcDbBlockEnd
  0
BLOCK
  5
1098
330
108E
100
AcDbEntity
  8
0
100
AcDbBlockBegin
  2
*D11
 70
     1
 10
0.0
 20
0.0
 30
0.0
  3
*D11
  1

  0
LINE
  5
1528
330
108E
100
AcDbEntity
  8
SUNPOU
100
AcDbLine
 10
202.2111702611223
 20
223.1602070025776
 30
0.0
 11
246.1658221676325
 21
223.1602070025776
 31
0.0
  0
LINE
  5
1529
330
108E
100
AcDbEntity
  8
SUNPOU
100
AcDbLine
 10
197.6111702611223
 20
69.66020700257768
 30
0.0
 11
246.1658221676325
 21
69.66020700257766
 31
0.0
  0
LINE
  5
152A
330
108E
100
AcDbEntity
  8
SUNPOU
100
AcDbLine
 10
244.6658221676325
 20
220.1602070025776
 30
0.0
 11
244.6658221676325
 21
72.66020700257766
 31
0.0
  0
INSERT
  5
152B
330
108E
100
AcDbEntity
  8
SUNPOU
100
AcDbBlockReference
  2
_OPEN
 10
244.6658221676325
 20
223.1602070025776
 30
0.0
 41
3.0
 42
3.0
 43
3.0
 50
90.0
  0
INSERT
  5
152C
330
108E
100
AcDbEntity
  8
SUNPOU
100
AcDbBlockReference
  2
_OPEN
 10
244.6658221676325
 20
69.66020700257766
 30
0.0
 41
3.0
 42
3.0
 43
3.0
 50
270.0
  0
MTEXT
  5
152D
330
108E
100
AcDbEntity
  8
SUNPOU
100
AcDbMText
 10
242.1658221676325
 20
146.4102070025776
 30
0.0
 40
3.0
 41
0.0
 71
     5
 72
     1
  1
\A1;154
 11
0.0000000000000001
 21
1.0
 31
0.0
  0
POINT
  5
152E
330
108E
100
AcDbEntity
  8
DEFPOINTS
 62
     0
100
AcDbPoint
 10
199.2111702611223
 20
223.1602070025776
 30
0.0
  0
POINT
  5
152F
330
108E
100
AcDbEntity
  8
DEFPOINTS
 62
     0
100
AcDbPoint
 10
194.6111702611223
 20
69.66020700257768
 30
0.0
  0
POINT
  5
1530
330
108E
100
AcDbEntity
  8
DEFPOINTS
 62
     0
100
AcDbPoint
 10
244.6658221676325
 20
69.66020700257766
 30
0.0
  0
ENDBLK
  5
1099
330
108E
100
AcDbEntity
  8
0
100
AcDbBlockEnd
  0
BLOCK
  5
10A5
330
109B
100
AcDbEntity
  8
0
100
AcDbBlockBegin
  2
*D12
 70
     1
 10
0.0
 20
0.0
 30
0.0
  3
*D12
  1

  0
LINE
  5
1531
330
109B
100
AcDbEntity
  8
SUNPOU
100
AcDbLine
 10
136.8111702611223
 20
66.66020700257764
 30
0.0
 11
136.8111702611223
 21
44.47870950426659
 31
0.0
  0
LINE
  5
1532
330
109B
100
AcDbEntity
  8
SUNPOU
100
AcDbLine
 10
194.6111702611223
 20
66.66020700257764
 30
0.0
 11
194.6111702611223
 21
44.47870950426659
 31
0.0
  0
LINE
  5
1533
330
109B
100
AcDbEntity
  8
SUNPOU
100
AcDbLine
 10
139.8111702611223
 20
45.97870950426659
 30
0.0
 11
191.6111702611223
 21
45.97870950426659
 31
0.0
  0
INSERT
  5
1534
330
109B
100
AcDbEntity
  8
SUNPOU
100
AcDbBlockReference
  2
_OPEN
 10
136.8111702611223
 20
45.97870950426659
 30
0.0
 41
3.0
 42
3.0
 43
3.0
 50
180.0
  0
INSERT
  5
1535
330
109B
100
AcDbEntity
  8
SUNPOU
100
AcDbBlockReference
  2
_OPEN
 10
194.6111702611223
 20
45.97870950426659
 30
0.0
 41
3.0
 42
3.0
 43
3.0
  0
MTEXT
  5
1536
330
109B
100
AcDbEntity
  8
SUNPOU
100
AcDbMText
 10
165.7111702611223
 20
48.47870950426659
 30
0.0
 40
3.0
 41
0.0
 71
     5
 72
     1
  1
\A1;φ58
  0
POINT
  5
1537
330
109B
100
AcDbEntity
  8
DEFPOINTS
 62
     0
100
AcDbPoint
 10
136.8111702611223
 20
69.66020700257764
 30
0.0
  0
POINT
  5
1538
330
109B
100
AcDbEntity
  8
DEFPOINTS
 62
     0
100
AcDbPoint
 10
194.6111702611223
 20
69.66020700257764
 30
0.0
  0
POINT
  5
1539
330
109B
100
AcDbEntity
  8
DEFPOINTS
 62
     0
100
AcDbPoint
 10
194.6111702611223
 20
45.97870950426659
 30
0.0
  0
ENDBLK
  5
10A6
330
109B
100
AcDbEntity
  8
0
100
AcDbBlockEnd
  0
BLOCK
  5
10DF
330
10D5
100
AcDbEntity
  8
0
100
AcDbBlockBegin
  2
*D13
 70
     1
 10
0.0
 20
0.0
 30
0.0
  3
*D13
  1

  0
LINE
  5
153A
330
10D5
100
AcDbEntity
  8
SUNPOU
100
AcDbLine
 10
132.2111702611223
 20
226.1602070025775
 30
0.0
 11
132.2111702611223
 21
244.0156197201479
 31
0.0
  0
LINE
  5
153B
330
10D5
100
AcDbEntity
  8
SUNPOU
100
AcDbLine
 10
199.2111702611223
 20
226.1602070025776
 30
0.0
 11
199.2111702611223
 21
244.0156197201479
 31
0.0
  0
LINE
  5
153C
330
10D5
100
AcDbEntity
  8
SUNPOU
100
AcDbLine
 10
135.2111702611223
 20
242.5156197201479
 30
0.0
 11
196.2111702611223
 21
242.5156197201479
 31
0.0
  0
INSERT
  5
153D
330
10D5
100
AcDbEntity
  8
SUNPOU
100
AcDbBlockReference
  2
_OPEN
 10
132.2111702611223
 20
242.5156197201479
 30
0.0
 41
3.0
 42
3.0
 43
3.0
 50
180.0
  0
INSERT
  5
153E
330
10D5
100
AcDbEntity
  8
SUNPOU
100
AcDbBlockReference
  2
_OPEN
 10
199.2111702611223
 20
242.5156197201479
 30
0.0
 41
3.0
 42
3.0
 43
3.0
  0
MTEXT
  5
153F
330
10D5
100
AcDbEntity
  8
SUNPOU
100
AcDbMText
 10
165.7111702611223
 20
245.0156197201479
 30
0.0
 40
3.0
 41
0.0
 71
     5
 72
     1
  1
\A1;φ67
  0
POINT
  5
1540
330
10D5
100
AcDbEntity
  8
DEFPOINTS
 62
     0
100
AcDbPoint
 10
132.2111702611223
 20
223.1602070025775
 30
0.0
  0
POINT
  5
1541
330
10D5
100
AcDbEntity
  8
DEFPOINTS
 62
     0
100
AcDbPoint
 10
199.2111702611223
 20
223.1602070025776
 30
0.0
  0
POINT
  5
1542
330
10D5
100
AcDbEntity
  8
DEFPOINTS
 62
     0
100
AcDbPoint
 10
199.2111702611223
 20
242.5156197201479
 30
0.0
  0
ENDBLK
  5
10E0
330
10D5
100
AcDbEntity
  8
0
100
AcDbBlockEnd
  0
BLOCK
  5
1514
330
1380
100
AcDbEntity
  8
0
100
AcDbBlockBegin
  2
*X17
 70
     1
 10
0.0
 20
0.0
 30
0.0
  3
*X17
  1

  0
LINE
  5
1381
330
1380
100
AcDbEntity
  8
0
 62
     0
100
AcDbLine
 10
34.52110559449164
 20
11.3020844964989
 30
0.0
 11
34.19819012963418
 21
11.62499996135639
 31
0.0
  0
LINE
  5
1382
330
1380
100
AcDbEntity
  8
0
 62
     0
100
AcDbLine
 10
34.52110559449164
 20
10.85307169044546
 30
0.0
 11
33.74917732358071
 21
11.62499996135639
 31
0.0
  0
LINE
  5
1383
330
1380
100
AcDbEntity
  8
0
 62
     0
100
AcDbLine
 10
34.52110559449161
 20
10.40405888439198
 30
0.0
 11
33.31053862148414
 21
11.61462585739946
 31
0.0
  0
LINE
  5
1384
330
1380
100
AcDbEntity
  8
0
 62
     0
100
AcDbLine
 10
34.52110559449164
 20
9.955046078338568
 30
0.0
 11
33.12110559449161
 21
11.35504607833857
 31
0.0
  0
LINE
  5
1385
330
1380
100
AcDbEntity
  8
0
 62
     0
100
AcDbLine
 10
34.52110559449164
 20
9.506033272285094
 30
0.0
 11
33.12110559449161
 21
10.90603327228512
 31
0.0
  0
LINE
  5
1386
330
1380
100
AcDbEntity
  8
0
 62
     0
100
AcDbLine
 10
34.52110559449161
 20
9.05702046623162
 30
0.0
 11
33.12110559449158
 21
10.45702046623165
 31
0.0
  0
LINE
  5
1387
330
1380
100
AcDbEntity
  8
0
 62
     0
100
AcDbLine
 10
32.0711055944916
 20
11.05800766017821
 30
0.0
 11
31.50411329331345
 21
11.62499996135639
 31
0.0
  0
LINE
  5
1388
330
1380
100
AcDbEntity
  8
0
 62
     0
100
AcDbLine
 10
34.52110559449164
 20
8.608007660178202
 30
0.0
 11
33.12110559449161
 21
10.00800766017823
 31
0.0
  0
LINE
  5
1389
330
1380
100
AcDbEntity
  8
0
 62
     0
100
AcDbLine
 10
32.0711055944916
 20
10.60899485412477
 30
0.0
 11
31.05510048725998
 21
11.62499996135636
 31
0.0
  0
LINE
  5
138A
330
1380
100
AcDbEntity
  8
0
 62
     0
100
AcDbLine
 10
34.52110559449161
 20
8.158994854124728
 30
0.0
 11
33.12110559449161
 21
9.558994854124762
 31
0.0
  0
LINE
  5
138B
330
1380
100
AcDbEntity
  8
0
 62
     0
100
AcDbLine
 10
32.0711055944916
 20
10.15998204807129
 30
0.0
 11
30.71835011192305
 21
11.51273753063984
 31
0.0
  0
LINE
  5
138C
330
1380
100
AcDbEntity
  8
0
 62
     0
100
AcDbLine
 10
34.52110559449161
 20
7.709982048071282
 30
0.0
 11
33.12110559449158
 21
9.109982048071287
 31
0.0
  0
LINE
  5
138D
330
1380
100
AcDbEntity
  8
0
 62
     0
100
AcDbLine
 10
32.07110559449165
 20
9.710969242017796
 30
0.0
 11
30.67110559449156
 21
11.11096924201785
 31
0.0
  0
LINE
  5
138E
330
1380
100
AcDbEntity
  8
0
 62
     0
100
AcDbLine
 10
34.52110559449164
 20
7.260969242017807
 30
0.0
 11
33.12110559449161
 21
8.660969242017841
 31
0.0
  0
LINE
  5
138F
330
1380
100
AcDbEntity
  8
0
 62
     0
100
AcDbLine
 10
32.07110559449162
 20
9.26195643596435
 30
0.0
 11
30.67110559449156
 21
10.66195643596444
 31
0.0
  0
LINE
  5
1390
330
1380
100
AcDbEntity
  8
0
 62
     0
100
AcDbLine
 10
34.52110559449161
 20
6.811956435964361
 30
0.0
 11
33.12110559449158
 21
8.211956435964395
 31
0.0
  0
LINE
  5
1391
330
1380
100
AcDbEntity
  8
0
 62
     0
100
AcDbLine
 10
32.07110559449162
 20
8.812943629910904
 30
0.0
 11
30.67110559449156
 21
10.21294362991096
 31
0.0
  0
LINE
  5
1392
330
1380
100
AcDbEntity
  8
0
 62
     0
100
AcDbLine
 10
34.52110559449161
 20
6.362943629910915
 30
0.0
 11
33.12110559449158
 21
7.762943629910949
 31
0.0
  0
LINE
  5
1393
330
1380
100
AcDbEntity
  8
0
 62
     0
100
AcDbLine
 10
32.0711055944916
 20
8.36393082385743
 30
0.0
 11
30.67110559449153
 21
9.763930823857492
 31
0.0
  0
LINE
  5
1394
330
1380
100
AcDbEntity
  8
0
 62
     0
100
AcDbLine
 10
34.52110559449158
 20
5.913930823857441
 30
0.0
 11
33.12110559449158
 21
7.313930823857475
 31
0.0
  0
LINE
  5
1395
330
1380
100
AcDbEntity
  8
0
 62
     0
100
AcDbLine
 10
32.07110559449162
 20
7.914918017804012
 30
0.0
 11
30.67110559449156
 21
9.314918017804075
 31
0.0
  0
LINE
  5
1396
330
1380
100
AcDbEntity
  8
0
 62
     0
100
AcDbLine
 10
28.92110559449159
 20
11.06491801780404
 30
0.0
 11
28.36102365093927
 21
11.62499996135636
 31
0.0
  0
LINE
  5
1397
330
1380
100
AcDbEntity
  8
0
 62
     0
100
AcDbLine
 10
34.52110559449161
 20
5.464918017804023
 30
0.0
 11
33.12110559449158
 21
6.864918017804029
 31
0.0
  0
LINE
  5
1398
330
1380
100
AcDbEntity
  8
0
 62
     0
100
AcDbLine
 10
32.07110559449162
 20
7.465905211750538
 30
0.0
 11
30.67110559449153
 21
8.8659052117506
 31
0.0
  0
LINE
  5
1399
330
1380
100
AcDbEntity
  8
0
 62
     0
100
AcDbLine
 10
28.92110559449156
 20
10.61590521175057
 30
0.0
 11
27.9120108448858
 21
11.62499996135636
 31
0.0
  0
LINE
  5
139A
330
1380
100
AcDbEntity
  8
0
 62
     0
100
AcDbLine
 10
34.52110559449161
 20
5.015905211750549
 30
0.0
 11
33.12110559449158
 21
6.415905211750583
 31
0.0
  0
LINE
  5
139B
330
1380
100
AcDbEntity
  8
0
 62
     0
100
AcDbLine
 10
32.0711055944916
 20
7.016892405697092
 30
0.0
 11
30.67110559449156
 21
8.416892405697097
 31
0.0
  0
LINE
  5
139C
330
1380
100
AcDbEntity
  8
0
 62
     0
100
AcDbLine
 10
28.92110559449156
 20
10.16689240569712
 30
0.0
 11
27.57122423282956
 21
11.51677376735912
 31
0.0
  0
LINE
  5
139D
330
1380
100
AcDbEntity
  8
0
 62
     0
100
AcDbLine
 10
34.52110559449158
 20
4.566892405697103
 30
0.0
 11
33.12110559449155
 21
5.966892405697109
 31
0.0
  0
LINE
  5
139E
330
1380
100
AcDbEntity
  8
0
 62
     0
100
AcDbLine
 10
32.07110559449162
 20
6.567879599643617
 30
0.0
 11
30.67110559449159
 21
7.967879599643651
 31
0.0
  0
LINE
  5
139F
330
1380
100
AcDbEntity
  8
0
 62
     0
100
AcDbLine
 10
28.92110559449159
 20
9.717879599643651
 30
0.0
 11
27.52110559449159
 21
11.11787959964365
 31
0.0
  0
LINE
  5
13A0
330
1380
100
AcDbEntity
  8
0
 62
     0
100
AcDbLine
 10
34.52110559449161
 20
4.117879599643629
 30
0.0
 11
33.12110559449158
 21
5.517879599643663
 31
0.0
  0
LINE
  5
13A1
330
1380
100
AcDbEntity
  8
0
 62
     0
100
AcDbLine
 10
32.0711055944916
 20
6.118866793590171
 30
0.0
 11
30.67110559449159
 21
7.518866793590206
 31
0.0
  0
LINE
  5
13A2
330
1380
100
AcDbEntity
  8
0
 62
     0
100
AcDbLine
 10
28.92110559449162
 20
9.268866793590177
 30
0.0
 11
27.52110559449161
 21
10.66886679359018
 31
0.0
  0
LINE
  5
13A3
330
1380
100
AcDbEntity
  8
0
 62
     0
100
AcDbLine
 10
34.48512291704671
 20
3.704849471035089
 30
0.0
 11
33.12110559449158
 21
5.068866793590217
 31
0.0
  0
LINE
  5
13A4
330
1380
100
AcDbEntity
  8
0
 62
     0
100
AcDbLine
 10
32.07110559449162
 20
5.669853987536669
 30
0.0
 11
30.67110559449156
 21
7.069853987536731
 31
0.0
  0
LINE
  5
13A5
330
1380
100
AcDbEntity
  8
0
 62
     0
100
AcDbLine
 10
28.92110559449159
 20
8.819853987536731
 30
0.0
 11
27.52110559449161
 21
10.2198539875367
 31
0.0
  0
LINE
  5
13A6
330
1380
100
AcDbEntity
  8
0
 62
     0
100
AcDbLine
 10
34.16595962067197
 20
3.574999961356354
 30
0.0
 11
33.12110559449155
 21
4.619853987536771
 31
0.0
  0
LINE
  5
13A7
330
1380
100
AcDbEntity
  8
0
 62
     0
100
AcDbLine
 10
28.92110559449159
 20
8.370841181483257
 30
0.0
 11
27.52110559449159
 21
9.770841181483234
 31
0.0
  0
LINE
  5
13A8
330
1380
100
AcDbEntity
  8
0
 62
     0
100
AcDbLine
 10
32.07110559449162
 20
5.220841181483223
 30
0.0
 11
30.67110559449156
 21
6.620841181483285
 31
0.0
  0
LINE
  5
13A9
330
1380
100
AcDbEntity
  8
0
 62
     0
100
AcDbLine
 10
26.20860559449158
 20
11.08334118148326
 30
0.0
 11
25.66694681461842
 21
11.62499996135639
 31
0.0
  0
LINE
  5
13AA
330
1380
100
AcDbEntity
  8
0
 62
     0
100
AcDbLine
 10
33.71694681461852
 20
3.574999961356297
 30
0.0
 11
33.12110559449155
 21
4.170841181483297
 31
0.0
  0
LINE
  5
13AB
330
1380
100
AcDbEntity
  8
0
 62
     0
100
AcDbLine
 10
28.92110559449159
 20
7.921828375429811
 30
0.0
 11
27.52110559449161
 21
9.321828375429817
 31
0.0
  0
LINE
  5
13AC
330
1380
100
AcDbEntity
  8
0
 62
     0
100
AcDbLine
 10
26.20860559449158
 20
10.63432837542981
 30
0.0
 11
25.21793400856501
 21
11.62499996135642
 31
0.0
  0
LINE
  5
13AD
330
1380
100
AcDbEntity
  8
0
 62
     0
100
AcDbLine
 10
32.05812644416883
 20
4.784807525752597
 30
0.0
 11
30.67110559449156
 21
6.171828375429839
 31
0.0
  0
LINE
  5
13AE
330
1380
100
AcDbEntity
  8
0
 62
     0
100
AcDbLine
 10
28.92110559449159
 20
7.472815569376365
 30
0.0
 11
27.52110559449161
 21
8.872815569376342
 31
0.0
  0
LINE
  5
13AF
330
1380
100
AcDbEntity
  8
0
 62
     0
100
AcDbLine
 10
26.11081532143467
 20
10.28310584243328
 30
0.0
 11
24.76892120251159
 21
11.62499996135636
 31
0.0
  0
LINE
  5
13B0
330
1380
100
AcDbEntity
  8
0
 62
     0
100
AcDbLine
 10
31.96163379654021
 20
4.432287367327717
 30
0.0
 11
30.67110559449156
 21
5.722815569376393
 31
0.0
  0
LINE
  5
13B1
330
1380
100
AcDbEntity
  8
0
 62
     0
100
AcDbLine
 10
28.92110559449159
 20
7.02380276332289
 30
0.0
 11
27.52110559449159
 21
8.423802763322896
 31
0.0
  0
LINE
  5
13B2
330
1380
100
AcDbEntity
  8
0
 62
     0
100
AcDbLine
 10
25.71990839645809
 20
10.22499996135636
 30
0.0
 11
24.31990839645809
 21
11.62499996135639
 31
0.0
  0
LINE
  5
13B3
330
1380
100
AcDbEntity
  8
0
 62
     0
100
AcDbLine
 10
31.79911785857842
 20
4.145790499236028
 30
0.0
 11
30.63534772491181
 21
5.309560632902673
 31
0.0
  0
LINE
  5
13B4
330
1380
100
AcDbEntity
  8
0
 62
     0
100
AcDbLine
 10
28.92110559449159
 20
6.574789957269473
 30
0.0
 11
27.52110559449161
 21
7.97478995726945
 31
0.0
  0
LINE
  5
13B5
330
1380
100
AcDbEntity
  8
0
 62
     0
100
AcDbLine
 10
25.27089559040467
 20
10.22499996135638
 30
0.0
 11
23.90211222581598
 21
11.59378332594508
 31
0.0
  0
LINE
  5
13B6
330
1380
100
AcDbEntity
  8
0
 62
     0
100
AcDbLine
 10
31.5830969599159
 20
3.912798591845131
 30
0.0
 11
30.43455490567805
 21
5.061340646082982
 31
0.0
  0
LINE
  5
13B7
330
1380
100
AcDbEntity
  8
0
 62
     0
100
AcDbLine
 10
28.92110559449159
 20
6.125777151215999
 30
0.0
 11
27.52110559449159
 21
7.525777151215976
 31
0.0
  0
LINE
  5
13B8
330
1380
100
AcDbEntity
  8
0
 62
     0
100
AcDbLine
 10
24.8218827843512
 20
10.22499996135638
 30
0.0
 11
23.56979201354929
 21
11.47709073215827
 31
0.0
  0
LINE
  5
13B9
330
1380
100
AcDbEntity
  8
0
 62
     0
100
AcDbLine
 10
31.31501578745289
 20
3.731866958254698
 30
0.0
 11
30.0718827843512
 21
4.97499996135636
 31
0.0
  0
LINE
  5
13BA
330
1380
100
AcDbEntity
  8
0
 62
     0
100
AcDbLine
 10
28.92110559449156
 20
5.676764345162524
 30
0.0
 11
27.52110559449161
 21
7.076764345162473
 31
0.0
  0
LINE
  5
13BB
330
1380
100
AcDbEntity
  8
0
 62
     0
100
AcDbLine
 10
24.3837648923068
 20
10.21410504734728
 30
0.0
 11
23.29849154494419
 21
11.29937839470989
 31
0.0
  0
LINE
  5
13BC
330
1380
100
AcDbEntity
  8
0
 62
     0
100
AcDbLine
 10
30.98680950749724
 20
3.611060432156875
 30
0.0
 11
29.62286997829775
 21
4.97499996135636
 31
0.0
  0
LINE
  5
13BD
330
1380
100
AcDbEntity
  8
0
 62
     0
100
AcDbLine
 10
24.19610559449163
 20
9.952751539108987
 30
0.0
 11
23.07943551542192
 21
11.06942161817869
 31
0.0
  0
LINE
  5
13BE
330
1380
100
AcDbEntity
  8
0
 62
     0
100
AcDbLine
 10
30.57385717224431
 20
3.574999961356326
 30
0.0
 11
27.52110559449161
 21
6.627751539109027
 31
0.0
  0
LINE
  5
13BF
330
1380
100
AcDbEntity
  8
0
 62
     0
100
AcDbLine
 10
24.19610559449165
 20
9.50373873305557
 30
0.0
 11
22.91355005924541
 21
10.78629426830181
 31
0.0
  0
LINE
  5
13C0
330
1380
100
AcDbEntity
  8
0
 62
     0
100
AcDbLine
 10
30.12484436619087
 20
3.574999961356326
 30
0.0
 11
27.52110559449164
 21
6.178738733055581
 31
0.0
  0
LINE
  5
13C1
330
1380
100
AcDbEntity
  8
0
 62
     0
100
AcDbLine
 10
24.29937773504352
 20
8.95145378645023
 30
0.0
 11
22.81246079956335
 21
10.43837072193037
 31
0.0
  0
LINE
  5
13C2
330
1380
100
AcDbEntity
  8
0
 62
     0
100
AcDbLine
 10
29.67583156013742
 20
3.574999961356326
 30
0.0
 11
27.52110559449161
 21
5.729725927002135
 31
0.0
  0
LINE
  5
13C3
330
1380
100
AcDbEntity
  8
0
 62
     0
100
AcDbLine
 10
26.40790744583728
 20
6.393911269602995
 30
0.0
 11
22.79610559449159
 21
10.00571312094865
 31
0.0
  0
LINE
  5
13C4
330
1380
100
AcDbEntity
  8
0
 62
     0
100
AcDbLine
 10
21.74610559449155
 20
11.05571312094869
 30
0.0
 11
21.17681875408391
 21
11.62499996135636
 31
0.0
  0
LINE
  5
13C5
330
1380
100
AcDbEntity
  8
0
 62
     0
100
AcDbLine
 10
29.22681875408395
 20
3.574999961356326
 30
0.0
 11
27.52110559449161
 21
5.280713120948661
 31
0.0
  0
LINE
  5
13C6
330
1380
100
AcDbEntity
  8
0
 62
     0
100
AcDbLine
 10
26.47110559449163
 20
5.881700314895226
 30
0.0
 11
22.79610559449162
 21
9.556700314895238
 31
0.0
  0
LINE
  5
13C7
330
1380
100
AcDbEntity
  8
0
 62
     0
100
AcDbLine
 10
21.74610559449161
 20
10.60670031489522
 30
0.0
 11
20.72780594803043
 21
11.62499996135642
 31
0.0
  0
LINE
  5
13C8
330
1380
100
AcDbEntity
  8
0
 62
     0
100
AcDbLine
 10
28.76958200865806
 20
3.583223900728796
 30
0.0
 11
27.52932953386405
 21
4.823476375522801
 31
0.0
  0
LINE
  5
13C9
330
1380
100
AcDbEntity
  8
0
 62
     0
100
AcDbLine
 10
21.74610559449161
 20
10.15768750884177
 30
0.0
 11
20.39241065060394
 21
11.5113824527294
 31
0.0
  0
LINE
  5
13CA
330
1380
100
AcDbEntity
  8
0
 62
     0
100
AcDbLine
 10
26.4711055944916
 20
5.432687508841752
 30
0.0
 11
22.80781092843278
 21
9.095982174900598
 31
0.0
  0
LINE
  5
13CB
330
1380
100
AcDbEntity
  8
0
 62
     0
100
AcDbLine
 10
21.74610559449161
 20
9.7086747027883
 30
0.0
 11
20.3461055944916
 21
11.10867470278827
 31
0.0
  0
LINE
  5
13CC
330
1380
100
AcDbEntity
  8
0
 62
     0
100
AcDbLine
 10
26.47110559449155
 20
4.983674702788334
 30
0.0
 11
22.9668706373528
 21
8.487909659927112
 31
0.0
  0
LINE
  5
13CD
330
1380
100
AcDbEntity
  8
0
 62
     0
100
AcDbLine
 10
21.74610559449161
 20
9.259661896734854
 30
0.0
 11
20.34610559449163
 21
10.65966189673483
 31
0.0
  0
LINE
  5
13CE
330
1380
100
AcDbEntity
  8
0
 62
     0
100
AcDbLine
 10
26.41682468569706
 20
4.588942805529399
 30
0.0
 11
25.06900729117791
 21
5.936760200048553
 31
0.0
  0
LINE
  5
13CF
330
1380
100
AcDbEntity
  8
0
 62
     0
100
AcDbLine
 10
21.74610559449161
 20
8.810649090681408
 30
0.0
 11
20.3461055944916
 21
10.21064909068138
 31
0.0
  0
LINE
  5
13D0
330
1380
100
AcDbEntity
  8
0
 62
     0
100
AcDbLine
 10
19.20036214420309
 20
11.35639254096989
 30
0.0
 11
18.93175472381659
 21
11.62499996135642
 31
0.0
  0
LINE
  5
13D1
330
1380
100
AcDbEntity
  8
0
 62
     0
100
AcDbLine
 10
26.28288683181628
 20
4.273867853356733
 30
0.0
 11
25.07110559449162
 21
5.485649090681391
 31
0.0
  0
LINE
  5
13D2
330
1380
100
AcDbEntity
  8
0
 62
     0
100
AcDbLine
 10
21.74610559449158
 20
8.361636284627934
 30
0.0
 11
20.3461055944916
 21
9.76163628462794
 31
0.0
  0
LINE
  5
13D3
330
1380
100
AcDbEntity
  8
0
 62
     0
100
AcDbLine
 10
19.10089831207679
 20
11.00684356704272
 30
0.0
 11
18.48274191776314
 21
11.62499996135639
 31
0.0
  0
LINE
  5
13D4
330
1380
100
AcDbEntity
  8
0
 62
     0
100
AcDbLine
 10
26.09139343272863
 20
4.016348446390907
 30
0.0
 11
25.02246300304838
 21
5.085278876071157
 31
0.0
  0
LINE
  5
13D5
330
1380
100
AcDbEntity
  8
0
 62
     0
100
AcDbLine
 10
21.74610559449158
 20
7.912623478574488
 30
0.0
 11
20.3461055944916
 21
9.312623478574465
 31
0.0
  0
LINE
  5
13D6
330
1380
100
AcDbEntity
  8
0
 62
     0
100
AcDbLine
 10
18.99313523862394
 20
10.66559383444209
 30
0.0
 11
18.03852745688866
 21
11.62020161617741
 31
0.0
  0
LINE
  5
13D7
330
1380
100
AcDbEntity
  8
0
 62
     0
100
AcDbLine
 10
25.84823395017082
 20
3.810495122895218
 30
0.0
 11
24.68372911170971
 21
4.97499996135636
 31
0.0
  0
LINE
  5
13D8
330
1380
100
AcDbEntity
  8
0
 62
     0
100
AcDbLine
 10
21.74610559449161
 20
7.463610672521042
 30
0.0
 11
20.3461055944916
 21
8.863610672521019
 31
0.0
  0
LINE
  5
13D9
330
1380
100
AcDbEntity
  8
0
 62
     0
100
AcDbLine
 10
18.88537216517119
 20
10.32434410184146
 30
0.0
 11
17.82137216517116
 21
11.38834410184148
 31
0.0
  0
LINE
  5
13DA
330
1380
100
AcDbEntity
  8
0
 62
     0
100
AcDbLine
 10
25.55019197594063
 20
3.659524291071988
 30
0.0
 11
24.23471630565626
 21
4.974999961356388
 31
0.0
  0
LINE
  5
13DB
330
1380
100
AcDbEntity
  8
0
 62
     0
100
AcDbLine
 10
21.74610559449158
 20
7.014597866467596
 30
0.0
 11
20.3461055944916
 21
8.414597866467573
 31
0.0
  0
LINE
  5
13DC
330
1380
100
AcDbEntity
  8
0
 62
     0
100
AcDbLine
 10
18.77760909171826
 20
9.983094369240916
 30
0.0
 11
17.71360909171827
 21
11.04709436924091
 31
0.0
  0
LINE
  5
13DD
330
1380
100
AcDbEntity
  8
0
 62
     0
100
AcDbLine
 10
25.18135565011689
 20
3.579347810842278
 30
0.0
 11
23.78570349960281
 21
4.97499996135636
 31
0.0
  0
LINE
  5
13DE
330
1380
100
AcDbEntity
  8
0
 62
     0
100
AcDbLine
 10
21.74610559449158
 20
6.565585060414122
 30
0.0
 11
20.34610559449157
 21
7.965585060414099
 31
0.0
  0
LINE
  5
13DF
330
1380
100
AcDbEntity
  8
0
 62
     0
100
AcDbLine
 10
18.66984601826547
 20
9.641844636640229
 30
0.0
 11
17.60584601826542
 21
10.70584463664025
 31
0.0
  0
LINE
  5
13E0
330
1380
100
AcDbEntity
  8
0
 62
     0
100
AcDbLine
 10
24.73669069354937
 20
3.574999961356326
 30
0.0
 11
23.33669069354934
 21
4.97499996135636
 31
0.0
  0
LINE
  5
13E1
330
1380
100
AcDbEntity
  8
0
 62
     0
100
AcDbLine
 10
21.74610559449158
 20
6.116572254360676
 30
0.0
 11
20.3461055944916
 21
7.516572254360681
 31
0.0
  0
LINE
  5
13E2
330
1380
100
AcDbEntity
  8
0
 62
     0
100
AcDbLine
 10
18.56208294481268
 20
9.300594904039598
 30
0.0
 11
17.4980829448126
 21
10.36459490403965
 31
0.0
  0
LINE
  5
13E3
330
1380
100
AcDbEntity
  8
0
 62
     0
100
AcDbLine
 10
24.28767788749593
 20
3.574999961356354
 30
0.0
 11
23.07087203884774
 21
4.791805810004547
 31
0.0
  0
LINE
  5
13E4
330
1380
100
AcDbEntity
  8
0
 62
     0
100
AcDbLine
 10
18.45431987135981
 20
8.959345171438997
 30
0.0
 11
17.39031987135979
 21
10.02334517143901
 31
0.0
  0
LINE
  5
13E5
330
1380
100
AcDbEntity
  8
0
 62
     0
100
AcDbLine
 10
21.74610559449158
 20
5.66755944830723
 30
0.0
 11
20.3461055944916
 21
7.067559448307207
 31
0.0
  0
LINE
  5
13E6
330
1380
100
AcDbEntity
  8
0
 62
     0
100
AcDbLine
 10
16.32110559449159
 20
11.09255944830721
 30
0.0
 11
15.78866508144244
 21
11.62499996135633
 31
0.0
  0
LINE
  5
13E7
330
1380
100
AcDbEntity
  8
0
 62
     0
100
AcDbLine
 10
23.83866508144248
 20
3.574999961356326
 30
0.0
 11
23.05860559449161
 21
4.355059448307201
 31
0.0
  0
LINE
  5
13E8
330
1380
100
AcDbEntity
  8
0
 62
     0
100
AcDbLine
 10
18.34655679790697
 20
8.618095438838366
 30
0.0
 11
17.28255679790697
 21
9.682095438838359
 31
0.0
  0
LINE
  5
13E9
330
1380
100
AcDbEntity
  8
0
 62
     0
100
AcDbLine
 10
21.74610559449158
 20
5.218546642253755
 30
0.0
 11
20.34610559449157
 21
6.618546642253761
 31
0.0
  0
LINE
  5
13EA
330
1380
100
AcDbEntity
  8
0
 62
     0
100
AcDbLine
 10
16.32110559449159
 20
10.64354664225373
 30
0.0
 11
15.33965227538899
 21
11.62499996135633
 31
0.0
  0
LINE
  5
13EB
330
1380
100
AcDbEntity
  8
0
 62
     0
100
AcDbLine
 10
23.38965227538898
 20
3.574999961356354
 30
0.0
 11
23.05860559449158
 21
3.906046642253727
 31
0.0
  0
LINE
  5
13EC
330
1380
100
AcDbEntity
  8
0
 62
     0
100
AcDbLine
 10
18.23879372445412
 20
8.276845706237736
 30
0.0
 11
17.1747937244541
 21
9.340845706237757
 31
0.0
  0
LINE
  5
13ED
330
1380
100
AcDbEntity
  8
0
 62
     0
100
AcDbLine
 10
16.32110559449157
 20
10.19453383620026
 30
0.0
 11
14.98338313004276
 21
11.53225630064909
 31
0.0
  0
LINE
  5
13EE
330
1380
100
AcDbEntity
  8
0
 62
     0
100
AcDbLine
 10
21.74610559449155
 20
4.769533836200309
 30
0.0
 11
20.34610559449157
 21
6.169533836200287
 31
0.0
  0
LINE
  5
13EF
330
1380
100
AcDbEntity
  8
0
 62
     0
100
AcDbLine
 10
18.13103065100131
 20
7.935595973637134
 30
0.0
 11
17.06703065100131
 21
8.999595973637127
 31
0.0
  0
LINE
  5
13F0
330
1380
100
AcDbEntity
  8
0
 62
     0
100
AcDbLine
 10
16.32110559449159
 20
9.745521030146846
 30
0.0
 11
14.92110559449156
 21
11.14552103014685
 31
0.0
  0
LINE
  5
13F1
330
1380
100
AcDbEntity
  8
0
 62
     0
100
AcDbLine
 10
21.74610559449158
 20
4.320521030146863
 30
0.0
 11
20.34610559449157
 21
5.720521030146841
 31
0.0
  0
LINE
  5
13F2
330
1380
100
AcDbEntity
  8
0
 62
     0
100
AcDbLine
 10
18.02848639630536
 20
7.589127422279602
 30
0.0
 11
16.95926757754844
 21
8.658346241036525
 31
0.0
  0
LINE
  5
13F3
330
1380
100
AcDbEntity
  8
0
 62
     0
100
AcDbLine
 10
16.32110559449159
 20
9.296508224093372
 30
0.0
 11
14.92110559449156
 21
10.6965082240934
 31
0.0
  0
LINE
  5
13F4
330
1380
100
AcDbEntity
  8
0
 62
     0
100
AcDbLine
 10
21.74610559449155
 20
3.871508224093389
 30
0.0
 11
20.34610559449157
 21
5.271508224093395
 31
0.0
  0
LINE
  5
13F5
330
1380
100
AcDbEntity
  8
0
 62
     0
100
AcDbLine
 10
18.23572307602236
 20
6.932877936509129
 30
0.0
 11
16.81399382970613
 21
8.354607182825361
 31
0.0
  0
LINE
  5
13F6
330
1380
100
AcDbEntity
  8
0
 62
     0
100
AcDbLine
 10
16.32110559449162
 20
8.847495418039869
 30
0.0
 11
14.92110559449153
 21
10.24749541803993
 31
0.0
  0
LINE
  5
13F7
330
1380
100
AcDbEntity
  8
0
 62
     0
100
AcDbLine
 10
21.57658309582538
 20
3.592017916706083
 30
0.0
 11
20.3461055944916
 21
4.822495418039892
 31
0.0
  0
LINE
  5
13F8
330
1380
100
AcDbEntity
  8
0
 62
     0
100
AcDbLine
 10
18.44295975573939
 20
6.276628450738684
 30
0.0
 11
14.92110559449156
 21
9.798482611986514
 31
0.0
  0
LINE
  5
13F9
330
1380
100
AcDbEntity
  8
0
 62
     0
100
AcDbLine
 10
13.69610559449162
 20
11.02348261198645
 30
0.0
 11
13.09458824512174
 21
11.62499996135633
 31
0.0
  0
LINE
  5
13FA
330
1380
100
AcDbEntity
  8
0
 62
     0
100
AcDbLine
 10
21.14458824512172
 20
3.574999961356354
 30
0.0
 11
20.34610559449163
 21
4.373482611986446
 31
0.0
  0
LINE
  5
13FB
330
1380
100
AcDbEntity
  8
0
 62
     0
100
AcDbLine
 10
18.65019643545633
 20
5.620378964968239
 30
0.0
 11
14.92110559449156
 21
9.34946980593304
 31
0.0
  0
LINE
  5
13FC
330
1380
100
AcDbEntity
  8
0
 62
     0
100
AcDbLine
 10
13.69610559449162
 20
10.57446980593297
 30
0.0
 11
12.64557543906823
 21
11.62499996135636
 31
0.0
  0
LINE
  5
13FD
330
1380
100
AcDbEntity
  8
0
 62
     0
100
AcDbLine
 10
20.69557543906822
 20
3.574999961356382
 30
0.0
 11
20.3461055944916
 21
3.924469805933
 31
0.0
  0
LINE
  5
13FE
330
1380
100
AcDbEntity
  8
0
 62
     0
100
AcDbLine
 10
13.56265224679657
 20
10.25891034757455
 30
0.0
 11
12.21254138769086
 21
11.60902120668023
 31
0.0
  0
LINE
  5
13FF
330
1380
100
AcDbEntity
  8
0
 62
     0
100
AcDbLine
 10
18.8574331151733
 20
4.964129479197822
 30
0.0
 11
14.92110559449159
 21
8.900456999879537
 31
0.0
  0
LINE
  5
1400
330
1380
100
AcDbEntity
  8
0
 62
     0
100
AcDbLine
 10
16.4898600556624
 20
6.882689732655279
 30
0.0
 11
14.92110559449159
 21
8.451444193826091
 31
0.0
  0
LINE
  5
1401
330
1380
100
AcDbEntity
  8
0
 62
     0
100
AcDbLine
 10
13.14754982696135
 20
10.2249999613563
 30
0.0
 11
11.84351985289723
 21
11.52902993542045
 31
0.0
  0
LINE
  5
1402
330
1380
100
AcDbEntity
  8
0
 62
     0
100
AcDbLine
 10
19.0646697948903
 20
4.307879993427377
 30
0.0
 11
17.01851594873636
 21
6.35403383958129
 31
0.0
  0
LINE
  5
1403
330
1380
100
AcDbEntity
  8
0
 62
     0
100
AcDbLine
 10
16.32110559449162
 20
6.602431387772611
 30
0.0
 11
14.92110559449159
 21
8.002431387772645
 31
0.0
  0
LINE
  5
1404
330
1380
100
AcDbEntity
  8
0
 62
     0
100
AcDbLine
 10
12.69853702090784
 20
10.22499996135636
 30
0.0
 11
11.52415914498186
 21
11.39937783728234
 31
0.0
  0
LINE
  5
1405
330
1380
100
AcDbEntity
  8
0
 62
     0
100
AcDbLine
 10
19.18218922374561
 20
3.7413477585186
 30
0.0
 11
17.22575262845333
 21
5.697784353810902
 31
0.0
  0
LINE
  5
1406
330
1380
100
AcDbEntity
  8
0
 62
     0
100
AcDbLine
 10
16.32110559449159
 20
6.153418581719165
 30
0.0
 11
14.92110559449156
 21
7.553418581719171
 31
0.0
  0
LINE
  5
1407
330
1380
100
AcDbEntity
  8
0
 62
     0
100
AcDbLine
 10
12.27698026963608
 20
10.19754390657467
 30
0.0
 11
11.24478465731459
 21
11.22973951889616
 31
0.0
  0
LINE
  5
1408
330
1380
100
AcDbEntity
  8
0
 62
     0
100
AcDbLine
 10
18.89952421485443
 20
3.574999961356326
 30
0.0
 11
17.4329893081703
 21
5.041534868040457
 31
0.0
  0
LINE
  5
1409
330
1380
100
AcDbEntity
  8
0
 62
     0
100
AcDbLine
 10
16.32110559449159
 20
5.704405775665691
 30
0.0
 11
14.92110559449156
 21
7.104405775665725
 31
0.0
  0
LINE
  5
140A
330
1380
100
AcDbEntity
  8
0
 62
     0
100
AcDbLine
 10
11.99105217321658
 20
10.0344591969407
 30
0.0
 11
11.0009570530087
 21
11.02455431714858
 31
0.0
  0
LINE
  5
140B
330
1380
100
AcDbEntity
  8
0
 62
     0
100
AcDbLine
 10
18.45051140880096
 20
3.574999961356326
 30
0.0
 11
17.64022598788733
 21
4.385285382269955
 31
0.0
  0
LINE
  5
140C
330
1380
100
AcDbEntity
  8
0
 62
     0
100
AcDbLine
 10
13.86382016089046
 20
7.712678403213402
 30
0.0
 11
13.10878403634859
 21
8.467714527755276
 31
0.0
  0
LINE
  5
140D
330
1380
100
AcDbEntity
  8
0
 62
     0
100
AcDbLine
 10
16.32110559449165
 20
5.255392969612216
 30
0.0
 11
14.92110559449159
 21
6.655392969612279
 31
0.0
  0
LINE
  5
140E
330
1380
100
AcDbEntity
  8
0
 62
     0
100
AcDbLine
 10
11.81299138815211
 20
9.763507175951758
 30
0.0
 11
10.79127404000308
 21
10.78522452410078
 31
0.0
  0
LINE
  5
140F
330
1380
100
AcDbEntity
  8
0
 62
     0
100
AcDbLine
 10
17.9763321006452
 20
3.600166463458663
 30
0.0
 11
17.85115501484955
 21
3.725343549254318
 31
0.0
  0
LINE
  5
1410
330
1380
100
AcDbEntity
  8
0
 62
     0
100
AcDbLine
 10
13.82056333081951
 20
7.306922427230887
 30
0.0
 11
12.70302806036608
 21
8.424457697684317
 31
0.0
  0
LINE
  5
1411
330
1380
100
AcDbEntity
  8
0
 62
     0
100
AcDbLine
 10
11.77110559449164
 20
9.356380163558753
 30
0.0
 11
10.61680452952225
 21
10.51068122852814
 31
0.0
  0
LINE
  5
1412
330
1380
100
AcDbEntity
  8
0
 62
     0
100
AcDbLine
 10
16.32110559449162
 20
4.806380163558742
 30
0.0
 11
14.92110559449156
 21
6.206380163558833
 31
0.0
  0
LINE
  5
1413
330
1380
100
AcDbEntity
  8
0
 62
     0
100
AcDbLine
 10
13.65463555117048
 20
7.023837400826408
 30
0.0
 11
12.4199430339616
 21
8.258529918035293
 31
0.0
  0
LINE
  5
1414
330
1380
100
AcDbEntity
  8
0
 62
     0
100
AcDbLine
 10
11.77110559449164
 20
8.907367357505279
 30
0.0
 11
10.48151467591716
 21
10.19695827607975
 31
0.0
  0
LINE
  5
1415
330
1380
100
AcDbEntity
  8
0
 62
     0
100
AcDbLine
 10
16.32110559449162
 20
4.357367357505296
 30
0.0
 11
14.92110559449159
 21
5.75736735750533
 31
0.0
  0
LINE
  5
1416
330
1380
100
AcDbEntity
  8
0
 62
     0
100
AcDbLine
 10
11.77110559449164
 20
8.458354551451833
 30
0.0
 11
10.39415773945424
 21
9.835302406489262
 31
0.0
  0
LINE
  5
1417
330
1380
100
AcDbEntity
  8
0
 62
     0
100
AcDbLine
 10
13.40371883010226
 20
6.825741315841241
 30
0.0
 11
12.22184694897643
 21
8.007613196967071
 31
0.0
  0
LINE
  5
1418
330
1380
100
AcDbEntity
  8
0
 62
     0
100
AcDbLine
 10
9.058605594491609
 20
11.17085455145189
 30
0.0
 11
8.604460184587111
 21
11.62499996135639
 31
0.0
  0
LINE
  5
1419
330
1380
100
AcDbEntity
  8
0
 62
     0
100
AcDbLine
 10
16.32110559449165
 20
3.90835455145185
 30
0.0
 11
14.92110559449162
 21
5.308354551451884
 31
0.0
  0
LINE
  5
141A
330
1380
100
AcDbEntity
  8
0
 62
     0
100
AcDbLine
 10
11.77110559449164
 20
8.009341745398387
 30
0.0
 11
10.3711055944916
 21
9.409341745398421
 31
0.0
  0
LINE
  5
141B
330
1380
100
AcDbEntity
  8
0
 62
     0
100
AcDbLine
 10
13.05355910888855
 20
6.726888231001481
 30
0.0
 11
12.12299386413667
 21
7.657453475753356
 31
0.0
  0
LINE
  5
141C
330
1380
100
AcDbEntity
  8
0
 62
     0
100
AcDbLine
 10
9.058605594491581
 20
10.72184174539842
 30
0.0
 11
8.155447378533636
 21
11.62499996135636
 31
0.0
  0
LINE
  5
141D
330
1380
100
AcDbEntity
  8
0
 62
     0
100
AcDbLine
 10
16.17715369385629
 20
3.603293646033733
 30
0.0
 11
14.92110559449159
 21
4.85934174539841
 31
0.0
  0
LINE
  5
141E
330
1380
100
AcDbEntity
  8
0
 62
     0
100
AcDbLine
 10
11.77110559449164
 20
7.560328939344913
 30
0.0
 11
10.3711055944916
 21
8.960328939344947
 31
0.0
  0
LINE
  5
141F
330
1380
100
AcDbEntity
  8
0
 62
     0
100
AcDbLine
 10
9.004088609356415
 20
10.32734592448014
 30
0.0
 11
7.706434572480134
 21
11.62499996135639
 31
0.0
  0
LINE
  5
1420
330
1380
100
AcDbEntity
  8
0
 62
     0
100
AcDbLine
 10
15.7564345724802
 20
3.574999961356354
 30
0.0
 11
14.92110559449159
 21
4.410328939344964
 31
0.0
  0
LINE
  5
1421
330
1380
100
AcDbEntity
  8
0
 62
     0
100
AcDbLine
 10
11.77110559449161
 20
7.111316133291467
 30
0.0
 11
10.37110559449158
 21
8.511316133291472
 31
0.0
  0
LINE
  5
1422
330
1380
100
AcDbEntity
  8
0
 62
     0
100
AcDbLine
 10
8.657421766426722
 20
10.22499996135636
 30
0.0
 11
7.257421766426688
 21
11.62499996135639
 31
0.0
  0
LINE
  5
1423
330
1380
100
AcDbEntity
  8
0
 62
     0
100
AcDbLine
 10
15.30742176642672
 20
3.574999961356326
 30
0.0
 11
14.92110559449159
 21
3.961316133291489
 31
0.0
  0
LINE
  5
1424
330
1380
100
AcDbEntity
  8
0
 62
     0
100
AcDbLine
 10
11.77110559449167
 20
6.662303327237992
 30
0.0
 11
10.3711055944916
 21
8.062303327238055
 31
0.0
  0
LINE
  5
1425
330
1380
100
AcDbEntity
  8
0
 62
     0
100
AcDbLine
 10
8.208408960373276
 20
10.22499996135638
 30
0.0
 11
6.825844324320854
 21
11.60756459740881
 31
0.0
  0
LINE
  5
1426
330
1380
100
AcDbEntity
  8
0
 62
     0
100
AcDbLine
 10
13.69480437007314
 20
4.738604551656493
 30
0.0
 11
13.45971018479178
 21
4.973698736937876
 31
0.0
  0
LINE
  5
1427
330
1380
100
AcDbEntity
  8
0
 62
     0
100
AcDbLine
 10
11.77110559449167
 20
6.213290521184518
 30
0.0
 11
10.3711055944916
 21
7.61329052118458
 31
0.0
  0
LINE
  5
1428
330
1380
100
AcDbEntity
  8
0
 62
     0
100
AcDbLine
 10
7.759396154319802
 20
10.22499996135636
 30
0.0
 11
6.479276920081616
 21
11.50511919559457
 31
0.0
  0
LINE
  5
1429
330
1380
100
AcDbEntity
  8
0
 62
     0
100
AcDbLine
 10
13.69610559449165
 20
4.288290521184535
 30
0.0
 11
13.00939615431983
 21
4.97499996135636
 31
0.0
  0
LINE
  5
142A
330
1380
100
AcDbEntity
  8
0
 62
     0
100
AcDbLine
 10
11.77110559449164
 20
5.764277715131044
 30
0.0
 11
10.37110559449163
 21
7.164277715131078
 31
0.0
  0
LINE
  5
142B
330
1380
100
AcDbEntity
  8
0
 62
     0
100
AcDbLine
 10
7.310383348266384
 20
10.2249999613563
 30
0.0
 11
6.197153590157995
 21
11.33822971946469
 31
0.0
  0
LINE
  5
142C
330
1380
100
AcDbEntity
  8
0
 62
     0
100
AcDbLine
 10
13.69610559449162
 20
3.839277715131061
 30
0.0
 11
12.56038334826638
 21
4.974999961356303
 31
0.0
  0
LINE
  5
142D
330
1380
100
AcDbEntity
  8
0
 62
     0
100
AcDbLine
 10
7.055236934459088
 20
10.03113356911021
 30
0.0
 11
5.96810718403762
 21
11.11826331953167
 31
0.0
  0
LINE
  5
142E
330
1380
100
AcDbEntity
  8
0
 62
     0
100
AcDbLine
 10
13.50223920224544
 20
3.58413130132385
 30
0.0
 11
10.37110559449163
 21
6.71526490907766
 31
0.0
  0
LINE
  5
142F
330
1380
100
AcDbEntity
  8
0
 62
     0
100
AcDbLine
 10
7.046105594491621
 20
9.591252103024203
 30
0.0
 11
5.791366582803078
 21
10.84599111471274
 31
0.0
  0
LINE
  5
1430
330
1380
100
AcDbEntity
  8
0
 62
     0
100
AcDbLine
 10
13.0623577361595
 20
3.574999961356326
 30
0.0
 11
10.37110559449163
 21
6.266252103024186
 31
0.0
  0
LINE
  5
1431
330
1380
100
AcDbEntity
  8
0
 62
     0
100
AcDbLine
 10
7.077173448559335
 20
9.111171442902985
 30
0.0
 11
5.675926531656216
 21
10.51241835980613
 31
0.0
  0
LINE
  5
1432
330
1380
100
AcDbEntity
  8
0
 62
     0
100
AcDbLine
 10
12.61334493010599
 20
3.574999961356354
 30
0.0
 11
10.3711055944916
 21
5.817239296970711
 31
0.0
  0
LINE
  5
1433
330
1380
100
AcDbEntity
  8
0
 62
     0
100
AcDbLine
 10
9.223293640102951
 20
6.516038445305952
 30
0.0
 11
5.646105594491643
 21
10.09322649091725
 31
0.0
  0
LINE
  5
1434
330
1380
100
AcDbEntity
  8
0
 62
     0
100
AcDbLine
 10
12.13769608052422
 20
3.601636004884682
 30
0.0
 11
10.39774163801993
 21
5.341590447388966
 31
0.0
  0
LINE
  5
1435
330
1380
100
AcDbEntity
  8
0
 62
     0
100
AcDbLine
 10
9.319240897145562
 20
5.971078382209896
 30
0.0
 11
5.646105594491586
 21
9.644213684863871
 31
0.0
  0
LINE
  5
1436
330
1380
100
AcDbEntity
  8
0
 62
     0
100
AcDbLine
 10
11.45079212422342
 20
3.839527155132003
 30
0.0
 11
10.63563278826723
 21
4.654686491088227
 31
0.0
  0
LINE
  5
1437
330
1380
100
AcDbEntity
  8
0
 62
     0
100
AcDbLine
 10
9.321105594491655
 20
5.520200878810328
 30
0.0
 11
5.649887818202785
 21
9.19141865509917
 31
0.0
  0
LINE
  5
1438
330
1380
100
AcDbEntity
  8
0
 62
     0
100
AcDbLine
 10
9.321105594491598
 20
5.07118807275691
 30
0.0
 11
5.761533197364713
 21
8.630760469883767
 31
0.0
  0
LINE
  5
1439
330
1380
100
AcDbEntity
  8
0
 62
     0
100
AcDbLine
 10
9.28484559642564
 20
4.658435264769451
 30
0.0
 11
7.90314977461611
 21
6.040131086578981
 31
0.0
  0
LINE
  5
143A
330
1380
100
AcDbEntity
  8
0
 62
     0
100
AcDbLine
 10
9.163876626911218
 20
4.330391428230399
 30
0.0
 11
7.921105594491592
 21
5.573162460650024
 31
0.0
  0
LINE
  5
143B
330
1380
100
AcDbEntity
  8
0
 62
     0
100
AcDbLine
 10
8.982817003220333
 20
4.062438245867809
 30
0.0
 11
7.903156078341254
 21
5.142099170746888
 31
0.0
  0
LINE
  5
143C
330
1380
100
AcDbEntity
  8
0
 62
     0
100
AcDbLine
 10
8.749703817086896
 20
3.8465386259478
 30
0.0
 11
7.621242481678336
 21
4.974999961356388
 31
0.0
  0
LINE
  5
143D
330
1380
100
AcDbEntity
  8
0
 62
     0
100
AcDbLine
 10
8.46307159322049
 20
3.68415804376076
 30
0.0
 11
7.172229675624862
 21
4.97499996135636
 31
0.0
  0
LINE
  5
143E
330
1380
100
AcDbEntity
  8
0
 62
     0
100
AcDbLine
 10
8.110365298677521
 20
3.587851532250255
 30
0.0
 11
6.723216869571416
 21
4.97499996135636
 31
0.0
  0
LINE
  5
143F
330
1380
100
AcDbEntity
  8
0
 62
     0
100
AcDbLine
 10
7.674204063517947
 20
3.574999961356354
 30
0.0
 11
6.274204063517942
 21
4.97499996135636
 31
0.0
  0
LINE
  5
1440
330
1380
100
AcDbEntity
  8
0
 62
     0
100
AcDbLine
 10
7.22519125746453
 20
3.574999961356326
 30
0.0
 11
5.94852931005559
 21
4.851661908765294
 31
0.0
  0
LINE
  5
1441
330
1380
100
AcDbEntity
  8
0
 62
     0
100
AcDbLine
 10
6.776178451411027
 20
3.574999961356354
 30
0.0
 11
5.908605594491632
 21
4.442572818275749
 31
0.0
  0
LINE
  5
1442
330
1380
100
AcDbEntity
  8
0
 62
     0
100
AcDbLine
 10
6.327165645357609
 20
3.574999961356326
 30
0.0
 11
5.908605594491632
 21
3.993560012222303
 31
0.0
  0
LINE
  5
1443
330
1380
100
AcDbEntity
  8
0
 62
     0
100
AcDbLine
 10
34.31694923682508
 20
3.581565849915108
 30
0.0
 11
34.51453970593297
 21
3.779156319023002
 31
0.0
  0
LINE
  5
1444
330
1380
100
AcDbEntity
  8
0
 62
     0
100
AcDbLine
 10
33.86137054221291
 20
3.574999961356326
 30
0.0
 11
34.5211055944917
 21
4.234735013635145
 31
0.0
  0
LINE
  5
1445
330
1380
100
AcDbEntity
  8
0
 62
     0
100
AcDbLine
 10
33.41235773615943
 20
3.574999961356354
 30
0.0
 11
34.5211055944917
 21
4.683747819688591
 31
0.0
  0
LINE
  5
1446
330
1380
100
AcDbEntity
  8
0
 62
     0
100
AcDbLine
 10
33.13670437611753
 20
3.7483594073679
 30
0.0
 11
34.52110559449167
 21
5.132760625742065
 31
0.0
  0
LINE
  5
1447
330
1380
100
AcDbEntity
  8
0
 62
     0
100
AcDbLine
 10
33.12110559449163
 20
4.181773431795477
 30
0.0
 11
34.52110559449167
 21
5.581773431795483
 31
0.0
  0
LINE
  5
1448
330
1380
100
AcDbEntity
  8
0
 62
     0
100
AcDbLine
 10
33.12110559449166
 20
4.630786237848923
 30
0.0
 11
34.52110559449167
 21
6.030786237848957
 31
0.0
  0
LINE
  5
1449
330
1380
100
AcDbEntity
  8
0
 62
     0
100
AcDbLine
 10
33.12110559449163
 20
5.079799043902397
 30
0.0
 11
34.52110559449167
 21
6.479799043902431
 31
0.0
  0
LINE
  5
144A
330
1380
100
AcDbEntity
  8
0
 62
     0
100
AcDbLine
 10
33.12110559449163
 20
5.528811849955843
 30
0.0
 11
34.52110559449167
 21
6.928811849955877
 31
0.0
  0
LINE
  5
144B
330
1380
100
AcDbEntity
  8
0
 62
     0
100
AcDbLine
 10
31.33438802552428
 20
3.742094280988482
 30
0.0
 11
31.90401127485955
 21
4.31171753032379
 31
0.0
  0
LINE
  5
144C
330
1380
100
AcDbEntity
  8
0
 62
     0
100
AcDbLine
 10
33.12110559449163
 20
5.977824656009289
 30
0.0
 11
34.52110559449167
 21
7.377824656009323
 31
0.0
  0
LINE
  5
144D
330
1380
100
AcDbEntity
  8
0
 62
     0
100
AcDbLine
 10
30.71910394226287
 20
3.575823003780527
 30
0.0
 11
32.07028255206754
 21
4.927001613585161
 31
0.0
  0
LINE
  5
144E
330
1380
100
AcDbEntity
  8
0
 62
     0
100
AcDbLine
 10
33.12110559449163
 20
6.426837462062763
 30
0.0
 11
34.52110559449167
 21
7.826837462062769
 31
0.0
  0
LINE
  5
144F
330
1380
100
AcDbEntity
  8
0
 62
     0
100
AcDbLine
 10
30.26926809378525
 20
3.574999961356382
 30
0.0
 11
32.07110559449168
 21
5.376837462062781
 31
0.0
  0
LINE
  5
1450
330
1380
100
AcDbEntity
  8
0
 62
     0
100
AcDbLine
 10
33.12110559449163
 20
6.875850268116209
 30
0.0
 11
34.52110559449164
 21
8.275850268116244
 31
0.0
  0
LINE
  5
1451
330
1380
100
AcDbEntity
  8
0
 62
     0
100
AcDbLine
 10
29.82025528773178
 20
3.574999961356382
 30
0.0
 11
32.07110559449165
 21
5.825850268116255
 31
0.0
  0
LINE
  5
1452
330
1380
100
AcDbEntity
  8
0
 62
     0
100
AcDbLine
 10
33.12110559449163
 20
7.324863074169655
 30
0.0
 11
34.52110559449167
 21
8.724863074169689
 31
0.0
  0
LINE
  5
1453
330
1380
100
AcDbEntity
  8
0
 62
     0
100
AcDbLine
 10
29.37124248167831
 20
3.574999961356326
 30
0.0
 11
32.07110559449168
 21
6.274863074169701
 31
0.0
  0
LINE
  5
1454
330
1380
100
AcDbEntity
  8
0
 62
     0
100
AcDbLine
 10
30.61880999345112
 20
5.271580279182614
 30
0.0
 11
32.07110559449168
 21
6.723875880223147
 31
0.0
  0
LINE
  5
1455
330
1380
100
AcDbEntity
  8
0
 62
     0
100
AcDbLine
 10
33.12110559449163
 20
7.773875880223101
 30
0.0
 11
34.52110559449167
 21
9.173875880223135
 31
0.0
  0
LINE
  5
1456
330
1380
100
AcDbEntity
  8
0
 62
     0
100
AcDbLine
 10
28.92222967562489
 20
3.574999961356382
 30
0.0
 11
30.37452527666536
 21
5.02729556239683
 31
0.0
  0
LINE
  5
1457
330
1380
100
AcDbEntity
  8
0
 62
     0
100
AcDbLine
 10
30.67110559449159
 20
5.772888686276559
 30
0.0
 11
32.07110559449165
 21
7.172888686276621
 31
0.0
  0
LINE
  5
1458
330
1380
100
AcDbEntity
  8
0
 62
     0
100
AcDbLine
 10
33.12110559449161
 20
8.222888686276576
 30
0.0
 11
34.52110559449164
 21
9.62288868627661
 31
0.0
  0
LINE
  5
1459
330
1380
100
AcDbEntity
  8
0
 62
     0
100
AcDbLine
 10
28.52919174525996
 20
3.630974837044902
 30
0.0
 11
29.87321686957142
 21
4.974999961356388
 31
0.0
  0
LINE
  5
145A
330
1380
100
AcDbEntity
  8
0
 62
     0
100
AcDbLine
 10
30.67110559449159
 20
6.221901492330005
 30
0.0
 11
32.07110559449165
 21
7.621901492330067
 31
0.0
  0
LINE
  5
145B
330
1380
100
AcDbEntity
  8
0
 62
     0
100
AcDbLine
 10
33.12110559449161
 20
8.67190149233005
 30
0.0
 11
34.52110559449164
 21
10.07190149233005
 31
0.0
  0
LINE
  5
145C
330
1380
100
AcDbEntity
  8
0
 62
     0
100
AcDbLine
 10
28.21519831165488
 20
3.765994209493328
 30
0.0
 11
29.4246429563401
 21
4.975438854178548
 31
0.0
  0
LINE
  5
145D
330
1380
100
AcDbEntity
  8
0
 62
     0
100
AcDbLine
 10
30.67110559449159
 20
6.670914298383451
 30
0.0
 11
32.07110559449165
 21
8.070914298383513
 31
0.0
  0
LINE
  5
145E
330
1380
100
AcDbEntity
  8
0
 62
     0
100
AcDbLine
 10
33.12110559449163
 20
9.120914298383468
 30
0.0
 11
34.52110559449164
 21
10.5209142983835
 31
0.0
  0
LINE
  5
145F
330
1380
100
AcDbEntity
  8
0
 62
     0
100
AcDbLine
 10
27.95856837097236
 20
3.958377074864188
 30
0.0
 11
29.10290366198376
 21
5.102712365875618
 31
0.0
  0
LINE
  5
1460
330
1380
100
AcDbEntity
  8
0
 62
     0
100
AcDbLine
 10
30.67110559449159
 20
7.119927104436897
 30
0.0
 11
32.07110559449165
 21
8.519927104436987
 31
0.0
  0
LINE
  5
1461
330
1380
100
AcDbEntity
  8
0
 62
     0
100
AcDbLine
 10
33.12110559449161
 20
9.569927104436942
 30
0.0
 11
34.52110559449164
 21
10.96992710443697
 31
0.0
  0
LINE
  5
1462
330
1380
100
AcDbEntity
  8
0
 62
     0
100
AcDbLine
 10
27.75358628335979
 20
4.202407793305098
 30
0.0
 11
28.93428452277905
 21
5.383106032724384
 31
0.0
  0
LINE
  5
1463
330
1380
100
AcDbEntity
  8
0
 62
     0
100
AcDbLine
 10
30.67110559449156
 20
7.568939910490371
 30
0.0
 11
32.07110559449165
 21
8.968939910490433
 31
0.0
  0
LINE
  5
1464
330
1380
100
AcDbEntity
  8
0
 62
     0
100
AcDbLine
 10
33.12110559449161
 20
10.01893991049038
 30
0.0
 11
34.51603101771641
 21
11.41386533371522
 31
0.0
  0
LINE
  5
1465
330
1380
100
AcDbEntity
  8
0
 62
     0
100
AcDbLine
 10
27.60362384414278
 20
4.501458160141595
 30
0.0
 11
28.92110559449159
 21
5.818939910490399
 31
0.0
  0
LINE
  5
1466
330
1380
100
AcDbEntity
  8
0
 62
     0
100
AcDbLine
 10
30.67110559449162
 20
8.017952716543845
 30
0.0
 11
32.07110559449165
 21
9.417952716543879
 31
0.0
  0
LINE
  5
1467
330
1380
100
AcDbEntity
  8
0
 62
     0
100
AcDbLine
 10
33.12110559449161
 20
10.46795271654383
 30
0.0
 11
34.27747384517667
 21
11.62432096722889
 31
0.0
  0
LINE
  5
1468
330
1380
100
AcDbEntity
  8
0
 62
     0
100
AcDbLine
 10
27.52491707666456
 20
4.871764198716789
 30
0.0
 11
28.92110559449162
 21
6.267952716543845
 31
0.0
  0
LINE
  5
1469
330
1380
100
AcDbEntity
  8
0
 62
     0
100
AcDbLine
 10
30.67110559449162
 20
8.46696552259732
 30
0.0
 11
32.07110559449165
 21
9.866965522597325
 31
0.0
  0
LINE
  5
146A
330
1380
100
AcDbEntity
  8
0
 62
     0
100
AcDbLine
 10
33.12110559449163
 20
10.91696552259733
 30
0.0
 11
33.82914003325064
 21
11.62499996135633
 31
0.0
  0
LINE
  5
146B
330
1380
100
AcDbEntity
  8
0
 62
     0
100
AcDbLine
 10
27.52110559449167
 20
5.316965522597342
 30
0.0
 11
28.92110559449164
 21
6.716965522597348
 31
0.0
  0
LINE
  5
146C
330
1380
100
AcDbEntity
  8
0
 62
     0
100
AcDbLine
 10
30.67110559449162
 20
8.915978328650766
 30
0.0
 11
32.07110559449162
 21
10.3159783286508
 31
0.0
  0
LINE
  5
146D
330
1380
100
AcDbEntity
  8
0
 62
     0
100
AcDbLine
 10
27.52110559449164
 20
5.765978328650817
 30
0.0
 11
28.92110559449162
 21
7.165978328650794
 31
0.0
  0
LINE
  5
146E
330
1380
100
AcDbEntity
  8
0
 62
     0
100
AcDbLine
 10
33.12112895186535
 20
11.36600168602453
 30
0.0
 11
33.3801038698235
 21
11.62497660398264
 31
0.0
  0
LINE
  5
146F
330
1380
100
AcDbEntity
  8
0
 62
     0
100
AcDbLine
 10
25.36032777913564
 20
3.605200513294789
 30
0.0
 11
26.44090504255322
 21
4.685777776712399
 31
0.0
  0
LINE
  5
1470
330
1380
100
AcDbEntity
  8
0
 62
     0
100
AcDbLine
 10
27.52110559449164
 20
6.214991134704263
 30
0.0
 11
28.92110559449162
 21
7.614991134704268
 31
0.0
  0
LINE
  5
1471
330
1380
100
AcDbEntity
  8
0
 62
     0
100
AcDbLine
 10
30.67110559449159
 20
9.36499113470424
 30
0.0
 11
32.07110559449162
 21
10.76499113470427
 31
0.0
  0
LINE
  5
1472
330
1380
100
AcDbEntity
  8
0
 62
     0
100
AcDbLine
 10
24.88111442114373
 20
3.574999961356382
 30
0.0
 11
26.4711055944916
 21
5.164991134704223
 31
0.0
  0
LINE
  5
1473
330
1380
100
AcDbEntity
  8
0
 62
     0
100
AcDbLine
 10
27.52110559449164
 20
6.664003940757709
 30
0.0
 11
28.92110559449164
 21
8.064003940757686
 31
0.0
  0
LINE
  5
1474
330
1380
100
AcDbEntity
  8
0
 62
     0
100
AcDbLine
 10
30.67110559449162
 20
9.814003940757658
 30
0.0
 11
32.07110559449165
 21
11.21400394075769
 31
0.0
  0
LINE
  5
1475
330
1380
100
AcDbEntity
  8
0
 62
     0
100
AcDbLine
 10
24.43210161509026
 20
3.574999961356326
 30
0.0
 11
26.47110559449166
 21
5.614003940757697
 31
0.0
  0
LINE
  5
1476
330
1380
100
AcDbEntity
  8
0
 62
     0
100
AcDbLine
 10
27.52110559449164
 20
7.113016746811183
 30
0.0
 11
28.92110559449162
 21
8.51301674681116
 31
0.0
  0
LINE
  5
1477
330
1380
100
AcDbEntity
  8
0
 62
     0
100
AcDbLine
 10
30.67110559449159
 20
10.26301674681113
 30
0.0
 11
31.97423686707461
 21
11.56614801939414
 31
0.0
  0
LINE
  5
1478
330
1380
100
AcDbEntity
  8
0
 62
     0
100
AcDbLine
 10
23.98308880903681
 20
3.574999961356354
 30
0.0
 11
26.46394629428516
 21
6.055857446604704
 31
0.0
  0
LINE
  5
1479
330
1380
100
AcDbEntity
  8
0
 62
     0
100
AcDbLine
 10
27.52110559449164
 20
7.562029552864629
 30
0.0
 11
28.92110559449162
 21
8.962029552864635
 31
0.0
  0
LINE
  5
147A
330
1380
100
AcDbEntity
  8
0
 62
     0
100
AcDbLine
 10
30.67110559449159
 20
10.7120295528646
 30
0.0
 11
31.58407600298335
 21
11.62499996135636
 31
0.0
  0
LINE
  5
147B
330
1380
100
AcDbEntity
  8
0
 62
     0
100
AcDbLine
 10
23.53407600298333
 20
3.574999961356354
 30
0.0
 11
26.39649010897079
 21
6.43741406734378
 31
0.0
  0
LINE
  5
147C
330
1380
100
AcDbEntity
  8
0
 62
     0
100
AcDbLine
 10
27.52110559449164
 20
8.011042358918075
 30
0.0
 11
28.92110559449162
 21
9.411042358918052
 31
0.0
  0
LINE
  5
147D
330
1380
100
AcDbEntity
  8
0
 62
     0
100
AcDbLine
 10
25.07110559449165
 20
5.561042358918086
 30
0.0
 11
26.27619638051152
 21
6.766133144937924
 31
0.0
  0
LINE
  5
147E
330
1380
100
AcDbEntity
  8
0
 62
     0
100
AcDbLine
 10
30.67110559449162
 20
11.16104235891802
 30
0.0
 11
31.13506319692996
 21
11.62499996135639
 31
0.0
  0
LINE
  5
147F
330
1380
100
AcDbEntity
  8
0
 62
     0
100
AcDbLine
 10
23.14919087349545
 20
3.639127637921887
 30
0.0
 11
24.4850631969299
 21
4.974999961356331
 31
0.0
  0
LINE
  5
1480
330
1380
100
AcDbEntity
  8
0
 62
     0
100
AcDbLine
 10
25.061170306928
 20
6.000119877407882
 30
0.0
 11
26.11444672808124
 21
7.053396298561125
 31
0.0
  0
LINE
  5
1481
330
1380
100
AcDbEntity
  8
0
 62
     0
100
AcDbLine
 10
27.52110559449164
 20
8.460055164971521
 30
0.0
 11
28.92110559449164
 21
9.860055164971555
 31
0.0
  0
LINE
  5
1482
330
1380
100
AcDbEntity
  8
0
 62
     0
100
AcDbLine
 10
23.05860559449161
 20
3.997555164971515
 30
0.0
 11
24.03605039087642
 21
4.974999961356331
 31
0.0
  0
LINE
  5
1483
330
1380
100
AcDbEntity
  8
0
 62
     0
100
AcDbLine
 10
24.92397788835856
 20
6.311940264891944
 30
0.0
 11
25.91651116911734
 21
7.304473545650722
 31
0.0
  0
LINE
  5
1484
330
1380
100
AcDbEntity
  8
0
 62
     0
100
AcDbLine
 10
27.52110559449161
 20
8.909067971024995
 30
0.0
 11
28.92110559449164
 21
10.30906797102502
 31
0.0
  0
LINE
  5
1485
330
1380
100
AcDbEntity
  8
0
 62
     0
100
AcDbLine
 10
23.05860559449161
 20
4.446567971024961
 30
0.0
 11
23.58703758482298
 21
4.97499996135636
 31
0.0
  0
LINE
  5
1486
330
1380
100
AcDbEntity
  8
0
 62
     0
100
AcDbLine
 10
27.52110559449164
 20
9.358080777078441
 30
0.0
 11
28.92110559449168
 21
10.75808077707844
 31
0.0
  0
LINE
  5
1487
330
1380
100
AcDbEntity
  8
0
 62
     0
100
AcDbLine
 10
24.70334043980003
 20
6.540315622386799
 30
0.0
 11
25.69328993346121
 21
7.530265116048013
 31
0.0
  0
LINE
  5
1488
330
1380
100
AcDbEntity
  8
0
 62
     0
100
AcDbLine
 10
24.47883403677329
 20
6.764822025413536
 30
0.0
 11
25.46878353043445
 21
7.754771519074694
 31
0.0
  0
LINE
  5
1489
330
1380
100
AcDbEntity
  8
0
 62
     0
100
AcDbLine
 10
27.52110559449161
 20
9.807093583131887
 30
0.0
 11
28.92110559449164
 21
11.20709358313192
 31
0.0
  0
LINE
  5
148A
330
1380
100
AcDbEntity
  8
0
 62
     0
100
AcDbLine
 10
21.28901197271608
 20
3.574999961356354
 30
0.0
 11
21.74610559449163
 21
4.032093583131882
 31
0.0
  0
LINE
  5
148B
330
1380
100
AcDbEntity
  8
0
 62
     0
100
AcDbLine
 10
24.25432763374658
 20
6.98932842844033
 30
0.0
 11
25.24427712740771
 21
7.979277922101431
 31
0.0
  0
LINE
  5
148C
330
1380
100
AcDbEntity
  8
0
 62
     0
100
AcDbLine
 10
27.52110559449161
 20
10.25610638918536
 30
0.0
 11
28.82801514044231
 21
11.56301593513603
 31
0.0
  0
LINE
  5
148D
330
1380
100
AcDbEntity
  8
0
 62
     0
100
AcDbLine
 10
20.83999916666257
 20
3.574999961356326
 30
0.0
 11
21.74610559449161
 21
4.481106389185356
 31
0.0
  0
LINE
  5
148E
330
1380
100
AcDbEntity
  8
0
 62
     0
100
AcDbLine
 10
24.02982123071982
 20
7.213834831467011
 30
0.0
 11
25.01977072438097
 21
8.203784325128168
 31
0.0
  0
LINE
  5
148F
330
1380
100
AcDbEntity
  8
0
 62
     0
100
AcDbLine
 10
27.52110559449161
 20
10.7051191952388
 30
0.0
 11
28.44098636060917
 21
11.62499996135639
 31
0.0
  0
LINE
  5
1490
330
1380
100
AcDbEntity
  8
0
 62
     0
100
AcDbLine
 10
20.44679192954012
 20
3.630805530287318
 30
0.0
 11
21.74610559449163
 21
4.930119195238859
 31
0.0
  0
LINE
  5
1491
330
1380
100
AcDbEntity
  8
0
 62
     0
100
AcDbLine
 10
23.80531482769311
 20
7.438341234493719
 30
0.0
 11
24.79526432135426
 21
8.428290728154877
 31
0.0
  0
LINE
  5
1492
330
1380
100
AcDbEntity
  8
0
 62
     0
100
AcDbLine
 10
27.52110559449161
 20
11.15413200129225
 30
0.0
 11
27.99197355455575
 21
11.62499996135636
 31
0.0
  0
LINE
  5
1493
330
1380
100
AcDbEntity
  8
0
 62
     0
100
AcDbLine
 10
20.34610559449166
 20
3.979132001292299
 30
0.0
 11
21.74610559449166
 21
5.379132001292276
 31
0.0
  0
LINE
  5
1494
330
1380
100
AcDbEntity
  8
0
 62
     0
100
AcDbLine
 10
23.58080842466637
 20
7.662847637520457
 30
0.0
 11
24.57075791832753
 21
8.652797131181614
 31
0.0
  0
LINE
  5
1495
330
1380
100
AcDbEntity
  8
0
 62
     0
100
AcDbLine
 10
20.34610559449166
 20
4.428144807345773
 30
0.0
 11
21.74610559449163
 21
5.828144807345751
 31
0.0
  0
LINE
  5
1496
330
1380
100
AcDbEntity
  8
0
 62
     0
100
AcDbLine
 10
23.3573164741457
 20
7.888368493053292
 30
0.0
 11
24.34930324083671
 21
8.880355259744277
 31
0.0
  0
LINE
  5
1497
330
1380
100
AcDbEntity
  8
0
 62
     0
100
AcDbLine
 10
20.34610559449166
 20
4.877157613399219
 30
0.0
 11
21.74610559449163
 21
6.277157613399225
 31
0.0
  0
LINE
  5
1498
330
1380
100
AcDbEntity
  8
0
 62
     0
100
AcDbLine
 10
25.6939479424488
 20
10.22499996135636
 30
0.0
 11
26.20860559449167
 21
10.73965761339923
 31
0.0
  0
LINE
  5
1499
330
1380
100
AcDbEntity
  8
0
 62
     0
100
AcDbLine
 10
19.09977748213654
 20
3.630829501044104
 30
0.0
 11
19.14460366286405
 21
3.675655681771644
 31
0.0
  0
LINE
  5
149A
330
1380
100
AcDbEntity
  8
0
 62
     0
100
AcDbLine
 10
23.15831538473472
 20
8.138380209695725
 30
0.0
 11
24.20813252344402
 21
9.188197348405026
 31
0.0
  0
LINE
  5
149B
330
1380
100
AcDbEntity
  8
0
 62
     0
100
AcDbLine
 10
20.34610559449166
 20
5.326170419452665
 30
0.0
 11
21.74610559449166
 21
6.726170419452643
 31
0.0
  0
LINE
  5
149C
330
1380
100
AcDbEntity
  8
0
 62
     0
100
AcDbLine
 10
25.24493513639535
 20
10.22499996135636
 30
0.0
 11
26.20860559449164
 21
11.18867041945261
 31
0.0
  0
LINE
  5
149D
330
1380
100
AcDbEntity
  8
0
 62
     0
100
AcDbLine
 10
18.59493513639532
 20
3.574999961356326
 30
0.0
 11
19.12782468454855
 21
4.107889509509533
 31
0.0
  0
LINE
  5
149E
330
1380
100
AcDbEntity
  8
0
 62
     0
100
AcDbLine
 10
22.99539825253637
 20
8.424475883550854
 30
0.0
 11
24.19610559449168
 21
9.625183225506134
 31
0.0
  0
LINE
  5
149F
330
1380
100
AcDbEntity
  8
0
 62
     0
100
AcDbLine
 10
20.34610559449166
 20
5.775183225506111
 30
0.0
 11
21.74610559449163
 21
7.175183225506117
 31
0.0
  0
LINE
  5
14A0
330
1380
100
AcDbEntity
  8
0
 62
     0
100
AcDbLine
 10
24.79592233034191
 20
10.22499996135636
 30
0.0
 11
26.12527112859271
 21
11.55434875960719
 31
0.0
  0
LINE
  5
14A1
330
1380
100
AcDbEntity
  8
0
 62
     0
100
AcDbLine
 10
18.14592233034187
 20
3.574999961356326
 30
0.0
 11
19.02006161109574
 21
4.44913924211022
 31
0.0
  0
LINE
  5
14A2
330
1380
100
AcDbEntity
  8
0
 62
     0
100
AcDbLine
 10
20.34610559449163
 20
6.224196031559586
 30
0.0
 11
21.74610559449163
 21
7.624196031559563
 31
0.0
  0
LINE
  5
14A3
330
1380
100
AcDbEntity
  8
0
 62
     0
100
AcDbLine
 10
22.87370722120133
 20
8.751797658269282
 30
0.0
 11
25.74690952428847
 21
11.62499996135639
 31
0.0
  0
LINE
  5
14A4
330
1380
100
AcDbEntity
  8
0
 62
     0
100
AcDbLine
 10
17.84991517501433
 20
3.728005612082284
 30
0.0
 11
18.91229853764289
 21
4.79038897471085
 31
0.0
  0
LINE
  5
14A5
330
1380
100
AcDbEntity
  8
0
 62
     0
100
AcDbLine
 10
20.34610559449163
 20
6.67320883761306
 30
0.0
 11
21.74610559449161
 21
8.073208837613037
 31
0.0
  0
LINE
  5
14A6
330
1380
100
AcDbEntity
  8
0
 62
     0
100
AcDbLine
 10
22.80435379165848
 20
9.131457034779913
 30
0.0
 11
25.29789671823499
 21
11.62499996135642
 31
0.0
  0
LINE
  5
14A7
330
1380
100
AcDbEntity
  8
0
 62
     0
100
AcDbLine
 10
17.74053546419003
 20
4.067638707311459
 30
0.0
 11
18.80453546419002
 21
5.131638707311452
 31
0.0
  0
LINE
  5
14A8
330
1380
100
AcDbEntity
  8
0
 62
     0
100
AcDbLine
 10
20.34610559449166
 20
7.122221643666478
 30
0.0
 11
21.74610559449163
 21
8.522221643666483
 31
0.0
  0
LINE
  5
14A9
330
1380
100
AcDbEntity
  8
0
 62
     0
100
AcDbLine
 10
22.79610559449165
 20
9.572221643666466
 30
0.0
 11
24.84888391218152
 21
11.62499996135636
 31
0.0
  0
LINE
  5
14AA
330
1380
100
AcDbEntity
  8
0
 62
     0
100
AcDbLine
 10
17.63277239073721
 20
4.408888439912061
 30
0.0
 11
18.69677239073726
 21
5.472888439912082
 31
0.0
  0
LINE
  5
14AB
330
1380
100
AcDbEntity
  8
0
 62
     0
100
AcDbLine
 10
20.34610559449163
 20
7.571234449719952
 30
0.0
 11
21.74610559449163
 21
8.971234449719929
 31
0.0
  0
LINE
  5
14AC
330
1380
100
AcDbEntity
  8
0
 62
     0
100
AcDbLine
 10
22.79610559449167
 20
10.02123444971996
 30
0.0
 11
24.39987110612807
 21
11.62499996135636
 31
0.0
  0
LINE
  5
14AD
330
1380
100
AcDbEntity
  8
0
 62
     0
100
AcDbLine
 10
17.52500931728434
 20
4.750138172512663
 30
0.0
 11
18.58900931728442
 21
5.814138172512713
 31
0.0
  0
LINE
  5
14AE
330
1380
100
AcDbEntity
  8
0
 62
     0
100
AcDbLine
 10
20.34610559449163
 20
8.020247255773398
 30
0.0
 11
21.74610559449161
 21
9.420247255773404
 31
0.0
  0
LINE
  5
14AF
330
1380
100
AcDbEntity
  8
0
 62
     0
100
AcDbLine
 10
17.41724624383152
 20
5.091387905113322
 30
0.0
 11
18.48124624383157
 21
6.155387905113343
 31
0.0
  0
LINE
  5
14B0
330
1380
100
AcDbEntity
  8
0
 62
     0
100
AcDbLine
 10
22.82276392955225
 20
10.49690559083404
 30
0.0
 11
23.92419996501391
 21
11.5983416262957
 31
0.0
  0
LINE
  5
14B1
330
1380
100
AcDbEntity
  8
0
 62
     0
100
AcDbLine
 10
15.90085830007458
 20
3.574999961356354
 30
0.0
 11
16.32110559449162
 21
3.995247255773421
 31
0.0
  0
LINE
  5
14B2
330
1380
100
AcDbEntity
  8
0
 62
     0
100
AcDbLine
 10
17.30948317037874
 20
5.432637637713924
 30
0.0
 11
18.3734831703787
 21
6.496637637713917
 31
0.0
  0
LINE
  5
14B3
330
1380
100
AcDbEntity
  8
0
 62
     0
100
AcDbLine
 10
20.34610559449163
 20
8.469260061826844
 30
0.0
 11
21.74610559449163
 21
9.869260061826821
 31
0.0
  0
LINE
  5
14B4
330
1380
100
AcDbEntity
  8
0
 62
     0
100
AcDbLine
 10
15.45184549402114
 20
3.574999961356354
 30
0.0
 11
16.32110559449165
 21
4.444260061826867
 31
0.0
  0
LINE
  5
14B5
330
1380
100
AcDbEntity
  8
0
 62
     0
100
AcDbLine
 10
17.20172009692589
 20
5.773887370314554
 30
0.0
 11
18.26572009692591
 21
6.837887370314604
 31
0.0
  0
LINE
  5
14B6
330
1380
100
AcDbEntity
  8
0
 62
     0
100
AcDbLine
 10
20.34610559449163
 20
8.918272867880318
 30
0.0
 11
21.74610559449161
 21
10.31827286788029
 31
0.0
  0
LINE
  5
14B7
330
1380
100
AcDbEntity
  8
0
 62
     0
100
AcDbLine
 10
15.04340756179328
 20
3.615574835181973
 30
0.0
 11
16.32110559449165
 21
4.893272867880313
 31
0.0
  0
LINE
  5
14B8
330
1380
100
AcDbEntity
  8
0
 62
     0
100
AcDbLine
 10
17.09395702347299
 20
6.115137102915156
 30
0.0
 11
18.15795702347307
 21
7.179137102915234
 31
0.0
  0
LINE
  5
14B9
330
1380
100
AcDbEntity
  8
0
 62
     0
100
AcDbLine
 10
20.34610559449163
 20
9.367285673933764
 30
0.0
 11
21.74610559449161
 21
10.76728567393377
 31
0.0
  0
LINE
  5
14BA
330
1380
100
AcDbEntity
  8
0
 62
     0
100
AcDbLine
 10
14.92110559449159
 20
3.942285673933753
 30
0.0
 11
16.32110559449162
 21
5.342285673933787
 31
0.0
  0
LINE
  5
14BB
330
1380
100
AcDbEntity
  8
0
 62
     0
100
AcDbLine
 10
16.98619395002023
 20
6.456386835515786
 30
0.0
 11
18.05019395002025
 21
7.520386835515836
 31
0.0
  0
LINE
  5
14BC
330
1380
100
AcDbEntity
  8
0
 62
     0
100
AcDbLine
 10
20.34610559449163
 20
9.81629847998721
 30
0.0
 11
21.74610559449161
 21
11.21629847998718
 31
0.0
  0
LINE
  5
14BD
330
1380
100
AcDbEntity
  8
0
 62
     0
100
AcDbLine
 10
14.92110559449162
 20
4.391298479987199
 30
0.0
 11
16.32110559449165
 21
5.791298479987204
 31
0.0
  0
LINE
  5
14BE
330
1380
100
AcDbEntity
  8
0
 62
     0
100
AcDbLine
 10
16.86879455653436
 20
6.78800024808342
 30
0.0
 11
18.18394159049981
 21
8.103147282048865
 31
0.0
  0
LINE
  5
14BF
330
1380
100
AcDbEntity
  8
0
 62
     0
100
AcDbLine
 10
20.34610559449166
 20
10.26531128604071
 30
0.0
 11
21.64796788324244
 21
11.56717357479146
 31
0.0
  0
LINE
  5
14C0
330
1380
100
AcDbEntity
  8
0
 62
     0
100
AcDbLine
 10
14.92110559449162
 20
4.840311286040645
 30
0.0
 11
16.32110559449162
 21
6.240311286040679
 31
0.0
  0
LINE
  5
14C1
330
1380
100
AcDbEntity
  8
0
 62
     0
100
AcDbLine
 10
16.52520187160067
 20
6.893420369203198
 30
0.0
 11
18.39117827021678
 21
8.75939676781931
 31
0.0
  0
LINE
  5
14C2
330
1380
100
AcDbEntity
  8
0
 62
     0
100
AcDbLine
 10
14.92110559449159
 20
5.289324092094119
 30
0.0
 11
16.32768518664479
 21
6.695903684247298
 31
0.0
  0
LINE
  5
14C3
330
1380
100
AcDbEntity
  8
0
 62
     0
100
AcDbLine
 10
20.34610559449166
 20
10.71432409209416
 30
0.0
 11
21.25678146375383
 21
11.62499996135636
 31
0.0
  0
LINE
  5
14C4
330
1380
100
AcDbEntity
  8
0
 62
     0
100
AcDbLine
 10
13.20678146375382
 20
3.574999961356326
 30
0.0
 11
13.69610559449165
 21
4.064324092094182
 31
0.0
  0
LINE
  5
14C5
330
1380
100
AcDbEntity
  8
0
 62
     0
100
AcDbLine
 10
14.92110559449159
 20
5.738336898147565
 30
0.0
 11
18.59841494993375
 21
9.415646253589727
 31
0.0
  0
LINE
  5
14C6
330
1380
100
AcDbEntity
  8
0
 62
     0
100
AcDbLine
 10
20.34610559449163
 20
11.16333689814763
 30
0.0
 11
20.80776865770036
 21
11.62499996135636
 31
0.0
  0
LINE
  5
14C7
330
1380
100
AcDbEntity
  8
0
 62
     0
100
AcDbLine
 10
12.75776865770035
 20
3.574999961356354
 30
0.0
 11
13.69610559449165
 21
4.513336898147656
 31
0.0
  0
LINE
  5
14C8
330
1380
100
AcDbEntity
  8
0
 62
     0
100
AcDbLine
 10
14.92110559449159
 20
6.187349704201011
 30
0.0
 11
18.80565162965078
 21
10.07189573936017
 31
0.0
  0
LINE
  5
14C9
330
1380
100
AcDbEntity
  8
0
 62
     0
100
AcDbLine
 10
12.31459616382196
 20
3.580840273531379
 30
0.0
 11
13.62543845268857
 21
4.89168256239796
 31
0.0
  0
LINE
  5
14CA
330
1380
100
AcDbEntity
  8
0
 62
     0
100
AcDbLine
 10
14.92110559449159
 20
6.636362510254485
 30
0.0
 11
16.58474304559345
 21
8.299999961356348
 31
0.0
  0
LINE
  5
14CB
330
1380
100
AcDbEntity
  8
0
 62
     0
100
AcDbLine
 10
16.96673446321381
 20
8.681991378976704
 30
0.0
 11
19.01288830936778
 21
10.72814522513064
 31
0.0
  0
LINE
  5
14CC
330
1380
100
AcDbEntity
  8
0
 62
     0
100
AcDbLine
 10
11.93051590509847
 20
3.645772820861338
 30
0.0
 11
13.25974304559349
 21
4.97499996135636
 31
0.0
  0
LINE
  5
14CD
330
1380
100
AcDbEntity
  8
0
 62
     0
100
AcDbLine
 10
14.92110559449162
 20
7.085375316307988
 30
0.0
 11
16.33010087984578
 21
8.494370601662126
 31
0.0
  0
LINE
  5
14CE
330
1380
100
AcDbEntity
  8
0
 62
     0
100
AcDbLine
 10
17.17397114293078
 20
9.33824086474712
 30
0.0
 11
19.20042403526847
 21
11.36469375708483
 31
0.0
  0
LINE
  5
14CF
330
1380
100
AcDbEntity
  8
0
 62
     0
100
AcDbLine
 10
11.59994877668526
 20
3.764218498501634
 30
0.0
 11
12.81073023954002
 21
4.974999961356388
 31
0.0
  0
LINE
  5
14D0
330
1380
100
AcDbEntity
  8
0
 62
     0
100
AcDbLine
 10
14.92110559449165
 20
7.534388122361406
 30
0.0
 11
16.32110559449165
 21
8.93438812236144
 31
0.0
  0
LINE
  5
14D1
330
1380
100
AcDbEntity
  8
0
 62
     0
100
AcDbLine
 10
17.38120782264775
 20
9.994490350517537
 30
0.0
 11
19.00341809898387
 21
11.61670062685365
 31
0.0
  0
LINE
  5
14D2
330
1380
100
AcDbEntity
  8
0
 62
     0
100
AcDbLine
 10
11.31114713460311
 20
3.924429662472874
 30
0.0
 11
12.36917806384954
 21
4.98246059171933
 31
0.0
  0
LINE
  5
14D3
330
1380
100
AcDbEntity
  8
0
 62
     0
100
AcDbLine
 10
14.92110559449162
 20
7.98340092841488
 30
0.0
 11
16.32110559449165
 21
9.383400928414914
 31
0.0
  0
LINE
  5
14D4
330
1380
100
AcDbEntity
  8
0
 62
     0
100
AcDbLine
 10
17.58844450236475
 20
10.65073983628801
 30
0.0
 11
18.5627046274331
 21
11.62499996135636
 31
0.0
  0
LINE
  5
14D5
330
1380
100
AcDbEntity
  8
0
 62
     0
100
AcDbLine
 10
11.05866965141208
 20
4.120964985335319
 30
0.0
 11
12.05201999334039
 21
5.114315327263625
 31
0.0
  0
LINE
  5
14D6
330
1380
100
AcDbEntity
  8
0
 62
     0
100
AcDbLine
 10
14.92110559449162
 20
8.432413734468326
 30
0.0
 11
16.32110559449165
 21
9.83241373446836
 31
0.0
  0
LINE
  5
14D7
330
1380
100
AcDbEntity
  8
0
 62
     0
100
AcDbLine
 10
13.25192266037987
 20
6.763230800356609
 30
0.0
 11
13.83287475549141
 21
7.344182895468151
 31
0.0
  0
LINE
  5
14D8
330
1380
100
AcDbEntity
  8
0
 62
     0
100
AcDbLine
 10
17.79568118208172
 20
11.30698932205845
 30
0.0
 11
18.11369182137966
 21
11.62499996135639
 31
0.0
  0
LINE
  5
14D9
330
1380
100
AcDbEntity
  8
0
 62
     0
100
AcDbLine
 10
10.84045111474716
 20
4.351759254723901
 30
0.0
 11
11.8468945177043
 21
5.358202657681033
 31
0.0
  0
LINE
  5
14DA
330
1380
100
AcDbEntity
  8
0
 62
     0
100
AcDbLine
 10
12.78943623956496
 20
6.749757185595171
 30
0.0
 11
13.84634837025285
 21
7.806669316283034
 31
0.0
  0
LINE
  5
14DB
330
1380
100
AcDbEntity
  8
0
 62
     0
100
AcDbLine
 10
14.92110559449159
 20
8.8814265405218
 30
0.0
 11
16.32110559449162
 21
10.28142654052183
 31
0.0
  0
LINE
  5
14DC
330
1380
100
AcDbEntity
  8
0
 62
     0
100
AcDbLine
 10
10.65694150227568
 20
4.617262448305865
 30
0.0
 11
11.77110559449164
 21
5.731426540521852
 31
0.0
  0
LINE
  5
14DD
330
1380
100
AcDbEntity
  8
0
 62
     0
100
AcDbLine
 10
12.48236295485486
 20
6.891696706938461
 30
0.0
 11
13.70440884890953
 21
8.113742600993163
 31
0.0
  0
LINE
  5
14DE
330
1380
100
AcDbEntity
  8
0
 62
     0
100
AcDbLine
 10
14.92110559449162
 20
9.330439346575246
 30
0.0
 11
16.32110559449165
 21
10.73043934657525
 31
0.0
  0
LINE
  5
14DF
330
1380
100
AcDbEntity
  8
0
 62
     0
100
AcDbLine
 10
10.51128274731331
 20
4.920616499396942
 30
0.0
 11
11.77110559449164
 21
6.180439346575269
 31
0.0
  0
LINE
  5
14E0
330
1380
100
AcDbEntity
  8
0
 62
     0
100
AcDbLine
 10
12.26338299136
 20
7.121729549497104
 30
0.0
 11
13.47437600635092
 21
8.332722564487994
 31
0.0
  0
LINE
  5
14E1
330
1380
100
AcDbEntity
  8
0
 62
     0
100
AcDbLine
 10
14.92110559449162
 20
9.779452152628692
 30
0.0
 11
16.32110559449162
 21
11.17945215262872
 31
0.0
  0
LINE
  5
14E2
330
1380
100
AcDbEntity
  8
0
 62
     0
100
AcDbLine
 10
10.41071406522598
 20
5.269060623363088
 30
0.0
 11
11.77110559449164
 21
6.629452152628743
 31
0.0
  0
LINE
  5
14E3
330
1380
100
AcDbEntity
  8
0
 62
     0
100
AcDbLine
 10
12.13535762515582
 20
7.442716989346365
 30
0.0
 11
13.15338856650163
 21
8.460747930692207
 31
0.0
  0
LINE
  5
14E4
330
1380
100
AcDbEntity
  8
0
 62
     0
100
AcDbLine
 10
10.37110559449155
 20
5.678464958682127
 30
0.0
 11
11.77110559449164
 21
7.078464958682189
 31
0.0
  0
LINE
  5
14E5
330
1380
100
AcDbEntity
  8
0
 62
     0
100
AcDbLine
 10
14.92110559449159
 20
10.22846495868216
 30
0.0
 11
16.24248054031409
 21
11.54983990450466
 31
0.0
  0
LINE
  5
14E6
330
1380
100
AcDbEntity
  8
0
 62
     0
100
AcDbLine
 10
8.328107215553814
 20
3.635466579744388
 30
0.0
 11
9.260638976103678
 21
4.567998340294252
 31
0.0
  0
LINE
  5
14E7
330
1380
100
AcDbEntity
  8
0
 62
     0
100
AcDbLine
 10
12.19456416689621
 20
7.950936337140205
 30
0.0
 11
12.64516921870782
 21
8.401541388951812
 31
0.0
  0
LINE
  5
14E8
330
1380
100
AcDbEntity
  8
0
 62
     0
100
AcDbLine
 10
10.37110559449158
 20
6.127477764735573
 30
0.0
 11
11.77110559449164
 21
7.527477764735635
 31
0.0
  0
LINE
  5
14E9
330
1380
100
AcDbEntity
  8
0
 62
     0
100
AcDbLine
 10
14.92110559449162
 20
10.67747776473558
 30
0.0
 11
15.8686277911124
 21
11.62499996135639
 31
0.0
  0
LINE
  5
14EA
330
1380
100
AcDbEntity
  8
0
 62
     0
100
AcDbLine
 10
7.818627791112334
 20
3.574999961356326
 30
0.0
 11
9.321105594491655
 21
5.077477764735647
 31
0.0
  0
LINE
  5
14EB
330
1380
100
AcDbEntity
  8
0
 62
     0
100
AcDbLine
 10
10.3711055944916
 20
6.576490570789076
 30
0.0
 11
11.77110559449164
 21
7.97649057078911
 31
0.0
  0
LINE
  5
14EC
330
1380
100
AcDbEntity
  8
0
 62
     0
100
AcDbLine
 10
14.92110559449159
 20
11.12649057078906
 30
0.0
 11
15.4196149850589
 21
11.62499996135636
 31
0.0
  0
LINE
  5
14ED
330
1380
100
AcDbEntity
  8
0
 62
     0
100
AcDbLine
 10
7.369614985058888
 20
3.574999961356326
 30
0.0
 11
9.321105594491655
 21
5.526490570789121
 31
0.0
  0
LINE
  5
14EE
330
1380
100
AcDbEntity
  8
0
 62
     0
100
AcDbLine
 10
10.3711055944916
 20
7.025503376842522
 30
0.0
 11
11.77110559449161
 21
8.425503376842556
 31
0.0
  0
LINE
  5
14EF
330
1380
100
AcDbEntity
  8
0
 62
     0
100
AcDbLine
 10
6.920602179005413
 20
3.574999961356354
 30
0.0
 11
9.31913591821106
 21
5.973533700562001
 31
0.0
  0
LINE
  5
14F0
330
1380
100
AcDbEntity
  8
0
 62
     0
100
AcDbLine
 10
10.3711055944916
 20
7.474516182895996
 30
0.0
 11
11.77110559449164
 21
8.87451618289603
 31
0.0
  0
LINE
  5
14F1
330
1380
100
AcDbEntity
  8
0
 62
     0
100
AcDbLine
 10
13.121589372952
 20
10.22499996135638
 30
0.0
 11
13.69610559449168
 21
10.79951618289604
 31
0.0
  0
LINE
  5
14F2
330
1380
100
AcDbEntity
  8
0
 62
     0
100
AcDbLine
 10
6.471589372951967
 20
3.574999961356354
 30
0.0
 11
9.264305000050399
 21
6.367715588454785
 31
0.0
  0
LINE
  5
14F3
330
1380
100
AcDbEntity
  8
0
 62
     0
100
AcDbLine
 10
10.3711055944916
 20
7.923528988949442
 30
0.0
 11
11.77110559449164
 21
9.323528988949448
 31
0.0
  0
LINE
  5
14F4
330
1380
100
AcDbEntity
  8
0
 62
     0
100
AcDbLine
 10
7.921105594491621
 20
5.473528988949453
 30
0.0
 11
9.153135628028337
 21
6.70555902248617
 31
0.0
  0
LINE
  5
14F5
330
1380
100
AcDbEntity
  8
0
 62
     0
100
AcDbLine
 10
12.67257656689849
 20
10.22499996135633
 30
0.0
 11
13.69610559449165
 21
11.24852898894948
 31
0.0
  0
LINE
  5
14F6
330
1380
100
AcDbEntity
  8
0
 62
     0
100
AcDbLine
 10
6.051439504528474
 20
3.603862898986307
 30
0.0
 11
7.422576566898499
 21
4.974999961356331
 31
0.0
  0
LINE
  5
14F7
330
1380
100
AcDbEntity
  8
0
 62
     0
100
AcDbLine
 10
10.37110559449158
 20
8.372541795002888
 30
0.0
 11
11.85401294738147
 21
9.855449147892784
 31
0.0
  0
LINE
  5
14F8
330
1380
100
AcDbEntity
  8
0
 62
     0
100
AcDbLine
 10
7.92002604868702
 20
5.921462249198299
 30
0.0
 11
8.998919860692325
 21
7.000356061203632
 31
0.0
  0
LINE
  5
14F9
330
1380
100
AcDbEntity
  8
0
 62
     0
100
AcDbLine
 10
12.14065640795524
 20
10.14209260846655
 30
0.0
 11
13.57937188703175
 21
11.58080808754303
 31
0.0
  0
LINE
  5
14FA
330
1380
100
AcDbEntity
  8
0
 62
     0
100
AcDbLine
 10
5.908605594491604
 20
3.910041795002911
 30
0.0
 11
6.973563760845081
 21
4.974999961356388
 31
0.0
  0
LINE
  5
14FB
330
1380
100
AcDbEntity
  8
0
 62
     0
100
AcDbLine
 10
7.810224538936665
 20
6.260673545501447
 30
0.0
 11
8.807798878272876
 21
7.258247884837658
 31
0.0
  0
LINE
  5
14FC
330
1380
100
AcDbEntity
  8
0
 62
     0
100
AcDbLine
 10
10.37110559449158
 20
8.821554601056362
 30
0.0
 11
13.17455095479161
 21
11.62499996135639
 31
0.0
  0
LINE
  5
14FD
330
1380
100
AcDbEntity
  8
0
 62
     0
100
AcDbLine
 10
5.908605594491604
 20
4.359054601056385
 30
0.0
 11
6.524550954791578
 21
4.97499996135636
 31
0.0
  0
LINE
  5
14FE
330
1380
100
AcDbEntity
  8
0
 62
     0
100
AcDbLine
 10
7.597097124784312
 20
6.496558937402511
 30
0.0
 11
8.587046618445498
 21
7.486508431063697
 31
0.0
  0
LINE
  5
14FF
330
1380
100
AcDbEntity
  8
0
 62
     0
100
AcDbLine
 10
10.3711055944916
 20
9.27056740710978
 30
0.0
 11
12.72553814873808
 21
11.62499996135628
 31
0.0
  0
LINE
  5
1500
330
1380
100
AcDbEntity
  8
0
 62
     0
100
AcDbLine
 10
5.943081555501521
 20
4.84254336811972
 30
0.0
 11
6.041062187728329
 21
4.940524000346528
 31
0.0
  0
LINE
  5
1501
330
1380
100
AcDbEntity
  8
0
 62
     0
100
AcDbLine
 10
10.3810931515699
 20
9.729567770241544
 30
0.0
 11
12.2665377856064
 21
11.61501240427807
 31
0.0
  0
LINE
  5
1502
330
1380
100
AcDbEntity
  8
0
 62
     0
100
AcDbLine
 10
7.372590721757518
 20
6.721065340429191
 30
0.0
 11
8.362540215418761
 21
7.711014834090434
 31
0.0
  0
LINE
  5
1503
330
1380
100
AcDbEntity
  8
0
 62
     0
100
AcDbLine
 10
10.53082486770279
 20
10.32831229242793
 30
0.0
 11
11.66779326342003
 21
11.46528068814518
 31
0.0
  0
LINE
  5
1504
330
1380
100
AcDbEntity
  8
0
 62
     0
100
AcDbLine
 10
7.148084318730781
 20
6.945571743455928
 30
0.0
 11
8.138033812392023
 21
7.935521237117171
 31
0.0
  0
LINE
  5
1505
330
1380
100
AcDbEntity
  8
0
 62
     0
100
AcDbLine
 10
6.923577915704157
 20
7.170078146482723
 30
0.0
 11
7.913527409365286
 21
8.160027640143823
 31
0.0
  0
LINE
  5
1506
330
1380
100
AcDbEntity
  8
0
 62
     0
100
AcDbLine
 10
6.69907151267742
 20
7.39458454950946
 30
0.0
 11
7.689021006338549
 21
8.38453404317056
 31
0.0
  0
LINE
  5
1507
330
1380
100
AcDbEntity
  8
0
 62
     0
100
AcDbLine
 10
6.474565109650598
 20
7.619090952536112
 30
0.0
 11
7.464514603311812
 21
8.609040446197298
 31
0.0
  0
LINE
  5
1508
330
1380
100
AcDbEntity
  8
0
 62
     0
100
AcDbLine
 10
8.6314613124174
 20
10.22499996135638
 30
0.0
 11
9.058605594491581
 21
10.65214424343057
 31
0.0
  0
LINE
  5
1509
330
1380
100
AcDbEntity
  8
0
 62
     0
100
AcDbLine
 10
6.250100363637983
 20
7.843639012576971
 30
0.0
 11
7.24013318535421
 21
8.833671834293198
 31
0.0
  0
LINE
  5
150A
330
1380
100
AcDbEntity
  8
0
 62
     0
100
AcDbLine
 10
8.182448506363925
 20
10.22499996135633
 30
0.0
 11
9.058605594491638
 21
11.10115704948404
 31
0.0
  0
LINE
  5
150B
330
1380
100
AcDbEntity
  8
0
 62
     0
100
AcDbLine
 10
6.044366401362196
 20
8.086917856354574
 30
0.0
 11
7.075184744710242
 21
9.117736199702648
 31
0.0
  0
LINE
  5
150C
330
1380
100
AcDbEntity
  8
0
 62
     0
100
AcDbLine
 10
7.733435700310508
 20
10.22499996135636
 30
0.0
 11
9.015326144611066
 21
11.50689040565694
 31
0.0
  0
LINE
  5
150D
330
1380
100
AcDbEntity
  8
0
 62
     0
100
AcDbLine
 10
5.874136098230962
 20
8.365700359276814
 30
0.0
 11
7.046105594491621
 21
9.537669855537501
 31
0.0
  0
LINE
  5
150E
330
1380
100
AcDbEntity
  8
0
 62
     0
100
AcDbLine
 10
7.283189569671947
 20
10.22376663677127
 30
0.0
 11
8.684422894257039
 21
11.62499996135636
 31
0.0
  0
LINE
  5
150F
330
1380
100
AcDbEntity
  8
0
 62
     0
100
AcDbLine
 10
5.743789450364914
 20
8.684366517464241
 30
0.0
 11
7.047338919076707
 21
9.987915986176062
 31
0.0
  0
LINE
  5
1510
330
1380
100
AcDbEntity
  8
0
 62
     0
100
AcDbLine
 10
5.662883469240881
 20
9.052473342393653
 30
0.0
 11
8.235410088203593
 21
11.62499996135636
 31
0.0
  0
LINE
  5
1511
330
1380
100
AcDbEntity
  8
0
 62
     0
100
AcDbLine
 10
5.646105594491643
 20
9.484708273697862
 30
0.0
 11
7.786397282150119
 21
11.62499996135636
 31
0.0
  0
LINE
  5
1512
330
1380
100
AcDbEntity
  8
0
 62
     0
100
AcDbLine
 10
5.646105594491615
 20
9.933721079751336
 30
0.0
 11
7.337384476096673
 21
11.62499996135636
 31
0.0
  0
LINE
  5
1513
330
1380
100
AcDbEntity
  8
0
 62
     0
100
AcDbLine
 10
5.656201599710783
 20
10.39282989102395
 30
0.0
 11
6.878275664824087
 21
11.61490395613725
 31
0.0
  0
ENDBLK
  5
1515
330
1380
100
AcDbEntity
  8
0
100
AcDbBlockEnd
  0
ENDSEC
  0
SECTION
  2
ENTITIES
  0
POLYLINE
  5
ABF
330
1A
100
AcDbEntity
  8
ZUWAKU
100
AcDb2dPolyline
 66
     1
 10
0.0
 20
0.0
 30
0.0
 70
     1
  0
VERTEX
  5
1367
330
ABF
100
AcDbEntity
  8
ZUWAKU
100
AcDbVertex
100
AcDb2dVertex
 10
0.3999995171010369
 20
275.3999999613564
 30
0.0
  0
VERTEX
  5
1368
330
ABF
100
AcDbEntity
  8
ZUWAKU
100
AcDbVertex
100
AcDb2dVertex
 10
0.3999995171010369
 20
0.3999999613564
 30
0.0
  0
VERTEX
  5
1369
330
ABF
100
AcDbEntity
  8
ZUWAKU
100
AcDbVertex
100
AcDb2dVertex
 10
398.399999517101
 20
0.3999999613564
 30
0.0
  0
VERTEX
  5
136A
330
ABF
100
AcDbEntity
  8
ZUWAKU
100
AcDbVertex
100
AcDb2dVertex
 10
398.399999517101
 20
275.3999999613564
 30
0.0
  0
SEQEND
  5
136B
330
ABF
100
AcDbEntity
  8
ZUWAKU
  0
POLYLINE
  5
AC0
330
1A
100
AcDbEntity
  8
ZUWAKU
100
AcDb2dPolyline
 66
     1
 10
0.0
 20
0.0
 30
0.0
 70
     1
  0
VERTEX
  5
136C
330
AC0
100
AcDbEntity
  8
ZUWAKU
100
AcDbVertex
100
AcDb2dVertex
 10
0.1999995171010482
 20
275.5999999613564
 30
0.0
  0
VERTEX
  5
136D
330
AC0
100
AcDbEntity
  8
ZUWAKU
100
AcDbVertex
100
AcDb2dVertex
 10
0.1999995171010482
 20
0.1999999613564114
 30
0.0
  0
VERTEX
  5
136E
330
AC0
100
AcDbEntity
  8
ZUWAKU
100
AcDbVertex
100
AcDb2dVertex
 10
398.5999995171011
 20
0.1999999613563998
 30
0.0
  0
VERTEX
  5
136F
330
AC0
100
AcDbEntity
  8
ZUWAKU
100
AcDbVertex
100
AcDb2dVertex
 10
398.5999995171011
 20
275.5999999613564
 30
0.0
  0
SEQEND
  5
1370
330
AC0
100
AcDbEntity
  8
ZUWAKU
  0
POLYLINE
  5
AC1
330
1A
100
AcDbEntity
  8
ZUWAKU
100
AcDb2dPolyline
 66
     1
 10
0.0
 20
0.0
 30
0.0
 70
     1
  0
VERTEX
  5
1371
330
AC1
100
AcDbEntity
  8
ZUWAKU
100
AcDbVertex
100
AcDb2dVertex
 10
-0.0000004828989404
 20
275.7999999613563
 30
0.0
  0
VERTEX
  5
1372
330
AC1
100
AcDbEntity
  8
ZUWAKU
100
AcDbVertex
100
AcDb2dVertex
 10
-0.0000004828989404
 20
-0.0000000386436341
 30
0.0
  0
VERTEX
  5
1373
330
AC1
100
AcDbEntity
  8
ZUWAKU
100
AcDbVertex
100
AcDb2dVertex
 10
398.7999995171011
 20
-0.0000000386436003
 30
0.0
  0
VERTEX
  5
1374
330
AC1
100
AcDbEntity
  8
ZUWAKU
100
AcDbVertex
100
AcDb2dVertex
 10
398.7999995171011
 20
275.7999999613564
 30
0.0
  0
SEQEND
  5
1375
330
AC1
100
AcDbEntity
  8
ZUWAKU
  0
POLYLINE
  5
AC2
330
1A
100
AcDbEntity
  8
ZUWAKU
100
AcDb2dPolyline
 66
     1
 10
0.0
 20
0.0
 30
0.0
 70
     1
  0
VERTEX
  5
1376
330
AC2
100
AcDbEntity
  8
ZUWAKU
100
AcDbVertex
100
AcDb2dVertex
 10
0.2999995171010141
 20
275.4999999613564
 30
0.0
  0
VERTEX
  5
1377
330
AC2
100
AcDbEntity
  8
ZUWAKU
100
AcDbVertex
100
AcDb2dVertex
 10
0.2999995171010141
 20
0.2999999613563773
 30
0.0
  0
VERTEX
  5
1378
330
AC2
100
AcDbEntity
  8
ZUWAKU
100
AcDbVertex
100
AcDb2dVertex
 10
398.4999995171012
 20
0.2999999613564004
 30
0.0
  0
VERTEX
  5
1379
330
AC2
100
AcDbEntity
  8
ZUWAKU
100
AcDbVertex
100
AcDb2dVertex
 10
398.499999517101
 20
275.4999999613564
 30
0.0
  0
SEQEND
  5
137A
330
AC2
100
AcDbEntity
  8
ZUWAKU
  0
POLYLINE
  5
AC3
330
1A
100
AcDbEntity
  8
ZUWAKU
100
AcDb2dPolyline
 66
     1
 10
0.0
 20
0.0
 30
0.0
 70
     1
  0
VERTEX
  5
137B
330
AC3
100
AcDbEntity
  8
ZUWAKU
100
AcDbVertex
100
AcDb2dVertex
 10
0.0999995171010255
 20
275.6999999613564
 30
0.0
  0
VERTEX
  5
137C
330
AC3
100
AcDbEntity
  8
ZUWAKU
100
AcDbVertex
100
AcDb2dVertex
 10
0.0999995171010255
 20
0.0999999613563887
 30
0.0
  0
VERTEX
  5
137D
330
AC3
100
AcDbEntity
  8
ZUWAKU
100
AcDbVertex
100
AcDb2dVertex
 10
398.6999995171009
 20
0.0999999613564002
 30
0.0
  0
VERTEX
  5
137E
330
AC3
100
AcDbEntity
  8
ZUWAKU
100
AcDbVertex
100
AcDb2dVertex
 10
398.6999995171011
 20
275.6999999613564
 30
0.0
  0
SEQEND
  5
137F
330
AC3
100
AcDbEntity
  8
ZUWAKU
  0
LINE
  5
AC4
330
1A
100
AcDbEntity
  8
ZUWAKU
100
AcDbLine
 10
-0.0000004828989404
 20
14.99999996135636
 30
0.0
 11
398.6999995171009
 21
14.99999996135636
 31
0.0
  0
LINE
  5
AC5
330
1A
100
AcDbEntity
  8
ZUWAKU
100
AcDbLine
 10
-0.0000004828989404
 20
15.09999996135636
 30
0.0
 11
398.6999995171009
 21
15.09999996135636
 31
0.0
  0
LINE
  5
AC6
330
1A
100
AcDbEntity
  8
ZUWAKU
100
AcDbLine
 10
-0.0000004828989404
 20
15.19999996135636
 30
0.0
 11
398.6999995171009
 21
15.19999996135636
 31
0.0
  0
LINE
  5
AC7
330
1A
100
AcDbEntity
  8
ZUWAKU
100
AcDbLine
 10
-0.0000004828989404
 20
15.29999996135637
 30
0.0
 11
398.6999995171009
 21
15.29999996135637
 31
0.0
  0
LINE
  5
AC8
330
1A
100
AcDbEntity
  8
ZUWAKU
100
AcDbLine
 10
-0.0000004828989404
 20
15.39999996135637
 30
0.0
 11
398.6999995171009
 21
15.39999996135637
 31
0.0
  0
LINE
  5
AC9
330
1A
100
AcDbEntity
  8
ZUWAKU
100
AcDbLine
 10
104.323300162135
 20
7.699999961356382
 30
0.0
 11
223.7121815025967
 21
7.699999961356382
 31
0.0
  0
LINE
  5
ACA
330
1A
100
AcDbEntity
  8
ZUWAKU
100
AcDbLine
 10
104.323300162135
 20
7.799999961356382
 30
0.0
 11
223.7121815025967
 21
7.799999961356386
 31
0.0
  0
LINE
  5
ACB
330
1A
100
AcDbEntity
  8
ZUWAKU
100
AcDbLine
 10
104.323300162135
 20
7.599999961356385
 30
0.0
 11
223.7121815025967
 21
7.599999961356381
 31
0.0
  0
TEXT
  5
ACC
330
1A
100
AcDbEntity
  8
MOJI
100
AcDbText
 10
46.47889431118563
 20
6.370589026493746
 30
0.0
 40
3.0
  1
たてとい 丸トップＵＴ６０
 41
0.9
  7
ｽﾀｲﾙ1
100
AcDbText
  0
CIRCLE
  5
ACD
330
1A
100
AcDbEntity
  8
ZUWAKU
100
AcDbCircle
 10
12.99610559449161
 20
7.599999961356367
 30
0.0
 40
0.875
  0
LINE
  5
ACE
330
1A
100
AcDbEntity
  8
ZUWAKU
100
AcDbLine
 10
13.43360559449161
 20
3.574999961356368
 30
0.0
 11
12.47110559449163
 21
3.574999961356368
 31
0.0
  0
LINE
  5
ACF
330
1A
100
AcDbEntity
  8
ZUWAKU
100
AcDbLine
 10
12.47110559449163
 20
4.974999961356367
 30
0.0
 11
13.43360559449161
 21
4.974999961356367
 31
0.0
  0
LINE
  5
AD0
330
1A
100
AcDbEntity
  8
ZUWAKU
100
AcDbLine
 10
13.43360559449161
 20
10.22499996135636
 30
0.0
 11
12.47110559449163
 21
10.22499996135636
 31
0.0
  0
LINE
  5
AD1
330
1A
100
AcDbEntity
  8
ZUWAKU
100
AcDbLine
 10
12.47110559449163
 20
11.62499996135634
 30
0.0
 11
13.43360559449161
 21
11.62499996135637
 31
0.0
  0
INSERT
  5
AD2
330
1A
100
AcDbEntity
  8
ZUWAKU
  6
CONTINUOUS
100
AcDbBlockReference
  2
*X17
 10
0.0
 20
0.0
 30
0.0
1001
ACAD
1000
HATCH
1002
{
1070
    19
1000
ANSI37
1040
0.1
1040
0.0
1000
R14_HATCH_DATA
1000
AD2
1011
1.0
1021
0.0
1031
0.0
1011
0.0
1021
1.0
1031
0.0
1011
0.0
1021
0.0
1031
1.0
1040
0.0
1010
0.0
1020
0.0
1030
1.0
1000
ANSI37
1070
     0
1070
     0
1071
        8
1071
        7
1070
     1
1070
     1
1071
       24
1040
7.251130847660988
1040
8.822424201848157
1040
-0.1989123673796348
1040
7.046105594491621
1040
9.317398948678683
1040
0.0
1040
7.046105594491621
1040
9.962499961356371
1040
-0.4142135623730912
1040
7.308605594491609
1040
10.22499996135636
1040
0.0
1040
8.796105594491564
1040
10.22499996135636
1040
0.4142135623731546
1040
9.058605594491609
1040
10.48749996135636
1040
0.0
1040
9.058605594491609
1040
11.36249996135637
1040
0.4142135623731586
1040
8.796105594491564
1040
11.62499996135637
1040
0.0
1040
7.046105594491621
1040
11.62499996135637
1040
0.4142135623730928
1040
5.646105594491643
1040
10.22499996135638
1040
0.0
1040
5.646105594491643
1040
9.317398948678746
1040
0.1989123673796619
1040
6.261181353999859
1040
7.832474708186943
1040
0.0
1040
7.716080341322197
1040
6.377575720864614
1040
-0.1989123673796613
1040
7.921105594491621
1040
5.882600974034021
1040
0.0
1040
7.921105594491621
1040
5.237499961356363
1040
-0.4142135623730911
1040
7.658605594491632
1040
4.974999961356367
1040
0.0
1040
6.171105594491677
1040
4.974999961356367
1040
0.4142135623731526
1040
5.908605594491632
1040
4.712499961356373
1040
0.0
1040
5.908605594491632
1040
3.837499961356362
1040
0.4142135623731526
1040
6.171105594491677
1040
3.574999961356368
1040
0.0
1040
7.921105594491621
1040
3.574999961356368
1040
0.4142135623731044
1040
9.321105594491655
1040
4.974999961356356
1040
0.0
1040
9.321105594491655
1040
5.882600974033993
1040
0.1989123673796604
1040
8.706029834983382
1040
7.367525214525763
1040
0.0
1071
        0
1071
        7
1070
     1
1070
     1
1071
       16
1040
11.77110559449164
1040
9.524999961356371
1040
-0.4142135623730935
1040
12.47110559449163
1040
10.22499996135636
1040
0.0
1040
13.43360559449161
1040
10.22499996135636
1040
0.4142135623731546
1040
13.69610559449165
1040
10.48749996135636
1040
0.0
1040
13.69610559449165
1040
11.36249996135637
1040
0.4142135623730951
1040
13.43360559449166
1040
11.62499996135637
1040
0.0
1040
12.47110559449157
1040
11.62499996135634
1040
0.4142135623730892
1040
10.3711055944916
1040
9.524999961356336
1040
0.0
1040
10.3711055944916
1040
5.67499996135638
1040
0.4142135623730969
1040
12.47110559449163
1040
3.574999961356368
1040
0.0
1040
13.43360559449161
1040
3.574999961356368
1040
0.4142135623731526
1040
13.69610559449165
1040
3.837499961356362
1040
0.0
1040
13.69610559449165
1040
4.712499961356373
1040
0.4142135623730891
1040
13.43360559449166
1040
4.974999961356367
1040
0.0
1040
12.47110559449163
1040
4.974999961356367
1040
-0.4142135623730928
1040
11.77110559449164
1040
5.674999961356361
1040
0.0
1071
        0
1071
        7
1070
     1
1070
     1
1071
        2
1040
12.12110559449161
1040
7.599999961356367
1040
1.0
1040
13.87110559449161
1040
7.599999961356367
1040
1.0
1071
        0
1071
        7
1070
     1
1070
     1
1071
       26
1040
18.65742883558061
1040
9.602523558138081
1040
0.0
1040
19.18824865214952
1040
11.28345297727287
1040
0.5069206636600134
1040
18.93793320255184
1040
11.62499996135637
1040
0.0
1040
18.08848851274723
1040
11.62499996135637
1040
0.3272098845218764
1040
17.83817306314955
1040
11.44154694543985
1040
0.0
1040
16.90403812583366
1040
8.483452977272907
1040
-0.3272098845219541
1040
16.65372267623593
1040
8.299999961356366
1040
0.0
1040
16.5836055944917
1040
8.299999961356366
1040
-0.4142135623731526
1040
16.32110559449165
1040
8.56249996135636
1040
0.0
1040
16.32110559449165
1040
11.36249996135637
1040
0.4142135623730951
1040
16.05860559449166
1040
11.62499996135637
1040
0.0
1040
15.18360559449161
1040
11.62499996135637
1040
0.4142135623730871
1040
14.92110559449162
1040
11.36249996135637
1040
0.0
1040
14.92110559449162
1040
3.837499961356362
1040
0.4142135623730891
1040
15.18360559449161
1040
3.574999961356368
1040
0.0
1040
16.05860559449161
1040
3.574999961356368
1040
0.4142135623731526
1040
16.32110559449165
1040
3.837499961356362
1040
0.0
1040
16.32110559449165
1040
6.637499961356374
1040
-0.4142135623731526
1040
16.5836055944917
1040
6.899999961356368
1040
0.0
1040
16.65372267623598
1040
6.899999961356368
1040
-0.3272098845218915
1040
16.90403812583366
1040
6.71654694543983
1040
0.0
1040
17.83817306314955
1040
3.758452977272904
1040
0.3272098845218902
1040
18.08848851274723
1040
3.574999961356368
1040
0.0
1040
18.93793320255184
1040
3.574999961356368
1040
0.5069206636600335
1040
19.18824865214952
1040
3.916546945439872
1040
0.0
1040
18.02505296291269
1040
7.599999961356436
1040
0.0
1071
        0
1071
        7
1070
     1
1070
     1
1071
        8
1040
21.74610559449161
1040
11.36249996135637
1040
0.4142135623731546
1040
21.48360559449156
1040
11.62499996135637
1040
0.0
1040
20.60860559449167
1040
11.62499996135637
1040
0.4142135623731507
1040
20.34610559449163
1040
11.36249996135637
1040
0.0
1040
20.34610559449163
1040
3.837499961356362
1040
0.4142135623731526
1040
20.60860559449167
1040
3.574999961356368
1040
0.0
1040
21.48360559449156
1040
3.574999961356368
1040
0.4142135623731526
1040
21.74610559449161
1040
3.837499961356362
1040
0.0
1071
        0
1071
        7
1070
     1
1070
     1
1071
       24
1040
24.19610559449165
1040
9.962499961356371
1040
-0.4142135623731546
1040
24.4586055944917
1040
10.22499996135636
1040
0.0
1040
25.94610559449165
1040
10.22499996135636
1040
0.4142135623730911
1040
26.20860559449164
1040
10.48749996135636
1040
0.0
1040
26.20860559449164
1040
11.36249996135637
1040
0.4142135623730952
1040
25.94610559449165
1040
11.62499996135637
1040
0.0
1040
24.19610559449165
1040
11.62499996135637
1040
0.4142135623731048
1040
22.79610559449162
1040
10.22499996135638
1040
0.0
1040
22.79610559449162
1040
9.317398948678746
1040
0.1989123673796613
1040
23.41118135399989
1040
7.832474708186971
1040
0.0
1040
24.86608034132223
1040
6.377575720864637
1040
-0.1989123673796402
1040
25.07110559449165
1040
5.882600974034101
1040
0.0
1040
25.07110559449165
1040
5.237499961356363
1040
-0.4142135623730911
1040
24.80860559449166
1040
4.974999961356367
1040
0.0
1040
23.32110559449165
1040
4.974999961356367
1040
0.4142135623731526
1040
23.05860559449161
1040
4.712499961356373
1040
0.0
1040
23.05860559449161
1040
3.837499961356362
1040
0.4142135623730891
1040
23.3211055944916
1040
3.574999961356368
1040
0.0
1040
25.07110559449165
1040
3.574999961356368
1040
0.4142135623730925
1040
26.47110559449163
1040
4.974999961356356
1040
0.0
1040
26.47110559449163
1040
5.882600974033993
1040
0.1989123673796675
1040
25.85602983498336
1040
7.367525214525819
1040
0.0
1040
24.40113084766108
1040
8.822424201848077
1040
-0.1989123673796652
1040
24.19610559449165
1040
9.317398948678661
1040
0.0
1071
        0
1071
        7
1070
     1
1070
     1
1071
       16
1040
28.92110559449162
1040
11.36249996135636
1040
0.414213562373103
1040
28.65860559449163
1040
11.62499996135637
1040
0.0
1040
27.78360559449163
1040
11.62499996135637
1040
0.4142135623730871
1040
27.52110559449164
1040
11.36249996135637
1040
0.0
1040
27.52110559449164
1040
4.974999961356356
1040
0.4142135623730926
1040
28.92110559449162
1040
3.574999961356368
1040
0.0
1040
30.67110559449162
1040
3.574999961356368
1040
0.4142135623731044
1040
32.07110559449165
1040
4.974999961356356
1040
0.0
1040
32.07110559449165
1040
11.36249996135637
1040
0.4142135623730951
1040
31.80860559449167
1040
11.62499996135637
1040
0.0
1040
30.93360559449161
1040
11.62499996135637
1040
0.4142135623730871
1040
30.67110559449162
1040
11.36249996135637
1040
0.0
1040
30.67110559449162
1040
5.499999961356355
1040
-0.414213562373088
1040
30.14610559449164
1040
4.974999961356367
1040
0.0
1040
29.44610559449165
1040
4.974999961356367
1040
-0.4142135623731197
1040
28.92110559449162
1040
5.499999961356355
1040
0.0
1071
        0
1071
        7
1070
     1
1070
     1
1071
        8
1040
34.52110559449164
1040
11.36249996135637
1040
0.4142135623730871
1040
34.25860559449165
1040
11.62499996135637
1040
0.0
1040
33.38360559449165
1040
11.62499996135637
1040
0.4142135623731507
1040
33.12110559449161
1040
11.36249996135637
1040
0.0
1040
33.12110559449161
1040
3.837499961356362
1040
0.4142135623730891
1040
33.3836055944916
1040
3.574999961356368
1040
0.0
1040
34.25860559449165
1040
3.574999961356368
1040
0.4142135623730891
1040
34.52110559449164
1040
3.837499961356362
1040
0.0
1071
        0
1070
     0
1070
     1
1040
0.0
1040
0.1
1070
     0
1070
     2
1040
0.7853981633974483
1040
-450.4711526502384
1040
-6.600000038643599
1040
-0.2245064030267288
1040
0.2245064030267288
1070
     0
1040
2.356194490192344
1040
-450.4711526502384
1040
-6.600000038643599
1040
-0.2245064030267288
1040
-0.2245064030267288
1070
     0
1040
0.057451373970553
1071
        8
1040
8.039926998612713
1040
7.583586784299143
1040
0.0
1040
11.20225702032064
1040
9.422031052581871
1040
0.0
1040
12.58218345993088
1040
7.755940784391725
1040
0.0
1040
15.45702950791962
1040
8.100648784577117
1040
0.0
1040
20.91923552657942
1040
8.330454918347925
1040
0.0
1040
23.44909996466583
1040
9.709288119559971
1040
0.0
1040
28.27884250330123
1040
9.364578918903873
1040
0.0
1040
33.91353932691242
1040
9.594385052674681
1040
0.0
1002
}
  0
ARC
  5
AD3
330
1A
100
AcDbEntity
  8
ZUWAKU
100
AcDbCircle
 10
7.746105594491609
 20
9.317398948678718
 30
0.0
 40
2.099999999999999
100
AcDbArc
 50
180.0
 51
225.0
  0
LINE
  5
AD4
330
1A
100
AcDbEntity
  8
ZUWAKU
100
AcDbLine
 10
10.3711055944916
 20
5.67499996135637
 30
0.0
 11
10.3711055944916
 21
9.524999961356346
 31
0.0
  0
LINE
  5
AD5
330
1A
100
AcDbEntity
  8
ZUWAKU
100
AcDbLine
 10
11.77110559449164
 20
9.524999961356368
 30
0.0
 11
11.77110559449164
 21
5.67499996135637
 31
0.0
  0
ARC
  5
AD6
330
1A
100
AcDbEntity
  8
ZUWAKU
100
AcDbCircle
 10
7.746105594491609
 20
9.317398948678718
 30
0.0
 40
0.7
100
AcDbArc
 50
180.0000000000016
 51
224.9999999999988
  0
ARC
  5
AD7
330
1A
100
AcDbEntity
  8
ZUWAKU
100
AcDbCircle
 10
12.47110559449163
 20
5.67499996135637
 30
0.0
 40
2.099999999999999
100
AcDbArc
 50
180.0
 51
270.0
  0
ARC
  5
AD8
330
1A
100
AcDbEntity
  8
ZUWAKU
100
AcDbCircle
 10
7.921105594491621
 20
4.974999961356367
 30
0.0
 40
1.399999999999999
100
AcDbArc
 50
270.0
 51
0.0
  0
ARC
  5
AD9
330
1A
100
AcDbEntity
  8
ZUWAKU
100
AcDbCircle
 10
7.221105594491632
 20
5.882600974034019
 30
0.0
 40
2.099999999999999
100
AcDbArc
 50
0.0
 51
45.0
  0
LINE
  5
ADA
330
1A
100
AcDbEntity
  8
ZUWAKU
100
AcDbLine
 10
6.261181353999859
 20
7.832474708186957
 30
0.0
 11
7.716080341322197
 21
6.377575720864626
 31
0.0
  0
LINE
  5
ADB
330
1A
100
AcDbEntity
  8
ZUWAKU
100
AcDbLine
 10
6.171105594491621
 20
4.974999961356367
 30
0.0
 11
7.658605594491632
 21
4.974999961356367
 31
0.0
  0
LINE
  5
ADC
330
1A
100
AcDbEntity
  8
ZUWAKU
100
AcDbLine
 10
6.171105594491621
 20
3.574999961356368
 30
0.0
 11
7.921105594491621
 21
3.574999961356368
 31
0.0
  0
ARC
  5
ADD
330
1A
100
AcDbEntity
  8
ZUWAKU
100
AcDbCircle
 10
6.171105594491621
 20
4.712499961356368
 30
0.0
 40
0.2625
100
AcDbArc
 50
90.0
 51
180.0
  0
ARC
  5
ADE
330
1A
100
AcDbEntity
  8
ZUWAKU
100
AcDbCircle
 10
6.171105594491621
 20
3.837499961356368
 30
0.0
 40
0.2625
100
AcDbArc
 50
180.0
 51
270.0
  0
LINE
  5
ADF
330
1A
100
AcDbEntity
  8
ZUWAKU
100
AcDbLine
 10
5.908605594491632
 20
3.837499961356368
 30
0.0
 11
5.908605594491632
 21
4.712499961356368
 31
0.0
  0
ARC
  5
AE0
330
1A
100
AcDbEntity
  8
ZUWAKU
100
AcDbCircle
 10
7.221105594491632
 20
5.882600974034041
 30
0.0
 40
0.7
100
AcDbArc
 50
0.0
 51
45.0
  0
ARC
  5
AE1
330
1A
100
AcDbEntity
  8
ZUWAKU
100
AcDbCircle
 10
7.658605594491632
 20
5.23749996135637
 30
0.0
 40
0.2625
100
AcDbArc
 50
270.0
 51
0.0
  0
LINE
  5
AE2
330
1A
100
AcDbEntity
  8
ZUWAKU
100
AcDbLine
 10
7.921105594491621
 20
5.23749996135637
 30
0.0
 11
7.921105594491621
 21
5.882600974034041
 31
0.0
  0
LINE
  5
AE3
330
1A
100
AcDbEntity
  8
ZUWAKU
100
AcDbLine
 10
8.706029834983382
 20
7.36752521452578
 30
0.0
 11
7.251130847661045
 21
8.822424201848118
 31
0.0
  0
ARC
  5
AE4
330
1A
100
AcDbEntity
  8
ZUWAKU
100
AcDbCircle
 10
12.47110559449163
 20
5.67499996135637
 30
0.0
 40
0.7
100
AcDbArc
 50
180.0
 51
270.0
  0
LINE
  5
AE5
330
1A
100
AcDbEntity
  8
ZUWAKU
100
AcDbLine
 10
9.321105594491655
 20
4.974999961356367
 30
0.0
 11
9.321105594491655
 21
5.882600974034041
 31
0.0
  0
ARC
  5
AE6
330
1A
100
AcDbEntity
  8
ZUWAKU
100
AcDbCircle
 10
8.796105594491621
 20
10.48749996135636
 30
0.0
 40
0.2625
100
AcDbArc
 50
270.0
 51
0.0
  0
ARC
  5
AE7
330
1A
100
AcDbEntity
  8
ZUWAKU
100
AcDbCircle
 10
8.796105594491621
 20
11.36249996135636
 30
0.0
 40
0.2625
100
AcDbArc
 50
0.0
 51
90.0
  0
ARC
  5
AE8
330
1A
100
AcDbEntity
  8
ZUWAKU
100
AcDbCircle
 10
7.046105594491621
 20
10.22499996135636
 30
0.0
 40
1.399999999999999
100
AcDbArc
 50
90.0
 51
180.0
  0
LINE
  5
AE9
330
1A
100
AcDbEntity
  8
ZUWAKU
100
AcDbLine
 10
5.646105594491643
 20
10.22499996135636
 30
0.0
 11
5.646105594491643
 21
9.317398948678697
 31
0.0
  0
LINE
  5
AEA
330
1A
100
AcDbEntity
  8
ZUWAKU
100
AcDbLine
 10
8.796105594491621
 20
10.22499996135636
 30
0.0
 11
7.308605594491609
 21
10.22499996135636
 31
0.0
  0
LINE
  5
AEB
330
1A
100
AcDbEntity
  8
ZUWAKU
100
AcDbLine
 10
7.046105594491621
 20
9.962499961356368
 30
0.0
 11
7.046105594491621
 21
9.317398948678697
 31
0.0
  0
ARC
  5
AEC
330
1A
100
AcDbEntity
  8
ZUWAKU
100
AcDbCircle
 10
7.308605594491609
 20
9.962499961356368
 30
0.0
 40
0.2625
100
AcDbArc
 50
90.0
 51
180.0
  0
LINE
  5
AED
330
1A
100
AcDbEntity
  8
ZUWAKU
100
AcDbLine
 10
7.046105594491621
 20
11.62499996135637
 30
0.0
 11
8.796105594491621
 21
11.62499996135637
 31
0.0
  0
ARC
  5
AEE
330
1A
100
AcDbEntity
  8
ZUWAKU
100
AcDbCircle
 10
12.47110559449163
 20
9.524999961356346
 30
0.0
 40
2.099999999999999
100
AcDbArc
 50
90.0
 51
180.0
  0
ARC
  5
AEF
330
1A
100
AcDbEntity
  8
ZUWAKU
100
AcDbCircle
 10
12.47110559449163
 20
9.524999961356368
 30
0.0
 40
0.7
100
AcDbArc
 50
90.0
 51
180.0
  0
LINE
  5
AF0
330
1A
100
AcDbEntity
  8
ZUWAKU
100
AcDbLine
 10
9.058605594491609
 20
11.36249996135636
 30
0.0
 11
9.058605594491609
 21
10.48749996135636
 31
0.0
  0
LINE
  5
AF1
330
1A
100
AcDbEntity
  8
ZUWAKU
100
AcDbLine
 10
17.83817306314955
 20
11.44154694543985
 30
0.0
 11
16.90403812583366
 21
8.483452977272882
 31
0.0
  0
LINE
  5
AF2
330
1A
100
AcDbEntity
  8
ZUWAKU
100
AcDbLine
 10
14.92110559449162
 20
11.36249996135636
 30
0.0
 11
14.92110559449162
 21
3.837499961356368
 31
0.0
  0
LINE
  5
AF3
330
1A
100
AcDbEntity
  8
ZUWAKU
100
AcDbLine
 10
16.32110559449165
 20
8.562499961356369
 30
0.0
 11
16.32110559449165
 21
11.36249996135636
 31
0.0
  0
LINE
  5
AF4
330
1A
100
AcDbEntity
  8
ZUWAKU
100
AcDbLine
 10
28.92110559449162
 20
5.499999961356365
 30
0.0
 11
28.92110559449162
 21
11.36249996135636
 31
0.0
  0
LINE
  5
AF5
330
1A
100
AcDbEntity
  8
ZUWAKU
100
AcDbLine
 10
27.52110559449164
 20
11.36249996135636
 30
0.0
 11
27.52110559449164
 21
4.974999961356367
 31
0.0
  0
LINE
  5
AF6
330
1A
100
AcDbEntity
  8
ZUWAKU
100
AcDbLine
 10
21.74610559449161
 20
3.837499961356368
 30
0.0
 11
21.74610559449161
 21
11.36249996135636
 31
0.0
  0
LINE
  5
AF7
330
1A
100
AcDbEntity
  8
ZUWAKU
100
AcDbLine
 10
20.34610559449163
 20
11.36249996135636
 30
0.0
 11
20.34610559449163
 21
3.837499961356368
 31
0.0
  0
LINE
  5
AF8
330
1A
100
AcDbEntity
  8
ZUWAKU
100
AcDbLine
 10
18.65742883558061
 20
9.602523558138081
 30
0.0
 11
18.02505296291269
 21
7.599999961356378
 31
0.0
  0
ARC
  5
AF9
330
1A
100
AcDbEntity
  8
ZUWAKU
100
AcDbCircle
 10
24.89610559449164
 20
9.317398948678718
 30
0.0
 40
2.099999999999999
100
AcDbArc
 50
180.0
 51
225.0
  0
ARC
  5
AFA
330
1A
100
AcDbEntity
  8
ZUWAKU
100
AcDbCircle
 10
24.89610559449164
 20
9.317398948678718
 30
0.0
 40
0.7
100
AcDbArc
 50
180.0000000000016
 51
224.9999999999988
  0
LINE
  5
AFB
330
1A
100
AcDbEntity
  8
ZUWAKU
100
AcDbLine
 10
33.12110559449161
 20
11.36249996135636
 30
0.0
 11
33.12110559449161
 21
3.837499961356368
 31
0.0
  0
LINE
  5
AFC
330
1A
100
AcDbEntity
  8
ZUWAKU
100
AcDbLine
 10
34.52110559449164
 20
3.837499961356368
 30
0.0
 11
34.52110559449164
 21
11.36249996135636
 31
0.0
  0
LINE
  5
AFD
330
1A
100
AcDbEntity
  8
ZUWAKU
100
AcDbLine
 10
30.67110559449162
 20
11.36249996135636
 30
0.0
 11
30.67110559449162
 21
5.499999961356365
 31
0.0
  0
LINE
  5
AFE
330
1A
100
AcDbEntity
  8
ZUWAKU
100
AcDbLine
 10
32.07110559449165
 20
4.974999961356367
 30
0.0
 11
32.07110559449165
 21
11.36249996135636
 31
0.0
  0
LINE
  5
AFF
330
1A
100
AcDbEntity
  8
ZUWAKU
100
AcDbLine
 10
39.56331429109525
 20
14.99999996135636
 30
0.0
 11
39.56331429109525
 21
0.3999999613564
 31
0.0
  0
LINE
  5
B00
330
1A
100
AcDbEntity
  8
ZUWAKU
100
AcDbLine
 10
39.76331429109518
 20
14.99999996135636
 30
0.0
 11
39.7633142910953
 21
0.3999999613564
 31
0.0
  0
LINE
  5
B01
330
1A
100
AcDbEntity
  8
ZUWAKU
100
AcDbLine
 10
39.66331429109516
 20
14.99999996135636
 30
0.0
 11
39.66331429109527
 21
0.3999999613564
 31
0.0
  0
LINE
  5
B02
330
1A
100
AcDbEntity
  8
ZUWAKU
100
AcDbLine
 10
28.92110559449162
 20
3.574999961356368
 30
0.0
 11
30.67110559449162
 21
3.574999961356368
 31
0.0
  0
LINE
  5
B03
330
1A
100
AcDbEntity
  8
ZUWAKU
100
AcDbLine
 10
30.14610559449164
 20
4.974999961356367
 30
0.0
 11
29.44610559449165
 21
4.974999961356367
 31
0.0
  0
LINE
  5
B04
330
1A
100
AcDbEntity
  8
ZUWAKU
100
AcDbLine
 10
20.60860559449162
 20
3.574999961356368
 30
0.0
 11
21.48360559449162
 21
3.574999961356368
 31
0.0
  0
LINE
  5
B05
330
1A
100
AcDbEntity
  8
ZUWAKU
100
AcDbLine
 10
17.83817306314955
 20
3.758452977272881
 30
0.0
 11
16.90403812583366
 21
6.716546945439851
 31
0.0
  0
ARC
  5
B06
330
1A
100
AcDbEntity
  8
ZUWAKU
100
AcDbCircle
 10
16.58360559449164
 20
6.637499961356368
 30
0.0
 40
0.2625
100
AcDbArc
 50
90.0
 51
180.0
  0
ARC
  5
B07
330
1A
100
AcDbEntity
  8
ZUWAKU
100
AcDbCircle
 10
16.65372267623598
 20
6.637499961356368
 30
0.0
 40
0.2625
100
AcDbArc
 50
17.52556837372303
 51
90.0
  0
ARC
  5
B08
330
1A
100
AcDbEntity
  8
ZUWAKU
100
AcDbCircle
 10
15.18360559449161
 20
3.837499961356368
 30
0.0
 40
0.2625
100
AcDbArc
 50
180.0
 51
270.0
  0
ARC
  5
B09
330
1A
100
AcDbEntity
  8
ZUWAKU
100
AcDbCircle
 10
13.43360559449161
 20
4.712499961356368
 30
0.0
 40
0.2625
100
AcDbArc
 50
0.0
 51
90.0
  0
ARC
  5
B0A
330
1A
100
AcDbEntity
  8
ZUWAKU
100
AcDbCircle
 10
13.43360559449161
 20
3.837499961356368
 30
0.0
 40
0.2625
100
AcDbArc
 50
270.0
 51
0.0
  0
LINE
  5
B0B
330
1A
100
AcDbEntity
  8
ZUWAKU
100
AcDbLine
 10
13.69610559449165
 20
4.712499961356368
 30
0.0
 11
13.69610559449165
 21
3.837499961356368
 31
0.0
  0
LINE
  5
B0C
330
1A
100
AcDbEntity
  8
ZUWAKU
100
AcDbLine
 10
16.32110559449165
 20
3.837499961356368
 30
0.0
 11
16.32110559449165
 21
6.637499961356368
 31
0.0
  0
ARC
  5
B0D
330
1A
100
AcDbEntity
  8
ZUWAKU
100
AcDbCircle
 10
16.05860559449161
 20
3.837499961356368
 30
0.0
 40
0.2625
100
AcDbArc
 50
270.0
 51
0.0
  0
LINE
  5
B0E
330
1A
100
AcDbEntity
  8
ZUWAKU
100
AcDbLine
 10
15.18360559449161
 20
3.574999961356368
 30
0.0
 11
16.05860559449161
 21
3.574999961356368
 31
0.0
  0
ARC
  5
B0F
330
1A
100
AcDbEntity
  8
ZUWAKU
100
AcDbCircle
 10
16.58360559449164
 20
8.562499961356369
 30
0.0
 40
0.2625
100
AcDbArc
 50
180.0
 51
270.0
  0
LINE
  5
B10
330
1A
100
AcDbEntity
  8
ZUWAKU
100
AcDbLine
 10
16.58360559449164
 20
6.899999961356368
 30
0.0
 11
16.65372267623598
 21
6.899999961356368
 31
0.0
  0
LINE
  5
B11
330
1A
100
AcDbEntity
  8
ZUWAKU
100
AcDbLine
 10
16.65372267623598
 20
8.299999961356366
 30
0.0
 11
16.58360559449164
 21
8.299999961356366
 31
0.0
  0
ARC
  5
B12
330
1A
100
AcDbEntity
  8
ZUWAKU
100
AcDbCircle
 10
16.65372267623598
 20
8.562499961356369
 30
0.0
 40
0.2625
100
AcDbArc
 50
270.0
 51
342.4744316262769
  0
ARC
  5
B13
330
1A
100
AcDbEntity
  8
ZUWAKU
100
AcDbCircle
 10
18.08848851274729
 20
3.837499961356368
 30
0.0
 40
0.2625
100
AcDbArc
 50
197.525568373723
 51
270.0
  0
LINE
  5
B14
330
1A
100
AcDbEntity
  8
ZUWAKU
100
AcDbLine
 10
19.18824865214952
 20
3.916546945439854
 30
0.0
 11
18.02505296291269
 21
7.599999961356378
 31
0.0
  0
ARC
  5
B15
330
1A
100
AcDbEntity
  8
ZUWAKU
100
AcDbCircle
 10
18.93793320255179
 20
3.837499961356368
 30
0.0
 40
0.2625
100
AcDbArc
 50
270.0
 51
17.52556837372303
  0
LINE
  5
B16
330
1A
100
AcDbEntity
  8
ZUWAKU
100
AcDbLine
 10
18.08848851274729
 20
3.574999961356368
 30
0.0
 11
18.93793320255179
 21
3.574999961356368
 31
0.0
  0
ARC
  5
B17
330
1A
100
AcDbEntity
  8
ZUWAKU
100
AcDbCircle
 10
20.60860559449162
 20
3.837499961356368
 30
0.0
 40
0.2625
100
AcDbArc
 50
180.0
 51
270.0
  0
ARC
  5
B18
330
1A
100
AcDbEntity
  8
ZUWAKU
100
AcDbCircle
 10
25.07110559449165
 20
4.974999961356367
 30
0.0
 40
1.399999999999999
100
AcDbArc
 50
270.0
 51
0.0
  0
ARC
  5
B19
330
1A
100
AcDbEntity
  8
ZUWAKU
100
AcDbCircle
 10
28.92110559449162
 20
4.974999961356367
 30
0.0
 40
1.399999999999999
100
AcDbArc
 50
180.0
 51
270.0
  0
LINE
  5
B1A
330
1A
100
AcDbEntity
  8
ZUWAKU
100
AcDbLine
 10
25.85602983498342
 20
7.36752521452578
 30
0.0
 11
24.40113084766102
 21
8.822424201848118
 31
0.0
  0
LINE
  5
B1B
330
1A
100
AcDbEntity
  8
ZUWAKU
100
AcDbLine
 10
23.41118135399989
 20
7.832474708186957
 30
0.0
 11
24.86608034132223
 21
6.377575720864626
 31
0.0
  0
LINE
  5
B1C
330
1A
100
AcDbEntity
  8
ZUWAKU
100
AcDbLine
 10
23.32110559449165
 20
3.574999961356368
 30
0.0
 11
25.07110559449165
 21
3.574999961356368
 31
0.0
  0
LINE
  5
B1D
330
1A
100
AcDbEntity
  8
ZUWAKU
100
AcDbLine
 10
23.32110559449165
 20
4.974999961356367
 30
0.0
 11
24.80860559449161
 21
4.974999961356367
 31
0.0
  0
ARC
  5
B1E
330
1A
100
AcDbEntity
  8
ZUWAKU
100
AcDbCircle
 10
23.32110559449165
 20
4.712499961356368
 30
0.0
 40
0.2625
100
AcDbArc
 50
90.0
 51
180.0
  0
ARC
  5
B1F
330
1A
100
AcDbEntity
  8
ZUWAKU
100
AcDbCircle
 10
21.48360559449162
 20
3.837499961356368
 30
0.0
 40
0.2625
100
AcDbArc
 50
270.0
 51
0.0
  0
ARC
  5
B20
330
1A
100
AcDbEntity
  8
ZUWAKU
100
AcDbCircle
 10
23.32110559449165
 20
3.837499961356368
 30
0.0
 40
0.2625
100
AcDbArc
 50
180.0
 51
270.0
  0
LINE
  5
B21
330
1A
100
AcDbEntity
  8
ZUWAKU
100
AcDbLine
 10
23.05860559449161
 20
3.837499961356368
 30
0.0
 11
23.05860559449161
 21
4.712499961356368
 31
0.0
  0
ARC
  5
B22
330
1A
100
AcDbEntity
  8
ZUWAKU
100
AcDbCircle
 10
24.80860559449161
 20
5.23749996135637
 30
0.0
 40
0.2625
100
AcDbArc
 50
270.0
 51
0.0
  0
ARC
  5
B23
330
1A
100
AcDbEntity
  8
ZUWAKU
100
AcDbCircle
 10
24.37110559449161
 20
5.882600974034041
 30
0.0
 40
0.7
100
AcDbArc
 50
0.0
 51
45.0
  0
LINE
  5
B24
330
1A
100
AcDbEntity
  8
ZUWAKU
100
AcDbLine
 10
25.07110559449165
 20
5.23749996135637
 30
0.0
 11
25.07110559449165
 21
5.882600974034041
 31
0.0
  0
ARC
  5
B25
330
1A
100
AcDbEntity
  8
ZUWAKU
100
AcDbCircle
 10
29.44610559449165
 20
5.499999961356365
 30
0.0
 40
0.525
100
AcDbArc
 50
180.0
 51
270.0
  0
ARC
  5
B26
330
1A
100
AcDbEntity
  8
ZUWAKU
100
AcDbCircle
 10
24.37110559449161
 20
5.882600974034019
 30
0.0
 40
2.099999999999999
100
AcDbArc
 50
0.0
 51
45.0
  0
LINE
  5
B27
330
1A
100
AcDbEntity
  8
ZUWAKU
100
AcDbLine
 10
26.47110559449163
 20
4.974999961356367
 30
0.0
 11
26.47110559449163
 21
5.882600974034041
 31
0.0
  0
ARC
  5
B28
330
1A
100
AcDbEntity
  8
ZUWAKU
100
AcDbCircle
 10
30.67110559449162
 20
4.974999961356367
 30
0.0
 40
1.399999999999999
100
AcDbArc
 50
270.0
 51
0.0
  0
LINE
  5
B29
330
1A
100
AcDbEntity
  8
ZUWAKU
100
AcDbLine
 10
33.38360559449165
 20
3.574999961356368
 30
0.0
 11
34.25860559449165
 21
3.574999961356368
 31
0.0
  0
ARC
  5
B2A
330
1A
100
AcDbEntity
  8
ZUWAKU
100
AcDbCircle
 10
30.14610559449164
 20
5.499999961356365
 30
0.0
 40
0.525
100
AcDbArc
 50
270.0
 51
0.0
  0
ARC
  5
B2B
330
1A
100
AcDbEntity
  8
ZUWAKU
100
AcDbCircle
 10
33.38360559449165
 20
3.837499961356368
 30
0.0
 40
0.2625
100
AcDbArc
 50
180.0
 51
270.0
  0
ARC
  5
B2C
330
1A
100
AcDbEntity
  8
ZUWAKU
100
AcDbCircle
 10
34.25860559449165
 20
3.837499961356368
 30
0.0
 40
0.2625
100
AcDbArc
 50
270.0
 51
0.0
  0
LINE
  5
B2D
330
1A
100
AcDbEntity
  8
ZUWAKU
100
AcDbLine
 10
21.48360559449162
 20
11.62499996135637
 30
0.0
 11
20.60860559449162
 21
11.62499996135637
 31
0.0
  0
LINE
  5
B2E
330
1A
100
AcDbEntity
  8
ZUWAKU
100
AcDbLine
 10
13.69610559449165
 20
11.36249996135636
 30
0.0
 11
13.69610559449165
 21
10.48749996135636
 31
0.0
  0
ARC
  5
B2F
330
1A
100
AcDbEntity
  8
ZUWAKU
100
AcDbCircle
 10
13.43360559449161
 20
10.48749996135636
 30
0.0
 40
0.2625
100
AcDbArc
 50
270.0
 51
0.0
  0
ARC
  5
B30
330
1A
100
AcDbEntity
  8
ZUWAKU
100
AcDbCircle
 10
15.18360559449161
 20
11.36249996135636
 30
0.0
 40
0.2625
100
AcDbArc
 50
90.0
 51
180.0
  0
ARC
  5
B31
330
1A
100
AcDbEntity
  8
ZUWAKU
100
AcDbCircle
 10
13.43360559449161
 20
11.36249996135636
 30
0.0
 40
0.2625
100
AcDbArc
 50
0.0
 51
90.0
  0
LINE
  5
B32
330
1A
100
AcDbEntity
  8
ZUWAKU
100
AcDbLine
 10
16.05860559449161
 20
11.62499996135637
 30
0.0
 11
15.18360559449161
 21
11.62499996135637
 31
0.0
  0
ARC
  5
B33
330
1A
100
AcDbEntity
  8
ZUWAKU
100
AcDbCircle
 10
16.05860559449161
 20
11.36249996135636
 30
0.0
 40
0.2625
100
AcDbArc
 50
0.0
 51
90.0
  0
ARC
  5
B34
330
1A
100
AcDbEntity
  8
ZUWAKU
100
AcDbCircle
 10
18.08848851274729
 20
11.36249996135636
 30
0.0
 40
0.2625
100
AcDbArc
 50
90.0
 51
162.4744316262769
  0
LINE
  5
B35
330
1A
100
AcDbEntity
  8
ZUWAKU
100
AcDbLine
 10
19.18824865214952
 20
11.28345297727288
 30
0.0
 11
18.65742883558061
 21
9.602523558138081
 31
0.0
  0
ARC
  5
B36
330
1A
100
AcDbEntity
  8
ZUWAKU
100
AcDbCircle
 10
18.93793320255179
 20
11.36249996135636
 30
0.0
 40
0.2625
100
AcDbArc
 50
342.4744316262769
 51
90.0
  0
LINE
  5
B37
330
1A
100
AcDbEntity
  8
ZUWAKU
100
AcDbLine
 10
18.08848851274729
 20
11.62499996135637
 30
0.0
 11
18.93793320255179
 21
11.62499996135637
 31
0.0
  0
ARC
  5
B38
330
1A
100
AcDbEntity
  8
ZUWAKU
100
AcDbCircle
 10
20.60860559449162
 20
11.36249996135636
 30
0.0
 40
0.2625
100
AcDbArc
 50
90.0
 51
180.0
  0
LINE
  5
B39
330
1A
100
AcDbEntity
  8
ZUWAKU
100
AcDbLine
 10
25.94610559449165
 20
10.22499996135636
 30
0.0
 11
24.45860559449164
 21
10.22499996135636
 31
0.0
  0
LINE
  5
B3A
330
1A
100
AcDbEntity
  8
ZUWAKU
100
AcDbLine
 10
24.19610559449165
 20
11.62499996135637
 30
0.0
 11
25.94610559449165
 21
11.62499996135637
 31
0.0
  0
ARC
  5
B3B
330
1A
100
AcDbEntity
  8
ZUWAKU
100
AcDbCircle
 10
24.19610559449165
 20
10.22499996135636
 30
0.0
 40
1.399999999999999
100
AcDbArc
 50
90.0
 51
180.0
  0
LINE
  5
B3C
330
1A
100
AcDbEntity
  8
ZUWAKU
100
AcDbLine
 10
22.79610559449162
 20
10.22499996135636
 30
0.0
 11
22.79610559449162
 21
9.317398948678697
 31
0.0
  0
ARC
  5
B3D
330
1A
100
AcDbEntity
  8
ZUWAKU
100
AcDbCircle
 10
21.48360559449162
 20
11.36249996135636
 30
0.0
 40
0.2625
100
AcDbArc
 50
0.0
 51
90.0
  0
LINE
  5
B3E
330
1A
100
AcDbEntity
  8
ZUWAKU
100
AcDbLine
 10
24.19610559449165
 20
9.962499961356368
 30
0.0
 11
24.19610559449165
 21
9.317398948678697
 31
0.0
  0
ARC
  5
B3F
330
1A
100
AcDbEntity
  8
ZUWAKU
100
AcDbCircle
 10
24.45860559449164
 20
9.962499961356368
 30
0.0
 40
0.2625
100
AcDbArc
 50
90.0
 51
180.0
  0
LINE
  5
B40
330
1A
100
AcDbEntity
  8
ZUWAKU
100
AcDbLine
 10
26.20860559449164
 20
11.36249996135636
 30
0.0
 11
26.20860559449164
 21
10.48749996135636
 31
0.0
  0
ARC
  5
B41
330
1A
100
AcDbEntity
  8
ZUWAKU
100
AcDbCircle
 10
25.94610559449165
 20
10.48749996135636
 30
0.0
 40
0.2625
100
AcDbArc
 50
270.0
 51
0.0
  0
ARC
  5
B42
330
1A
100
AcDbEntity
  8
ZUWAKU
100
AcDbCircle
 10
25.94610559449165
 20
11.36249996135636
 30
0.0
 40
0.2625
100
AcDbArc
 50
0.0
 51
90.0
  0
LINE
  5
B43
330
1A
100
AcDbEntity
  8
ZUWAKU
100
AcDbLine
 10
28.65860559449163
 20
11.62499996135637
 30
0.0
 11
27.78360559449163
 21
11.62499996135637
 31
0.0
  0
ARC
  5
B44
330
1A
100
AcDbEntity
  8
ZUWAKU
100
AcDbCircle
 10
27.78360559449163
 20
11.36249996135636
 30
0.0
 40
0.2625
100
AcDbArc
 50
90.0
 51
180.0
  0
ARC
  5
B45
330
1A
100
AcDbEntity
  8
ZUWAKU
100
AcDbCircle
 10
28.65860559449163
 20
11.36249996135636
 30
0.0
 40
0.2625
100
AcDbArc
 50
0.0
 51
90.0
  0
LINE
  5
B46
330
1A
100
AcDbEntity
  8
ZUWAKU
100
AcDbLine
 10
34.25860559449165
 20
11.62499996135637
 30
0.0
 11
33.38360559449165
 21
11.62499996135637
 31
0.0
  0
ARC
  5
B47
330
1A
100
AcDbEntity
  8
ZUWAKU
100
AcDbCircle
 10
30.93360559449161
 20
11.36249996135636
 30
0.0
 40
0.2625
100
AcDbArc
 50
90.0
 51
180.0
  0
LINE
  5
B48
330
1A
100
AcDbEntity
  8
ZUWAKU
100
AcDbLine
 10
31.80860559449161
 20
11.62499996135637
 30
0.0
 11
30.93360559449161
 21
11.62499996135637
 31
0.0
  0
ARC
  5
B49
330
1A
100
AcDbEntity
  8
ZUWAKU
100
AcDbCircle
 10
31.80860559449161
 20
11.36249996135636
 30
0.0
 40
0.2625
100
AcDbArc
 50
0.0
 51
90.0
  0
ARC
  5
B4A
330
1A
100
AcDbEntity
  8
ZUWAKU
100
AcDbCircle
 10
33.38360559449165
 20
11.36249996135636
 30
0.0
 40
0.2625
100
AcDbArc
 50
90.0
 51
180.0
  0
ARC
  5
B4B
330
1A
100
AcDbEntity
  8
ZUWAKU
100
AcDbCircle
 10
34.25860559449165
 20
11.36249996135636
 30
0.0
 40
0.2625
100
AcDbArc
 50
0.0
 51
90.0
  0
LINE
  5
B4C
330
1A
100
AcDbEntity
  8
ZUWAKU
100
AcDbLine
 10
104.2233001621349
 20
14.99999996135636
 30
0.0
 11
104.223300162135
 21
0.3999999613564
 31
0.0
  0
LINE
  5
B4D
330
1A
100
AcDbEntity
  8
ZUWAKU
100
AcDbLine
 10
104.3233001621349
 20
14.99999996135636
 30
0.0
 11
104.323300162135
 21
0.3999999613564
 31
0.0
  0
LINE
  5
B4E
330
1A
100
AcDbEntity
  8
ZUWAKU
100
AcDbLine
 10
104.123300162135
 20
14.99999996135636
 30
0.0
 11
104.123300162135
 21
0.3999999613564
 31
0.0
  0
TEXT
  5
B4F
330
1A
100
AcDbEntity
  8
MOJI
100
AcDbText
 10
119.9136008575266
 20
9.002460490060059
 30
0.0
 40
2.799999999999999
  1
リフォーム・伸縮ソケット
 41
0.9
  7
ｽﾀｲﾙ1
100
AcDbText
  0
TEXT
  5
B50
330
1A
100
AcDbEntity
  8
ZUWAKU
100
AcDbText
 10
104.8620226732398
 20
4.827678230549174
 30
0.0
 40
2.0
  1
サイズ
 41
0.9
  7
ｽﾀｲﾙ1
100
AcDbText
  0
TEXT
  5
B51
330
1A
100
AcDbEntity
  8
MOJI
100
AcDbText
 10
119.9136008575266
 20
1.602460490060076
 30
0.0
 40
2.799999999999999
  1
ＵＴ６０
 41
0.9
  7
ｽﾀｲﾙ1
100
AcDbText
  0
TEXT
  5
B52
330
1A
100
AcDbEntity
  8
ZUWAKU
100
AcDbText
 10
104.8620226732397
 20
12.02767823054915
 30
0.0
 40
2.0
  1
品名
 41
0.9
  7
ｽﾀｲﾙ1
100
AcDbText
  0
TEXT
  5
B53
330
1A
100
AcDbEntity
  8
ZUWAKU
100
AcDbText
 10
329.1019683607522
 20
9.002460490060059
 30
0.0
 40
2.799999999999999
  1
　　．　　．　　
 41
0.9
  7
ｽﾀｲﾙ1
100
AcDbText
  0
LINE
  5
B54
330
1A
100
AcDbEntity
  8
ZUWAKU
100
AcDbLine
 10
324.4086007722031
 20
7.799999961356382
 30
0.0
 11
348.6245047913716
 21
7.799999961356382
 31
0.0
  0
LINE
  5
B55
330
1A
100
AcDbEntity
  8
ZUWAKU
100
AcDbLine
 10
324.4086007722032
 20
7.699999961356384
 30
0.0
 11
348.6245047913716
 21
7.699999961356382
 31
0.0
  0
LINE
  5
B56
330
1A
100
AcDbEntity
  8
ZUWAKU
100
AcDbLine
 10
324.4086007722031
 20
7.599999961356381
 30
0.0
 11
348.6245047913716
 21
7.599999961356383
 31
0.0
  0
LINE
  5
B57
330
1A
100
AcDbEntity
  8
ZUWAKU
100
AcDbLine
 10
252.5995892661715
 20
7.799999961356382
 30
0.0
 11
276.2634774001572
 21
7.799999961356382
 31
0.0
  0
LINE
  5
B58
330
1A
100
AcDbEntity
  8
ZUWAKU
100
AcDbLine
 10
252.5995892661715
 20
7.699999961356382
 30
0.0
 11
276.2634774001572
 21
7.699999961356382
 31
0.0
  0
LINE
  5
B59
330
1A
100
AcDbEntity
  8
ZUWAKU
100
AcDbLine
 10
252.5995892661715
 20
7.599999961356385
 30
0.0
 11
276.2634774001572
 21
7.599999961356385
 31
0.0
  0
LINE
  5
B5A
330
1A
100
AcDbEntity
  8
ZUWAKU
100
AcDbLine
 10
252.3995892661715
 20
14.99999996135636
 30
0.0
 11
252.3995892661715
 21
0.3999999613564
 31
0.0
  0
LINE
  5
B5B
330
1A
100
AcDbEntity
  8
ZUWAKU
100
AcDbLine
 10
252.5995892661715
 20
14.99999996135636
 30
0.0
 11
252.5995892661716
 21
0.3999999613564
 31
0.0
  0
LINE
  5
B5C
330
1A
100
AcDbEntity
  8
ZUWAKU
100
AcDbLine
 10
252.4995892661714
 20
14.99999996135636
 30
0.0
 11
252.4995892661716
 21
0.3999999613564
 31
0.0
  0
TEXT
  5
B5D
330
1A
100
AcDbEntity
  8
MOJI
100
AcDbText
 10
264.0204535032574
 20
9.002460490060059
 30
0.0
 40
2.799999999999999
  1
Ａ３
 41
0.9
  7
ｽﾀｲﾙ1
100
AcDbText
  0
LINE
  5
B5E
330
1A
100
AcDbEntity
  8
ZUWAKU
100
AcDbLine
 10
223.7121815025967
 20
14.99999996135636
 30
0.0
 11
223.7121815025967
 21
0.3999999613564
 31
0.0
  0
LINE
  5
B5F
330
1A
100
AcDbEntity
  8
ZUWAKU
100
AcDbLine
 10
223.9121815025967
 20
14.99999996135636
 30
0.0
 11
223.9121815025967
 21
0.3999999613564
 31
0.0
  0
LINE
  5
B60
330
1A
100
AcDbEntity
  8
ZUWAKU
100
AcDbLine
 10
223.8121815025966
 20
14.99999996135636
 30
0.0
 11
223.8121815025968
 21
0.3999999613564
 31
0.0
  0
TEXT
  5
B61
330
1A
100
AcDbEntity
  8
MOJI
100
AcDbText
 10
230.0556265037627
 20
5.971308822186358
 30
0.0
 40
2.799999999999999
  1
ＧＵ１５
 41
0.9
  7
ｽﾀｲﾙ1
100
AcDbText
  0
TEXT
  5
B63
330
1A
100
AcDbEntity
  8
ZUWAKU
100
AcDbText
 10
253.3383117772764
 20
4.827678230549174
 30
0.0
 40
2.0
  1
縮尺
 41
0.9
  7
ｽﾀｲﾙ1
100
AcDbText
  0
TEXT
  5
B64
330
1A
100
AcDbEntity
  8
MOJI
100
AcDbText
 10
264.0204535032574
 20
1.602460490060076
 30
0.0
 40
2.799999999999999
  1
１/１
 41
0.9
  7
ｽﾀｲﾙ1
100
AcDbText
  0
TEXT
  5
B65
330
1A
100
AcDbEntity
  8
ZUWAKU
100
AcDbText
 10
224.6509040137015
 20
12.02767823054915
 30
0.0
 40
2.0
  1
品番
 41
0.9
  7
ｽﾀｲﾙ1
100
AcDbText
  0
TEXT
  5
B66
330
1A
100
AcDbEntity
  8
ZUWAKU
100
AcDbText
 10
253.3383117772763
 20
12.02767823054915
 30
0.0
 40
2.0
  1
用紙
 41
0.9
  7
ｽﾀｲﾙ1
100
AcDbText
  0
LINE
  5
B67
330
1A
100
AcDbEntity
  8
ZUWAKU
100
AcDbLine
 10
276.2634774001572
 20
14.99999996135636
 30
0.0
 11
276.2634774001572
 21
0.3999999613564
 31
0.0
  0
LINE
  5
B68
330
1A
100
AcDbEntity
  8
ZUWAKU
100
AcDbLine
 10
276.4634774001572
 20
14.99999996135636
 30
0.0
 11
276.4634774001573
 21
0.3999999613564
 31
0.0
  0
LINE
  5
B69
330
1A
100
AcDbEntity
  8
ZUWAKU
100
AcDbLine
 10
276.3634774001571
 20
14.99999996135636
 30
0.0
 11
276.3634774001573
 21
0.3999999613564
 31
0.0
  0
LINE
  5
B6A
330
1A
100
AcDbEntity
  8
ZUWAKU
100
AcDbLine
 10
324.2086007722033
 20
14.99999996135636
 30
0.0
 11
324.2086007722033
 21
0.3999999613564
 31
0.0
  0
LINE
  5
B6B
330
1A
100
AcDbEntity
  8
ZUWAKU
100
AcDbLine
 10
324.4086007722032
 20
14.99999996135636
 30
0.0
 11
324.4086007722033
 21
0.3999999613564
 31
0.0
  0
LINE
  5
B6C
330
1A
100
AcDbEntity
  8
ZUWAKU
100
AcDbLine
 10
324.3086007722032
 20
14.99999996135636
 30
0.0
 11
324.3086007722033
 21
0.3999999613564
 31
0.0
  0
TEXT
  5
B6D
330
1A
100
AcDbEntity
  8
ZUWAKU
100
AcDbText
 10
325.1473232833081
 20
12.02767823054915
 30
0.0
 40
2.0
  1
DATE
 41
0.9
  7
ｽﾀｲﾙ1
100
AcDbText
  0
TEXT
  5
B6E
330
1A
100
AcDbEntity
  8
ZUWAKU
100
AcDbText
 10
354.2640416132229
 20
8.776919629199767
 30
0.0
 40
3.0
  1
積水化学工業株式会社
 41
0.9
  7
ｽﾀｲﾙ1
100
AcDbText
  0
LINE
  5
B6F
330
1A
100
AcDbEntity
  8
ZUWAKU
100
AcDbLine
 10
348.9245047913716
 20
14.99999996135636
 30
0.0
 11
348.9245047913717
 21
0.3999999613564
 31
0.0
  0
LINE
  5
B70
330
1A
100
AcDbEntity
  8
ZUWAKU
100
AcDbLine
 10
348.8245047913716
 20
14.99999996135636
 30
0.0
 11
348.8245047913717
 21
0.3999999613564
 31
0.0
  0
LINE
  5
B71
330
1A
100
AcDbEntity
  8
ZUWAKU
100
AcDbLine
 10
348.7245047913717
 20
14.99999996135636
 30
0.0
 11
348.7245047913717
 21
0.3999999613564
 31
0.0
  0
LINE
  5
B72
330
1A
100
AcDbEntity
  8
ZUWAKU
100
AcDbLine
 10
348.6245047913716
 20
14.99999996135636
 30
0.0
 11
348.6245047913716
 21
0.3999999613564
 31
0.0
  0
TEXT
  5
B73
330
1A
100
AcDbEntity
  8
ZUWAKU
100
AcDbText
 10
354.2640416132229
 20
3.324420118283399
 30
0.0
 40
3.0
  1
建材事業部
 41
0.9
  7
ｽﾀｲﾙ1
100
AcDbText
  0
LINE
  5
1049
330
1A
100
AcDbEntity
  8
CENTER_L
  6
CENTER
 62
     1
 48
5.0
100
AcDbLine
 10
165.7111702611223
 20
61.09728453501753
 30
0.0
 11
165.7111702611223
 21
227.1267422095358
 31
0.0
  0
LINE
  5
104B
330
1A
100
AcDbEntity
  8
SEIHIN
100
AcDbLine
 10
132.2111702611223
 20
223.1602070025775
 30
0.0
 11
199.2111702611223
 21
223.1602070025776
 31
0.0
  0
LINE
  5
104C
330
1A
100
AcDbEntity
  8
SEIHIN
100
AcDbLine
 10
132.2111702611223
 20
99.66020700257764
 30
0.0
 11
132.2111702611223
 21
223.1602070025775
 31
0.0
  0
LINE
  5
104D
330
1A
100
AcDbEntity
  8
SEIHIN
100
AcDbLine
 10
199.2111702611223
 20
99.66020700257764
 30
0.0
 11
199.2111702611223
 21
223.1602070025775
 31
0.0
  0
LINE
  5
104E
330
1A
100
AcDbEntity
  8
SEIHIN
100
AcDbLine
 10
136.8111702611223
 20
69.66020700257764
 30
0.0
 11
194.6111702611223
 21
69.66020700257768
 31
0.0
  0
LINE
  5
104F
330
1A
100
AcDbEntity
  8
SEIHIN
100
AcDbLine
 10
132.2111702611223
 20
99.66020700257764
 30
0.0
 11
199.2111702611223
 21
99.66020700257764
 31
0.0
  0
LINE
  5
1050
330
1A
100
AcDbEntity
  8
SEIHIN
100
AcDbLine
 10
136.8111702611223
 20
69.66020700257764
 30
0.0
 11
136.8111702611223
 21
99.66020700257764
 31
0.0
  0
LINE
  5
1051
330
1A
100
AcDbEntity
  8
SEIHIN
100
AcDbLine
 10
194.6111702611223
 20
69.66020700257764
 30
0.0
 11
194.6111702611223
 21
99.66020700257764
 31
0.0
  0
LINE
  5
1066
330
1A
100
AcDbEntity
  8
SEIHIN
100
AcDbLine
 10
168.1916577493492
 20
158.4571682080924
 30
0.0
 11
168.1926531123621
 21
166.4720966652003
 31
0.0
  0
LINE
  5
1067
330
1A
100
AcDbEntity
  8
SEIHIN
100
AcDbLine
 10
163.231480326604
 20
158.4571682080924
 30
0.0
 11
163.231480326604
 21
166.4720966652003
 31
0.0
  0
LINE
  5
1068
330
1A
100
AcDbEntity
  8
SEIHIN
100
AcDbLine
 10
170.1645037148229
 20
158.4571682080924
 30
0.0
 11
168.1916577493491
 21
158.4571682080924
 31
0.0
  0
LINE
  5
1069
330
1A
100
AcDbEntity
  8
SEIHIN
100
AcDbLine
 10
172.6238530025656
 20
152.3164570025776
 30
0.0
 11
158.7985224477319
 21
152.3164570025776
 31
0.0
  0
LINE
  5
106A
330
1A
100
AcDbEntity
  8
SEIHIN
100
AcDbLine
 10
172.6240625708839
 20
154.0039570025776
 30
0.0
 11
158.7987320160502
 21
154.0039570025776
 31
0.0
  0
LINE
  5
106B
330
1A
100
AcDbEntity
  8
SEIHIN
100
AcDbLine
 10
170.1645037148229
 20
158.4571682080924
 30
0.0
 11
165.711292509308
 21
154.0039570025776
 31
0.0
  0
LINE
  5
106C
330
1A
100
AcDbEntity
  8
SEIHIN
100
AcDbLine
 10
163.231480326604
 20
158.4571682080924
 30
0.0
 11
161.2580905902581
 21
158.4571682080924
 31
0.0
  0
LINE
  5
106D
330
1A
100
AcDbEntity
  8
SEIHIN
100
AcDbLine
 10
161.2580905902581
 20
158.4571682080924
 30
0.0
 11
165.7113250175937
 21
154.0039570025776
 31
0.0
  0
LINE
  5
106E
330
1A
100
AcDbEntity
  8
SEIHIN
100
AcDbLine
 10
158.7985224477319
 20
152.3164570025776
 30
0.0
 11
158.7985224477319
 21
154.0039570025776
 31
0.0
  0
LINE
  5
106F
330
1A
100
AcDbEntity
  8
SEIHIN
100
AcDbLine
 10
172.6238530025656
 20
152.3164570025776
 30
0.0
 11
172.6240625708839
 21
154.0039570025776
 31
0.0
  0
LINE
  5
1070
330
1A
100
AcDbEntity
  8
SEIHIN
100
AcDbLine
 10
168.1926531123622
 20
166.4720966652003
 30
0.0
 11
163.231480326604
 21
166.4720966652003
 31
0.0
  0
DIMENSION
  5
1073
330
1A
100
AcDbEntity
  8
SUNPOU
100
AcDbDimension
  2
*D9
 10
222.4479268423756
 20
153.1602070025775
 30
0.0
 11
222.4479268423756
 21
184.441540991937
 31
0.0
 70
   160
  3
STANDARD
100
AcDbAlignedDimension
 13
199.2111702611223
 23
223.1602070025775
 33
0.0
 14
172.6239577867247
 24
153.1602070025776
 34
0.0
 50
90.0
100
AcDbRotatedDimension
1001
ACAD
1000
DSTYLE
1002
{
1070
    41
1040
3.0
1070
    42
1040
3.0
1070
    43
1040
7.0
1070
    44
1040
1.5
1070
    73
1070
     0
1070
    74
1070
     0
1070
    77
1070
     3
1070
   140
1040
3.0
1070
   141
1040
150.0
1070
   147
1040
1.0
1070
   172
1070
     1
1070
   173
1070
     1
1070
   176
1070
   256
1070
   177
1070
   256
1070
   178
1070
   256
1070
   271
1070
     0
1070
   272
1070
     0
1070
   288
1070
     1
1070
   341
1005
B2
1070
     6
1000
OPEN
1070
     7
1000
OPEN
1070
   371
1070
    -1
1070
   372
1070
    -1
1002
}
  0
DIMENSION
  5
1080
330
1A
100
AcDbEntity
  8
SUNPOU
100
AcDbDimension
  2
*D10
 10
233.3747611102976
 20
99.66020700257763
 30
0.0
 11
230.8747611102976
 21
161.4102070025776
 31
0.0
 70
    32
  3
STANDARD
100
AcDbAlignedDimension
 13
199.2111702611223
 23
223.1602070025776
 33
0.0
 14
199.2111702611223
 24
99.66020700257764
 34
0.0
 50
90.0
100
AcDbRotatedDimension
1001
ACAD
1000
DSTYLE
1002
{
1070
    41
1040
3.0
1070
    42
1040
3.0
1070
    43
1040
7.0
1070
    44
1040
1.5
1070
    73
1070
     0
1070
    74
1070
     0
1070
    77
1070
     1
1070
   140
1040
3.0
1070
   141
1040
150.0
1070
   147
1040
1.0
1070
   172
1070
     1
1070
   173
1070
     1
1070
   176
1070
   256
1070
   177
1070
   256
1070
   178
1070
   256
1070
   271
1070
     0
1070
   272
1070
     0
1070
   341
1005
B2
1070
     6
1000
OPEN
1070
     7
1000
OPEN
1070
   371
1070
    -1
1070
   372
1070
    -1
1002
}
  0
DIMENSION
  5
108D
330
1A
100
AcDbEntity
  8
SUNPOU
100
AcDbDimension
  2
*D11
 10
244.6658221676325
 20
69.66020700257766
 30
0.0
 11
242.1658221676325
 21
146.4102070025776
 31
0.0
 70
    32
  3
STANDARD
100
AcDbAlignedDimension
 13
199.2111702611223
 23
223.1602070025776
 33
0.0
 14
194.6111702611223
 24
69.66020700257768
 34
0.0
 50
90.0
100
AcDbRotatedDimension
1001
ACAD
1000
DSTYLE
1002
{
1070
    41
1040
3.0
1070
    42
1040
3.0
1070
    43
1040
7.0
1070
    44
1040
1.5
1070
    73
1070
     0
1070
    74
1070
     0
1070
    77
1070
     1
1070
   140
1040
3.0
1070
   141
1040
150.0
1070
   147
1040
1.0
1070
   172
1070
     1
1070
   173
1070
     1
1070
   176
1070
   256
1070
   177
1070
   256
1070
   178
1070
   256
1070
   271
1070
     0
1070
   272
1070
     0
1070
   341
1005
B2
1070
     6
1000
OPEN
1070
     7
1000
OPEN
1070
   371
1070
    -1
1070
   372
1070
    -1
1002
}
  0
DIMENSION
  5
109A
330
1A
100
AcDbEntity
  8
SUNPOU
100
AcDbDimension
  2
*D12
 10
194.6111702611223
 20
45.97870950426659
 30
0.0
 11
165.7111702611223
 21
48.47870950426659
 31
0.0
 70
    32
  1
φ<>
  3
STANDARD
100
AcDbAlignedDimension
 13
136.8111702611223
 23
69.66020700257764
 33
0.0
 14
194.6111702611223
 24
69.66020700257764
 34
0.0
100
AcDbRotatedDimension
1001
ACAD
1000
DSTYLE
1002
{
1070
    41
1040
3.0
1070
    42
1040
3.0
1070
    43
1040
7.0
1070
    44
1040
1.5
1070
    73
1070
     0
1070
    74
1070
     0
1070
    77
1070
     1
1070
   140
1040
3.0
1070
   141
1040
150.0
1070
   147
1040
1.0
1070
   172
1070
     1
1070
   173
1070
     1
1070
   176
1070
   256
1070
   177
1070
   256
1070
   178
1070
   256
1070
   271
1070
     0
1070
   272
1070
     0
1070
   341
1005
B2
1070
     6
1000
OPEN
1070
     7
1000
OPEN
1070
   371
1070
    -1
1070
   372
1070
    -1
1002
}
  0
DIMENSION
  5
10D4
330
1A
100
AcDbEntity
  8
SUNPOU
100
AcDbDimension
  2
*D13
 10
199.2111702611223
 20
242.5156197201479
 30
0.0
 11
165.7111702611223
 21
245.0156197201479
 31
0.0
 70
    32
  1
φ<>
  3
STANDARD
100
AcDbAlignedDimension
 13
132.2111702611223
 23
223.1602070025775
 33
0.0
 14
199.2111702611223
 24
223.1602070025776
 34
0.0
100
AcDbRotatedDimension
1001
ACAD
1000
DSTYLE
1002
{
1070
    41
1040
3.0
1070
    42
1040
3.0
1070
    43
1040
7.0
1070
    44
1040
1.5
1070
    73
1070
     0
1070
    74
1070
     0
1070
    77
1070
     1
1070
   140
1040
3.0
1070
   141
1040
150.0
1070
   147
1040
1.0
1070
   172
1070
     1
1070
   173
1070
     1
1070
   176
1070
   256
1070
   177
1070
   256
1070
   178
1070
   256
1070
   271
1070
     0
1070
   272
1070
     0
1070
   341
1005
B2
1070
     6
1000
OPEN
1070
     7
1000
OPEN
1070
   371
1070
    -1
1070
   372
1070
    -1
1002
}
  0
MTEXT
  5
111F
330
1A
100
AcDbEntity
  8
SUNPOU
100
AcDbMText
 10
219.5630668380649
 20
205.0939038225074
 30
0.0
 40
3.0
 41
0.0
 71
     5
 72
     1
  1
（パイプ差し込み代）
 11
0.0000000000000001
 21
1.0
 31
0.0
1001
ACAD
1000
MTEXTBEGIN
1070
    73
1070
     1
1070
    44
1040
1.0
1070
    74
1070
     0
1000
MTEXTEND
  0
VIEWPORT
  5
22
330
17
100
AcDbEntity
 67
     1
  8
0
100
AcDbViewport
 10
313.6808219178082
 20
148.5
 30
0.0
 40
627.3616438356165
 41
297.0
 68
     2
 69
     1
1001
ACAD
1000
MVIEW
1002
{
1070
    16
1010
0.0
1020
0.0
1030
0.0
1010
0.0
1020
0.0
1030
1.0
1040
0.0
1040
297.0
1040
313.6808219178082
1040
148.5
1040
50.0
1040
0.0
1040
0.0
1070
     0
1070
   100
1070
     1
1070
     0
1070
     0
1070
     0
1070
     0
1070
     0
1040
0.0
1040
0.0
1040
0.0
1040
1.0
1040
1.0
1040
10.0
1040
10.0
1070
     0
1002
{
1002
}
1002
}
  0
VIEWPORT
  5
64
330
17
100
AcDbEntity
 67
     1
  8
VIEWPORT
100
AcDbViewport
 10
210.0
 20
148.5
 30
0.0
 40
420.0
 41
297.0
 68
     1
 69
     2
1001
ACAD
1000
MVIEW
1002
{
1070
    16
1010
0.0
1020
0.0
1030
0.0
1010
0.0
1020
0.0
1030
1.0
1040
0.0
1040
302.9399999999998
1040
210.0
1040
148.5
1040
50.0
1040
0.0
1040
0.0
1070
     0
1070
   100
1070
     1
1070
     0
1070
     0
1070
     0
1070
     0
1070
     0
1040
0.0
1040
0.0
1040
0.0
1040
5.0
1040
5.0
1040
0.0
1040
0.0
1070
     0
1002
{
1002
}
1002
}
  0
ENDSEC
  0
SECTION
  2
OBJECTS
  0
DICTIONARY
  5
C
330
0
100
AcDbDictionary
  3
ACAD_GROUP
350
D
  3
ACAD_LAYOUT
350
624
  3
ACAD_MLINESTYLE
350
E
  3
ACAD_PLOTSETTINGS
350
625
1001
ACAD
1000
TREAT_AS_HARD
1070
     0
  0
DICTIONARY
  5
651
330
1A
100
AcDbDictionary
  3
ACAD_LAYOUTSELFREF
350
1366
1001
ACAD
1000
TREAT_AS_HARD
1070
     1
  0
DICTIONARY
  5
64F
330
17
100
AcDbDictionary
  3
ACAD_LAYOUTSELFREF
350
1365
1001
ACAD
1000
TREAT_AS_HARD
1070
     1
  0
DICTIONARY
  5
D
102
{ACAD_REACTORS
330
C
102
}
330
C
100
AcDbDictionary
1001
ACAD
1000
TREAT_AS_HARD
1070
     0
  0
DICTIONARY
  5
624
102
{ACAD_REACTORS
330
C
102
}
330
C
100
AcDbDictionary
1001
ACAD
1000
TREAT_AS_HARD
1070
     0
  0
DICTIONARY
  5
E
102
{ACAD_REACTORS
330
C
102
}
330
C
100
AcDbDictionary
  3
STANDARD
350
13
1001
ACAD
1000
TREAT_AS_HARD
1070
     0
  0
DICTIONARY
  5
625
102
{ACAD_REACTORS
330
C
102
}
330
C
100
AcDbDictionary
1001
ACAD
1000
TREAT_AS_HARD
1070
     0
  0
XRECORD
  5
1366
102
{ACAD_REACTORS
330
651
102
}
330
651
100
AcDbXrecord
340
1A
  0
XRECORD
  5
1365
102
{ACAD_REACTORS
330
64F
102
}
330
64F
100
AcDbXrecord
340
17
  0
MLINESTYLE
  5
13
102
{ACAD_REACTORS
330
E
102
}
330
E
100
AcDbMlineStyle
  2
STANDARD
 70
     0
  3

 62
     0
 51
90.0
 52
90.0
 71
     2
 49
0.5
 62
   256
  6
BYLAYER
 49
-0.5
 62
   256
  6
BYLAYER
  0
ENDSEC
  0
EOF
