  0
SECTION
  2
HEADER
  9
$ACADVER
  1
AC1012
  9
$DWGCODEPAGE
  3
dos932
  9
$INSBASE
 10
0.0
 20
0.0
 30
0.0
  9
$EXTMIN
 10
27.87480838462807
 20
27.92565311653016
 30
-0.0000000000112498
  9
$EXTMAX
 10
1623.276095465223
 20
1131.204526045472
 30
0.0000000000002956
  9
$LIMMIN
 10
0.0
 20
0.0
  9
$LIMMAX
 10
1682.0
 20
1188.0
  9
$ORTHOMODE
 70
     1
  9
$REGENMODE
 70
     1
  9
$FILLMODE
 70
     1
  9
$QTEXTMODE
 70
     0
  9
$MIRRTEXT
 70
     1
  9
$DRAGMODE
 70
     2
  9
$LTSCALE
 40
5.657142857142857
  9
$OSMODE
 70
    63
  9
$ATTMODE
 70
     1
  9
$TEXTSIZE
 40
19.8
  9
$TRACEWID
 40
0.05
  9
$TEXTSTYLE
  7
ｽﾀｲﾙ1
  9
$CLAYER
  8
SUNPOU
  9
$CELTYPE
  6
BYLAYER
  9
$CECOLOR
 62
   256
  9
$CELTSCALE
 40
1.0
  9
$DELOBJ
 70
     1
  9
$DISPSILH
 70
     0
  9
$DIMSCALE
 40
1.0
  9
$DIMASZ
 40
12.0
  9
$DIMEXO
 40
5.0
  9
$DIMDLI
 40
28.0
  9
$DIMRND
 40
0.0
  9
$DIMDLE
 40
0.0
  9
$DIMEXE
 40
5.0
  9
$DIMTP
 40
0.0
  9
$DIMTM
 40
0.0
  9
$DIMTXT
 40
8.0
  9
$DIMCEN
 40
3.0
  9
$DIMTSZ
 40
0.0
  9
$DIMTOL
 70
     0
  9
$DIMLIM
 70
     0
  9
$DIMTIH
 70
     0
  9
$DIMTOH
 70
     0
  9
$DIMSE1
 70
     0
  9
$DIMSE2
 70
     0
  9
$DIMTAD
 70
     3
  9
$DIMZIN
 70
     0
  9
$DIMBLK
  1

  9
$DIMASO
 70
     1
  9
$DIMSHO
 70
     1
  9
$DIMPOST
  1

  9
$DIMAPOST
  1

  9
$DIMALT
 70
     0
  9
$DIMALTD
 70
     2
  9
$DIMALTF
 40
0.03937
  9
$DIMLFAC
 40
1.0
  9
$DIMTOFL
 70
     1
  9
$DIMTVP
 40
0.0
  9
$DIMTIX
 70
     0
  9
$DIMSOXD
 70
     0
  9
$DIMSAH
 70
     1
  9
$DIMBLK1
  1
OPEN
  9
$DIMBLK2
  1
OPEN
  9
$DIMSTYLE
  2
STANDARD
  9
$DIMCLRD
 70
   256
  9
$DIMCLRE
 70
   256
  9
$DIMCLRT
 70
   256
  9
$DIMTFAC
 40
1.0
  9
$DIMGAP
 40
4.0
  9
$DIMJUST
 70
     0
  9
$DIMSD1
 70
     0
  9
$DIMSD2
 70
     0
  9
$DIMTOLJ
 70
     1
  9
$DIMTZIN
 70
     0
  9
$DIMALTZ
 70
     0
  9
$DIMALTTZ
 70
     0
  9
$DIMFIT
 70
     3
  9
$DIMUPT
 70
     0
  9
$DIMUNIT
 70
     2
  9
$DIMDEC
 70
     0
  9
$DIMTDEC
 70
     0
  9
$DIMALTU
 70
     2
  9
$DIMALTTD
 70
     2
  9
$DIMTXSTY
  7
STANDARD
  9
$DIMAUNIT
 70
     0
  9
$LUNITS
 70
     2
  9
$LUPREC
 70
     4
  9
$SKETCHINC
 40
0.1
  9
$FILLETRAD
 40
2.0
  9
$AUNITS
 70
     0
  9
$AUPREC
 70
     0
  9
$MENU
  1
acad
  9
$ELEVATION
 40
0.0
  9
$PELEVATION
 40
0.0
  9
$THICKNESS
 40
0.0
  9
$LIMCHECK
 70
     0
  9
$BLIPMODE
 70
     0
  9
$CHAMFERA
 40
4.0
  9
$CHAMFERB
 40
4.0
  9
$CHAMFERC
 40
113.1428571428571
  9
$CHAMFERD
 40
0.0
  9
$SKPOLY
 70
     0
  9
$TDCREATE
 40
2451019.669682407
  9
$TDUPDATE
 40
2454845.728441377
  9
$TDINDWG
 40
0.2039460995
  9
$TDUSRTIMER
 40
0.2039460995
  9
$USRTIMER
 70
     1
  9
$ANGBASE
 50
0.0
  9
$ANGDIR
 70
     0
  9
$PDMODE
 70
     0
  9
$PDSIZE
 40
0.0
  9
$PLINEWID
 40
0.0
  9
$COORDS
 70
     0
  9
$SPLFRAME
 70
     0
  9
$SPLINETYPE
 70
     6
  9
$SPLINESEGS
 70
     8
  9
$ATTDIA
 70
     0
  9
$ATTREQ
 70
     1
  9
$HANDLING
 70
 10241
  9
$HANDSEED
  5
5D41
  9
$SURFTAB1
 70
     6
  9
$SURFTAB2
 70
     6
  9
$SURFTYPE
 70
     6
  9
$SURFU
 70
     6
  9
$SURFV
 70
     6
  9
$UCSNAME
  2

  9
$UCSORG
 10
0.0
 20
0.0
 30
0.0
  9
$UCSXDIR
 10
1.0
 20
0.0
 30
0.0
  9
$UCSYDIR
 10
0.0
 20
1.0
 30
0.0
  9
$PUCSNAME
  2

  9
$PUCSORG
 10
0.0
 20
0.0
 30
0.0
  9
$PUCSXDIR
 10
1.0
 20
0.0
 30
0.0
  9
$PUCSYDIR
 10
0.0
 20
1.0
 30
0.0
  9
$USERI1
 70
     0
  9
$USERI2
 70
     0
  9
$USERI3
 70
     0
  9
$USERI4
 70
     0
  9
$USERI5
 70
     0
  9
$USERR1
 40
0.0
  9
$USERR2
 40
0.0
  9
$USERR3
 40
0.0
  9
$USERR4
 40
0.0
  9
$USERR5
 40
0.0
  9
$WORLDVIEW
 70
     1
  9
$SHADEDGE
 70
     3
  9
$SHADEDIF
 70
    70
  9
$TILEMODE
 70
     1
  9
$MAXACTVP
 70
    16
  9
$PINSBASE
 10
0.0
 20
0.0
 30
0.0
  9
$PLIMCHECK
 70
     0
  9
$PEXTMIN
 10
0.0
 20
0.0
 30
0.0
  9
$PEXTMAX
 10
420.0
 20
297.0
 30
0.0
  9
$PLIMMIN
 10
0.0
 20
0.0
  9
$PLIMMAX
 10
420.0
 20
297.0
  9
$UNITMODE
 70
     0
  9
$VISRETAIN
 70
     0
  9
$PLINEGEN
 70
     0
  9
$PSLTSCALE
 70
     1
  9
$TREEDEPTH
 70
  3020
  9
$PICKSTYLE
 70
     1
  9
$CMLSTYLE
  2
STANDARD
  9
$CMLJUST
 70
     0
  9
$CMLSCALE
 40
20.0
  9
$SAVEIMAGES
 70
     1
  0
ENDSEC
  0
SECTION
  2
CLASSES
  0
CLASS
  1
ACDBDICTIONARYWDFLT
  2
AcDbDictionaryWithDefault
  3
AutoCAD 2000
 90
    32768
280
     0
281
     0
  0
CLASS
  1
ACDBPLACEHOLDER
  2
AcDbPlaceHolder
  3
AutoCAD 2000
 90
    32768
280
     0
281
     0
  0
CLASS
  1
LAYOUT
  2
AcDbLayout
  3
AutoCAD 2000
 90
    32768
280
     0
281
     0
  0
CLASS
  1
LONG_TRANSACTION
  2
AcDbLongTransaction
  3
AutoCAD 2000
 90
    32768
280
     0
281
     0
  0
CLASS
  1
LWPOLYLINE
  2
AcDbPolyline
  3
AutoCAD 2000
 90
    32768
280
     0
281
     1
  0
CLASS
  1
HATCH
  2
AcDbHatch
  3
AutoCAD 2000
 90
    32768
280
     0
281
     1
  0
CLASS
  1
XRECORD
  2
AcDbXrecord
  3
AutoCAD 2000
 90
    32768
280
     0
281
     0
  0
CLASS
  1
LONG_TRANSACTION
  2
AcDbLongTransaction
  3
AutoCAD 2000
 90
    32768
280
     0
281
     0
  0
CLASS
  1
LWPOLYLINE
  2
AcDbPolyline
  3
AutoCAD 2000
 90
    32768
280
     0
281
     1
  0
CLASS
  1
HATCH
  2
AcDbHatch
  3
AutoCAD 2000
 90
    32768
280
     0
281
     1
  0
CLASS
  1
XRECORD
  2
AcDbXrecord
  3
AutoCAD 2000
 90
    32768
280
     0
281
     0
  0
CLASS
  1
LONG_TRANSACTION
  2
AcDbLongTransaction
  3
AutoCAD 2000
 90
    32768
280
     0
281
     0
  0
CLASS
  1
LWPOLYLINE
  2
AcDbPolyline
  3
AutoCAD 2000
 90
    32768
280
     0
281
     1
  0
CLASS
  1
HATCH
  2
AcDbHatch
  3
AutoCAD 2000
 90
    32768
280
     0
281
     1
  0
CLASS
  1
XRECORD
  2
AcDbXrecord
  3
AutoCAD 2000
 90
    32768
280
     0
281
     0
  0
CLASS
  1
LONG_TRANSACTION
  2
AcDbLongTransaction
  3
AutoCAD 2000
 90
    32768
280
     0
281
     0
  0
CLASS
  1
LWPOLYLINE
  2
AcDbPolyline
  3
AutoCAD 2000
 90
    32768
280
     0
281
     1
  0
CLASS
  1
HATCH
  2
AcDbHatch
  3
AutoCAD 2000
 90
    32768
280
     0
281
     1
  0
CLASS
  1
XRECORD
  2
AcDbXrecord
  3
AutoCAD 2000
 90
    32768
280
     0
281
     0
  0
CLASS
  1
DICTIONARYVAR
  2
AcDbDictionaryVar
  3
AutoCAD 2000
 90
    32768
280
     0
281
     0
  0
CLASS
  1
LONG_TRANSACTION
  2
AcDbLongTransaction
  3
AutoCAD 2000
 90
    32768
280
     0
281
     0
  0
CLASS
  1
LWPOLYLINE
  2
AcDbPolyline
  3
AutoCAD 2000
 90
    32768
280
     0
281
     1
  0
CLASS
  1
HATCH
  2
AcDbHatch
  3
AutoCAD 2000
 90
    32768
280
     0
281
     1
  0
CLASS
  1
XRECORD
  2
AcDbXrecord
  3
AutoCAD 2000
 90
    32768
280
     0
281
     0
  0
CLASS
  1
LONG_TRANSACTION
  2
AcDbLongTransaction
  3
AutoCAD 2000
 90
    32768
280
     0
281
     0
  0
CLASS
  1
LWPOLYLINE
  2
AcDbPolyline
  3
AutoCAD 2000
 90
    32768
280
     0
281
     1
  0
CLASS
  1
HATCH
  2
AcDbHatch
  3
AutoCAD 2000
 90
    32768
280
     0
281
     1
  0
CLASS
  1
XRECORD
  2
AcDbXrecord
  3
AutoCAD 2000
 90
    32768
280
     0
281
     0
  0
ENDSEC
  0
SECTION
  2
TABLES
  0
TABLE
  2
VPORT
  5
8
330
0
100
AcDbSymbolTable
 70
     2
  0
VPORT
  5
5D00
330
8
100
AcDbSymbolTableRecord
100
AcDbViewportTableRecord
  2
*ACTIVE
 70
     0
 10
0.0
 20
0.0
 11
1.0
 21
1.0
 12
981.4213415100041
 22
640.1596167079405
 13
0.0
 23
0.0
 14
10.0
 24
10.0
 15
10.0
 25
10.0
 16
0.0
 26
0.0
 36
1.0
 17
0.0
 27
0.0
 37
0.0
 40
1752.30851522363
 41
1.553475935828877
 42
50.0
 43
0.0
 44
0.0
 50
0.0
 51
0.0
 71
     0
 72
   100
 73
     1
 74
     0
 75
     0
 76
     0
 77
     0
 78
     0
  0
ENDTAB
  0
TABLE
  2
LTYPE
  5
5
330
0
100
AcDbSymbolTable
 70
     2
  0
LTYPE
  5
13
330
5
100
AcDbSymbolTableRecord
100
AcDbLinetypeTableRecord
  2
BYBLOCK
 70
     0
  3

 72
    65
 73
     0
 40
0.0
  0
LTYPE
  5
14
330
5
100
AcDbSymbolTableRecord
100
AcDbLinetypeTableRecord
  2
BYLAYER
 70
     0
  3

 72
    65
 73
     0
 40
0.0
  0
LTYPE
  5
15
330
5
100
AcDbSymbolTableRecord
100
AcDbLinetypeTableRecord
  2
CONTINUOUS
 70
     0
  3
Solid line
 72
    65
 73
     0
 40
0.0
  0
LTYPE
  5
11C
330
5
100
AcDbSymbolTableRecord
100
AcDbLinetypeTableRecord
  2
CENTER
 70
     0
  3
____ _ ____ _ ____ _ ____ _ ____ _ ____ _ ____ 
 72
    65
 73
     4
 40
2.0
 49
1.25
 74
     0
 49
-0.25
 74
     0
 49
0.25
 74
     0
 49
-0.25
 74
     0
  0
ENDTAB
  0
TABLE
  2
LAYER
  5
2
330
0
100
AcDbSymbolTable
 70
     8
  0
LAYER
  5
F
330
2
100
AcDbSymbolTableRecord
100
AcDbLayerTableRecord
  2
0
 70
     0
 62
     7
  6
CONTINUOUS
  0
LAYER
  5
23
330
2
100
AcDbSymbolTableRecord
100
AcDbLayerTableRecord
  2
VIEWPORT
 70
     0
 62
     7
  6
CONTINUOUS
  0
LAYER
  5
2D
330
2
100
AcDbSymbolTableRecord
100
AcDbLayerTableRecord
  2
ZUWAKU
 70
     0
 62
     7
  6
CONTINUOUS
  0
LAYER
  5
A6
330
2
100
AcDbSymbolTableRecord
100
AcDbLayerTableRecord
  2
DEFPOINTS
 70
     0
 62
     7
  6
CONTINUOUS
  0
LAYER
  5
1F5
330
2
100
AcDbSymbolTableRecord
100
AcDbLayerTableRecord
  2
SEIHIN
 70
     0
 62
     3
  6
CONTINUOUS
  0
LAYER
  5
5FF
330
2
100
AcDbSymbolTableRecord
100
AcDbLayerTableRecord
  2
CENTER_L
 70
     0
 62
     1
  6
CENTER
  0
LAYER
  5
600
330
2
100
AcDbSymbolTableRecord
100
AcDbLayerTableRecord
  2
SUNPOU
 70
     0
 62
     4
  6
CONTINUOUS
  0
LAYER
  5
14B3
330
2
100
AcDbSymbolTableRecord
100
AcDbLayerTableRecord
  2
MOJI
 70
     0
 62
     2
  6
CONTINUOUS
  0
ENDTAB
  0
TABLE
  2
STYLE
  5
3
330
0
100
AcDbSymbolTable
 70
     2
  0
STYLE
  5
10
330
3
100
AcDbSymbolTableRecord
100
AcDbTextStyleTableRecord
  2
STANDARD
 70
     0
 40
0.0
 41
1.0
 50
0.0
 71
     0
 42
19.8
  3
txt
  4
c:\PROGRAM FILES\AUTOCAD LT\ms\bigfont.shx
  0
STYLE
  5
14A8
330
3
100
AcDbSymbolTableRecord
100
AcDbTextStyleTableRecord
  2
ｽﾀｲﾙ1
 70
     0
 40
0.0
 41
1.0
 50
0.0
 71
     0
 42
19.8
  3
MS Gothic.ttf
  4

1001
ACAD
1000
MS Gothic
1071
    32817
  0
ENDTAB
  0
TABLE
  2
VIEW
  5
6
330
0
100
AcDbSymbolTable
 70
     0
  0
ENDTAB
  0
TABLE
  2
UCS
  5
7
330
0
100
AcDbSymbolTable
 70
     0
  0
ENDTAB
  0
TABLE
  2
APPID
  5
9
330
0
100
AcDbSymbolTable
 70
     1
  0
APPID
  5
11
330
9
100
AcDbSymbolTableRecord
100
AcDbRegAppTableRecord
  2
ACAD
 70
     0
  0
ENDTAB
  0
TABLE
  2
DIMSTYLE
  5
A
330
0
100
AcDbSymbolTable
 70
     1
  0
DIMSTYLE
105
1D
102
{ACAD_REACTORS
330
384C
330
50C5
330
5107
330
50D4
330
382F
330
4AA5
330
4A1F
330
4ABD
330
4A56
330
4E5C
330
4E68
330
588B
330
58A5
330
5B64
330
5B60
330
5B7F
330
5B61
102
}
330
A
100
AcDbSymbolTableRecord
100
AcDbDimStyleTableRecord
  2
STANDARD
 70
     0
  3

  4

  5

  6

  7

 40
1.0
 41
0.18
 42
0.0625
 43
0.38
 44
0.18
 45
0.0
 46
0.0
 47
0.0
 48
0.0
140
0.18
141
0.09
142
0.0
143
25.4
144
1.0
145
0.0
146
1.0
147
0.09
 71
     0
 72
     0
 73
     1
 74
     1
 75
     0
 76
     0
 77
     0
 78
     0
170
     0
171
     2
172
     0
173
     0
174
     0
175
     0
176
     0
177
     0
178
     0
270
     2
271
     4
272
     4
273
     2
274
     2
340
10
275
     0
280
     0
281
     0
282
     0
283
     1
284
     0
285
     0
286
     0
287
     3
288
     0
  0
ENDTAB
  0
TABLE
  2
BLOCK_RECORD
  5
1
330
0
100
AcDbSymbolTable
 70
    22
  0
BLOCK_RECORD
  5
19
102
{ACAD_XDICTIONARY
360
13D5
102
}
330
1
100
AcDbSymbolTableRecord
100
AcDbBlockTableRecord
  2
*MODEL_SPACE
  0
BLOCK_RECORD
  5
16
102
{ACAD_XDICTIONARY
360
13D3
102
}
330
1
100
AcDbSymbolTableRecord
100
AcDbBlockTableRecord
  2
*PAPER_SPACE
  0
BLOCK_RECORD
  5
27
330
1
100
AcDbSymbolTableRecord
100
AcDbBlockTableRecord
  2
_OPEN
  0
BLOCK_RECORD
  5
4192
330
1
100
AcDbSymbolTableRecord
100
AcDbBlockTableRecord
  2
*D1
  0
BLOCK_RECORD
  5
419E
330
1
100
AcDbSymbolTableRecord
100
AcDbBlockTableRecord
  2
*D2
  0
BLOCK_RECORD
  5
4B70
330
1
100
AcDbSymbolTableRecord
100
AcDbBlockTableRecord
  2
*D3
  0
BLOCK_RECORD
  5
4B7C
330
1
100
AcDbSymbolTableRecord
100
AcDbBlockTableRecord
  2
*D4
  0
BLOCK_RECORD
  5
4B95
330
1
100
AcDbSymbolTableRecord
100
AcDbBlockTableRecord
  2
*D5
  0
BLOCK_RECORD
  5
4BA1
330
1
100
AcDbSymbolTableRecord
100
AcDbBlockTableRecord
  2
*D6
  0
BLOCK_RECORD
  5
4E6E
330
1
100
AcDbSymbolTableRecord
100
AcDbBlockTableRecord
  2
*D7
  0
BLOCK_RECORD
  5
4E7A
330
1
100
AcDbSymbolTableRecord
100
AcDbBlockTableRecord
  2
*D8
  0
BLOCK_RECORD
  5
5137
330
1
100
AcDbSymbolTableRecord
100
AcDbBlockTableRecord
  2
*D9
  0
BLOCK_RECORD
  5
515C
330
1
100
AcDbSymbolTableRecord
100
AcDbBlockTableRecord
  2
*D10
  0
BLOCK_RECORD
  5
5181
330
1
100
AcDbSymbolTableRecord
100
AcDbBlockTableRecord
  2
*D11
  0
BLOCK_RECORD
  5
531E
330
1
100
AcDbSymbolTableRecord
100
AcDbBlockTableRecord
  2
*X12
  0
BLOCK_RECORD
  5
588C
330
1
100
AcDbSymbolTableRecord
100
AcDbBlockTableRecord
  2
*D13
  0
BLOCK_RECORD
  5
58A6
330
1
100
AcDbSymbolTableRecord
100
AcDbBlockTableRecord
  2
*D14
  0
BLOCK_RECORD
  5
5B21
330
1
100
AcDbSymbolTableRecord
100
AcDbBlockTableRecord
  2
*X15
  0
BLOCK_RECORD
  5
5BB8
330
1
100
AcDbSymbolTableRecord
100
AcDbBlockTableRecord
  2
*D16
  0
BLOCK_RECORD
  5
5BC4
330
1
100
AcDbSymbolTableRecord
100
AcDbBlockTableRecord
  2
*D17
  0
BLOCK_RECORD
  5
5BD0
330
1
100
AcDbSymbolTableRecord
100
AcDbBlockTableRecord
  2
*D18
  0
BLOCK_RECORD
  5
5BDC
330
1
100
AcDbSymbolTableRecord
100
AcDbBlockTableRecord
  2
*D19
  0
BLOCK_RECORD
  5
5D1C
330
1
100
AcDbSymbolTableRecord
100
AcDbBlockTableRecord
  2
*X20
  0
BLOCK_RECORD
  5
5D26
330
1
100
AcDbSymbolTableRecord
100
AcDbBlockTableRecord
  2
*X21
  0
ENDTAB
  0
ENDSEC
  0
SECTION
  2
BLOCKS
  0
BLOCK
  5
1A
330
19
100
AcDbEntity
  8
0
100
AcDbBlockBegin
  2
*MODEL_SPACE
 70
     0
 10
0.0
 20
0.0
 30
0.0
  3
*MODEL_SPACE
  1

  0
ENDBLK
  5
1B
330
19
100
AcDbEntity
  8
0
100
AcDbBlockEnd
  0
BLOCK
  5
17
330
16
100
AcDbEntity
 67
     1
  8
0
100
AcDbBlockBegin
  2
*PAPER_SPACE
 70
     0
 10
0.0
 20
0.0
 30
0.0
  3
*PAPER_SPACE
  1

  0
ENDBLK
  5
18
330
16
100
AcDbEntity
 67
     1
  8
0
100
AcDbBlockEnd
  0
BLOCK
  5
28
330
27
100
AcDbEntity
  8
0
100
AcDbBlockBegin
  2
_OPEN
 70
     0
 10
0.0
 20
0.0
 30
0.0
  3
_OPEN
  1

  0
LINE
  5
29
330
27
100
AcDbEntity
  8
0
  6
BYBLOCK
 62
     0
100
AcDbLine
 10
-1.0
 20
0.1666666666666666
 30
0.0
 11
0.0
 21
0.0
 31
0.0
  0
LINE
  5
2A
330
27
100
AcDbEntity
  8
0
  6
BYBLOCK
 62
     0
100
AcDbLine
 10
0.0
 20
0.0
 30
0.0
 11
-1.0
 21
-0.1666666666666666
 31
0.0
  0
LINE
  5
2B
330
27
100
AcDbEntity
  8
0
  6
BYBLOCK
 62
     0
100
AcDbLine
 10
0.0
 20
0.0
 30
0.0
 11
-1.0
 21
0.0
 31
0.0
  0
ENDBLK
  5
2C
330
27
100
AcDbEntity
  8
0
100
AcDbBlockEnd
  0
BLOCK
  5
419C
330
4192
100
AcDbEntity
  8
0
100
AcDbBlockBegin
  2
*D1
 70
     1
 10
0.0
 20
0.0
 30
0.0
  3
*D1
  1

  0
LINE
  5
5CA4
330
4192
100
AcDbEntity
  8
SUNPOU
100
AcDbLine
 10
241.8709138490999
 20
339.0624488475602
 30
0.0
 11
241.8709138490999
 21
280.3693771353246
 31
0.0
  0
LINE
  5
5CA5
330
4192
100
AcDbEntity
  8
SUNPOU
100
AcDbLine
 10
465.4709138490993
 20
339.0624488475602
 30
0.0
 11
465.4709138490993
 21
280.3693771353246
 31
0.0
  0
LINE
  5
5CA6
330
4192
100
AcDbEntity
  8
SUNPOU
100
AcDbLine
 10
253.8709138490998
 20
285.3693771353245
 30
0.0
 11
453.4709138490994
 21
285.3693771353245
 31
0.0
  0
INSERT
  5
5CA7
330
4192
100
AcDbEntity
  8
SUNPOU
100
AcDbBlockReference
  2
_OPEN
 10
241.8709138490999
 20
285.3693771353245
 30
0.0
 41
12.0
 42
12.0
 43
12.0
 50
180.0
  0
INSERT
  5
5CA8
330
4192
100
AcDbEntity
  8
SUNPOU
100
AcDbBlockReference
  2
_OPEN
 10
465.4709138490993
 20
285.3693771353245
 30
0.0
 41
12.0
 42
12.0
 43
12.0
  0
MTEXT
  5
5CA9
330
4192
100
AcDbEntity
  8
SUNPOU
100
AcDbMText
 10
353.6709138490996
 20
293.3693771353246
 30
0.0
 40
8.0
 41
0.0
 71
     5
 72
     1
  1
\A1;φ224
1001
ACAD
1000
MTEXTBEGIN
1070
    73
1070
     1
1070
    44
1040
1.0
1070
    74
1070
     0
1000
MTEXTEND
  0
POINT
  5
5CAA
330
4192
100
AcDbEntity
  8
DEFPOINTS
 62
     0
100
AcDbPoint
 10
241.8709138490999
 20
344.0624488475601
 30
0.0
  0
POINT
  5
5CAB
330
4192
100
AcDbEntity
  8
DEFPOINTS
 62
     0
100
AcDbPoint
 10
465.4709138490993
 20
344.0624488475601
 30
0.0
  0
POINT
  5
5CAC
330
4192
100
AcDbEntity
  8
DEFPOINTS
 62
     0
100
AcDbPoint
 10
465.4709138490993
 20
285.3693771353245
 30
0.0
  0
ENDBLK
  5
419D
330
4192
100
AcDbEntity
  8
0
100
AcDbBlockEnd
  0
BLOCK
  5
41A8
330
419E
100
AcDbEntity
  8
0
100
AcDbBlockBegin
  2
*D2
 70
     1
 10
0.0
 20
0.0
 30
0.0
  3
*D2
  1

  0
LINE
  5
5CAD
330
419E
100
AcDbEntity
  8
SUNPOU
100
AcDbLine
 10
221.6709138491001
 20
500.0624488475601
 30
0.0
 11
221.6709138491001
 21
558.7497261452331
 31
0.0
  0
LINE
  5
5CAE
330
419E
100
AcDbEntity
  8
SUNPOU
100
AcDbLine
 10
485.6709138491001
 20
500.0624488475601
 30
0.0
 11
485.6709138491001
 21
558.7497261452331
 31
0.0
  0
LINE
  5
5CAF
330
419E
100
AcDbEntity
  8
SUNPOU
100
AcDbLine
 10
233.6709138491
 20
553.7497261452331
 30
0.0
 11
473.6709138491001
 21
553.7497261452331
 31
0.0
  0
INSERT
  5
5CB0
330
419E
100
AcDbEntity
  8
SUNPOU
100
AcDbBlockReference
  2
_OPEN
 10
221.6709138491001
 20
553.7497261452331
 30
0.0
 41
12.0
 42
12.0
 43
12.0
 50
180.0
  0
INSERT
  5
5CB1
330
419E
100
AcDbEntity
  8
SUNPOU
100
AcDbBlockReference
  2
_OPEN
 10
485.6709138491001
 20
553.7497261452331
 30
0.0
 41
12.0
 42
12.0
 43
12.0
  0
MTEXT
  5
5CB2
330
419E
100
AcDbEntity
  8
SUNPOU
100
AcDbMText
 10
353.6709138491
 20
561.7497261452331
 30
0.0
 40
8.0
 41
0.0
 71
     5
 72
     1
  1
\A1;φ264
1001
ACAD
1000
MTEXTBEGIN
1070
    73
1070
     1
1070
    44
1040
1.0
1070
    74
1070
     0
1000
MTEXTEND
  0
POINT
  5
5CB3
330
419E
100
AcDbEntity
  8
DEFPOINTS
 62
     0
100
AcDbPoint
 10
221.6709138491001
 20
495.0624488475601
 30
0.0
  0
POINT
  5
5CB4
330
419E
100
AcDbEntity
  8
DEFPOINTS
 62
     0
100
AcDbPoint
 10
485.6709138491001
 20
495.0624488475601
 30
0.0
  0
POINT
  5
5CB5
330
419E
100
AcDbEntity
  8
DEFPOINTS
 62
     0
100
AcDbPoint
 10
485.6709138491001
 20
553.7497261452331
 30
0.0
  0
ENDBLK
  5
41A9
330
419E
100
AcDbEntity
  8
0
100
AcDbBlockEnd
  0
BLOCK
  5
4B7A
330
4B70
100
AcDbEntity
  8
0
100
AcDbBlockBegin
  2
*D3
 70
     1
 10
0.0
 20
0.0
 30
0.0
  3
*D3
  1

  0
LINE
  5
5C9B
330
4B70
100
AcDbEntity
  8
SUNPOU
100
AcDbLine
 10
678.9553224227402
 20
429.0624488475601
 30
0.0
 11
678.9553224227402
 21
564.1676622549989
 31
0.0
  0
LINE
  5
5C9C
330
4B70
100
AcDbEntity
  8
SUNPOU
100
AcDbLine
 10
926.9553224227403
 20
429.0624488475601
 30
0.0
 11
926.9553224227403
 21
564.1676622549989
 31
0.0
  0
LINE
  5
5C9D
330
4B70
100
AcDbEntity
  8
SUNPOU
100
AcDbLine
 10
690.9553224227401
 20
559.1676622549989
 30
0.0
 11
914.9553224227402
 21
559.1676622549989
 31
0.0
  0
INSERT
  5
5C9E
330
4B70
100
AcDbEntity
  8
SUNPOU
100
AcDbBlockReference
  2
_OPEN
 10
678.9553224227402
 20
559.1676622549989
 30
0.0
 41
12.0
 42
12.0
 43
12.0
 50
180.0
  0
INSERT
  5
5C9F
330
4B70
100
AcDbEntity
  8
SUNPOU
100
AcDbBlockReference
  2
_OPEN
 10
926.9553224227403
 20
559.1676622549989
 30
0.0
 41
12.0
 42
12.0
 43
12.0
  0
MTEXT
  5
5CA0
330
4B70
100
AcDbEntity
  8
SUNPOU
100
AcDbMText
 10
802.9553224227402
 20
567.1676622549989
 30
0.0
 40
8.0
 41
0.0
 71
     5
 72
     1
  1
\A1;φ248
1001
ACAD
1000
MTEXTBEGIN
1070
    73
1070
     1
1070
    44
1040
1.0
1070
    74
1070
     0
1000
MTEXTEND
  0
POINT
  5
5CA1
330
4B70
100
AcDbEntity
  8
DEFPOINTS
 62
     0
100
AcDbPoint
 10
678.9553224227402
 20
424.0624488475601
 30
0.0
  0
POINT
  5
5CA2
330
4B70
100
AcDbEntity
  8
DEFPOINTS
 62
     0
100
AcDbPoint
 10
926.9553224227403
 20
424.0624488475601
 30
0.0
  0
POINT
  5
5CA3
330
4B70
100
AcDbEntity
  8
DEFPOINTS
 62
     0
100
AcDbPoint
 10
926.9553224227403
 20
559.1676622549989
 30
0.0
  0
ENDBLK
  5
4B7B
330
4B70
100
AcDbEntity
  8
0
100
AcDbBlockEnd
  0
BLOCK
  5
4B86
330
4B7C
100
AcDbEntity
  8
0
100
AcDbBlockBegin
  2
*D4
 70
     1
 10
0.0
 20
0.0
 30
0.0
  3
*D4
  1

  0
LINE
  5
5C92
330
4B7C
100
AcDbEntity
  8
SUNPOU
100
AcDbLine
 10
694.9553224227401
 20
393.3103562794609
 30
0.0
 11
694.9553224227401
 21
302.0784154735252
 31
0.0
  0
LINE
  5
5C93
330
4B7C
100
AcDbEntity
  8
SUNPOU
100
AcDbLine
 10
910.9553224227402
 20
393.0607422896738
 30
0.0
 11
910.9553224227402
 21
302.0784154735252
 31
0.0
  0
LINE
  5
5C94
330
4B7C
100
AcDbEntity
  8
SUNPOU
100
AcDbLine
 10
706.9553224227401
 20
307.0784154735251
 30
0.0
 11
898.9553224227401
 21
307.0784154735251
 31
0.0
  0
INSERT
  5
5C95
330
4B7C
100
AcDbEntity
  8
SUNPOU
100
AcDbBlockReference
  2
_OPEN
 10
694.9553224227401
 20
307.0784154735251
 30
0.0
 41
12.0
 42
12.0
 43
12.0
 50
180.0
  0
INSERT
  5
5C96
330
4B7C
100
AcDbEntity
  8
SUNPOU
100
AcDbBlockReference
  2
_OPEN
 10
910.9553224227402
 20
307.0784154735251
 30
0.0
 41
12.0
 42
12.0
 43
12.0
  0
MTEXT
  5
5C97
330
4B7C
100
AcDbEntity
  8
SUNPOU
100
AcDbMText
 10
802.9553224227402
 20
315.0784154735251
 30
0.0
 40
8.0
 41
0.0
 71
     5
 72
     1
  1
\A1;φ216
1001
ACAD
1000
MTEXTBEGIN
1070
    73
1070
     1
1070
    44
1040
1.0
1070
    74
1070
     0
1000
MTEXTEND
  0
POINT
  5
5C98
330
4B7C
100
AcDbEntity
  8
DEFPOINTS
 62
     0
100
AcDbPoint
 10
694.9553224227401
 20
398.3103562794609
 30
0.0
  0
POINT
  5
5C99
330
4B7C
100
AcDbEntity
  8
DEFPOINTS
 62
     0
100
AcDbPoint
 10
910.9553224227402
 20
398.0607422896738
 30
0.0
  0
POINT
  5
5C9A
330
4B7C
100
AcDbEntity
  8
DEFPOINTS
 62
     0
100
AcDbPoint
 10
910.9553224227402
 20
307.0784154735251
 30
0.0
  0
ENDBLK
  5
4B87
330
4B7C
100
AcDbEntity
  8
0
100
AcDbBlockEnd
  0
BLOCK
  5
4B9F
330
4B95
100
AcDbEntity
  8
0
100
AcDbBlockBegin
  2
*D5
 70
     1
 10
0.0
 20
0.0
 30
0.0
  3
*D5
  1

  0
LINE
  5
5CF7
330
4B95
100
AcDbEntity
  8
SUNPOU
100
AcDbLine
 10
926.441828695275
 20
422.0624488475602
 30
0.0
 11
976.2651493315388
 21
422.0624488475602
 31
0.0
  0
LINE
  5
5CF8
330
4B95
100
AcDbEntity
  8
SUNPOU
100
AcDbLine
 10
913.7904224227405
 20
387.0624488475602
 30
0.0
 11
976.2651493315388
 21
387.0624488475602
 31
0.0
  0
LINE
  5
5CF9
330
4B95
100
AcDbEntity
  8
SUNPOU
100
AcDbLine
 10
971.2651493315389
 20
410.0624488475602
 30
0.0
 11
971.2651493315389
 21
399.0624488475601
 31
0.0
  0
INSERT
  5
5CFA
330
4B95
100
AcDbEntity
  8
SUNPOU
100
AcDbBlockReference
  2
_OPEN
 10
971.2651493315389
 20
422.0624488475602
 30
0.0
 41
12.0
 42
12.0
 43
12.0
 50
90.0
  0
INSERT
  5
5CFB
330
4B95
100
AcDbEntity
  8
SUNPOU
100
AcDbBlockReference
  2
_OPEN
 10
971.2651493315389
 20
387.0624488475602
 30
0.0
 41
12.0
 42
12.0
 43
12.0
 50
270.0
  0
MTEXT
  5
5CFC
330
4B95
100
AcDbEntity
  8
SUNPOU
100
AcDbMText
 10
963.2651493315387
 20
404.5624488475603
 30
0.0
 40
8.0
 41
0.0
 71
     5
 72
     1
  1
\A1;35
 11
0.0000000000000001
 21
1.0
 31
0.0
1001
ACAD
1000
MTEXTBEGIN
1070
    73
1070
     1
1070
    44
1040
1.0
1070
    74
1070
     0
1000
MTEXTEND
  0
POINT
  5
5CFD
330
4B95
100
AcDbEntity
  8
DEFPOINTS
 62
     0
100
AcDbPoint
 10
921.4418286952749
 20
422.0624488475602
 30
0.0
  0
POINT
  5
5CFE
330
4B95
100
AcDbEntity
  8
DEFPOINTS
 62
     0
100
AcDbPoint
 10
908.7904224227404
 20
387.0624488475602
 30
0.0
  0
POINT
  5
5CFF
330
4B95
100
AcDbEntity
  8
DEFPOINTS
 62
     0
100
AcDbPoint
 10
971.2651493315389
 20
387.0624488475602
 30
0.0
  0
ENDBLK
  5
4BA0
330
4B95
100
AcDbEntity
  8
0
100
AcDbBlockEnd
  0
BLOCK
  5
4BAB
330
4BA1
100
AcDbEntity
  8
0
100
AcDbBlockBegin
  2
*D6
 70
     1
 10
0.0
 20
0.0
 30
0.0
  3
*D6
  1

  0
LINE
  5
5C89
330
4BA1
100
AcDbEntity
  8
SUNPOU
100
AcDbLine
 10
697.9553224227402
 20
440.9705381447598
 30
0.0
 11
697.9553224227402
 21
544.3102172252403
 31
0.0
  0
LINE
  5
5C8A
330
4BA1
100
AcDbEntity
  8
SUNPOU
100
AcDbLine
 10
907.9553224227401
 20
440.9705381447598
 30
0.0
 11
907.9553224227401
 21
544.3102172252403
 31
0.0
  0
LINE
  5
5C8B
330
4BA1
100
AcDbEntity
  8
SUNPOU
100
AcDbLine
 10
709.9553224227402
 20
539.3102172252403
 30
0.0
 11
895.9553224227402
 21
539.3102172252403
 31
0.0
  0
INSERT
  5
5C8C
330
4BA1
100
AcDbEntity
  8
SUNPOU
100
AcDbBlockReference
  2
_OPEN
 10
697.9553224227402
 20
539.3102172252403
 30
0.0
 41
12.0
 42
12.0
 43
12.0
 50
180.0
  0
INSERT
  5
5C8D
330
4BA1
100
AcDbEntity
  8
SUNPOU
100
AcDbBlockReference
  2
_OPEN
 10
907.9553224227401
 20
539.3102172252403
 30
0.0
 41
12.0
 42
12.0
 43
12.0
  0
MTEXT
  5
5C8E
330
4BA1
100
AcDbEntity
  8
SUNPOU
100
AcDbMText
 10
802.9553224227402
 20
547.3102172252403
 30
0.0
 40
8.0
 41
0.0
 71
     5
 72
     1
  1
\A1;φ210
1001
ACAD
1000
MTEXTBEGIN
1070
    73
1070
     1
1070
    44
1040
1.0
1070
    74
1070
     0
1000
MTEXTEND
  0
POINT
  5
5C8F
330
4BA1
100
AcDbEntity
  8
DEFPOINTS
 62
     0
100
AcDbPoint
 10
697.9553224227402
 20
435.9705381447598
 30
0.0
  0
POINT
  5
5C90
330
4BA1
100
AcDbEntity
  8
DEFPOINTS
 62
     0
100
AcDbPoint
 10
907.9553224227401
 20
435.9705381447598
 30
0.0
  0
POINT
  5
5C91
330
4BA1
100
AcDbEntity
  8
DEFPOINTS
 62
     0
100
AcDbPoint
 10
907.9553224227401
 20
539.3102172252403
 30
0.0
  0
ENDBLK
  5
4BAC
330
4BA1
100
AcDbEntity
  8
0
100
AcDbBlockEnd
  0
BLOCK
  5
4E78
330
4E6E
100
AcDbEntity
  8
0
100
AcDbBlockBegin
  2
*D7
 70
     1
 10
0.0
 20
0.0
 30
0.0
  3
*D7
  1

  0
LINE
  5
5CEE
330
4E6E
100
AcDbEntity
  8
SUNPOU
100
AcDbLine
 10
1254.196130591614
 20
524.31985220464
 30
0.0
 11
1439.520878856725
 21
524.3198522046399
 31
0.0
  0
LINE
  5
5CEF
330
4E6E
100
AcDbEntity
  8
SUNPOU
100
AcDbLine
 10
1365.996130591634
 20
301.81985220464
 30
0.0
 11
1439.520878856725
 21
301.81985220464
 31
0.0
  0
LINE
  5
5CF0
330
4E6E
100
AcDbEntity
  8
SUNPOU
100
AcDbLine
 10
1434.520878856725
 20
512.3198522046399
 30
0.0
 11
1434.520878856725
 21
313.81985220464
 31
0.0
  0
INSERT
  5
5CF1
330
4E6E
100
AcDbEntity
  8
SUNPOU
100
AcDbBlockReference
  2
_OPEN
 10
1434.520878856725
 20
524.3198522046399
 30
0.0
 41
12.0
 42
12.0
 43
12.0
 50
90.0
  0
INSERT
  5
5CF2
330
4E6E
100
AcDbEntity
  8
SUNPOU
100
AcDbBlockReference
  2
_OPEN
 10
1434.520878856725
 20
301.81985220464
 30
0.0
 41
12.0
 42
12.0
 43
12.0
 50
270.0
  0
MTEXT
  5
5CF3
330
4E6E
100
AcDbEntity
  8
SUNPOU
100
AcDbMText
 10
1426.520878856725
 20
413.0698522046402
 30
0.0
 40
8.0
 41
0.0
 71
     5
 72
     1
  1
\A1;223
 11
0.0000000000000001
 21
1.0
 31
0.0
1001
ACAD
1000
MTEXTBEGIN
1070
    73
1070
     1
1070
    44
1040
1.0
1070
    74
1070
     0
1000
MTEXTEND
  0
POINT
  5
5CF4
330
4E6E
100
AcDbEntity
  8
DEFPOINTS
 62
     0
100
AcDbPoint
 10
1249.196130591614
 20
524.31985220464
 30
0.0
  0
POINT
  5
5CF5
330
4E6E
100
AcDbEntity
  8
DEFPOINTS
 62
     0
100
AcDbPoint
 10
1360.996130591634
 20
301.81985220464
 30
0.0
  0
POINT
  5
5CF6
330
4E6E
100
AcDbEntity
  8
DEFPOINTS
 62
     0
100
AcDbPoint
 10
1434.520878856725
 20
301.81985220464
 30
0.0
  0
ENDBLK
  5
4E79
330
4E6E
100
AcDbEntity
  8
0
100
AcDbBlockEnd
  0
BLOCK
  5
4E84
330
4E7A
100
AcDbEntity
  8
0
100
AcDbBlockBegin
  2
*D8
 70
     1
 10
0.0
 20
0.0
 30
0.0
  3
*D8
  1

  0
LINE
  5
5CE5
330
4E7A
100
AcDbEntity
  8
SUNPOU
100
AcDbLine
 10
1117.196130591634
 20
457.8198522046401
 30
0.0
 11
1117.196130591634
 21
575.2599441158998
 31
0.0
  0
LINE
  5
5CE6
330
4E7A
100
AcDbEntity
  8
SUNPOU
100
AcDbLine
 10
1381.196130591634
 20
457.8198522046401
 30
0.0
 11
1381.196130591634
 21
575.2599441158998
 31
0.0
  0
LINE
  5
5CE7
330
4E7A
100
AcDbEntity
  8
SUNPOU
100
AcDbLine
 10
1129.196130591633
 20
570.2599441158997
 30
0.0
 11
1369.196130591634
 21
570.2599441158997
 31
0.0
  0
INSERT
  5
5CE8
330
4E7A
100
AcDbEntity
  8
SUNPOU
100
AcDbBlockReference
  2
_OPEN
 10
1117.196130591634
 20
570.2599441158997
 30
0.0
 41
12.0
 42
12.0
 43
12.0
 50
180.0
  0
INSERT
  5
5CE9
330
4E7A
100
AcDbEntity
  8
SUNPOU
100
AcDbBlockReference
  2
_OPEN
 10
1381.196130591634
 20
570.2599441158997
 30
0.0
 41
12.0
 42
12.0
 43
12.0
  0
MTEXT
  5
5CEA
330
4E7A
100
AcDbEntity
  8
SUNPOU
100
AcDbMText
 10
1249.196130591633
 20
578.2599441158997
 30
0.0
 40
8.0
 41
0.0
 71
     5
 72
     1
  1
\A1;264
1001
ACAD
1000
MTEXTBEGIN
1070
    73
1070
     1
1070
    44
1040
1.0
1070
    74
1070
     0
1000
MTEXTEND
  0
POINT
  5
5CEB
330
4E7A
100
AcDbEntity
  8
DEFPOINTS
 62
     0
100
AcDbPoint
 10
1117.196130591634
 20
452.8198522046401
 30
0.0
  0
POINT
  5
5CEC
330
4E7A
100
AcDbEntity
  8
DEFPOINTS
 62
     0
100
AcDbPoint
 10
1381.196130591634
 20
452.8198522046401
 30
0.0
  0
POINT
  5
5CED
330
4E7A
100
AcDbEntity
  8
DEFPOINTS
 62
     0
100
AcDbPoint
 10
1381.196130591634
 20
570.2599441158997
 30
0.0
  0
ENDBLK
  5
4E85
330
4E7A
100
AcDbEntity
  8
0
100
AcDbBlockEnd
  0
BLOCK
  5
5141
330
5137
100
AcDbEntity
  8
0
100
AcDbBlockBegin
  2
*D9
 70
     1
 10
0.0
 20
0.0
 30
0.0
  3
*D9
  1

  0
LINE
  5
5CC1
330
5137
100
AcDbEntity
  8
SUNPOU
100
AcDbLine
 10
490.6709138491005
 20
495.0624488475601
 30
0.0
 11
549.4481278993935
 21
495.0624488475601
 31
0.0
  0
LINE
  5
5CC2
330
5137
100
AcDbEntity
  8
SUNPOU
100
AcDbLine
 10
468.6709138491005
 20
344.0624488475601
 30
0.0
 11
549.4481278993935
 21
344.0624488475601
 31
0.0
  0
LINE
  5
5CC3
330
5137
100
AcDbEntity
  8
SUNPOU
100
AcDbLine
 10
544.4481278993935
 20
483.0624488475601
 30
0.0
 11
544.4481278993935
 21
356.0624488475601
 31
0.0
  0
INSERT
  5
5CC4
330
5137
100
AcDbEntity
  8
SUNPOU
100
AcDbBlockReference
  2
_OPEN
 10
544.4481278993935
 20
495.0624488475601
 30
0.0
 41
12.0
 42
12.0
 43
12.0
 50
90.0
  0
INSERT
  5
5CC5
330
5137
100
AcDbEntity
  8
SUNPOU
100
AcDbBlockReference
  2
_OPEN
 10
544.4481278993935
 20
344.0624488475601
 30
0.0
 41
12.0
 42
12.0
 43
12.0
 50
270.0
  0
MTEXT
  5
5CC6
330
5137
100
AcDbEntity
  8
SUNPOU
100
AcDbMText
 10
536.4481278993934
 20
419.5624488475602
 30
0.0
 40
8.0
 41
0.0
 71
     5
 72
     1
  1
\A1;151
 11
0.0000000000000001
 21
1.0
 31
0.0
1001
ACAD
1000
MTEXTBEGIN
1070
    73
1070
     1
1070
    44
1040
1.0
1070
    74
1070
     0
1000
MTEXTEND
  0
POINT
  5
5CC7
330
5137
100
AcDbEntity
  8
DEFPOINTS
 62
     0
100
AcDbPoint
 10
485.6709138491005
 20
495.0624488475601
 30
0.0
  0
POINT
  5
5CC8
330
5137
100
AcDbEntity
  8
DEFPOINTS
 62
     0
100
AcDbPoint
 10
463.6709138491005
 20
344.0624488475601
 30
0.0
  0
POINT
  5
5CC9
330
5137
100
AcDbEntity
  8
DEFPOINTS
 62
     0
100
AcDbPoint
 10
544.4481278993935
 20
344.0624488475601
 30
0.0
  0
ENDBLK
  5
5142
330
5137
100
AcDbEntity
  8
0
100
AcDbBlockEnd
  0
BLOCK
  5
5166
330
515C
100
AcDbEntity
  8
0
100
AcDbBlockBegin
  2
*D10
 70
     1
 10
0.0
 20
0.0
 30
0.0
  3
*D10
  1

  0
LINE
  5
5CB6
330
515C
100
AcDbEntity
  8
SUNPOU
100
AcDbLine
 10
338.6709138491001
 20
341.0624488475601
 30
0.0
 11
338.6709138491001
 21
305.1994691297177
 31
0.0
  0
LINE
  5
5CB7
330
515C
100
AcDbEntity
  8
SUNPOU
100
AcDbLine
 10
368.6709138490996
 20
341.0624488475601
 30
0.0
 11
368.6709138490996
 21
305.1994691297177
 31
0.0
  0
LINE
  5
5CB8
330
515C
100
AcDbEntity
  8
SUNPOU
100
AcDbLine
 10
326.6709138491
 20
310.1994691297177
 30
0.0
 11
314.6709138491
 21
310.1994691297177
 31
0.0
  0
LINE
  5
5CB9
330
515C
100
AcDbEntity
  8
SUNPOU
100
AcDbLine
 10
380.6709138490996
 20
310.1994691297177
 30
0.0
 11
392.6709138490996
 21
310.1994691297177
 31
0.0
  0
LINE
  5
5CBA
330
515C
100
AcDbEntity
  8
SUNPOU
100
AcDbLine
 10
338.6709138491001
 20
310.1994691297177
 30
0.0
 11
368.6709138490996
 21
310.1994691297177
 31
0.0
  0
INSERT
  5
5CBB
330
515C
100
AcDbEntity
  8
SUNPOU
100
AcDbBlockReference
  2
_OPEN
 10
338.6709138491001
 20
310.1994691297177
 30
0.0
 41
12.0
 42
12.0
 43
12.0
  0
INSERT
  5
5CBC
330
515C
100
AcDbEntity
  8
SUNPOU
100
AcDbBlockReference
  2
_OPEN
 10
368.6709138490996
 20
310.1994691297177
 30
0.0
 41
12.0
 42
12.0
 43
12.0
 50
180.0
  0
MTEXT
  5
5CBD
330
515C
100
AcDbEntity
  8
SUNPOU
100
AcDbMText
 10
353.6709138490998
 20
318.1994691297177
 30
0.0
 40
8.0
 41
0.0
 71
     5
 72
     1
  1
\A1;30
1001
ACAD
1000
MTEXTBEGIN
1070
    73
1070
     1
1070
    44
1040
1.0
1070
    74
1070
     0
1000
MTEXTEND
  0
POINT
  5
5CBE
330
515C
100
AcDbEntity
  8
DEFPOINTS
 62
     0
100
AcDbPoint
 10
338.6709138491001
 20
346.0624488475601
 30
0.0
  0
POINT
  5
5CBF
330
515C
100
AcDbEntity
  8
DEFPOINTS
 62
     0
100
AcDbPoint
 10
368.6709138490996
 20
346.0624488475601
 30
0.0
  0
POINT
  5
5CC0
330
515C
100
AcDbEntity
  8
DEFPOINTS
 62
     0
100
AcDbPoint
 10
368.6709138490996
 20
310.1994691297177
 30
0.0
  0
ENDBLK
  5
5167
330
515C
100
AcDbEntity
  8
0
100
AcDbBlockEnd
  0
BLOCK
  5
518B
330
5181
100
AcDbEntity
  8
0
100
AcDbBlockBegin
  2
*D11
 70
     1
 10
0.0
 20
0.0
 30
0.0
  3
*D11
  1

  0
LINE
  5
5CCA
330
5181
100
AcDbEntity
  8
SUNPOU
100
AcDbLine
 10
470.4709138491002
 20
449.0624488476075
 30
0.0
 11
524.835421234688
 21
449.0624488476075
 31
0.0
  0
LINE
  5
5CCB
330
5181
100
AcDbEntity
  8
SUNPOU
100
AcDbLine
 10
470.4709138491002
 20
344.0624488475601
 30
0.0
 11
524.835421234688
 21
344.0624488475601
 31
0.0
  0
LINE
  5
5CCC
330
5181
100
AcDbEntity
  8
SUNPOU
100
AcDbLine
 10
519.835421234688
 20
437.0624488476074
 30
0.0
 11
519.835421234688
 21
356.0624488475601
 31
0.0
  0
INSERT
  5
5CCD
330
5181
100
AcDbEntity
  8
SUNPOU
100
AcDbBlockReference
  2
_OPEN
 10
519.835421234688
 20
449.0624488476075
 30
0.0
 41
12.0
 42
12.0
 43
12.0
 50
90.0
  0
INSERT
  5
5CCE
330
5181
100
AcDbEntity
  8
SUNPOU
100
AcDbBlockReference
  2
_OPEN
 10
519.835421234688
 20
344.0624488475601
 30
0.0
 41
12.0
 42
12.0
 43
12.0
 50
270.0
  0
MTEXT
  5
5CCF
330
5181
100
AcDbEntity
  8
SUNPOU
100
AcDbMText
 10
511.8354212346879
 20
396.5624488475839
 30
0.0
 40
8.0
 41
0.0
 71
     5
 72
     1
  1
\A1;\U+203B105
 11
0.0000000000000001
 21
1.0
 31
0.0
1001
ACAD
1000
MTEXTBEGIN
1070
    73
1070
     1
1070
    44
1040
1.0
1070
    74
1070
     0
1000
MTEXTEND
  0
POINT
  5
5CD0
330
5181
100
AcDbEntity
  8
DEFPOINTS
 62
     0
100
AcDbPoint
 10
465.4709138491003
 20
449.0624488476075
 30
0.0
  0
POINT
  5
5CD1
330
5181
100
AcDbEntity
  8
DEFPOINTS
 62
     0
100
AcDbPoint
 10
465.4709138491003
 20
344.0624488475601
 30
0.0
  0
POINT
  5
5CD2
330
5181
100
AcDbEntity
  8
DEFPOINTS
 62
     0
100
AcDbPoint
 10
519.835421234688
 20
344.0624488475601
 30
0.0
  0
ENDBLK
  5
518C
330
5181
100
AcDbEntity
  8
0
100
AcDbBlockEnd
  0
BLOCK
  5
54B2
330
531E
100
AcDbEntity
  8
0
100
AcDbBlockBegin
  2
*X12
 70
     1
 10
0.0
 20
0.0
 30
0.0
  3
*X12
  1

  0
LINE
  5
531F
330
531E
100
AcDbEntity
  8
0
 62
     0
100
AcDbLine
 10
138.0844243231183
 20
45.20833800885884
 30
0.0
 11
136.7927624636885
 21
46.4999998682888
 31
0.0
  0
LINE
  5
5320
330
531E
100
AcDbEntity
  8
0
 62
     0
100
AcDbLine
 10
138.0844243231183
 20
43.41228678464505
 30
0.0
 11
134.9967112394746
 21
46.4999998682888
 31
0.0
  0
LINE
  5
5321
330
531E
100
AcDbEntity
  8
0
 62
     0
100
AcDbLine
 10
138.0844243231182
 20
41.61623556043116
 30
0.0
 11
133.2421564310883
 21
46.45850345246105
 31
0.0
  0
LINE
  5
5322
330
531E
100
AcDbEntity
  8
0
 62
     0
100
AcDbLine
 10
138.0844243231183
 20
39.82018433621749
 30
0.0
 11
132.4844243231182
 21
45.42018433621751
 31
0.0
  0
LINE
  5
5323
330
531E
100
AcDbEntity
  8
0
 62
     0
100
AcDbLine
 10
138.0844243231183
 20
38.02413311200359
 30
0.0
 11
132.4844243231182
 21
43.62413311200373
 31
0.0
  0
LINE
  5
5324
330
531E
100
AcDbEntity
  8
0
 62
     0
100
AcDbLine
 10
138.0844243231182
 20
36.2280818877897
 30
0.0
 11
132.4844243231181
 21
41.82808188778984
 31
0.0
  0
LINE
  5
5325
330
531E
100
AcDbEntity
  8
0
 62
     0
100
AcDbLine
 10
128.2844243231181
 20
44.2320306635761
 30
0.0
 11
126.0164551184056
 21
46.4999998682888
 31
0.0
  0
LINE
  5
5326
330
531E
100
AcDbEntity
  8
0
 62
     0
100
AcDbLine
 10
138.0844243231183
 20
34.43203066357602
 30
0.0
 11
132.4844243231182
 21
40.03203066357616
 31
0.0
  0
LINE
  5
5327
330
531E
100
AcDbEntity
  8
0
 62
     0
100
AcDbLine
 10
128.2844243231181
 20
42.43597943936231
 30
0.0
 11
124.2204038941916
 21
46.49999986828868
 31
0.0
  0
LINE
  5
5328
330
531E
100
AcDbEntity
  8
0
 62
     0
100
AcDbLine
 10
138.0844243231182
 20
32.63597943936213
 30
0.0
 11
132.4844243231182
 21
38.23597943936226
 31
0.0
  0
LINE
  5
5329
330
531E
100
AcDbEntity
  8
0
 62
     0
100
AcDbLine
 10
128.2844243231181
 20
40.63992821514841
 30
0.0
 11
122.873402392844
 21
46.05095014542257
 31
0.0
  0
LINE
  5
532A
330
531E
100
AcDbEntity
  8
0
 62
     0
100
AcDbLine
 10
138.0844243231182
 20
30.83992821514835
 30
0.0
 11
132.4844243231181
 21
36.43992821514837
 31
0.0
  0
LINE
  5
532B
330
531E
100
AcDbEntity
  8
0
 62
     0
100
AcDbLine
 10
128.2844243231183
 20
38.8438769909344
 30
0.0
 11
122.684424323118
 21
44.44387699093465
 31
0.0
  0
LINE
  5
532C
330
531E
100
AcDbEntity
  8
0
 62
     0
100
AcDbLine
 10
138.0844243231183
 20
29.04387699093445
 30
0.0
 11
132.4844243231182
 21
34.64387699093459
 31
0.0
  0
LINE
  5
532D
330
531E
100
AcDbEntity
  8
0
 62
     0
100
AcDbLine
 10
128.2844243231182
 20
37.04782576672062
 30
0.0
 11
122.684424323118
 21
42.64782576672098
 31
0.0
  0
LINE
  5
532E
330
531E
100
AcDbEntity
  8
0
 62
     0
100
AcDbLine
 10
138.0844243231182
 20
27.24782576672066
 30
0.0
 11
132.4844243231181
 21
32.8478257667208
 31
0.0
  0
LINE
  5
532F
330
531E
100
AcDbEntity
  8
0
 62
     0
100
AcDbLine
 10
128.2844243231182
 20
35.25177454250683
 30
0.0
 11
122.684424323118
 21
40.85177454250708
 31
0.0
  0
LINE
  5
5330
330
531E
100
AcDbEntity
  8
0
 62
     0
100
AcDbLine
 10
138.0844243231182
 20
25.45177454250688
 30
0.0
 11
132.4844243231181
 21
31.05177454250702
 31
0.0
  0
LINE
  5
5331
330
531E
100
AcDbEntity
  8
0
 62
     0
100
AcDbLine
 10
128.2844243231181
 20
33.45572331829294
 30
0.0
 11
122.6844243231179
 21
39.05572331829318
 31
0.0
  0
LINE
  5
5332
330
531E
100
AcDbEntity
  8
0
 62
     0
100
AcDbLine
 10
138.0844243231181
 20
23.65572331829298
 30
0.0
 11
132.4844243231181
 21
29.25572331829312
 31
0.0
  0
LINE
  5
5333
330
531E
100
AcDbEntity
  8
0
 62
     0
100
AcDbLine
 10
128.2844243231182
 20
31.65967209407927
 30
0.0
 11
122.684424323118
 21
37.25967209407952
 31
0.0
  0
LINE
  5
5334
330
531E
100
AcDbEntity
  8
0
 62
     0
100
AcDbLine
 10
115.6844243231181
 20
44.2596720940794
 30
0.0
 11
113.4440965489086
 21
46.4999998682888
 31
0.0
  0
LINE
  5
5335
330
531E
100
AcDbEntity
  8
0
 62
     0
100
AcDbLine
 10
138.0844243231182
 20
21.85967209407931
 30
0.0
 11
132.4844243231181
 21
27.45967209407933
 31
0.0
  0
LINE
  5
5336
330
531E
100
AcDbEntity
  8
0
 62
     0
100
AcDbLine
 10
128.2844243231182
 20
29.86362086986537
 30
0.0
 11
122.6844243231179
 21
35.46362086986562
 31
0.0
  0
LINE
  5
5337
330
531E
100
AcDbEntity
  8
0
 62
     0
100
AcDbLine
 10
115.6844243231182
 20
42.46362086986539
 30
0.0
 11
111.6480453246948
 21
46.4999998682888
 31
0.0
  0
LINE
  5
5338
330
531E
100
AcDbEntity
  8
0
 62
     0
100
AcDbLine
 10
138.0844243231182
 20
20.06362086986541
 30
0.0
 11
132.4844243231181
 21
25.66362086986555
 31
0.0
  0
LINE
  5
5339
330
531E
100
AcDbEntity
  8
0
 62
     0
100
AcDbLine
 10
128.2844243231181
 20
28.06756964565158
 30
0.0
 11
122.684424323118
 21
33.66756964565161
 31
0.0
  0
LINE
  5
533A
330
531E
100
AcDbEntity
  8
0
 62
     0
100
AcDbLine
 10
115.6844243231181
 20
40.6675696456515
 30
0.0
 11
110.28489887647
 21
46.06709509229972
 31
0.0
  0
LINE
  5
533B
330
531E
100
AcDbEntity
  8
0
 62
     0
100
AcDbLine
 10
138.0844243231181
 20
18.26756964565163
 30
0.0
 11
132.4844243231179
 21
23.86756964565165
 31
0.0
  0
LINE
  5
533C
330
531E
100
AcDbEntity
  8
0
 62
     0
100
AcDbLine
 10
128.2844243231182
 20
26.27151842143769
 30
0.0
 11
122.6844243231181
 21
31.87151842143782
 31
0.0
  0
LINE
  5
533D
330
531E
100
AcDbEntity
  8
0
 62
     0
100
AcDbLine
 10
115.6844243231182
 20
38.87151842143771
 30
0.0
 11
110.0844243231181
 21
44.47151842143784
 31
0.0
  0
LINE
  5
533E
330
531E
100
AcDbEntity
  8
0
 62
     0
100
AcDbLine
 10
138.0844243231182
 20
16.47151842143773
 30
0.0
 11
132.4844243231181
 21
22.07151842143787
 31
0.0
  0
LINE
  5
533F
330
531E
100
AcDbEntity
  8
0
 62
     0
100
AcDbLine
 10
128.2844243231181
 20
24.47546719722391
 30
0.0
 11
122.6844243231181
 21
30.07546719722404
 31
0.0
  0
LINE
  5
5340
330
531E
100
AcDbEntity
  8
0
 62
     0
100
AcDbLine
 10
115.6844243231182
 20
37.07546719722393
 30
0.0
 11
110.0844243231182
 21
42.67546719722395
 31
0.0
  0
LINE
  5
5341
330
531E
100
AcDbEntity
  8
0
 62
     0
100
AcDbLine
 10
137.9404936133386
 20
14.81939790700357
 30
0.0
 11
132.4844243231181
 21
20.27546719722408
 31
0.0
  0
LINE
  5
5342
330
531E
100
AcDbEntity
  8
0
 62
     0
100
AcDbLine
 10
128.2844243231182
 20
22.67941597300989
 30
0.0
 11
122.684424323118
 21
28.27941597301014
 31
0.0
  0
LINE
  5
5343
330
531E
100
AcDbEntity
  8
0
 62
     0
100
AcDbLine
 10
115.6844243231181
 20
35.27941597301014
 30
0.0
 11
110.0844243231182
 21
40.87941597301005
 31
0.0
  0
LINE
  5
5344
330
531E
100
AcDbEntity
  8
0
 62
     0
100
AcDbLine
 10
136.6638404278396
 20
14.29999986828863
 30
0.0
 11
132.4844243231179
 21
18.4794159730103
 31
0.0
  0
LINE
  5
5345
330
531E
100
AcDbEntity
  8
0
 62
     0
100
AcDbLine
 10
115.6844243231181
 20
33.48336474879625
 30
0.0
 11
110.0844243231181
 21
39.08336474879615
 31
0.0
  0
LINE
  5
5346
330
531E
100
AcDbEntity
  8
0
 62
     0
100
AcDbLine
 10
128.2844243231182
 20
20.88336474879611
 30
0.0
 11
122.684424323118
 21
26.48336474879636
 31
0.0
  0
LINE
  5
5347
330
531E
100
AcDbEntity
  8
0
 62
     0
100
AcDbLine
 10
104.8344243231181
 20
44.33336474879626
 30
0.0
 11
102.6677892036254
 21
46.4999998682888
 31
0.0
  0
LINE
  5
5348
330
531E
100
AcDbEntity
  8
0
 62
     0
100
AcDbLine
 10
134.8677892036258
 20
14.29999986828841
 30
0.0
 11
132.4844243231179
 21
16.6833647487964
 31
0.0
  0
LINE
  5
5349
330
531E
100
AcDbEntity
  8
0
 62
     0
100
AcDbLine
 10
115.6844243231181
 20
31.68731352458246
 30
0.0
 11
110.0844243231182
 21
37.28731352458249
 31
0.0
  0
LINE
  5
534A
330
531E
100
AcDbEntity
  8
0
 62
     0
100
AcDbLine
 10
104.8344243231181
 20
42.53731352458248
 30
0.0
 11
100.8717379794118
 21
46.4999998682889
 31
0.0
  0
LINE
  5
534B
330
531E
100
AcDbEntity
  8
0
 62
     0
100
AcDbLine
 10
128.2325077218271
 20
19.1392301258736
 30
0.0
 11
122.684424323118
 21
24.68731352458258
 31
0.0
  0
LINE
  5
534C
330
531E
100
AcDbEntity
  8
0
 62
     0
100
AcDbLine
 10
115.6844243231182
 20
29.89126230036845
 30
0.0
 11
110.0844243231182
 21
35.49126230036859
 31
0.0
  0
LINE
  5
534D
330
531E
100
AcDbEntity
  8
0
 62
     0
100
AcDbLine
 10
104.4432632308904
 20
41.13242339259636
 30
0.0
 11
99.07568675519815
 21
46.49999986828868
 31
0.0
  0
LINE
  5
534E
330
531E
100
AcDbEntity
  8
0
 62
     0
100
AcDbLine
 10
127.8465371313126
 20
17.72914949217408
 30
0.0
 11
122.684424323118
 21
22.89126230036879
 31
0.0
  0
LINE
  5
534F
330
531E
100
AcDbEntity
  8
0
 62
     0
100
AcDbLine
 10
115.6844243231182
 20
28.09521107615466
 30
0.0
 11
110.0844243231181
 21
33.6952110761548
 31
0.0
  0
LINE
  5
5350
330
531E
100
AcDbEntity
  8
0
 62
     0
100
AcDbLine
 10
102.8796355309841
 20
40.89999986828866
 30
0.0
 11
97.27963553098414
 21
46.4999998682888
 31
0.0
  0
LINE
  5
5351
330
531E
100
AcDbEntity
  8
0
 62
     0
100
AcDbLine
 10
127.1964733794654
 20
16.58316201980733
 30
0.0
 11
122.541392844799
 21
21.23824255447391
 31
0.0
  0
LINE
  5
5352
330
531E
100
AcDbEntity
  8
0
 62
     0
100
AcDbLine
 10
115.6844243231183
 20
26.29915985194088
 30
0.0
 11
110.0844243231182
 21
31.89915985194102
 31
0.0
  0
LINE
  5
5353
330
531E
100
AcDbEntity
  8
0
 62
     0
100
AcDbLine
 10
101.0835843067704
 20
40.89999986828877
 30
0.0
 11
95.60845084841572
 21
46.37513332664354
 31
0.0
  0
LINE
  5
5354
330
531E
100
AcDbEntity
  8
0
 62
     0
100
AcDbLine
 10
126.3323897848154
 20
15.65119439024374
 30
0.0
 11
121.738221567864
 21
20.24536260719514
 31
0.0
  0
LINE
  5
5355
330
531E
100
AcDbEntity
  8
0
 62
     0
100
AcDbLine
 10
115.6844243231182
 20
24.5031086277271
 30
0.0
 11
110.0844243231181
 21
30.10310862772712
 31
0.0
  0
LINE
  5
5356
330
531E
100
AcDbEntity
  8
0
 62
     0
100
AcDbLine
 10
99.28753308255659
 20
40.89999986828877
 30
0.0
 11
94.27916999934893
 21
45.90836295149631
 31
0.0
  0
LINE
  5
5357
330
531E
100
AcDbEntity
  8
0
 62
     0
100
AcDbLine
 10
125.2600650949633
 20
14.92746785588201
 30
0.0
 11
120.2875330825565
 21
19.89999986828865
 31
0.0
  0
LINE
  5
5358
330
531E
100
AcDbEntity
  8
0
 62
     0
100
AcDbLine
 10
115.6844243231182
 20
22.7070574035132
 30
0.0
 11
110.0844243231182
 21
28.30705740351311
 31
0.0
  0
LINE
  5
5359
330
531E
100
AcDbEntity
  8
0
 62
     0
100
AcDbLine
 10
97.53506151437898
 20
40.85642021225237
 30
0.0
 11
93.19396812492858
 21
45.19751360170277
 31
0.0
  0
LINE
  5
535A
330
531E
100
AcDbEntity
  8
0
 62
     0
100
AcDbLine
 10
123.9472399751407
 20
14.44424175149072
 30
0.0
 11
118.4914818583428
 21
19.89999986828865
 31
0.0
  0
LINE
  5
535B
330
531E
100
AcDbEntity
  8
0
 62
     0
100
AcDbLine
 10
96.78442432311829
 20
39.81100617929917
 30
0.0
 11
92.31774400683946
 21
44.27768649557799
 31
0.0
  0
LINE
  5
535C
330
531E
100
AcDbEntity
  8
0
 62
     0
100
AcDbLine
 10
122.295430634129
 20
14.29999986828852
 30
0.0
 11
110.0844243231182
 21
26.51100617929933
 31
0.0
  0
LINE
  5
535D
330
531E
100
AcDbEntity
  8
0
 62
     0
100
AcDbLine
 10
96.7844243231184
 20
38.0149549550855
 30
0.0
 11
91.65420218213341
 21
43.14517709607048
 31
0.0
  0
LINE
  5
535E
330
531E
100
AcDbEntity
  8
0
 62
     0
100
AcDbLine
 10
120.4993794099152
 20
14.29999986828852
 30
0.0
 11
110.0844243231183
 21
24.71495495508554
 31
0.0
  0
LINE
  5
535F
330
531E
100
AcDbEntity
  8
0
 62
     0
100
AcDbLine
 10
97.19751288532586
 20
35.80581516866414
 30
0.0
 11
91.24984514340519
 21
41.75348291058469
 31
0.0
  0
LINE
  5
5360
330
531E
100
AcDbEntity
  8
0
 62
     0
100
AcDbLine
 10
118.7033281857012
 20
14.29999986828863
 30
0.0
 11
110.0844243231182
 21
22.91890373087176
 31
0.0
  0
LINE
  5
5361
330
531E
100
AcDbEntity
  8
0
 62
     0
100
AcDbLine
 10
105.6316317285009
 20
25.57564510127519
 30
0.0
 11
91.18442432311814
 21
40.02285250665784
 31
0.0
  0
LINE
  5
5362
330
531E
100
AcDbEntity
  8
0
 62
     0
100
AcDbLine
 10
86.98442432311798
 20
44.222852506658
 30
0.0
 11
84.70727696148742
 21
46.49999986828868
 31
0.0
  0
LINE
  5
5363
330
531E
100
AcDbEntity
  8
0
 62
     0
100
AcDbLine
 10
116.9072769614874
 20
14.29999986828863
 30
0.0
 11
110.0844243231182
 21
21.12285250665786
 31
0.0
  0
LINE
  5
5364
330
531E
100
AcDbEntity
  8
0
 62
     0
100
AcDbLine
 10
105.8844243231183
 20
23.52680128244412
 30
0.0
 11
91.18442432311827
 21
38.22680128244417
 31
0.0
  0
LINE
  5
5365
330
531E
100
AcDbEntity
  8
0
 62
     0
100
AcDbLine
 10
86.98442432311821
 20
42.4268012824441
 30
0.0
 11
82.91122573727353
 21
46.4999998682889
 31
0.0
  0
LINE
  5
5366
330
531E
100
AcDbEntity
  8
0
 62
     0
100
AcDbLine
 10
115.078329979784
 20
14.3328956257784
 30
0.0
 11
110.117320080608
 21
19.29390552495442
 31
0.0
  0
LINE
  5
5367
330
531E
100
AcDbEntity
  8
0
 62
     0
100
AcDbLine
 10
86.98442432311821
 20
40.63075005823032
 30
0.0
 11
81.56964454756758
 21
46.04552983378084
 31
0.0
  0
LINE
  5
5368
330
531E
100
AcDbEntity
  8
0
 62
     0
100
AcDbLine
 10
105.8844243231181
 20
21.73075005823022
 30
0.0
 11
91.23124565888293
 21
36.38392872246561
 31
0.0
  0
LINE
  5
5369
330
531E
100
AcDbEntity
  8
0
 62
     0
100
AcDbLine
 10
86.98442432311821
 20
38.83469883401642
 30
0.0
 11
81.38442432311819
 21
44.43469883401633
 31
0.0
  0
LINE
  5
536A
330
531E
100
AcDbEntity
  8
0
 62
     0
100
AcDbLine
 10
105.8844243231179
 20
19.93469883401655
 30
0.0
 11
91.86748449456297
 21
33.95163866257167
 31
0.0
  0
LINE
  5
536B
330
531E
100
AcDbEntity
  8
0
 62
     0
100
AcDbLine
 10
86.98442432311821
 20
37.03864760980263
 30
0.0
 11
81.38442432311832
 21
42.63864760980254
 31
0.0
  0
LINE
  5
536C
330
531E
100
AcDbEntity
  8
0
 62
     0
100
AcDbLine
 10
105.66730068794
 20
18.35577124498081
 30
0.0
 11
100.2760311098634
 21
23.74704082305743
 31
0.0
  0
LINE
  5
536D
330
531E
100
AcDbEntity
  8
0
 62
     0
100
AcDbLine
 10
86.98442432311821
 20
35.24259638558885
 30
0.0
 11
81.38442432311819
 21
40.84259638558876
 31
0.0
  0
LINE
  5
536E
330
531E
100
AcDbEntity
  8
0
 62
     0
100
AcDbLine
 10
76.80145052196417
 20
45.42557018674279
 30
0.0
 11
75.72702084041816
 21
46.4999998682889
 31
0.0
  0
LINE
  5
536F
330
531E
100
AcDbEntity
  8
0
 62
     0
100
AcDbLine
 10
105.1315492724169
 20
17.09547143629015
 30
0.0
 11
100.2844243231182
 21
21.94259638558878
 31
0.0
  0
LINE
  5
5370
330
531E
100
AcDbEntity
  8
0
 62
     0
100
AcDbLine
 10
86.98442432311811
 20
33.44654516137495
 30
0.0
 11
81.38442432311819
 21
39.04654516137497
 31
0.0
  0
LINE
  5
5371
330
531E
100
AcDbEntity
  8
0
 62
     0
100
AcDbLine
 10
76.40359519345896
 20
44.0273742910341
 30
0.0
 11
73.93096961620438
 21
46.4999998682888
 31
0.0
  0
LINE
  5
5372
330
531E
100
AcDbEntity
  8
0
 62
     0
100
AcDbLine
 10
104.3655756760663
 20
16.06539380842684
 30
0.0
 11
100.0898539573453
 21
20.34111552714784
 31
0.0
  0
LINE
  5
5373
330
531E
100
AcDbEntity
  8
0
 62
     0
100
AcDbLine
 10
86.98442432311811
 20
31.65049393716117
 30
0.0
 11
81.38442432311819
 21
37.25049393716108
 31
0.0
  0
LINE
  5
5374
330
531E
100
AcDbEntity
  8
0
 62
     0
100
AcDbLine
 10
75.97254289964758
 20
42.66237536063158
 30
0.0
 11
72.15411177270642
 21
46.48080648757286
 31
0.0
  0
LINE
  5
5375
330
531E
100
AcDbEntity
  8
0
 62
     0
100
AcDbLine
 10
103.392937745835
 20
15.24198051444409
 30
0.0
 11
98.73491839199061
 21
19.89999986828865
 31
0.0
  0
LINE
  5
5376
330
531E
100
AcDbEntity
  8
0
 62
     0
100
AcDbLine
 10
86.98442432311834
 20
29.85444271294727
 30
0.0
 11
81.38442432311819
 21
35.4544427129473
 31
0.0
  0
LINE
  5
5377
330
531E
100
AcDbEntity
  8
0
 62
     0
100
AcDbLine
 10
75.54149060583654
 20
41.29737643022906
 30
0.0
 11
71.28549060583646
 21
45.55337643022915
 31
0.0
  0
LINE
  5
5378
330
531E
100
AcDbEntity
  8
0
 62
     0
100
AcDbLine
 10
102.2007698489143
 20
14.63809718715117
 30
0.0
 11
96.93886716777683
 21
19.89999986828877
 31
0.0
  0
LINE
  5
5379
330
531E
100
AcDbEntity
  8
0
 62
     0
100
AcDbLine
 10
86.98442432311834
 20
28.05839148873337
 30
0.0
 11
81.38442432311819
 21
33.65839148873351
 31
0.0
  0
LINE
  5
537A
330
531E
100
AcDbEntity
  8
0
 62
     0
100
AcDbLine
 10
75.11043831202482
 20
39.93237749982688
 30
0.0
 11
70.85443831202486
 21
44.18837749982685
 31
0.0
  0
LINE
  5
537B
330
531E
100
AcDbEntity
  8
0
 62
     0
100
AcDbLine
 10
100.7254245456193
 20
14.31739126623233
 30
0.0
 11
95.14281594356305
 21
19.89999986828865
 31
0.0
  0
LINE
  5
537C
330
531E
100
AcDbEntity
  8
0
 62
     0
100
AcDbLine
 10
86.98442432311821
 20
26.26234026451959
 30
0.0
 11
81.38442432311808
 21
31.86234026451961
 31
0.0
  0
LINE
  5
537D
330
531E
100
AcDbEntity
  8
0
 62
     0
100
AcDbLine
 10
74.67938601821368
 20
38.56737856942413
 30
0.0
 11
70.42338601821348
 21
42.82337856942421
 31
0.0
  0
LINE
  5
537E
330
531E
100
AcDbEntity
  8
0
 62
     0
100
AcDbLine
 10
98.94676471934928
 20
14.29999986828852
 30
0.0
 11
93.34676471934916
 21
19.89999986828865
 31
0.0
  0
LINE
  5
537F
330
531E
100
AcDbEntity
  8
0
 62
     0
100
AcDbLine
 10
86.98442432311834
 20
24.46628904030581
 30
0.0
 11
81.38442432311819
 21
30.06628904030594
 31
0.0
  0
LINE
  5
5380
330
531E
100
AcDbEntity
  8
0
 62
     0
100
AcDbLine
 10
74.24833372440253
 20
37.20237963902161
 30
0.0
 11
69.99233372440222
 21
41.45837963902181
 31
0.0
  0
LINE
  5
5381
330
531E
100
AcDbEntity
  8
0
 62
     0
100
AcDbLine
 10
97.1507134951355
 20
14.29999986828863
 30
0.0
 11
92.28349010054273
 21
19.1672232628814
 31
0.0
  0
LINE
  5
5382
330
531E
100
AcDbEntity
  8
0
 62
     0
100
AcDbLine
 10
73.81728143059103
 20
35.83738070861921
 30
0.0
 11
69.56128143059095
 21
40.09338070861929
 31
0.0
  0
LINE
  5
5383
330
531E
100
AcDbEntity
  8
0
 62
     0
100
AcDbLine
 10
86.98442432311821
 20
22.67023781609191
 30
0.0
 11
81.38442432311819
 21
28.27023781609204
 31
0.0
  0
LINE
  5
5384
330
531E
100
AcDbEntity
  8
0
 62
     0
100
AcDbLine
 10
65.28442432311817
 20
44.37023781609207
 30
0.0
 11
63.15466227092156
 21
46.49999986828857
 31
0.0
  0
LINE
  5
5385
330
531E
100
AcDbEntity
  8
0
 62
     0
100
AcDbLine
 10
95.35466227092172
 20
14.29999986828852
 30
0.0
 11
92.23442432311822
 21
17.42023781609202
 31
0.0
  0
LINE
  5
5386
330
531E
100
AcDbEntity
  8
0
 62
     0
100
AcDbLine
 10
73.38622913677966
 20
34.47238177821668
 30
0.0
 11
69.13022913677969
 21
38.72838177821666
 31
0.0
  0
LINE
  5
5387
330
531E
100
AcDbEntity
  8
0
 62
     0
100
AcDbLine
 10
86.98442432311821
 20
20.87418659187812
 30
0.0
 11
81.38442432311808
 21
26.47418659187826
 31
0.0
  0
LINE
  5
5388
330
531E
100
AcDbEntity
  8
0
 62
     0
100
AcDbLine
 10
65.28442432311817
 20
42.57418659187817
 30
0.0
 11
61.35861104670778
 21
46.49999986828857
 31
0.0
  0
LINE
  5
5389
330
531E
100
AcDbEntity
  8
0
 62
     0
100
AcDbLine
 10
93.5586110467077
 20
14.29999986828863
 30
0.0
 11
92.23442432311811
 21
15.62418659187812
 31
0.0
  0
LINE
  5
538A
330
531E
100
AcDbEntity
  8
0
 62
     0
100
AcDbLine
 10
72.95517684296829
 20
33.10738284781416
 30
0.0
 11
68.6991768429682
 21
37.36338284781425
 31
0.0
  0
LINE
  5
538B
330
531E
100
AcDbEntity
  8
0
 62
     0
100
AcDbLine
 10
65.28442432311805
 20
40.77813536766427
 30
0.0
 11
59.93353446532285
 21
46.1290252254596
 31
0.0
  0
LINE
  5
538C
330
531E
100
AcDbEntity
  8
0
 62
     0
100
AcDbLine
 10
86.98442432311821
 20
19.07813536766423
 30
0.0
 11
81.38442432311808
 21
24.67813536766437
 31
0.0
  0
LINE
  5
538D
330
531E
100
AcDbEntity
  8
0
 62
     0
100
AcDbLine
 10
72.52412454915702
 20
31.74238391741175
 30
0.0
 11
68.26812454915705
 21
35.99838391741172
 31
0.0
  0
LINE
  5
538E
330
531E
100
AcDbEntity
  8
0
 62
     0
100
AcDbLine
 10
65.28442432311817
 20
38.9820841434506
 30
0.0
 11
59.68442432311826
 21
44.58208414345051
 31
0.0
  0
LINE
  5
538F
330
531E
100
AcDbEntity
  8
0
 62
     0
100
AcDbLine
 10
86.98442432311821
 20
17.28208414345056
 30
0.0
 11
81.38442432311808
 21
22.88208414345058
 31
0.0
  0
LINE
  5
5390
330
531E
100
AcDbEntity
  8
0
 62
     0
100
AcDbLine
 10
72.11394753037325
 20
30.35650971198163
 30
0.0
 11
67.83707225534556
 21
34.63338498700932
 31
0.0
  0
LINE
  5
5391
330
531E
100
AcDbEntity
  8
0
 62
     0
100
AcDbLine
 10
65.28442432311817
 20
37.1860329192367
 30
0.0
 11
59.68442432311815
 21
42.78603291923661
 31
0.0
  0
LINE
  5
5392
330
531E
100
AcDbEntity
  8
0
 62
     0
100
AcDbLine
 10
86.98442432311834
 20
15.48603291923654
 30
0.0
 11
81.38442432311808
 21
21.08603291923679
 31
0.0
  0
LINE
  5
5393
330
531E
100
AcDbEntity
  8
0
 62
     0
100
AcDbLine
 10
72.94289424924125
 20
27.73151176889973
 30
0.0
 11
67.25597726397632
 21
33.41842875416466
 31
0.0
  0
LINE
  5
5394
330
531E
100
AcDbEntity
  8
0
 62
     0
100
AcDbLine
 10
65.28442432311829
 20
35.38998169502269
 30
0.0
 11
59.68442432311815
 21
40.98998169502283
 31
0.0
  0
LINE
  5
5395
330
531E
100
AcDbEntity
  8
0
 62
     0
100
AcDbLine
 10
86.30633432845332
 20
14.36807168968755
 30
0.0
 11
81.38442432311819
 21
19.28998169502278
 31
0.0
  0
LINE
  5
5396
330
531E
100
AcDbEntity
  8
0
 62
     0
100
AcDbLine
 10
73.77184096810935
 20
25.10651382581795
 30
0.0
 11
59.68442432311815
 21
39.19393047080905
 31
0.0
  0
LINE
  5
5397
330
531E
100
AcDbEntity
  8
0
 62
     0
100
AcDbLine
 10
54.78442432311829
 20
44.09393047080903
 30
0.0
 11
52.37835492563852
 21
46.49999986828868
 31
0.0
  0
LINE
  5
5398
330
531E
100
AcDbEntity
  8
0
 62
     0
100
AcDbLine
 10
84.57835492563868
 20
14.29999986828863
 30
0.0
 11
81.38442432311832
 21
17.493930470809
 31
0.0
  0
LINE
  5
5399
330
531E
100
AcDbEntity
  8
0
 62
     0
100
AcDbLine
 10
74.60078768697712
 20
22.48151588273617
 30
0.0
 11
59.68442432311815
 21
37.39787924659526
 31
0.0
  0
LINE
  5
539A
330
531E
100
AcDbEntity
  8
0
 62
     0
100
AcDbLine
 10
54.78442432311829
 20
42.29787924659513
 30
0.0
 11
50.58230370142474
 21
46.49999986828868
 31
0.0
  0
LINE
  5
539B
330
531E
100
AcDbEntity
  8
0
 62
     0
100
AcDbLine
 10
82.78230370142466
 20
14.29999986828875
 30
0.0
 11
81.38442432311819
 21
15.69787924659522
 31
0.0
  0
LINE
  5
539C
330
531E
100
AcDbEntity
  8
0
 62
     0
100
AcDbLine
 10
54.25061093233807
 20
41.03564141316144
 30
0.0
 11
48.85016749591523
 21
46.43608484958417
 31
0.0
  0
LINE
  5
539D
330
531E
100
AcDbEntity
  8
0
 62
     0
100
AcDbLine
 10
75.42973440584501
 20
19.8565179396545
 30
0.0
 11
59.68442432311815
 21
35.60182802238136
 31
0.0
  0
LINE
  5
539E
330
531E
100
AcDbEntity
  8
0
 62
     0
100
AcDbLine
 10
65.95944216780139
 20
27.53075895348433
 30
0.0
 11
59.68442432311838
 21
33.80577679816735
 31
0.0
  0
LINE
  5
539F
330
531E
100
AcDbEntity
  8
0
 62
     0
100
AcDbLine
 10
52.59020125299707
 20
40.89999986828866
 30
0.0
 11
47.3740813567407
 21
46.11611976454503
 31
0.0
  0
LINE
  5
53A0
330
531E
100
AcDbEntity
  8
0
 62
     0
100
AcDbLine
 10
76.25868112471301
 20
17.23151999657273
 30
0.0
 11
68.07406574009724
 21
25.41613538118838
 31
0.0
  0
LINE
  5
53A1
330
531E
100
AcDbEntity
  8
0
 62
     0
100
AcDbLine
 10
65.28442432311829
 20
26.40972557395366
 30
0.0
 11
59.68442432311826
 21
32.00972557395369
 31
0.0
  0
LINE
  5
53A2
330
531E
100
AcDbEntity
  8
0
 62
     0
100
AcDbLine
 10
50.79415002878318
 20
40.89999986828866
 30
0.0
 11
46.09663852507924
 21
45.59751137199259
 31
0.0
  0
LINE
  5
53A3
330
531E
100
AcDbEntity
  8
0
 62
     0
100
AcDbLine
 10
76.72875884013421
 20
14.96539105693762
 30
0.0
 11
68.90301245896512
 21
22.79113743810682
 31
0.0
  0
LINE
  5
53A4
330
531E
100
AcDbEntity
  8
0
 62
     0
100
AcDbLine
 10
65.28442432311817
 20
24.61367434973988
 30
0.0
 11
59.68442432311826
 21
30.21367434973979
 31
0.0
  0
LINE
  5
53A5
330
531E
100
AcDbEntity
  8
0
 62
     0
100
AcDbLine
 10
49.10792302369611
 20
40.79017564916194
 30
0.0
 11
44.97914057441017
 21
44.91895809844788
 31
0.0
  0
LINE
  5
53A6
330
531E
100
AcDbEntity
  8
0
 62
     0
100
AcDbLine
 10
75.59809880456953
 20
14.29999986828852
 30
0.0
 11
69.731959177833
 21
20.16613949502505
 31
0.0
  0
LINE
  5
53A7
330
531E
100
AcDbEntity
  8
0
 62
     0
100
AcDbLine
 10
65.28442432311817
 20
22.81762312552598
 30
0.0
 11
59.68442432311815
 21
28.41762312552589
 31
0.0
  0
LINE
  5
53A8
330
531E
100
AcDbEntity
  8
0
 62
     0
100
AcDbLine
 10
47.96421063801813
 20
40.13783681062602
 30
0.0
 11
44.00383015718659
 21
44.09821729145756
 31
0.0
  0
LINE
  5
53A9
330
531E
100
AcDbEntity
  8
0
 62
     0
100
AcDbLine
 10
73.80204758035564
 20
14.29999986828852
 30
0.0
 11
70.56090589670112
 21
17.54114155194304
 31
0.0
  0
LINE
  5
53AA
330
531E
100
AcDbEntity
  8
0
 62
     0
100
AcDbLine
 10
55.45528258871366
 20
30.85071363571683
 30
0.0
 11
52.43513809054616
 21
33.87085813388432
 31
0.0
  0
LINE
  5
53AB
330
531E
100
AcDbEntity
  8
0
 62
     0
100
AcDbLine
 10
65.2844243231184
 20
21.02157190131208
 30
0.0
 11
59.68442432311826
 21
26.62157190131222
 31
0.0
  0
LINE
  5
53AC
330
531E
100
AcDbEntity
  8
0
 62
     0
100
AcDbLine
 10
47.25196749776023
 20
39.05402872667025
 30
0.0
 11
43.16509810516413
 21
43.14089811926635
 31
0.0
  0
LINE
  5
53AD
330
531E
100
AcDbEntity
  8
0
 62
     0
100
AcDbLine
 10
71.90533034773261
 20
14.40066587669787
 30
0.0
 11
71.40462200454999
 21
14.90137421988049
 31
0.0
  0
LINE
  5
53AE
330
531E
100
AcDbEntity
  8
0
 62
     0
100
AcDbLine
 10
55.28225526842982
 20
29.22768973178676
 30
0.0
 11
50.81211418661609
 21
33.69783081360049
 31
0.0
  0
LINE
  5
53AF
330
531E
100
AcDbEntity
  8
0
 62
     0
100
AcDbLine
 10
47.08442432311835
 20
37.42552067709823
 30
0.0
 11
42.4672200632408
 21
42.04272493697579
 31
0.0
  0
LINE
  5
53B0
330
531E
100
AcDbEntity
  8
0
 62
     0
100
AcDbLine
 10
65.28442432311829
 20
19.22552067709818
 30
0.0
 11
59.68442432311826
 21
24.82552067709832
 31
0.0
  0
LINE
  5
53B1
330
531E
100
AcDbEntity
  8
0
 62
     0
100
AcDbLine
 10
54.61854414983372
 20
28.09534962616885
 30
0.0
 11
49.67977408099819
 21
33.03411969500439
 31
0.0
  0
LINE
  5
53B2
330
531E
100
AcDbEntity
  8
0
 62
     0
100
AcDbLine
 10
47.08442432311835
 20
35.62946945288433
 30
0.0
 11
41.92606064882045
 21
40.78783312718224
 31
0.0
  0
LINE
  5
53B3
330
531E
100
AcDbEntity
  8
0
 62
     0
100
AcDbLine
 10
65.28442432311829
 20
17.4294694528844
 30
0.0
 11
59.68442432311815
 21
23.02946945288454
 31
0.0
  0
LINE
  5
53B4
330
531E
100
AcDbEntity
  8
0
 62
     0
100
AcDbLine
 10
47.08442432311835
 20
33.83341822867055
 30
0.0
 11
41.57663290296875
 21
39.34120964882026
 31
0.0
  0
LINE
  5
53B5
330
531E
100
AcDbEntity
  8
0
 62
     0
100
AcDbLine
 10
53.61487726556084
 20
27.30296528622818
 30
0.0
 11
48.88738974105752
 21
32.0304528107315
 31
0.0
  0
LINE
  5
53B6
330
531E
100
AcDbEntity
  8
0
 62
     0
100
AcDbLine
 10
36.23442432311822
 20
44.6834182286708
 30
0.0
 11
34.41784268350022
 21
46.4999998682888
 31
0.0
  0
LINE
  5
53B7
330
531E
100
AcDbEntity
  8
0
 62
     0
100
AcDbLine
 10
65.2844243231184
 20
15.63341822867062
 30
0.0
 11
59.68442432311826
 21
21.23341822867075
 31
0.0
  0
LINE
  5
53B8
330
531E
100
AcDbEntity
  8
0
 62
     0
100
AcDbLine
 10
47.08442432311835
 20
32.03736700445677
 30
0.0
 11
41.48442432311822
 21
37.6373670044569
 31
0.0
  0
LINE
  5
53B9
330
531E
100
AcDbEntity
  8
0
 62
     0
100
AcDbLine
 10
52.21423838070598
 20
26.90755294686914
 30
0.0
 11
48.49197740169848
 21
30.62981392587664
 31
0.0
  0
LINE
  5
53BA
330
531E
100
AcDbEntity
  8
0
 62
     0
100
AcDbLine
 10
36.2344243231181
 20
42.8873670044569
 30
0.0
 11
32.62179145928632
 21
46.49999986828868
 31
0.0
  0
LINE
  5
53BB
330
531E
100
AcDbEntity
  8
0
 62
     0
100
AcDbLine
 10
64.70861672057697
 20
14.41317460699815
 30
0.0
 11
59.68442432311815
 21
19.43736700445685
 31
0.0
  0
LINE
  5
53BC
330
531E
100
AcDbEntity
  8
0
 62
     0
100
AcDbLine
 10
47.08442432311835
 20
30.24131578024287
 30
0.0
 11
41.48442432311822
 21
35.84131578024301
 31
0.0
  0
LINE
  5
53BD
330
531E
100
AcDbEntity
  8
0
 62
     0
100
AcDbLine
 10
36.01635638257744
 20
41.30938372078378
 30
0.0
 11
30.82574023507231
 21
46.4999998682888
 31
0.0
  0
LINE
  5
53BE
330
531E
100
AcDbEntity
  8
0
 62
     0
100
AcDbLine
 10
63.02574023507259
 20
14.29999986828863
 30
0.0
 11
59.68442432311815
 21
17.64131578024307
 31
0.0
  0
LINE
  5
53BF
330
531E
100
AcDbEntity
  8
0
 62
     0
100
AcDbLine
 10
47.08442432311824
 20
28.44526455602908
 30
0.0
 11
41.4844243231181
 21
34.04526455602911
 31
0.0
  0
LINE
  5
53C0
330
531E
100
AcDbEntity
  8
0
 62
     0
100
AcDbLine
 10
34.62968901085867
 20
40.89999986828866
 30
0.0
 11
29.02968901085853
 21
46.4999998682888
 31
0.0
  0
LINE
  5
53C1
330
531E
100
AcDbEntity
  8
0
 62
     0
100
AcDbLine
 10
61.22968901085869
 20
14.29999986828852
 30
0.0
 11
59.68442432311815
 21
15.84526455602917
 31
0.0
  0
LINE
  5
53C2
330
531E
100
AcDbEntity
  8
0
 62
     0
100
AcDbLine
 10
47.08442432311847
 20
26.64921333181519
 30
0.0
 11
41.48442432311822
 21
32.24921333181544
 31
0.0
  0
LINE
  5
53C3
330
531E
100
AcDbEntity
  8
0
 62
     0
100
AcDbLine
 10
32.83363778664488
 20
40.89999986828877
 30
0.0
 11
27.30337924243519
 21
46.43025841249846
 31
0.0
  0
LINE
  5
53C4
330
531E
100
AcDbEntity
  8
0
 62
     0
100
AcDbLine
 10
54.77921942544435
 20
18.95441822948919
 30
0.0
 11
53.83884268431893
 21
19.89479497061472
 31
0.0
  0
LINE
  5
53C5
330
531E
100
AcDbEntity
  8
0
 62
     0
100
AcDbLine
 10
47.08442432311847
 20
24.85316210760129
 30
0.0
 11
41.48442432311822
 21
30.45316210760154
 31
0.0
  0
LINE
  5
53C6
330
531E
100
AcDbEntity
  8
0
 62
     0
100
AcDbLine
 10
31.03758656243098
 20
40.89999986828866
 30
0.0
 11
25.91710962547824
 21
46.02047680524151
 31
0.0
  0
LINE
  5
53C7
330
531E
100
AcDbEntity
  8
0
 62
     0
100
AcDbLine
 10
54.7844243231184
 20
17.15316210760136
 30
0.0
 11
52.0375865624311
 21
19.89999986828865
 31
0.0
  0
LINE
  5
53C8
330
531E
100
AcDbEntity
  8
0
 62
     0
100
AcDbLine
 10
47.08442432311835
 20
23.05711088338739
 30
0.0
 11
41.48442432311833
 21
28.65711088338753
 31
0.0
  0
LINE
  5
53C9
330
531E
100
AcDbEntity
  8
0
 62
     0
100
AcDbLine
 10
29.24153533821732
 20
40.89999986828843
 30
0.0
 11
24.78861630578376
 21
45.35291890072199
 31
0.0
  0
LINE
  5
53CA
330
531E
100
AcDbEntity
  8
0
 62
     0
100
AcDbLine
 10
54.78442432311829
 20
15.35711088338746
 30
0.0
 11
50.24153533821709
 21
19.89999986828877
 31
0.0
  0
LINE
  5
53CB
330
531E
100
AcDbEntity
  8
0
 62
     0
100
AcDbLine
 10
28.22094968298813
 20
40.12453429930405
 30
0.0
 11
23.87243068130226
 21
44.47305330098993
 31
0.0
  0
LINE
  5
53CC
330
531E
100
AcDbEntity
  8
0
 62
     0
100
AcDbLine
 10
54.00895875413358
 20
14.33652522815862
 30
0.0
 11
41.48442432311833
 21
26.86105965917386
 31
0.0
  0
LINE
  5
53CD
330
531E
100
AcDbEntity
  8
0
 62
     0
100
AcDbLine
 10
28.18442432311826
 20
38.36500843496003
 30
0.0
 11
23.16546827636409
 21
43.3839644817142
 31
0.0
  0
LINE
  5
53CE
330
531E
100
AcDbEntity
  8
0
 62
     0
100
AcDbLine
 10
52.24943288978977
 20
14.29999986828852
 30
0.0
 11
41.48442432311833
 21
25.06500843495996
 31
0.0
  0
LINE
  5
53CF
330
531E
100
AcDbEntity
  8
0
 62
     0
100
AcDbLine
 10
28.30869573938912
 20
36.44468579447516
 30
0.0
 11
22.70370807177664
 21
42.04967346208775
 31
0.0
  0
LINE
  5
53D0
330
531E
100
AcDbEntity
  8
0
 62
     0
100
AcDbLine
 10
50.45338166557576
 20
14.29999986828863
 30
0.0
 11
41.48442432311822
 21
23.26895721074606
 31
0.0
  0
LINE
  5
53D1
330
531E
100
AcDbEntity
  8
0
 62
     0
100
AcDbLine
 10
36.89317650556358
 20
26.06415380408702
 30
0.0
 11
22.58442432311835
 21
40.37290598653226
 31
0.0
  0
LINE
  5
53D2
330
531E
100
AcDbEntity
  8
0
 62
     0
100
AcDbLine
 10
48.55078626724867
 20
14.40654404240194
 30
0.0
 11
41.59096849723153
 21
21.36636181241908
 31
0.0
  0
LINE
  5
53D3
330
531E
100
AcDbEntity
  8
0
 62
     0
100
AcDbLine
 10
37.27696553373402
 20
23.8843135517028
 30
0.0
 11
22.58442432311813
 21
38.5768547623187
 31
0.0
  0
LINE
  5
53D4
330
531E
100
AcDbEntity
  8
0
 62
     0
100
AcDbLine
 10
45.80317044204548
 20
15.35810864339123
 30
0.0
 11
42.5425330982207
 21
18.61874598721612
 31
0.0
  0
LINE
  5
53D5
330
531E
100
AcDbEntity
  8
0
 62
     0
100
AcDbLine
 10
37.2844243231184
 20
22.08080353810453
 30
0.0
 11
22.59955321796291
 21
36.7656746432599
 31
0.0
  0
LINE
  5
53D6
330
531E
100
AcDbEntity
  8
0
 62
     0
100
AcDbLine
 10
37.28442432311817
 20
20.28475231389086
 30
0.0
 11
23.04613473461063
 21
34.52304190239829
 31
0.0
  0
LINE
  5
53D7
330
531E
100
AcDbEntity
  8
0
 62
     0
100
AcDbLine
 10
37.13938433085434
 20
18.63374108194102
 30
0.0
 11
31.61260104361622
 21
24.16052436917914
 31
0.0
  0
LINE
  5
53D8
330
531E
100
AcDbEntity
  8
0
 62
     0
100
AcDbLine
 10
36.65550845279665
 20
17.32156573578481
 30
0.0
 11
31.68442432311826
 21
22.2926498654632
 31
0.0
  0
LINE
  5
53D9
330
531E
100
AcDbEntity
  8
0
 62
     0
100
AcDbLine
 10
35.93126995803311
 20
16.24975300633446
 30
0.0
 11
31.6126262585168
 21
20.56839670585077
 31
0.0
  0
LINE
  5
53DA
330
531E
100
AcDbEntity
  8
0
 62
     0
100
AcDbLine
 10
34.99881721349936
 20
15.38615452665442
 30
0.0
 11
30.48497187186512
 21
19.89999986828877
 31
0.0
  0
LINE
  5
53DB
330
531E
100
AcDbEntity
  8
0
 62
     0
100
AcDbLine
 10
33.85228831803374
 20
14.73663219790626
 30
0.0
 11
28.68892064765123
 21
19.89999986828865
 31
0.0
  0
LINE
  5
53DC
330
531E
100
AcDbEntity
  8
0
 62
     0
100
AcDbLine
 10
32.44146313986187
 20
14.35140615186424
 30
0.0
 11
26.89286942343744
 21
19.89999986828865
 31
0.0
  0
LINE
  5
53DD
330
531E
100
AcDbEntity
  8
0
 62
     0
100
AcDbLine
 10
30.69681819922357
 20
14.29999986828863
 30
0.0
 11
25.09681819922354
 21
19.89999986828865
 31
0.0
  0
LINE
  5
53DE
330
531E
100
AcDbEntity
  8
0
 62
     0
100
AcDbLine
 10
28.9007669750099
 20
14.29999986828852
 30
0.0
 11
23.79411918537414
 21
19.40664765792439
 31
0.0
  0
LINE
  5
53DF
330
531E
100
AcDbEntity
  8
0
 62
     0
100
AcDbLine
 10
27.10471575079589
 20
14.29999986828863
 30
0.0
 11
23.63442432311831
 21
17.77029129596621
 31
0.0
  0
LINE
  5
53E0
330
531E
100
AcDbEntity
  8
0
 62
     0
100
AcDbLine
 10
25.30866452658222
 20
14.29999986828852
 30
0.0
 11
23.63442432311831
 21
15.97424007175243
 31
0.0
  0
LINE
  5
53E1
330
531E
100
AcDbEntity
  8
0
 62
     0
100
AcDbLine
 10
137.2677988924521
 20
14.32626342252365
 30
0.0
 11
138.0581607688836
 21
15.11662529895522
 31
0.0
  0
LINE
  5
53E2
330
531E
100
AcDbEntity
  8
0
 62
     0
100
AcDbLine
 10
135.4454841140031
 20
14.29999986828841
 30
0.0
 11
138.0844243231185
 21
16.9389400774038
 31
0.0
  0
LINE
  5
53E3
330
531E
100
AcDbEntity
  8
0
 62
     0
100
AcDbLine
 10
133.6494328897894
 20
14.29999986828841
 30
0.0
 11
138.0844243231185
 21
18.73499130161758
 31
0.0
  0
LINE
  5
53E4
330
531E
100
AcDbEntity
  8
0
 62
     0
100
AcDbLine
 10
132.5468194496219
 20
14.99343765233482
 30
0.0
 11
138.0844243231184
 21
20.53104252583147
 31
0.0
  0
LINE
  5
53E5
330
531E
100
AcDbEntity
  8
0
 62
     0
100
AcDbLine
 10
132.4844243231183
 20
16.72709375004512
 30
0.0
 11
138.0844243231184
 21
22.32709375004515
 31
0.0
  0
LINE
  5
53E6
330
531E
100
AcDbEntity
  8
0
 62
     0
100
AcDbLine
 10
132.4844243231184
 20
18.52314497425891
 30
0.0
 11
138.0844243231184
 21
24.12314497425905
 31
0.0
  0
LINE
  5
53E7
330
531E
100
AcDbEntity
  8
0
 62
     0
100
AcDbLine
 10
132.4844243231183
 20
20.3191961984728
 30
0.0
 11
138.0844243231184
 21
25.91919619847294
 31
0.0
  0
LINE
  5
53E8
330
531E
100
AcDbEntity
  8
0
 62
     0
100
AcDbLine
 10
132.4844243231183
 20
22.11524742268659
 30
0.0
 11
138.0844243231184
 21
27.71524742268673
 31
0.0
  0
LINE
  5
53E9
330
531E
100
AcDbEntity
  8
0
 62
     0
100
AcDbLine
 10
125.3375540472488
 20
14.96837714681714
 30
0.0
 11
127.6160470445899
 21
17.24687014415837
 31
0.0
  0
LINE
  5
53EA
330
531E
100
AcDbEntity
  8
0
 62
     0
100
AcDbLine
 10
132.4844243231183
 20
23.91129864690037
 30
0.0
 11
138.0844243231184
 21
29.51129864690051
 31
0.0
  0
LINE
  5
53EB
330
531E
100
AcDbEntity
  8
0
 62
     0
100
AcDbLine
 10
122.8764177142032
 20
14.30329203798533
 30
0.0
 11
128.2811321534219
 21
19.70800647720386
 31
0.0
  0
LINE
  5
53EC
330
531E
100
AcDbEntity
  8
0
 62
     0
100
AcDbLine
 10
132.4844243231183
 20
25.70734987111427
 30
0.0
 11
138.0844243231184
 21
31.30734987111429
 31
0.0
  0
LINE
  5
53ED
330
531E
100
AcDbEntity
  8
0
 62
     0
100
AcDbLine
 10
121.0770743202924
 20
14.29999986828841
 30
0.0
 11
128.2844243231185
 21
21.50734987111434
 31
0.0
  0
LINE
  5
53EE
330
531E
100
AcDbEntity
  8
0
 62
     0
100
AcDbLine
 10
132.4844243231183
 20
27.50340109532805
 30
0.0
 11
138.0844243231183
 21
33.10340109532819
 31
0.0
  0
LINE
  5
53EF
330
531E
100
AcDbEntity
  8
0
 62
     0
100
AcDbLine
 10
119.2810230960786
 20
14.29999986828841
 30
0.0
 11
128.2844243231183
 21
23.30340109532824
 31
0.0
  0
LINE
  5
53F0
330
531E
100
AcDbEntity
  8
0
 62
     0
100
AcDbLine
 10
132.4844243231183
 20
29.29945231954184
 30
0.0
 11
138.0844243231184
 21
34.89945231954198
 31
0.0
  0
LINE
  5
53F1
330
531E
100
AcDbEntity
  8
0
 62
     0
100
AcDbLine
 10
117.484971871865
 20
14.29999986828852
 30
0.0
 11
128.2844243231185
 21
25.09945231954202
 31
0.0
  0
LINE
  5
53F2
330
531E
100
AcDbEntity
  8
0
 62
     0
100
AcDbLine
 10
122.4752419189562
 20
21.08632113959367
 30
0.0
 11
128.2844243231185
 21
26.8955035437558
 31
0.0
  0
LINE
  5
53F3
330
531E
100
AcDbEntity
  8
0
 62
     0
100
AcDbLine
 10
132.4844243231183
 20
31.09550354375562
 30
0.0
 11
138.0844243231184
 21
36.69550354375576
 31
0.0
  0
LINE
  5
53F4
330
531E
100
AcDbEntity
  8
0
 62
     0
100
AcDbLine
 10
115.6889206476509
 20
14.29999986828841
 30
0.0
 11
121.4981030518132
 21
20.10918227245054
 31
0.0
  0
LINE
  5
53F5
330
531E
100
AcDbEntity
  8
0
 62
     0
100
AcDbLine
 10
122.6844243231182
 20
23.09155476796957
 30
0.0
 11
128.2844243231183
 21
28.6915547679697
 31
0.0
  0
LINE
  5
53F6
330
531E
100
AcDbEntity
  8
0
 62
     0
100
AcDbLine
 10
132.4844243231182
 20
32.89155476796952
 30
0.0
 11
138.0844243231183
 21
38.49155476796966
 31
0.0
  0
LINE
  5
53F7
330
531E
100
AcDbEntity
  8
0
 62
     0
100
AcDbLine
 10
114.1167689261916
 20
14.52389937104283
 30
0.0
 11
119.4928694234373
 21
19.89999986828854
 31
0.0
  0
LINE
  5
53F8
330
531E
100
AcDbEntity
  8
0
 62
     0
100
AcDbLine
 10
122.6844243231183
 20
24.88760599218358
 30
0.0
 11
128.2844243231183
 21
30.48760599218349
 31
0.0
  0
LINE
  5
53F9
330
531E
100
AcDbEntity
  8
0
 62
     0
100
AcDbLine
 10
132.4844243231182
 20
34.68760599218342
 30
0.0
 11
138.0844243231183
 21
40.28760599218344
 31
0.0
  0
LINE
  5
53FA
330
531E
100
AcDbEntity
  8
0
 62
     0
100
AcDbLine
 10
112.8607951917713
 20
15.06397686083653
 30
0.0
 11
117.6985737705122
 21
19.90175543957741
 31
0.0
  0
LINE
  5
53FB
330
531E
100
AcDbEntity
  8
0
 62
     0
100
AcDbLine
 10
122.6844243231185
 20
26.68365721639736
 30
0.0
 11
128.2844243231183
 21
32.28365721639727
 31
0.0
  0
LINE
  5
53FC
330
531E
100
AcDbEntity
  8
0
 62
     0
100
AcDbLine
 10
132.4844243231183
 20
36.48365721639709
 30
0.0
 11
138.0844243231183
 21
42.08365721639722
 31
0.0
  0
LINE
  5
53FD
330
531E
100
AcDbEntity
  8
0
 62
     0
100
AcDbLine
 10
111.8342754290412
 20
15.83350832231997
 30
0.0
 11
116.4116165930868
 21
20.41084948636569
 31
0.0
  0
LINE
  5
53FE
330
531E
100
AcDbEntity
  8
0
 62
     0
100
AcDbLine
 10
122.6844243231185
 20
28.47970844061114
 30
0.0
 11
128.2844243231183
 21
34.07970844061117
 31
0.0
  0
LINE
  5
53FF
330
531E
100
AcDbEntity
  8
0
 62
     0
100
AcDbLine
 10
132.4844243231182
 20
38.27970844061098
 30
0.0
 11
138.0844243231183
 21
43.87970844061112
 31
0.0
  0
LINE
  5
5400
330
531E
100
AcDbEntity
  8
0
 62
     0
100
AcDbLine
 10
111.0143470785909
 20
16.80963119608361
 30
0.0
 11
115.7371400362679
 21
21.53242415376075
 31
0.0
  0
LINE
  5
5401
330
531E
100
AcDbEntity
  8
0
 62
     0
100
AcDbLine
 10
122.6844243231183
 20
30.27575966482504
 30
0.0
 11
128.2844243231185
 21
35.87575966482518
 31
0.0
  0
LINE
  5
5402
330
531E
100
AcDbEntity
  8
0
 62
     0
100
AcDbLine
 10
132.4844243231182
 20
40.07575966482477
 30
0.0
 11
138.0641260160174
 21
45.6554613577241
 31
0.0
  0
LINE
  5
5403
330
531E
100
AcDbEntity
  8
0
 62
     0
100
AcDbLine
 10
110.4144973217229
 20
18.0058326634296
 30
0.0
 11
115.6844243231183
 21
23.27575966482493
 31
0.0
  0
LINE
  5
5404
330
531E
100
AcDbEntity
  8
0
 62
     0
100
AcDbLine
 10
122.6844243231185
 20
32.07181088903871
 30
0.0
 11
128.2844243231186
 21
37.67181088903885
 31
0.0
  0
LINE
  5
5405
330
531E
100
AcDbEntity
  8
0
 62
     0
100
AcDbLine
 10
132.4844243231182
 20
41.87181088903855
 30
0.0
 11
137.1098973258584
 21
46.4972838917788
 31
0.0
  0
LINE
  5
5406
330
531E
100
AcDbEntity
  8
0
 62
     0
100
AcDbLine
 10
110.09967025181
 20
19.48705681773037
 30
0.0
 11
115.6844243231183
 21
25.07181088903871
 31
0.0
  0
LINE
  5
5407
330
531E
100
AcDbEntity
  8
0
 62
     0
100
AcDbLine
 10
122.6844243231183
 20
33.86786211325261
 30
0.0
 11
128.2844243231185
 21
39.46786211325274
 31
0.0
  0
LINE
  5
5408
330
531E
100
AcDbEntity
  8
0
 62
     0
100
AcDbLine
 10
132.4844243231183
 20
43.66786211325257
 30
0.0
 11
135.3165620781543
 21
46.49999986828857
 31
0.0
  0
LINE
  5
5409
330
531E
100
AcDbEntity
  8
0
 62
     0
100
AcDbLine
 10
110.0844243231184
 20
21.26786211325259
 30
0.0
 11
115.6844243231184
 21
26.86786211325272
 31
0.0
  0
LINE
  5
540A
330
531E
100
AcDbEntity
  8
0
 62
     0
100
AcDbLine
 10
122.6844243231183
 20
35.66391333746651
 30
0.0
 11
128.2844243231185
 21
41.26391333746653
 31
0.0
  0
LINE
  5
540B
330
531E
100
AcDbEntity
  8
0
 62
     0
100
AcDbLine
 10
110.0844243231183
 20
23.06391333746649
 30
0.0
 11
115.6844243231184
 21
28.66391333746662
 31
0.0
  0
LINE
  5
540C
330
531E
100
AcDbEntity
  8
0
 62
     0
100
AcDbLine
 10
132.4845177526132
 20
45.46400676696134
 30
0.0
 11
133.5204174244457
 21
46.49990643879379
 31
0.0
  0
LINE
  5
540D
330
531E
100
AcDbEntity
  8
0
 62
     0
100
AcDbLine
 10
101.4413130616943
 20
14.42080207604237
 30
0.0
 11
105.7636221153646
 21
18.74311112971281
 31
0.0
  0
LINE
  5
540E
330
531E
100
AcDbEntity
  8
0
 62
     0
100
AcDbLine
 10
110.0844243231183
 20
24.85996456168027
 30
0.0
 11
115.6844243231184
 21
30.4599645616804
 31
0.0
  0
LINE
  5
540F
330
531E
100
AcDbEntity
  8
0
 62
     0
100
AcDbLine
 10
122.6844243231183
 20
37.45996456168029
 30
0.0
 11
128.2844243231183
 21
43.05996456168043
 31
0.0
  0
LINE
  5
5410
330
531E
100
AcDbEntity
  8
0
 62
     0
100
AcDbLine
 10
99.5244596297266
 20
14.29999986828863
 30
0.0
 11
105.8844243231183
 21
20.65996456168034
 31
0.0
  0
LINE
  5
5411
330
531E
100
AcDbEntity
  8
0
 62
     0
100
AcDbLine
 10
110.0844243231183
 20
26.65601578589405
 30
0.0
 11
115.6844243231184
 21
32.25601578589419
 31
0.0
  0
LINE
  5
5412
330
531E
100
AcDbEntity
  8
0
 62
     0
100
AcDbLine
 10
122.6844243231183
 20
39.25601578589407
 30
0.0
 11
128.2844243231185
 21
44.85601578589421
 31
0.0
  0
LINE
  5
5413
330
531E
100
AcDbEntity
  8
0
 62
     0
100
AcDbLine
 10
97.72840840551282
 20
14.29999986828852
 30
0.0
 11
105.8844243231184
 21
22.45601578589401
 31
0.0
  0
LINE
  5
5414
330
531E
100
AcDbEntity
  8
0
 62
     0
100
AcDbLine
 10
110.0844243231183
 20
28.45206701010795
 30
0.0
 11
115.6844243231184
 21
34.05206701010797
 31
0.0
  0
LINE
  5
5415
330
531E
100
AcDbEntity
  8
0
 62
     0
100
AcDbLine
 10
122.6844243231183
 20
41.05206701010786
 30
0.0
 11
127.8969494134502
 21
46.26459210043981
 31
0.0
  0
LINE
  5
5416
330
531E
100
AcDbEntity
  8
0
 62
     0
100
AcDbLine
 10
95.93235718129903
 20
14.29999986828863
 30
0.0
 11
105.8557871222924
 21
24.22342980928203
 31
0.0
  0
LINE
  5
5417
330
531E
100
AcDbEntity
  8
0
 62
     0
100
AcDbLine
 10
110.0844243231183
 20
30.24811823432173
 30
0.0
 11
115.6844243231183
 21
35.84811823432187
 31
0.0
  0
LINE
  5
5418
330
531E
100
AcDbEntity
  8
0
 62
     0
100
AcDbLine
 10
122.6844243231182
 20
42.84811823432176
 30
0.0
 11
126.3363059570851
 21
46.49999986828868
 31
0.0
  0
LINE
  5
5419
330
531E
100
AcDbEntity
  8
0
 62
     0
100
AcDbLine
 10
94.13630595708514
 20
14.29999986828863
 30
0.0
 11
105.5859623810349
 21
25.74965629223834
 31
0.0
  0
LINE
  5
541A
330
531E
100
AcDbEntity
  8
0
 62
     0
100
AcDbLine
 10
110.0844243231183
 20
32.04416945853552
 30
0.0
 11
115.6844243231184
 21
37.64416945853565
 31
0.0
  0
LINE
  5
541B
330
531E
100
AcDbEntity
  8
0
 62
     0
100
AcDbLine
 10
100.2844243231186
 20
22.24416945853568
 30
0.0
 11
105.1047874671978
 21
27.06453260261492
 31
0.0
  0
LINE
  5
541C
330
531E
100
AcDbEntity
  8
0
 62
     0
100
AcDbLine
 10
122.6844243231183
 20
44.64416945853554
 30
0.0
 11
124.5402547328715
 21
46.49999986828868
 31
0.0
  0
LINE
  5
541D
330
531E
100
AcDbEntity
  8
0
 62
     0
100
AcDbLine
 10
92.59676543913361
 20
14.55651057455077
 30
0.0
 11
97.94025473287138
 21
19.89999986828854
 31
0.0
  0
LINE
  5
541E
330
531E
100
AcDbEntity
  8
0
 62
     0
100
AcDbLine
 10
100.2446831728638
 20
24.00047953249475
 30
0.0
 11
104.4577888574767
 21
28.21358521710772
 31
0.0
  0
LINE
  5
541F
330
531E
100
AcDbEntity
  8
0
 62
     0
100
AcDbLine
 10
110.0844243231183
 20
33.8402206827493
 30
0.0
 11
115.6844243231183
 21
39.44022068274944
 31
0.0
  0
LINE
  5
5420
330
531E
100
AcDbEntity
  8
0
 62
     0
100
AcDbLine
 10
92.23442432311845
 20
15.99022068274939
 30
0.0
 11
96.14420350865749
 21
19.89999986828854
 31
0.0
  0
LINE
  5
5421
330
531E
100
AcDbEntity
  8
0
 62
     0
100
AcDbLine
 10
99.69591349858603
 20
25.24776108243099
 30
0.0
 11
103.6660466216211
 21
29.21789420546611
 31
0.0
  0
LINE
  5
5422
330
531E
100
AcDbEntity
  8
0
 62
     0
100
AcDbLine
 10
110.0844243231182
 20
35.6362719069632
 30
0.0
 11
115.6844243231183
 21
41.23627190696334
 31
0.0
  0
LINE
  5
5423
330
531E
100
AcDbEntity
  8
0
 62
     0
100
AcDbLine
 10
92.23442432311832
 20
17.78627190696329
 30
0.0
 11
94.34815228444369
 21
19.89999986828865
 31
0.0
  0
LINE
  5
5424
330
531E
100
AcDbEntity
  8
0
 62
     0
100
AcDbLine
 10
110.0844243231183
 20
37.43232313117698
 30
0.0
 11
115.6844243231184
 21
43.03232313117701
 31
0.0
  0
LINE
  5
5425
330
531E
100
AcDbEntity
  8
0
 62
     0
100
AcDbLine
 10
98.81336370435191
 20
26.16126251241041
 30
0.0
 11
102.7731616789965
 21
30.12106048705504
 31
0.0
  0
LINE
  5
5426
330
531E
100
AcDbEntity
  8
0
 62
     0
100
AcDbLine
 10
97.91533809224496
 20
27.05928812451736
 30
0.0
 11
101.8751360668895
 21
31.01908609916199
 31
0.0
  0
LINE
  5
5427
330
531E
100
AcDbEntity
  8
0
 62
     0
100
AcDbLine
 10
110.0844243231182
 20
39.22837435539077
 30
0.0
 11
115.6844243231183
 21
44.8283743553909
 31
0.0
  0
LINE
  5
5428
330
531E
100
AcDbEntity
  8
0
 62
     0
100
AcDbLine
 10
85.15604983601599
 20
14.29999986828852
 30
0.0
 11
86.98442432311834
 21
16.12837435539074
 31
0.0
  0
LINE
  5
5429
330
531E
100
AcDbEntity
  8
0
 62
     0
100
AcDbLine
 10
97.017312480138
 20
27.95731373662431
 30
0.0
 11
100.9771104547826
 21
31.91711171126894
 31
0.0
  0
LINE
  5
542A
330
531E
100
AcDbEntity
  8
0
 62
     0
100
AcDbLine
 10
110.0844243231182
 20
41.02442557960467
 30
0.0
 11
115.312062506921
 21
46.25206376340736
 31
0.0
  0
LINE
  5
542B
330
531E
100
AcDbEntity
  8
0
 62
     0
100
AcDbLine
 10
83.3599986118021
 20
14.29999986828852
 30
0.0
 11
86.98442432311844
 21
17.92442557960475
 31
0.0
  0
LINE
  5
542C
330
531E
100
AcDbEntity
  8
0
 62
     0
100
AcDbLine
 10
96.11928686803105
 20
28.85533934873126
 30
0.0
 11
100.0790848426756
 21
32.81513732337589
 31
0.0
  0
LINE
  5
542D
330
531E
100
AcDbEntity
  8
0
 62
     0
100
AcDbLine
 10
110.0844243231182
 20
42.82047680381845
 30
0.0
 11
113.7639473875884
 21
46.4999998682888
 31
0.0
  0
LINE
  5
542E
330
531E
100
AcDbEntity
  8
0
 62
     0
100
AcDbLine
 10
81.78716966331228
 20
14.52322214401249
 30
0.0
 11
86.98442432311834
 21
19.72047680381865
 31
0.0
  0
LINE
  5
542F
330
531E
100
AcDbEntity
  8
0
 62
     0
100
AcDbLine
 10
95.22126125592421
 20
29.7533649608381
 30
0.0
 11
99.18105923056884
 21
33.71316293548273
 31
0.0
  0
LINE
  5
5430
330
531E
100
AcDbEntity
  8
0
 62
     0
100
AcDbLine
 10
110.0844243231182
 20
44.61652802803223
 30
0.0
 11
111.9678961633748
 21
46.49999986828868
 31
0.0
  0
LINE
  5
5431
330
531E
100
AcDbEntity
  8
0
 62
     0
100
AcDbLine
 10
81.38442432311842
 20
15.91652802803241
 30
0.0
 11
86.98442432311844
 21
21.51652802803232
 31
0.0
  0
LINE
  5
5432
330
531E
100
AcDbEntity
  8
0
 62
     0
100
AcDbLine
 10
94.32323564381727
 20
30.65139057294504
 30
0.0
 11
98.2830336184619
 21
34.61118854758967
 31
0.0
  0
LINE
  5
5433
330
531E
100
AcDbEntity
  8
0
 62
     0
100
AcDbLine
 10
81.38442432311842
 20
17.71257925224631
 30
0.0
 11
86.98442432311834
 21
23.31257925224622
 31
0.0
  0
LINE
  5
5434
330
531E
100
AcDbEntity
  8
0
 62
     0
100
AcDbLine
 10
93.4292678417346
 20
31.55347399507638
 30
0.0
 11
97.39721490849866
 21
35.52142106184033
 31
0.0
  0
LINE
  5
5435
330
531E
100
AcDbEntity
  8
0
 62
     0
100
AcDbLine
 10
81.38442432311842
 20
19.50863047646009
 30
0.0
 11
86.98442432311834
 21
25.10863047646012
 31
0.0
  0
LINE
  5
5436
330
531E
100
AcDbEntity
  8
0
 62
     0
100
AcDbLine
 10
102.7757937149467
 20
40.89999986828854
 30
0.0
 11
104.8344243231184
 21
42.95863047646014
 31
0.0
  0
LINE
  5
5437
330
531E
100
AcDbEntity
  8
0
 62
     0
100
AcDbLine
 10
76.39911187369796
 20
14.52331802703963
 30
0.0
 11
76.578416596608
 21
14.70262274994979
 31
0.0
  0
LINE
  5
5438
330
531E
100
AcDbEntity
  8
0
 62
     0
100
AcDbLine
 10
92.63326348409066
 20
32.55352086164612
 30
0.0
 11
96.83253203892787
 21
36.75278941648332
 31
0.0
  0
LINE
  5
5439
330
531E
100
AcDbEntity
  8
0
 62
     0
100
AcDbLine
 10
81.38442432311842
 20
21.30468170067388
 30
0.0
 11
86.98442432311844
 21
26.90468170067379
 31
0.0
  0
LINE
  5
543A
330
531E
100
AcDbEntity
  8
0
 62
     0
100
AcDbLine
 10
100.9797424907332
 20
40.89999986828866
 30
0.0
 11
104.8344243231184
 21
44.75468170067393
 31
0.0
  0
LINE
  5
543B
330
531E
100
AcDbEntity
  8
0
 62
     0
100
AcDbLine
 10
74.37974249073306
 20
14.29999986828852
 30
0.0
 11
76.51130068334612
 21
16.43155806090158
 31
0.0
  0
LINE
  5
543C
330
531E
100
AcDbEntity
  8
0
 62
     0
100
AcDbLine
 10
91.98159495529727
 20
33.69790355706664
 30
0.0
 11
96.78442432311863
 21
38.50073292488798
 31
0.0
  0
LINE
  5
543D
330
531E
100
AcDbEntity
  8
0
 62
     0
100
AcDbLine
 10
81.38442432311842
 20
23.10073292488766
 30
0.0
 11
86.98442432311834
 21
28.70073292488768
 31
0.0
  0
LINE
  5
543E
330
531E
100
AcDbEntity
  8
0
 62
     0
100
AcDbLine
 10
99.18369126651919
 20
40.89999986828854
 30
0.0
 11
104.5010864595226
 21
46.21739506129199
 31
0.0
  0
LINE
  5
543F
330
531E
100
AcDbEntity
  8
0
 62
     0
100
AcDbLine
 10
72.58369126651905
 20
14.29999986828841
 30
0.0
 11
76.08024838953475
 21
17.7965569913041
 31
0.0
  0
LINE
  5
5440
330
531E
100
AcDbEntity
  8
0
 62
     0
100
AcDbLine
 10
81.38442432311832
 20
24.89678414910156
 30
0.0
 11
86.98442432311834
 21
30.49678414910147
 31
0.0
  0
LINE
  5
5441
330
531E
100
AcDbEntity
  8
0
 62
     0
100
AcDbLine
 10
91.49483082995709
 20
35.00719065594035
 30
0.0
 11
102.9876400423054
 21
46.49999986828868
 31
0.0
  0
LINE
  5
5442
330
531E
100
AcDbEntity
  8
0
 62
     0
100
AcDbLine
 10
71.39966264520911
 20
14.91202247119235
 30
0.0
 11
75.64919609572337
 21
19.16155592170662
 31
0.0
  0
LINE
  5
5443
330
531E
100
AcDbEntity
  8
0
 62
     0
100
AcDbLine
 10
81.38442432311832
 20
26.69283537331546
 30
0.0
 11
86.98442432311821
 21
32.29283537331537
 31
0.0
  0
LINE
  5
5444
330
531E
100
AcDbEntity
  8
0
 62
     0
100
AcDbLine
 10
91.21741711178572
 20
36.52582816198287
 30
0.0
 11
101.1915888180916
 21
46.49999986828868
 31
0.0
  0
LINE
  5
5445
330
531E
100
AcDbEntity
  8
0
 62
     0
100
AcDbLine
 10
70.96214380191191
 20
16.27055485210905
 30
0.0
 11
75.21814380191199
 21
20.52655485210914
 31
0.0
  0
LINE
  5
5446
330
531E
100
AcDbEntity
  8
0
 62
     0
100
AcDbLine
 10
81.38442432311842
 20
28.48888659752913
 30
0.0
 11
86.98442432311834
 21
34.08888659752915
 31
0.0
  0
LINE
  5
5447
330
531E
100
AcDbEntity
  8
0
 62
     0
100
AcDbLine
 10
91.18442432311837
 20
38.28888659752908
 30
0.0
 11
99.39553759387786
 21
46.49999986828868
 31
0.0
  0
LINE
  5
5448
330
531E
100
AcDbEntity
  8
0
 62
     0
100
AcDbLine
 10
70.53109150810064
 20
17.63555378251146
 30
0.0
 11
74.78709150810084
 21
21.89155378251155
 31
0.0
  0
LINE
  5
5449
330
531E
100
AcDbEntity
  8
0
 62
     0
100
AcDbLine
 10
81.38442432311832
 20
30.28493782174303
 30
0.0
 11
86.98442432311834
 21
35.88493782174293
 31
0.0
  0
LINE
  5
544A
330
531E
100
AcDbEntity
  8
0
 62
     0
100
AcDbLine
 10
91.1844243231185
 20
40.08493782174309
 30
0.0
 11
97.59948636966408
 21
46.49999986828868
 31
0.0
  0
LINE
  5
544B
330
531E
100
AcDbEntity
  8
0
 62
     0
100
AcDbLine
 10
70.10003921428915
 20
19.00055271291387
 30
0.0
 11
74.35603921428958
 21
23.2565527129143
 31
0.0
  0
LINE
  5
544C
330
531E
100
AcDbEntity
  8
0
 62
     0
100
AcDbLine
 10
81.38442432311832
 20
32.08098904595681
 30
0.0
 11
86.98442432311844
 21
37.68098904595694
 31
0.0
  0
LINE
  5
544D
330
531E
100
AcDbEntity
  8
0
 62
     0
100
AcDbLine
 10
69.66898692047789
 20
20.3655516433165
 30
0.0
 11
73.92498692047809
 21
24.62155164331659
 31
0.0
  0
LINE
  5
544E
330
531E
100
AcDbEntity
  8
0
 62
     0
100
AcDbLine
 10
91.29105766336079
 20
41.98762238619941
 30
0.0
 11
95.69680180520743
 21
46.39336652804604
 31
0.0
  0
LINE
  5
544F
330
531E
100
AcDbEntity
  8
0
 62
     0
100
AcDbLine
 10
63.6034351454499
 20
14.29999986828852
 30
0.0
 11
65.28442432311829
 21
15.9809890459569
 31
0.0
  0
LINE
  5
5450
330
531E
100
AcDbEntity
  8
0
 62
     0
100
AcDbLine
 10
69.23793462666674
 20
21.73055057371891
 30
0.0
 11
73.49393462666682
 21
25.98655057371911
 31
0.0
  0
LINE
  5
5451
330
531E
100
AcDbEntity
  8
0
 62
     0
100
AcDbLine
 10
81.38442432311832
 20
33.87704027017059
 30
0.0
 11
86.98442432311844
 21
39.47704027017073
 31
0.0
  0
LINE
  5
5452
330
531E
100
AcDbEntity
  8
0
 62
     0
100
AcDbLine
 10
61.80738392123624
 20
14.29999986828841
 30
0.0
 11
65.2844243231184
 21
17.77704027017068
 31
0.0
  0
LINE
  5
5453
330
531E
100
AcDbEntity
  8
0
 62
     0
100
AcDbLine
 10
68.80688233285536
 20
23.09554950412143
 30
0.0
 11
73.06288233285545
 21
27.35154950412163
 31
0.0
  0
LINE
  5
5454
330
531E
100
AcDbEntity
  8
0
 62
     0
100
AcDbLine
 10
81.38442432311832
 20
35.67309149438449
 30
0.0
 11
86.98442432311844
 21
41.27309149438452
 31
0.0
  0
LINE
  5
5455
330
531E
100
AcDbEntity
  8
0
 62
     0
100
AcDbLine
 10
60.17363219232493
 20
14.46229936359111
 30
0.0
 11
65.2844243231184
 21
19.57309149438447
 31
0.0
  0
LINE
  5
5456
330
531E
100
AcDbEntity
  8
0
 62
     0
100
AcDbLine
 10
68.37583003904398
 20
24.46054843452396
 30
0.0
 11
72.63183003904408
 21
28.71654843452415
 31
0.0
  0
LINE
  5
5457
330
531E
100
AcDbEntity
  8
0
 62
     0
100
AcDbLine
 10
81.38442432311832
 20
37.46914271859827
 30
0.0
 11
86.98442432311834
 21
43.06914271859841
 31
0.0
  0
LINE
  5
5458
330
531E
100
AcDbEntity
  8
0
 62
     0
100
AcDbLine
 10
59.68442432311838
 20
15.76914271859834
 30
0.0
 11
65.28442432311852
 21
21.36914271859848
 31
0.0
  0
LINE
  5
5459
330
531E
100
AcDbEntity
  8
0
 62
     0
100
AcDbLine
 10
67.94477774523272
 20
25.82554736492636
 30
0.0
 11
72.20077774523304
 21
30.08154736492667
 31
0.0
  0
LINE
  5
545A
330
531E
100
AcDbEntity
  8
0
 62
     0
100
AcDbLine
 10
81.38442432311832
 20
39.26519394281206
 30
0.0
 11
86.98442432311844
 21
44.86519394281219
 31
0.0
  0
LINE
  5
545B
330
531E
100
AcDbEntity
  8
0
 62
     0
100
AcDbLine
 10
59.68442432311838
 20
17.56519394281212
 30
0.0
 11
65.28442432311852
 21
23.16519394281226
 31
0.0
  0
LINE
  5
545C
330
531E
100
AcDbEntity
  8
0
 62
     0
100
AcDbLine
 10
67.47518017128925
 20
27.1520010151969
 30
0.0
 11
72.73576830715104
 21
32.41258915105868
 31
0.0
  0
LINE
  5
545D
330
531E
100
AcDbEntity
  8
0
 62
     0
100
AcDbLine
 10
81.38442432311842
 20
41.06124516702607
 30
0.0
 11
86.59187347812155
 21
46.26869432202909
 31
0.0
  0
LINE
  5
545E
330
531E
100
AcDbEntity
  8
0
 62
     0
100
AcDbLine
 10
59.68442432311838
 20
19.36124516702602
 30
0.0
 11
65.28442432311852
 21
24.96124516702605
 31
0.0
  0
LINE
  5
545F
330
531E
100
AcDbEntity
  8
0
 62
     0
100
AcDbLine
 10
66.10080943155447
 20
27.57368149967601
 30
0.0
 11
73.56471502601903
 21
35.03758709414057
 31
0.0
  0
LINE
  5
5460
330
531E
100
AcDbEntity
  8
0
 62
     0
100
AcDbLine
 10
59.68442432311838
 20
21.15729639123981
 30
0.0
 11
65.31074269173098
 21
26.78361475985241
 31
0.0
  0
LINE
  5
5461
330
531E
100
AcDbEntity
  8
0
 62
     0
100
AcDbLine
 10
81.38442432311842
 20
42.85729639123985
 30
0.0
 11
85.02712780016713
 21
46.49999986828868
 31
0.0
  0
LINE
  5
5462
330
531E
100
AcDbEntity
  8
0
 62
     0
100
AcDbLine
 10
52.82712780016709
 20
14.29999986828852
 30
0.0
 11
54.7844243231184
 21
16.25729639123994
 31
0.0
  0
LINE
  5
5463
330
531E
100
AcDbEntity
  8
0
 62
     0
100
AcDbLine
 10
59.68442432311826
 20
22.9533476154537
 30
0.0
 11
74.39366174488691
 21
37.66258503722236
 31
0.0
  0
LINE
  5
5464
330
531E
100
AcDbEntity
  8
0
 62
     0
100
AcDbLine
 10
81.38442432311832
 20
44.65334761545375
 30
0.0
 11
83.23107657595324
 21
46.49999986828868
 31
0.0
  0
LINE
  5
5465
330
531E
100
AcDbEntity
  8
0
 62
     0
100
AcDbLine
 10
51.0310765759532
 20
14.29999986828863
 30
0.0
 11
54.78442432311851
 21
18.05334761545395
 31
0.0
  0
LINE
  5
5466
330
531E
100
AcDbEntity
  8
0
 62
     0
100
AcDbLine
 10
59.68442432311838
 20
24.74939883966738
 30
0.0
 11
75.22260846375513
 21
40.28758298030425
 31
0.0
  0
LINE
  5
5467
330
531E
100
AcDbEntity
  8
0
 62
     0
100
AcDbLine
 10
49.25838660043962
 20
14.32336111698873
 30
0.0
 11
54.50175575590606
 21
19.56673027245506
 31
0.0
  0
LINE
  5
5468
330
531E
100
AcDbEntity
  8
0
 62
     0
100
AcDbLine
 10
59.68442432311826
 20
26.54545006388127
 30
0.0
 11
66.3389741275256
 21
33.19999986828861
 31
0.0
  0
LINE
  5
5469
330
531E
100
AcDbEntity
  8
0
 62
     0
100
AcDbLine
 10
67.86693979800702
 20
34.72796553877003
 30
0.0
 11
76.05155518262302
 21
42.91258092338603
 31
0.0
  0
LINE
  5
546A
330
531E
100
AcDbEntity
  8
0
 62
     0
100
AcDbLine
 10
47.72206556554567
 20
14.58309130630857
 30
0.0
 11
53.03897412752553
 21
19.89999986828854
 31
0.0
  0
LINE
  5
546B
330
531E
100
AcDbEntity
  8
0
 62
     0
100
AcDbLine
 10
59.68442432311826
 20
28.34150128809517
 30
0.0
 11
65.32040546453493
 21
33.97748242951172
 31
0.0
  0
LINE
  5
546C
330
531E
100
AcDbEntity
  8
0
 62
     0
100
AcDbLine
 10
68.6958865168749
 20
37.3529634818517
 30
0.0
 11
76.80169808622565
 21
45.45877505120256
 31
0.0
  0
LINE
  5
546D
330
531E
100
AcDbEntity
  8
0
 62
     0
100
AcDbLine
 10
46.39979705189285
 20
15.05687401686975
 30
0.0
 11
51.24292290331175
 21
19.89999986828854
 31
0.0
  0
LINE
  5
546E
330
531E
100
AcDbEntity
  8
0
 62
     0
100
AcDbLine
 10
59.68442432311838
 20
30.13755251230884
 30
0.0
 11
65.2844243231184
 21
35.73755251230898
 31
0.0
  0
LINE
  5
546F
330
531E
100
AcDbEntity
  8
0
 62
     0
100
AcDbLine
 10
69.52483323574313
 20
39.97796142493371
 30
0.0
 11
76.01367434108727
 21
46.46680253027784
 31
0.0
  0
LINE
  5
5470
330
531E
100
AcDbEntity
  8
0
 62
     0
100
AcDbLine
 10
45.24459048356425
 20
15.69771867275471
 30
0.0
 11
49.47671420054996
 21
19.92984238974054
 31
0.0
  0
LINE
  5
5471
330
531E
100
AcDbEntity
  8
0
 62
     0
100
AcDbLine
 10
59.68442432311826
 20
31.93360373652274
 30
0.0
 11
65.2844243231184
 21
37.53360373652288
 31
0.0
  0
LINE
  5
5472
330
531E
100
AcDbEntity
  8
0
 62
     0
100
AcDbLine
 10
70.35377995461101
 20
42.60295936801537
 30
0.0
 11
74.25082045488409
 21
46.49999986828857
 31
0.0
  0
LINE
  5
5473
330
531E
100
AcDbEntity
  8
0
 62
     0
100
AcDbLine
 10
44.23468055080014
 20
16.48385996420449
 30
0.0
 11
48.20808191851336
 21
20.45726133191771
 31
0.0
  0
LINE
  5
5474
330
531E
100
AcDbEntity
  8
0
 62
     0
100
AcDbLine
 10
59.68442432311826
 20
33.72965496073652
 30
0.0
 11
65.2844243231184
 21
39.32965496073666
 31
0.0
  0
LINE
  5
5475
330
531E
100
AcDbEntity
  8
0
 62
     0
100
AcDbLine
 10
53.00769258667128
 20
27.05292322428965
 30
0.0
 11
55.33150096711745
 21
29.37673160473582
 31
0.0
  0
LINE
  5
5476
330
531E
100
AcDbEntity
  8
0
 62
     0
100
AcDbLine
 10
71.18272667347878
 20
45.22795731109716
 30
0.0
 11
72.45476923067042
 21
46.4999998682888
 31
0.0
  0
LINE
  5
5477
330
531E
100
AcDbEntity
  8
0
 62
     0
100
AcDbLine
 10
43.36180640414045
 20
17.40703704175882
 30
0.0
 11
47.38758001596898
 21
21.43281065358735
 31
0.0
  0
LINE
  5
5478
330
531E
100
AcDbEntity
  8
0
 62
     0
100
AcDbLine
 10
51.15774690341163
 20
26.9990287652439
 30
0.0
 11
55.38539542616319
 21
31.22667728799536
 31
0.0
  0
LINE
  5
5479
330
531E
100
AcDbEntity
  8
0
 62
     0
100
AcDbLine
 10
59.68442432311838
 20
35.52570618495053
 30
0.0
 11
65.28442432311852
 21
41.12570618495067
 31
0.0
  0
LINE
  5
547A
330
531E
100
AcDbEntity
  8
0
 62
     0
100
AcDbLine
 10
42.62776795425452
 20
18.46904981608668
 30
0.0
 11
47.08442432311835
 21
22.92570618495062
 31
0.0
  0
LINE
  5
547B
330
531E
100
AcDbEntity
  8
0
 62
     0
100
AcDbLine
 10
49.92945376457123
 20
27.56678685061706
 30
0.0
 11
54.81763734078993
 21
32.45497042683587
 31
0.0
  0
LINE
  5
547C
330
531E
100
AcDbEntity
  8
0
 62
     0
100
AcDbLine
 10
59.68442432311838
 20
37.32175740916432
 30
0.0
 11
65.28442432311852
 21
42.92175740916445
 31
0.0
  0
LINE
  5
547D
330
531E
100
AcDbEntity
  8
0
 62
     0
100
AcDbLine
 10
42.04513293440505
 20
19.68246602045098
 30
0.0
 11
47.08442432311835
 21
24.72175740916429
 31
0.0
  0
LINE
  5
547E
330
531E
100
AcDbEntity
  8
0
 62
     0
100
AcDbLine
 10
49.05353391059179
 20
28.48691822085163
 30
0.0
 11
53.89750597055547
 21
33.33089028081519
 31
0.0
  0
LINE
  5
547F
330
531E
100
AcDbEntity
  8
0
 62
     0
100
AcDbLine
 10
59.68442432311838
 20
39.11780863337821
 30
0.0
 11
65.28442432311852
 21
44.71780863337824
 31
0.0
  0
LINE
  5
5480
330
531E
100
AcDbEntity
  8
0
 62
     0
100
AcDbLine
 10
41.64285820605573
 20
21.07624251631557
 30
0.0
 11
47.08442432311835
 21
26.51780863337819
 31
0.0
  0
LINE
  5
5481
330
531E
100
AcDbEntity
  8
0
 62
     0
100
AcDbLine
 10
48.54143244577506
 20
29.77086798024868
 30
0.0
 11
52.61355621115831
 21
33.84299174563205
 31
0.0
  0
LINE
  5
5482
330
531E
100
AcDbEntity
  8
0
 62
     0
100
AcDbLine
 10
41.48442432311822
 20
22.71385985759195
 30
0.0
 11
47.08442432311835
 21
28.31385985759197
 31
0.0
  0
LINE
  5
5483
330
531E
100
AcDbEntity
  8
0
 62
     0
100
AcDbLine
 10
59.68442432311838
 20
40.913859857592
 30
0.0
 11
64.96992410640814
 21
46.19935964088187
 31
0.0
  0
LINE
  5
5484
330
531E
100
AcDbEntity
  8
0
 62
     0
100
AcDbLine
 10
33.31243080736703
 20
14.54186634184077
 30
0.0
 11
37.04255784956649
 21
18.27199338404023
 31
0.0
  0
LINE
  5
5485
330
531E
100
AcDbEntity
  8
0
 62
     0
100
AcDbLine
 10
48.77825861273663
 20
31.80374537142404
 30
0.0
 11
50.58067881998306
 21
33.60616557867047
 31
0.0
  0
LINE
  5
5486
330
531E
100
AcDbEntity
  8
0
 62
     0
100
AcDbLine
 10
41.48442432311822
 20
24.50991108180562
 30
0.0
 11
47.08442432311835
 21
30.10991108180576
 31
0.0
  0
LINE
  5
5487
330
531E
100
AcDbEntity
  8
0
 62
     0
100
AcDbLine
 10
59.68442432311838
 20
42.70991108180578
 30
0.0
 11
63.47451310960116
 21
46.49999986828857
 31
0.0
  0
LINE
  5
5488
330
531E
100
AcDbEntity
  8
0
 62
     0
100
AcDbLine
 10
31.27451310960111
 20
14.29999986828852
 30
0.0
 11
37.28442432311863
 21
20.30991108180592
 31
0.0
  0
LINE
  5
5489
330
531E
100
AcDbEntity
  8
0
 62
     0
100
AcDbLine
 10
41.48442432311822
 20
26.30596230601952
 30
0.0
 11
47.08442432311835
 21
31.90596230601966
 31
0.0
  0
LINE
  5
548A
330
531E
100
AcDbEntity
  8
0
 62
     0
100
AcDbLine
 10
59.68442432311838
 20
44.50596230601957
 30
0.0
 11
61.67846188538738
 21
46.49999986828868
 31
0.0
  0
LINE
  5
548B
330
531E
100
AcDbEntity
  8
0
 62
     0
100
AcDbLine
 10
29.4784618853871
 20
14.29999986828841
 30
0.0
 11
37.28442432311851
 21
22.10596230601982
 31
0.0
  0
LINE
  5
548C
330
531E
100
AcDbEntity
  8
0
 62
     0
100
AcDbLine
 10
41.48442432311822
 20
28.1020135302333
 30
0.0
 11
47.08442432311824
 21
33.70201353023344
 31
0.0
  0
LINE
  5
548D
330
531E
100
AcDbEntity
  8
0
 62
     0
100
AcDbLine
 10
27.68241066117343
 20
14.29999986828863
 30
0.0
 11
37.27654561799602
 21
23.89413482511122
 31
0.0
  0
LINE
  5
548E
330
531E
100
AcDbEntity
  8
0
 62
     0
100
AcDbLine
 10
41.48442432311822
 20
29.8980647544472
 30
0.0
 11
47.08442432311835
 21
35.49806475444734
 31
0.0
  0
LINE
  5
548F
330
531E
100
AcDbEntity
  8
0
 62
     0
100
AcDbLine
 10
52.48635943695979
 20
40.89999986828877
 30
0.0
 11
54.78442432311863
 21
43.19806475444761
 31
0.0
  0
LINE
  5
5490
330
531E
100
AcDbEntity
  8
0
 62
     0
100
AcDbLine
 10
25.88635943695953
 20
14.29999986828852
 30
0.0
 11
37.05722194535337
 21
25.47086237668236
 31
0.0
  0
LINE
  5
5491
330
531E
100
AcDbEntity
  8
0
 62
     0
100
AcDbLine
 10
41.48442432311822
 20
31.69411597866099
 30
0.0
 11
47.08442432311835
 21
37.29411597866101
 31
0.0
  0
LINE
  5
5492
330
531E
100
AcDbEntity
  8
0
 62
     0
100
AcDbLine
 10
31.68442432311838
 20
21.89411597866115
 30
0.0
 11
36.61254445726513
 21
26.8222361128079
 31
0.0
  0
LINE
  5
5493
330
531E
100
AcDbEntity
  8
0
 62
     0
100
AcDbLine
 10
50.69030821274577
 20
40.89999986828854
 30
0.0
 11
54.78442432311863
 21
44.99411597866128
 31
0.0
  0
LINE
  5
5494
330
531E
100
AcDbEntity
  8
0
 62
     0
100
AcDbLine
 10
24.20575996326567
 20
14.41545161880844
 30
0.0
 11
29.69030821274577
 21
19.89999986828854
 31
0.0
  0
LINE
  5
5495
330
531E
100
AcDbEntity
  8
0
 62
     0
100
AcDbLine
 10
41.4844243231181
 20
33.49016720287477
 30
0.0
 11
47.41605373467769
 21
39.42179661443435
 31
0.0
  0
LINE
  5
5496
330
531E
100
AcDbEntity
  8
0
 62
     0
100
AcDbLine
 10
31.68010613989986
 20
23.68584901965641
 30
0.0
 11
35.99568138792108
 21
28.00142426767775
 31
0.0
  0
LINE
  5
5497
330
531E
100
AcDbEntity
  8
0
 62
     0
100
AcDbLine
 10
48.56262757697277
 20
40.56837045672944
 30
0.0
 11
54.3174894932788
 21
46.32323237303535
 31
0.0
  0
LINE
  5
5498
330
531E
100
AcDbEntity
  8
0
 62
     0
100
AcDbLine
 10
23.63442432311842
 20
15.64016720287497
 30
0.0
 11
27.89425698853199
 21
19.89999986828854
 31
0.0
  0
LINE
  5
5499
330
531E
100
AcDbEntity
  8
0
 62
     0
100
AcDbLine
 10
31.24090010089844
 20
25.04269420486901
 30
0.0
 11
35.23119745824328
 21
29.03299156221385
 31
0.0
  0
LINE
  5
549A
330
531E
100
AcDbEntity
  8
0
 62
     0
100
AcDbLine
 10
41.4844243231181
 20
35.28621842708867
 30
0.0
 11
52.69820576431823
 21
46.4999998682888
 31
0.0
  0
LINE
  5
549B
330
531E
100
AcDbEntity
  8
0
 62
     0
100
AcDbLine
 10
23.63442432311831
 20
17.43621842708887
 30
0.0
 11
26.09820576431809
 21
19.89999986828865
 31
0.0
  0
LINE
  5
549C
330
531E
100
AcDbEntity
  8
0
 62
     0
100
AcDbLine
 10
30.38839044428903
 20
25.98623577247326
 30
0.0
 11
34.34818841893377
 21
29.946033747118
 31
0.0
  0
LINE
  5
549D
330
531E
100
AcDbEntity
  8
0
 62
     0
100
AcDbLine
 10
41.48442432311822
 20
37.08226965130234
 30
0.0
 11
50.90215454010411
 21
46.49999986828833
 31
0.0
  0
LINE
  5
549E
330
531E
100
AcDbEntity
  8
0
 62
     0
100
AcDbLine
 10
23.77232816715786
 20
19.3701734953421
 30
0.0
 11
24.16425069606509
 21
19.76209602424933
 31
0.0
  0
LINE
  5
549F
330
531E
100
AcDbEntity
  8
0
 62
     0
100
AcDbLine
 10
41.52437455143138
 20
38.91827110382939
 30
0.0
 11
49.06615308757739
 21
46.46004963997552
 31
0.0
  0
LINE
  5
54A0
330
531E
100
AcDbEntity
  8
0
 62
     0
100
AcDbLine
 10
29.49036483218208
 20
26.88426138458021
 30
0.0
 11
33.45016280682682
 21
30.84405935922495
 31
0.0
  0
LINE
  5
54A1
330
531E
100
AcDbEntity
  8
0
 62
     0
100
AcDbLine
 10
42.12330141596294
 20
41.31324919257497
 30
0.0
 11
46.67117499883192
 21
45.86112277544396
 31
0.0
  0
LINE
  5
54A2
330
531E
100
AcDbEntity
  8
0
 62
     0
100
AcDbLine
 10
28.59233922007513
 20
27.78228699668716
 30
0.0
 11
32.55213719471987
 21
31.7420849713319
 31
0.0
  0
LINE
  5
54A3
330
531E
100
AcDbEntity
  8
0
 62
     0
100
AcDbLine
 10
27.69431360796829
 20
28.680312608794
 30
0.0
 11
31.65411158261292
 21
32.64011058343851
 31
0.0
  0
LINE
  5
54A4
330
531E
100
AcDbEntity
  8
0
 62
     0
100
AcDbLine
 10
26.79628799586135
 20
29.57833822090094
 30
0.0
 11
30.75608597050598
 21
33.53813619554546
 31
0.0
  0
LINE
  5
54A5
330
531E
100
AcDbEntity
  8
0
 62
     0
100
AcDbLine
 10
25.8982623837544
 20
30.47636383300789
 30
0.0
 11
29.85806035839903
 21
34.43616180765241
 31
0.0
  0
LINE
  5
54A6
330
531E
100
AcDbEntity
  8
0
 62
     0
100
AcDbLine
 10
34.52584719482127
 20
40.89999986828854
 30
0.0
 11
36.2344243231181
 21
42.6085769965855
 31
0.0
  0
LINE
  5
54A7
330
531E
100
AcDbEntity
  8
0
 62
     0
100
AcDbLine
 10
25.00040339970371
 20
31.3745560731711
 30
0.0
 11
28.96053468656862
 21
35.33468736003601
 31
0.0
  0
LINE
  5
54A8
330
531E
100
AcDbEntity
  8
0
 62
     0
100
AcDbLine
 10
32.72979597060748
 20
40.89999986828854
 30
0.0
 11
36.23442432311833
 21
44.40462822079939
 31
0.0
  0
LINE
  5
54A9
330
531E
100
AcDbEntity
  8
0
 62
     0
100
AcDbLine
 10
24.17746755060056
 20
32.34767144828151
 30
0.0
 11
28.30074092399275
 21
36.47094482167381
 31
0.0
  0
LINE
  5
54AA
330
531E
100
AcDbEntity
  8
0
 62
     0
100
AcDbLine
 10
30.93374474639358
 20
40.89999986828854
 30
0.0
 11
36.06130652359604
 21
46.027561645491
 31
0.0
  0
LINE
  5
54AB
330
531E
100
AcDbEntity
  8
0
 62
     0
100
AcDbLine
 10
23.49654633807563
 20
33.46280145997047
 30
0.0
 11
28.18442432311849
 21
38.15067944501334
 31
0.0
  0
LINE
  5
54AC
330
531E
100
AcDbEntity
  8
0
 62
     0
100
AcDbLine
 10
29.13276022383957
 20
40.89506656994831
 30
0.0
 11
34.73769352217994
 21
46.49999986828868
 31
0.0
  0
LINE
  5
54AD
330
531E
100
AcDbEntity
  8
0
 62
     0
100
AcDbLine
 10
22.97515974661143
 20
34.73746609272018
 30
0.0
 11
28.18935762145861
 21
39.95166396756747
 31
0.0
  0
LINE
  5
54AE
330
531E
100
AcDbEntity
  8
0
 62
     0
100
AcDbLine
 10
22.6515358221153
 20
36.20989339243783
 30
0.0
 11
32.94164229796615
 21
46.49999986828868
 31
0.0
  0
LINE
  5
54AF
330
531E
100
AcDbEntity
  8
0
 62
     0
100
AcDbLine
 10
22.58442432311846
 20
37.93883311765489
 30
0.0
 11
31.14559107375225
 21
46.49999986828868
 31
0.0
  0
LINE
  5
54B0
330
531E
100
AcDbEntity
  8
0
 62
     0
100
AcDbLine
 10
22.58442432311846
 20
39.73488434186867
 30
0.0
 11
29.34953984953847
 21
46.49999986828868
 31
0.0
  0
LINE
  5
54B1
330
531E
100
AcDbEntity
  8
0
 62
     0
100
AcDbLine
 10
22.62480834399491
 20
41.57131958695901
 30
0.0
 11
27.51310460444813
 21
46.45961584741224
 31
0.0
  0
ENDBLK
  5
54B3
330
531E
100
AcDbEntity
  8
0
100
AcDbBlockEnd
  0
BLOCK
  5
5896
330
588C
100
AcDbEntity
  8
0
100
AcDbBlockBegin
  2
*D13
 70
     1
 10
0.0
 20
0.0
 30
0.0
  3
*D13
  1

  0
LINE
  5
5CD3
330
588C
100
AcDbEntity
  8
SUNPOU
100
AcDbLine
 10
736.4086646233399
 20
495.0624488475601
 30
0.0
 11
623.7395772453565
 21
495.0624488475602
 31
0.0
  0
LINE
  5
5CD4
330
588C
100
AcDbEntity
  8
SUNPOU
100
AcDbLine
 10
692.12022242274
 20
387.0624488475602
 30
0.0
 11
623.7395772453565
 21
387.0624488475602
 31
0.0
  0
LINE
  5
5CD5
330
588C
100
AcDbEntity
  8
SUNPOU
100
AcDbLine
 10
628.7395772453565
 20
483.0624488475602
 30
0.0
 11
628.7395772453565
 21
399.0624488475602
 31
0.0
  0
INSERT
  5
5CD6
330
588C
100
AcDbEntity
  8
SUNPOU
100
AcDbBlockReference
  2
_OPEN
 10
628.7395772453565
 20
495.0624488475602
 30
0.0
 41
12.0
 42
12.0
 43
12.0
 50
90.0
  0
INSERT
  5
5CD7
330
588C
100
AcDbEntity
  8
SUNPOU
100
AcDbBlockReference
  2
_OPEN
 10
628.7395772453565
 20
387.0624488475602
 30
0.0
 41
12.0
 42
12.0
 43
12.0
 50
270.0
  0
MTEXT
  5
5CD8
330
588C
100
AcDbEntity
  8
SUNPOU
100
AcDbMText
 10
620.7395772453564
 20
441.0624488475603
 30
0.0
 40
8.0
 41
0.0
 71
     5
 72
     1
  1
\A1;108
 11
0.0000000000000001
 21
1.0
 31
0.0
1001
ACAD
1000
MTEXTBEGIN
1070
    73
1070
     1
1070
    44
1040
1.0
1070
    74
1070
     0
1000
MTEXTEND
  0
POINT
  5
5CD9
330
588C
100
AcDbEntity
  8
DEFPOINTS
 62
     0
100
AcDbPoint
 10
741.40866462334
 20
495.0624488475601
 30
0.0
  0
POINT
  5
5CDA
330
588C
100
AcDbEntity
  8
DEFPOINTS
 62
     0
100
AcDbPoint
 10
697.12022242274
 20
387.0624488475602
 30
0.0
  0
POINT
  5
5CDB
330
588C
100
AcDbEntity
  8
DEFPOINTS
 62
     0
100
AcDbPoint
 10
628.7395772453565
 20
387.0624488475602
 30
0.0
  0
ENDBLK
  5
5897
330
588C
100
AcDbEntity
  8
0
100
AcDbBlockEnd
  0
BLOCK
  5
58B0
330
58A6
100
AcDbEntity
  8
0
100
AcDbBlockBegin
  2
*D14
 70
     1
 10
0.0
 20
0.0
 30
0.0
  3
*D14
  1

  0
LINE
  5
5CDC
330
58A6
100
AcDbEntity
  8
SUNPOU
100
AcDbLine
 10
736.4086646233399
 20
495.0624488475601
 30
0.0
 11
643.8545028017806
 21
495.0624488475601
 31
0.0
  0
LINE
  5
5CDD
330
58A6
100
AcDbEntity
  8
SUNPOU
100
AcDbLine
 10
673.9553224227401
 20
422.0624488475602
 30
0.0
 11
643.8545028017806
 21
422.0624488475602
 31
0.0
  0
LINE
  5
5CDE
330
58A6
100
AcDbEntity
  8
SUNPOU
100
AcDbLine
 10
648.8545028017806
 20
483.0624488475601
 30
0.0
 11
648.8545028017806
 21
434.0624488475602
 31
0.0
  0
INSERT
  5
5CDF
330
58A6
100
AcDbEntity
  8
SUNPOU
100
AcDbBlockReference
  2
_OPEN
 10
648.8545028017806
 20
495.0624488475601
 30
0.0
 41
12.0
 42
12.0
 43
12.0
 50
90.0
  0
INSERT
  5
5CE0
330
58A6
100
AcDbEntity
  8
SUNPOU
100
AcDbBlockReference
  2
_OPEN
 10
648.8545028017806
 20
422.0624488475602
 30
0.0
 41
12.0
 42
12.0
 43
12.0
 50
270.0
  0
MTEXT
  5
5CE1
330
58A6
100
AcDbEntity
  8
SUNPOU
100
AcDbMText
 10
640.8545028017805
 20
458.5624488475603
 30
0.0
 40
8.0
 41
0.0
 71
     5
 72
     1
  1
\A1;73
 11
0.0000000000000001
 21
1.0
 31
0.0
1001
ACAD
1000
MTEXTBEGIN
1070
    73
1070
     1
1070
    44
1040
1.0
1070
    74
1070
     0
1000
MTEXTEND
  0
POINT
  5
5CE2
330
58A6
100
AcDbEntity
  8
DEFPOINTS
 62
     0
100
AcDbPoint
 10
741.40866462334
 20
495.0624488475601
 30
0.0
  0
POINT
  5
5CE3
330
58A6
100
AcDbEntity
  8
DEFPOINTS
 62
     0
100
AcDbPoint
 10
678.9553224227402
 20
422.0624488475602
 30
0.0
  0
POINT
  5
5CE4
330
58A6
100
AcDbEntity
  8
DEFPOINTS
 62
     0
100
AcDbPoint
 10
648.8545028017806
 20
422.0624488475602
 30
0.0
  0
ENDBLK
  5
58B1
330
58A6
100
AcDbEntity
  8
0
100
AcDbBlockEnd
  0
BLOCK
  5
5B35
330
5B21
100
AcDbEntity
  8
0
100
AcDbBlockBegin
  2
*X15
 70
     1
 10
0.0
 20
0.0
 30
0.0
  3
*X15
  1

  0
LINE
  5
5B22
330
5B21
100
AcDbEntity
  8
0
 62
     0
100
AcDbLine
 10
898.9553224227401
 20
395.0500871486417
 30
0.0
 11
897.6055068241821
 21
396.3999027471998
 31
0.0
  0
LINE
  5
5B23
330
5B21
100
AcDbEntity
  8
0
 62
     0
100
AcDbLine
 10
895.7003200367024
 20
394.0624488475602
 30
0.0
 11
892.7003200367025
 21
397.0624488475601
 31
0.0
  0
LINE
  5
5B24
330
5B21
100
AcDbEntity
  8
0
 62
     0
100
AcDbLine
 10
891.4576793495832
 20
394.0624488475601
 30
0.0
 11
888.4576793495833
 21
397.0624488475601
 31
0.0
  0
LINE
  5
5B25
330
5B21
100
AcDbEntity
  8
0
 62
     0
100
AcDbLine
 10
887.2150386624639
 20
394.0624488475601
 30
0.0
 11
884.2150386624638
 21
397.0624488475601
 31
0.0
  0
LINE
  5
5B26
330
5B21
100
AcDbEntity
  8
0
 62
     0
100
AcDbLine
 10
815.8301001497097
 20
461.2047466731951
 30
0.0
 11
809.9723979753445
 21
467.0624488475601
 31
0.0
  0
LINE
  5
5B27
330
5B21
100
AcDbEntity
  8
0
 62
     0
100
AcDbLine
 10
882.9723979753445
 20
394.0624488475601
 30
0.0
 11
880.404450475604
 21
396.6303963473007
 31
0.0
  0
LINE
  5
5B28
330
5B21
100
AcDbEntity
  8
0
 62
     0
100
AcDbLine
 10
880.7904224188963
 20
392.0017837168892
 30
0.0
 11
878.9554643528152
 21
393.8367417829703
 31
0.0
  0
LINE
  5
5B29
330
5B21
100
AcDbEntity
  8
0
 62
     0
100
AcDbLine
 10
813.6485617152436
 20
459.1436444205418
 30
0.0
 11
805.7297572882253
 21
467.0624488475601
 31
0.0
  0
LINE
  5
5B2A
330
5B21
100
AcDbEntity
  8
0
 62
     0
100
AcDbLine
 10
882.8122645725708
 20
389.9799415632145
 30
0.0
 11
881.7297594876198
 21
391.0624466481657
 31
0.0
  0
LINE
  5
5B2B
330
5B21
100
AcDbEntity
  8
0
 62
     0
100
AcDbLine
 10
809.4871166011062
 20
459.06244884756
 30
0.0
 11
802.116629590326
 21
466.43293585834
 31
0.0
  0
LINE
  5
5B2C
330
5B21
100
AcDbEntity
  8
0
 62
     0
100
AcDbLine
 10
882.6583687018523
 20
385.8911967468139
 30
0.0
 11
878.9554547104719
 21
389.5941107381943
 31
0.0
  0
LINE
  5
5B2D
330
5B21
100
AcDbEntity
  8
0
 62
     0
100
AcDbLine
 10
805.2444759139868
 20
459.0624488475602
 30
0.0
 11
800.9553224226729
 21
463.351602338874
 31
0.0
  0
LINE
  5
5B2E
330
5B21
100
AcDbEntity
  8
0
 62
     0
100
AcDbLine
 10
882.5044770204817
 20
381.8024477410651
 30
0.0
 11
878.9554450681286
 21
385.3514796934183
 31
0.0
  0
LINE
  5
5B2F
330
5B21
100
AcDbEntity
  8
0
 62
     0
100
AcDbLine
 10
882.3505396521825
 20
377.7137444222451
 30
0.0
 11
878.9554354257855
 21
381.1088486486422
 31
0.0
  0
LINE
  5
5B30
330
5B21
100
AcDbEntity
  8
0
 62
     0
100
AcDbLine
 10
882.1966524772889
 20
373.6249909100192
 30
0.0
 11
878.9554257834423
 21
376.8662176038661
 31
0.0
  0
LINE
  5
5B31
330
5B21
100
AcDbEntity
  8
0
 62
     0
100
AcDbLine
 10
882.0427385788063
 20
369.5362641213827
 30
0.0
 11
878.9554161410988
 21
372.6235865590902
 31
0.0
  0
LINE
  5
5B32
330
5B21
100
AcDbEntity
  8
0
 62
     0
100
AcDbLine
 10
881.8888468974353
 20
365.4475151156343
 30
0.0
 11
878.9554064987555
 21
368.3809555143141
 31
0.0
  0
LINE
  5
5B33
330
5B21
100
AcDbEntity
  8
0
 62
     0
100
AcDbLine
 10
881.0303790362766
 20
362.063342289674
 30
0.0
 11
878.9553968564126
 21
364.138324469538
 31
0.0
  0
LINE
  5
5B34
330
5B21
100
AcDbEntity
  8
0
 62
     0
100
AcDbLine
 10
879.7886317912711
 20
359.0624488475601
 30
0.0
 11
878.9553872140693
 21
359.895693424762
 31
0.0
  0
ENDBLK
  5
5B36
330
5B21
100
AcDbEntity
  8
0
100
AcDbBlockEnd
  0
BLOCK
  5
5BC2
330
5BB8
100
AcDbEntity
  8
0
100
AcDbBlockBegin
  2
*D16
 70
     1
 10
0.0
 20
0.0
 30
0.0
  3
*D16
  1

  0
LINE
  5
5BE8
330
5BB8
100
AcDbEntity
  8
SUNPOU
100
AcDbLine
 10
1751.036512633197
 20
412.9705381447598
 30
0.0
 11
1751.036512633197
 21
516.3102172252402
 31
0.0
  0
LINE
  5
5BE9
330
5BB8
100
AcDbEntity
  8
SUNPOU
100
AcDbLine
 10
1961.036512633197
 20
412.9705381447598
 30
0.0
 11
1961.036512633197
 21
516.3102172252402
 31
0.0
  0
LINE
  5
5BEA
330
5BB8
100
AcDbEntity
  8
SUNPOU
100
AcDbLine
 10
1763.036512633197
 20
511.3102172252403
 30
0.0
 11
1949.036512633197
 21
511.3102172252403
 31
0.0
  0
INSERT
  5
5BEB
330
5BB8
100
AcDbEntity
  8
SUNPOU
100
AcDbBlockReference
  2
_OPEN
 10
1751.036512633197
 20
511.3102172252403
 30
0.0
 41
12.0
 42
12.0
 43
12.0
 50
180.0
  0
INSERT
  5
5BEC
330
5BB8
100
AcDbEntity
  8
SUNPOU
100
AcDbBlockReference
  2
_OPEN
 10
1961.036512633197
 20
511.3102172252403
 30
0.0
 41
12.0
 42
12.0
 43
12.0
  0
MTEXT
  5
5BED
330
5BB8
100
AcDbEntity
  8
SUNPOU
100
AcDbMText
 10
1856.036512633197
 20
519.3102172252403
 30
0.0
 40
8.0
 41
0.0
 71
     5
 72
     1
  1
\A1;φ210
1001
ACAD
1000
MTEXTBEGIN
1070
    73
1070
     1
1070
    44
1040
1.0
1070
    74
1070
     0
1000
MTEXTEND
  0
POINT
  5
5BEE
330
5BB8
100
AcDbEntity
  8
DEFPOINTS
 62
     0
100
AcDbPoint
 10
1751.036512633197
 20
407.9705381447598
 30
0.0
  0
POINT
  5
5BEF
330
5BB8
100
AcDbEntity
  8
DEFPOINTS
 62
     0
100
AcDbPoint
 10
1961.036512633197
 20
407.9705381447598
 30
0.0
  0
POINT
  5
5BF0
330
5BB8
100
AcDbEntity
  8
DEFPOINTS
 62
     0
100
AcDbPoint
 10
1961.036512633197
 20
511.3102172252403
 30
0.0
  0
ENDBLK
  5
5BC3
330
5BB8
100
AcDbEntity
  8
0
100
AcDbBlockEnd
  0
BLOCK
  5
5BCE
330
5BC4
100
AcDbEntity
  8
0
100
AcDbBlockBegin
  2
*D17
 70
     1
 10
0.0
 20
0.0
 30
0.0
  3
*D17
  1

  0
LINE
  5
5BF1
330
5BC4
100
AcDbEntity
  8
SUNPOU
100
AcDbLine
 10
1979.523018905732
 20
394.0624488475601
 30
0.0
 11
2029.346339541996
 21
394.0624488475601
 31
0.0
  0
LINE
  5
5BF2
330
5BC4
100
AcDbEntity
  8
SUNPOU
100
AcDbLine
 10
1966.871612633197
 20
359.0624488475601
 30
0.0
 11
2029.346339541996
 21
359.0624488475601
 31
0.0
  0
LINE
  5
5BF3
330
5BC4
100
AcDbEntity
  8
SUNPOU
100
AcDbLine
 10
2024.346339541995
 20
382.0624488475601
 30
0.0
 11
2024.346339541995
 21
371.0624488475601
 31
0.0
  0
INSERT
  5
5BF4
330
5BC4
100
AcDbEntity
  8
SUNPOU
100
AcDbBlockReference
  2
_OPEN
 10
2024.346339541995
 20
394.0624488475601
 30
0.0
 41
12.0
 42
12.0
 43
12.0
 50
90.0
  0
INSERT
  5
5BF5
330
5BC4
100
AcDbEntity
  8
SUNPOU
100
AcDbBlockReference
  2
_OPEN
 10
2024.346339541995
 20
359.0624488475601
 30
0.0
 41
12.0
 42
12.0
 43
12.0
 50
270.0
  0
MTEXT
  5
5BF6
330
5BC4
100
AcDbEntity
  8
SUNPOU
100
AcDbMText
 10
2016.346339541996
 20
376.5624488475605
 30
0.0
 40
8.0
 41
0.0
 71
     5
 72
     1
  1
\A1;35
 11
0.0000000000000001
 21
1.0
 31
0.0
1001
ACAD
1000
MTEXTBEGIN
1070
    73
1070
     1
1070
    44
1040
1.0
1070
    74
1070
     0
1000
MTEXTEND
  0
POINT
  5
5BF7
330
5BC4
100
AcDbEntity
  8
DEFPOINTS
 62
     0
100
AcDbPoint
 10
1974.523018905732
 20
394.0624488475601
 30
0.0
  0
POINT
  5
5BF8
330
5BC4
100
AcDbEntity
  8
DEFPOINTS
 62
     0
100
AcDbPoint
 10
1961.871612633197
 20
359.0624488475601
 30
0.0
  0
POINT
  5
5BF9
330
5BC4
100
AcDbEntity
  8
DEFPOINTS
 62
     0
100
AcDbPoint
 10
2024.346339541995
 20
359.0624488475601
 30
0.0
  0
ENDBLK
  5
5BCF
330
5BC4
100
AcDbEntity
  8
0
100
AcDbBlockEnd
  0
BLOCK
  5
5BDA
330
5BD0
100
AcDbEntity
  8
0
100
AcDbBlockBegin
  2
*D18
 70
     1
 10
0.0
 20
0.0
 30
0.0
  3
*D18
  1

  0
LINE
  5
5BFA
330
5BD0
100
AcDbEntity
  8
SUNPOU
100
AcDbLine
 10
1748.036512633197
 20
365.3103562794609
 30
0.0
 11
1748.036512633197
 21
274.0784154735251
 31
0.0
  0
LINE
  5
5BFB
330
5BD0
100
AcDbEntity
  8
SUNPOU
100
AcDbLine
 10
1964.036512633197
 20
365.0607422896738
 30
0.0
 11
1964.036512633197
 21
274.0784154735251
 31
0.0
  0
LINE
  5
5BFC
330
5BD0
100
AcDbEntity
  8
SUNPOU
100
AcDbLine
 10
1760.036512633197
 20
279.0784154735252
 30
0.0
 11
1952.036512633197
 21
279.0784154735252
 31
0.0
  0
INSERT
  5
5BFD
330
5BD0
100
AcDbEntity
  8
SUNPOU
100
AcDbBlockReference
  2
_OPEN
 10
1748.036512633197
 20
279.0784154735252
 30
0.0
 41
12.0
 42
12.0
 43
12.0
 50
180.0
  0
INSERT
  5
5BFE
330
5BD0
100
AcDbEntity
  8
SUNPOU
100
AcDbBlockReference
  2
_OPEN
 10
1964.036512633197
 20
279.0784154735252
 30
0.0
 41
12.0
 42
12.0
 43
12.0
  0
MTEXT
  5
5BFF
330
5BD0
100
AcDbEntity
  8
SUNPOU
100
AcDbMText
 10
1856.036512633197
 20
287.0784154735251
 30
0.0
 40
8.0
 41
0.0
 71
     5
 72
     1
  1
\A1;φ216
1001
ACAD
1000
MTEXTBEGIN
1070
    73
1070
     1
1070
    44
1040
1.0
1070
    74
1070
     0
1000
MTEXTEND
  0
POINT
  5
5C00
330
5BD0
100
AcDbEntity
  8
DEFPOINTS
 62
     0
100
AcDbPoint
 10
1748.036512633197
 20
370.3103562794609
 30
0.0
  0
POINT
  5
5C01
330
5BD0
100
AcDbEntity
  8
DEFPOINTS
 62
     0
100
AcDbPoint
 10
1964.036512633197
 20
370.0607422896738
 30
0.0
  0
POINT
  5
5C02
330
5BD0
100
AcDbEntity
  8
DEFPOINTS
 62
     0
100
AcDbPoint
 10
1964.036512633197
 20
279.0784154735252
 30
0.0
  0
ENDBLK
  5
5BDB
330
5BD0
100
AcDbEntity
  8
0
100
AcDbBlockEnd
  0
BLOCK
  5
5BE6
330
5BDC
100
AcDbEntity
  8
0
100
AcDbBlockBegin
  2
*D19
 70
     1
 10
0.0
 20
0.0
 30
0.0
  3
*D19
  1

  0
LINE
  5
5C03
330
5BDC
100
AcDbEntity
  8
SUNPOU
100
AcDbLine
 10
1732.036512633197
 20
401.0624488475602
 30
0.0
 11
1732.036512633197
 21
536.1676622549989
 31
0.0
  0
LINE
  5
5C04
330
5BDC
100
AcDbEntity
  8
SUNPOU
100
AcDbLine
 10
1980.036512633197
 20
401.0624488475602
 30
0.0
 11
1980.036512633197
 21
536.1676622549989
 31
0.0
  0
LINE
  5
5C05
330
5BDC
100
AcDbEntity
  8
SUNPOU
100
AcDbLine
 10
1744.036512633197
 20
531.1676622549989
 30
0.0
 11
1968.036512633197
 21
531.1676622549989
 31
0.0
  0
INSERT
  5
5C06
330
5BDC
100
AcDbEntity
  8
SUNPOU
100
AcDbBlockReference
  2
_OPEN
 10
1732.036512633197
 20
531.1676622549989
 30
0.0
 41
12.0
 42
12.0
 43
12.0
 50
180.0
  0
INSERT
  5
5C07
330
5BDC
100
AcDbEntity
  8
SUNPOU
100
AcDbBlockReference
  2
_OPEN
 10
1980.036512633197
 20
531.1676622549989
 30
0.0
 41
12.0
 42
12.0
 43
12.0
  0
MTEXT
  5
5C08
330
5BDC
100
AcDbEntity
  8
SUNPOU
100
AcDbMText
 10
1856.036512633197
 20
539.1676622549989
 30
0.0
 40
8.0
 41
0.0
 71
     5
 72
     1
  1
\A1;φ248
1001
ACAD
1000
MTEXTBEGIN
1070
    73
1070
     1
1070
    44
1040
1.0
1070
    74
1070
     0
1000
MTEXTEND
  0
POINT
  5
5C09
330
5BDC
100
AcDbEntity
  8
DEFPOINTS
 62
     0
100
AcDbPoint
 10
1732.036512633197
 20
396.0624488475601
 30
0.0
  0
POINT
  5
5C0A
330
5BDC
100
AcDbEntity
  8
DEFPOINTS
 62
     0
100
AcDbPoint
 10
1980.036512633197
 20
396.0624488475601
 30
0.0
  0
POINT
  5
5C0B
330
5BDC
100
AcDbEntity
  8
DEFPOINTS
 62
     0
100
AcDbPoint
 10
1980.036512633197
 20
531.1676622549989
 30
0.0
  0
ENDBLK
  5
5BE7
330
5BDC
100
AcDbEntity
  8
0
100
AcDbBlockEnd
  0
BLOCK
  5
5D24
330
5D1C
100
AcDbEntity
  8
0
100
AcDbBlockBegin
  2
*X20
 70
     1
 10
0.0
 20
0.0
 30
0.0
  3
*X20
  1

  0
LINE
  5
5D1D
330
5D1C
100
AcDbEntity
  8
0
 62
     0
100
AcDbLine
 10
843.8658654354544
 20
492.7895935171573
 30
0.0
 11
841.6824670922309
 21
494.9729918603805
 31
0.0
  0
LINE
  5
5D1E
330
5D1C
100
AcDbEntity
  8
0
 62
     0
100
AcDbLine
 10
843.9506222938174
 20
489.876409534048
 30
0.0
 11
838.7645829803052
 21
495.0624488475601
 31
0.0
  0
LINE
  5
5D1F
330
5D1C
100
AcDbEntity
  8
0
 62
     0
100
AcDbLine
 10
843.3567133094582
 20
487.6418913936612
 30
0.0
 11
835.9361558555592
 21
495.0624488475601
 31
0.0
  0
LINE
  5
5D20
330
5D1C
100
AcDbEntity
  8
0
 62
     0
100
AcDbLine
 10
836.107728730813
 20
492.0624488475602
 30
0.0
 11
833.1077287308129
 21
495.0624488475601
 31
0.0
  0
LINE
  5
5D21
330
5D1C
100
AcDbEntity
  8
0
 62
     0
100
AcDbLine
 10
833.7124065470227
 20
491.6293439066042
 30
0.0
 11
830.6019287306035
 21
494.7398217230235
 31
0.0
  0
LINE
  5
5D22
330
5D1C
100
AcDbEntity
  8
0
 62
     0
100
AcDbLine
 10
832.9553224226732
 20
489.5580009062077
 30
0.0
 11
829.2196269755343
 21
493.2936963533465
 31
0.0
  0
LINE
  5
5D23
330
5D1C
100
AcDbEntity
  8
0
 62
     0
100
AcDbLine
 10
832.1932703593551
 20
487.4916258447795
 30
0.0
 11
828.9553224226731
 21
490.7295737814616
 31
0.0
  0
ENDBLK
  5
5D25
330
5D1C
100
AcDbEntity
  8
0
100
AcDbBlockEnd
  0
BLOCK
  5
5D3F
330
5D26
100
AcDbEntity
  8
0
100
AcDbBlockBegin
  2
*X21
 70
     1
 10
0.0
 20
0.0
 30
0.0
  3
*X21
  1

  0
LINE
  5
5D27
330
5D26
100
AcDbEntity
  8
0
 62
     0
100
AcDbLine
 10
926.9553224227401
 20
423.8422721536022
 30
0.0
 11
926.6617534974631
 21
424.1358410788794
 31
0.0
  0
LINE
  5
5D28
330
5D26
100
AcDbEntity
  8
0
 62
     0
100
AcDbLine
 10
925.9067186040361
 20
422.06244884756
 30
0.0
 11
922.9067186040362
 21
425.06244884756
 31
0.0
  0
LINE
  5
5D29
330
5D26
100
AcDbEntity
  8
0
 62
     0
100
AcDbLine
 10
923.07829147929
 20
422.06244884756
 30
0.0
 11
920.0782914792897
 21
425.0624488475601
 31
0.0
  0
LINE
  5
5D2A
330
5D26
100
AcDbEntity
  8
0
 62
     0
100
AcDbLine
 10
920.2498643545437
 20
422.06244884756
 30
0.0
 11
917.2498643545436
 21
425.0624488475601
 31
0.0
  0
LINE
  5
5D2B
330
5D26
100
AcDbEntity
  8
0
 62
     0
100
AcDbLine
 10
917.4214372297976
 20
422.0624488475603
 30
0.0
 11
914.4214372297975
 21
425.0624488475604
 31
0.0
  0
LINE
  5
5D2C
330
5D26
100
AcDbEntity
  8
0
 62
     0
100
AcDbLine
 10
914.5930101050513
 20
422.0624488475603
 30
0.0
 11
911.5930101050514
 21
425.0624488475603
 31
0.0
  0
LINE
  5
5D2D
330
5D26
100
AcDbEntity
  8
0
 62
     0
100
AcDbLine
 10
911.764582980305
 20
422.0624488475602
 30
0.0
 11
908.9412292722501
 21
424.8858025556152
 31
0.0
  0
LINE
  5
5D2E
330
5D26
100
AcDbEntity
  8
0
 62
     0
100
AcDbLine
 10
909.4509540366901
 20
421.5476506664292
 30
0.0
 11
907.3866230730764
 21
423.6119816300429
 31
0.0
  0
LINE
  5
5D2F
330
5D26
100
AcDbEntity
  8
0
 62
     0
100
AcDbLine
 10
908.7904223794796
 20
419.3797551988937
 30
0.0
 11
906.9554629391173
 21
421.2147146392559
 31
0.0
  0
LINE
  5
5D30
330
5D26
100
AcDbEntity
  8
0
 62
     0
100
AcDbLine
 10
910.4179251705556
 20
417.7522524078176
 30
0.0
 11
909.1077308907907
 21
419.0624466875825
 31
0.0
  0
LINE
  5
5D31
330
5D26
100
AcDbEntity
  8
0
 62
     0
100
AcDbLine
 10
908.7904224227402
 20
416.5513280308866
 30
0.0
 11
906.9554565108882
 21
418.3862939427387
 31
0.0
  0
LINE
  5
5D32
330
5D26
100
AcDbEntity
  8
0
 62
     0
100
AcDbLine
 10
910.9553224227401
 20
414.3864280308868
 30
0.0
 11
910.5411915135169
 21
414.8005589401099
 31
0.0
  0
LINE
  5
5D33
330
5D26
100
AcDbEntity
  8
0
 62
     0
100
AcDbLine
 10
909.3674408099925
 20
413.1458825188883
 30
0.0
 11
906.9554500826594
 21
415.5578732462213
 31
0.0
  0
LINE
  5
5D34
330
5D26
100
AcDbEntity
  8
0
 62
     0
100
AcDbLine
 10
910.1101260705162
 20
409.5747701336182
 30
0.0
 11
906.9554436544306
 21
412.7294525497038
 31
0.0
  0
LINE
  5
5D35
330
5D26
100
AcDbEntity
  8
0
 62
     0
100
AcDbLine
 10
908.7904224227402
 20
408.066046656648
 30
0.0
 11
906.9554372262018
 21
409.9010318531865
 31
0.0
  0
LINE
  5
5D36
330
5D26
100
AcDbEntity
  8
0
 62
     0
100
AcDbLine
 10
910.8527509372096
 20
406.0037181421786
 30
0.0
 11
909.3921750996036
 21
407.4642939797846
 31
0.0
  0
LINE
  5
5D37
330
5D26
100
AcDbEntity
  8
0
 62
     0
100
AcDbLine
 10
909.0596495631247
 20
404.9683923915174
 30
0.0
 11
906.955430797973
 21
407.0726111566691
 31
0.0
  0
LINE
  5
5D38
330
5D26
100
AcDbEntity
  8
0
 62
     0
100
AcDbLine
 10
909.8023130752736
 20
401.3973017546224
 30
0.0
 11
906.9554243697441
 21
404.2441904601518
 31
0.0
  0
LINE
  5
5D39
330
5D26
100
AcDbEntity
  8
0
 62
     0
100
AcDbLine
 10
910.5449645707354
 20
397.8262231344143
 30
0.0
 11
906.9554179415154
 21
401.4157697636343
 31
0.0
  0
LINE
  5
5D3A
330
5D26
100
AcDbEntity
  8
0
 62
     0
100
AcDbLine
 10
908.7904224227404
 20
396.752338157663
 30
0.0
 11
906.9554115132865
 21
398.5873490671169
 31
0.0
  0
LINE
  5
5D3B
330
5D26
100
AcDbEntity
  8
0
 62
     0
100
AcDbLine
 10
909.49449594747
 20
393.2198375081873
 30
0.0
 11
906.9554050850577
 21
395.7589283705996
 31
0.0
  0
LINE
  5
5D3C
330
5D26
100
AcDbEntity
  8
0
 62
     0
100
AcDbLine
 10
909.8225640412371
 20
390.0633422896739
 30
0.0
 11
906.9553986568289
 21
392.9305076740822
 31
0.0
  0
LINE
  5
5D3D
330
5D26
100
AcDbEntity
  8
0
 62
     0
100
AcDbLine
 10
908.7904224227402
 20
388.2670567834246
 30
0.0
 11
906.9553922285999
 21
390.1020869775649
 31
0.0
  0
LINE
  5
5D3E
330
5D26
100
AcDbEntity
  8
0
 62
     0
100
AcDbLine
 10
907.1666032338585
 20
387.06244884756
 30
0.0
 11
906.9553858003709
 21
387.2736662810476
 31
0.0
  0
ENDBLK
  5
5D40
330
5D26
100
AcDbEntity
  8
0
100
AcDbBlockEnd
  0
ENDSEC
  0
SECTION
  2
ENTITIES
  0
LINE
  5
15C9
330
19
100
AcDbEntity
  8
ZUWAKU
100
AcDbLine
 10
445.293202593692
 20
58.39999986828876
 30
0.0
 11
922.8487279555388
 21
58.39999986828875
 31
0.0
  0
LINE
  5
15CA
330
19
100
AcDbEntity
  8
ZUWAKU
100
AcDbLine
 10
445.293202593692
 20
59.19999986828875
 30
0.0
 11
922.8487279555388
 21
59.19999986828877
 31
0.0
  0
LINE
  5
15CB
330
19
100
AcDbEntity
  8
ZUWAKU
100
AcDbLine
 10
445.293202593692
 20
58.79999986828875
 30
0.0
 11
922.8487279555388
 21
58.79999986828875
 31
0.0
  0
LINE
  5
15CC
330
19
100
AcDbEntity
  8
ZUWAKU
100
AcDbLine
 10
28.00000001355602
 20
89.5999998682887
 30
0.0
 11
1622.800000013556
 21
89.5999998682887
 31
0.0
  0
LINE
  5
15CD
330
19
100
AcDbEntity
  8
ZUWAKU
100
AcDbLine
 10
28.00000001355602
 20
89.19999986828869
 30
0.0
 11
1622.800000013556
 21
89.19999986828869
 31
0.0
  0
LINE
  5
15CE
330
19
100
AcDbEntity
  8
ZUWAKU
100
AcDbLine
 10
28.00000001355602
 20
88.79999986828869
 30
0.0
 11
1622.800000013556
 21
88.79999986828869
 31
0.0
  0
LINE
  5
15CF
330
19
100
AcDbEntity
  8
ZUWAKU
100
AcDbLine
 10
28.00000001355602
 20
88.39999986828869
 30
0.0
 11
1622.800000013556
 21
88.39999986828869
 31
0.0
  0
LINE
  5
15D0
330
19
100
AcDbEntity
  8
ZUWAKU
100
AcDbLine
 10
28.00000001355602
 20
87.99999986828868
 30
0.0
 11
1622.800000013556
 21
87.99999986828868
 31
0.0
  0
POLYLINE
  5
15D1
330
19
100
AcDbEntity
  8
ZUWAKU
100
AcDb2dPolyline
 66
     1
 10
0.0
 20
0.0
 30
0.0
 70
     1
  0
VERTEX
  5
5D03
330
15D1
100
AcDbEntity
  8
ZUWAKU
100
AcDbVertex
100
AcDb2dVertex
 10
28.40000001355588
 20
1130.799999868288
 30
0.0
  0
VERTEX
  5
5D04
330
15D1
100
AcDbEntity
  8
ZUWAKU
100
AcDbVertex
100
AcDb2dVertex
 10
28.40000001355588
 20
28.39999986828877
 30
0.0
  0
VERTEX
  5
5D05
330
15D1
100
AcDbEntity
  8
ZUWAKU
100
AcDbVertex
100
AcDb2dVertex
 10
1622.800000013556
 20
28.39999986828882
 30
0.0
  0
VERTEX
  5
5D06
330
15D1
100
AcDbEntity
  8
ZUWAKU
100
AcDbVertex
100
AcDb2dVertex
 10
1622.800000013556
 20
1130.799999868288
 30
0.0
  0
SEQEND
  5
5D07
330
15D1
100
AcDbEntity
  8
ZUWAKU
  0
POLYLINE
  5
15D2
330
19
100
AcDbEntity
  8
ZUWAKU
100
AcDb2dPolyline
 66
     1
 10
0.0
 20
0.0
 30
0.0
 70
     1
  0
VERTEX
  5
5D08
330
15D2
100
AcDbEntity
  8
ZUWAKU
100
AcDbVertex
100
AcDb2dVertex
 10
29.20000001355584
 20
1129.999999868289
 30
0.0
  0
VERTEX
  5
5D09
330
15D2
100
AcDbEntity
  8
ZUWAKU
100
AcDbVertex
100
AcDb2dVertex
 10
29.20000001355584
 20
29.19999986828873
 30
0.0
  0
VERTEX
  5
5D0A
330
15D2
100
AcDbEntity
  8
ZUWAKU
100
AcDbVertex
100
AcDb2dVertex
 10
1622.000000013556
 20
29.19999986828882
 30
0.0
  0
VERTEX
  5
5D0B
330
15D2
100
AcDbEntity
  8
ZUWAKU
100
AcDbVertex
100
AcDb2dVertex
 10
1622.000000013556
 20
1129.999999868289
 30
0.0
  0
SEQEND
  5
5D0C
330
15D2
100
AcDbEntity
  8
ZUWAKU
  0
POLYLINE
  5
15D3
330
19
100
AcDbEntity
  8
ZUWAKU
100
AcDb2dPolyline
 66
     1
 10
0.0
 20
0.0
 30
0.0
 70
     1
  0
VERTEX
  5
5D0D
330
15D3
100
AcDbEntity
  8
ZUWAKU
100
AcDbVertex
100
AcDb2dVertex
 10
28.00000001355602
 20
1131.199999868288
 30
0.0
  0
VERTEX
  5
5D0E
330
15D3
100
AcDbEntity
  8
ZUWAKU
100
AcDbVertex
100
AcDb2dVertex
 10
28.00000001355602
 20
27.99999986828868
 30
0.0
  0
VERTEX
  5
5D0F
330
15D3
100
AcDbEntity
  8
ZUWAKU
100
AcDbVertex
100
AcDb2dVertex
 10
1623.200000013556
 20
27.99999986828881
 30
0.0
  0
VERTEX
  5
5D10
330
15D3
100
AcDbEntity
  8
ZUWAKU
100
AcDbVertex
100
AcDb2dVertex
 10
1623.200000013556
 20
1131.199999868289
 30
0.0
  0
SEQEND
  5
5D11
330
15D3
100
AcDbEntity
  8
ZUWAKU
  0
POLYLINE
  5
15D4
330
19
100
AcDbEntity
  8
ZUWAKU
100
AcDb2dPolyline
 66
     1
 10
0.0
 20
0.0
 30
0.0
 70
     1
  0
VERTEX
  5
5D12
330
15D4
100
AcDbEntity
  8
ZUWAKU
100
AcDbVertex
100
AcDb2dVertex
 10
28.80000001355597
 20
1130.399999868288
 30
0.0
  0
VERTEX
  5
5D13
330
15D4
100
AcDbEntity
  8
ZUWAKU
100
AcDbVertex
100
AcDb2dVertex
 10
28.80000001355597
 20
28.79999986828886
 30
0.0
  0
VERTEX
  5
5D14
330
15D4
100
AcDbEntity
  8
ZUWAKU
100
AcDbVertex
100
AcDb2dVertex
 10
1622.400000013556
 20
28.79999986828881
 30
0.0
  0
VERTEX
  5
5D15
330
15D4
100
AcDbEntity
  8
ZUWAKU
100
AcDbVertex
100
AcDb2dVertex
 10
1622.400000013556
 20
1130.399999868288
 30
0.0
  0
SEQEND
  5
5D16
330
15D4
100
AcDbEntity
  8
ZUWAKU
  0
POLYLINE
  5
15D5
330
19
100
AcDbEntity
  8
ZUWAKU
100
AcDb2dPolyline
 66
     1
 10
0.0
 20
0.0
 30
0.0
 70
     1
  0
VERTEX
  5
5D17
330
15D5
100
AcDbEntity
  8
ZUWAKU
100
AcDbVertex
100
AcDb2dVertex
 10
29.60000001355592
 20
1129.599999868288
 30
0.0
  0
VERTEX
  5
5D18
330
15D5
100
AcDbEntity
  8
ZUWAKU
100
AcDbVertex
100
AcDb2dVertex
 10
29.60000001355592
 20
29.59999986828881
 30
0.0
  0
VERTEX
  5
5D19
330
15D5
100
AcDbEntity
  8
ZUWAKU
100
AcDbVertex
100
AcDb2dVertex
 10
1621.600000013556
 20
29.59999986828881
 30
0.0
  0
VERTEX
  5
5D1A
330
15D5
100
AcDbEntity
  8
ZUWAKU
100
AcDbVertex
100
AcDb2dVertex
 10
1621.600000013556
 20
1129.599999868288
 30
0.0
  0
SEQEND
  5
5D1B
330
15D5
100
AcDbEntity
  8
ZUWAKU
  0
TEXT
  5
15D6
330
19
100
AcDbEntity
  8
MOJI
100
AcDbText
 10
213.9155791898943
 20
53.4823561288382
 30
0.0
 40
12.0
  1
大型たてとい
 41
0.9
  7
ｽﾀｲﾙ1
100
AcDbText
  0
INSERT
  5
15D7
330
19
100
AcDbEntity
  8
ZUWAKU
  6
CONTINUOUS
100
AcDbBlockReference
  2
*X12
 10
28.0
 20
28.0
 30
0.0
1001
ACAD
1000
HATCH
1002
{
1070
    19
1000
ANSI37
1040
0.4
1040
0.0
1000
R14_HATCH_DATA
1000
15D7
1011
29.0
1021
28.0
1031
0.0
1011
28.0
1021
29.0
1031
0.0
1011
28.0
1021
28.0
1031
1.0
1040
0.0
1010
0.0
1020
0.0
1030
1.0
1000
ANSI37
1070
     0
1070
     0
1071
        8
1071
        7
1070
     1
1070
     1
1071
       24
1040
29.00452533579573
1040
35.28969683025585
1040
-0.1989123673796348
1040
28.18442432311826
1040
37.26959581757795
1040
0.0
1040
28.18442432311826
1040
39.8499998682887
1040
-0.4142135623730912
1040
29.23442432311821
1040
40.89999986828869
1040
0.0
1040
35.18442432311803
1040
40.89999986828869
1040
0.4142135623731546
1040
36.23442432311822
1040
41.94999986828867
1040
0.0
1040
36.23442432311822
1040
45.44999986828869
1040
0.4142135623731586
1040
35.18442432311803
1040
46.49999986828869
1040
0.0
1040
28.18442432311826
1040
46.49999986828869
1040
0.4142135623730928
1040
22.58442432311835
1040
40.89999986828874
1040
0.0
1040
22.58442432311835
1040
37.2695958175782
1040
0.1989123673796619
1040
25.04472736115122
1040
31.32989885561099
1040
0.0
1040
30.86432331044056
1040
25.51030290632168
1040
-0.1989123673796613
1040
31.68442432311826
1040
23.5304039189993
1040
0.0
1040
31.68442432311826
1040
20.94999986828867
1040
-0.4142135623730911
1040
30.6344243231183
1040
19.89999986828868
1040
0.0
1040
24.68442432311849
1040
19.89999986828868
1040
0.4142135623731526
1040
23.63442432311831
1040
18.84999986828871
1040
0.0
1040
23.63442432311831
1040
15.34999986828867
1040
0.4142135623731526
1040
24.68442432311849
1040
14.29999986828869
1040
0.0
1040
31.68442432311826
1040
14.29999986828869
1040
0.4142135623731044
1040
37.2844243231184
1040
19.89999986828864
1040
0.0
1040
37.2844243231184
1040
23.53040391899919
1040
0.1989123673796604
1040
34.82412128508531
1040
29.47010088096627
1040
0.0
1071
        0
1071
        7
1070
     1
1070
     1
1071
       16
1040
47.08442432311835
1040
38.0999998682887
1040
-0.4142135623730935
1040
49.88442432311831
1040
40.89999986828869
1040
0.0
1040
53.73442432311822
1040
40.89999986828869
1040
0.4142135623731546
1040
54.7844243231184
1040
41.94999986828867
1040
0.0
1040
54.7844243231184
1040
45.44999986828869
1040
0.4142135623730951
1040
53.73442432311844
1040
46.49999986828869
1040
0.0
1040
49.88442432311808
1040
46.49999986828861
1040
0.4142135623730892
1040
41.48442432311822
1040
38.09999986828856
1040
0.0
1040
41.48442432311822
1040
22.69999986828874
1040
0.4142135623730969
1040
49.88442432311831
1040
14.29999986828869
1040
0.0
1040
53.73442432311822
1040
14.29999986828869
1040
0.4142135623731526
1040
54.7844243231184
1040
15.34999986828867
1040
0.0
1040
54.7844243231184
1040
18.84999986828871
1040
0.4142135623730891
1040
53.73442432311844
1040
19.89999986828868
1040
0.0
1040
49.88442432311831
1040
19.89999986828868
1040
-0.4142135623730928
1040
47.08442432311835
1040
22.69999986828866
1040
0.0
1071
        0
1071
        7
1070
     1
1070
     1
1071
        2
1040
48.48442432311822
1040
30.39999986828869
1040
1.0
1040
55.48442432311822
1040
30.39999986828869
1040
1.0
1071
        0
1071
        7
1070
     1
1070
     1
1071
       26
1040
74.62971728747425
1040
38.41009425541554
1040
0.0
1040
76.75299655374988
1040
45.13381193195472
1040
0.5069206636600134
1040
75.75173475535916
1040
46.49999986828869
1040
0.0
1040
72.35395599614071
1040
46.49999986828869
1040
0.3272098845218764
1040
71.35269419774999
1040
45.76618780462263
1040
0.0
1040
67.61615444848644
1040
33.93381193195485
1040
-0.3272098845219541
1040
66.61489265009549
1040
33.19999986828868
1040
0.0
1040
66.33442432311858
1040
33.19999986828868
1040
-0.4142135623731526
1040
65.2844243231184
1040
34.24999986828866
1040
0.0
1040
65.2844243231184
1040
45.44999986828869
1040
0.4142135623730951
1040
64.23442432311844
1040
46.49999986828869
1040
0.0
1040
60.73442432311821
1040
46.49999986828869
1040
0.4142135623730871
1040
59.68442432311826
1040
45.44999986828872
1040
0.0
1040
59.68442432311826
1040
15.34999986828867
1040
0.4142135623730891
1040
60.73442432311821
1040
14.29999986828869
1040
0.0
1040
64.23442432311822
1040
14.29999986828869
1040
0.4142135623731526
1040
65.2844243231184
1040
15.34999986828867
1040
0.0
1040
65.2844243231184
1040
26.54999986828871
1040
-0.4142135623731526
1040
66.33442432311858
1040
27.59999986828869
1040
0.0
1040
66.61489265009572
1040
27.59999986828869
1040
-0.3272098845218915
1040
67.61615444848644
1040
26.86618780462254
1040
0.0
1040
71.35269419774999
1040
15.03381193195483
1040
0.3272098845218902
1040
72.35395599614071
1040
14.29999986828869
1040
0.0
1040
75.75173475535916
1040
14.29999986828869
1040
0.5069206636600335
1040
76.75299655374988
1040
15.6661878046227
1040
0.0
1040
72.10021379680256
1040
30.39999986828896
1040
0.0
1071
        0
1071
        7
1070
     1
1070
     1
1071
        8
1040
86.98442432311821
1040
45.44999986828871
1040
0.4142135623731546
1040
85.93442432311803
1040
46.49999986828869
1040
0.0
1040
82.4344243231185
1040
46.49999986828869
1040
0.4142135623731507
1040
81.38442432311832
1040
45.44999986828872
1040
0.0
1040
81.38442432311832
1040
15.34999986828867
1040
0.4142135623731526
1040
82.4344243231185
1040
14.29999986828869
1040
0.0
1040
85.93442432311803
1040
14.29999986828869
1040
0.4142135623731526
1040
86.98442432311821
1040
15.34999986828867
1040
0.0
1071
        0
1071
        7
1070
     1
1070
     1
1071
       24
1040
96.7844243231184
1040
39.8499998682887
1040
-0.4142135623731546
1040
97.83442432311858
1040
40.89999986828869
1040
0.0
1040
103.7844243231184
1040
40.89999986828869
1040
0.4142135623730911
1040
104.8344243231183
1040
41.94999986828867
1040
0.0
1040
104.8344243231183
1040
45.44999986828869
1040
0.4142135623730952
1040
103.7844243231184
1040
46.49999986828869
1040
0.0
1040
96.7844243231184
1040
46.49999986828869
1040
0.4142135623731048
1040
91.18442432311827
1040
40.89999986828874
1040
0.0
1040
91.18442432311827
1040
37.2695958175782
1040
0.1989123673796613
1040
93.64472736115136
1040
31.3298988556111
1040
0.0
1040
99.46432331044071
1040
25.51030290632176
1040
-0.1989123673796402
1040
100.2844243231183
1040
23.53040391899962
1040
0.0
1040
100.2844243231183
1040
20.94999986828867
1040
-0.4142135623730911
1040
99.23442432311844
1040
19.89999986828868
1040
0.0
1040
93.2844243231184
1040
19.89999986828868
1040
0.4142135623731526
1040
92.23442432311822
1040
18.84999986828871
1040
0.0
1040
92.23442432311822
1040
15.34999986828867
1040
0.4142135623730891
1040
93.28442432311817
1040
14.29999986828869
1040
0.0
1040
100.2844243231183
1040
14.29999986828869
1040
0.4142135623730925
1040
105.8844243231183
1040
19.89999986828864
1040
0.0
1040
105.8844243231183
1040
23.53040391899919
1040
0.1989123673796675
1040
103.4241212850852
1040
29.4701008809665
1040
0.0
1040
97.60452533579609
1040
35.28969683025553
1040
-0.1989123673796652
1040
96.7844243231184
1040
37.26959581757786
1040
0.0
1071
        0
1071
        7
1070
     1
1070
     1
1071
       16
1040
115.6844243231182
1040
45.44999986828867
1040
0.414213562373103
1040
114.6344243231183
1040
46.49999986828869
1040
0.0
1040
111.1344243231183
1040
46.49999986828869
1040
0.4142135623730871
1040
110.0844243231183
1040
45.44999986828872
1040
0.0
1040
110.0844243231183
1040
19.89999986828864
1040
0.4142135623730926
1040
115.6844243231182
1040
14.29999986828869
1040
0.0
1040
122.6844243231182
1040
14.29999986828869
1040
0.4142135623731044
1040
128.2844243231183
1040
19.89999986828864
1040
0.0
1040
128.2844243231183
1040
45.44999986828869
1040
0.4142135623730951
1040
127.2344243231184
1040
46.49999986828869
1040
0.0
1040
123.7344243231182
1040
46.49999986828869
1040
0.4142135623730871
1040
122.6844243231182
1040
45.44999986828872
1040
0.0
1040
122.6844243231182
1040
21.99999986828863
1040
-0.414213562373088
1040
120.5844243231183
1040
19.89999986828868
1040
0.0
1040
117.7844243231183
1040
19.89999986828868
1040
-0.4142135623731197
1040
115.6844243231182
1040
21.99999986828863
1040
0.0
1071
        0
1071
        7
1070
     1
1070
     1
1071
        8
1040
138.0844243231183
1040
45.44999986828872
1040
0.4142135623730871
1040
137.0344243231184
1040
46.49999986828869
1040
0.0
1040
133.5344243231183
1040
46.49999986828869
1040
0.4142135623731507
1040
132.4844243231182
1040
45.44999986828872
1040
0.0
1040
132.4844243231182
1040
15.34999986828867
1040
0.4142135623730891
1040
133.5344243231181
1040
14.29999986828869
1040
0.0
1040
137.0344243231184
1040
14.29999986828869
1040
0.4142135623730891
1040
138.0844243231183
1040
15.34999986828867
1040
0.0
1071
        0
1070
     0
1070
     1
1040
0.0
1040
0.4
1070
     0
1070
     2
1040
0.7853981633974483
1040
-1801.884608655802
1040
-26.40000013171118
1040
-0.8980256121069151
1040
0.8980256121069153
1070
     0
1040
2.356194490192344
1040
-1801.884608655802
1040
-26.40000013171118
1040
-0.8980256121069153
1040
-0.8980256121069151
1070
     0
1040
0.057451373970553
1071
        8
1040
32.15970993960263
1040
30.33434716005979
1040
0.0
1040
44.80903002643436
1040
37.6881242331907
1040
0.0
1040
50.32873578487533
1040
31.02376316043012
1040
0.0
1040
61.82811997683029
1040
32.40259516117169
1040
0.0
1040
83.67694405146949
1040
33.32181969625492
1040
0.0
1040
93.79640180381512
1040
38.8371525011031
1040
0.0
1040
113.1153719583567
1040
37.45831569847871
1040
0.0
1040
135.6541592528014
1040
38.37754023356194
1040
0.0
1002
}
  0
LINE
  5
15D8
330
19
100
AcDbEntity
  8
ZUWAKU
100
AcDbLine
 10
77.88442432311831
 20
74.49999986828861
 30
0.0
 11
81.73442432311821
 21
74.4999998682887
 31
0.0
  0
LINE
  5
15D9
330
19
100
AcDbEntity
  8
ZUWAKU
100
AcDbLine
 10
81.73442432311821
 20
68.89999986828868
 30
0.0
 11
77.88442432311831
 21
68.89999986828868
 31
0.0
  0
LINE
  5
15DA
330
19
100
AcDbEntity
  8
ZUWAKU
100
AcDbLine
 10
77.88442432311831
 20
47.89999986828869
 30
0.0
 11
81.73442432311821
 21
47.89999986828869
 31
0.0
  0
LINE
  5
15DB
330
19
100
AcDbEntity
  8
ZUWAKU
100
AcDbLine
 10
81.73442432311821
 20
42.29999986828869
 30
0.0
 11
77.88442432311831
 21
42.29999986828869
 31
0.0
  0
CIRCLE
  5
15DC
330
19
100
AcDbEntity
  8
ZUWAKU
100
AcDbCircle
 10
79.98442432311822
 20
58.39999986828869
 30
0.0
 40
3.5
  0
ARC
  5
15DD
330
19
100
AcDbEntity
  8
ZUWAKU
100
AcDbCircle
 10
58.98442432311822
 20
65.26959581757809
 30
0.0
 40
2.799999999999999
100
AcDbArc
 50
180.0000000000016
 51
224.9999999999988
  0
LINE
  5
15DE
330
19
100
AcDbEntity
  8
ZUWAKU
100
AcDbLine
 10
75.08442432311835
 20
66.09999986828869
 30
0.0
 11
75.08442432311835
 21
50.6999998682887
 31
0.0
  0
LINE
  5
15DF
330
19
100
AcDbEntity
  8
ZUWAKU
100
AcDbLine
 10
69.48442432311821
 20
50.6999998682887
 30
0.0
 11
69.48442432311821
 21
66.0999998682886
 31
0.0
  0
ARC
  5
15E0
330
19
100
AcDbEntity
  8
ZUWAKU
100
AcDbCircle
 10
58.98442432311822
 20
65.26959581757809
 30
0.0
 40
8.399999999999998
100
AcDbArc
 50
180.0
 51
225.0
  0
ARC
  5
15E1
330
19
100
AcDbEntity
  8
ZUWAKU
100
AcDbCircle
 10
59.68442432311826
 20
47.89999986828869
 30
0.0
 40
5.599999999999999
100
AcDbArc
 50
270.0
 51
0.0
  0
ARC
  5
15E2
330
19
100
AcDbEntity
  8
ZUWAKU
100
AcDbCircle
 10
77.88442432311831
 20
50.6999998682887
 30
0.0
 40
8.399999999999998
100
AcDbArc
 50
180.0
 51
270.0
  0
ARC
  5
15E3
330
19
100
AcDbEntity
  8
ZUWAKU
100
AcDbCircle
 10
56.8844243231183
 20
51.5304039189993
 30
0.0
 40
8.399999999999998
100
AcDbArc
 50
0.0
 51
45.0
  0
LINE
  5
15E4
330
19
100
AcDbEntity
  8
ZUWAKU
100
AcDbLine
 10
62.82412128508531
 20
57.47010088096634
 30
0.0
 11
57.00452533579596
 21
63.28969683025569
 31
0.0
  0
LINE
  5
15E5
330
19
100
AcDbEntity
  8
ZUWAKU
100
AcDbLine
 10
59.68442432311826
 20
48.9499998682887
 30
0.0
 11
59.68442432311826
 21
51.53040391899939
 31
0.0
  0
ARC
  5
15E6
330
19
100
AcDbEntity
  8
ZUWAKU
100
AcDbCircle
 10
58.63442432311831
 20
48.9499998682887
 30
0.0
 40
1.049999999999999
100
AcDbArc
 50
270.0
 51
0.0
  0
ARC
  5
15E7
330
19
100
AcDbEntity
  8
ZUWAKU
100
AcDbCircle
 10
56.8844243231183
 20
51.53040391899939
 30
0.0
 40
2.799999999999999
100
AcDbArc
 50
0.0
 51
45.0
  0
LINE
  5
15E8
330
19
100
AcDbEntity
  8
ZUWAKU
100
AcDbLine
 10
51.63442432311831
 20
43.34999986828869
 30
0.0
 11
51.63442432311831
 21
46.84999986828869
 31
0.0
  0
ARC
  5
15E9
330
19
100
AcDbEntity
  8
ZUWAKU
100
AcDbCircle
 10
52.68442432311826
 20
43.34999986828869
 30
0.0
 40
1.049999999999999
100
AcDbArc
 50
180.0
 51
270.0
  0
ARC
  5
15EA
330
19
100
AcDbEntity
  8
ZUWAKU
100
AcDbCircle
 10
52.68442432311826
 20
46.84999986828869
 30
0.0
 40
1.049999999999999
100
AcDbArc
 50
90.0
 51
180.0
  0
LINE
  5
15EB
330
19
100
AcDbEntity
  8
ZUWAKU
100
AcDbLine
 10
52.68442432311826
 20
42.29999986828869
 30
0.0
 11
59.68442432311826
 21
42.29999986828869
 31
0.0
  0
LINE
  5
15EC
330
19
100
AcDbEntity
  8
ZUWAKU
100
AcDbLine
 10
52.68442432311826
 20
47.89999986828869
 30
0.0
 11
58.63442432311831
 21
47.89999986828869
 31
0.0
  0
LINE
  5
15ED
330
19
100
AcDbEntity
  8
ZUWAKU
100
AcDbLine
 10
53.04472736115122
 20
59.32989885561105
 30
0.0
 11
58.86432331044057
 21
53.51030290632173
 31
0.0
  0
LINE
  5
15EE
330
19
100
AcDbEntity
  8
ZUWAKU
100
AcDbLine
 10
65.2844243231184
 20
47.89999986828869
 30
0.0
 11
65.2844243231184
 21
51.53040391899939
 31
0.0
  0
ARC
  5
15EF
330
19
100
AcDbEntity
  8
ZUWAKU
100
AcDbCircle
 10
77.88442432311831
 20
50.6999998682887
 30
0.0
 40
2.799999999999999
100
AcDbArc
 50
180.0
 51
270.0
  0
ARC
  5
15F0
330
19
100
AcDbEntity
  8
ZUWAKU
100
AcDbCircle
 10
63.18442432311826
 20
73.44999986828868
 30
0.0
 40
1.049999999999999
100
AcDbArc
 50
0.0
 51
90.0
  0
ARC
  5
15F1
330
19
100
AcDbEntity
  8
ZUWAKU
100
AcDbCircle
 10
63.18442432311826
 20
69.94999986828869
 30
0.0
 40
1.049999999999999
100
AcDbArc
 50
270.0
 51
0.0
  0
LINE
  5
15F2
330
19
100
AcDbEntity
  8
ZUWAKU
100
AcDbLine
 10
56.18442432311827
 20
74.4999998682887
 30
0.0
 11
63.18442432311826
 21
74.4999998682887
 31
0.0
  0
ARC
  5
15F3
330
19
100
AcDbEntity
  8
ZUWAKU
100
AcDbCircle
 10
57.23442432311822
 20
67.84999986828869
 30
0.0
 40
1.049999999999999
100
AcDbArc
 50
90.0
 51
180.0
  0
LINE
  5
15F4
330
19
100
AcDbEntity
  8
ZUWAKU
100
AcDbLine
 10
56.18442432311827
 20
67.84999986828869
 30
0.0
 11
56.18442432311827
 21
65.269595817578
 31
0.0
  0
LINE
  5
15F5
330
19
100
AcDbEntity
  8
ZUWAKU
100
AcDbLine
 10
63.18442432311826
 20
68.89999986828868
 30
0.0
 11
57.23442432311822
 21
68.89999986828868
 31
0.0
  0
LINE
  5
15F6
330
19
100
AcDbEntity
  8
ZUWAKU
100
AcDbLine
 10
50.58442432311835
 20
68.89999986828868
 30
0.0
 11
50.58442432311835
 21
65.269595817578
 31
0.0
  0
ARC
  5
15F7
330
19
100
AcDbEntity
  8
ZUWAKU
100
AcDbCircle
 10
56.18442432311827
 20
68.89999986828868
 30
0.0
 40
5.599999999999999
100
AcDbArc
 50
90.0
 51
180.0
  0
LINE
  5
15F8
330
19
100
AcDbEntity
  8
ZUWAKU
100
AcDbLine
 10
64.23442432311822
 20
73.44999986828868
 30
0.0
 11
64.23442432311822
 21
69.94999986828869
 31
0.0
  0
ARC
  5
15F9
330
19
100
AcDbEntity
  8
ZUWAKU
100
AcDbCircle
 10
77.88442432311831
 20
66.09999986828869
 30
0.0
 40
2.799999999999999
100
AcDbArc
 50
90.0
 51
180.0
  0
ARC
  5
15FA
330
19
100
AcDbEntity
  8
ZUWAKU
100
AcDbCircle
 10
77.88442432311831
 20
66.0999998682886
 30
0.0
 40
8.399999999999998
100
AcDbArc
 50
90.0
 51
180.0
  0
LINE
  5
15FB
330
19
100
AcDbEntity
  8
ZUWAKU
100
AcDbLine
 10
186.6532591095324
 20
87.99999986828868
 30
0.0
 11
186.6532591095328
 21
29.59999986828881
 31
0.0
  0
LINE
  5
15FC
330
19
100
AcDbEntity
  8
ZUWAKU
100
AcDbLine
 10
187.0532591095325
 20
87.99999986828868
 30
0.0
 11
187.0532591095329
 21
29.59999986828881
 31
0.0
  0
LINE
  5
15FD
330
19
100
AcDbEntity
  8
ZUWAKU
100
AcDbLine
 10
186.2532591095327
 20
87.99999986828868
 30
0.0
 11
186.2532591095327
 21
29.59999986828881
 31
0.0
  0
LINE
  5
15FE
330
19
100
AcDbEntity
  8
ZUWAKU
100
AcDbLine
 10
156.2844243231183
 20
47.89999986828869
 30
0.0
 11
156.2844243231183
 21
73.44999986828868
 31
0.0
  0
LINE
  5
15FF
330
19
100
AcDbEntity
  8
ZUWAKU
100
AcDbLine
 10
150.6844243231182
 20
73.44999986828868
 30
0.0
 11
150.6844243231182
 21
49.99999986828868
 31
0.0
  0
LINE
  5
1600
330
19
100
AcDbEntity
  8
ZUWAKU
100
AcDbLine
 10
166.0844243231183
 20
43.34999986828869
 30
0.0
 11
166.0844243231183
 21
73.44999986828868
 31
0.0
  0
LINE
  5
1601
330
19
100
AcDbEntity
  8
ZUWAKU
100
AcDbLine
 10
160.4844243231182
 20
73.44999986828868
 30
0.0
 11
160.4844243231182
 21
43.34999986828869
 31
0.0
  0
ARC
  5
1602
330
19
100
AcDbEntity
  8
ZUWAKU
100
AcDbCircle
 10
127.5844243231183
 20
65.26959581757809
 30
0.0
 40
2.799999999999999
100
AcDbArc
 50
180.0000000000016
 51
224.9999999999988
  0
ARC
  5
1603
330
19
100
AcDbEntity
  8
ZUWAKU
100
AcDbCircle
 10
127.5844243231183
 20
65.26959581757809
 30
0.0
 40
8.399999999999998
100
AcDbArc
 50
180.0
 51
225.0
  0
LINE
  5
1604
330
19
100
AcDbEntity
  8
ZUWAKU
100
AcDbLine
 10
102.6297172874742
 20
66.41009425541554
 30
0.0
 11
100.1002137968025
 21
58.39999986828873
 31
0.0
  0
LINE
  5
1605
330
19
100
AcDbEntity
  8
ZUWAKU
100
AcDbLine
 10
109.3844243231183
 20
73.44999986828868
 30
0.0
 11
109.3844243231183
 21
43.34999986828869
 31
0.0
  0
LINE
  5
1606
330
19
100
AcDbEntity
  8
ZUWAKU
100
AcDbLine
 10
114.9844243231182
 20
43.34999986828869
 30
0.0
 11
114.9844243231182
 21
73.44999986828868
 31
0.0
  0
LINE
  5
1607
330
19
100
AcDbEntity
  8
ZUWAKU
100
AcDbLine
 10
138.0844243231183
 20
73.44999986828868
 30
0.0
 11
138.0844243231183
 21
47.89999986828869
 31
0.0
  0
LINE
  5
1608
330
19
100
AcDbEntity
  8
ZUWAKU
100
AcDbLine
 10
143.6844243231182
 20
49.99999986828868
 30
0.0
 11
143.6844243231182
 21
73.44999986828868
 31
0.0
  0
LINE
  5
1609
330
19
100
AcDbEntity
  8
ZUWAKU
100
AcDbLine
 10
93.2844243231184
 20
62.24999986828869
 30
0.0
 11
93.2844243231184
 21
73.44999986828868
 31
0.0
  0
LINE
  5
160A
330
19
100
AcDbEntity
  8
ZUWAKU
100
AcDbLine
 10
87.68442432311827
 20
73.44999986828868
 30
0.0
 11
87.68442432311827
 21
43.34999986828869
 31
0.0
  0
LINE
  5
160B
330
19
100
AcDbEntity
  8
ZUWAKU
100
AcDbLine
 10
99.35269419775
 20
73.76618780462263
 30
0.0
 11
95.61615444848644
 21
61.93381193195475
 31
0.0
  0
LINE
  5
160C
330
19
100
AcDbEntity
  8
ZUWAKU
100
AcDbLine
 10
148.5844243231183
 20
47.89999986828869
 30
0.0
 11
145.7844243231184
 21
47.89999986828869
 31
0.0
  0
LINE
  5
160D
330
19
100
AcDbEntity
  8
ZUWAKU
100
AcDbLine
 10
143.6844243231182
 20
42.29999986828869
 30
0.0
 11
150.6844243231182
 21
42.29999986828869
 31
0.0
  0
LINE
  5
160E
330
19
100
AcDbEntity
  8
ZUWAKU
100
AcDbLine
 10
110.4344243231182
 20
42.29999986828869
 30
0.0
 11
113.9344243231182
 21
42.29999986828869
 31
0.0
  0
LINE
  5
160F
330
19
100
AcDbEntity
  8
ZUWAKU
100
AcDbLine
 10
99.35269419775
 20
43.03381193195474
 30
0.0
 11
95.61615444848644
 21
54.86618780462262
 31
0.0
  0
ARC
  5
1610
330
19
100
AcDbEntity
  8
ZUWAKU
100
AcDbCircle
 10
94.61489265009573
 20
62.24999986828869
 30
0.0
 40
1.049999999999999
100
AcDbArc
 50
270.0
 51
342.4744316262769
  0
LINE
  5
1611
330
19
100
AcDbEntity
  8
ZUWAKU
100
AcDbLine
 10
94.61489265009573
 20
61.19999986828869
 30
0.0
 11
94.33442432311835
 21
61.19999986828869
 31
0.0
  0
LINE
  5
1612
330
19
100
AcDbEntity
  8
ZUWAKU
100
AcDbLine
 10
94.33442432311835
 20
55.59999986828869
 30
0.0
 11
94.61489265009573
 21
55.59999986828869
 31
0.0
  0
ARC
  5
1613
330
19
100
AcDbEntity
  8
ZUWAKU
100
AcDbCircle
 10
94.33442432311835
 20
62.24999986828869
 30
0.0
 40
1.049999999999999
100
AcDbArc
 50
180.0
 51
270.0
  0
LINE
  5
1614
330
19
100
AcDbEntity
  8
ZUWAKU
100
AcDbLine
 10
88.73442432311822
 20
42.29999986828869
 30
0.0
 11
92.23442432311822
 21
42.29999986828869
 31
0.0
  0
ARC
  5
1615
330
19
100
AcDbEntity
  8
ZUWAKU
100
AcDbCircle
 10
92.23442432311822
 20
43.34999986828869
 30
0.0
 40
1.049999999999999
100
AcDbArc
 50
270.0
 51
0.0
  0
LINE
  5
1616
330
19
100
AcDbEntity
  8
ZUWAKU
100
AcDbLine
 10
93.2844243231184
 20
43.34999986828869
 30
0.0
 11
93.2844243231184
 21
54.5499998682887
 31
0.0
  0
LINE
  5
1617
330
19
100
AcDbEntity
  8
ZUWAKU
100
AcDbLine
 10
82.78442432311839
 20
46.84999986828869
 30
0.0
 11
82.78442432311839
 21
43.34999986828869
 31
0.0
  0
ARC
  5
1618
330
19
100
AcDbEntity
  8
ZUWAKU
100
AcDbCircle
 10
81.73442432311821
 20
43.34999986828869
 30
0.0
 40
1.049999999999999
100
AcDbArc
 50
270.0
 51
0.0
  0
ARC
  5
1619
330
19
100
AcDbEntity
  8
ZUWAKU
100
AcDbCircle
 10
81.73442432311821
 20
46.84999986828869
 30
0.0
 40
1.049999999999999
100
AcDbArc
 50
0.0
 51
90.0
  0
ARC
  5
161A
330
19
100
AcDbEntity
  8
ZUWAKU
100
AcDbCircle
 10
88.73442432311822
 20
43.34999986828869
 30
0.0
 40
1.049999999999999
100
AcDbArc
 50
180.0
 51
270.0
  0
ARC
  5
161B
330
19
100
AcDbEntity
  8
ZUWAKU
100
AcDbCircle
 10
94.61489265009573
 20
54.5499998682887
 30
0.0
 40
1.049999999999999
100
AcDbArc
 50
17.52556837372303
 51
90.0
  0
ARC
  5
161C
330
19
100
AcDbEntity
  8
ZUWAKU
100
AcDbCircle
 10
94.33442432311835
 20
54.5499998682887
 30
0.0
 40
1.049999999999999
100
AcDbArc
 50
90.0
 51
180.0
  0
ARC
  5
161D
330
19
100
AcDbEntity
  8
ZUWAKU
100
AcDbCircle
 10
110.4344243231182
 20
43.34999986828869
 30
0.0
 40
1.049999999999999
100
AcDbArc
 50
180.0
 51
270.0
  0
LINE
  5
161E
330
19
100
AcDbEntity
  8
ZUWAKU
100
AcDbLine
 10
100.3539559961409
 20
42.29999986828869
 30
0.0
 11
103.7517347553589
 21
42.29999986828869
 31
0.0
  0
ARC
  5
161F
330
19
100
AcDbEntity
  8
ZUWAKU
100
AcDbCircle
 10
103.7517347553589
 20
43.34999986828869
 30
0.0
 40
1.049999999999999
100
AcDbArc
 50
270.0
 51
17.52556837372303
  0
LINE
  5
1620
330
19
100
AcDbEntity
  8
ZUWAKU
100
AcDbLine
 10
104.7529965537498
 20
43.66618780462263
 30
0.0
 11
100.1002137968025
 21
58.39999986828873
 31
0.0
  0
ARC
  5
1621
330
19
100
AcDbEntity
  8
ZUWAKU
100
AcDbCircle
 10
100.3539559961409
 20
43.34999986828869
 30
0.0
 40
1.049999999999999
100
AcDbArc
 50
197.525568373723
 51
270.0
  0
ARC
  5
1622
330
19
100
AcDbEntity
  8
ZUWAKU
100
AcDbCircle
 10
143.6844243231182
 20
47.89999986828869
 30
0.0
 40
5.599999999999999
100
AcDbArc
 50
180.0
 51
270.0
  0
ARC
  5
1623
330
19
100
AcDbEntity
  8
ZUWAKU
100
AcDbCircle
 10
128.2844243231183
 20
47.89999986828869
 30
0.0
 40
5.599999999999999
100
AcDbArc
 50
270.0
 51
0.0
  0
LINE
  5
1624
330
19
100
AcDbEntity
  8
ZUWAKU
100
AcDbLine
 10
131.4241212850854
 20
57.47010088096634
 30
0.0
 11
125.6045253357958
 21
63.28969683025569
 31
0.0
  0
LINE
  5
1625
330
19
100
AcDbEntity
  8
ZUWAKU
100
AcDbLine
 10
128.2844243231183
 20
48.9499998682887
 30
0.0
 11
128.2844243231183
 21
51.53040391899939
 31
0.0
  0
ARC
  5
1626
330
19
100
AcDbEntity
  8
ZUWAKU
100
AcDbCircle
 10
125.4844243231182
 20
51.53040391899939
 30
0.0
 40
2.799999999999999
100
AcDbArc
 50
0.0
 51
45.0
  0
ARC
  5
1627
330
19
100
AcDbEntity
  8
ZUWAKU
100
AcDbCircle
 10
127.2344243231182
 20
48.9499998682887
 30
0.0
 40
1.049999999999999
100
AcDbArc
 50
270.0
 51
0.0
  0
LINE
  5
1628
330
19
100
AcDbEntity
  8
ZUWAKU
100
AcDbLine
 10
120.2344243231182
 20
43.34999986828869
 30
0.0
 11
120.2344243231182
 21
46.84999986828869
 31
0.0
  0
ARC
  5
1629
330
19
100
AcDbEntity
  8
ZUWAKU
100
AcDbCircle
 10
121.2844243231184
 20
43.34999986828869
 30
0.0
 40
1.049999999999999
100
AcDbArc
 50
180.0
 51
270.0
  0
ARC
  5
162A
330
19
100
AcDbEntity
  8
ZUWAKU
100
AcDbCircle
 10
113.9344243231182
 20
43.34999986828869
 30
0.0
 40
1.049999999999999
100
AcDbArc
 50
270.0
 51
0.0
  0
ARC
  5
162B
330
19
100
AcDbEntity
  8
ZUWAKU
100
AcDbCircle
 10
121.2844243231184
 20
46.84999986828869
 30
0.0
 40
1.049999999999999
100
AcDbArc
 50
90.0
 51
180.0
  0
LINE
  5
162C
330
19
100
AcDbEntity
  8
ZUWAKU
100
AcDbLine
 10
121.2844243231184
 20
47.89999986828869
 30
0.0
 11
127.2344243231182
 21
47.89999986828869
 31
0.0
  0
LINE
  5
162D
330
19
100
AcDbEntity
  8
ZUWAKU
100
AcDbLine
 10
121.2844243231184
 20
42.29999986828869
 30
0.0
 11
128.2844243231183
 21
42.29999986828869
 31
0.0
  0
LINE
  5
162E
330
19
100
AcDbEntity
  8
ZUWAKU
100
AcDbLine
 10
121.6447273611513
 20
59.32989885561105
 30
0.0
 11
127.4643233104407
 21
53.51030290632173
 31
0.0
  0
LINE
  5
162F
330
19
100
AcDbEntity
  8
ZUWAKU
100
AcDbLine
 10
133.8844243231183
 20
47.89999986828869
 30
0.0
 11
133.8844243231183
 21
51.53040391899939
 31
0.0
  0
ARC
  5
1630
330
19
100
AcDbEntity
  8
ZUWAKU
100
AcDbCircle
 10
125.4844243231182
 20
51.5304039189993
 30
0.0
 40
8.399999999999998
100
AcDbArc
 50
0.0
 51
45.0
  0
ARC
  5
1631
330
19
100
AcDbEntity
  8
ZUWAKU
100
AcDbCircle
 10
145.7844243231184
 20
49.99999986828868
 30
0.0
 40
2.099999999999999
100
AcDbArc
 50
180.0
 51
270.0
  0
ARC
  5
1632
330
19
100
AcDbEntity
  8
ZUWAKU
100
AcDbCircle
 10
150.6844243231182
 20
47.89999986828869
 30
0.0
 40
5.599999999999999
100
AcDbArc
 50
270.0
 51
0.0
  0
LINE
  5
1633
330
19
100
AcDbEntity
  8
ZUWAKU
100
AcDbLine
 10
161.5344243231183
 20
42.29999986828869
 30
0.0
 11
165.0344243231184
 21
42.29999986828869
 31
0.0
  0
ARC
  5
1634
330
19
100
AcDbEntity
  8
ZUWAKU
100
AcDbCircle
 10
161.5344243231183
 20
43.34999986828869
 30
0.0
 40
1.049999999999999
100
AcDbArc
 50
180.0
 51
270.0
  0
ARC
  5
1635
330
19
100
AcDbEntity
  8
ZUWAKU
100
AcDbCircle
 10
148.5844243231183
 20
49.99999986828868
 30
0.0
 40
2.099999999999999
100
AcDbArc
 50
270.0
 51
0.0
  0
ARC
  5
1636
330
19
100
AcDbEntity
  8
ZUWAKU
100
AcDbCircle
 10
165.0344243231184
 20
43.34999986828869
 30
0.0
 40
1.049999999999999
100
AcDbArc
 50
270.0
 51
0.0
  0
LINE
  5
1637
330
19
100
AcDbEntity
  8
ZUWAKU
100
AcDbLine
 10
113.9344243231182
 20
74.4999998682887
 30
0.0
 11
110.4344243231182
 21
74.4999998682887
 31
0.0
  0
ARC
  5
1638
330
19
100
AcDbEntity
  8
ZUWAKU
100
AcDbCircle
 10
92.23442432311822
 20
73.44999986828868
 30
0.0
 40
1.049999999999999
100
AcDbArc
 50
0.0
 51
90.0
  0
LINE
  5
1639
330
19
100
AcDbEntity
  8
ZUWAKU
100
AcDbLine
 10
92.23442432311822
 20
74.4999998682887
 30
0.0
 11
88.73442432311822
 21
74.4999998682887
 31
0.0
  0
ARC
  5
163A
330
19
100
AcDbEntity
  8
ZUWAKU
100
AcDbCircle
 10
81.73442432311821
 20
73.44999986828868
 30
0.0
 40
1.049999999999999
100
AcDbArc
 50
0.0
 51
90.0
  0
ARC
  5
163B
330
19
100
AcDbEntity
  8
ZUWAKU
100
AcDbCircle
 10
88.73442432311822
 20
73.44999986828868
 30
0.0
 40
1.049999999999999
100
AcDbArc
 50
90.0
 51
180.0
  0
ARC
  5
163C
330
19
100
AcDbEntity
  8
ZUWAKU
100
AcDbCircle
 10
81.73442432311821
 20
69.94999986828869
 30
0.0
 40
1.049999999999999
100
AcDbArc
 50
270.0
 51
0.0
  0
LINE
  5
163D
330
19
100
AcDbEntity
  8
ZUWAKU
100
AcDbLine
 10
82.78442432311839
 20
73.44999986828868
 30
0.0
 11
82.78442432311839
 21
69.94999986828869
 31
0.0
  0
ARC
  5
163E
330
19
100
AcDbEntity
  8
ZUWAKU
100
AcDbCircle
 10
110.4344243231182
 20
73.44999986828868
 30
0.0
 40
1.049999999999999
100
AcDbArc
 50
90.0
 51
180.0
  0
LINE
  5
163F
330
19
100
AcDbEntity
  8
ZUWAKU
100
AcDbLine
 10
100.3539559961409
 20
74.4999998682887
 30
0.0
 11
103.7517347553589
 21
74.4999998682887
 31
0.0
  0
ARC
  5
1640
330
19
100
AcDbEntity
  8
ZUWAKU
100
AcDbCircle
 10
103.7517347553589
 20
73.44999986828868
 30
0.0
 40
1.049999999999999
100
AcDbArc
 50
342.4744316262769
 51
90.0
  0
LINE
  5
1641
330
19
100
AcDbEntity
  8
ZUWAKU
100
AcDbLine
 10
104.7529965537498
 20
73.13381193195475
 30
0.0
 11
102.6297172874742
 21
66.41009425541554
 31
0.0
  0
ARC
  5
1642
330
19
100
AcDbEntity
  8
ZUWAKU
100
AcDbCircle
 10
100.3539559961409
 20
73.44999986828868
 30
0.0
 40
1.049999999999999
100
AcDbArc
 50
90.0
 51
162.4744316262769
  0
LINE
  5
1643
330
19
100
AcDbEntity
  8
ZUWAKU
100
AcDbLine
 10
124.7844243231184
 20
74.4999998682887
 30
0.0
 11
131.7844243231184
 21
74.4999998682887
 31
0.0
  0
LINE
  5
1644
330
19
100
AcDbEntity
  8
ZUWAKU
100
AcDbLine
 10
131.7844243231184
 20
68.89999986828868
 30
0.0
 11
125.8344243231183
 21
68.89999986828868
 31
0.0
  0
ARC
  5
1645
330
19
100
AcDbEntity
  8
ZUWAKU
100
AcDbCircle
 10
125.8344243231183
 20
67.84999986828869
 30
0.0
 40
1.049999999999999
100
AcDbArc
 50
90.0
 51
180.0
  0
LINE
  5
1646
330
19
100
AcDbEntity
  8
ZUWAKU
100
AcDbLine
 10
124.7844243231184
 20
67.84999986828869
 30
0.0
 11
124.7844243231184
 21
65.269595817578
 31
0.0
  0
ARC
  5
1647
330
19
100
AcDbEntity
  8
ZUWAKU
100
AcDbCircle
 10
113.9344243231182
 20
73.44999986828868
 30
0.0
 40
1.049999999999999
100
AcDbArc
 50
0.0
 51
90.0
  0
LINE
  5
1648
330
19
100
AcDbEntity
  8
ZUWAKU
100
AcDbLine
 10
119.1844243231182
 20
68.89999986828868
 30
0.0
 11
119.1844243231182
 21
65.269595817578
 31
0.0
  0
ARC
  5
1649
330
19
100
AcDbEntity
  8
ZUWAKU
100
AcDbCircle
 10
124.7844243231184
 20
68.89999986828868
 30
0.0
 40
5.599999999999999
100
AcDbArc
 50
90.0
 51
180.0
  0
ARC
  5
164A
330
19
100
AcDbEntity
  8
ZUWAKU
100
AcDbCircle
 10
142.6344243231183
 20
73.44999986828868
 30
0.0
 40
1.049999999999999
100
AcDbArc
 50
0.0
 51
90.0
  0
ARC
  5
164B
330
19
100
AcDbEntity
  8
ZUWAKU
100
AcDbCircle
 10
139.1344243231183
 20
73.44999986828868
 30
0.0
 40
1.049999999999999
100
AcDbArc
 50
90.0
 51
180.0
  0
LINE
  5
164C
330
19
100
AcDbEntity
  8
ZUWAKU
100
AcDbLine
 10
142.6344243231183
 20
74.4999998682887
 30
0.0
 11
139.1344243231183
 21
74.4999998682887
 31
0.0
  0
ARC
  5
164D
330
19
100
AcDbEntity
  8
ZUWAKU
100
AcDbCircle
 10
131.7844243231184
 20
73.44999986828868
 30
0.0
 40
1.049999999999999
100
AcDbArc
 50
0.0
 51
90.0
  0
ARC
  5
164E
330
19
100
AcDbEntity
  8
ZUWAKU
100
AcDbCircle
 10
131.7844243231184
 20
69.94999986828869
 30
0.0
 40
1.049999999999999
100
AcDbArc
 50
270.0
 51
0.0
  0
LINE
  5
164F
330
19
100
AcDbEntity
  8
ZUWAKU
100
AcDbLine
 10
132.8344243231183
 20
73.44999986828868
 30
0.0
 11
132.8344243231183
 21
69.94999986828869
 31
0.0
  0
LINE
  5
1650
330
19
100
AcDbEntity
  8
ZUWAKU
100
AcDbLine
 10
165.0344243231184
 20
74.4999998682887
 30
0.0
 11
161.5344243231183
 21
74.4999998682887
 31
0.0
  0
ARC
  5
1651
330
19
100
AcDbEntity
  8
ZUWAKU
100
AcDbCircle
 10
161.5344243231183
 20
73.44999986828868
 30
0.0
 40
1.049999999999999
100
AcDbArc
 50
90.0
 51
180.0
  0
ARC
  5
1652
330
19
100
AcDbEntity
  8
ZUWAKU
100
AcDbCircle
 10
155.2344243231182
 20
73.44999986828868
 30
0.0
 40
1.049999999999999
100
AcDbArc
 50
0.0
 51
90.0
  0
LINE
  5
1653
330
19
100
AcDbEntity
  8
ZUWAKU
100
AcDbLine
 10
155.2344243231182
 20
74.4999998682887
 30
0.0
 11
151.7344243231182
 21
74.4999998682887
 31
0.0
  0
ARC
  5
1654
330
19
100
AcDbEntity
  8
ZUWAKU
100
AcDbCircle
 10
151.7344243231182
 20
73.44999986828868
 30
0.0
 40
1.049999999999999
100
AcDbArc
 50
90.0
 51
180.0
  0
ARC
  5
1655
330
19
100
AcDbEntity
  8
ZUWAKU
100
AcDbCircle
 10
165.0344243231184
 20
73.44999986828868
 30
0.0
 40
1.049999999999999
100
AcDbArc
 50
0.0
 51
90.0
  0
TEXT
  5
1656
330
19
100
AcDbEntity
  8
MOJI
100
AcDbText
 10
507.6544053752582
 20
64.00984198310346
 30
0.0
 40
11.19999999999999
  1
自在ドレン　丸型
 41
0.9
  7
ｽﾀｲﾙ1
100
AcDbText
  0
TEXT
  5
1657
330
19
100
AcDbEntity
  8
MOJI
100
AcDbText
 10
507.6544053752582
 20
34.40984198310352
 30
0.0
 40
11.19999999999999
  1
ＶＵ・ＶＰ２００
 41
0.9
  7
ｽﾀｲﾙ1
100
AcDbText
  0
LINE
  5
1658
330
19
100
AcDbEntity
  8
ZUWAKU
100
AcDbLine
 10
444.4932025936918
 20
87.99999986828868
 30
0.0
 11
444.4932025936918
 21
29.59999986828881
 31
0.0
  0
LINE
  5
1659
330
19
100
AcDbEntity
  8
ZUWAKU
100
AcDbLine
 10
445.2932025936916
 20
87.99999986828868
 30
0.0
 11
445.293202593692
 21
29.59999986828881
 31
0.0
  0
LINE
  5
165A
330
19
100
AcDbEntity
  8
ZUWAKU
100
AcDbLine
 10
444.8932025936914
 20
87.99999986828868
 30
0.0
 11
444.8932025936919
 21
29.59999986828881
 31
0.0
  0
TEXT
  5
165B
330
19
100
AcDbEntity
  8
ZUWAKU
100
AcDbText
 10
447.4480926381111
 20
47.31071294505992
 30
0.0
 40
8.0
  1
サイズ
 41
0.9
  7
ｽﾀｲﾙ1
100
AcDbText
  0
TEXT
  5
165C
330
19
100
AcDbEntity
  8
ZUWAKU
100
AcDbText
 10
447.4480926381106
 20
76.11071294505984
 30
0.0
 40
8.0
  1
品名
 41
0.9
  7
ｽﾀｲﾙ1
100
AcDbText
  0
LINE
  5
165D
330
19
100
AcDbEntity
  8
ZUWAKU
100
AcDbLine
 10
1325.634405033964
 20
58.39999986828875
 30
0.0
 11
1422.498021110638
 21
58.39999986828875
 31
0.0
  0
LINE
  5
165E
330
19
100
AcDbEntity
  8
ZUWAKU
100
AcDbLine
 10
1325.634405033965
 20
58.79999986828876
 30
0.0
 11
1422.498021110638
 21
58.79999986828875
 31
0.0
  0
LINE
  5
165F
330
19
100
AcDbEntity
  8
ZUWAKU
100
AcDbLine
 10
1325.634405033964
 20
59.19999986828875
 30
0.0
 11
1422.498021110638
 21
59.19999986828875
 31
0.0
  0
TEXT
  5
1660
330
19
100
AcDbEntity
  8
ZUWAKU
100
AcDbText
 10
1344.40787538816
 20
64.00984198310346
 30
0.0
 40
11.19999999999999
  1
　　．　　．　　
 41
0.9
  7
ｽﾀｲﾙ1
100
AcDbText
  0
LINE
  5
1661
330
19
100
AcDbEntity
  8
ZUWAKU
100
AcDbLine
 10
1038.398359009837
 20
58.39999986828876
 30
0.0
 11
1133.05391154578
 21
58.39999986828876
 31
0.0
  0
LINE
  5
1662
330
19
100
AcDbEntity
  8
ZUWAKU
100
AcDbLine
 10
1038.398359009837
 20
58.79999986828875
 30
0.0
 11
1133.05391154578
 21
58.79999986828875
 31
0.0
  0
LINE
  5
1663
330
19
100
AcDbEntity
  8
ZUWAKU
100
AcDbLine
 10
1038.398359009837
 20
59.19999986828875
 30
0.0
 11
1133.05391154578
 21
59.19999986828875
 31
0.0
  0
LINE
  5
1665
330
19
100
AcDbEntity
  8
ZUWAKU
100
AcDbLine
 10
923.2487279555384
 20
87.99999986828868
 30
0.0
 11
923.2487279555389
 21
29.59999986828881
 31
0.0
  0
LINE
  5
1666
330
19
100
AcDbEntity
  8
ZUWAKU
100
AcDbLine
 10
923.6487279555385
 20
87.99999986828868
 30
0.0
 11
923.648727955539
 21
29.59999986828881
 31
0.0
  0
LINE
  5
1667
330
19
100
AcDbEntity
  8
ZUWAKU
100
AcDbLine
 10
922.8487279555388
 20
87.99999986828868
 30
0.0
 11
922.8487279555388
 21
29.59999986828881
 31
0.0
  0
TEXT
  5
1668
330
19
100
AcDbEntity
  8
MOJI
100
AcDbText
 10
1084.081815958181
 20
64.00984198310346
 30
0.0
 40
11.19999999999999
  1
Ａ３
 41
0.9
  7
ｽﾀｲﾙ1
100
AcDbText
  0
LINE
  5
1669
330
19
100
AcDbEntity
  8
ZUWAKU
100
AcDbLine
 10
1037.998359009837
 20
87.99999986828868
 30
0.0
 11
1037.998359009838
 21
29.59999986828881
 31
0.0
  0
LINE
  5
166A
330
19
100
AcDbEntity
  8
ZUWAKU
100
AcDbLine
 10
1038.398359009837
 20
87.99999986828868
 30
0.0
 11
1038.398359009838
 21
29.59999986828881
 31
0.0
  0
LINE
  5
166B
330
19
100
AcDbEntity
  8
ZUWAKU
100
AcDbLine
 10
1037.598359009838
 20
87.99999986828868
 30
0.0
 11
1037.598359009838
 21
29.59999986828881
 31
0.0
  0
TEXT
  5
166C
330
19
100
AcDbEntity
  8
ZUWAKU
100
AcDbText
 10
956.2362869336515
 20
33.22814169056766
 30
0.0
 40
6.0
  1
□には色品番が入ります
 41
0.9
  7
ｽﾀｲﾙ1
100
AcDbText
  0
TEXT
  5
166D
330
19
100
AcDbEntity
  8
ZUWAKU
100
AcDbText
 10
1041.353249054257
 20
47.31071294505992
 30
0.0
 40
8.0
  1
縮尺
 41
0.9
  7
ｽﾀｲﾙ1
100
AcDbText
  0
TEXT
  5
166E
330
19
100
AcDbEntity
  8
MOJI
100
AcDbText
 10
1084.081815958181
 20
34.40984198310352
 30
0.0
 40
11.19999999999999
  1
１/４
 41
0.9
  7
ｽﾀｲﾙ1
100
AcDbText
  0
TEXT
  5
166F
330
19
100
AcDbEntity
  8
ZUWAKU
100
AcDbText
 10
926.6036179999577
 20
76.11071294505984
 30
0.0
 40
8.0
  1
品番
 41
0.9
  7
ｽﾀｲﾙ1
100
AcDbText
  0
TEXT
  5
1670
330
19
100
AcDbEntity
  8
ZUWAKU
100
AcDbText
 10
1041.353249054256
 20
76.11071294505984
 30
0.0
 40
8.0
  1
用紙
 41
0.9
  7
ｽﾀｲﾙ1
100
AcDbText
  0
LINE
  5
1671
330
19
100
AcDbEntity
  8
ZUWAKU
100
AcDbLine
 10
1325.234405033964
 20
87.99999986828868
 30
0.0
 11
1325.234405033965
 21
29.59999986828881
 31
0.0
  0
LINE
  5
1672
330
19
100
AcDbEntity
  8
ZUWAKU
100
AcDbLine
 10
1325.634405033965
 20
87.99999986828868
 30
0.0
 11
1325.634405033965
 21
29.59999986828881
 31
0.0
  0
LINE
  5
1673
330
19
100
AcDbEntity
  8
ZUWAKU
100
AcDbLine
 10
1324.834405033965
 20
87.99999986828868
 30
0.0
 11
1324.834405033965
 21
29.59999986828881
 31
0.0
  0
LINE
  5
1674
330
19
100
AcDbEntity
  8
ZUWAKU
100
AcDbLine
 10
1133.45391154578
 20
87.99999986828868
 30
0.0
 11
1133.453911545781
 21
29.59999986828881
 31
0.0
  0
LINE
  5
1675
330
19
100
AcDbEntity
  8
ZUWAKU
100
AcDbLine
 10
1133.85391154578
 20
87.99999986828868
 30
0.0
 11
1133.853911545781
 21
29.59999986828881
 31
0.0
  0
LINE
  5
1676
330
19
100
AcDbEntity
  8
ZUWAKU
100
AcDbLine
 10
1133.05391154578
 20
87.99999986828868
 30
0.0
 11
1133.05391154578
 21
29.59999986828881
 31
0.0
  0
TEXT
  5
1677
330
19
100
AcDbEntity
  8
ZUWAKU
100
AcDbText
 10
1328.589295078384
 20
76.11071294505984
 30
0.0
 40
8.0
  1
DATE
 41
0.9
  7
ｽﾀｲﾙ1
100
AcDbText
  0
LINE
  5
1678
330
19
100
AcDbEntity
  8
ZUWAKU
100
AcDbLine
 10
1422.498021110638
 20
87.99999986828868
 30
0.0
 11
1422.498021110638
 21
29.59999986828881
 31
0.0
  0
LINE
  5
1679
330
19
100
AcDbEntity
  8
ZUWAKU
100
AcDbLine
 10
1422.898021110638
 20
87.99999986828868
 30
0.0
 11
1422.898021110638
 21
29.59999986828881
 31
0.0
  0
LINE
  5
167A
330
19
100
AcDbEntity
  8
ZUWAKU
100
AcDbLine
 10
1423.298021110638
 20
87.99999986828868
 30
0.0
 11
1423.298021110638
 21
29.59999986828881
 31
0.0
  0
LINE
  5
167B
330
19
100
AcDbEntity
  8
ZUWAKU
100
AcDbLine
 10
1423.698021110638
 20
87.99999986828868
 30
0.0
 11
1423.698021110638
 21
29.59999986828881
 31
0.0
  0
TEXT
  5
167C
330
19
100
AcDbEntity
  8
ZUWAKU
100
AcDbText
 10
1445.056168398043
 20
63.10767853966229
 30
0.0
 40
12.0
  1
積水化学工業株式会社
 41
0.9
  7
ｽﾀｲﾙ1
100
AcDbText
  0
TEXT
  5
167D
330
19
100
AcDbEntity
  8
ZUWAKU
100
AcDbText
 10
1445.056168398043
 20
41.29768049599682
 30
0.0
 40
12.0
  1
建材事業部
 41
0.9
  7
ｽﾀｲﾙ1
100
AcDbText
  0
LINE
  5
382C
330
19
100
AcDbEntity
  8
CENTER_L
 48
5.0
100
AcDbLine
 10
353.6709138491
 20
501.223115437406
 30
0.0
 11
353.6709138491
 21
337.248688830662
 31
0.0
  0
LINE
  5
382D
330
19
100
AcDbEntity
  8
SEIHIN
  6
CONTINUOUS
100
AcDbLine
 10
241.8709138490999
 20
488.0624488475602
 30
0.0
 11
241.8709138490999
 21
344.0624488475601
 31
0.0
  0
DIMENSION
  5
382F
330
19
100
AcDbEntity
  8
SUNPOU
100
AcDbDimension
  2
*D1
 10
465.4709138490993
 20
285.3693771353245
 30
0.0
 11
353.6709138490996
 21
293.3693771353246
 31
0.0
 70
    32
  1
φ<>
  3
STANDARD
100
AcDbAlignedDimension
 13
241.8709138490999
 23
344.0624488475601
 33
0.0
 14
465.4709138490993
 24
344.0624488475601
 34
0.0
 50
0.0000008537736463
100
AcDbRotatedDimension
1001
ACAD
1000
DSTYLE
1002
{
1070
    41
1040
12.0
1070
    42
1040
5.0
1070
    43
1040
28.0
1070
    44
1040
5.0
1070
    73
1070
     0
1070
    74
1070
     0
1070
    77
1070
     3
1070
   140
1040
8.0
1070
   141
1040
3.0
1070
   143
1040
0.03937
1070
   147
1040
4.0
1070
   172
1070
     1
1070
   173
1070
     1
1070
   176
1070
   256
1070
   177
1070
   256
1070
   178
1070
   256
1070
   271
1070
     0
1070
   272
1070
     0
1070
   341
1005
27
1070
     6
1000
OPEN
1070
     7
1000
OPEN
1070
   371
1070
    -1
1070
   372
1070
    -1
1002
}
  0
LINE
  5
3830
330
19
100
AcDbEntity
  8
SEIHIN
  6
CONTINUOUS
100
AcDbLine
 10
336.6709138491001
 20
344.0624488475601
 30
0.0
 11
241.8709138490999
 21
344.0624488475601
 31
0.0
  0
LINE
  5
3832
330
19
100
AcDbEntity
  8
SEIHIN
  6
CONTINUOUS
100
AcDbLine
 10
340.6709138491001
 20
354.0624488475601
 30
0.0
 11
353.6709138490991
 21
354.0624488475601
 31
0.0
  0
ARC
  5
3833
330
19
100
AcDbEntity
  8
SEIHIN
  6
CONTINUOUS
100
AcDbCircle
 10
340.6709138491001
 20
352.0624488475601
 30
0.0
 40
2.0
100
AcDbArc
 50
90.0
 51
180.0
  0
ARC
  5
3834
330
19
100
AcDbEntity
  8
SEIHIN
  6
CONTINUOUS
100
AcDbCircle
 10
336.6709138491001
 20
346.0624488475601
 30
0.0
 40
2.0
100
AcDbArc
 50
270.0
 51
0.0
  0
LINE
  5
3835
330
19
100
AcDbEntity
  8
SEIHIN
  6
CONTINUOUS
100
AcDbLine
 10
338.6709138491001
 20
352.0624488475601
 30
0.0
 11
338.6709138491001
 21
346.0624488475601
 31
0.0
  0
ARC
  5
3844
330
19
100
AcDbEntity
  8
SEIHIN
  6
CONTINUOUS
100
AcDbCircle
 10
353.6709138491
 20
811.5679291562027
 30
0.0
 40
89.3349912844811
100
AcDbArc
 50
175.0000638918233
 51
245.0000271049713
  0
ARC
  5
3845
330
19
100
AcDbEntity
  8
SEIHIN
  6
CONTINUOUS
100
AcDbCircle
 10
353.6709138491
 20
811.5679291562027
 30
0.0
 40
89.33509063078872
100
AcDbArc
 50
294.9999728950286
 51
4.9999361081767
  0
CIRCLE
  5
3846
330
19
100
AcDbEntity
  8
SEIHIN
  6
CONTINUOUS
100
AcDbCircle
 10
353.6709138491
 20
811.5679291562027
 30
0.0
 40
132.0000000000378
  0
CIRCLE
  5
3847
330
19
100
AcDbEntity
  8
SEIHIN
  6
CONTINUOUS
100
AcDbCircle
 10
353.6709138491
 20
811.5679291562027
 30
0.0
 40
108.5857864376727
  0
CIRCLE
  5
3848
330
19
100
AcDbEntity
  8
SEIHIN
  6
CONTINUOUS
100
AcDbCircle
 10
353.6709138491
 20
811.5679291562027
 30
0.0
 40
91.50000000005466
  0
CIRCLE
  5
3849
330
19
100
AcDbEntity
  8
SEIHIN
  6
CONTINUOUS
100
AcDbCircle
 10
353.6709138491
 20
811.5679291562027
 30
0.0
 40
111.8284271247909
  0
CIRCLE
  5
384A
330
19
100
AcDbEntity
  8
SEIHIN
  6
CONTINUOUS
100
AcDbCircle
 10
353.6709138491
 20
811.5679291562027
 30
0.0
 40
126.0000000000397
  0
LINE
  5
384B
330
19
100
AcDbEntity
  8
CENTER_L
 48
5.0
100
AcDbLine
 10
353.6705683945542
 20
659.5679291565574
 30
0.0
 11
353.671259303645
 21
963.5679291558481
 31
0.0
  0
DIMENSION
  5
384C
330
19
100
AcDbEntity
  8
SUNPOU
100
AcDbDimension
  2
*D2
 10
485.6709138491001
 20
553.7497261452331
 30
0.0
 11
353.6709138491
 21
561.7497261452331
 31
0.0
 70
    32
  1
φ<>
  3
STANDARD
100
AcDbAlignedDimension
 13
221.6709138491001
 23
495.0624488475601
 33
0.0
 14
485.6709138491001
 24
495.0624488475601
 34
0.0
100
AcDbRotatedDimension
1001
ACAD
1000
DSTYLE
1002
{
1070
    41
1040
12.0
1070
    42
1040
5.0
1070
    43
1040
28.0
1070
    44
1040
5.0
1070
    73
1070
     0
1070
    74
1070
     0
1070
    77
1070
     3
1070
   140
1040
8.0
1070
   141
1040
3.0
1070
   143
1040
0.03937
1070
   147
1040
4.0
1070
   172
1070
     1
1070
   173
1070
     1
1070
   176
1070
   256
1070
   177
1070
   256
1070
   178
1070
   256
1070
   271
1070
     0
1070
   272
1070
     0
1070
   341
1005
27
1070
     6
1000
OPEN
1070
     7
1000
OPEN
1070
   371
1070
    -1
1070
   372
1070
    -1
1002
}
  0
LINE
  5
384D
330
19
100
AcDbEntity
  8
SEIHIN
  6
CONTINUOUS
100
AcDbLine
 10
353.6709138490991
 20
495.0624488475601
 30
0.0
 11
221.6709138491001
 21
495.0624488475601
 31
0.0
  0
LINE
  5
384E
330
19
100
AcDbEntity
  8
SEIHIN
  6
CONTINUOUS
100
AcDbLine
 10
353.6709138491
 20
492.5096624430601
 30
0.0
 11
222.7764866580996
 21
492.5096624430601
 31
0.0
  0
LINE
  5
384F
330
19
100
AcDbEntity
  8
SEIHIN
  6
CONTINUOUS
100
AcDbLine
 10
353.6709138491
 20
490.0624488475601
 30
0.0
 11
227.6709138491
 21
490.0624488475601
 31
0.0
  0
LINE
  5
3850
330
19
100
AcDbEntity
  8
CENTER_L
 48
5.0
100
AcDbLine
 10
201.6709138494547
 20
811.5682746107484
 30
0.0
 11
505.6709138487454
 21
811.5675837016569
 31
0.0
  0
ARC
  5
3851
330
19
100
AcDbEntity
  8
SEIHIN
  6
CONTINUOUS
100
AcDbCircle
 10
223.6709138491
 20
494.2985168250603
 30
0.0
 40
2.0
100
AcDbArc
 50
180.0
 51
243.434948822879
  0
LINE
  5
3852
330
19
100
AcDbEntity
  8
SEIHIN
  6
CONTINUOUS
100
AcDbLine
 10
222.7764866580996
 20
492.5096624430601
 30
0.0
 11
227.6709138491
 21
490.0624488475601
 31
0.0
  0
ARC
  5
3853
330
19
100
AcDbEntity
  8
SEIHIN
  6
CONTINUOUS
100
AcDbCircle
 10
239.8709138490999
 20
488.0624488475602
 30
0.0
 40
2.0
100
AcDbArc
 50
0.0
 51
90.0
  0
LINE
  5
3854
330
19
100
AcDbEntity
  8
SEIHIN
  6
CONTINUOUS
100
AcDbLine
 10
221.6709138491001
 20
495.0624488475601
 30
0.0
 11
221.6709138491001
 21
494.2985168250603
 31
0.0
  0
LINE
  5
385C
330
19
100
AcDbEntity
  8
SEIHIN
  6
CONTINUOUS
100
AcDbLine
 10
315.9163114364941
 20
730.6028230012834
 30
0.0
 11
315.0013428998259
 21
728.6406666423492
 31
0.0
  0
LINE
  5
385D
330
19
100
AcDbEntity
  8
SEIHIN
  6
CONTINUOUS
100
AcDbLine
 10
391.425516261705
 20
730.6028230012834
 30
0.0
 11
392.3404847983734
 21
728.640666642349
 31
0.0
  0
ARC
  5
385E
330
19
100
AcDbEntity
  8
SEIHIN
  6
CONTINUOUS
100
AcDbCircle
 10
353.6709138491
 20
811.5679291562027
 30
0.0
 40
89.33491808481425
100
AcDbArc
 50
54.99996321314713
 51
125.0000367868528
  0
LINE
  5
385F
330
19
100
AcDbEntity
  8
SEIHIN
  6
CONTINUOUS
100
AcDbLine
 10
264.6758604950741
 20
819.353887434565
 30
0.0
 11
262.5190989737052
 21
819.5425796176136
 31
0.0
  0
LINE
  5
3860
330
19
100
AcDbEntity
  8
SEIHIN
  6
CONTINUOUS
100
AcDbLine
 10
302.4304629076791
 20
884.74677703276
 30
0.0
 11
301.1886699229794
 21
886.5202412086457
 31
0.0
  0
LINE
  5
3861
330
19
100
AcDbEntity
  8
SEIHIN
  6
CONTINUOUS
100
AcDbLine
 10
404.911364790521
 20
884.74677703276
 30
0.0
 11
406.1531577752207
 21
886.5202412086457
 31
0.0
  0
LINE
  5
3862
330
19
100
AcDbEntity
  8
SEIHIN
  6
CONTINUOUS
100
AcDbLine
 10
442.6659672031259
 20
819.353887434565
 30
0.0
 11
444.8227287244949
 21
819.5425796176136
 31
0.0
  0
ARC
  5
49F4
330
19
100
AcDbEntity
  8
SEIHIN
  6
CONTINUOUS
100
AcDbCircle
 10
898.894660642156
 20
441.7797146364484
 30
0.0
 40
1.000000000000126
100
AcDbArc
 50
0.0000066806459009
 51
40.01161020451315
  0
ARC
  5
49F5
330
19
100
AcDbEntity
  8
SEIHIN
  6
CONTINUOUS
100
AcDbCircle
 10
901.9553224227403
 20
442.87862744196
 30
0.0
 40
6.0
100
AcDbArc
 50
0.0
 51
40.00000000000197
  0
LINE
  5
49F6
330
19
100
AcDbEntity
  8
SEIHIN
  6
CONTINUOUS
100
AcDbLine
 10
906.5515890814429
 20
446.7353531000563
 30
0.0
 11
866.8995512188402
 21
493.9908116766601
 31
0.0
  0
LINE
  5
49F7
330
19
100
AcDbEntity
  8
SEIHIN
  6
CONTINUOUS
100
AcDbLine
 10
864.5019802222396
 20
495.0624488475601
 30
0.0
 11
864.6014178894402
 21
495.0624488475601
 31
0.0
  0
LINE
  5
49F8
330
19
100
AcDbEntity
  8
SEIHIN
  6
CONTINUOUS
100
AcDbLine
 10
864.5019802222396
 20
495.0624488475601
 30
0.0
 11
864.5002754550397
 21
495.0585680309601
 31
0.0
  0
ARC
  5
49F9
330
19
100
AcDbEntity
  8
SEIHIN
  6
CONTINUOUS
100
AcDbCircle
 10
860.7683743523402
 20
484.0400899043599
 30
0.0
 40
3.022359699622456
100
AcDbArc
 50
40.19793981189712
 51
90.06200263680097
  0
LINE
  5
49FC
330
19
100
AcDbEntity
  8
SEIHIN
  6
CONTINUOUS
100
AcDbLine
 10
830.9553224226728
 20
487.0624488475601
 30
0.0
 11
830.955322422673
 21
487.0624488475601
 31
0.0
  0
LINE
  5
49FD
330
19
100
AcDbEntity
  8
SEIHIN
  6
CONTINUOUS
100
AcDbLine
 10
802.9556307746082
 20
495.0624488475602
 30
0.0
 11
864.5019802222396
 21
495.0624488475601
 31
0.0
  0
LINE
  5
4A06
330
19
100
AcDbEntity
  8
SEIHIN
  6
CONTINUOUS
100
AcDbLine
 10
810.4553222551006
 20
487.0624488475601
 30
0.0
 11
810.4553222551652
 21
418.562448847563
 31
0.0
  0
LINE
  5
4A07
330
19
100
AcDbEntity
  8
SEIHIN
  6
CONTINUOUS
100
AcDbLine
 10
795.4672271846402
 20
495.0624488475601
 30
0.0
 11
799.4553224227402
 21
495.0624488475601
 31
0.0
  0
LINE
  5
4A08
330
19
100
AcDbEntity
  8
SEIHIN
  6
CONTINUOUS
100
AcDbLine
 10
795.4553225904401
 20
488.56195913576
 30
0.0
 11
795.4553224227402
 21
491.0624488475601
 31
0.0
  0
ARC
  5
4A09
330
19
100
AcDbEntity
  8
SEIHIN
  6
CONTINUOUS
100
AcDbCircle
 10
799.4553124180401
 20
491.0624579475599
 30
0.0
 40
3.999989827667641
100
AcDbArc
 50
92.52394884970069
 51
180.0001354705948
  0
LINE
  5
4A0A
330
19
100
AcDbEntity
  8
SEIHIN
  6
CONTINUOUS
100
AcDbLine
 10
761.8244337866399
 20
495.0624488475601
 30
0.0
 11
766.7209681480398
 21
495.0624488475601
 31
0.0
  0
LINE
  5
4A0B
330
19
100
AcDbEntity
  8
SEIHIN
  6
CONTINUOUS
100
AcDbLine
 10
766.7209681480398
 20
487.0624488475601
 30
0.0
 11
761.8244337866399
 21
487.0624488475601
 31
0.0
  0
LINE
  5
4A0C
330
19
100
AcDbEntity
  8
SEIHIN
  6
CONTINUOUS
100
AcDbLine
 10
741.3092269561403
 20
495.0624488475601
 30
0.0
 11
741.40866462334
 21
495.0624488475601
 31
0.0
  0
LINE
  5
4A0D
330
19
100
AcDbEntity
  8
SEIHIN
  6
CONTINUOUS
100
AcDbLine
 10
741.40866462334
 20
495.0624488475601
 30
0.0
 11
741.4103693905399
 21
495.0585680309601
 31
0.0
  0
ARC
  5
4A0E
330
19
100
AcDbEntity
  8
SEIHIN
  6
CONTINUOUS
100
AcDbCircle
 10
741.3092269561403
 20
492.0624488475602
 30
0.0
 40
3.0
100
AcDbArc
 50
90.0
 51
140.000000000008
  0
ARC
  5
4A0F
330
19
100
AcDbEntity
  8
SEIHIN
  6
CONTINUOUS
100
AcDbCircle
 10
745.1432319655395
 20
484.03801574916
 30
0.0
 40
3.024432966668627
100
AcDbArc
 50
89.9562542989849
 51
139.7838032523047
  0
LINE
  5
4A10
330
19
100
AcDbEntity
  8
SEIHIN
  6
CONTINUOUS
100
AcDbLine
 10
761.8244337866399
 20
487.0624488475601
 30
0.0
 11
745.1455422385397
 21
487.0624488475601
 31
0.0
  0
LINE
  5
4A11
330
19
100
AcDbEntity
  8
SEIHIN
  6
CONTINUOUS
100
AcDbLine
 10
741.40866462334
 20
495.0624488475601
 30
0.0
 11
761.8244337866399
 21
495.0624488475601
 31
0.0
  0
LINE
  5
4A12
330
19
100
AcDbEntity
  8
SEIHIN
  6
CONTINUOUS
100
AcDbLine
 10
766.7209681480398
 20
495.0624488475601
 30
0.0
 11
795.4672271846402
 21
495.0624488475601
 31
0.0
  0
LINE
  5
4A13
330
19
100
AcDbEntity
  8
SEIHIN
  6
CONTINUOUS
100
AcDbLine
 10
795.4672271846402
 20
487.0624488475601
 30
0.0
 11
766.7209681480398
 21
487.0624488475601
 31
0.0
  0
LINE
  5
4A18
330
19
100
AcDbEntity
  8
SEIHIN
  6
CONTINUOUS
100
AcDbLine
 10
795.4553225904399
 20
425.0624488475601
 30
0.0
 11
795.4553225904401
 21
488.56195913576
 31
0.0
  0
LINE
  5
4A19
330
19
100
AcDbEntity
  8
SEIHIN
  6
CONTINUOUS
100
AcDbLine
 10
799.3486438257396
 20
446.73535310006
 30
0.0
 11
802.9555209402996
 21
446.73535310006
 31
0.0
  0
LINE
  5
4A1A
330
19
100
AcDbEntity
  8
SEIHIN
  6
CONTINUOUS
100
AcDbLine
 10
799.4553224227402
 20
495.0624488475601
 30
0.0
 11
802.9556307746082
 21
495.0624488475601
 31
0.0
  0
ARC
  5
4A1C
330
19
100
AcDbEntity
  8
SEIHIN
  6
CONTINUOUS
100
AcDbCircle
 10
864.6014178894402
 20
492.0624488475602
 30
0.0
 40
2.999999999999942
100
AcDbArc
 50
40.00000000000197
 51
90.0
  0
ARC
  5
4A1D
330
19
100
AcDbEntity
  8
SEIHIN
  6
CONTINUOUS
100
AcDbCircle
 10
707.0159839020079
 20
441.7672468279469
 30
0.0
 40
1.000000000000004
100
AcDbArc
 50
139.9785291413423
 51
179.9999943145548
  0
ARC
  5
4A1E
330
19
100
AcDbEntity
  8
SEIHIN
  6
CONTINUOUS
100
AcDbCircle
 10
703.9553224227402
 20
442.87862744196
 30
0.0
 40
5.999999999999885
100
AcDbArc
 50
139.999999999998
 51
180.0
  0
DIMENSION
  5
4A1F
330
19
100
AcDbEntity
  8
SUNPOU
100
AcDbDimension
  2
*D6
 10
907.9553224227401
 20
539.3102172252403
 30
0.0
 11
802.9553224227402
 21
547.3102172252403
 31
0.0
 70
    32
  1
φ<>
  3
STANDARD
100
AcDbAlignedDimension
 13
697.9553224227402
 23
435.9705381447598
 33
0.0
 14
907.9553224227401
 24
435.9705381447598
 34
0.0
100
AcDbRotatedDimension
1001
ACAD
1000
DSTYLE
1002
{
1070
    41
1040
12.0
1070
    42
1040
5.0
1070
    43
1040
28.0
1070
    44
1040
5.0
1070
    73
1070
     0
1070
    74
1070
     0
1070
    77
1070
     3
1070
   140
1040
8.0
1070
   141
1040
3.0
1070
   143
1040
0.03937
1070
   147
1040
4.0
1070
   172
1070
     1
1070
   173
1070
     1
1070
   176
1070
   256
1070
   177
1070
   256
1070
   178
1070
   256
1070
   271
1070
     0
1070
   272
1070
     0
1070
   341
1005
27
1070
     6
1000
OPEN
1070
     7
1000
OPEN
1070
   371
1070
    -1
1070
   372
1070
    -1
1002
}
  0
LINE
  5
4A20
330
19
100
AcDbEntity
  8
SEIHIN
  6
CONTINUOUS
100
AcDbLine
 10
739.0110936267401
 20
493.9908116766601
 30
0.0
 11
699.35905576404
 21
446.73535310006
 31
0.0
  0
LINE
  5
4A21
330
19
100
AcDbEntity
  8
SEIHIN
  6
CONTINUOUS
100
AcDbLine
 10
706.2501803890845
 20
442.4103214578259
 30
0.0
 11
742.8411622426401
 21
485.9845835151601
 31
0.0
  0
LINE
  5
4A22
330
19
100
AcDbEntity
  8
SEIHIN
  6
CONTINUOUS
100
AcDbLine
 10
926.9553224227403
 20
422.0624488475602
 30
0.0
 11
926.9553224227403
 21
424.0624488475601
 31
0.0
  0
LINE
  5
4A24
330
19
100
AcDbEntity
  8
SEIHIN
  6
CONTINUOUS
100
AcDbLine
 10
926.9553224227403
 20
424.0624488475601
 30
0.0
 11
922.9553224227402
 21
425.0624488475601
 31
0.0
  0
ARC
  5
4A26
330
19
100
AcDbEntity
  8
SEIHIN
  6
CONTINUOUS
100
AcDbCircle
 10
911.9553224227402
 20
429.0624488475601
 30
0.0
 40
4.0
100
AcDbArc
 50
180.0
 51
270.0
  0
LINE
  5
4A28
330
19
100
AcDbEntity
  8
SEIHIN
  6
CONTINUOUS
100
AcDbLine
 10
922.9553224227403
 20
425.0624488475601
 30
0.0
 11
909.9554648657935
 21
425.0624488475602
 31
0.0
  0
LINE
  5
4A29
330
19
100
AcDbEntity
  8
SEIHIN
  6
CONTINUOUS
100
AcDbLine
 10
910.9553224227402
 20
418.0625422896738
 30
0.0
 11
908.7904224227404
 21
416.8125422896738
 31
0.0
  0
LINE
  5
4A2A
330
19
100
AcDbEntity
  8
SEIHIN
  6
CONTINUOUS
100
AcDbLine
 10
908.7904224227404
 20
415.8114422896739
 30
0.0
 11
910.9553224227402
 21
414.5614422896739
 31
0.0
  0
LINE
  5
4A2B
330
19
100
AcDbEntity
  8
SEIHIN
  6
CONTINUOUS
100
AcDbLine
 10
910.0874498014382
 20
419.0624466254995
 30
0.0
 11
910.9553224227402
 21
418.5613422896741
 31
0.0
  0
LINE
  5
4A2C
330
19
100
AcDbEntity
  8
SEIHIN
  6
CONTINUOUS
100
AcDbLine
 10
910.9553224227402
 20
414.062642289674
 30
0.0
 11
908.7904224227404
 21
412.8127422896738
 31
0.0
  0
LINE
  5
4A2D
330
19
100
AcDbEntity
  8
SEIHIN
  6
CONTINUOUS
100
AcDbLine
 10
908.7904224227404
 20
411.8115422896736
 30
0.0
 11
910.9553224227402
 21
410.5616422896738
 31
0.0
  0
LINE
  5
4A2E
330
19
100
AcDbEntity
  8
SEIHIN
  6
CONTINUOUS
100
AcDbLine
 10
908.7904224227404
 20
415.8114422896739
 30
0.0
 11
908.7904224227404
 21
416.8125422896738
 31
0.0
  0
LINE
  5
4A2F
330
19
100
AcDbEntity
  8
SEIHIN
  6
CONTINUOUS
100
AcDbLine
 10
908.7904224227404
 20
411.8115422896741
 30
0.0
 11
908.7904224227404
 21
412.8127422896742
 31
0.0
  0
LINE
  5
4A30
330
19
100
AcDbEntity
  8
SEIHIN
  6
CONTINUOUS
100
AcDbLine
 10
908.7904224227404
 20
411.8115422896736
 30
0.0
 11
908.7904224227404
 21
412.8127422896738
 31
0.0
  0
LINE
  5
4A31
330
19
100
AcDbEntity
  8
SEIHIN
  6
CONTINUOUS
100
AcDbLine
 10
908.7904224227404
 20
415.8120422896741
 30
0.0
 11
908.7904224227404
 21
416.8132422896738
 31
0.0
  0
LINE
  5
4A32
330
19
100
AcDbEntity
  8
SEIHIN
  6
CONTINUOUS
100
AcDbLine
 10
908.7904223593723
 20
419.0624467076896
 30
0.0
 11
908.7904224227404
 21
420.0624489742964
 31
0.0
  0
LINE
  5
4A33
330
19
100
AcDbEntity
  8
SEIHIN
  6
CONTINUOUS
100
AcDbLine
 10
910.9553224227402
 20
418.5613422896741
 30
0.0
 11
910.9553224227402
 21
418.0625422896738
 31
0.0
  0
LINE
  5
4A34
330
19
100
AcDbEntity
  8
SEIHIN
  6
CONTINUOUS
100
AcDbLine
 10
910.9553224227402
 20
414.5614422896739
 30
0.0
 11
910.9553224227402
 21
414.062642289674
 31
0.0
  0
ARC
  5
4A35
330
19
100
AcDbEntity
  8
SEIHIN
  6
CONTINUOUS
100
AcDbCircle
 10
910.7904224227404
 20
420.0624488475601
 30
0.0
 40
2.000000000000003
100
AcDbArc
 50
90.0
 51
179.9999963692733
  0
LINE
  5
4A38
330
19
100
AcDbEntity
  8
SEIHIN
  6
CONTINUOUS
100
AcDbLine
 10
926.9553224227403
 20
422.0624488475602
 30
0.0
 11
910.7904224227404
 21
422.0624488475602
 31
0.0
  0
LINE
  5
4A39
330
19
100
AcDbEntity
  8
SEIHIN
  6
CONTINUOUS
100
AcDbLine
 10
910.9553224227402
 20
402.0630422896739
 30
0.0
 11
908.7904224227404
 21
400.8130422896739
 31
0.0
  0
LINE
  5
4A3A
330
19
100
AcDbEntity
  8
SEIHIN
  6
CONTINUOUS
100
AcDbLine
 10
908.7904224227404
 20
403.8118422896737
 30
0.0
 11
910.9553224227402
 21
402.5618422896737
 31
0.0
  0
LINE
  5
4A3B
330
19
100
AcDbEntity
  8
SEIHIN
  6
CONTINUOUS
100
AcDbLine
 10
910.9553224227402
 20
406.0629422896742
 30
0.0
 11
908.7904224227404
 21
404.8129422896741
 31
0.0
  0
LINE
  5
4A3C
330
19
100
AcDbEntity
  8
SEIHIN
  6
CONTINUOUS
100
AcDbLine
 10
908.7904224227404
 20
407.811742289674
 30
0.0
 11
910.9553224227402
 21
406.561742289674
 31
0.0
  0
LINE
  5
4A3D
330
19
100
AcDbEntity
  8
SEIHIN
  6
CONTINUOUS
100
AcDbLine
 10
910.9553224227402
 20
410.0627422896738
 30
0.0
 11
908.7904224227404
 21
408.812842289674
 31
0.0
  0
LINE
  5
4A3E
330
19
100
AcDbEntity
  8
SEIHIN
  6
CONTINUOUS
100
AcDbLine
 10
908.7904224227404
 20
403.810642289674
 30
0.0
 11
908.7904224227404
 21
404.811742289674
 31
0.0
  0
LINE
  5
4A3F
330
19
100
AcDbEntity
  8
SEIHIN
  6
CONTINUOUS
100
AcDbLine
 10
908.7904224227404
 20
399.8101422896739
 30
0.0
 11
908.7904224227404
 21
400.8112422896739
 31
0.0
  0
LINE
  5
4A40
330
19
100
AcDbEntity
  8
SEIHIN
  6
CONTINUOUS
100
AcDbLine
 10
908.7904224227404
 20
399.8119422896739
 30
0.0
 11
908.7904224227404
 21
400.8130422896739
 31
0.0
  0
LINE
  5
4A41
330
19
100
AcDbEntity
  8
SEIHIN
  6
CONTINUOUS
100
AcDbLine
 10
908.7904224227404
 20
407.811742289674
 30
0.0
 11
908.7904224227404
 21
408.812842289674
 31
0.0
  0
LINE
  5
4A42
330
19
100
AcDbEntity
  8
SEIHIN
  6
CONTINUOUS
100
AcDbLine
 10
908.7904224227404
 20
407.8111422896742
 30
0.0
 11
908.7904224227404
 21
408.8122422896741
 31
0.0
  0
LINE
  5
4A43
330
19
100
AcDbEntity
  8
SEIHIN
  6
CONTINUOUS
100
AcDbLine
 10
908.7904224227404
 20
403.8118422896737
 30
0.0
 11
908.7904224227404
 21
404.8129422896741
 31
0.0
  0
LINE
  5
4A44
330
19
100
AcDbEntity
  8
SEIHIN
  6
CONTINUOUS
100
AcDbLine
 10
910.9553224227402
 20
402.5618422896737
 30
0.0
 11
910.9553224227402
 21
402.0630422896739
 31
0.0
  0
LINE
  5
4A45
330
19
100
AcDbEntity
  8
SEIHIN
  6
CONTINUOUS
100
AcDbLine
 10
910.9553224227402
 20
406.561742289674
 30
0.0
 11
910.9553224227402
 21
406.0629422896742
 31
0.0
  0
LINE
  5
4A46
330
19
100
AcDbEntity
  8
SEIHIN
  6
CONTINUOUS
100
AcDbLine
 10
908.7904224227404
 20
391.8121422896739
 30
0.0
 11
910.9553224227402
 21
390.5622422896736
 31
0.0
  0
LINE
  5
4A47
330
19
100
AcDbEntity
  8
SEIHIN
  6
CONTINUOUS
100
AcDbLine
 10
910.9553224227402
 20
398.0631422896736
 30
0.0
 11
908.7904224227404
 21
396.8132422896739
 31
0.0
  0
LINE
  5
4A48
330
19
100
AcDbEntity
  8
SEIHIN
  6
CONTINUOUS
100
AcDbLine
 10
908.7904224227404
 20
395.8120422896737
 30
0.0
 11
910.9553224227402
 21
394.5621422896739
 31
0.0
  0
LINE
  5
4A49
330
19
100
AcDbEntity
  8
SEIHIN
  6
CONTINUOUS
100
AcDbLine
 10
910.9553224227402
 20
394.0632422896738
 30
0.0
 11
908.7904224227404
 21
392.813342289674
 31
0.0
  0
LINE
  5
4A4A
330
19
100
AcDbEntity
  8
SEIHIN
  6
CONTINUOUS
100
AcDbLine
 10
908.7904224227404
 20
395.8120422896737
 30
0.0
 11
908.7904224227404
 21
396.8132422896739
 31
0.0
  0
LINE
  5
4A4B
330
19
100
AcDbEntity
  8
SEIHIN
  6
CONTINUOUS
100
AcDbLine
 10
908.7904224227404
 20
395.8096422896738
 30
0.0
 11
908.7904224227404
 21
396.8107422896738
 31
0.0
  0
LINE
  5
4A4C
330
19
100
AcDbEntity
  8
SEIHIN
  6
CONTINUOUS
100
AcDbLine
 10
908.7904224227404
 20
387.0624488475602
 30
0.0
 11
908.7904224227404
 21
390.0633335389294
 31
0.0
  0
LINE
  5
4A4D
330
19
100
AcDbEntity
  8
SEIHIN
  6
CONTINUOUS
100
AcDbLine
 10
908.7904224227404
 20
391.8121422896739
 30
0.0
 11
908.7904224227404
 21
392.813342289674
 31
0.0
  0
LINE
  5
4A4E
330
19
100
AcDbEntity
  8
SEIHIN
  6
CONTINUOUS
100
AcDbLine
 10
908.7904224227404
 20
387.0624488475602
 30
0.0
 11
908.7904224227404
 21
390.0624488475983
 31
0.0
  0
LINE
  5
4A4F
330
19
100
AcDbEntity
  8
SEIHIN
  6
CONTINUOUS
100
AcDbLine
 10
908.7904224227404
 20
391.8121422896739
 30
0.0
 11
908.7904224227404
 21
392.813342289674
 31
0.0
  0
LINE
  5
4A50
330
19
100
AcDbEntity
  8
SEIHIN
  6
CONTINUOUS
100
AcDbLine
 10
910.9553224227402
 20
390.5622422896736
 30
0.0
 11
910.9553224227402
 21
390.0633422896741
 31
0.0
  0
LINE
  5
4A51
330
19
100
AcDbEntity
  8
SEIHIN
  6
CONTINUOUS
100
AcDbLine
 10
910.9553224227402
 20
394.5621422896739
 30
0.0
 11
910.9553224227402
 21
394.0632422896738
 31
0.0
  0
LINE
  5
4A52
330
19
100
AcDbEntity
  8
SEIHIN
  6
CONTINUOUS
100
AcDbLine
 10
910.9553224227402
 20
398.561942289674
 30
0.0
 11
910.9553224227402
 21
398.0631422896736
 31
0.0
  0
LINE
  5
4A53
330
19
100
AcDbEntity
  8
SEIHIN
  6
CONTINUOUS
100
AcDbLine
 10
908.7904224227404
 20
399.8119422896739
 30
0.0
 11
910.9553224227402
 21
398.561942289674
 31
0.0
  0
LINE
  5
4A54
330
19
100
AcDbEntity
  8
SEIHIN
  6
CONTINUOUS
100
AcDbLine
 10
910.9553224227402
 20
410.5616422896738
 30
0.0
 11
910.9553224227402
 21
410.0627422896738
 31
0.0
  0
DIMENSION
  5
4A56
330
19
100
AcDbEntity
  8
SUNPOU
100
AcDbDimension
  2
*D5
 10
971.2651493315389
 20
387.0624488475602
 30
0.0
 11
963.2651493315387
 21
404.5624488475603
 31
0.0
 70
    32
  3
STANDARD
100
AcDbAlignedDimension
 13
921.4418286952749
 23
422.0624488475602
 33
0.0
 14
908.7904224227404
 24
387.0624488475602
 34
0.0
 50
90.0
100
AcDbRotatedDimension
1001
ACAD
1000
DSTYLE
1002
{
1070
    41
1040
12.0
1070
    42
1040
5.0
1070
    43
1040
28.0
1070
    44
1040
5.0
1070
    73
1070
     0
1070
    74
1070
     0
1070
    77
1070
     3
1070
   140
1040
8.0
1070
   141
1040
3.0
1070
   143
1040
0.03937
1070
   147
1040
4.0
1070
   172
1070
     1
1070
   173
1070
     1
1070
   176
1070
   256
1070
   177
1070
   256
1070
   178
1070
   256
1070
   271
1070
     0
1070
   272
1070
     0
1070
   341
1005
27
1070
     6
1000
OPEN
1070
     7
1000
OPEN
1070
   371
1070
    -1
1070
   372
1070
    -1
1002
}
  0
LINE
  5
4A57
330
19
100
AcDbEntity
  8
SEIHIN
  6
CONTINUOUS
100
AcDbLine
 10
853.66951383164
 20
425.0624488475601
 30
0.0
 11
855.3599868786395
 21
424.0624488475601
 31
0.0
  0
LINE
  5
4A5E
330
19
100
AcDbEntity
  8
SEIHIN
  6
CONTINUOUS
100
AcDbLine
 10
750.55065796694
 20
424.0624488475601
 30
0.0
 11
752.2411310138395
 21
425.0624488475601
 31
0.0
  0
LINE
  5
4A60
330
19
100
AcDbEntity
  8
SEIHIN
  6
CONTINUOUS
100
AcDbLine
 10
853.66951383164
 20
425.0624488475601
 30
0.0
 11
810.455322255159
 21
425.0624488475601
 31
0.0
  0
LINE
  5
4A61
330
19
100
AcDbEntity
  8
SEIHIN
  6
CONTINUOUS
100
AcDbLine
 10
751.0063575962631
 20
390.0626863425278
 30
0.0
 11
802.9553941970336
 21
390.968315986634
 31
0.0
  0
LINE
  5
4A63
330
19
100
AcDbEntity
  8
SEIHIN
  6
CONTINUOUS
100
AcDbLine
 10
910.0874498014382
 20
419.0624466254995
 30
0.0
 11
908.7904223593723
 21
419.0624467076897
 31
0.0
  0
LINE
  5
4A64
330
19
100
AcDbEntity
  8
SEIHIN
  6
CONTINUOUS
100
AcDbLine
 10
855.3599868786395
 20
424.0624488475601
 30
0.0
 11
899.8946627079755
 21
424.0624488475602
 31
0.0
  0
ARC
  5
4A65
330
19
100
AcDbEntity
  8
SEIHIN
  6
CONTINUOUS
100
AcDbCircle
 10
704.11622686184
 20
421.5456759290601
 30
0.0
 40
3.517150707810327
100
AcDbArc
 50
45.69005783860581
 51
89.16020971611144
  0
ARC
  5
4A66
330
19
100
AcDbEntity
  8
SEIHIN
  6
CONTINUOUS
100
AcDbCircle
 10
693.9553224227402
 20
429.0624488475601
 30
0.0
 40
4.0
100
AcDbArc
 50
270.0
 51
0.0
  0
LINE
  5
4A69
330
19
100
AcDbEntity
  8
SEIHIN
  6
CONTINUOUS
100
AcDbLine
 10
694.9553224227401
 20
414.5620562794607
 30
0.0
 11
694.9553224227401
 21
414.0625562794603
 31
0.0
  0
LINE
  5
4A6A
330
19
100
AcDbEntity
  8
SEIHIN
  6
CONTINUOUS
100
AcDbLine
 10
697.12022242274
 20
417.1372562794605
 30
0.0
 11
697.12022242274
 21
416.1361562794605
 31
0.0
  0
LINE
  5
4A6B
330
19
100
AcDbEntity
  8
SEIHIN
  6
CONTINUOUS
100
AcDbLine
 10
697.12022242274
 20
417.1372562794605
 30
0.0
 11
697.12022242274
 21
416.1361562794605
 31
0.0
  0
LINE
  5
4A6C
330
19
100
AcDbEntity
  8
SEIHIN
  6
CONTINUOUS
100
AcDbLine
 10
695.6428429516809
 20
419.0624528403206
 30
0.0
 11
694.9553224227401
 21
418.5625562794603
 31
0.0
  0
LINE
  5
4A6D
330
19
100
AcDbEntity
  8
SEIHIN
  6
CONTINUOUS
100
AcDbLine
 10
694.9553224227401
 20
418.0630562794605
 30
0.0
 11
697.12022242274
 21
417.1372562794605
 31
0.0
  0
LINE
  5
4A6E
330
19
100
AcDbEntity
  8
SEIHIN
  6
CONTINUOUS
100
AcDbLine
 10
694.9553224227401
 20
418.5625562794603
 30
0.0
 11
694.9553224227401
 21
418.0630562794605
 31
0.0
  0
LINE
  5
4A6F
330
19
100
AcDbEntity
  8
SEIHIN
  6
CONTINUOUS
100
AcDbLine
 10
697.12022242274
 20
412.1356562794605
 30
0.0
 11
694.9553224227401
 21
410.5615562794606
 31
0.0
  0
LINE
  5
4A70
330
19
100
AcDbEntity
  8
SEIHIN
  6
CONTINUOUS
100
AcDbLine
 10
697.12022242274
 20
413.1368562794606
 30
0.0
 11
697.12022242274
 21
412.1356562794605
 31
0.0
  0
LINE
  5
4A71
330
19
100
AcDbEntity
  8
SEIHIN
  6
CONTINUOUS
100
AcDbLine
 10
697.12022242274
 20
413.1368562794606
 30
0.0
 11
697.12022242274
 21
412.1356562794605
 31
0.0
  0
LINE
  5
4A72
330
19
100
AcDbEntity
  8
SEIHIN
  6
CONTINUOUS
100
AcDbLine
 10
697.12022242274
 20
416.1361562794605
 30
0.0
 11
694.9553224227401
 21
414.5620562794607
 31
0.0
  0
LINE
  5
4A73
330
19
100
AcDbEntity
  8
SEIHIN
  6
CONTINUOUS
100
AcDbLine
 10
694.9553224227401
 20
414.0625562794603
 30
0.0
 11
697.12022242274
 21
413.1368562794606
 31
0.0
  0
ARC
  5
4A75
330
19
100
AcDbEntity
  8
SEIHIN
  6
CONTINUOUS
100
AcDbCircle
 10
695.1202224227399
 20
420.0624488475601
 30
0.0
 40
2.0
100
AcDbArc
 50
0.0
 51
90.0
  0
LINE
  5
4A76
330
19
100
AcDbEntity
  8
SEIHIN
  6
CONTINUOUS
100
AcDbLine
 10
678.9553224227402
 20
424.0624488475601
 30
0.0
 11
678.9553224227402
 21
422.0624488475602
 31
0.0
  0
LINE
  5
4A77
330
19
100
AcDbEntity
  8
SEIHIN
  6
CONTINUOUS
100
AcDbLine
 10
682.9553224227402
 20
425.0624488475601
 30
0.0
 11
678.9553224227402
 21
424.0624488475601
 31
0.0
  0
LINE
  5
4A78
330
19
100
AcDbEntity
  8
SEIHIN
  6
CONTINUOUS
100
AcDbLine
 10
693.9553224227402
 20
425.0624488475601
 30
0.0
 11
682.9553224227402
 21
425.0624488475601
 31
0.0
  0
LINE
  5
4A79
330
19
100
AcDbEntity
  8
SEIHIN
  6
CONTINUOUS
100
AcDbLine
 10
750.55065796694
 20
424.0624488475601
 30
0.0
 11
678.9553224227402
 21
424.0624488475601
 31
0.0
  0
LINE
  5
4A7A
330
19
100
AcDbEntity
  8
SEIHIN
  6
CONTINUOUS
100
AcDbLine
 10
697.12022242274
 20
422.0624488475602
 30
0.0
 11
678.9553224227402
 21
422.0624488475602
 31
0.0
  0
LINE
  5
4A7B
330
19
100
AcDbEntity
  8
SEIHIN
  6
CONTINUOUS
100
AcDbLine
 10
697.12022242274
 20
405.1358562794604
 30
0.0
 11
697.12022242274
 21
404.1347562794604
 31
0.0
  0
LINE
  5
4A7C
330
19
100
AcDbEntity
  8
SEIHIN
  6
CONTINUOUS
100
AcDbLine
 10
697.12022242274
 20
401.1353562794607
 30
0.0
 11
697.12022242274
 21
400.1342562794608
 31
0.0
  0
LINE
  5
4A7D
330
19
100
AcDbEntity
  8
SEIHIN
  6
CONTINUOUS
100
AcDbLine
 10
694.9553224227401
 20
402.0611562794607
 30
0.0
 11
697.12022242274
 21
401.1353562794607
 31
0.0
  0
LINE
  5
4A7E
330
19
100
AcDbEntity
  8
SEIHIN
  6
CONTINUOUS
100
AcDbLine
 10
694.9553224227401
 20
406.0616562794608
 30
0.0
 11
697.12022242274
 21
405.1358562794604
 31
0.0
  0
LINE
  5
4A7F
330
19
100
AcDbEntity
  8
SEIHIN
  6
CONTINUOUS
100
AcDbLine
 10
697.12022242274
 20
408.1351562794607
 30
0.0
 11
694.9553224227401
 21
406.5610562794605
 31
0.0
  0
LINE
  5
4A80
330
19
100
AcDbEntity
  8
SEIHIN
  6
CONTINUOUS
100
AcDbLine
 10
697.12022242274
 20
404.1347562794604
 30
0.0
 11
694.9553224227401
 21
402.5605562794608
 31
0.0
  0
LINE
  5
4A81
330
19
100
AcDbEntity
  8
SEIHIN
  6
CONTINUOUS
100
AcDbLine
 10
697.12022242274
 20
401.1353562794607
 30
0.0
 11
697.12022242274
 21
400.1342562794608
 31
0.0
  0
LINE
  5
4A82
330
19
100
AcDbEntity
  8
SEIHIN
  6
CONTINUOUS
100
AcDbLine
 10
697.12022242274
 20
409.1363562794605
 30
0.0
 11
697.12022242274
 21
408.1351562794607
 31
0.0
  0
LINE
  5
4A83
330
19
100
AcDbEntity
  8
SEIHIN
  6
CONTINUOUS
100
AcDbLine
 10
697.12022242274
 20
405.1358562794604
 30
0.0
 11
697.12022242274
 21
404.1347562794604
 31
0.0
  0
LINE
  5
4A84
330
19
100
AcDbEntity
  8
SEIHIN
  6
CONTINUOUS
100
AcDbLine
 10
697.12022242274
 20
409.1363562794605
 30
0.0
 11
697.12022242274
 21
408.1351562794607
 31
0.0
  0
LINE
  5
4A85
330
19
100
AcDbEntity
  8
SEIHIN
  6
CONTINUOUS
100
AcDbLine
 10
694.9553224227401
 20
410.0621562794604
 30
0.0
 11
697.12022242274
 21
409.1363562794605
 31
0.0
  0
LINE
  5
4A86
330
19
100
AcDbEntity
  8
SEIHIN
  6
CONTINUOUS
100
AcDbLine
 10
694.9553224227401
 20
406.5610562794605
 30
0.0
 11
694.9553224227401
 21
406.0616562794608
 31
0.0
  0
LINE
  5
4A87
330
19
100
AcDbEntity
  8
SEIHIN
  6
CONTINUOUS
100
AcDbLine
 10
694.9553224227401
 20
402.5605562794608
 30
0.0
 11
694.9553224227401
 21
402.0611562794607
 31
0.0
  0
LINE
  5
4A88
330
19
100
AcDbEntity
  8
SEIHIN
  6
CONTINUOUS
100
AcDbLine
 10
694.9553224227401
 20
390.5591562794608
 30
0.0
 11
694.9553224227401
 21
390.0596562794609
 31
0.0
  0
LINE
  5
4A89
330
19
100
AcDbEntity
  8
SEIHIN
  6
CONTINUOUS
100
AcDbLine
 10
694.9553224227401
 20
398.5600562794608
 30
0.0
 11
694.9553224227401
 21
398.0606562794606
 31
0.0
  0
LINE
  5
4A8A
330
19
100
AcDbEntity
  8
SEIHIN
  6
CONTINUOUS
100
AcDbLine
 10
697.12022242274
 20
390.062468529331
 30
0.0
 11
697.12022242274
 21
387.0624488475602
 31
0.0
  0
LINE
  5
4A8B
330
19
100
AcDbEntity
  8
SEIHIN
  6
CONTINUOUS
100
AcDbLine
 10
697.12022242274
 20
392.1332562794606
 30
0.0
 11
694.9553224227401
 21
390.5591562794608
 31
0.0
  0
LINE
  5
4A8C
330
19
100
AcDbEntity
  8
SEIHIN
  6
CONTINUOUS
100
AcDbLine
 10
697.12022242274
 20
390.0624488475983
 30
0.0
 11
697.12022242274
 21
387.0624488475602
 31
0.0
  0
LINE
  5
4A8D
330
19
100
AcDbEntity
  8
SEIHIN
  6
CONTINUOUS
100
AcDbLine
 10
697.12022242274
 20
393.1343562794605
 30
0.0
 11
697.12022242274
 21
392.1332562794606
 31
0.0
  0
LINE
  5
4A8E
330
19
100
AcDbEntity
  8
SEIHIN
  6
CONTINUOUS
100
AcDbLine
 10
694.9553224227401
 20
398.0606562794606
 30
0.0
 11
697.12022242274
 21
397.1348562794606
 31
0.0
  0
LINE
  5
4A8F
330
19
100
AcDbEntity
  8
SEIHIN
  6
CONTINUOUS
100
AcDbLine
 10
697.12022242274
 20
396.1337562794607
 30
0.0
 11
694.9553224227401
 21
394.5595562794607
 31
0.0
  0
LINE
  5
4A90
330
19
100
AcDbEntity
  8
SEIHIN
  6
CONTINUOUS
100
AcDbLine
 10
697.12022242274
 20
393.1343562794605
 30
0.0
 11
697.12022242274
 21
392.1332562794606
 31
0.0
  0
LINE
  5
4A91
330
19
100
AcDbEntity
  8
SEIHIN
  6
CONTINUOUS
100
AcDbLine
 10
697.12022242274
 20
397.1348562794606
 30
0.0
 11
697.12022242274
 21
396.1337562794607
 31
0.0
  0
LINE
  5
4A92
330
19
100
AcDbEntity
  8
SEIHIN
  6
CONTINUOUS
100
AcDbLine
 10
697.12022242274
 20
397.1348562794606
 30
0.0
 11
697.12022242274
 21
396.1337562794607
 31
0.0
  0
LINE
  5
4A93
330
19
100
AcDbEntity
  8
SEIHIN
  6
CONTINUOUS
100
AcDbLine
 10
694.9553224227401
 20
394.0601562794605
 30
0.0
 11
697.12022242274
 21
393.1343562794605
 31
0.0
  0
LINE
  5
4A94
330
19
100
AcDbEntity
  8
SEIHIN
  6
CONTINUOUS
100
AcDbLine
 10
694.9553224227401
 20
394.5595562794607
 30
0.0
 11
694.9553224227401
 21
394.0601562794605
 31
0.0
  0
LINE
  5
4A95
330
19
100
AcDbEntity
  8
SEIHIN
  6
CONTINUOUS
100
AcDbLine
 10
697.12022242274
 20
400.1342562794608
 30
0.0
 11
694.9553224227401
 21
398.5600562794608
 31
0.0
  0
LINE
  5
4A96
330
19
100
AcDbEntity
  8
SEIHIN
  6
CONTINUOUS
100
AcDbLine
 10
694.9553224227401
 20
410.5615562794606
 30
0.0
 11
694.9553224227401
 21
410.0621562794604
 31
0.0
  0
LINE
  5
4A97
330
19
100
AcDbEntity
  8
SEIHIN
  6
CONTINUOUS
100
AcDbLine
 10
704.1677736357396
 20
425.0624488475601
 30
0.0
 11
694.1983879783402
 21
425.0624488475601
 31
0.0
  0
LINE
  5
4A98
330
19
100
AcDbEntity
  8
SEIHIN
  6
CONTINUOUS
100
AcDbLine
 10
694.9553224227401
 20
418.5625562794603
 30
0.0
 11
726.1345117795262
 21
419.0624528403206
 31
0.0
  0
LINE
  5
4A99
330
19
100
AcDbEntity
  8
SEIHIN
  6
CONTINUOUS
100
AcDbLine
 10
697.12022242274
 20
393.1343562794605
 30
0.0
 11
802.9554032975671
 21
394.9725506892386
 31
0.0
  0
LINE
  5
4A9A
330
19
100
AcDbEntity
  8
SEIHIN
  6
CONTINUOUS
100
AcDbLine
 10
697.12022242274
 20
396.1337562794607
 30
0.0
 11
802.9554101143855
 21
397.9719508076364
 31
0.0
  0
LINE
  5
4A9B
330
19
100
AcDbEntity
  8
SEIHIN
  6
CONTINUOUS
100
AcDbLine
 10
908.7904224227404
 20
387.0624488475602
 30
0.0
 11
697.12022242274
 21
387.0624488475602
 31
0.0
  0
LINE
  5
4A9C
330
19
100
AcDbEntity
  8
SEIHIN
  6
CONTINUOUS
100
AcDbLine
 10
697.12022242274
 20
397.1348562794606
 30
0.0
 11
802.9554123896128
 21
398.9730508471536
 31
0.0
  0
LINE
  5
4A9D
330
19
100
AcDbEntity
  8
SEIHIN
  6
CONTINUOUS
100
AcDbLine
 10
697.12022242274
 20
392.1332562794606
 30
0.0
 11
802.9554010223396
 21
393.9714506497214
 31
0.0
  0
LINE
  5
4A9E
330
19
100
AcDbEntity
  8
SEIHIN
  6
CONTINUOUS
100
AcDbLine
 10
694.9553224227401
 20
390.0597062794605
 30
0.0
 11
802.9553966781351
 21
392.0600006598686
 31
0.0
  0
LINE
  5
4A9F
330
19
100
AcDbEntity
  8
SEIHIN
  6
CONTINUOUS
100
AcDbLine
 10
802.9553921392723
 20
390.062901034415
 30
0.0
 11
694.9553224227401
 21
390.0624597785864
 31
0.0
  0
LINE
  5
4AA0
330
19
100
AcDbEntity
  8
SEIHIN
  6
CONTINUOUS
100
AcDbLine
 10
694.9553224227401
 20
398.5600562794608
 30
0.0
 11
802.9554159971132
 21
400.5603510176798
 31
0.0
  0
LINE
  5
4AA1
330
19
100
AcDbEntity
  8
SEIHIN
  6
CONTINUOUS
100
AcDbLine
 10
694.9553224227401
 20
398.0606562794606
 30
0.0
 11
802.9554148621132
 21
400.0609509966583
 31
0.0
  0
LINE
  5
4AA2
330
19
100
AcDbEntity
  8
SEIHIN
  6
CONTINUOUS
100
AcDbLine
 10
694.9553224227401
 20
394.0601562794605
 30
0.0
 11
802.9554057700673
 21
396.0604508282624
 31
0.0
  0
LINE
  5
4AA3
330
19
100
AcDbEntity
  8
SEIHIN
  6
CONTINUOUS
100
AcDbLine
 10
694.9553224227401
 20
394.5595562794607
 30
0.0
 11
802.9554069050673
 21
396.5598508492841
 31
0.0
  0
LINE
  5
4AA4
330
19
100
AcDbEntity
  8
SEIHIN
  6
CONTINUOUS
100
AcDbLine
 10
694.9553224227401
 20
390.5591062794607
 30
0.0
 11
802.955397813135
 21
392.5594006808901
 31
0.0
  0
DIMENSION
  5
4AA5
330
19
100
AcDbEntity
  8
SUNPOU
100
AcDbDimension
  2
*D4
 10
910.9553224227402
 20
307.0784154735251
 30
0.0
 11
802.9553224227402
 21
315.0784154735251
 31
0.0
 70
    32
  1
φ<>
  3
STANDARD
100
AcDbAlignedDimension
 13
694.9553224227401
 23
398.3103562794609
 33
0.0
 14
910.9553224227402
 24
398.0607422896738
 34
0.0
100
AcDbRotatedDimension
1001
ACAD
1000
DSTYLE
1002
{
1070
    41
1040
12.0
1070
    42
1040
5.0
1070
    43
1040
28.0
1070
    44
1040
5.0
1070
    73
1070
     0
1070
    74
1070
     0
1070
    77
1070
     3
1070
   140
1040
8.0
1070
   141
1040
3.0
1070
   143
1040
0.03937
1070
   147
1040
4.0
1070
   172
1070
     1
1070
   173
1070
     1
1070
   176
1070
   256
1070
   177
1070
   256
1070
   178
1070
   256
1070
   271
1070
     0
1070
   272
1070
     0
1070
   341
1005
27
1070
     6
1000
OPEN
1070
     7
1000
OPEN
1070
   371
1070
    -1
1070
   372
1070
    -1
1002
}
  0
LINE
  5
4AA6
330
19
100
AcDbEntity
  8
SEIHIN
  6
CONTINUOUS
100
AcDbLine
 10
697.12022242274
 20
400.1342562794608
 30
0.0
 11
802.9554192064313
 21
401.9724509655514
 31
0.0
  0
LINE
  5
4AA7
330
19
100
AcDbEntity
  8
SEIHIN
  6
CONTINUOUS
100
AcDbLine
 10
694.9553224227401
 20
414.5614562794604
 30
0.0
 11
802.9554523631375
 21
416.5614016908024
 31
0.0
  0
LINE
  5
4AA8
330
19
100
AcDbEntity
  8
SEIHIN
  6
CONTINUOUS
100
AcDbLine
 10
694.9553224227401
 20
414.0626562794606
 30
0.0
 11
802.955451229501
 21
416.0626016698095
 31
0.0
  0
LINE
  5
4AA9
330
19
100
AcDbEntity
  8
SEIHIN
  6
CONTINUOUS
100
AcDbLine
 10
694.9553224227401
 20
402.5605562794604
 30
0.0
 11
802.9554250891589
 21
404.5608511860756
 31
0.0
  0
LINE
  5
4AAA
330
19
100
AcDbEntity
  8
SEIHIN
  6
CONTINUOUS
100
AcDbLine
 10
802.9554648655173
 20
422.06244884756
 30
0.0
 11
695.1202224227399
 21
422.0624488475602
 31
0.0
  0
LINE
  5
4AAB
330
19
100
AcDbEntity
  8
SEIHIN
  6
CONTINUOUS
100
AcDbLine
 10
697.12022242274
 20
409.1363562794605
 30
0.0
 11
802.9554396657502
 21
410.9745513208981
 31
0.0
  0
LINE
  5
4AAC
330
19
100
AcDbEntity
  8
SEIHIN
  6
CONTINUOUS
100
AcDbLine
 10
697.12022242274
 20
412.1356562794605
 30
0.0
 11
802.9554464823414
 21
413.9738514392917
 31
0.0
  0
LINE
  5
4AAD
330
19
100
AcDbEntity
  8
SEIHIN
  6
CONTINUOUS
100
AcDbLine
 10
697.12022242274
 20
413.1368562794606
 30
0.0
 11
802.9554487577961
 21
414.975051478813
 31
0.0
  0
LINE
  5
4AAE
330
19
100
AcDbEntity
  8
SEIHIN
  6
CONTINUOUS
100
AcDbLine
 10
694.9553224227401
 20
402.0611562794607
 30
0.0
 11
802.9554239541589
 21
404.0614511650541
 31
0.0
  0
LINE
  5
4AAF
330
19
100
AcDbEntity
  8
SEIHIN
  6
CONTINUOUS
100
AcDbLine
 10
697.12022242274
 20
405.1358562794604
 30
0.0
 11
802.9554305737045
 21
406.974051162983
 31
0.0
  0
LINE
  5
4AB0
330
19
100
AcDbEntity
  8
SEIHIN
  6
CONTINUOUS
100
AcDbLine
 10
694.9553224227401
 20
406.0616562794608
 30
0.0
 11
802.9554330462048
 21
408.06195133345
 31
0.0
  0
LINE
  5
4AB1
330
19
100
AcDbEntity
  8
SEIHIN
  6
CONTINUOUS
100
AcDbLine
 10
694.9553224227401
 20
406.5610562794605
 30
0.0
 11
802.9554341812048
 21
408.5613513544717
 31
0.0
  0
LINE
  5
4AB3
330
19
100
AcDbEntity
  8
SEIHIN
  6
CONTINUOUS
100
AcDbLine
 10
697.12022242274
 20
416.1361562794605
 30
0.0
 11
802.9554555289045
 21
417.9543393186156
 31
0.0
  0
LINE
  5
4AB4
330
19
100
AcDbEntity
  8
SEIHIN
  6
CONTINUOUS
100
AcDbLine
 10
802.9554580473446
 20
419.0624528403206
 30
0.0
 11
695.6428429516809
 21
419.0624528403206
 31
0.0
  0
LINE
  5
4AB5
330
19
100
AcDbEntity
  8
SEIHIN
  6
CONTINUOUS
100
AcDbLine
 10
694.9553224227401
 20
410.5615562794606
 30
0.0
 11
802.9554432724552
 21
412.5615015224611
 31
0.0
  0
LINE
  5
4AB6
330
19
100
AcDbEntity
  8
SEIHIN
  6
CONTINUOUS
100
AcDbLine
 10
694.9553224227401
 20
410.0621562794604
 30
0.0
 11
802.9554421381371
 21
412.0624015017884
 31
0.0
  0
LINE
  5
4AB7
330
19
100
AcDbEntity
  8
SEIHIN
  6
CONTINUOUS
100
AcDbLine
 10
697.12022242274
 20
408.1351562794607
 30
0.0
 11
802.9554373902955
 21
409.9733512813771
 31
0.0
  0
LINE
  5
4AB8
330
19
100
AcDbEntity
  8
SEIHIN
  6
CONTINUOUS
100
AcDbLine
 10
697.12022242274
 20
404.1347562794604
 30
0.0
 11
802.955428298477
 21
405.9729511234658
 31
0.0
  0
LINE
  5
4AB9
330
19
100
AcDbEntity
  8
SEIHIN
  6
CONTINUOUS
100
AcDbLine
 10
697.12022242274
 20
401.1353562794607
 30
0.0
 11
802.9554214816586
 21
402.9735510050685
 31
0.0
  0
LINE
  5
4ABA
330
19
100
AcDbEntity
  8
SEIHIN
  6
CONTINUOUS
100
AcDbLine
 10
694.9553224227401
 20
418.0630562794605
 30
0.0
 11
757.2889671270959
 21
419.0624528403206
 31
0.0
  0
LINE
  5
4ABC
330
19
100
AcDbEntity
  8
SEIHIN
  6
CONTINUOUS
100
AcDbLine
 10
697.12022242274
 20
417.1372562794605
 30
0.0
 11
802.9554578041318
 21
418.9554393577027
 31
0.0
  0
DIMENSION
  5
4ABD
330
19
100
AcDbEntity
  8
SUNPOU
100
AcDbDimension
  2
*D3
 10
926.9553224227403
 20
559.1676622549989
 30
0.0
 11
802.9553224227402
 21
567.1676622549989
 31
0.0
 70
    32
  1
φ<>
  3
STANDARD
100
AcDbAlignedDimension
 13
678.9553224227402
 23
424.0624488475601
 33
0.0
 14
926.9553224227403
 24
424.0624488475601
 34
0.0
100
AcDbRotatedDimension
1001
ACAD
1000
DSTYLE
1002
{
1070
    41
1040
12.0
1070
    42
1040
5.0
1070
    43
1040
28.0
1070
    44
1040
5.0
1070
    73
1070
     0
1070
    74
1070
     0
1070
    77
1070
     3
1070
   140
1040
8.0
1070
   141
1040
3.0
1070
   143
1040
0.03937
1070
   147
1040
4.0
1070
   172
1070
     1
1070
   173
1070
     1
1070
   176
1070
   256
1070
   177
1070
   256
1070
   178
1070
   256
1070
   271
1070
     0
1070
   272
1070
     0
1070
   341
1005
27
1070
     6
1000
OPEN
1070
     7
1000
OPEN
1070
   371
1070
    -1
1070
   372
1070
    -1
1002
}
  0
LINE
  5
4ABE
330
19
100
AcDbEntity
  8
SEIHIN
  6
CONTINUOUS
100
AcDbLine
 10
697.9553224227402
 20
442.87862744196
 30
0.0
 11
697.9553224227402
 21
429.0624488475601
 31
0.0
  0
LINE
  5
4ABF
330
19
100
AcDbEntity
  8
SEIHIN
  6
CONTINUOUS
100
AcDbLine
 10
706.0159821889401
 20
424.5035763731599
 30
0.0
 11
706.0159839020079
 21
441.7672469271766
 31
0.0
  0
LINE
  5
4AC3
330
19
100
AcDbEntity
  8
SEIHIN
  6
CONTINUOUS
100
AcDbLine
 10
899.894660642156
 20
441.7797147530476
 30
0.0
 11
899.894663349271
 21
418.5624484977624
 31
0.0
  0
LINE
  5
4AC4
330
19
100
AcDbEntity
  8
SEIHIN
  6
CONTINUOUS
100
AcDbLine
 10
907.9553224227401
 20
429.0624488475601
 30
0.0
 11
907.9553224227401
 21
442.87862744196
 31
0.0
  0
ARC
  5
4AD1
330
19
100
AcDbEntity
  8
SEIHIN
  6
CONTINUOUS
100
AcDbCircle
 10
802.9553224227402
 20
811.5675837016569
 30
0.0
 40
120.0000000000001
100
AcDbArc
 50
154.9999999999892
 51
205.0000000000107
  0
LINE
  5
4AD6
330
19
100
AcDbEntity
  8
SEIHIN
  6
CONTINUOUS
100
AcDbLine
 10
694.1983879783402
 20
760.853392292857
 30
0.0
 11
690.5731568302408
 21
759.162919245857
 31
0.0
  0
LINE
  5
4AD7
330
19
100
AcDbEntity
  8
SEIHIN
  6
CONTINUOUS
100
AcDbLine
 10
704.1677736357406
 20
765.502193171957
 30
0.0
 11
694.1983879783402
 21
760.853392292857
 31
0.0
  0
LINE
  5
4AE2
330
19
100
AcDbEntity
  8
SEIHIN
  6
CONTINUOUS
100
AcDbLine
 10
690.5731568302408
 20
863.9722481575571
 30
0.0
 11
694.1983879783402
 21
862.281775110557
 31
0.0
  0
LINE
  5
4AE3
330
19
100
AcDbEntity
  8
SEIHIN
  6
CONTINUOUS
100
AcDbLine
 10
694.1983879783402
 20
862.281775110557
 30
0.0
 11
704.1677736357406
 21
857.632974231457
 31
0.0
  0
ARC
  5
4AE7
330
19
100
AcDbEntity
  8
SEIHIN
  6
CONTINUOUS
100
AcDbCircle
 10
802.9553224227402
 20
811.5675837016569
 30
0.0
 40
40.99999999999984
100
AcDbArc
 50
11.67622529039942
 51
78.32377470961136
  0
ARC
  5
4AE8
330
19
100
AcDbEntity
  8
SEIHIN
  6
CONTINUOUS
100
AcDbCircle
 10
802.9553224227402
 20
811.5675837016569
 30
0.0
 40
120.0000000000001
100
AcDbArc
 50
334.9999999999892
 51
25.00000000001076
  0
CIRCLE
  5
4AEC
330
19
100
AcDbEntity
  8
SEIHIN
  6
CONTINUOUS
100
AcDbCircle
 10
802.9553224227402
 20
811.5675837016569
 30
0.0
 40
26.0
  0
ARC
  5
4AED
330
19
100
AcDbEntity
  8
SEIHIN
  6
CONTINUOUS
100
AcDbCircle
 10
802.9553224227402
 20
811.5675837016569
 30
0.0
 40
41.00000000000011
100
AcDbArc
 50
101.6762252903886
 51
168.3237747096005
  0
ARC
  5
4AF7
330
19
100
AcDbEntity
  8
SEIHIN
  6
CONTINUOUS
100
AcDbCircle
 10
802.9553224227402
 20
811.5675837016569
 30
0.0
 40
120.0000000000003
100
AcDbArc
 50
244.9999999999954
 51
295.0000000000045
  0
LINE
  5
4AFB
330
19
100
AcDbEntity
  8
SEIHIN
  6
CONTINUOUS
100
AcDbLine
 10
750.55065796694
 20
699.1854181091571
 30
0.0
 11
752.2411310138404
 21
702.8106492572569
 31
0.0
  0
LINE
  5
4AFC
330
19
100
AcDbEntity
  8
SEIHIN
  6
CONTINUOUS
100
AcDbLine
 10
752.2411310138404
 20
702.8106492572569
 30
0.0
 11
756.8899318930407
 21
712.7800349147569
 31
0.0
  0
LINE
  5
4B09
330
19
100
AcDbEntity
  8
SEIHIN
  6
CONTINUOUS
100
AcDbLine
 10
853.66951383164
 20
702.8106492572569
 30
0.0
 11
855.3599868786404
 21
699.1854181091571
 31
0.0
  0
LINE
  5
4B0A
330
19
100
AcDbEntity
  8
SEIHIN
  6
CONTINUOUS
100
AcDbLine
 10
849.0207129525407
 20
712.7800349147569
 30
0.0
 11
853.66951383164
 21
702.8106492572569
 31
0.0
  0
ARC
  5
4B0C
330
19
100
AcDbEntity
  8
SEIHIN
  6
CONTINUOUS
100
AcDbCircle
 10
802.9553224227402
 20
811.5675837016569
 30
0.0
 40
40.99999999999984
100
AcDbArc
 50
191.6762252903994
 51
258.3237747096113
  0
ARC
  5
4B15
330
19
100
AcDbEntity
  8
SEIHIN
  6
CONTINUOUS
100
AcDbCircle
 10
802.9553224227402
 20
811.5675837016569
 30
0.0
 40
41.00000000000011
100
AcDbArc
 50
281.6762252903886
 51
348.3237747096005
  0
ARC
  5
4B1F
330
19
100
AcDbEntity
  8
SEIHIN
  6
CONTINUOUS
100
AcDbCircle
 10
844.0862110589405
 20
820.067583701657
 30
0.0
 40
1.000000000000163
100
AcDbArc
 50
191.6762252903994
 51
270.0
  0
LINE
  5
4B23
330
19
100
AcDbEntity
  8
SEIHIN
  6
CONTINUOUS
100
AcDbLine
 10
911.7122568671403
 20
760.853392292857
 30
0.0
 11
901.7428712097407
 21
765.502193171957
 31
0.0
  0
LINE
  5
4B24
330
19
100
AcDbEntity
  8
SEIHIN
  6
CONTINUOUS
100
AcDbLine
 10
915.3374880153405
 20
759.162919245857
 30
0.0
 11
911.7122568671403
 21
760.853392292857
 31
0.0
  0
ARC
  5
4B34
330
19
100
AcDbEntity
  8
SEIHIN
  6
CONTINUOUS
100
AcDbCircle
 10
906.60738463094
 20
820.067583701657
 30
0.0
 40
1.0
100
AcDbArc
 50
270.0
 51
4.68805735260098
  0
ARC
  5
4B3A
330
19
100
AcDbEntity
  8
SEIHIN
  6
CONTINUOUS
100
AcDbCircle
 10
802.9553224227402
 20
811.5675837016569
 30
0.0
 40
119.9999999999999
100
AcDbArc
 50
64.99999999999544
 51
115.0000000000045
  0
LINE
  5
4B3E
330
19
100
AcDbEntity
  8
SEIHIN
  6
CONTINUOUS
100
AcDbLine
 10
752.2411310138404
 20
920.324518146057
 30
0.0
 11
750.55065796694
 21
923.9497492942568
 31
0.0
  0
LINE
  5
4B40
330
19
100
AcDbEntity
  8
SEIHIN
  6
CONTINUOUS
100
AcDbLine
 10
756.8899318930407
 20
910.355132488657
 30
0.0
 11
752.2411310138404
 21
920.324518146057
 31
0.0
  0
LINE
  5
4B56
330
19
100
AcDbEntity
  8
SEIHIN
  6
CONTINUOUS
100
AcDbLine
 10
855.3599868786404
 20
923.9497492942568
 30
0.0
 11
853.66951383164
 21
920.324518146057
 31
0.0
  0
LINE
  5
4B58
330
19
100
AcDbEntity
  8
SEIHIN
  6
CONTINUOUS
100
AcDbLine
 10
853.66951383164
 20
920.324518146057
 30
0.0
 11
849.0207129525407
 21
910.355132488657
 31
0.0
  0
LINE
  5
4B59
330
19
100
AcDbEntity
  8
SEIHIN
  6
CONTINUOUS
100
AcDbLine
 10
901.7428712097407
 20
857.632974231457
 30
0.0
 11
911.7122568671403
 21
862.281775110557
 31
0.0
  0
LINE
  5
4B5B
330
19
100
AcDbEntity
  8
SEIHIN
  6
CONTINUOUS
100
AcDbLine
 10
911.7122568671403
 20
862.281775110557
 30
0.0
 11
915.3374880153405
 21
863.9722481575571
 31
0.0
  0
LINE
  5
4CA4
330
19
100
AcDbEntity
  8
SEIHIN
  6
CONTINUOUS
100
AcDbLine
 10
863.0729508481392
 20
485.9874855163597
 30
0.0
 11
883.1578572175391
 21
462.0817388775598
 31
0.0
  0
LINE
  5
4CA5
330
19
100
AcDbEntity
  8
SEIHIN
  6
CONTINUOUS
100
AcDbLine
 10
883.1578572175391
 20
462.0817388775598
 30
0.0
 11
899.6577416441393
 21
442.42603251666
 31
0.0
  0
LINE
  5
4E08
330
19
100
AcDbEntity
  8
CENTER_L
 48
5.0
100
AcDbLine
 10
802.9549769681947
 20
659.5675837020118
 30
0.0
 11
802.9556678772856
 21
963.5675837013023
 31
0.0
  0
LINE
  5
4E09
330
19
100
AcDbEntity
  8
CENTER_L
 48
5.0
100
AcDbLine
 10
650.9553224230954
 20
811.5679291562027
 30
0.0
 11
954.955322422386
 21
811.5672382471112
 31
0.0
  0
LINE
  5
4E0A
330
19
100
AcDbEntity
  8
SEIHIN
  6
CONTINUOUS
100
AcDbLine
 10
756.8899323127404
 20
712.7800375438567
 30
0.0
 11
757.2197285375402
 21
713.4872839070566
 31
0.0
  0
LINE
  5
4E0B
330
19
100
AcDbEntity
  8
SEIHIN
  6
CONTINUOUS
100
AcDbLine
 10
757.2197285375402
 20
713.4872839070566
 30
0.0
 11
757.5368475995398
 21
714.167350552157
 31
0.0
  0
LINE
  5
4E0C
330
19
100
AcDbEntity
  8
SEIHIN
  6
CONTINUOUS
100
AcDbLine
 10
757.5368475995398
 20
714.167350552157
 30
0.0
 11
757.8291077993401
 21
714.7941082931569
 31
0.0
  0
LINE
  5
4E0D
330
19
100
AcDbEntity
  8
SEIHIN
  6
CONTINUOUS
100
AcDbLine
 10
757.8291077993401
 20
714.7941082931569
 30
0.0
 11
758.0852773867397
 21
715.3434619522571
 31
0.0
  0
LINE
  5
4E0E
330
19
100
AcDbEntity
  8
SEIHIN
  6
CONTINUOUS
100
AcDbLine
 10
758.0852773867397
 20
715.3434619522571
 30
0.0
 11
758.2955104194404
 21
715.7943040347571
 31
0.0
  0
LINE
  5
4E0F
330
19
100
AcDbEntity
  8
SEIHIN
  6
CONTINUOUS
100
AcDbLine
 10
758.2955104194404
 20
715.7943040347571
 30
0.0
 11
758.4517267427397
 21
716.1293119407567
 31
0.0
  0
LINE
  5
4E10
330
19
100
AcDbEntity
  8
SEIHIN
  6
CONTINUOUS
100
AcDbLine
 10
758.4517267427397
 20
716.1293119407567
 30
0.0
 11
758.5479211888403
 21
716.3356110669568
 31
0.0
  0
LINE
  5
4E11
330
19
100
AcDbEntity
  8
SEIHIN
  6
CONTINUOUS
100
AcDbLine
 10
758.5479211888403
 20
716.3356110669568
 30
0.0
 11
758.5804057202401
 21
716.405266544957
 31
0.0
  0
LINE
  5
4E12
330
19
100
AcDbEntity
  8
SEIHIN
  6
CONTINUOUS
100
AcDbLine
 10
707.7930052659401
 20
767.1926669991568
 30
0.0
 11
707.7233497879404
 21
767.1601824677569
 31
0.0
  0
LINE
  5
4E13
330
19
100
AcDbEntity
  8
SEIHIN
  6
CONTINUOUS
100
AcDbLine
 10
707.7233497879404
 20
767.1601824677569
 30
0.0
 11
707.5170506618404
 21
767.0639880216569
 31
0.0
  0
LINE
  5
4E14
330
19
100
AcDbEntity
  8
SEIHIN
  6
CONTINUOUS
100
AcDbLine
 10
707.5170506618404
 20
767.0639880216569
 30
0.0
 11
707.1820427558402
 21
766.9077716983569
 31
0.0
  0
LINE
  5
4E15
330
19
100
AcDbEntity
  8
SEIHIN
  6
CONTINUOUS
100
AcDbLine
 10
707.1820427558402
 20
766.9077716983569
 30
0.0
 11
706.7312006733398
 21
766.6975386656568
 31
0.0
  0
LINE
  5
4E16
330
19
100
AcDbEntity
  8
SEIHIN
  6
CONTINUOUS
100
AcDbLine
 10
706.7312006733398
 20
766.6975386656568
 30
0.0
 11
706.1818470142404
 21
766.441369078257
 31
0.0
  0
LINE
  5
4E17
330
19
100
AcDbEntity
  8
SEIHIN
  6
CONTINUOUS
100
AcDbLine
 10
706.1818470142404
 20
766.441369078257
 30
0.0
 11
705.5550892732401
 21
766.1491088784567
 31
0.0
  0
LINE
  5
4E18
330
19
100
AcDbEntity
  8
SEIHIN
  6
CONTINUOUS
100
AcDbLine
 10
705.5550892732401
 20
766.1491088784567
 30
0.0
 11
704.8750226281397
 21
765.8319898165567
 31
0.0
  0
LINE
  5
4E19
330
19
100
AcDbEntity
  8
SEIHIN
  6
CONTINUOUS
100
AcDbLine
 10
704.8750226281397
 20
765.8319898165567
 30
0.0
 11
704.1677762649399
 21
765.5021935916569
 31
0.0
  0
LINE
  5
4E1A
330
19
100
AcDbEntity
  8
SEIHIN
  6
CONTINUOUS
100
AcDbLine
 10
704.1677762649399
 20
857.6329738117568
 30
0.0
 11
704.8750226281397
 21
857.3031775868567
 31
0.0
  0
LINE
  5
4E1B
330
19
100
AcDbEntity
  8
SEIHIN
  6
CONTINUOUS
100
AcDbLine
 10
704.8750226281397
 20
857.3031775868567
 30
0.0
 11
705.5550892732401
 21
856.9860585249569
 31
0.0
  0
LINE
  5
4E1C
330
19
100
AcDbEntity
  8
SEIHIN
  6
CONTINUOUS
100
AcDbLine
 10
705.5550892732401
 20
856.9860585249569
 30
0.0
 11
706.1818470142404
 21
856.6937983251568
 31
0.0
  0
LINE
  5
4E1D
330
19
100
AcDbEntity
  8
SEIHIN
  6
CONTINUOUS
100
AcDbLine
 10
706.1818470142404
 20
856.6937983251568
 30
0.0
 11
706.7312006733398
 21
856.4376287377568
 31
0.0
  0
LINE
  5
4E1E
330
19
100
AcDbEntity
  8
SEIHIN
  6
CONTINUOUS
100
AcDbLine
 10
706.7312006733398
 20
856.4376287377568
 30
0.0
 11
707.1820427558402
 21
856.2273957050569
 31
0.0
  0
LINE
  5
4E1F
330
19
100
AcDbEntity
  8
SEIHIN
  6
CONTINUOUS
100
AcDbLine
 10
707.1820427558402
 20
856.2273957050569
 30
0.0
 11
707.5170506618404
 21
856.0711793816569
 31
0.0
  0
LINE
  5
4E20
330
19
100
AcDbEntity
  8
SEIHIN
  6
CONTINUOUS
100
AcDbLine
 10
707.5170506618404
 20
856.0711793816569
 30
0.0
 11
707.7233497879404
 21
855.9749849356569
 31
0.0
  0
LINE
  5
4E21
330
19
100
AcDbEntity
  8
SEIHIN
  6
CONTINUOUS
100
AcDbLine
 10
707.7233497879404
 20
855.9749849356569
 30
0.0
 11
707.7930052659401
 21
855.9425004042568
 31
0.0
  0
LINE
  5
4E22
330
19
100
AcDbEntity
  8
SEIHIN
  6
CONTINUOUS
100
AcDbLine
 10
758.5804057202401
 20
906.7299008584567
 30
0.0
 11
758.5479211888403
 21
906.7995563364569
 31
0.0
  0
LINE
  5
4E23
330
19
100
AcDbEntity
  8
SEIHIN
  6
CONTINUOUS
100
AcDbLine
 10
758.5479211888403
 20
906.7995563364569
 30
0.0
 11
758.4517267427397
 21
907.0058554626569
 31
0.0
  0
LINE
  5
4E24
330
19
100
AcDbEntity
  8
SEIHIN
  6
CONTINUOUS
100
AcDbLine
 10
758.4517267427397
 20
907.0058554626569
 30
0.0
 11
758.2955104194404
 21
907.340863368557
 31
0.0
  0
LINE
  5
4E25
330
19
100
AcDbEntity
  8
SEIHIN
  6
CONTINUOUS
100
AcDbLine
 10
758.2955104194404
 20
907.340863368557
 30
0.0
 11
758.0852773867397
 21
907.7917054510571
 31
0.0
  0
LINE
  5
4E26
330
19
100
AcDbEntity
  8
SEIHIN
  6
CONTINUOUS
100
AcDbLine
 10
758.0852773867397
 20
907.7917054510571
 30
0.0
 11
757.8291077993401
 21
908.3410591102568
 31
0.0
  0
LINE
  5
4E27
330
19
100
AcDbEntity
  8
SEIHIN
  6
CONTINUOUS
100
AcDbLine
 10
757.8291077993401
 20
908.3410591102568
 30
0.0
 11
757.5368475995398
 21
908.9678168512568
 31
0.0
  0
LINE
  5
4E28
330
19
100
AcDbEntity
  8
SEIHIN
  6
CONTINUOUS
100
AcDbLine
 10
757.5368475995398
 20
908.9678168512568
 30
0.0
 11
757.2197285375402
 21
909.6478834963569
 31
0.0
  0
LINE
  5
4E29
330
19
100
AcDbEntity
  8
SEIHIN
  6
CONTINUOUS
100
AcDbLine
 10
757.2197285375402
 20
909.6478834963569
 30
0.0
 11
756.8899323127404
 21
910.355129859557
 31
0.0
  0
LINE
  5
4E2A
330
19
100
AcDbEntity
  8
SEIHIN
  6
CONTINUOUS
100
AcDbLine
 10
847.3302391252397
 20
716.405266544957
 30
0.0
 11
847.3627236566397
 21
716.3356110669568
 31
0.0
  0
LINE
  5
4E2B
330
19
100
AcDbEntity
  8
SEIHIN
  6
CONTINUOUS
100
AcDbLine
 10
847.3627236566397
 20
716.3356110669568
 30
0.0
 11
847.4589181027397
 21
716.1293119407567
 31
0.0
  0
LINE
  5
4E2C
330
19
100
AcDbEntity
  8
SEIHIN
  6
CONTINUOUS
100
AcDbLine
 10
847.4589181027397
 20
716.1293119407567
 30
0.0
 11
847.6151344261399
 21
715.7943040347571
 31
0.0
  0
LINE
  5
4E2D
330
19
100
AcDbEntity
  8
SEIHIN
  6
CONTINUOUS
100
AcDbLine
 10
847.6151344261399
 20
715.7943040347571
 30
0.0
 11
847.8253674588398
 21
715.3434619522571
 31
0.0
  0
LINE
  5
4E2E
330
19
100
AcDbEntity
  8
SEIHIN
  6
CONTINUOUS
100
AcDbLine
 10
847.8253674588398
 20
715.3434619522571
 30
0.0
 11
848.0815370462398
 21
714.7941082931569
 31
0.0
  0
LINE
  5
4E2F
330
19
100
AcDbEntity
  8
SEIHIN
  6
CONTINUOUS
100
AcDbLine
 10
848.0815370462398
 20
714.7941082931569
 30
0.0
 11
848.3737972460401
 21
714.167350552157
 31
0.0
  0
LINE
  5
4E30
330
19
100
AcDbEntity
  8
SEIHIN
  6
CONTINUOUS
100
AcDbLine
 10
848.3737972460401
 20
714.167350552157
 30
0.0
 11
848.6909163079397
 21
713.4872839070566
 31
0.0
  0
LINE
  5
4E31
330
19
100
AcDbEntity
  8
SEIHIN
  6
CONTINUOUS
100
AcDbLine
 10
848.6909163079397
 20
713.4872839070566
 30
0.0
 11
849.0207125327399
 21
712.7800375438567
 31
0.0
  0
LINE
  5
4E32
330
19
100
AcDbEntity
  8
SEIHIN
  6
CONTINUOUS
100
AcDbLine
 10
901.74286858064
 20
765.5021935916569
 30
0.0
 11
901.0356222174403
 21
765.8319898165567
 31
0.0
  0
LINE
  5
4E33
330
19
100
AcDbEntity
  8
SEIHIN
  6
CONTINUOUS
100
AcDbLine
 10
901.0356222174403
 20
765.8319898165567
 30
0.0
 11
900.3555555723403
 21
766.1491088784567
 31
0.0
  0
LINE
  5
4E34
330
19
100
AcDbEntity
  8
SEIHIN
  6
CONTINUOUS
100
AcDbLine
 10
900.3555555723403
 20
766.1491088784567
 30
0.0
 11
899.7287978313405
 21
766.441369078257
 31
0.0
  0
LINE
  5
4E35
330
19
100
AcDbEntity
  8
SEIHIN
  6
CONTINUOUS
100
AcDbLine
 10
899.7287978313405
 20
766.441369078257
 30
0.0
 11
899.1794441721401
 21
766.6975386656568
 31
0.0
  0
LINE
  5
4E36
330
19
100
AcDbEntity
  8
SEIHIN
  6
CONTINUOUS
100
AcDbLine
 10
899.1794441721401
 20
766.6975386656568
 30
0.0
 11
898.7286020896396
 21
766.9077716983569
 31
0.0
  0
LINE
  5
4E37
330
19
100
AcDbEntity
  8
SEIHIN
  6
CONTINUOUS
100
AcDbLine
 10
898.7286020896396
 20
766.9077716983569
 30
0.0
 11
898.3935941837401
 21
767.0639880216569
 31
0.0
  0
LINE
  5
4E38
330
19
100
AcDbEntity
  8
SEIHIN
  6
CONTINUOUS
100
AcDbLine
 10
898.3935941837401
 20
767.0639880216569
 30
0.0
 11
898.1872950575406
 21
767.1601824677569
 31
0.0
  0
LINE
  5
4E39
330
19
100
AcDbEntity
  8
SEIHIN
  6
CONTINUOUS
100
AcDbLine
 10
898.1872950575406
 20
767.1601824677569
 30
0.0
 11
898.1176395795399
 21
767.1926669991568
 31
0.0
  0
LINE
  5
4E3A
330
19
100
AcDbEntity
  8
SEIHIN
  6
CONTINUOUS
100
AcDbLine
 10
849.0207125327399
 20
910.355129859557
 30
0.0
 11
848.6909163079397
 21
909.6478834963569
 31
0.0
  0
LINE
  5
4E3B
330
19
100
AcDbEntity
  8
SEIHIN
  6
CONTINUOUS
100
AcDbLine
 10
848.6909163079397
 20
909.6478834963569
 30
0.0
 11
848.3737972460401
 21
908.9678168512568
 31
0.0
  0
LINE
  5
4E3C
330
19
100
AcDbEntity
  8
SEIHIN
  6
CONTINUOUS
100
AcDbLine
 10
848.3737972460401
 20
908.9678168512568
 30
0.0
 11
848.0815370462398
 21
908.3410591102568
 31
0.0
  0
LINE
  5
4E3D
330
19
100
AcDbEntity
  8
SEIHIN
  6
CONTINUOUS
100
AcDbLine
 10
848.0815370462398
 20
908.3410591102568
 30
0.0
 11
847.8253674588398
 21
907.7917054510571
 31
0.0
  0
LINE
  5
4E3E
330
19
100
AcDbEntity
  8
SEIHIN
  6
CONTINUOUS
100
AcDbLine
 10
847.8253674588398
 20
907.7917054510571
 30
0.0
 11
847.6151344261399
 21
907.340863368557
 31
0.0
  0
LINE
  5
4E3F
330
19
100
AcDbEntity
  8
SEIHIN
  6
CONTINUOUS
100
AcDbLine
 10
847.6151344261399
 20
907.340863368557
 30
0.0
 11
847.4589181027397
 21
907.0058554626569
 31
0.0
  0
LINE
  5
4E40
330
19
100
AcDbEntity
  8
SEIHIN
  6
CONTINUOUS
100
AcDbLine
 10
847.4589181027397
 20
907.0058554626569
 30
0.0
 11
847.3627236566397
 21
906.7995563364569
 31
0.0
  0
LINE
  5
4E41
330
19
100
AcDbEntity
  8
SEIHIN
  6
CONTINUOUS
100
AcDbLine
 10
847.3627236566397
 20
906.7995563364569
 30
0.0
 11
847.3302391252397
 21
906.7299008584567
 31
0.0
  0
LINE
  5
4E42
330
19
100
AcDbEntity
  8
SEIHIN
  6
CONTINUOUS
100
AcDbLine
 10
898.1176395795399
 20
855.9425004042568
 30
0.0
 11
898.1872950575406
 21
855.9749849356569
 31
0.0
  0
LINE
  5
4E43
330
19
100
AcDbEntity
  8
SEIHIN
  6
CONTINUOUS
100
AcDbLine
 10
898.1872950575406
 20
855.9749849356569
 30
0.0
 11
898.3935941837401
 21
856.0711793816569
 31
0.0
  0
LINE
  5
4E44
330
19
100
AcDbEntity
  8
SEIHIN
  6
CONTINUOUS
100
AcDbLine
 10
898.3935941837401
 20
856.0711793816569
 30
0.0
 11
898.7286020896396
 21
856.2273957050569
 31
0.0
  0
LINE
  5
4E45
330
19
100
AcDbEntity
  8
SEIHIN
  6
CONTINUOUS
100
AcDbLine
 10
898.7286020896396
 20
856.2273957050569
 30
0.0
 11
899.1794441721401
 21
856.4376287377568
 31
0.0
  0
LINE
  5
4E46
330
19
100
AcDbEntity
  8
SEIHIN
  6
CONTINUOUS
100
AcDbLine
 10
899.1794441721401
 20
856.4376287377568
 30
0.0
 11
899.7287978313405
 21
856.6937983251568
 31
0.0
  0
LINE
  5
4E47
330
19
100
AcDbEntity
  8
SEIHIN
  6
CONTINUOUS
100
AcDbLine
 10
899.7287978313405
 20
856.6937983251568
 30
0.0
 11
900.3555555723403
 21
856.9860585249569
 31
0.0
  0
LINE
  5
4E48
330
19
100
AcDbEntity
  8
SEIHIN
  6
CONTINUOUS
100
AcDbLine
 10
900.3555555723403
 20
856.9860585249569
 30
0.0
 11
901.0356222174403
 21
857.3031775868567
 31
0.0
  0
LINE
  5
4E49
330
19
100
AcDbEntity
  8
SEIHIN
  6
CONTINUOUS
100
AcDbLine
 10
901.0356222174403
 20
857.3031775868567
 30
0.0
 11
901.74286858064
 21
857.6329738117568
 31
0.0
  0
LINE
  5
4E53
330
19
100
AcDbEntity
  8
SEIHIN
  6
CONTINUOUS
100
AcDbLine
 10
1381.196130591634
 20
450.81985220464
 30
0.0
 11
1381.196130591634
 21
452.8198522046401
 31
0.0
  0
LINE
  5
4E54
330
19
100
AcDbEntity
  8
SEIHIN
  6
CONTINUOUS
100
AcDbLine
 10
1373.196130591614
 20
453.3198522046401
 30
0.0
 11
1373.196130591614
 21
452.8198522046401
 31
0.0
  0
ARC
  5
4E55
330
19
100
AcDbEntity
  8
SEIHIN
  6
CONTINUOUS
100
AcDbCircle
 10
1362.996130591634
 20
445.8198522046401
 30
0.0
 40
2.000000000000454
100
AcDbArc
 50
90.0
 51
180.0
  0
LINE
  5
4E56
330
19
100
AcDbEntity
  8
SEIHIN
  6
CONTINUOUS
100
AcDbLine
 10
1375.196130591634
 20
447.81985220464
 30
0.0
 11
1381.196130591634
 21
450.81985220464
 31
0.0
  0
ARC
  5
4E57
330
19
100
AcDbEntity
  8
SEIHIN
  6
CONTINUOUS
100
AcDbCircle
 10
1135.396130591634
 20
445.8198522046401
 30
0.0
 40
2.0
100
AcDbArc
 50
0.0
 51
90.0
  0
LINE
  5
4E58
330
19
100
AcDbEntity
  8
SEIHIN
  6
CONTINUOUS
100
AcDbLine
 10
1375.196130591634
 20
447.81985220464
 30
0.0
 11
1123.196130591634
 21
447.81985220464
 31
0.0
  0
LINE
  5
4E59
330
19
100
AcDbEntity
  8
SEIHIN
  6
CONTINUOUS
100
AcDbLine
 10
1381.196130591634
 20
452.8198522046401
 30
0.0
 11
1117.196130591634
 21
452.8198522046401
 31
0.0
  0
LINE
  5
4E5A
330
19
100
AcDbEntity
  8
SEIHIN
  6
CONTINUOUS
100
AcDbLine
 10
1381.196130591634
 20
450.81985220464
 30
0.0
 11
1117.196130591634
 21
450.81985220464
 31
0.0
  0
DIMENSION
  5
4E5C
330
19
100
AcDbEntity
  8
SUNPOU
100
AcDbDimension
  2
*D8
 10
1381.196130591634
 20
570.2599441158997
 30
0.0
 11
1249.196130591633
 21
578.2599441158997
 31
0.0
 70
    32
  3
STANDARD
100
AcDbAlignedDimension
 13
1117.196130591634
 23
452.8198522046401
 33
0.0
 14
1381.196130591634
 24
452.8198522046401
 34
0.0
100
AcDbRotatedDimension
1001
ACAD
1000
DSTYLE
1002
{
1070
    41
1040
12.0
1070
    42
1040
5.0
1070
    43
1040
28.0
1070
    44
1040
5.0
1070
    73
1070
     0
1070
    74
1070
     0
1070
    77
1070
     3
1070
   140
1040
8.0
1070
   141
1040
3.0
1070
   143
1040
0.03937
1070
   147
1040
4.0
1070
   172
1070
     1
1070
   173
1070
     1
1070
   176
1070
   256
1070
   177
1070
   256
1070
   178
1070
   256
1070
   271
1070
     0
1070
   272
1070
     0
1070
   341
1005
27
1070
     6
1000
OPEN
1070
     7
1000
OPEN
1070
   371
1070
    -1
1070
   372
1070
    -1
1002
}
  0
ARC
  5
4E5D
330
19
100
AcDbEntity
  8
SEIHIN
  6
CONTINUOUS
100
AcDbCircle
 10
1262.196130591614
 20
309.81985220464
 30
0.0
 40
2.0
100
AcDbArc
 50
0.0
 51
90.0
  0
ARC
  5
4E5E
330
19
100
AcDbEntity
  8
SEIHIN
  6
CONTINUOUS
100
AcDbCircle
 10
1266.196130591614
 20
303.81985220464
 30
0.0
 40
2.0
100
AcDbArc
 50
180.0
 51
270.0
  0
LINE
  5
4E5F
330
19
100
AcDbEntity
  8
SEIHIN
  6
CONTINUOUS
100
AcDbLine
 10
1264.196130591614
 20
303.81985220464
 30
0.0
 11
1264.196130591614
 21
309.81985220464
 31
0.0
  0
ARC
  5
4E60
330
19
100
AcDbEntity
  8
SEIHIN
  6
CONTINUOUS
100
AcDbCircle
 10
1236.196130591615
 20
309.81985220464
 30
0.0
 40
2.0
100
AcDbArc
 50
90.0
 51
180.0
  0
LINE
  5
4E61
330
19
100
AcDbEntity
  8
SEIHIN
  6
CONTINUOUS
100
AcDbLine
 10
1236.196130591615
 20
311.81985220464
 30
0.0
 11
1249.196130591614
 21
311.81985220464
 31
0.0
  0
ARC
  5
4E62
330
19
100
AcDbEntity
  8
SEIHIN
  6
CONTINUOUS
100
AcDbCircle
 10
1232.196130591615
 20
303.81985220464
 30
0.0
 40
2.0
100
AcDbArc
 50
270.0
 51
0.0
  0
ARC
  5
4E63
330
19
100
AcDbEntity
  8
SEIHIN
  6
CONTINUOUS
100
AcDbCircle
 10
1232.196130591615
 20
303.81985220464
 30
0.0
 40
2.0
100
AcDbArc
 50
270.0
 51
0.0
  0
LINE
  5
4E64
330
19
100
AcDbEntity
  8
SEIHIN
  6
CONTINUOUS
100
AcDbLine
 10
1234.196130591615
 20
309.81985220464
 30
0.0
 11
1234.196130591615
 21
303.81985220464
 31
0.0
  0
LINE
  5
4E65
330
19
100
AcDbEntity
  8
SEIHIN
  6
CONTINUOUS
100
AcDbLine
 10
1249.196130591614
 20
311.81985220464
 30
0.0
 11
1262.196130591614
 21
311.81985220464
 31
0.0
  0
LINE
  5
4E66
330
19
100
AcDbEntity
  8
SEIHIN
  6
CONTINUOUS
100
AcDbLine
 10
1360.996130591634
 20
301.81985220464
 30
0.0
 11
1266.196130591614
 21
301.81985220464
 31
0.0
  0
LINE
  5
4E67
330
19
100
AcDbEntity
  8
SEIHIN
  6
CONTINUOUS
100
AcDbLine
 10
1232.196130591615
 20
301.81985220464
 30
0.0
 11
1137.396130591634
 21
301.81985220464
 31
0.0
  0
DIMENSION
  5
4E68
330
19
100
AcDbEntity
  8
SUNPOU
100
AcDbDimension
  2
*D7
 10
1434.520878856725
 20
301.81985220464
 30
0.0
 11
1426.520878856725
 21
413.0698522046402
 31
0.0
 70
    32
  3
STANDARD
100
AcDbAlignedDimension
 13
1249.196130591614
 23
524.31985220464
 33
0.0
 14
1360.996130591634
 24
301.81985220464
 34
0.0
 50
90.0
100
AcDbRotatedDimension
1001
ACAD
1000
DSTYLE
1002
{
1070
    41
1040
12.0
1070
    42
1040
5.0
1070
    43
1040
28.0
1070
    44
1040
5.0
1070
    73
1070
     0
1070
    74
1070
     0
1070
    77
1070
     3
1070
   140
1040
8.0
1070
   141
1040
3.0
1070
   143
1040
0.03937
1070
   147
1040
4.0
1070
   172
1070
     1
1070
   173
1070
     1
1070
   176
1070
   256
1070
   177
1070
   256
1070
   178
1070
   256
1070
   271
1070
     0
1070
   272
1070
     0
1070
   341
1005
27
1070
     6
1000
OPEN
1070
     7
1000
OPEN
1070
   371
1070
    -1
1070
   372
1070
    -1
1002
}
  0
LINE
  5
4E69
330
19
100
AcDbEntity
  8
SEIHIN
  6
CONTINUOUS
100
AcDbLine
 10
1137.396130591634
 20
445.8198522046401
 30
0.0
 11
1137.396130591634
 21
301.81985220464
 31
0.0
  0
LINE
  5
4E6A
330
19
100
AcDbEntity
  8
SEIHIN
  6
CONTINUOUS
100
AcDbLine
 10
1360.996130591634
 20
301.81985220464
 30
0.0
 11
1360.996130591634
 21
445.8198522046401
 31
0.0
  0
LINE
  5
4E6B
330
19
100
AcDbEntity
  8
SEIHIN
  6
CONTINUOUS
100
AcDbLine
 10
1125.196130591614
 20
453.3198522046401
 30
0.0
 11
1125.196130591614
 21
452.8198522046401
 31
0.0
  0
LINE
  5
4E6C
330
19
100
AcDbEntity
  8
SEIHIN
  6
CONTINUOUS
100
AcDbLine
 10
1117.196130591634
 20
452.8198522046401
 30
0.0
 11
1117.196130591634
 21
450.81985220464
 31
0.0
  0
LINE
  5
4E6D
330
19
100
AcDbEntity
  8
SEIHIN
  6
CONTINUOUS
100
AcDbLine
 10
1117.196130591634
 20
450.81985220464
 30
0.0
 11
1123.196130591634
 21
447.81985220464
 31
0.0
  0
LINE
  5
4EBD
330
19
100
AcDbEntity
  8
SEIHIN
  6
CONTINUOUS
100
AcDbLine
 10
1152.276973980714
 20
454.3198522046398
 30
0.0
 11
1152.276971678804
 21
471.4089120602923
 31
0.0
  0
ARC
  5
4EBE
330
19
100
AcDbEntity
  8
SEIHIN
  6
CONTINUOUS
100
AcDbCircle
 10
1153.276971678804
 20
471.4089121949932
 30
0.0
 40
1.000000000000009
100
AcDbArc
 50
139.9698474315117
 51
180.0000077177953
  0
LINE
  5
4EBF
330
19
100
AcDbEntity
  8
SEIHIN
  6
CONTINUOUS
100
AcDbLine
 10
1284.509017757714
 20
517.3198522046398
 30
0.0
 11
1255.612797258314
 21
517.3198522046398
 31
0.0
  0
LINE
  5
4EC0
330
19
100
AcDbEntity
  8
SEIHIN
  6
CONTINUOUS
100
AcDbLine
 10
1141.808980522414
 20
452.8198522046397
 30
0.0
 11
1187.196130591614
 21
452.8198522046397
 31
0.0
  0
LINE
  5
4EC1
330
19
100
AcDbEntity
  8
SEIHIN
  6
CONTINUOUS
100
AcDbLine
 10
1156.098399684814
 20
454.3198522046398
 30
0.0
 11
1145.273082137514
 21
454.3198522046398
 31
0.0
  0
LINE
  5
4EC2
330
19
100
AcDbEntity
  8
SEIHIN
  6
CONTINUOUS
100
AcDbLine
 10
1311.196130591614
 20
452.8198522046397
 30
0.0
 11
1311.196130591614
 21
453.3198522046397
 31
0.0
  0
LINE
  5
4EC3
330
19
100
AcDbEntity
  8
SEIHIN
  6
CONTINUOUS
100
AcDbLine
 10
1243.196130539514
 20
454.3806878359396
 30
0.0
 11
1243.196130591614
 21
458.3198522046398
 31
0.0
  0
LINE
  5
4EC4
330
19
100
AcDbEntity
  8
SEIHIN
  6
CONTINUOUS
100
AcDbLine
 10
1255.612797258314
 20
517.3198522046398
 30
0.0
 11
1255.175209819814
 21
517.3198522046398
 31
0.0
  0
LINE
  5
4EC5
330
19
100
AcDbEntity
  8
SEIHIN
  6
CONTINUOUS
100
AcDbLine
 10
1280.585363628114
 20
524.3198522046397
 30
0.0
 11
1284.509017757714
 21
524.3198522046397
 31
0.0
  0
ARC
  5
4EC7
330
19
100
AcDbEntity
  8
SEIHIN
  6
CONTINUOUS
100
AcDbCircle
 10
1342.370084579314
 20
451.3809563501397
 30
0.0
 40
2.939884133084659
100
AcDbArc
 50
91.48567689729864
 51
150.6962423898982
  0
LINE
  5
4EC8
330
19
100
AcDbEntity
  8
SEIHIN
  6
CONTINUOUS
100
AcDbLine
 10
1187.196130591614
 20
453.3198522046397
 30
0.0
 11
1189.196130591614
 21
454.3198522046398
 31
0.0
  0
LINE
  5
4EC9
330
19
100
AcDbEntity
  8
SEIHIN
  6
CONTINUOUS
100
AcDbLine
 10
1311.196130591614
 20
453.3198522046397
 30
0.0
 11
1187.196130591614
 21
453.3198522046397
 31
0.0
  0
LINE
  5
4ECA
330
19
100
AcDbEntity
  8
SEIHIN
  6
CONTINUOUS
100
AcDbLine
 10
1309.196130591614
 20
454.3198522046398
 30
0.0
 11
1189.196130591614
 21
454.3198522046398
 31
0.0
  0
LINE
  5
4ECB
330
19
100
AcDbEntity
  8
SEIHIN
  6
CONTINUOUS
100
AcDbLine
 10
1242.779463925014
 20
517.3198522046398
 30
0.0
 11
1216.825984022814
 21
517.3198522046398
 31
0.0
  0
LINE
  5
4ECC
330
19
100
AcDbEntity
  8
SEIHIN
  6
CONTINUOUS
100
AcDbLine
 10
1217.806897555214
 20
524.3198522046397
 30
0.0
 11
1242.973908369414
 21
524.3198522046397
 31
0.0
  0
LINE
  5
4ECD
330
19
100
AcDbEntity
  8
SEIHIN
  6
CONTINUOUS
100
AcDbLine
 10
1255.196130591614
 20
472.1360307990399
 30
0.0
 11
1255.196130591614
 21
458.3198522046398
 31
0.0
  0
LINE
  5
4ECE
330
19
100
AcDbEntity
  8
SEIHIN
  6
CONTINUOUS
100
AcDbLine
 10
1255.196130591614
 20
458.3198522046398
 30
0.0
 11
1255.196130643814
 21
454.3796890434395
 31
0.0
  0
LINE
  5
4ECF
330
19
100
AcDbEntity
  8
SEIHIN
  6
CONTINUOUS
100
AcDbLine
 10
1243.196130591614
 20
458.3198522046398
 30
0.0
 11
1243.196130591614
 21
472.1360307990399
 31
0.0
  0
LINE
  5
4ED0
330
19
100
AcDbEntity
  8
SEIHIN
  6
CONTINUOUS
100
AcDbLine
 10
1145.196130591614
 20
472.1360307990399
 30
0.0
 11
1145.196130591614
 21
458.3198522046398
 31
0.0
  0
ARC
  5
4ED1
330
19
100
AcDbEntity
  8
SEIHIN
  6
CONTINUOUS
100
AcDbCircle
 10
1141.196130591614
 20
458.3198522046398
 30
0.0
 40
4.000000000000227
100
AcDbArc
 50
270.0
 51
0.0
  0
LINE
  5
4ED2
330
19
100
AcDbEntity
  8
SEIHIN
  6
CONTINUOUS
100
AcDbLine
 10
1141.808980522414
 20
452.8198522046397
 30
0.0
 11
1141.808980522414
 21
453.3198522046397
 31
0.0
  0
ARC
  5
4ED3
330
19
100
AcDbEntity
  8
SEIHIN
  6
CONTINUOUS
100
AcDbCircle
 10
1242.478330644014
 20
452.4860413322398
 30
0.0
 40
1.847827418856991
100
AcDbArc
 50
86.87589323470247
 51
95.68415324279802
  0
LINE
  5
4ED5
330
19
100
AcDbEntity
  8
SEIHIN
  6
CONTINUOUS
100
AcDbLine
 10
1246.127391525814
 20
475.9927564572399
 30
0.0
 11
1252.264869657414
 21
475.9927564572399
 31
0.0
  0
ARC
  5
4ED6
330
19
100
AcDbEntity
  8
SEIHIN
  6
CONTINUOUS
100
AcDbCircle
 10
1310.075379887414
 20
521.8198522046398
 30
0.0
 40
2.500000000000174
100
AcDbArc
 50
40.00000000000258
 51
90.0
  0
LINE
  5
4ED7
330
19
100
AcDbEntity
  8
SEIHIN
  6
CONTINUOUS
100
AcDbLine
 10
1353.196130591614
 20
458.3198522046398
 30
0.0
 11
1353.196130591614
 21
472.1360307990399
 31
0.0
  0
LINE
  5
4ED8
330
19
100
AcDbEntity
  8
SEIHIN
  6
CONTINUOUS
100
AcDbLine
 10
1369.196130591614
 20
454.3198522046398
 30
0.0
 11
1357.196130591614
 21
454.3198522046398
 31
0.0
  0
ARC
  5
4ED9
330
19
100
AcDbEntity
  8
SEIHIN
  6
CONTINUOUS
100
AcDbCircle
 10
1357.196130591614
 20
458.3198522046398
 30
0.0
 40
4.0
100
AcDbArc
 50
180.0
 51
270.0
  0
LINE
  5
4EDA
330
19
100
AcDbEntity
  8
SEIHIN
  6
CONTINUOUS
100
AcDbLine
 10
1357.025460961444
 20
454.3198522046398
 30
0.0
 11
1342.293861498514
 21
454.3198522046398
 31
0.0
  0
LINE
  5
4EDB
330
19
100
AcDbEntity
  8
SEIHIN
  6
CONTINUOUS
100
AcDbLine
 10
1346.115289504525
 20
471.4089123476674
 30
0.0
 11
1346.115287202614
 21
454.3198522046398
 31
0.0
  0
ARC
  5
4EDC
330
19
100
AcDbEntity
  8
SEIHIN
  6
CONTINUOUS
100
AcDbCircle
 10
1345.115289504525
 20
471.4089124823683
 30
0.0
 40
0.9999999999996688
100
AcDbArc
 50
359.9999922822046
 51
40.02327489118129
  0
LINE
  5
4EDD
330
19
100
AcDbEntity
  8
SEIHIN
  6
CONTINUOUS
100
AcDbLine
 10
1284.509017757714
 20
524.3198522046397
 30
0.0
 11
1310.001418148014
 21
524.3198522046397
 31
0.0
  0
LINE
  5
4EDE
330
19
100
AcDbEntity
  8
SEIHIN
  6
CONTINUOUS
100
AcDbLine
 10
1310.001418148014
 20
524.3198522046397
 30
0.0
 11
1310.075379887414
 21
524.3198522046397
 31
0.0
  0
ARC
  5
4EDF
330
19
100
AcDbEntity
  8
SEIHIN
  6
CONTINUOUS
100
AcDbCircle
 10
1307.375095883114
 20
516.3052063687396
 30
0.0
 40
1.014648373245268
100
AcDbArc
 50
40.38683284550495
 51
90.09930721969714
  0
LINE
  5
4EE0
330
19
100
AcDbEntity
  8
SEIHIN
  6
CONTINUOUS
100
AcDbLine
 10
1255.196130643814
 20
474.0254681423398
 30
0.0
 11
1255.196130643814
 21
473.3364533499398
 31
0.0
  0
LINE
  5
4EE1
330
19
100
AcDbEntity
  8
SEIHIN
  6
CONTINUOUS
100
AcDbLine
 10
1243.197955718514
 20
517.3198522046398
 30
0.0
 11
1242.779463925014
 21
517.3198522046398
 31
0.0
  0
ARC
  5
4EE2
330
19
100
AcDbEntity
  8
SEIHIN
  6
CONTINUOUS
100
AcDbCircle
 10
1246.196147937914
 20
521.3198330322398
 30
0.0
 40
3.000017398443574
100
AcDbArc
 50
92.17738794200213
 51
179.9996019624041
  0
LINE
  5
4EE3
330
19
100
AcDbEntity
  8
SEIHIN
  6
CONTINUOUS
100
AcDbLine
 10
1243.196130591614
 20
474.0643936281399
 30
0.0
 11
1243.196130591614
 21
521.3198522046398
 31
0.0
  0
LINE
  5
4EE4
330
19
100
AcDbEntity
  8
SEIHIN
  6
CONTINUOUS
100
AcDbLine
 10
1255.196130591614
 20
521.3198522046398
 30
0.0
 11
1255.196130591614
 21
474.0643936281399
 31
0.0
  0
LINE
  5
4EE5
330
19
100
AcDbEntity
  8
SEIHIN
  6
CONTINUOUS
100
AcDbLine
 10
1216.825984022814
 20
517.3198522046398
 30
0.0
 11
1213.883243425614
 21
517.3198522046398
 31
0.0
  0
LINE
  5
4EE6
330
19
100
AcDbEntity
  8
SEIHIN
  6
CONTINUOUS
100
AcDbLine
 10
1246.196130591614
 20
524.3198522046397
 30
0.0
 11
1246.082167030414
 21
524.3176868076398
 31
0.0
  0
LINE
  5
4EE7
330
19
100
AcDbEntity
  8
SEIHIN
  6
CONTINUOUS
100
AcDbLine
 10
1252.196130591614
 20
524.3198522046397
 30
0.0
 11
1252.310094152814
 21
524.3176868076398
 31
0.0
  0
ARC
  5
4EE8
330
19
100
AcDbEntity
  8
SEIHIN
  6
CONTINUOUS
100
AcDbCircle
 10
1151.196130591614
 20
472.1360307990399
 30
0.0
 40
5.999999999999885
100
AcDbArc
 50
139.9999999999973
 51
180.0
  0
LINE
  5
4EE9
330
19
100
AcDbEntity
  8
SEIHIN
  6
CONTINUOUS
100
AcDbLine
 10
1146.599863932914
 20
475.9927564572399
 30
0.0
 11
1146.645768462314
 21
475.9927564572399
 31
0.0
  0
LINE
  5
4EEA
330
19
100
AcDbEntity
  8
SEIHIN
  6
CONTINUOUS
100
AcDbLine
 10
1309.196130591614
 20
454.3198522046398
 30
0.0
 11
1311.196130591614
 21
453.3198522046397
 31
0.0
  0
LINE
  5
4EEB
330
19
100
AcDbEntity
  8
SEIHIN
  6
CONTINUOUS
100
AcDbLine
 10
1255.418352813914
 20
524.3198522046397
 30
0.0
 11
1280.585363628114
 21
524.3198522046397
 31
0.0
  0
LINE
  5
4EEC
330
19
100
AcDbEntity
  8
SEIHIN
  6
CONTINUOUS
100
AcDbLine
 10
1187.196130591614
 20
452.8198522046397
 30
0.0
 11
1187.196130591614
 21
453.3198522046397
 31
0.0
  0
ARC
  5
4EED
330
19
100
AcDbEntity
  8
SEIHIN
  6
CONTINUOUS
100
AcDbCircle
 10
1156.022176604014
 20
451.3809563501397
 30
0.0
 40
2.93988413308442
100
AcDbArc
 50
29.30375761010815
 51
88.51432310270139
  0
LINE
  5
4EEE
330
19
100
AcDbEntity
  8
SEIHIN
  6
CONTINUOUS
100
AcDbLine
 10
1246.196130591614
 20
524.3198522046397
 30
0.0
 11
1252.196130591614
 21
524.3198522046397
 31
0.0
  0
LINE
  5
4EEF
330
19
100
AcDbEntity
  8
SEIHIN
  6
CONTINUOUS
100
AcDbLine
 10
1255.196130643814
 20
473.3364533499398
 30
0.0
 11
1255.196130643814
 21
472.3110411182396
 31
0.0
  0
LINE
  5
4EF0
330
19
100
AcDbEntity
  8
SEIHIN
  6
CONTINUOUS
100
AcDbLine
 10
1213.883243425614
 20
524.3198522046397
 30
0.0
 11
1217.806897555214
 21
524.3198522046397
 31
0.0
  0
LINE
  5
4EF2
330
19
100
AcDbEntity
  8
SEIHIN
  6
CONTINUOUS
100
AcDbLine
 10
1145.273082137514
 20
454.3198522046398
 30
0.0
 11
1141.808980522414
 21
453.3198522046397
 31
0.0
  0
LINE
  5
4EF3
330
19
100
AcDbEntity
  8
SEIHIN
  6
CONTINUOUS
100
AcDbLine
 10
1243.196130539514
 20
472.3110411182396
 30
0.0
 11
1243.196130539514
 21
473.3364533499398
 31
0.0
  0
LINE
  5
4EF5
330
19
100
AcDbEntity
  8
SEIHIN
  6
CONTINUOUS
100
AcDbLine
 10
1186.401770188114
 20
523.4268212288397
 30
0.0
 11
1146.599863932914
 21
475.9927564572399
 31
0.0
  0
LINE
  5
4EF6
330
19
100
AcDbEntity
  8
SEIHIN
  6
CONTINUOUS
100
AcDbLine
 10
1129.196130591614
 20
454.3198522046398
 30
0.0
 11
1125.196130591614
 21
453.3198522046397
 31
0.0
  0
LINE
  5
4EF7
330
19
100
AcDbEntity
  8
SEIHIN
  6
CONTINUOUS
100
AcDbLine
 10
1141.808980522414
 20
453.3198522046397
 30
0.0
 11
1125.196130591614
 21
453.3198522046397
 31
0.0
  0
LINE
  5
4EF8
330
19
100
AcDbEntity
  8
SEIHIN
  6
CONTINUOUS
100
AcDbLine
 10
1145.273082137514
 20
454.3198522046398
 30
0.0
 11
1129.196130591614
 21
454.3198522046398
 31
0.0
  0
LINE
  5
4EF9
330
19
100
AcDbEntity
  8
SEIHIN
  6
CONTINUOUS
100
AcDbLine
 10
1188.390843035314
 20
524.3198522046397
 30
0.0
 11
1188.391479924314
 21
524.3176868076398
 31
0.0
  0
ARC
  5
4EFA
330
19
100
AcDbEntity
  8
SEIHIN
  6
CONTINUOUS
100
AcDbCircle
 10
1191.017696273414
 20
516.3040549651397
 30
0.0
 40
1.015798994611563
100
AcDbArc
 50
89.93075465410704
 51
139.583105280693
  0
ARC
  5
4EFB
330
19
100
AcDbEntity
  8
SEIHIN
  6
CONTINUOUS
100
AcDbCircle
 10
1188.316881295914
 20
521.8198522046398
 30
0.0
 40
2.5
100
AcDbArc
 50
90.0
 51
139.9999999999973
  0
LINE
  5
4EFC
330
19
100
AcDbEntity
  8
SEIHIN
  6
CONTINUOUS
100
AcDbLine
 10
1188.316881295914
 20
524.3198522046397
 30
0.0
 11
1188.390843035314
 21
524.3198522046397
 31
0.0
  0
LINE
  5
4EFD
330
19
100
AcDbEntity
  8
SEIHIN
  6
CONTINUOUS
100
AcDbLine
 10
1213.883243425614
 20
517.3198522046398
 30
0.0
 11
1191.018922179614
 21
517.3198522046398
 31
0.0
  0
LINE
  5
4EFE
330
19
100
AcDbEntity
  8
SEIHIN
  6
CONTINUOUS
100
AcDbLine
 10
1188.390843035314
 20
524.3198522046397
 30
0.0
 11
1213.883243425614
 21
524.3198522046397
 31
0.0
  0
LINE
  5
4EFF
330
19
100
AcDbEntity
  8
SEIHIN
  6
CONTINUOUS
100
AcDbLine
 10
1356.583280660914
 20
452.8198522046397
 30
0.0
 11
1356.583280660914
 21
453.3198522046397
 31
0.0
  0
LINE
  5
4F00
330
19
100
AcDbEntity
  8
SEIHIN
  6
CONTINUOUS
100
AcDbLine
 10
1373.196130591614
 20
453.3198522046397
 30
0.0
 11
1356.583280660914
 21
453.3198522046397
 31
0.0
  0
LINE
  5
4F01
330
19
100
AcDbEntity
  8
SEIHIN
  6
CONTINUOUS
100
AcDbLine
 10
1373.196130591614
 20
453.3198522046397
 30
0.0
 11
1369.196130591614
 21
454.3198522046398
 31
0.0
  0
LINE
  5
4F02
330
19
100
AcDbEntity
  8
SEIHIN
  6
CONTINUOUS
100
AcDbLine
 10
1311.196130591614
 20
452.8198522046397
 30
0.0
 11
1356.583280660914
 21
452.8198522046397
 31
0.0
  0
LINE
  5
4F03
330
19
100
AcDbEntity
  8
SEIHIN
  6
CONTINUOUS
100
AcDbLine
 10
1310.001418148014
 20
524.3198522046397
 30
0.0
 11
1310.000781259014
 21
524.3176868076398
 31
0.0
  0
LINE
  5
4F04
330
19
100
AcDbEntity
  8
SEIHIN
  6
CONTINUOUS
100
AcDbLine
 10
1351.746492720914
 20
475.9927564572399
 30
0.0
 11
1351.792397250314
 21
475.9927564572399
 31
0.0
  0
LINE
  5
4F05
330
19
100
AcDbEntity
  8
SEIHIN
  6
CONTINUOUS
100
AcDbLine
 10
1243.196130539514
 20
473.3364533499398
 30
0.0
 11
1243.196130539514
 21
474.0254681423398
 31
0.0
  0
LINE
  5
4F06
330
19
100
AcDbEntity
  8
SEIHIN
  6
CONTINUOUS
100
AcDbLine
 10
1255.196130591614
 20
474.0643936281399
 30
0.0
 11
1255.196130591614
 21
472.1360307990399
 31
0.0
  0
ARC
  5
4F08
330
19
100
AcDbEntity
  8
SEIHIN
  6
CONTINUOUS
100
AcDbCircle
 10
1252.196113245414
 20
521.3198330322398
 30
0.0
 40
3.000017398443648
100
AcDbArc
 50
0.0003980375958859
 51
87.82261205799789
  0
LINE
  5
4F09
330
19
100
AcDbEntity
  8
SEIHIN
  6
CONTINUOUS
100
AcDbLine
 10
1252.196130591614
 20
524.3198522046397
 30
0.0
 11
1255.418352813914
 21
524.3198522046397
 31
0.0
  0
LINE
  5
4F0A
330
19
100
AcDbEntity
  8
SEIHIN
  6
CONTINUOUS
100
AcDbLine
 10
1351.792397250314
 20
475.9927564572399
 30
0.0
 11
1311.990490995214
 21
523.4268212288397
 31
0.0
  0
ARC
  5
4F0B
330
19
100
AcDbEntity
  8
SEIHIN
  6
CONTINUOUS
100
AcDbCircle
 10
1347.196130591614
 20
472.1360307990399
 30
0.0
 40
6.0
100
AcDbArc
 50
0.0
 51
40.00000000000258
  0
LINE
  5
4F0C
330
19
100
AcDbEntity
  8
SEIHIN
  6
CONTINUOUS
100
AcDbLine
 10
1307.373339003714
 20
517.3198522046398
 30
0.0
 11
1284.509017757714
 21
517.3198522046398
 31
0.0
  0
LINE
  5
4F0D
330
19
100
AcDbEntity
  8
SEIHIN
  6
CONTINUOUS
100
AcDbLine
 10
1243.196130591614
 20
472.1360307990399
 30
0.0
 11
1243.196130591614
 21
474.0643936281399
 31
0.0
  0
LINE
  5
4F0E
330
19
100
AcDbEntity
  8
SEIHIN
  6
CONTINUOUS
100
AcDbLine
 10
1242.973908369414
 20
524.3198522046397
 30
0.0
 11
1246.196130591614
 21
524.3198522046397
 31
0.0
  0
LINE
  5
4F0F
330
19
100
AcDbEntity
  8
SEIHIN
  6
CONTINUOUS
100
AcDbLine
 10
1345.882024425314
 20
472.0508780196396
 30
0.0
 11
1343.309629517814
 21
475.1140110061396
 31
0.0
  0
LINE
  5
4F10
330
19
100
AcDbEntity
  8
SEIHIN
  6
CONTINUOUS
100
AcDbLine
 10
1343.309629517814
 20
475.1140110061396
 30
0.0
 11
1333.019327181614
 21
487.3659301415395
 31
0.0
  0
LINE
  5
4F11
330
19
100
AcDbEntity
  8
SEIHIN
  6
CONTINUOUS
100
AcDbLine
 10
1333.019327181614
 20
487.3659301415395
 30
0.0
 11
1308.147940594014
 21
516.9626425818396
 31
0.0
  0
LINE
  5
4F12
330
19
100
AcDbEntity
  8
SEIHIN
  6
CONTINUOUS
100
AcDbLine
 10
1190.244320589314
 20
516.9626425818396
 30
0.0
 11
1187.670167344814
 21
513.9009866730398
 31
0.0
  0
LINE
  5
4F13
330
19
100
AcDbEntity
  8
SEIHIN
  6
CONTINUOUS
100
AcDbLine
 10
1187.670167344814
 20
513.9009866730398
 30
0.0
 11
1177.375618177714
 21
501.6526345030397
 31
0.0
  0
LINE
  5
4F14
330
19
100
AcDbEntity
  8
SEIHIN
  6
CONTINUOUS
100
AcDbLine
 10
1177.375618177714
 20
501.6526345030397
 30
0.0
 11
1152.510236758014
 21
472.0508780196396
 31
0.0
  0
LINE
  5
4F15
330
19
100
AcDbEntity
  8
SEIHIN
  6
CONTINUOUS
100
AcDbLine
 10
1246.127391509014
 20
475.9927566961396
 30
0.0
 11
1245.551985032114
 21
475.9482748672398
 31
0.0
  0
LINE
  5
4F16
330
19
100
AcDbEntity
  8
SEIHIN
  6
CONTINUOUS
100
AcDbLine
 10
1245.551985032114
 20
475.9482748672398
 30
0.0
 11
1245.000617853614
 21
475.8334874973398
 31
0.0
  0
LINE
  5
4F17
330
19
100
AcDbEntity
  8
SEIHIN
  6
CONTINUOUS
100
AcDbLine
 10
1245.000617853614
 20
475.8334874973398
 30
0.0
 11
1244.493867545614
 21
475.6526786700397
 31
0.0
  0
LINE
  5
4F18
330
19
100
AcDbEntity
  8
SEIHIN
  6
CONTINUOUS
100
AcDbLine
 10
1244.493867545614
 20
475.6526786700397
 30
0.0
 11
1244.050645078714
 21
475.4125930235398
 31
0.0
  0
LINE
  5
4F19
330
19
100
AcDbEntity
  8
SEIHIN
  6
CONTINUOUS
100
AcDbLine
 10
1244.050645078714
 20
475.4125930235398
 30
0.0
 11
1243.687491673214
 21
475.1221954689399
 31
0.0
  0
LINE
  5
4F1A
330
19
100
AcDbEntity
  8
SEIHIN
  6
CONTINUOUS
100
AcDbLine
 10
1243.687491673214
 20
475.1221954689399
 30
0.0
 11
1243.417960400915
 21
474.7923191503396
 31
0.0
  0
LINE
  5
4F1B
330
19
100
AcDbEntity
  8
SEIHIN
  6
CONTINUOUS
100
AcDbLine
 10
1243.417960400915
 20
474.7923191503396
 30
0.0
 11
1243.252110476814
 21
474.4352761522398
 31
0.0
  0
LINE
  5
4F1C
330
19
100
AcDbEntity
  8
SEIHIN
  6
CONTINUOUS
100
AcDbLine
 10
1243.252110476814
 20
474.4352761522398
 30
0.0
 11
1243.196130539514
 21
474.0643937007398
 31
0.0
  0
LINE
  5
4F1D
330
19
100
AcDbEntity
  8
SEIHIN
  6
CONTINUOUS
100
AcDbLine
 10
1242.399745895714
 20
454.3333720207397
 30
0.0
 11
1242.303279037814
 21
454.3255674953398
 31
0.0
  0
LINE
  5
4F1E
330
19
100
AcDbEntity
  8
SEIHIN
  6
CONTINUOUS
100
AcDbLine
 10
1242.303279037814
 20
454.3255674953398
 30
0.0
 11
1242.295372109114
 21
454.3245611080396
 31
0.0
  0
LINE
  5
4F1F
330
19
100
AcDbEntity
  8
SEIHIN
  6
CONTINUOUS
100
AcDbLine
 10
1252.264869674314
 20
475.9927566961396
 30
0.0
 11
1252.840276151214
 21
475.9482748672398
 31
0.0
  0
LINE
  5
4F20
330
19
100
AcDbEntity
  8
SEIHIN
  6
CONTINUOUS
100
AcDbLine
 10
1252.840276151214
 20
475.9482748672398
 30
0.0
 11
1253.391643329714
 21
475.8334874973398
 31
0.0
  0
LINE
  5
4F21
330
19
100
AcDbEntity
  8
SEIHIN
  6
CONTINUOUS
100
AcDbLine
 10
1253.391643329714
 20
475.8334874973398
 30
0.0
 11
1253.898393637714
 21
475.6526786700397
 31
0.0
  0
LINE
  5
4F22
330
19
100
AcDbEntity
  8
SEIHIN
  6
CONTINUOUS
100
AcDbLine
 10
1253.898393637714
 20
475.6526786700397
 30
0.0
 11
1254.341616104514
 21
475.4125930235398
 31
0.0
  0
LINE
  5
4F23
330
19
100
AcDbEntity
  8
SEIHIN
  6
CONTINUOUS
100
AcDbLine
 10
1254.341616104514
 20
475.4125930235398
 30
0.0
 11
1254.704769510014
 21
475.1221954689399
 31
0.0
  0
LINE
  5
4F24
330
19
100
AcDbEntity
  8
SEIHIN
  6
CONTINUOUS
100
AcDbLine
 10
1254.704769510014
 20
475.1221954689399
 30
0.0
 11
1254.974300782414
 21
474.7923191503396
 31
0.0
  0
LINE
  5
4F25
330
19
100
AcDbEntity
  8
SEIHIN
  6
CONTINUOUS
100
AcDbLine
 10
1254.974300782414
 20
474.7923191503396
 30
0.0
 11
1255.140150706514
 21
474.4352761522398
 31
0.0
  0
LINE
  5
4F26
330
19
100
AcDbEntity
  8
SEIHIN
  6
CONTINUOUS
100
AcDbLine
 10
1255.140150706514
 20
474.4352761522398
 30
0.0
 11
1255.196130643814
 21
474.0643937007398
 31
0.0
  0
LINE
  5
50C2
330
19
100
AcDbEntity
  8
SEIHIN
  6
CONTINUOUS
100
AcDbLine
 10
465.4709138491003
 20
344.0624488475601
 30
0.0
 11
465.4709138491003
 21
488.0624488475602
 31
0.0
  0
DIMENSION
  5
50C5
330
19
100
AcDbEntity
  8
SUNPOU
100
AcDbDimension
  2
*D9
 10
544.4481278993935
 20
344.0624488475601
 30
0.0
 11
536.4481278993934
 21
419.5624488475602
 31
0.0
 70
    32
  3
STANDARD
100
AcDbAlignedDimension
 13
485.6709138491005
 23
495.0624488475601
 33
0.0
 14
463.6709138491005
 24
344.0624488475601
 34
0.0
 50
90.0
100
AcDbRotatedDimension
1001
ACAD
1000
DSTYLE
1002
{
1070
    41
1040
12.0
1070
    42
1040
5.0
1070
    43
1040
28.0
1070
    44
1040
5.0
1070
    73
1070
     0
1070
    74
1070
     0
1070
    77
1070
     3
1070
   140
1040
8.0
1070
   141
1040
3.0
1070
   143
1040
0.03937
1070
   147
1040
4.0
1070
   172
1070
     1
1070
   173
1070
     1
1070
   176
1070
   256
1070
   177
1070
   256
1070
   178
1070
   256
1070
   271
1070
     0
1070
   272
1070
     0
1070
   341
1005
27
1070
     6
1000
OPEN
1070
     7
1000
OPEN
1070
   371
1070
    -1
1070
   372
1070
    -1
1002
}
  0
LINE
  5
50C6
330
19
100
AcDbEntity
  8
SEIHIN
  6
CONTINUOUS
100
AcDbLine
 10
461.0129339924005
 20
456.8229637649602
 30
0.0
 11
353.6709138491
 21
456.8229637649602
 31
0.0
  0
LINE
  5
50C7
330
19
100
AcDbEntity
  8
SEIHIN
  6
CONTINUOUS
100
AcDbLine
 10
353.6709138491
 20
450.5504155747643
 30
0.0
 11
445.8943056719444
 21
450.5504155747643
 31
0.0
  0
LINE
  5
50CF
330
19
100
AcDbEntity
  8
SEIHIN
  6
CONTINUOUS
100
AcDbLine
 10
445.1709138491001
 20
419.0624488475604
 30
0.0
 11
353.6709138491
 21
419.0624488475604
 31
0.0
  0
LINE
  5
50D0
330
19
100
AcDbEntity
  8
SEIHIN
  6
CONTINUOUS
100
AcDbLine
 10
368.9388847236
 20
345.0624112941603
 30
0.0
 11
462.6622475079007
 21
345.0624112941603
 31
0.0
  0
LINE
  5
50D1
330
19
100
AcDbEntity
  8
SEIHIN
  6
CONTINUOUS
100
AcDbLine
 10
463.6709138491005
 20
344.0624488475601
 30
0.0
 11
370.6709138491
 21
344.0624488475601
 31
0.0
  0
DIMENSION
  5
50D4
330
19
100
AcDbEntity
  8
SUNPOU
100
AcDbDimension
  2
*D10
 10
368.6709138490996
 20
310.1994691297177
 30
0.0
 11
353.6709138490998
 21
318.1994691297177
 31
0.0
 70
    32
  3
STANDARD
100
AcDbAlignedDimension
 13
338.6709138491001
 23
346.0624488475601
 33
0.0
 14
368.6709138490996
 24
346.0624488475601
 34
0.0
100
AcDbRotatedDimension
1001
ACAD
1000
DSTYLE
1002
{
1070
    41
1040
12.0
1070
    42
1040
5.0
1070
    43
1040
28.0
1070
    44
1040
5.0
1070
    73
1070
     0
1070
    74
1070
     0
1070
    77
1070
     3
1070
   140
1040
8.0
1070
   141
1040
3.0
1070
   143
1040
0.03937
1070
   147
1040
4.0
1070
   172
1070
     1
1070
   173
1070
     1
1070
   176
1070
   256
1070
   177
1070
   256
1070
   178
1070
   256
1070
   271
1070
     0
1070
   272
1070
     0
1070
   341
1005
27
1070
     6
1000
OPEN
1070
     7
1000
OPEN
1070
   371
1070
    -1
1070
   372
1070
    -1
1002
}
  0
LINE
  5
50D5
330
19
100
AcDbEntity
  8
SEIHIN
  6
CONTINUOUS
100
AcDbLine
 10
353.6709138491
 20
354.0624488475601
 30
0.0
 11
366.6709138491
 21
354.0624488475601
 31
0.0
  0
ARC
  5
50DA
330
19
100
AcDbEntity
  8
SEIHIN
  6
CONTINUOUS
100
AcDbCircle
 10
366.6709138491
 20
352.0624488475601
 30
0.0
 40
2.0
100
AcDbArc
 50
0.0
 51
90.0
  0
LINE
  5
50DB
330
19
100
AcDbEntity
  8
SEIHIN
  6
CONTINUOUS
100
AcDbLine
 10
368.6709138491
 20
346.0624488475601
 30
0.0
 11
368.6709138491
 21
352.0624488475601
 31
0.0
  0
ARC
  5
50DD
330
19
100
AcDbEntity
  8
SEIHIN
  6
CONTINUOUS
100
AcDbCircle
 10
370.6709138491
 20
346.0624488475601
 30
0.0
 40
1.99999999999965
100
AcDbArc
 50
210.0012422655034
 51
270.0
  0
LINE
  5
50E8
330
19
100
AcDbEntity
  8
SEIHIN
  6
CONTINUOUS
100
AcDbLine
 10
461.0129339924276
 20
456.82296376497
 30
0.0
 11
447.8028332758003
 21
452.0148803124601
 31
0.0
  0
ARC
  5
50EA
330
19
100
AcDbEntity
  8
SEIHIN
  6
CONTINUOUS
100
AcDbCircle
 10
459.0568634981004
 20
450.5322847122601
 30
0.0
 40
2.000000000000075
100
AcDbArc
 50
1.752953071305834
 51
110.0
  0
LINE
  5
50F3
330
19
100
AcDbEntity
  8
SEIHIN
  6
CONTINUOUS
100
AcDbLine
 10
448.1709138491701
 20
419.0624488475604
 30
0.0
 11
449.1709138490796
 21
449.0624488476075
 31
0.0
  0
LINE
  5
50F4
330
19
100
AcDbEntity
  8
SEIHIN
  6
CONTINUOUS
100
AcDbLine
 10
445.1709138491001
 20
448.2561098293603
 30
0.0
 11
445.1709138491001
 21
419.0624488475604
 31
0.0
  0
LINE
  5
50FC
330
19
100
AcDbEntity
  8
SEIHIN
  6
CONTINUOUS
100
AcDbLine
 10
445.1709138491001
 20
419.0624488475604
 30
0.0
 11
448.1709138491701
 21
419.0624488475604
 31
0.0
  0
LINE
  5
50FD
330
19
100
AcDbEntity
  8
SEIHIN
  6
CONTINUOUS
100
AcDbLine
 10
447.1709138491
 20
419.0624488475604
 30
0.0
 11
448.2042286794003
 21
420.0618937545604
 31
0.0
  0
ARC
  5
50FE
330
19
100
AcDbEntity
  8
SEIHIN
  6
CONTINUOUS
100
AcDbCircle
 10
449.1709138491001
 20
448.2561098293603
 30
0.0
 40
3.999999999999804
100
AcDbArc
 50
109.9999999999964
 51
180.0
  0
ARC
  5
50FF
330
19
100
AcDbEntity
  8
SEIHIN
  6
CONTINUOUS
100
AcDbCircle
 10
450.1478491706002
 20
448.3538464529602
 30
0.0
 40
0.9999999999999609
100
AcDbArc
 50
110.000000000017
 51
178.0908475669994
  0
LINE
  5
5100
330
19
100
AcDbEntity
  8
SEIHIN
  6
CONTINUOUS
100
AcDbLine
 10
449.1709138490796
 20
449.0624488476075
 30
0.0
 11
458.3728232114004
 21
452.4116699538602
 31
0.0
  0
DIMENSION
  5
5107
330
19
100
AcDbEntity
  8
SUNPOU
100
AcDbDimension
  2
*D11
 10
519.835421234688
 20
344.0624488475601
 30
0.0
 11
511.8354212346879
 21
396.5624488475839
 31
0.0
 70
    32
  1
\U+203B<>
  3
STANDARD
100
AcDbAlignedDimension
 13
465.4709138491003
 23
449.0624488476075
 33
0.0
 14
465.4709138491003
 24
344.0624488475601
 34
0.0
 50
90.0
100
AcDbRotatedDimension
1001
ACAD
1000
DSTYLE
1002
{
1070
    41
1040
12.0
1070
    42
1040
5.0
1070
    43
1040
28.0
1070
    44
1040
5.0
1070
    73
1070
     0
1070
    74
1070
     0
1070
    77
1070
     3
1070
   140
1040
8.0
1070
   141
1040
3.0
1070
   143
1040
0.03937
1070
   147
1040
4.0
1070
   172
1070
     1
1070
   173
1070
     1
1070
   176
1070
   256
1070
   177
1070
   256
1070
   178
1070
   256
1070
   271
1070
     0
1070
   272
1070
     0
1070
   341
1005
27
1070
     6
1000
OPEN
1070
     7
1000
OPEN
1070
   371
1070
    -1
1070
   372
1070
    -1
1002
}
  0
LINE
  5
5108
330
19
100
AcDbEntity
  8
SEIHIN
  6
CONTINUOUS
100
AcDbLine
 10
462.0237645422007
 20
418.7335227237602
 30
0.0
 11
462.6622475079007
 21
345.0624112941605
 31
0.0
  0
LINE
  5
510A
330
19
100
AcDbEntity
  8
SEIHIN
  6
CONTINUOUS
100
AcDbLine
 10
462.6622475079007
 20
345.0624112941603
 30
0.0
 11
463.6709138491005
 21
344.0624488475601
 31
0.0
  0
LINE
  5
510B
330
19
100
AcDbEntity
  8
SEIHIN
  6
CONTINUOUS
100
AcDbLine
 10
462.6709138491041
 20
344.0624488475601
 30
0.0
 11
465.4709138491003
 21
344.0624488475601
 31
0.0
  0
LINE
  5
510D
330
19
100
AcDbEntity
  8
SEIHIN
  6
CONTINUOUS
100
AcDbLine
 10
461.0559275291002
 20
450.5934647721602
 30
0.0
 11
462.0108516113004
 21
419.3912333860602
 31
0.0
  0
ARC
  5
510E
330
19
100
AcDbEntity
  8
SEIHIN
  6
CONTINUOUS
100
AcDbCircle
 10
432.0248911454005
 20
418.4735324876602
 30
0.0
 40
30.00000000000006
100
AcDbArc
 50
0.4965509904985711
 51
1.752953071299323
  0
ARC
  5
510F
330
19
100
AcDbEntity
  8
SEIHIN
  6
CONTINUOUS
100
AcDbCircle
 10
460.6709138491005
 20
457.7626563857601
 30
0.0
 40
0.9999999999998053
100
AcDbArc
 50
289.9999999999934
 51
0.0
  0
LINE
  5
5113
330
19
100
AcDbEntity
  8
SEIHIN
  6
CONTINUOUS
100
AcDbLine
 10
353.6709138491
 20
495.0624488475601
 30
0.0
 11
479.6709138491005
 21
495.0624488475601
 31
0.0
  0
LINE
  5
5122
330
19
100
AcDbEntity
  8
SEIHIN
  6
CONTINUOUS
100
AcDbLine
 10
479.6709138491005
 20
495.0624488475601
 30
0.0
 11
479.6709138491005
 21
493.0624488475602
 31
0.0
  0
ARC
  5
5123
330
19
100
AcDbEntity
  8
SEIHIN
  6
CONTINUOUS
100
AcDbCircle
 10
483.6709138491005
 20
494.2985168250601
 30
0.0
 40
1.999999999999933
100
AcDbArc
 50
296.5650511770947
 51
0.0
  0
LINE
  5
5124
330
19
100
AcDbEntity
  8
SEIHIN
  6
CONTINUOUS
100
AcDbLine
 10
467.4709138491002
 20
490.0624488475601
 30
0.0
 11
479.6709138491005
 21
490.0624488475601
 31
0.0
  0
LINE
  5
5125
330
19
100
AcDbEntity
  8
SEIHIN
  6
CONTINUOUS
100
AcDbLine
 10
479.6709138491005
 20
493.0624488475602
 30
0.0
 11
353.6709138491
 21
493.0624488475602
 31
0.0
  0
ARC
  5
5127
330
19
100
AcDbEntity
  8
SEIHIN
  6
CONTINUOUS
100
AcDbCircle
 10
467.4709138491002
 20
488.0624488475602
 30
0.0
 40
2.0
100
AcDbArc
 50
90.0
 51
180.0
  0
LINE
  5
5128
330
19
100
AcDbEntity
  8
SEIHIN
  6
CONTINUOUS
100
AcDbLine
 10
479.6709138491005
 20
490.0624488475601
 30
0.0
 11
484.5653410401005
 21
492.5096624430601
 31
0.0
  0
LINE
  5
5129
330
19
100
AcDbEntity
  8
SEIHIN
  6
CONTINUOUS
100
AcDbLine
 10
485.6709138491005
 20
494.2985168250601
 30
0.0
 11
485.6709138491005
 21
495.0624488475601
 31
0.0
  0
LINE
  5
512A
330
19
100
AcDbEntity
  8
SEIHIN
  6
CONTINUOUS
100
AcDbLine
 10
479.6709138491005
 20
495.0624488475601
 30
0.0
 11
485.6709138491005
 21
495.0624488475601
 31
0.0
  0
LINE
  5
5264
330
19
100
AcDbEntity
  8
SEIHIN
  6
CONTINUOUS
100
AcDbLine
 10
368.6709138491
 20
346.0624488475601
 30
0.0
 11
368.7818049462002
 21
345.4057392062603
 31
0.0
  0
LINE
  5
5265
330
19
100
AcDbEntity
  8
SEIHIN
  6
CONTINUOUS
100
AcDbLine
 10
368.7818049462002
 20
345.4057392062603
 30
0.0
 11
368.9388847235999
 21
345.0624112941603
 31
0.0
  0
LINE
  5
5266
330
19
100
AcDbEntity
  8
SEIHIN
  6
CONTINUOUS
100
AcDbLine
 10
461.6709138491218
 20
486.6974204978499
 30
0.0
 11
468.035942198847
 21
493.0624488475752
 31
0.0
  0
LINE
  5
5267
330
19
100
AcDbEntity
  8
SEIHIN
  6
CONTINUOUS
100
AcDbLine
 10
461.6709138491219
 20
482.2072924373152
 30
0.0
 11
465.4709138491221
 21
486.0072924373154
 31
0.0
  0
LINE
  5
5268
330
19
100
AcDbEntity
  8
SEIHIN
  6
CONTINUOUS
100
AcDbLine
 10
469.5260702593818
 20
490.0624488475751
 30
0.0
 11
472.5260702593817
 21
493.0624488475751
 31
0.0
  0
LINE
  5
5269
330
19
100
AcDbEntity
  8
SEIHIN
  6
CONTINUOUS
100
AcDbLine
 10
461.6709138491219
 20
477.7171643767808
 30
0.0
 11
465.470913849122
 21
481.517164376781
 31
0.0
  0
LINE
  5
526A
330
19
100
AcDbEntity
  8
SEIHIN
  6
CONTINUOUS
100
AcDbLine
 10
474.0161983199163
 20
490.0624488475751
 30
0.0
 11
477.0161983199163
 21
493.0624488475752
 31
0.0
  0
LINE
  5
526B
330
19
100
AcDbEntity
  8
SEIHIN
  6
CONTINUOUS
100
AcDbLine
 10
461.6709138491218
 20
473.2270363162462
 30
0.0
 11
465.470913849122
 21
477.0270363162464
 31
0.0
  0
LINE
  5
526C
330
19
100
AcDbEntity
  8
SEIHIN
  6
CONTINUOUS
100
AcDbLine
 10
478.5063263804508
 20
490.0624488475751
 30
0.0
 11
483.5063263804508
 21
495.0624488475752
 31
0.0
  0
LINE
  5
526D
330
19
100
AcDbEntity
  8
SEIHIN
  6
CONTINUOUS
100
AcDbLine
 10
461.6709138491218
 20
468.7369082557117
 30
0.0
 11
465.4709138491219
 21
472.5369082557118
 31
0.0
  0
LINE
  5
526E
330
19
100
AcDbEntity
  8
SEIHIN
  6
CONTINUOUS
100
AcDbLine
 10
445.1709138491219
 20
447.746780195177
 30
0.0
 11
450.3753240282379
 21
452.9511903742929
 31
0.0
  0
LINE
  5
526F
330
19
100
AcDbEntity
  8
SEIHIN
  6
CONTINUOUS
100
AcDbLine
 10
461.6709138491219
 20
464.2467801951769
 30
0.0
 11
465.4709138491221
 21
468.0467801951771
 31
0.0
  0
LINE
  5
5270
330
19
100
AcDbEntity
  8
SEIHIN
  6
CONTINUOUS
100
AcDbLine
 10
445.1709138491219
 20
443.2566521346425
 30
0.0
 11
449.1086449969515
 21
447.194383282472
 31
0.0
  0
LINE
  5
5271
330
19
100
AcDbEntity
  8
SEIHIN
  6
CONTINUOUS
100
AcDbLine
 10
461.6709138491219
 20
459.7566521346425
 30
0.0
 11
465.470913849122
 21
463.5566521346426
 31
0.0
  0
LINE
  5
5272
330
19
100
AcDbEntity
  8
SEIHIN
  6
CONTINUOUS
100
AcDbLine
 10
452.0100839795473
 20
450.0958222650679
 30
0.0
 11
457.4349434084004
 21
455.520681693921
 31
0.0
  0
LINE
  5
5273
330
19
100
AcDbEntity
  8
SEIHIN
  6
CONTINUOUS
100
AcDbLine
 10
445.1709138491219
 20
438.7665240741079
 30
0.0
 11
448.953812994864
 21
442.5494232198501
 31
0.0
  0
LINE
  5
5274
330
19
100
AcDbEntity
  8
SEIHIN
  6
CONTINUOUS
100
AcDbLine
 10
458.9328243541166
 20
452.5284345791027
 30
0.0
 11
465.470913849122
 21
459.066524074108
 31
0.0
  0
LINE
  5
5275
330
19
100
AcDbEntity
  8
SEIHIN
  6
CONTINUOUS
100
AcDbLine
 10
445.1709138491218
 20
434.2763960135733
 30
0.0
 11
448.7989809927767
 21
437.9044631572281
 31
0.0
  0
LINE
  5
5276
330
19
100
AcDbEntity
  8
SEIHIN
  6
CONTINUOUS
100
AcDbLine
 10
461.0687576377967
 20
450.174239802248
 30
0.0
 11
465.4709138491219
 21
454.5763960135734
 31
0.0
  0
LINE
  5
5277
330
19
100
AcDbEntity
  8
SEIHIN
  6
CONTINUOUS
100
AcDbLine
 10
445.1709138491219
 20
429.7862679530387
 30
0.0
 11
448.6441489906894
 21
433.2595030946063
 31
0.0
  0
LINE
  5
5278
330
19
100
AcDbEntity
  8
SEIHIN
  6
CONTINUOUS
100
AcDbLine
 10
461.2020944132209
 20
445.8174485171377
 30
0.0
 11
465.470913849122
 21
450.0862679530388
 31
0.0
  0
LINE
  5
5279
330
19
100
AcDbEntity
  8
SEIHIN
  6
CONTINUOUS
100
AcDbLine
 10
445.1709138491219
 20
425.2961398925042
 30
0.0
 11
448.489316988602
 21
428.6145430319843
 31
0.0
  0
LINE
  5
527A
330
19
100
AcDbEntity
  8
SEIHIN
  6
CONTINUOUS
100
AcDbLine
 10
461.3354311886451
 20
441.4606572320273
 30
0.0
 11
465.470913849122
 21
445.5961398925043
 31
0.0
  0
LINE
  5
527B
330
19
100
AcDbEntity
  8
SEIHIN
  6
CONTINUOUS
100
AcDbLine
 10
445.1709138491219
 20
420.8060118319695
 30
0.0
 11
448.3344849865146
 21
423.9695829693624
 31
0.0
  0
LINE
  5
527C
330
19
100
AcDbEntity
  8
SEIHIN
  6
CONTINUOUS
100
AcDbLine
 10
461.4687679640692
 20
437.1038659469169
 30
0.0
 11
465.470913849122
 21
441.1060118319698
 31
0.0
  0
LINE
  5
527D
330
19
100
AcDbEntity
  8
SEIHIN
  6
CONTINUOUS
100
AcDbLine
 10
461.6021047394934
 20
432.7470746618064
 30
0.0
 11
465.470913849122
 21
436.615883771435
 31
0.0
  0
LINE
  5
527E
330
19
100
AcDbEntity
  8
SEIHIN
  6
CONTINUOUS
100
AcDbLine
 10
461.7354415149176
 20
428.390283376696
 30
0.0
 11
465.4709138491221
 21
432.1257557109006
 31
0.0
  0
LINE
  5
527F
330
19
100
AcDbEntity
  8
SEIHIN
  6
CONTINUOUS
100
AcDbLine
 10
461.8687782903416
 20
424.0334920915856
 30
0.0
 11
465.470913849122
 21
427.635627650366
 31
0.0
  0
LINE
  5
5280
330
19
100
AcDbEntity
  8
SEIHIN
  6
CONTINUOUS
100
AcDbLine
 10
462.0021150657658
 20
419.6767008064752
 30
0.0
 11
465.470913849122
 21
423.1454995898315
 31
0.0
  0
LINE
  5
5281
330
19
100
AcDbEntity
  8
SEIHIN
  6
CONTINUOUS
100
AcDbLine
 10
462.0540546324249
 20
415.2385123125997
 30
0.0
 11
465.4709138491221
 21
418.6553715292967
 31
0.0
  0
LINE
  5
5282
330
19
100
AcDbEntity
  8
SEIHIN
  6
CONTINUOUS
100
AcDbLine
 10
462.0926347149015
 20
410.7869643345416
 30
0.0
 11
465.470913849122
 21
414.1652434687623
 31
0.0
  0
LINE
  5
5283
330
19
100
AcDbEntity
  8
SEIHIN
  6
CONTINUOUS
100
AcDbLine
 10
462.1312147973778
 20
406.3354163564835
 30
0.0
 11
465.470913849122
 21
409.6751154082277
 31
0.0
  0
LINE
  5
5284
330
19
100
AcDbEntity
  8
SEIHIN
  6
CONTINUOUS
100
AcDbLine
 10
462.1697948798543
 20
401.8838683784255
 30
0.0
 11
465.470913849122
 21
405.1849873476932
 31
0.0
  0
LINE
  5
5285
330
19
100
AcDbEntity
  8
SEIHIN
  6
CONTINUOUS
100
AcDbLine
 10
462.2083749623309
 20
397.4323204003673
 30
0.0
 11
465.4709138491221
 21
400.6948592871585
 31
0.0
  0
LINE
  5
5286
330
19
100
AcDbEntity
  8
SEIHIN
  6
CONTINUOUS
100
AcDbLine
 10
462.2469550448074
 20
392.9807724223093
 30
0.0
 11
465.470913849122
 21
396.2047312266239
 31
0.0
  0
LINE
  5
5287
330
19
100
AcDbEntity
  8
SEIHIN
  6
CONTINUOUS
100
AcDbLine
 10
462.2855351272838
 20
388.5292244442512
 30
0.0
 11
465.470913849122
 21
391.7146031660895
 31
0.0
  0
LINE
  5
5288
330
19
100
AcDbEntity
  8
SEIHIN
  6
CONTINUOUS
100
AcDbLine
 10
462.3241152097603
 20
384.077676466193
 30
0.0
 11
465.470913849122
 21
387.2244751055548
 31
0.0
  0
LINE
  5
5289
330
19
100
AcDbEntity
  8
SEIHIN
  6
CONTINUOUS
100
AcDbLine
 10
462.3626952922369
 20
379.6261284881349
 30
0.0
 11
465.4709138491221
 21
382.7343470450202
 31
0.0
  0
LINE
  5
528A
330
19
100
AcDbEntity
  8
SEIHIN
  6
CONTINUOUS
100
AcDbLine
 10
462.4012753747132
 20
375.1745805100769
 30
0.0
 11
465.470913849122
 21
378.2442189844857
 31
0.0
  0
LINE
  5
528B
330
19
100
AcDbEntity
  8
SEIHIN
  6
CONTINUOUS
100
AcDbLine
 10
462.4398554571897
 20
370.7230325320189
 30
0.0
 11
465.470913849122
 21
373.7540909239512
 31
0.0
  0
LINE
  5
528C
330
19
100
AcDbEntity
  8
SEIHIN
  6
CONTINUOUS
100
AcDbLine
 10
462.4784355396662
 20
366.2714845539608
 30
0.0
 11
465.4709138491219
 21
369.2639628634165
 31
0.0
  0
LINE
  5
528D
330
19
100
AcDbEntity
  8
SEIHIN
  6
CONTINUOUS
100
AcDbLine
 10
462.5170156221428
 20
361.8199365759025
 30
0.0
 11
465.470913849122
 21
364.7738348028819
 31
0.0
  0
LINE
  5
528E
330
19
100
AcDbEntity
  8
SEIHIN
  6
CONTINUOUS
100
AcDbLine
 10
462.5555957046192
 20
357.3683885978445
 30
0.0
 11
465.470913849122
 21
360.2837067423474
 31
0.0
  0
LINE
  5
528F
330
19
100
AcDbEntity
  8
SEIHIN
  6
CONTINUOUS
100
AcDbLine
 10
462.5941757870957
 20
352.9168406197864
 30
0.0
 11
465.470913849122
 21
355.7935786818128
 31
0.0
  0
LINE
  5
5290
330
19
100
AcDbEntity
  8
SEIHIN
  6
CONTINUOUS
100
AcDbLine
 10
462.6327558695721
 20
348.4652926417283
 30
0.0
 11
465.4709138491219
 21
351.3034506212781
 31
0.0
  0
LINE
  5
5291
330
19
100
AcDbEntity
  8
SEIHIN
  6
CONTINUOUS
100
AcDbLine
 10
463.193416804845
 20
344.5358255164666
 30
0.0
 11
465.470913849122
 21
346.8133225607436
 31
0.0
  0
TEXT
  5
52CA
330
19
100
AcDbEntity
  8
MOJI
100
AcDbText
 10
1221.190022390011
 20
222.9523942879543
 30
0.0
 40
11.19999999999999
  1
組み合わせ
 41
0.9
  7
ｽﾀｲﾙ1
100
AcDbText
  0
TEXT
  5
5529
330
19
100
AcDbEntity
  8
MOJI
100
AcDbText
 10
942.3462493235117
 20
53.08025837068417
 30
0.0
 40
11.19999999999999
  1
ＧＵ１７□
 41
0.9
  7
ｽﾀｲﾙ1
100
AcDbText
  0
LINE
  5
552A
330
19
100
AcDbEntity
  8
SEIHIN
  6
CONTINUOUS
100
AcDbLine
 10
828.9553224226731
 20
492.0624488475602
 30
0.0
 11
828.9553224226731
 21
490.0624488475601
 31
0.0
  0
LINE
  5
552C
330
19
100
AcDbEntity
  8
SEIHIN
  6
CONTINUOUS
100
AcDbLine
 10
843.9553224226342
 20
492.0624488475602
 30
0.0
 11
843.9488722246149
 21
489.0624488475602
 31
0.0
  0
LINE
  5
554A
330
19
100
AcDbEntity
  8
CENTER_L
 48
5.0
100
AcDbLine
 10
1249.19558861857
 20
285.8517127421857
 30
0.0
 11
1249.196167694291
 21
540.6450302199096
 31
0.0
  0
LINE
  5
554B
330
19
100
AcDbEntity
  8
CENTER_L
 48
5.0
100
AcDbLine
 10
802.9553224227401
 20
359.3876268631844
 30
0.0
 11
802.9556678772856
 21
511.3876268628297
 31
0.0
  0
ARC
  5
563A
330
19
100
AcDbEntity
  8
SEIHIN
  6
CONTINUOUS
100
AcDbCircle
 10
831.955322422673
 20
492.0624488475602
 30
0.0
 40
3.0
100
AcDbArc
 50
90.0
 51
180.0
  0
ARC
  5
563C
330
19
100
AcDbEntity
  8
SEIHIN
  6
CONTINUOUS
100
AcDbCircle
 10
840.9553224226343
 20
492.0624488475602
 30
0.0
 40
3.0
100
AcDbArc
 50
0.0
 51
90.0
  0
LINE
  5
563E
330
19
100
AcDbEntity
  8
SEIHIN
  6
CONTINUOUS
100
AcDbLine
 10
906.9553853203315
 20
387.0624488475602
 30
0.0
 11
906.9554648658012
 21
422.0624556657419
 31
0.0
  0
LINE
  5
563F
330
19
100
AcDbEntity
  8
SEIHIN
  6
CONTINUOUS
100
AcDbLine
 10
902.8946633492711
 20
415.5624488475601
 30
0.0
 11
905.9554478203288
 21
415.5624488475601
 31
0.0
  0
ARC
  5
5640
330
19
100
AcDbEntity
  8
SEIHIN
  6
CONTINUOUS
100
AcDbCircle
 10
902.8946633492711
 20
418.5624488475601
 30
0.0
 40
3.0
100
AcDbArc
 50
180.0000066806434
 51
270.0
  0
ARC
  5
5641
330
19
100
AcDbEntity
  8
SEIHIN
  6
CONTINUOUS
100
AcDbCircle
 10
905.9554478203288
 20
414.5624488475601
 30
0.0
 40
1.0
100
AcDbArc
 50
359.9998697823192
 51
90.0
  0
LINE
  5
5642
330
19
100
AcDbEntity
  8
SEIHIN
  6
CONTINUOUS
100
AcDbLine
 10
910.9553224227402
 20
390.0633422896741
 30
0.0
 11
908.7904224227402
 21
390.0633422896741
 31
0.0
  0
ARC
  5
5644
330
19
100
AcDbEntity
  8
SEIHIN
  6
CONTINUOUS
100
AcDbCircle
 10
909.9554648657935
 20
422.0624488475601
 30
0.0
 40
3.0
100
AcDbArc
 50
90.0
 51
179.9998697823193
  0
LINE
  5
5654
330
19
100
AcDbEntity
  8
SEIHIN
  6
CONTINUOUS
100
AcDbLine
 10
843.0478741746178
 20
818.7873302889359
 30
0.0
 11
840.3425648965871
 21
815.4299013328968
 31
0.0
  0
ARC
  5
5656
330
19
100
AcDbEntity
  8
SEIHIN
  6
CONTINUOUS
100
AcDbCircle
 10
802.9553224227402
 20
811.5675837016569
 30
0.0
 40
61.54495303245837
100
AcDbArc
 50
355.8069464147389
 51
4.19305358535458
  0
LINE
  5
565C
330
19
100
AcDbEntity
  8
SEIHIN
  6
CONTINUOUS
100
AcDbLine
 10
844.0862110589405
 20
819.0675837016568
 30
0.0
 11
906.607384643067
 21
819.067583534057
 31
0.0
  0
CIRCLE
  5
565D
330
19
100
AcDbEntity
  8
SEIHIN
100
AcDbCircle
 10
802.9553224227402
 20
811.5675837016569
 30
0.0
 40
124.0000000000727
  0
LINE
  5
5660
330
19
100
AcDbEntity
  8
SEIHIN
  6
CONTINUOUS
100
AcDbLine
 10
844.0862110589405
 20
804.0675837016571
 30
0.0
 11
906.607384643067
 21
804.0675838692568
 31
0.0
  0
LINE
  5
5661
330
19
100
AcDbEntity
  8
SEIHIN
  6
CONTINUOUS
100
AcDbLine
 10
843.0478741746178
 20
804.3478371143779
 30
0.0
 11
840.3425648965871
 21
807.705266070417
 31
0.0
  0
ARC
  5
5662
330
19
100
AcDbEntity
  8
SEIHIN
  6
CONTINUOUS
100
AcDbCircle
 10
844.0862110589405
 20
803.067583701657
 30
0.0
 40
1.000000000000163
100
AcDbArc
 50
90.00000000000003
 51
168.3237747096005
  0
ARC
  5
5663
330
19
100
AcDbEntity
  8
SEIHIN
  6
CONTINUOUS
100
AcDbCircle
 10
906.60738463094
 20
803.067583701657
 30
0.0
 40
1.0
100
AcDbArc
 50
355.311942647399
 51
90.00000000000003
  0
CIRCLE
  5
5664
330
19
100
AcDbEntity
  8
SEIHIN
100
AcDbCircle
 10
802.9553224227406
 20
811.5675837016569
 30
0.0
 40
105.0000000000007
  0
LINE
  5
5665
330
19
100
AcDbEntity
  8
SEIHIN
  6
CONTINUOUS
100
AcDbLine
 10
810.4553224227405
 20
852.6984723378568
 30
0.0
 11
810.4553222551407
 21
915.2196459219835
 31
0.0
  0
LINE
  5
5666
330
19
100
AcDbEntity
  8
SEIHIN
  6
CONTINUOUS
100
AcDbLine
 10
795.4553224227407
 20
852.6984723378568
 30
0.0
 11
795.4553225903405
 21
915.2196459219835
 31
0.0
  0
ARC
  5
5667
330
19
100
AcDbEntity
  8
SEIHIN
  6
CONTINUOUS
100
AcDbCircle
 10
802.9553224227406
 20
811.5675837016565
 30
0.0
 40
61.54495303245837
100
AcDbArc
 50
85.80694641473892
 51
94.19305358535456
  0
ARC
  5
5668
330
19
100
AcDbEntity
  8
SEIHIN
  6
CONTINUOUS
100
AcDbCircle
 10
811.4553224227407
 20
852.6984723378568
 30
0.0
 40
1.000000000000163
100
AcDbArc
 50
180.0
 51
258.3237747096005
  0
LINE
  5
5669
330
19
100
AcDbEntity
  8
SEIHIN
  6
CONTINUOUS
100
AcDbLine
 10
810.1750690100196
 20
851.6601354535341
 30
0.0
 11
806.8176400539805
 21
848.9548261755034
 31
0.0
  0
LINE
  5
566A
330
19
100
AcDbEntity
  8
SEIHIN
  6
CONTINUOUS
100
AcDbLine
 10
795.7355758354617
 20
851.6601354535341
 30
0.0
 11
799.0930047915008
 21
848.9548261755034
 31
0.0
  0
ARC
  5
566B
330
19
100
AcDbEntity
  8
SEIHIN
  6
CONTINUOUS
100
AcDbCircle
 10
794.4553224227406
 20
852.6984723378568
 30
0.0
 40
1.000000000000163
100
AcDbArc
 50
281.6762252903993
 51
0.0
  0
ARC
  5
566C
330
19
100
AcDbEntity
  8
SEIHIN
  6
CONTINUOUS
100
AcDbCircle
 10
811.4553224227407
 20
915.2196459098563
 30
0.0
 40
1.0
100
AcDbArc
 50
85.31194264739907
 51
180.0
  0
ARC
  5
566D
330
19
100
AcDbEntity
  8
SEIHIN
  6
CONTINUOUS
100
AcDbCircle
 10
794.4553224227406
 20
915.2196459098563
 30
0.0
 40
1.0
100
AcDbArc
 50
0.0
 51
94.68805735260096
  0
LINE
  5
566E
330
19
100
AcDbEntity
  8
SEIHIN
  6
CONTINUOUS
100
AcDbLine
 10
761.8244337865408
 20
819.0675837016568
 30
0.0
 11
699.3032602024142
 21
819.067583534057
 31
0.0
  0
LINE
  5
566F
330
19
100
AcDbEntity
  8
SEIHIN
  6
CONTINUOUS
100
AcDbLine
 10
761.8244337865408
 20
804.0675837016571
 30
0.0
 11
699.3032602024142
 21
804.0675838692568
 31
0.0
  0
ARC
  5
5670
330
19
100
AcDbEntity
  8
SEIHIN
  6
CONTINUOUS
100
AcDbCircle
 10
802.9553224227411
 20
811.5675837016569
 30
0.0
 40
61.54495303245837
100
AcDbArc
 50
175.8069464147389
 51
184.1930535853545
  0
ARC
  5
5671
330
19
100
AcDbEntity
  8
SEIHIN
  6
CONTINUOUS
100
AcDbCircle
 10
761.8244337865408
 20
820.067583701657
 30
0.0
 40
1.000000000000163
100
AcDbArc
 50
270.0
 51
348.3237747096005
  0
LINE
  5
5672
330
19
100
AcDbEntity
  8
SEIHIN
  6
CONTINUOUS
100
AcDbLine
 10
762.8627706708636
 20
818.7873302889359
 30
0.0
 11
765.5680799488942
 21
815.4299013328968
 31
0.0
  0
LINE
  5
5673
330
19
100
AcDbEntity
  8
SEIHIN
  6
CONTINUOUS
100
AcDbLine
 10
762.8627706708636
 20
804.3478371143779
 30
0.0
 11
765.5680799488942
 21
807.705266070417
 31
0.0
  0
ARC
  5
5674
330
19
100
AcDbEntity
  8
SEIHIN
  6
CONTINUOUS
100
AcDbCircle
 10
761.8244337865408
 20
803.067583701657
 30
0.0
 40
1.000000000000163
100
AcDbArc
 50
11.67622529039936
 51
90.0
  0
ARC
  5
5675
330
19
100
AcDbEntity
  8
SEIHIN
  6
CONTINUOUS
100
AcDbCircle
 10
699.3032602145413
 20
820.0675837016571
 30
0.0
 40
1.0
100
AcDbArc
 50
175.311942647399
 51
270.0
  0
ARC
  5
5676
330
19
100
AcDbEntity
  8
SEIHIN
  6
CONTINUOUS
100
AcDbCircle
 10
699.3032602145413
 20
803.067583701657
 30
0.0
 40
1.0
100
AcDbArc
 50
90.0
 51
184.6880573526009
  0
LINE
  5
5677
330
19
100
AcDbEntity
  8
SEIHIN
  6
CONTINUOUS
100
AcDbLine
 10
795.4553224227407
 20
770.4366950654572
 30
0.0
 11
795.4553225903404
 21
707.9155214813306
 31
0.0
  0
LINE
  5
5678
330
19
100
AcDbEntity
  8
SEIHIN
  6
CONTINUOUS
100
AcDbLine
 10
810.4553224227403
 20
770.4366950654572
 30
0.0
 11
810.4553222551407
 21
707.9155214813306
 31
0.0
  0
ARC
  5
5679
330
19
100
AcDbEntity
  8
SEIHIN
  6
CONTINUOUS
100
AcDbCircle
 10
802.9553224227406
 20
811.5675837016576
 30
0.0
 40
61.54495303245837
100
AcDbArc
 50
265.8069464147388
 51
274.1930535853545
  0
ARC
  5
567A
330
19
100
AcDbEntity
  8
SEIHIN
  6
CONTINUOUS
100
AcDbCircle
 10
794.4553224227406
 20
770.4366950654572
 30
0.0
 40
1.000000000000163
100
AcDbArc
 50
359.9999999999999
 51
78.32377470960051
  0
LINE
  5
567B
330
19
100
AcDbEntity
  8
SEIHIN
  6
CONTINUOUS
100
AcDbLine
 10
795.7355758354615
 20
771.47503194978
 30
0.0
 11
799.0930047915006
 21
774.1803412278106
 31
0.0
  0
LINE
  5
567C
330
19
100
AcDbEntity
  8
SEIHIN
  6
CONTINUOUS
100
AcDbLine
 10
810.1750690100196
 20
771.47503194978
 30
0.0
 11
806.8176400539805
 21
774.1803412278106
 31
0.0
  0
ARC
  5
567D
330
19
100
AcDbEntity
  8
SEIHIN
  6
CONTINUOUS
100
AcDbCircle
 10
811.4553224227407
 20
770.4366950654572
 30
0.0
 40
1.000000000000163
100
AcDbArc
 50
101.6762252903993
 51
179.9999999999999
  0
ARC
  5
567E
330
19
100
AcDbEntity
  8
SEIHIN
  6
CONTINUOUS
100
AcDbCircle
 10
794.4553224227405
 20
707.9155214934577
 30
0.0
 40
1.0
100
AcDbArc
 50
265.311942647399
 51
359.9999999999999
  0
ARC
  5
567F
330
19
100
AcDbEntity
  8
SEIHIN
  6
CONTINUOUS
100
AcDbCircle
 10
811.4553224227405
 20
707.9155214934577
 30
0.0
 40
1.0
100
AcDbArc
 50
179.9999999999999
 51
274.6880573526009
  0
LINE
  5
57E7
330
19
100
AcDbEntity
  8
SEIHIN
  6
CONTINUOUS
100
AcDbLine
 10
461.6709138491005
 20
484.1883799494472
 30
0.0
 11
459.5060138491008
 21
482.9384799494469
 31
0.0
  0
LINE
  5
57E8
330
19
100
AcDbEntity
  8
SEIHIN
  6
CONTINUOUS
100
AcDbLine
 10
459.5060138491008
 20
481.9372799494468
 30
0.0
 11
461.6709138491005
 21
480.6873799494471
 31
0.0
  0
LINE
  5
57E9
330
19
100
AcDbEntity
  8
SEIHIN
  6
CONTINUOUS
100
AcDbLine
 10
459.5060138491008
 20
481.9372799494472
 30
0.0
 11
459.5060138491008
 21
482.9384799494475
 31
0.0
  0
LINE
  5
57EA
330
19
100
AcDbEntity
  8
SEIHIN
  6
CONTINUOUS
100
AcDbLine
 10
459.5060138491008
 20
481.9372799494468
 30
0.0
 11
459.5060138491008
 21
482.9384799494469
 31
0.0
  0
LINE
  5
57EB
330
19
100
AcDbEntity
  8
SEIHIN
  6
CONTINUOUS
100
AcDbLine
 10
461.6709138491005
 20
472.1887799494472
 30
0.0
 11
459.5060138491008
 21
470.9387799494471
 31
0.0
  0
LINE
  5
57EC
330
19
100
AcDbEntity
  8
SEIHIN
  6
CONTINUOUS
100
AcDbLine
 10
459.5060138491008
 20
473.937579949447
 30
0.0
 11
461.6709138491005
 21
472.687579949447
 31
0.0
  0
LINE
  5
57ED
330
19
100
AcDbEntity
  8
SEIHIN
  6
CONTINUOUS
100
AcDbLine
 10
461.6709138491005
 20
476.1886799494474
 30
0.0
 11
459.5060138491008
 21
474.9386799494474
 31
0.0
  0
LINE
  5
57EE
330
19
100
AcDbEntity
  8
SEIHIN
  6
CONTINUOUS
100
AcDbLine
 10
459.5060138491008
 20
477.9374799494473
 30
0.0
 11
461.6709138491005
 21
476.6874799494472
 31
0.0
  0
LINE
  5
57EF
330
19
100
AcDbEntity
  8
SEIHIN
  6
CONTINUOUS
100
AcDbLine
 10
461.6709138491005
 20
480.188479949447
 30
0.0
 11
459.5060138491008
 21
478.9385799494472
 31
0.0
  0
LINE
  5
57F0
330
19
100
AcDbEntity
  8
SEIHIN
  6
CONTINUOUS
100
AcDbLine
 10
459.5060138491008
 20
473.9363799494473
 30
0.0
 11
459.5060138491008
 21
474.9374799494472
 31
0.0
  0
LINE
  5
57F1
330
19
100
AcDbEntity
  8
SEIHIN
  6
CONTINUOUS
100
AcDbLine
 10
459.5060138491008
 20
469.9358799494472
 30
0.0
 11
459.5060138491008
 21
470.9369799494472
 31
0.0
  0
LINE
  5
57F2
330
19
100
AcDbEntity
  8
SEIHIN
  6
CONTINUOUS
100
AcDbLine
 10
459.5060138491008
 20
469.9376799494472
 30
0.0
 11
459.5060138491008
 21
470.9387799494471
 31
0.0
  0
LINE
  5
57F3
330
19
100
AcDbEntity
  8
SEIHIN
  6
CONTINUOUS
100
AcDbLine
 10
459.5060138491008
 20
477.9374799494473
 30
0.0
 11
459.5060138491008
 21
478.9385799494472
 31
0.0
  0
LINE
  5
57F4
330
19
100
AcDbEntity
  8
SEIHIN
  6
CONTINUOUS
100
AcDbLine
 10
459.5060138491008
 20
477.9368799494474
 30
0.0
 11
459.5060138491008
 21
478.9379799494473
 31
0.0
  0
LINE
  5
57F5
330
19
100
AcDbEntity
  8
SEIHIN
  6
CONTINUOUS
100
AcDbLine
 10
459.5060138491008
 20
473.937579949447
 30
0.0
 11
459.5060138491008
 21
474.9386799494474
 31
0.0
  0
LINE
  5
57F6
330
19
100
AcDbEntity
  8
SEIHIN
  6
CONTINUOUS
100
AcDbLine
 10
461.6709138491005
 20
472.687579949447
 30
0.0
 11
461.6709138491005
 21
472.1887799494472
 31
0.0
  0
LINE
  5
57F7
330
19
100
AcDbEntity
  8
SEIHIN
  6
CONTINUOUS
100
AcDbLine
 10
461.6709138491005
 20
476.6874799494472
 30
0.0
 11
461.6709138491005
 21
476.1886799494474
 31
0.0
  0
LINE
  5
57F8
330
19
100
AcDbEntity
  8
SEIHIN
  6
CONTINUOUS
100
AcDbLine
 10
459.5060138491008
 20
461.9378799494471
 30
0.0
 11
461.6709138491005
 21
460.6879799494469
 31
0.0
  0
LINE
  5
57F9
330
19
100
AcDbEntity
  8
SEIHIN
  6
CONTINUOUS
100
AcDbLine
 10
461.6709138491005
 20
468.1888799494469
 30
0.0
 11
459.5060138491008
 21
466.9389799494471
 31
0.0
  0
LINE
  5
57FA
330
19
100
AcDbEntity
  8
SEIHIN
  6
CONTINUOUS
100
AcDbLine
 10
459.5060138491008
 20
465.9377799494469
 30
0.0
 11
461.6709138491005
 21
464.6878799494471
 31
0.0
  0
LINE
  5
57FB
330
19
100
AcDbEntity
  8
SEIHIN
  6
CONTINUOUS
100
AcDbLine
 10
461.6709138491005
 20
464.1889799494471
 30
0.0
 11
459.5060138491008
 21
462.9390799494473
 31
0.0
  0
LINE
  5
57FC
330
19
100
AcDbEntity
  8
SEIHIN
  6
CONTINUOUS
100
AcDbLine
 10
459.5060138491008
 20
465.9377799494469
 30
0.0
 11
459.5060138491008
 21
466.9389799494471
 31
0.0
  0
LINE
  5
57FD
330
19
100
AcDbEntity
  8
SEIHIN
  6
CONTINUOUS
100
AcDbLine
 10
459.5060138491008
 20
465.935379949447
 30
0.0
 11
459.5060138491008
 21
466.936479949447
 31
0.0
  0
LINE
  5
57FE
330
19
100
AcDbEntity
  8
SEIHIN
  6
CONTINUOUS
100
AcDbLine
 10
459.5060138491008
 20
461.9378799494471
 30
0.0
 11
459.5060138491008
 21
462.9390799494473
 31
0.0
  0
LINE
  5
57FF
330
19
100
AcDbEntity
  8
SEIHIN
  6
CONTINUOUS
100
AcDbLine
 10
459.5060138491008
 20
461.9378799494471
 30
0.0
 11
459.5060138491008
 21
462.9390799494473
 31
0.0
  0
LINE
  5
5801
330
19
100
AcDbEntity
  8
SEIHIN
  6
CONTINUOUS
100
AcDbLine
 10
461.6709138491005
 20
464.6878799494471
 30
0.0
 11
461.6709138491005
 21
464.1889799494471
 31
0.0
  0
LINE
  5
5802
330
19
100
AcDbEntity
  8
SEIHIN
  6
CONTINUOUS
100
AcDbLine
 10
461.6709138491005
 20
468.6876799494472
 30
0.0
 11
461.6709138491005
 21
468.1888799494469
 31
0.0
  0
LINE
  5
5803
330
19
100
AcDbEntity
  8
SEIHIN
  6
CONTINUOUS
100
AcDbLine
 10
459.5060138491008
 20
469.9376799494472
 30
0.0
 11
461.6709138491005
 21
468.6876799494472
 31
0.0
  0
LINE
  5
5804
330
19
100
AcDbEntity
  8
SEIHIN
  6
CONTINUOUS
100
AcDbLine
 10
461.6709138491005
 20
480.6873799494471
 30
0.0
 11
461.6709138491005
 21
480.188479949447
 31
0.0
  0
LINE
  5
5806
330
19
100
AcDbEntity
  8
SEIHIN
  6
CONTINUOUS
100
AcDbLine
 10
461.6709138491005
 20
488.188279949447
 30
0.0
 11
459.5060138491008
 21
486.938279949447
 31
0.0
  0
LINE
  5
5807
330
19
100
AcDbEntity
  8
SEIHIN
  6
CONTINUOUS
100
AcDbLine
 10
459.5060138491008
 20
485.937179949447
 30
0.0
 11
461.6709138491005
 21
484.6871799494471
 31
0.0
  0
LINE
  5
5809
330
19
100
AcDbEntity
  8
SEIHIN
  6
CONTINUOUS
100
AcDbLine
 10
459.5060138491008
 20
485.937179949447
 30
0.0
 11
459.5060138491008
 21
486.938279949447
 31
0.0
  0
LINE
  5
580A
330
19
100
AcDbEntity
  8
SEIHIN
  6
CONTINUOUS
100
AcDbLine
 10
459.5060138491008
 20
485.9377799494474
 30
0.0
 11
459.5060138491008
 21
486.9389799494471
 31
0.0
  0
LINE
  5
580C
330
19
100
AcDbEntity
  8
SEIHIN
  6
CONTINUOUS
100
AcDbLine
 10
461.6709138491005
 20
488.6870799494473
 30
0.0
 11
461.6709138491005
 21
488.188279949447
 31
0.0
  0
LINE
  5
580D
330
19
100
AcDbEntity
  8
SEIHIN
  6
CONTINUOUS
100
AcDbLine
 10
461.6709138491005
 20
484.6871799494471
 30
0.0
 11
461.6709138491005
 21
484.1883799494472
 31
0.0
  0
LINE
  5
5810
330
19
100
AcDbEntity
  8
SEIHIN
  6
CONTINUOUS
100
AcDbLine
 10
465.6709138491005
 20
493.0624488475602
 30
0.0
 11
461.6709138491005
 21
489.0624488475602
 31
0.0
  0
LINE
  5
5812
330
19
100
AcDbEntity
  8
SEIHIN
  6
CONTINUOUS
100
AcDbLine
 10
461.6709138491005
 20
489.0624488475602
 30
0.0
 11
353.6709138491
 21
489.0624488475602
 31
0.0
  0
LINE
  5
5831
330
19
100
AcDbEntity
  8
SEIHIN
  6
CONTINUOUS
100
AcDbLine
 10
353.6709138491
 20
460.0928523951629
 30
0.0
 11
402.7464647905212
 21
460.9483884482171
 31
0.0
  0
LINE
  5
5832
330
19
100
AcDbEntity
  8
SEIHIN
  6
CONTINUOUS
100
AcDbLine
 10
353.6709138491
 20
461.0940523951629
 30
0.0
 11
402.7464647905212
 21
461.9495884482172
 31
0.0
  0
LINE
  5
5833
330
19
100
AcDbEntity
  8
SEIHIN
  6
CONTINUOUS
100
AcDbLine
 10
353.6709138491
 20
462.8051116064049
 30
0.0
 11
404.911364790521
 21
463.698388448217
 31
0.0
  0
LINE
  5
5834
330
19
100
AcDbEntity
  8
SEIHIN
  6
CONTINUOUS
100
AcDbLine
 10
353.6709138491
 20
462.3062116064049
 30
0.0
 11
404.911364790521
 21
463.199488448217
 31
0.0
  0
LINE
  5
5835
330
19
100
AcDbEntity
  8
SEIHIN
  6
CONTINUOUS
100
AcDbLine
 10
353.6709138491
 20
466.8026116064048
 30
0.0
 11
404.911364790521
 21
467.695888448217
 31
0.0
  0
LINE
  5
5836
330
19
100
AcDbEntity
  8
SEIHIN
  6
CONTINUOUS
100
AcDbLine
 10
353.6709138491
 20
466.3037116064049
 30
0.0
 11
404.911364790521
 21
467.1969884482169
 31
0.0
  0
LINE
  5
5837
330
19
100
AcDbEntity
  8
SEIHIN
  6
CONTINUOUS
100
AcDbLine
 10
353.6709138491
 20
465.0915523951629
 30
0.0
 11
402.7464647905212
 21
465.9470884482171
 31
0.0
  0
LINE
  5
5838
330
19
100
AcDbEntity
  8
SEIHIN
  6
CONTINUOUS
100
AcDbLine
 10
353.6709138491
 20
464.0903523951627
 30
0.0
 11
402.7464647905212
 21
464.945888448217
 31
0.0
  0
LINE
  5
5839
330
19
100
AcDbEntity
  8
SEIHIN
  6
CONTINUOUS
100
AcDbLine
 10
353.6709138491
 20
468.0884523951631
 30
0.0
 11
402.7464647905212
 21
468.9439884482172
 31
0.0
  0
LINE
  5
583A
330
19
100
AcDbEntity
  8
SEIHIN
  6
CONTINUOUS
100
AcDbLine
 10
353.6709138491
 20
469.089652395163
 30
0.0
 11
402.7464647905212
 21
469.9451884482173
 31
0.0
  0
LINE
  5
583B
330
19
100
AcDbEntity
  8
SEIHIN
  6
CONTINUOUS
100
AcDbLine
 10
353.6709138491
 20
470.301811606405
 30
0.0
 11
404.911364790521
 21
471.1950884482172
 31
0.0
  0
LINE
  5
583C
330
19
100
AcDbEntity
  8
SEIHIN
  6
CONTINUOUS
100
AcDbLine
 10
353.6709138491
 20
470.8007116064051
 30
0.0
 11
404.911364790521
 21
471.6939884482172
 31
0.0
  0
LINE
  5
583D
330
19
100
AcDbEntity
  8
SEIHIN
  6
CONTINUOUS
100
AcDbLine
 10
353.6709138491
 20
482.7992116064052
 30
0.0
 11
404.911364790521
 21
483.6924884482173
 31
0.0
  0
LINE
  5
583E
330
19
100
AcDbEntity
  8
SEIHIN
  6
CONTINUOUS
100
AcDbLine
 10
353.6709138491
 20
482.3003116064052
 30
0.0
 11
404.911364790521
 21
483.1935884482174
 31
0.0
  0
LINE
  5
583F
330
19
100
AcDbEntity
  8
SEIHIN
  6
CONTINUOUS
100
AcDbLine
 10
353.6709138491
 20
481.0881523951633
 30
0.0
 11
402.7464647905212
 21
481.9436884482175
 31
0.0
  0
LINE
  5
5840
330
19
100
AcDbEntity
  8
SEIHIN
  6
CONTINUOUS
100
AcDbLine
 10
353.6709138491
 20
480.0869523951631
 30
0.0
 11
402.7464647905212
 21
480.9424884482174
 31
0.0
  0
LINE
  5
5841
330
19
100
AcDbEntity
  8
SEIHIN
  6
CONTINUOUS
100
AcDbLine
 10
353.6709138491
 20
476.0888523951629
 30
0.0
 11
402.7464647905212
 21
476.944388448217
 31
0.0
  0
LINE
  5
5842
330
19
100
AcDbEntity
  8
SEIHIN
  6
CONTINUOUS
100
AcDbLine
 10
353.6709138491
 20
477.0900523951631
 30
0.0
 11
402.7464647905212
 21
477.9455884482174
 31
0.0
  0
LINE
  5
5843
330
19
100
AcDbEntity
  8
SEIHIN
  6
CONTINUOUS
100
AcDbLine
 10
353.6709138491
 20
478.302211606405
 30
0.0
 11
404.911364790521
 21
479.1954884482171
 31
0.0
  0
LINE
  5
5844
330
19
100
AcDbEntity
  8
SEIHIN
  6
CONTINUOUS
100
AcDbLine
 10
353.6709138491
 20
478.8011116064049
 30
0.0
 11
404.911364790521
 21
479.6943884482171
 31
0.0
  0
LINE
  5
5845
330
19
100
AcDbEntity
  8
SEIHIN
  6
CONTINUOUS
100
AcDbLine
 10
353.6709138491
 20
474.803611606405
 30
0.0
 11
404.911364790521
 21
475.6968884482172
 31
0.0
  0
LINE
  5
5846
330
19
100
AcDbEntity
  8
SEIHIN
  6
CONTINUOUS
100
AcDbLine
 10
353.6709138491
 20
474.304711606405
 30
0.0
 11
404.911364790521
 21
475.1979884482171
 31
0.0
  0
LINE
  5
5847
330
19
100
AcDbEntity
  8
SEIHIN
  6
CONTINUOUS
100
AcDbLine
 10
353.6709138491
 20
473.0925523951631
 30
0.0
 11
402.7464647905212
 21
473.9480884482173
 31
0.0
  0
LINE
  5
5848
330
19
100
AcDbEntity
  8
SEIHIN
  6
CONTINUOUS
100
AcDbLine
 10
353.6709138491
 20
472.0913523951629
 30
0.0
 11
402.7464647905212
 21
472.9468884482172
 31
0.0
  0
LINE
  5
5849
330
19
100
AcDbEntity
  8
SEIHIN
  6
CONTINUOUS
100
AcDbLine
 10
353.6709138491
 20
484.0921523951628
 30
0.0
 11
402.7464647905212
 21
484.947688448217
 31
0.0
  0
LINE
  5
584A
330
19
100
AcDbEntity
  8
SEIHIN
  6
CONTINUOUS
100
AcDbLine
 10
353.6709138491
 20
485.0933523951629
 30
0.0
 11
402.7464647905212
 21
485.9488884482171
 31
0.0
  0
LINE
  5
584B
330
19
100
AcDbEntity
  8
SEIHIN
  6
CONTINUOUS
100
AcDbLine
 10
353.6709138491
 20
486.3055116064049
 30
0.0
 11
404.911364790521
 21
487.198788448217
 31
0.0
  0
LINE
  5
584C
330
19
100
AcDbEntity
  8
SEIHIN
  6
CONTINUOUS
100
AcDbLine
 10
353.6709138491
 20
486.8044116064048
 30
0.0
 11
404.911364790521
 21
487.6976884482169
 31
0.0
  0
LINE
  5
584D
330
19
100
AcDbEntity
  8
CENTER_L
 48
5.0
100
AcDbLine
 10
353.6709138491
 20
505.2283154374056
 30
0.0
 11
353.6709138491
 21
341.2538888306615
 31
0.0
  0
LINE
  5
5851
330
19
100
AcDbEntity
  8
SEIHIN
  6
CONTINUOUS
100
AcDbLine
 10
353.6709138491
 20
488.0973523951624
 30
0.0
 11
402.7464647905212
 21
488.9528884482166
 31
0.0
  0
LINE
  5
5854
330
19
100
AcDbEntity
  8
SEIHIN
  6
CONTINUOUS
100
AcDbLine
 10
402.7464647905212
 20
480.9477884482173
 30
0.0
 11
402.7464647905212
 21
481.9489884482174
 31
0.0
  0
LINE
  5
5855
330
19
100
AcDbEntity
  8
SEIHIN
  6
CONTINUOUS
100
AcDbLine
 10
402.7464647905212
 20
480.9477884482168
 30
0.0
 11
402.7464647905212
 21
481.948988448217
 31
0.0
  0
LINE
  5
5856
330
19
100
AcDbEntity
  8
SEIHIN
  6
CONTINUOUS
100
AcDbLine
 10
402.7464647905212
 20
480.9477884482168
 30
0.0
 11
404.911364790521
 21
479.697888448217
 31
0.0
  0
LINE
  5
5857
330
19
100
AcDbEntity
  8
SEIHIN
  6
CONTINUOUS
100
AcDbLine
 10
404.911364790521
 20
471.1992884482171
 30
0.0
 11
402.7464647905212
 21
469.9492884482171
 31
0.0
  0
LINE
  5
5858
330
19
100
AcDbEntity
  8
SEIHIN
  6
CONTINUOUS
100
AcDbLine
 10
402.7464647905212
 20
472.9480884482169
 30
0.0
 11
404.911364790521
 21
471.6980884482169
 31
0.0
  0
LINE
  5
5859
330
19
100
AcDbEntity
  8
SEIHIN
  6
CONTINUOUS
100
AcDbLine
 10
404.911364790521
 20
475.1991884482174
 30
0.0
 11
402.7464647905212
 21
473.9491884482173
 31
0.0
  0
LINE
  5
585A
330
19
100
AcDbEntity
  8
SEIHIN
  6
CONTINUOUS
100
AcDbLine
 10
402.7464647905212
 20
476.9479884482172
 30
0.0
 11
404.911364790521
 21
475.6979884482172
 31
0.0
  0
LINE
  5
585B
330
19
100
AcDbEntity
  8
SEIHIN
  6
CONTINUOUS
100
AcDbLine
 10
404.911364790521
 20
479.198988448217
 30
0.0
 11
402.7464647905212
 21
477.9490884482171
 31
0.0
  0
LINE
  5
585C
330
19
100
AcDbEntity
  8
SEIHIN
  6
CONTINUOUS
100
AcDbLine
 10
402.7464647905212
 20
472.9468884482172
 30
0.0
 11
402.7464647905212
 21
473.9479884482172
 31
0.0
  0
LINE
  5
585D
330
19
100
AcDbEntity
  8
SEIHIN
  6
CONTINUOUS
100
AcDbLine
 10
402.7464647905212
 20
468.9463884482171
 30
0.0
 11
402.7464647905212
 21
469.9474884482171
 31
0.0
  0
LINE
  5
585E
330
19
100
AcDbEntity
  8
SEIHIN
  6
CONTINUOUS
100
AcDbLine
 10
402.7464647905212
 20
468.9481884482171
 30
0.0
 11
402.7464647905212
 21
469.9492884482171
 31
0.0
  0
LINE
  5
585F
330
19
100
AcDbEntity
  8
SEIHIN
  6
CONTINUOUS
100
AcDbLine
 10
402.7464647905212
 20
476.9479884482172
 30
0.0
 11
402.7464647905212
 21
477.9490884482171
 31
0.0
  0
LINE
  5
5860
330
19
100
AcDbEntity
  8
SEIHIN
  6
CONTINUOUS
100
AcDbLine
 10
402.7464647905212
 20
476.9473884482174
 30
0.0
 11
402.7464647905212
 21
477.9484884482173
 31
0.0
  0
LINE
  5
5861
330
19
100
AcDbEntity
  8
SEIHIN
  6
CONTINUOUS
100
AcDbLine
 10
402.7464647905212
 20
472.9480884482169
 30
0.0
 11
402.7464647905212
 21
473.9491884482173
 31
0.0
  0
LINE
  5
5864
330
19
100
AcDbEntity
  8
SEIHIN
  6
CONTINUOUS
100
AcDbLine
 10
402.7464647905212
 20
460.9483884482171
 30
0.0
 11
404.911364790521
 21
459.6984884482169
 31
0.0
  0
LINE
  5
5865
330
19
100
AcDbEntity
  8
SEIHIN
  6
CONTINUOUS
100
AcDbLine
 10
404.911364790521
 20
467.1993884482168
 30
0.0
 11
402.7464647905212
 21
465.949488448217
 31
0.0
  0
LINE
  5
5866
330
19
100
AcDbEntity
  8
SEIHIN
  6
CONTINUOUS
100
AcDbLine
 10
402.7464647905212
 20
464.9482884482169
 30
0.0
 11
404.911364790521
 21
463.6983884482171
 31
0.0
  0
LINE
  5
5867
330
19
100
AcDbEntity
  8
SEIHIN
  6
CONTINUOUS
100
AcDbLine
 10
404.911364790521
 20
463.199488448217
 30
0.0
 11
402.7464647905212
 21
461.9495884482173
 31
0.0
  0
LINE
  5
5868
330
19
100
AcDbEntity
  8
SEIHIN
  6
CONTINUOUS
100
AcDbLine
 10
402.7464647905212
 20
464.9482884482169
 30
0.0
 11
402.7464647905212
 21
465.949488448217
 31
0.0
  0
LINE
  5
5869
330
19
100
AcDbEntity
  8
SEIHIN
  6
CONTINUOUS
100
AcDbLine
 10
402.7464647905212
 20
464.9458884482171
 30
0.0
 11
402.7464647905212
 21
465.946988448217
 31
0.0
  0
LINE
  5
586A
330
19
100
AcDbEntity
  8
SEIHIN
  6
CONTINUOUS
100
AcDbLine
 10
402.7464647905212
 20
460.9483884482171
 30
0.0
 11
402.7464647905212
 21
461.9495884482173
 31
0.0
  0
LINE
  5
586B
330
19
100
AcDbEntity
  8
SEIHIN
  6
CONTINUOUS
100
AcDbLine
 10
402.7464647905212
 20
460.9483884482171
 30
0.0
 11
402.7464647905212
 21
461.9495884482173
 31
0.0
  0
LINE
  5
586C
330
19
100
AcDbEntity
  8
SEIHIN
  6
CONTINUOUS
100
AcDbLine
 10
404.911364790521
 20
463.199488448217
 30
0.0
 11
404.911364790521
 21
459.6984884482169
 31
0.0
  0
LINE
  5
586E
330
19
100
AcDbEntity
  8
SEIHIN
  6
CONTINUOUS
100
AcDbLine
 10
402.7464647905212
 20
468.9481884482171
 30
0.0
 11
404.911364790521
 21
467.6981884482172
 31
0.0
  0
LINE
  5
5870
330
19
100
AcDbEntity
  8
SEIHIN
  6
CONTINUOUS
100
AcDbLine
 10
404.911364790521
 20
483.1988884482172
 30
0.0
 11
402.7464647905212
 21
481.948988448217
 31
0.0
  0
LINE
  5
5871
330
19
100
AcDbEntity
  8
SEIHIN
  6
CONTINUOUS
100
AcDbLine
 10
404.911364790521
 20
487.198788448217
 30
0.0
 11
402.7464647905212
 21
485.948788448217
 31
0.0
  0
LINE
  5
5872
330
19
100
AcDbEntity
  8
SEIHIN
  6
CONTINUOUS
100
AcDbLine
 10
402.7464647905212
 20
484.9476884482171
 30
0.0
 11
404.911364790521
 21
483.6976884482171
 31
0.0
  0
LINE
  5
5873
330
19
100
AcDbEntity
  8
SEIHIN
  6
CONTINUOUS
100
AcDbLine
 10
402.7464647905212
 20
484.9476884482171
 30
0.0
 11
402.7464647905212
 21
485.948788448217
 31
0.0
  0
LINE
  5
5874
330
19
100
AcDbEntity
  8
SEIHIN
  6
CONTINUOUS
100
AcDbLine
 10
402.7464647905212
 20
484.9482884482173
 30
0.0
 11
402.7464647905212
 21
485.949488448217
 31
0.0
  0
LINE
  5
5877
330
19
100
AcDbEntity
  8
SEIHIN
  6
CONTINUOUS
100
AcDbLine
 10
402.7464647905212
 20
488.9476884482169
 30
0.0
 11
404.911364790521
 21
487.6976884482169
 31
0.0
  0
LINE
  5
5878
330
19
100
AcDbEntity
  8
SEIHIN
  6
CONTINUOUS
100
AcDbLine
 10
404.9113647905211
 20
467.1993884482172
 30
0.0
 11
404.9113647905211
 21
463.698388448217
 31
0.0
  0
LINE
  5
5879
330
19
100
AcDbEntity
  8
SEIHIN
  6
CONTINUOUS
100
AcDbLine
 10
404.9113647905211
 20
475.1967884482174
 30
0.0
 11
404.9113647905211
 21
471.6957884482172
 31
0.0
  0
LINE
  5
587A
330
19
100
AcDbEntity
  8
SEIHIN
  6
CONTINUOUS
100
AcDbLine
 10
404.911364790521
 20
471.1968884482171
 30
0.0
 11
404.911364790521
 21
467.695888448217
 31
0.0
  0
LINE
  5
587B
330
19
100
AcDbEntity
  8
SEIHIN
  6
CONTINUOUS
100
AcDbLine
 10
404.911364790521
 20
479.1978884482174
 30
0.0
 11
404.911364790521
 21
475.6968884482172
 31
0.0
  0
LINE
  5
587C
330
19
100
AcDbEntity
  8
SEIHIN
  6
CONTINUOUS
100
AcDbLine
 10
404.9113647905211
 20
483.1977884482175
 30
0.0
 11
404.9113647905211
 21
479.6967884482174
 31
0.0
  0
LINE
  5
587D
330
19
100
AcDbEntity
  8
SEIHIN
  6
CONTINUOUS
100
AcDbLine
 10
404.911364790521
 20
487.1952884482175
 30
0.0
 11
404.911364790521
 21
483.6942884482174
 31
0.0
  0
LINE
  5
587E
330
19
100
AcDbEntity
  8
SEIHIN
  6
CONTINUOUS
100
AcDbLine
 10
404.9113647905211
 20
489.0624488475602
 30
0.0
 11
404.9113647905211
 21
487.6941884482175
 31
0.0
  0
LINE
  5
5881
330
19
100
AcDbEntity
  8
SEIHIN
100
AcDbLine
 10
461.6709138491005
 20
460.6879799494469
 30
0.0
 11
461.6709138491003
 21
457.7626563857601
 31
0.0
  0
DIMENSION
  5
588B
330
19
100
AcDbEntity
  8
SUNPOU
100
AcDbDimension
  2
*D13
 10
628.7395772453565
 20
387.0624488475602
 30
0.0
 11
620.7395772453564
 21
441.0624488475603
 31
0.0
 70
    32
  3
STANDARD
100
AcDbAlignedDimension
 13
741.40866462334
 23
495.0624488475601
 33
0.0
 14
697.12022242274
 24
387.0624488475602
 34
0.0
 50
90.0
100
AcDbRotatedDimension
1001
ACAD
1000
DSTYLE
1002
{
1070
    41
1040
12.0
1070
    42
1040
5.0
1070
    43
1040
28.0
1070
    44
1040
5.0
1070
    73
1070
     0
1070
    74
1070
     0
1070
    77
1070
     3
1070
   140
1040
8.0
1070
   141
1040
3.0
1070
   143
1040
0.03937
1070
   147
1040
4.0
1070
   172
1070
     1
1070
   173
1070
     1
1070
   176
1070
   256
1070
   177
1070
   256
1070
   178
1070
   256
1070
   271
1070
     0
1070
   272
1070
     0
1070
   341
1005
27
1070
     6
1000
OPEN
1070
     7
1000
OPEN
1070
   371
1070
    -1
1070
   372
1070
    -1
1002
}
  0
DIMENSION
  5
58A5
330
19
100
AcDbEntity
  8
SUNPOU
100
AcDbDimension
  2
*D14
 10
648.8545028017806
 20
422.0624488475602
 30
0.0
 11
640.8545028017805
 21
458.5624488475603
 31
0.0
 70
    32
  3
STANDARD
100
AcDbAlignedDimension
 13
741.40866462334
 23
495.0624488475601
 33
0.0
 14
678.9553224227402
 24
422.0624488475602
 34
0.0
 50
90.0
100
AcDbRotatedDimension
1001
ACAD
1000
DSTYLE
1002
{
1070
    41
1040
12.0
1070
    42
1040
5.0
1070
    43
1040
28.0
1070
    44
1040
5.0
1070
    73
1070
     0
1070
    74
1070
     0
1070
    77
1070
     3
1070
   140
1040
8.0
1070
   141
1040
3.0
1070
   143
1040
0.03937
1070
   147
1040
4.0
1070
   172
1070
     1
1070
   173
1070
     1
1070
   176
1070
   256
1070
   177
1070
   256
1070
   178
1070
   256
1070
   271
1070
     0
1070
   272
1070
     0
1070
   341
1005
27
1070
     6
1000
OPEN
1070
     7
1000
OPEN
1070
   371
1070
    -1
1070
   372
1070
    -1
1002
}
  0
LINE
  5
58C5
330
19
100
AcDbEntity
  8
SEIHIN
  6
CONTINUOUS
100
AcDbLine
 10
802.9555096774849
 20
441.7797146364484
 30
0.0
 11
806.5619897570252
 21
441.7797146364484
 31
0.0
  0
LINE
  5
58F5
330
19
100
AcDbEntity
  8
SEIHIN
  6
CONTINUOUS
100
AcDbLine
 10
807.4553222551653
 20
415.5624488475602
 30
0.0
 11
802.9554500927899
 21
415.5624488475601
 31
0.0
  0
ARC
  5
58F6
330
19
100
AcDbEntity
  8
SEIHIN
  6
CONTINUOUS
100
AcDbCircle
 10
807.4553222551653
 20
418.5624488475601
 30
0.0
 40
3.0
100
AcDbArc
 50
270.0
 51
0.0000000000541076
  0
LINE
  5
58F7
330
19
100
AcDbEntity
  8
SEIHIN
  6
CONTINUOUS
100
AcDbLine
 10
802.955471683699
 20
425.0624488475601
 30
0.0
 11
752.2411310138395
 21
425.0624488475601
 31
0.0
  0
LINE
  5
58F8
330
19
100
AcDbEntity
  8
SEIHIN
  6
CONTINUOUS
100
AcDbLine
 10
697.12022242274
 20
420.0624488475601
 30
0.0
 11
697.12022242274
 21
419.0613488475602
 31
0.0
  0
ARC
  5
58F9
330
19
100
AcDbEntity
  8
SEIHIN
  6
CONTINUOUS
100
AcDbCircle
 10
1249.196087200187
 20
811.5672382471114
 30
0.0
 40
89.33491808481425
100
AcDbArc
 50
54.99996321314713
 51
85.18413686105908
  0
LINE
  5
58FA
330
19
100
AcDbEntity
  8
CENTER_L
 48
5.0
100
AcDbLine
 10
1097.196087200542
 20
811.5675837016569
 30
0.0
 11
1401.196087199833
 21
811.5668927925655
 31
0.0
  0
CIRCLE
  5
58FB
330
19
100
AcDbEntity
  8
SEIHIN
  6
CONTINUOUS
100
AcDbCircle
 10
1249.196087200187
 20
811.5672382471114
 30
0.0
 40
126.0000000000397
  0
ARC
  5
58FD
330
19
100
AcDbEntity
  8
SEIHIN
  6
CONTINUOUS
100
AcDbCircle
 10
1249.196087200187
 20
811.5672382471114
 30
0.0
 40
91.50000000005466
100
AcDbArc
 50
4.701650112428468
 51
85.2983498875719
  0
CIRCLE
  5
58FF
330
19
100
AcDbEntity
  8
SEIHIN
  6
CONTINUOUS
100
AcDbCircle
 10
1249.196087200187
 20
811.5672382471114
 30
0.0
 40
132.0000000000378
  0
ARC
  5
5900
330
19
100
AcDbEntity
  8
SEIHIN
  6
CONTINUOUS
100
AcDbCircle
 10
1249.196087200187
 20
811.5672382471114
 30
0.0
 40
89.3349912844811
100
AcDbArc
 50
175.0000638918233
 51
175.184140509235
  0
LINE
  5
5901
330
19
100
AcDbEntity
  8
SEIHIN
  6
CONTINUOUS
100
AcDbLine
 10
1211.441484787582
 20
730.602132092192
 30
0.0
 11
1210.526516250913
 21
728.6399757332579
 31
0.0
  0
LINE
  5
5902
330
19
100
AcDbEntity
  8
SEIHIN
  6
CONTINUOUS
100
AcDbLine
 10
1160.201033846161
 20
819.3531965254734
 30
0.0
 11
1158.044272324793
 21
819.5418887085223
 31
0.0
  0
LINE
  5
5903
330
19
100
AcDbEntity
  8
SEIHIN
  6
CONTINUOUS
100
AcDbLine
 10
1197.955636258766
 20
884.7460861236687
 30
0.0
 11
1196.713843274067
 21
886.5195502995543
 31
0.0
  0
LINE
  5
5904
330
19
100
AcDbEntity
  8
CENTER_L
 48
5.0
100
AcDbLine
 10
1249.195741745642
 20
659.5672382474661
 30
0.0
 11
1249.196432654732
 21
963.5672382467566
 31
0.0
  0
ARC
  5
5905
330
19
100
AcDbEntity
  8
SEIHIN
  6
CONTINUOUS
100
AcDbCircle
 10
1249.196087200187
 20
811.5672382471114
 30
0.0
 40
89.33509063078872
100
AcDbArc
 50
294.9999728950286
 51
355.1841461846092
  0
LINE
  5
5906
330
19
100
AcDbEntity
  8
SEIHIN
  6
CONTINUOUS
100
AcDbLine
 10
1286.950689612792
 20
730.602132092192
 30
0.0
 11
1287.865658149461
 21
728.6399757332576
 31
0.0
  0
LINE
  5
5907
330
19
100
AcDbEntity
  8
SEIHIN
  6
CONTINUOUS
100
AcDbLine
 10
1300.436538141608
 20
884.7460861236687
 30
0.0
 11
1301.678331126308
 21
886.5195502995543
 31
0.0
  0
LINE
  5
5908
330
19
100
AcDbEntity
  8
SEIHIN
  6
CONTINUOUS
100
AcDbLine
 10
1338.191140554213
 20
819.3531965254734
 30
0.0
 11
1340.347902075582
 21
819.5418887085223
 31
0.0
  0
CIRCLE
  5
5909
330
19
100
AcDbEntity
  8
SEIHIN
100
AcDbCircle
 10
1249.196087200187
 20
811.5672382471114
 30
0.0
 40
124.0000000000727
  0
LINE
  5
590A
330
19
100
AcDbEntity
  8
SEIHIN
  6
CONTINUOUS
100
AcDbLine
 10
1290.326975836387
 20
819.0672382471113
 30
0.0
 11
1352.848149420514
 21
819.0672380795115
 31
0.0
  0
LINE
  5
590B
330
19
100
AcDbEntity
  8
SEIHIN
  6
CONTINUOUS
100
AcDbLine
 10
1290.326975836387
 20
804.0672382471115
 30
0.0
 11
1352.848149420514
 21
804.0672384147113
 31
0.0
  0
CIRCLE
  5
590C
330
19
100
AcDbEntity
  8
SEIHIN
100
AcDbCircle
 10
1249.196087200187
 20
811.5672382471114
 30
0.0
 40
105.0000000000007
  0
LINE
  5
590D
330
19
100
AcDbEntity
  8
SEIHIN
  6
CONTINUOUS
100
AcDbLine
 10
1289.288638952064
 20
804.3474916598324
 30
0.0
 11
1286.583329674034
 21
807.7049206158715
 31
0.0
  0
ARC
  5
590E
330
19
100
AcDbEntity
  8
SEIHIN
  6
CONTINUOUS
100
AcDbCircle
 10
1249.196087200187
 20
811.5672382471114
 30
0.0
 40
61.54495303245837
100
AcDbArc
 50
355.8069464147389
 51
4.19305358535458
  0
LINE
  5
590F
330
19
100
AcDbEntity
  8
SEIHIN
  6
CONTINUOUS
100
AcDbLine
 10
1209.10353544831
 20
804.3474916598324
 30
0.0
 11
1211.80884472634
 21
807.7049206158715
 31
0.0
  0
ARC
  5
5910
330
19
100
AcDbEntity
  8
SEIHIN
  6
CONTINUOUS
100
AcDbCircle
 10
1249.196087200187
 20
811.5672382471114
 30
0.0
 40
61.54495303245837
100
AcDbArc
 50
175.8069464147389
 51
184.1930535853545
  0
ARC
  5
5911
330
19
100
AcDbEntity
  8
SEIHIN
  6
CONTINUOUS
100
AcDbCircle
 10
1249.196087200187
 20
811.5672382471114
 30
0.0
 40
120.0000000000001
100
AcDbArc
 50
154.9999999999892
 51
205.0000000000107
  0
CIRCLE
  5
5912
330
19
100
AcDbEntity
  8
SEIHIN
  6
CONTINUOUS
100
AcDbCircle
 10
1249.196087200187
 20
811.5672382471114
 30
0.0
 40
26.0
  0
LINE
  5
5913
330
19
100
AcDbEntity
  8
SEIHIN
  6
CONTINUOUS
100
AcDbLine
 10
1208.065198563987
 20
804.0672382471115
 30
0.0
 11
1145.54402497986
 21
804.0672384147113
 31
0.0
  0
LINE
  5
5914
330
19
100
AcDbEntity
  8
SEIHIN
  6
CONTINUOUS
100
AcDbLine
 10
1150.408538413187
 20
765.5018477174114
 30
0.0
 11
1140.439152755786
 21
760.8530468383114
 31
0.0
  0
LINE
  5
5915
330
19
100
AcDbEntity
  8
SEIHIN
  6
CONTINUOUS
100
AcDbLine
 10
1140.439152755786
 20
760.8530468383114
 30
0.0
 11
1136.813921607687
 21
759.1625737913114
 31
0.0
  0
LINE
  5
5916
330
19
100
AcDbEntity
  8
SEIHIN
  6
CONTINUOUS
100
AcDbLine
 10
1151.115787405586
 20
765.8316443620111
 30
0.0
 11
1150.408541042386
 21
765.5018481371113
 31
0.0
  0
ARC
  5
5917
330
19
100
AcDbEntity
  8
SEIHIN
  6
CONTINUOUS
100
AcDbCircle
 10
1145.544024991987
 20
803.0672382471115
 30
0.0
 40
1.0
100
AcDbArc
 50
90.0
 51
184.6880573526009
  0
LINE
  5
5918
330
19
100
AcDbEntity
  8
SEIHIN
  6
CONTINUOUS
100
AcDbLine
 10
1154.033770043386
 20
767.1923215446112
 30
0.0
 11
1153.964114565387
 21
767.1598370132113
 31
0.0
  0
LINE
  5
5919
330
19
100
AcDbEntity
  8
SEIHIN
  6
CONTINUOUS
100
AcDbLine
 10
1153.964114565387
 20
767.1598370132113
 30
0.0
 11
1153.757815439287
 21
767.0636425671112
 31
0.0
  0
LINE
  5
591A
330
19
100
AcDbEntity
  8
SEIHIN
  6
CONTINUOUS
100
AcDbLine
 10
1153.757815439287
 20
767.0636425671112
 30
0.0
 11
1153.422807533287
 21
766.9074262438113
 31
0.0
  0
LINE
  5
591B
330
19
100
AcDbEntity
  8
SEIHIN
  6
CONTINUOUS
100
AcDbLine
 10
1153.422807533287
 20
766.9074262438113
 30
0.0
 11
1152.971965450786
 21
766.6971932111112
 31
0.0
  0
LINE
  5
591C
330
19
100
AcDbEntity
  8
SEIHIN
  6
CONTINUOUS
100
AcDbLine
 10
1152.971965450786
 20
766.6971932111112
 30
0.0
 11
1152.422611791687
 21
766.4410236237114
 31
0.0
  0
LINE
  5
591D
330
19
100
AcDbEntity
  8
SEIHIN
  6
CONTINUOUS
100
AcDbLine
 10
1152.422611791687
 20
766.4410236237114
 30
0.0
 11
1151.795854050686
 21
766.1487634239112
 31
0.0
  0
LINE
  5
591E
330
19
100
AcDbEntity
  8
SEIHIN
  6
CONTINUOUS
100
AcDbLine
 10
1151.795854050686
 20
766.1487634239112
 30
0.0
 11
1151.115787405586
 21
765.8316443620111
 31
0.0
  0
LINE
  5
591F
330
19
100
AcDbEntity
  8
SEIHIN
  6
CONTINUOUS
100
AcDbLine
 10
1294.066132236286
 20
715.3431164977115
 30
0.0
 11
1294.322301823686
 21
714.7937628386113
 31
0.0
  0
LINE
  5
5920
330
19
100
AcDbEntity
  8
SEIHIN
  6
CONTINUOUS
100
AcDbLine
 10
1204.069872576786
 20
714.7937628386113
 30
0.0
 11
1204.326042164186
 21
715.3431164977115
 31
0.0
  0
LINE
  5
5921
330
19
100
AcDbEntity
  8
SEIHIN
  6
CONTINUOUS
100
AcDbLine
 10
1241.696087200187
 20
770.4363496109116
 30
0.0
 11
1241.696087367787
 21
707.915176026785
 31
0.0
  0
LINE
  5
5922
330
19
100
AcDbEntity
  8
SEIHIN
  6
CONTINUOUS
100
AcDbLine
 10
1256.696087200187
 20
770.4363496109116
 30
0.0
 11
1256.696087032587
 21
707.915176026785
 31
0.0
  0
ARC
  5
5923
330
19
100
AcDbEntity
  8
SEIHIN
  6
CONTINUOUS
100
AcDbCircle
 10
1249.196087200187
 20
811.5672382471114
 30
0.0
 40
120.0000000000003
100
AcDbArc
 50
244.9999999999954
 51
295.0000000000045
  0
LINE
  5
5924
330
19
100
AcDbEntity
  8
SEIHIN
  6
CONTINUOUS
100
AcDbLine
 10
1198.481895791287
 20
702.8103038027113
 30
0.0
 11
1203.130696670487
 21
712.7796894602113
 31
0.0
  0
LINE
  5
5925
330
19
100
AcDbEntity
  8
SEIHIN
  6
CONTINUOUS
100
AcDbLine
 10
1196.791422744386
 20
699.1850726546115
 30
0.0
 11
1198.481895791287
 21
702.8103038027113
 31
0.0
  0
LINE
  5
5926
330
19
100
AcDbEntity
  8
SEIHIN
  6
CONTINUOUS
100
AcDbLine
 10
1203.130697090187
 20
712.7796920893112
 30
0.0
 11
1203.460493314987
 21
713.486938452511
 31
0.0
  0
LINE
  5
5927
330
19
100
AcDbEntity
  8
SEIHIN
  6
CONTINUOUS
100
AcDbLine
 10
1203.460493314987
 20
713.486938452511
 30
0.0
 11
1203.777612376986
 21
714.1670050976114
 31
0.0
  0
LINE
  5
5928
330
19
100
AcDbEntity
  8
SEIHIN
  6
CONTINUOUS
100
AcDbLine
 10
1203.777612376986
 20
714.1670050976114
 30
0.0
 11
1204.069872576786
 21
714.7937628386113
 31
0.0
  0
ARC
  5
5929
330
19
100
AcDbEntity
  8
SEIHIN
  6
CONTINUOUS
100
AcDbCircle
 10
1240.696087200187
 20
707.9151760389121
 30
0.0
 40
1.0
100
AcDbArc
 50
265.311942647399
 51
359.9999999999999
  0
ARC
  5
592A
330
19
100
AcDbEntity
  8
SEIHIN
  6
CONTINUOUS
100
AcDbCircle
 10
1257.696087200187
 20
707.9151760389121
 30
0.0
 40
1.0
100
AcDbArc
 50
179.9999999999999
 51
274.6880573526009
  0
LINE
  5
592B
330
19
100
AcDbEntity
  8
SEIHIN
  6
CONTINUOUS
100
AcDbLine
 10
1295.261477729987
 20
712.7796894602113
 30
0.0
 11
1299.910278609086
 21
702.8103038027113
 31
0.0
  0
LINE
  5
592C
330
19
100
AcDbEntity
  8
SEIHIN
  6
CONTINUOUS
100
AcDbLine
 10
1294.322301823686
 20
714.7937628386113
 30
0.0
 11
1294.614562023486
 21
714.1670050976114
 31
0.0
  0
LINE
  5
592D
330
19
100
AcDbEntity
  8
SEIHIN
  6
CONTINUOUS
100
AcDbLine
 10
1294.614562023486
 20
714.1670050976114
 30
0.0
 11
1294.931681085386
 21
713.486938452511
 31
0.0
  0
LINE
  5
592E
330
19
100
AcDbEntity
  8
SEIHIN
  6
CONTINUOUS
100
AcDbLine
 10
1294.931681085386
 20
713.486938452511
 30
0.0
 11
1295.261477310186
 21
712.7796920893112
 31
0.0
  0
LINE
  5
592F
330
19
100
AcDbEntity
  8
SEIHIN
  6
CONTINUOUS
100
AcDbLine
 10
1299.910278609086
 20
702.8103038027113
 30
0.0
 11
1301.600751656087
 21
699.1850726546115
 31
0.0
  0
ARC
  5
5930
330
19
100
AcDbEntity
  8
SEIHIN
  6
CONTINUOUS
100
AcDbCircle
 10
1249.196087200187
 20
811.5672382471119
 30
0.0
 40
61.54495303245837
100
AcDbArc
 50
265.8069464147388
 51
274.1930535853545
  0
LINE
  5
5931
330
19
100
AcDbEntity
  8
SEIHIN
  6
CONTINUOUS
100
AcDbLine
 10
1204.326042164186
 20
715.3431164977115
 30
0.0
 11
1204.536275196887
 21
715.7939585802115
 31
0.0
  0
LINE
  5
5932
330
19
100
AcDbEntity
  8
SEIHIN
  6
CONTINUOUS
100
AcDbLine
 10
1204.536275196887
 20
715.7939585802115
 30
0.0
 11
1204.692491520186
 21
716.1289664862112
 31
0.0
  0
LINE
  5
5933
330
19
100
AcDbEntity
  8
SEIHIN
  6
CONTINUOUS
100
AcDbLine
 10
1204.692491520186
 20
716.1289664862112
 30
0.0
 11
1204.788685966287
 21
716.3352656124112
 31
0.0
  0
LINE
  5
5934
330
19
100
AcDbEntity
  8
SEIHIN
  6
CONTINUOUS
100
AcDbLine
 10
1204.788685966287
 20
716.3352656124112
 30
0.0
 11
1204.821170497686
 21
716.4049210904114
 31
0.0
  0
ARC
  5
5935
330
19
100
AcDbEntity
  8
SEIHIN
  6
CONTINUOUS
100
AcDbCircle
 10
1249.196087200187
 20
811.5672382471114
 30
0.0
 40
40.99999999999984
100
AcDbArc
 50
191.6762252903994
 51
258.3237747096113
  0
ARC
  5
5936
330
19
100
AcDbEntity
  8
SEIHIN
  6
CONTINUOUS
100
AcDbCircle
 10
1208.065198563987
 20
803.0672382471113
 30
0.0
 40
1.000000000000163
100
AcDbArc
 50
11.67622529039936
 51
90.0
  0
ARC
  5
5937
330
19
100
AcDbEntity
  8
SEIHIN
  6
CONTINUOUS
100
AcDbCircle
 10
1240.696087200187
 20
770.4363496109116
 30
0.0
 40
1.000000000000163
100
AcDbArc
 50
359.9999999999999
 51
78.32377470960051
  0
LINE
  5
5938
330
19
100
AcDbEntity
  8
SEIHIN
  6
CONTINUOUS
100
AcDbLine
 10
1241.976340612908
 20
771.4746864952344
 30
0.0
 11
1245.333769568947
 21
774.179995773265
 31
0.0
  0
LINE
  5
5939
330
19
100
AcDbEntity
  8
SEIHIN
  6
CONTINUOUS
100
AcDbLine
 10
1293.571003902686
 20
716.4049210904114
 30
0.0
 11
1293.603488434086
 21
716.3352656124112
 31
0.0
  0
LINE
  5
593A
330
19
100
AcDbEntity
  8
SEIHIN
  6
CONTINUOUS
100
AcDbLine
 10
1293.603488434086
 20
716.3352656124112
 30
0.0
 11
1293.699682880186
 21
716.1289664862112
 31
0.0
  0
LINE
  5
593B
330
19
100
AcDbEntity
  8
SEIHIN
  6
CONTINUOUS
100
AcDbLine
 10
1293.699682880186
 20
716.1289664862112
 30
0.0
 11
1293.855899203586
 21
715.7939585802115
 31
0.0
  0
LINE
  5
593C
330
19
100
AcDbEntity
  8
SEIHIN
  6
CONTINUOUS
100
AcDbLine
 10
1293.855899203586
 20
715.7939585802115
 30
0.0
 11
1294.066132236286
 21
715.3431164977115
 31
0.0
  0
ARC
  5
593D
330
19
100
AcDbEntity
  8
SEIHIN
  6
CONTINUOUS
100
AcDbCircle
 10
1249.196087200187
 20
811.5672382471114
 30
0.0
 40
41.00000000000011
100
AcDbArc
 50
281.6762252903886
 51
348.3237747096005
  0
LINE
  5
593E
330
19
100
AcDbEntity
  8
SEIHIN
  6
CONTINUOUS
100
AcDbLine
 10
1256.415833787466
 20
771.4746864952344
 30
0.0
 11
1253.058404831427
 21
774.179995773265
 31
0.0
  0
ARC
  5
593F
330
19
100
AcDbEntity
  8
SEIHIN
  6
CONTINUOUS
100
AcDbCircle
 10
1257.696087200187
 20
770.4363496109116
 30
0.0
 40
1.000000000000163
100
AcDbArc
 50
101.6762252903993
 51
179.9999999999999
  0
ARC
  5
5940
330
19
100
AcDbEntity
  8
SEIHIN
  6
CONTINUOUS
100
AcDbCircle
 10
1290.326975836387
 20
803.0672382471113
 30
0.0
 40
1.000000000000163
100
AcDbArc
 50
90.00000000000003
 51
168.3237747096005
  0
LINE
  5
5941
330
19
100
AcDbEntity
  8
SEIHIN
  6
CONTINUOUS
100
AcDbLine
 10
1208.065198563987
 20
819.0672382471113
 30
0.0
 11
1145.54402497986
 21
819.0672380795115
 31
0.0
  0
ARC
  5
5942
330
19
100
AcDbEntity
  8
SEIHIN
  6
CONTINUOUS
100
AcDbCircle
 10
1145.544024991987
 20
820.0672382471115
 30
0.0
 40
1.0
100
AcDbArc
 50
175.311942647399
 51
270.0
  0
LINE
  5
5943
330
19
100
AcDbEntity
  8
SEIHIN
  6
CONTINUOUS
100
AcDbLine
 10
1150.408541042386
 20
857.6326283572113
 30
0.0
 11
1151.115787405586
 21
857.3028321323112
 31
0.0
  0
LINE
  5
5944
330
19
100
AcDbEntity
  8
SEIHIN
  6
CONTINUOUS
100
AcDbLine
 10
1136.813921607687
 20
863.9719027030114
 30
0.0
 11
1140.439152755786
 21
862.2814296560113
 31
0.0
  0
LINE
  5
5945
330
19
100
AcDbEntity
  8
SEIHIN
  6
CONTINUOUS
100
AcDbLine
 10
1140.439152755786
 20
862.2814296560113
 30
0.0
 11
1150.408538413187
 21
857.6326287769113
 31
0.0
  0
LINE
  5
5946
330
19
100
AcDbEntity
  8
SEIHIN
  6
CONTINUOUS
100
AcDbLine
 10
1151.115787405586
 20
857.3028321323112
 30
0.0
 11
1151.795854050686
 21
856.9857130704114
 31
0.0
  0
LINE
  5
5947
330
19
100
AcDbEntity
  8
SEIHIN
  6
CONTINUOUS
100
AcDbLine
 10
1151.795854050686
 20
856.9857130704114
 30
0.0
 11
1152.422611791687
 21
856.6934528706111
 31
0.0
  0
LINE
  5
5948
330
19
100
AcDbEntity
  8
SEIHIN
  6
CONTINUOUS
100
AcDbLine
 10
1152.422611791687
 20
856.6934528706111
 30
0.0
 11
1152.971965450786
 21
856.4372832832113
 31
0.0
  0
LINE
  5
5949
330
19
100
AcDbEntity
  8
SEIHIN
  6
CONTINUOUS
100
AcDbLine
 10
1152.971965450786
 20
856.4372832832113
 30
0.0
 11
1153.422807533287
 21
856.2270502505112
 31
0.0
  0
LINE
  5
594A
330
19
100
AcDbEntity
  8
SEIHIN
  6
CONTINUOUS
100
AcDbLine
 10
1153.422807533287
 20
856.2270502505112
 30
0.0
 11
1153.757815439287
 21
856.0708339271112
 31
0.0
  0
LINE
  5
594B
330
19
100
AcDbEntity
  8
SEIHIN
  6
CONTINUOUS
100
AcDbLine
 10
1153.757815439287
 20
856.0708339271112
 30
0.0
 11
1153.964114565387
 21
855.9746394811112
 31
0.0
  0
LINE
  5
594C
330
19
100
AcDbEntity
  8
SEIHIN
  6
CONTINUOUS
100
AcDbLine
 10
1153.964114565387
 20
855.9746394811112
 30
0.0
 11
1154.033770043386
 21
855.9421549497111
 31
0.0
  0
LINE
  5
594D
330
19
100
AcDbEntity
  8
SEIHIN
  6
CONTINUOUS
100
AcDbLine
 10
1256.696087200187
 20
852.6981268833113
 30
0.0
 11
1256.696087032587
 21
915.2193004674378
 31
0.0
  0
LINE
  5
594E
330
19
100
AcDbEntity
  8
SEIHIN
  6
CONTINUOUS
100
AcDbLine
 10
1241.696087200187
 20
852.6981268833113
 30
0.0
 11
1241.696087367787
 21
915.2193004674378
 31
0.0
  0
ARC
  5
594F
330
19
100
AcDbEntity
  8
SEIHIN
  6
CONTINUOUS
100
AcDbCircle
 10
1249.196087200187
 20
811.5672382471109
 30
0.0
 40
61.54495303245837
100
AcDbArc
 50
85.80694641473892
 51
94.19305358535456
  0
ARC
  5
5950
330
19
100
AcDbEntity
  8
SEIHIN
  6
CONTINUOUS
100
AcDbCircle
 10
1249.196087200187
 20
811.5672382471114
 30
0.0
 40
41.00000000000011
100
AcDbArc
 50
101.6762252903886
 51
168.3237747096005
  0
ARC
  5
5951
330
19
100
AcDbEntity
  8
SEIHIN
  6
CONTINUOUS
100
AcDbCircle
 10
1208.065198563987
 20
820.0672382471113
 30
0.0
 40
1.000000000000163
100
AcDbArc
 50
270.0
 51
348.3237747096005
  0
LINE
  5
5952
330
19
100
AcDbEntity
  8
SEIHIN
  6
CONTINUOUS
100
AcDbLine
 10
1209.10353544831
 20
818.7869848343904
 30
0.0
 11
1211.80884472634
 21
815.4295558783513
 31
0.0
  0
LINE
  5
5953
330
19
100
AcDbEntity
  8
SEIHIN
  6
CONTINUOUS
100
AcDbLine
 10
1241.976340612908
 20
851.6597899989884
 30
0.0
 11
1245.333769568947
 21
848.9544807209577
 31
0.0
  0
ARC
  5
5954
330
19
100
AcDbEntity
  8
SEIHIN
  6
CONTINUOUS
100
AcDbCircle
 10
1240.696087200187
 20
852.6981268833113
 30
0.0
 40
1.000000000000163
100
AcDbArc
 50
281.6762252903993
 51
0.0
  0
ARC
  5
5955
330
19
100
AcDbEntity
  8
SEIHIN
  6
CONTINUOUS
100
AcDbCircle
 10
1249.196087200187
 20
811.5672382471114
 30
0.0
 40
40.99999999999984
100
AcDbArc
 50
11.67622529039942
 51
78.32377470961136
  0
ARC
  5
5956
330
19
100
AcDbEntity
  8
SEIHIN
  6
CONTINUOUS
100
AcDbCircle
 10
1257.696087200187
 20
852.6981268833113
 30
0.0
 40
1.000000000000163
100
AcDbArc
 50
180.0
 51
258.3237747096005
  0
LINE
  5
5957
330
19
100
AcDbEntity
  8
SEIHIN
  6
CONTINUOUS
100
AcDbLine
 10
1256.415833787466
 20
851.6597899989884
 30
0.0
 11
1253.058404831427
 21
848.9544807209577
 31
0.0
  0
ARC
  5
5958
330
19
100
AcDbEntity
  8
SEIHIN
  6
CONTINUOUS
100
AcDbCircle
 10
1290.326975836387
 20
820.0672382471113
 30
0.0
 40
1.000000000000163
100
AcDbArc
 50
191.6762252903994
 51
270.0
  0
LINE
  5
5959
330
19
100
AcDbEntity
  8
SEIHIN
  6
CONTINUOUS
100
AcDbLine
 10
1289.288638952064
 20
818.7869848343904
 30
0.0
 11
1286.583329674034
 21
815.4295558783513
 31
0.0
  0
ARC
  5
595A
330
19
100
AcDbEntity
  8
SEIHIN
  6
CONTINUOUS
100
AcDbCircle
 10
1249.196087200187
 20
811.5672382471114
 30
0.0
 40
119.9999999999999
100
AcDbArc
 50
64.99999999999544
 51
115.0000000000045
  0
LINE
  5
595B
330
19
100
AcDbEntity
  8
SEIHIN
  6
CONTINUOUS
100
AcDbLine
 10
1198.481895791287
 20
920.3241726915114
 30
0.0
 11
1196.791422744386
 21
923.9494038397113
 31
0.0
  0
LINE
  5
595C
330
19
100
AcDbEntity
  8
SEIHIN
  6
CONTINUOUS
100
AcDbLine
 10
1203.130696670487
 20
910.3547870341115
 30
0.0
 11
1198.481895791287
 21
920.3241726915114
 31
0.0
  0
LINE
  5
595D
330
19
100
AcDbEntity
  8
SEIHIN
  6
CONTINUOUS
100
AcDbLine
 10
1204.821170497686
 20
906.7295554039111
 30
0.0
 11
1204.788685966287
 21
906.7992108819113
 31
0.0
  0
LINE
  5
595E
330
19
100
AcDbEntity
  8
SEIHIN
  6
CONTINUOUS
100
AcDbLine
 10
1204.788685966287
 20
906.7992108819113
 30
0.0
 11
1204.692491520186
 21
907.0055100081114
 31
0.0
  0
LINE
  5
595F
330
19
100
AcDbEntity
  8
SEIHIN
  6
CONTINUOUS
100
AcDbLine
 10
1204.692491520186
 20
907.0055100081114
 30
0.0
 11
1204.536275196887
 21
907.3405179140115
 31
0.0
  0
LINE
  5
5960
330
19
100
AcDbEntity
  8
SEIHIN
  6
CONTINUOUS
100
AcDbLine
 10
1204.536275196887
 20
907.3405179140115
 30
0.0
 11
1204.326042164186
 21
907.7913599965114
 31
0.0
  0
LINE
  5
5961
330
19
100
AcDbEntity
  8
SEIHIN
  6
CONTINUOUS
100
AcDbLine
 10
1204.326042164186
 20
907.7913599965114
 30
0.0
 11
1204.069872576786
 21
908.3407136557113
 31
0.0
  0
LINE
  5
5962
330
19
100
AcDbEntity
  8
SEIHIN
  6
CONTINUOUS
100
AcDbLine
 10
1204.069872576786
 20
908.3407136557113
 30
0.0
 11
1203.777612376986
 21
908.9674713967111
 31
0.0
  0
LINE
  5
5963
330
19
100
AcDbEntity
  8
SEIHIN
  6
CONTINUOUS
100
AcDbLine
 10
1203.777612376986
 20
908.9674713967111
 30
0.0
 11
1203.460493314987
 21
909.6475380418112
 31
0.0
  0
LINE
  5
5964
330
19
100
AcDbEntity
  8
SEIHIN
  6
CONTINUOUS
100
AcDbLine
 10
1203.460493314987
 20
909.6475380418112
 30
0.0
 11
1203.130697090187
 21
910.3547844050114
 31
0.0
  0
ARC
  5
5965
330
19
100
AcDbEntity
  8
SEIHIN
  6
CONTINUOUS
100
AcDbCircle
 10
1240.696087200187
 20
915.2193004553108
 30
0.0
 40
1.0
100
AcDbArc
 50
0.0
 51
94.68805735260096
  0
ARC
  5
5966
330
19
100
AcDbEntity
  8
SEIHIN
  6
CONTINUOUS
100
AcDbCircle
 10
1257.696087200187
 20
915.2193004553108
 30
0.0
 40
1.0
100
AcDbArc
 50
85.31194264739907
 51
180.0
  0
LINE
  5
5967
330
19
100
AcDbEntity
  8
SEIHIN
  6
CONTINUOUS
100
AcDbLine
 10
1301.600751656087
 20
923.9494038397113
 30
0.0
 11
1299.910278609086
 21
920.3241726915114
 31
0.0
  0
LINE
  5
5968
330
19
100
AcDbEntity
  8
SEIHIN
  6
CONTINUOUS
100
AcDbLine
 10
1299.910278609086
 20
920.3241726915114
 30
0.0
 11
1295.261477729987
 21
910.3547870341115
 31
0.0
  0
LINE
  5
5969
330
19
100
AcDbEntity
  8
SEIHIN
  6
CONTINUOUS
100
AcDbLine
 10
1295.261477310186
 20
910.3547844050114
 30
0.0
 11
1294.931681085386
 21
909.6475380418112
 31
0.0
  0
LINE
  5
596A
330
19
100
AcDbEntity
  8
SEIHIN
  6
CONTINUOUS
100
AcDbLine
 10
1294.931681085386
 20
909.6475380418112
 30
0.0
 11
1294.614562023486
 21
908.9674713967111
 31
0.0
  0
LINE
  5
596B
330
19
100
AcDbEntity
  8
SEIHIN
  6
CONTINUOUS
100
AcDbLine
 10
1294.614562023486
 20
908.9674713967111
 30
0.0
 11
1294.322301823686
 21
908.3407136557113
 31
0.0
  0
LINE
  5
596C
330
19
100
AcDbEntity
  8
SEIHIN
  6
CONTINUOUS
100
AcDbLine
 10
1294.322301823686
 20
908.3407136557113
 30
0.0
 11
1294.066132236286
 21
907.7913599965114
 31
0.0
  0
LINE
  5
596D
330
19
100
AcDbEntity
  8
SEIHIN
  6
CONTINUOUS
100
AcDbLine
 10
1294.066132236286
 20
907.7913599965114
 30
0.0
 11
1293.855899203586
 21
907.3405179140115
 31
0.0
  0
LINE
  5
596E
330
19
100
AcDbEntity
  8
SEIHIN
  6
CONTINUOUS
100
AcDbLine
 10
1293.855899203586
 20
907.3405179140115
 30
0.0
 11
1293.699682880186
 21
907.0055100081114
 31
0.0
  0
LINE
  5
596F
330
19
100
AcDbEntity
  8
SEIHIN
  6
CONTINUOUS
100
AcDbLine
 10
1293.699682880186
 20
907.0055100081114
 30
0.0
 11
1293.603488434086
 21
906.7992108819113
 31
0.0
  0
LINE
  5
5970
330
19
100
AcDbEntity
  8
SEIHIN
  6
CONTINUOUS
100
AcDbLine
 10
1293.603488434086
 20
906.7992108819113
 30
0.0
 11
1293.571003902686
 21
906.7295554039111
 31
0.0
  0
ARC
  5
5971
330
19
100
AcDbEntity
  8
SEIHIN
  6
CONTINUOUS
100
AcDbCircle
 10
1249.196087200187
 20
811.5672382471114
 30
0.0
 40
120.0000000000001
100
AcDbArc
 50
334.9999999999892
 51
25.00000000001076
  0
LINE
  5
5972
330
19
100
AcDbEntity
  8
SEIHIN
  6
CONTINUOUS
100
AcDbLine
 10
1357.953021644586
 20
760.8530468383114
 30
0.0
 11
1347.983635987187
 21
765.5018477174114
 31
0.0
  0
LINE
  5
5973
330
19
100
AcDbEntity
  8
SEIHIN
  6
CONTINUOUS
100
AcDbLine
 10
1361.578252792787
 20
759.1625737913114
 30
0.0
 11
1357.953021644586
 21
760.8530468383114
 31
0.0
  0
LINE
  5
5974
330
19
100
AcDbEntity
  8
SEIHIN
  6
CONTINUOUS
100
AcDbLine
 10
1347.983633358087
 20
765.5018481371113
 30
0.0
 11
1347.276386994886
 21
765.8316443620111
 31
0.0
  0
LINE
  5
5975
330
19
100
AcDbEntity
  8
SEIHIN
  6
CONTINUOUS
100
AcDbLine
 10
1347.276386994886
 20
765.8316443620111
 30
0.0
 11
1346.596320349787
 21
766.1487634239112
 31
0.0
  0
LINE
  5
5976
330
19
100
AcDbEntity
  8
SEIHIN
  6
CONTINUOUS
100
AcDbLine
 10
1346.596320349787
 20
766.1487634239112
 30
0.0
 11
1345.969562608787
 21
766.4410236237114
 31
0.0
  0
LINE
  5
5977
330
19
100
AcDbEntity
  8
SEIHIN
  6
CONTINUOUS
100
AcDbLine
 10
1345.969562608787
 20
766.4410236237114
 30
0.0
 11
1345.420208949587
 21
766.6971932111112
 31
0.0
  0
LINE
  5
5978
330
19
100
AcDbEntity
  8
SEIHIN
  6
CONTINUOUS
100
AcDbLine
 10
1345.420208949587
 20
766.6971932111112
 30
0.0
 11
1344.969366867086
 21
766.9074262438113
 31
0.0
  0
LINE
  5
5979
330
19
100
AcDbEntity
  8
SEIHIN
  6
CONTINUOUS
100
AcDbLine
 10
1344.969366867086
 20
766.9074262438113
 30
0.0
 11
1344.634358961186
 21
767.0636425671112
 31
0.0
  0
LINE
  5
597A
330
19
100
AcDbEntity
  8
SEIHIN
  6
CONTINUOUS
100
AcDbLine
 10
1344.634358961186
 20
767.0636425671112
 30
0.0
 11
1344.428059834987
 21
767.1598370132113
 31
0.0
  0
LINE
  5
597B
330
19
100
AcDbEntity
  8
SEIHIN
  6
CONTINUOUS
100
AcDbLine
 10
1344.428059834987
 20
767.1598370132113
 30
0.0
 11
1344.358404356986
 21
767.1923215446112
 31
0.0
  0
ARC
  5
597C
330
19
100
AcDbEntity
  8
SEIHIN
  6
CONTINUOUS
100
AcDbCircle
 10
1352.848149408386
 20
803.0672382471113
 30
0.0
 40
1.0
100
AcDbArc
 50
355.311942647399
 51
90.00000000000003
  0
ARC
  5
597D
330
19
100
AcDbEntity
  8
SEIHIN
  6
CONTINUOUS
100
AcDbCircle
 10
1352.848149408386
 20
820.0672382471113
 30
0.0
 40
1.0
100
AcDbArc
 50
270.0
 51
4.68805735260098
  0
LINE
  5
597E
330
19
100
AcDbEntity
  8
SEIHIN
  6
CONTINUOUS
100
AcDbLine
 10
1347.276386994886
 20
857.3028321323112
 30
0.0
 11
1347.983633358087
 21
857.6326283572113
 31
0.0
  0
LINE
  5
597F
330
19
100
AcDbEntity
  8
SEIHIN
  6
CONTINUOUS
100
AcDbLine
 10
1344.358404356986
 20
855.9421549497111
 30
0.0
 11
1344.428059834987
 21
855.9746394811112
 31
0.0
  0
LINE
  5
5980
330
19
100
AcDbEntity
  8
SEIHIN
  6
CONTINUOUS
100
AcDbLine
 10
1344.428059834987
 20
855.9746394811112
 30
0.0
 11
1344.634358961186
 21
856.0708339271112
 31
0.0
  0
LINE
  5
5981
330
19
100
AcDbEntity
  8
SEIHIN
  6
CONTINUOUS
100
AcDbLine
 10
1344.634358961186
 20
856.0708339271112
 30
0.0
 11
1344.969366867086
 21
856.2270502505112
 31
0.0
  0
LINE
  5
5982
330
19
100
AcDbEntity
  8
SEIHIN
  6
CONTINUOUS
100
AcDbLine
 10
1344.969366867086
 20
856.2270502505112
 30
0.0
 11
1345.420208949587
 21
856.4372832832113
 31
0.0
  0
LINE
  5
5983
330
19
100
AcDbEntity
  8
SEIHIN
  6
CONTINUOUS
100
AcDbLine
 10
1345.420208949587
 20
856.4372832832113
 30
0.0
 11
1345.969562608787
 21
856.6934528706111
 31
0.0
  0
LINE
  5
5984
330
19
100
AcDbEntity
  8
SEIHIN
  6
CONTINUOUS
100
AcDbLine
 10
1345.969562608787
 20
856.6934528706111
 30
0.0
 11
1346.596320349787
 21
856.9857130704114
 31
0.0
  0
LINE
  5
5985
330
19
100
AcDbEntity
  8
SEIHIN
  6
CONTINUOUS
100
AcDbLine
 10
1346.596320349787
 20
856.9857130704114
 30
0.0
 11
1347.276386994886
 21
857.3028321323112
 31
0.0
  0
LINE
  5
5986
330
19
100
AcDbEntity
  8
SEIHIN
  6
CONTINUOUS
100
AcDbLine
 10
1357.953021644586
 20
862.2814296560113
 30
0.0
 11
1361.578252792787
 21
863.9719027030114
 31
0.0
  0
LINE
  5
5987
330
19
100
AcDbEntity
  8
SEIHIN
  6
CONTINUOUS
100
AcDbLine
 10
1347.983635987187
 20
857.6326287769113
 30
0.0
 11
1357.953021644586
 21
862.2814296560113
 31
0.0
  0
ARC
  5
598A
330
19
100
AcDbEntity
  8
SEIHIN
  6
CONTINUOUS
100
AcDbCircle
 10
1249.196087200187
 20
811.5672382471114
 30
0.0
 40
89.33509063078872
100
AcDbArc
 50
4.81585381539078
 51
4.9999361081767
  0
ARC
  5
598B
330
19
100
AcDbEntity
  8
SEIHIN
  6
CONTINUOUS
100
AcDbCircle
 10
1249.196087200187
 20
811.5672382471114
 30
0.0
 40
89.33491808481425
100
AcDbArc
 50
94.81586313894162
 51
125.0000367868528
  0
ARC
  5
598C
330
19
100
AcDbEntity
  8
SEIHIN
  6
CONTINUOUS
100
AcDbCircle
 10
1249.196087200187
 20
811.5672382471114
 30
0.0
 40
91.50000000005466
100
AcDbArc
 50
94.70165011242881
 51
175.2983495803873
  0
ARC
  5
598D
330
19
100
AcDbEntity
  8
SEIHIN
  6
CONTINUOUS
100
AcDbCircle
 10
1249.196087200187
 20
811.5672382471114
 30
0.0
 40
89.3349912844811
100
AcDbArc
 50
184.8158594907648
 51
245.0000271049713
  0
ARC
  5
598E
330
19
100
AcDbEntity
  8
SEIHIN
  6
CONTINUOUS
100
AcDbCircle
 10
1249.196087200187
 20
811.5672382471114
 30
0.0
 40
91.50000000005466
100
AcDbArc
 50
184.7016504196125
 51
265.2983495803867
  0
ARC
  5
598F
330
19
100
AcDbEntity
  8
SEIHIN
  6
CONTINUOUS
100
AcDbCircle
 10
1249.196087200187
 20
811.5672382471114
 30
0.0
 40
91.50000000005466
100
AcDbArc
 50
274.7016504196125
 51
355.2983498875716
  0
TEXT
  5
5991
330
19
100
AcDbEntity
  8
MOJI
100
AcDbText
 10
323.3002452926848
 20
222.9523942879543
 30
0.0
 40
11.19999999999999
  1
本　　体
 41
0.9
  7
ｽﾀｲﾙ1
100
AcDbText
  0
TEXT
  5
5992
330
19
100
AcDbEntity
  8
MOJI
100
AcDbText
 10
770.6643436454083
 20
222.9523942879543
 30
0.0
 40
11.19999999999999
  1
キャップ
 41
0.9
  7
ｽﾀｲﾙ1
100
AcDbText
  0
LINE
  5
5B4F
330
19
100
AcDbEntity
  8
SEIHIN
  6
CONTINUOUS
100
AcDbLine
 10
828.9553224226729
 20
491.3516023388741
 30
0.0
 11
828.9553224226731
 21
489.0624488475602
 31
0.0
  0
LINE
  5
5B51
330
19
100
AcDbEntity
  8
SEIHIN
  6
CONTINUOUS
100
AcDbLine
 10
832.9553224226728
 20
490.0624488475602
 30
0.0
 11
832.9553224226728
 21
489.0624488475601
 31
0.0
  0
ARC
  5
5B52
330
19
100
AcDbEntity
  8
SEIHIN
  6
CONTINUOUS
100
AcDbCircle
 10
830.955322422673
 20
489.0624488475602
 30
0.0
 40
2.0
100
AcDbArc
 50
180.0
 51
269.9999999999998
  0
ARC
  5
5B53
330
19
100
AcDbEntity
  8
SEIHIN
  6
CONTINUOUS
100
AcDbCircle
 10
830.9553224226728
 20
489.0624488475601
 30
0.0
 40
2.0
100
AcDbArc
 50
270.0
 51
0.0
  0
ARC
  5
5B54
330
19
100
AcDbEntity
  8
SEIHIN
  6
CONTINUOUS
100
AcDbCircle
 10
834.9553224226729
 20
490.0624488475601
 30
0.0
 40
2.0
100
AcDbArc
 50
89.99999999999994
 51
179.9999999999971
  0
LINE
  5
5B55
330
19
100
AcDbEntity
  8
SEIHIN
  6
CONTINUOUS
100
AcDbLine
 10
795.4672271846402
 20
487.0624488475601
 30
0.0
 11
860.7651037059548
 21
487.0624478343168
 31
0.0
  0
ARC
  5
5B5A
330
19
100
AcDbEntity
  8
SEIHIN
  6
CONTINUOUS
100
AcDbCircle
 10
837.9488722246151
 20
490.0624488475601
 30
0.0
 40
2.0
100
AcDbArc
 50
0.0000000000028568
 51
90.00000000000005
  0
LINE
  5
5B5B
330
19
100
AcDbEntity
  8
SEIHIN
  6
CONTINUOUS
100
AcDbLine
 10
839.948872224615
 20
490.0624488475602
 30
0.0
 11
839.9488722246152
 21
489.0624488475601
 31
0.0
  0
ARC
  5
5B5C
330
19
100
AcDbEntity
  8
SEIHIN
  6
CONTINUOUS
100
AcDbCircle
 10
841.9488722246152
 20
489.0624488475601
 30
0.0
 40
2.0
100
AcDbArc
 50
180.0
 51
270.0
  0
ARC
  5
5B5D
330
19
100
AcDbEntity
  8
SEIHIN
  6
CONTINUOUS
100
AcDbCircle
 10
841.948872224615
 20
489.0624488475602
 30
0.0
 40
2.0
100
AcDbArc
 50
270.0000000000001
 51
0.000000000000007
  0
LINE
  5
5B5E
330
19
100
AcDbEntity
  8
SEIHIN
  6
CONTINUOUS
100
AcDbLine
 10
834.9553224226729
 20
492.0624488475602
 30
0.0
 11
837.9488722246151
 21
492.0624488475602
 31
0.0
  0
INSERT
  5
5C10
330
19
100
AcDbEntity
  8
SUNPOU
  6
CONTINUOUS
100
AcDbBlockReference
  2
*X20
 10
0.0
 20
0.0
 30
0.0
1001
ACAD
1000
HATCH
1002
{
1070
    19
1000
_USER
1040
2.0
1040
2.356194490192344
1000
R14_HATCH_DATA
1000
5C10
1011
1.0
1021
0.0
1031
0.0
1011
0.0
1021
1.0
1031
0.0
1011
0.0
1021
0.0
1031
1.0
1040
0.0
1010
0.0
1020
0.0
1030
1.0
1000
_USER
1070
     0
1070
     0
1071
        1
1071
       33
1071
       15
1070
     2
1040
840.9553224226343
1040
492.0624488475602
1040
3.0
1040
0.0
1040
1.570796326794896
1070
     1
1070
     1
1040
843.9553224226342
1040
492.0624488475602
1040
843.9488722246151
1040
489.0624488475601
1070
     2
1040
837.9488722246151
1040
490.06244884756
1040
2.0
1040
0.0000000000000499
1040
1.570796326794897
1070
     1
1070
     1
1040
839.948872224615
1040
490.0624488475602
1040
839.948872224615
1040
489.0624488475601
1070
     2
1040
841.9488722246152
1040
489.0624488475601
1040
2.0
1040
3.141592653589793
1040
4.712388980384689
1070
     1
1070
     2
1040
841.9488722246152
1040
489.0624488475601
1040
2.0
1040
4.712388980384691
1040
6.283185307179586
1070
     1
1070
     2
1040
831.9553224226728
1040
492.0624488475602
1040
3.0
1040
1.570796326794896
1040
3.141592653589793
1070
     1
1070
     1
1040
828.9553224226729
1040
492.0624488475602
1040
828.9553224226729
1040
490.06244884756
1070
     1
1040
828.9553224226729
1040
491.351602338874
1040
828.9553224226729
1040
489.0624488475601
1070
     1
1040
832.9553224226728
1040
490.0624488475602
1040
832.9553224226728
1040
489.0624488475601
1070
     2
1040
830.9553224226728
1040
489.0624488475601
1040
2.0
1040
3.141592653589793
1040
4.712388980384687
1070
     1
1070
     2
1040
830.9553224226728
1040
489.0624488475601
1040
2.0
1040
4.712388980384689
1040
6.283185307179586
1070
     1
1070
     2
1040
834.9553224226729
1040
490.06244884756
1040
2.0
1040
1.570796326794895
1040
3.141592653589743
1070
     1
1070
     1
1040
834.9553224226729
1040
492.0624488475601
1040
837.9488722246151
1040
492.0624488475601
1070
     1
1040
831.9553224226728
1040
495.06244884756
1040
840.9553224226343
1040
495.06244884756
1071
        0
1070
     0
1070
     0
1040
2.356194490192344
1040
2.0
1070
     0
1070
     1
1040
2.356194490192344
1040
-1053.081190210457
1040
27.99999999999994
1040
-1.414213562373095
1040
-1.414213562373094
1070
     0
1071
        1
1040
-1053.081190210457
1040
27.99999999999994
1040
0.0
1002
}
  0
INSERT
  5
5C11
330
19
100
AcDbEntity
  8
SUNPOU
  6
CONTINUOUS
100
AcDbBlockReference
  2
*X21
 10
0.0
 20
0.0
 30
0.0
1001
ACAD
1000
HATCH
1002
{
1070
    19
1000
_USER
1040
2.0
1040
2.356194490192344
1000
R14_HATCH_DATA
1000
5C11
1011
1.0
1021
0.0
1031
0.0
1011
0.0
1021
1.0
1031
0.0
1011
0.0
1021
0.0
1031
1.0
1040
0.0
1010
0.0
1020
0.0
1030
1.0
1000
_USER
1070
     0
1070
     0
1071
        3
1071
       16
1071
        2
1070
     1
1040
908.7904224227404
1040
391.8121422896739
1040
908.7904224227404
1040
392.813342289674
1070
     1
1040
908.7904224227404
1040
392.813342289674
1040
908.7904224227404
1040
391.8121422896739
1071
        0
1071
       16
1071
        2
1070
     1
1040
908.7904224227404
1040
411.811542289674
1040
908.7904224227404
1040
412.8127422896741
1070
     1
1040
908.7904224227404
1040
412.8127422896737
1040
908.7904224227404
1040
411.8115422896735
1071
        0
1071
       33
1071
       46
1070
     1
1040
926.9553224227403
1040
422.0624488475601
1040
926.9553224227403
1040
424.0624488475601
1070
     1
1040
926.9553224227403
1040
424.0624488475601
1040
922.9553224227402
1040
425.0624488475601
1070
     1
1040
910.9553224227402
1040
418.0625422896738
1040
908.7904224227404
1040
416.8125422896737
1070
     1
1040
908.7904224227404
1040
415.8114422896738
1040
910.9553224227402
1040
414.5614422896738
1070
     1
1040
910.0874498014382
1040
419.0624466254995
1040
910.9553224227402
1040
418.561342289674
1070
     1
1040
908.7904224227404
1040
415.8114422896738
1040
908.7904224227404
1040
416.8125422896737
1070
     1
1040
908.7904224227404
1040
415.8120422896741
1040
908.7904224227404
1040
416.8132422896738
1070
     1
1040
908.7904223593723
1040
419.0624467076895
1040
908.7904224227404
1040
420.0624489742963
1070
     1
1040
910.9553224227402
1040
418.561342289674
1040
910.9553224227402
1040
418.0625422896738
1070
     1
1040
910.9553224227402
1040
414.5614422896738
1040
910.9553224227402
1040
414.0626422896739
1070
     2
1040
910.7904224227404
1040
420.0624488475601
1040
2.000000000000003
1040
1.570796326794896
1040
3.141592590221659
1070
     1
1070
     1
1040
910.0874498014382
1040
419.0624466254995
1040
908.7904223593723
1040
419.0624467076897
1070
     2
1040
909.9554648657935
1040
422.06244884756
1040
3.0
1040
1.570796326794896
1040
3.141590380862522
1070
     1
1070
     1
1040
922.9553224227402
1040
425.0624488475601
1040
909.9554648657935
1040
425.0624488475601
1070
     1
1040
926.9553224227403
1040
422.0624488475601
1040
910.7904224227404
1040
422.0624488475601
1070
     1
1040
908.7904224227404
1040
411.8115422896735
1040
910.9553224227402
1040
410.5616422896737
1070
     1
1040
910.9553224227402
1040
402.0630422896738
1040
908.7904224227404
1040
400.8130422896739
1070
     1
1040
908.7904224227404
1040
403.8118422896737
1040
910.9553224227402
1040
402.5618422896737
1070
     1
1040
910.9553224227402
1040
406.0629422896741
1040
908.7904224227404
1040
404.8129422896741
1070
     1
1040
908.7904224227404
1040
407.8117422896739
1040
910.9553224227402
1040
406.561742289674
1070
     1
1040
910.9553224227402
1040
410.0627422896737
1040
908.7904224227404
1040
408.8128422896739
1070
     1
1040
908.7904224227404
1040
403.810642289674
1040
908.7904224227404
1040
404.811742289674
1070
     1
1040
908.7904224227404
1040
399.8101422896739
1040
908.7904224227404
1040
400.8112422896738
1070
     1
1040
908.7904224227404
1040
399.8119422896739
1040
908.7904224227404
1040
400.8130422896739
1070
     1
1040
908.7904224227404
1040
407.8117422896739
1040
908.7904224227404
1040
408.8128422896739
1070
     1
1040
908.7904224227404
1040
407.8111422896741
1040
908.7904224227404
1040
408.812242289674
1070
     1
1040
908.7904224227404
1040
403.8118422896737
1040
908.7904224227404
1040
404.8129422896741
1070
     1
1040
910.9553224227402
1040
402.5618422896737
1040
910.9553224227402
1040
402.0630422896738
1070
     1
1040
910.9553224227402
1040
406.561742289674
1040
910.9553224227402
1040
406.0629422896741
1070
     1
1040
908.7904224227404
1040
391.8121422896739
1040
910.9553224227402
1040
390.5622422896736
1070
     1
1040
910.9553224227402
1040
398.0631422896736
1040
908.7904224227404
1040
396.8132422896738
1070
     1
1040
908.7904224227404
1040
395.8120422896736
1040
910.9553224227402
1040
394.5621422896739
1070
     1
1040
910.9553224227402
1040
394.0632422896738
1040
908.7904224227404
1040
392.813342289674
1070
     1
1040
908.7904224227404
1040
395.8120422896736
1040
908.7904224227404
1040
396.8132422896738
1070
     1
1040
908.7904224227404
1040
395.8096422896738
1040
908.7904224227404
1040
396.8107422896737
1070
     1
1040
910.9553224227402
1040
390.5622422896736
1040
910.9553224227402
1040
390.063342289674
1070
     1
1040
910.9553224227402
1040
394.5621422896739
1040
910.9553224227402
1040
394.0632422896738
1070
     1
1040
910.9553224227402
1040
398.5619422896739
1040
910.9553224227402
1040
398.0631422896736
1070
     1
1040
908.7904224227404
1040
399.8119422896739
1040
910.9553224227402
1040
398.5619422896739
1070
     1
1040
910.9553224227402
1040
410.5616422896737
1040
910.9553224227402
1040
410.0627422896737
1070
     1
1040
910.9553224227402
1040
390.063342289674
1040
908.7904224227404
1040
390.063342289674
1070
     1
1040
910.9553224227402
1040
414.0626422896739
1040
908.7904224227404
1040
412.8127422896737
1070
     1
1040
908.7904224227404
1040
387.0624488475601
1040
908.7904224227404
1040
390.0633335389294
1070
     1
1040
908.7904224227404
1040
387.0624488475601
1040
908.7904224227404
1040
390.0624488475983
1070
     1
1040
906.9553853203315
1040
387.0624488475602
1040
906.9554648658012
1040
422.0624556657418
1070
     1
1040
908.7904224227404
1040
387.0624488475601
1040
906.9553853203316
1040
387.0624488475602
1071
        0
1070
     0
1070
     0
1040
2.356194490192344
1040
2.0
1070
     0
1070
     1
1040
2.356194490192344
1040
-1053.081190210457
1040
27.99999999999994
1040
-1.414213562373095
1040
-1.414213562373094
1070
     0
1071
        1
1040
-1053.081190210457
1040
27.99999999999994
1040
0.0
1002
}
  0
VIEWPORT
  5
22
330
16
100
AcDbEntity
 67
     1
  8
0
100
AcDbViewport
 10
313.6808219178082
 20
148.5
 30
0.0
 40
627.3616438356165
 41
297.0
 68
     2
 69
     1
1001
ACAD
1000
MVIEW
1002
{
1070
    16
1010
0.0
1020
0.0
1030
0.0
1010
0.0
1020
0.0
1030
1.0
1040
0.0
1040
297.0
1040
313.6808219178082
1040
148.5
1040
50.0
1040
0.0
1040
0.0
1070
     0
1070
   100
1070
     1
1070
     0
1070
     0
1070
     0
1070
     0
1070
     0
1040
0.0
1040
0.0
1040
0.0
1040
10.0
1040
10.0
1040
10.0
1040
10.0
1070
     0
1002
{
1002
}
1002
}
  0
VIEWPORT
  5
25
330
16
100
AcDbEntity
 67
     1
  8
VIEWPORT
100
AcDbViewport
 10
210.0
 20
148.5
 30
0.0
 40
420.0
 41
297.0
 68
     1
 69
     2
1001
ACAD
1000
MVIEW
1002
{
1070
    16
1010
0.0
1020
0.0
1030
0.0
1010
0.0
1020
0.0
1030
1.0
1040
0.0
1040
1212.607689320388
1040
841.0
1040
594.0
1040
50.0
1040
0.0
1040
0.0
1070
     0
1070
   100
1070
     1
1070
     0
1070
     0
1070
     0
1070
     0
1070
     0
1040
0.0
1040
0.0
1040
0.0
1040
57.0
1040
57.0
1040
57.0
1040
57.0
1070
     0
1002
{
1002
}
1002
}
  0
ENDSEC
  0
SECTION
  2
OBJECTS
  0
DICTIONARY
  5
C
330
0
100
AcDbDictionary
  3
ACAD_GROUP
350
D
  3
ACAD_LAYOUT
350
11DA
  3
ACAD_MLINESTYLE
350
E
  3
ACAD_PLOTSETTINGS
350
11DB
  3
DWGPROPS
350
5A6E
1001
ACAD
1000
TREAT_AS_HARD
1070
     0
  0
DICTIONARY
  5
13D5
330
19
100
AcDbDictionary
  3
ACAD_LAYOUTSELFREF
350
5D02
1001
ACAD
1000
TREAT_AS_HARD
1070
     1
  0
DICTIONARY
  5
13D3
330
16
100
AcDbDictionary
  3
ACAD_LAYOUTSELFREF
350
5D01
1001
ACAD
1000
TREAT_AS_HARD
1070
     1
  0
DICTIONARY
  5
D
102
{ACAD_REACTORS
330
C
102
}
330
C
100
AcDbDictionary
1001
ACAD
1000
TREAT_AS_HARD
1070
     0
  0
DICTIONARY
  5
11DA
102
{ACAD_REACTORS
330
C
102
}
330
C
100
AcDbDictionary
1001
ACAD
1000
TREAT_AS_HARD
1070
     0
  0
DICTIONARY
  5
E
102
{ACAD_REACTORS
330
C
102
}
330
C
100
AcDbDictionary
  3
STANDARD
350
1C
1001
ACAD
1000
TREAT_AS_HARD
1070
     0
  0
DICTIONARY
  5
11DB
102
{ACAD_REACTORS
330
C
102
}
330
C
100
AcDbDictionary
1001
ACAD
1000
TREAT_AS_HARD
1070
     0
  0
XRECORD
  5
5A6E
102
{ACAD_REACTORS
330
C
102
}
330
C
100
AcDbXrecord
  1
DWGPROPS COOKIE
  2

  3

  4

  6

  7

  8

  9

300
=
301
=
302
=
303
=
304
=
305
=
306
=
307
=
308
=
309
=
 40
0.1978671643518519
 41
2451019.669682407
 42
2454841.499395185
  1

 90
        0
  0
XRECORD
  5
5D02
102
{ACAD_REACTORS
330
13D5
102
}
330
13D5
100
AcDbXrecord
340
19
  0
XRECORD
  5
5D01
102
{ACAD_REACTORS
330
13D3
102
}
330
13D3
100
AcDbXrecord
340
16
  0
MLINESTYLE
  5
1C
102
{ACAD_REACTORS
330
E
102
}
330
E
100
AcDbMlineStyle
  2
STANDARD
 70
     0
  3

 62
     0
 51
90.0
 52
90.0
 71
     2
 49
0.5
 62
   256
  6
BYLAYER
 49
-0.5
 62
   256
  6
BYLAYER
  0
ENDSEC
  0
EOF
