  0
SECTION
  2
HEADER
  9
$ACADVER
  1
AC1015
  9
$ACADMAINTVER
 70
    20
  9
$DWGCODEPAGE
  3
ANSI_932
  9
$INSBASE
 10
0.0
 20
0.0
 30
0.0
  9
$EXTMIN
 10
0.0
 20
0.0
 30
0.0
  9
$EXTMAX
 10
398.8000000000001
 20
275.8000000000001
 30
0.0
  9
$LIMMIN
 10
0.0
 20
0.0
  9
$LIMMAX
 10
420.0
 20
297.0
  9
$ORTHOMODE
 70
     0
  9
$REGENMODE
 70
     1
  9
$FILLMODE
 70
     1
  9
$QTEXTMODE
 70
     0
  9
$MIRRTEXT
 70
     1
  9
$LTSCALE
 40
1.0
  9
$ATTMODE
 70
     1
  9
$TEXTSIZE
 40
2.5
  9
$TRACEWID
 40
1.0
  9
$TEXTSTYLE
  7
STANDARD
  9
$CLAYER
  8
0
  9
$CELTYPE
  6
BYLAYER
  9
$CECOLOR
 62
   256
  9
$CELTSCALE
 40
1.0
  9
$DISPSILH
 70
     0
  9
$DIMSCALE
 40
1.0
  9
$DIMASZ
 40
3.0
  9
$DIMEXO
 40
3.0
  9
$DIMDLI
 40
7.0
  9
$DIMRND
 40
0.0
  9
$DIMDLE
 40
0.0
  9
$DIMEXE
 40
1.5
  9
$DIMTP
 40
0.0
  9
$DIMTM
 40
0.0
  9
$DIMTXT
 40
3.0
  9
$DIMCEN
 40
150.0
  9
$DIMTSZ
 40
0.0
  9
$DIMTOL
 70
     0
  9
$DIMLIM
 70
     0
  9
$DIMTIH
 70
     0
  9
$DIMTOH
 70
     0
  9
$DIMSE1
 70
     0
  9
$DIMSE2
 70
     0
  9
$DIMTAD
 70
     3
  9
$DIMZIN
 70
     0
  9
$DIMBLK
  1

  9
$DIMASO
 70
     1
  9
$DIMSHO
 70
     1
  9
$DIMPOST
  1

  9
$DIMAPOST
  1

  9
$DIMALT
 70
     0
  9
$DIMALTD
 70
     2
  9
$DIMALTF
 40
25.4
  9
$DIMLFAC
 40
1.0
  9
$DIMTOFL
 70
     1
  9
$DIMTVP
 40
0.0
  9
$DIMTIX
 70
     0
  9
$DIMSOXD
 70
     0
  9
$DIMSAH
 70
     1
  9
$DIMBLK1
  1
OPEN
  9
$DIMBLK2
  1
OPEN
  9
$DIMSTYLE
  2
STANDARD
  9
$DIMCLRD
 70
   256
  9
$DIMCLRE
 70
   256
  9
$DIMCLRT
 70
   256
  9
$DIMTFAC
 40
1.0
  9
$DIMGAP
 40
1.0
  9
$DIMJUST
 70
     0
  9
$DIMSD1
 70
     0
  9
$DIMSD2
 70
     0
  9
$DIMTOLJ
 70
     1
  9
$DIMTZIN
 70
     0
  9
$DIMALTZ
 70
     0
  9
$DIMALTTZ
 70
     0
  9
$DIMUPT
 70
     0
  9
$DIMDEC
 70
     0
  9
$DIMTDEC
 70
     0
  9
$DIMALTU
 70
     2
  9
$DIMALTTD
 70
     2
  9
$DIMTXSTY
  7
STANDARD
  9
$DIMAUNIT
 70
     0
  9
$DIMADEC
 70
     0
  9
$DIMALTRND
 40
0.0
  9
$DIMAZIN
 70
     0
  9
$DIMDSEP
 70
    46
  9
$DIMATFIT
 70
     3
  9
$DIMFRAC
 70
     0
  9
$DIMLDRBLK
  1
OPEN
  9
$DIMLUNIT
 70
     2
  9
$DIMLWD
 70
    -1
  9
$DIMLWE
 70
    -1
  9
$DIMTMOVE
 70
     0
  9
$LUNITS
 70
     2
  9
$LUPREC
 70
     4
  9
$SKETCHINC
 40
1.0
  9
$FILLETRAD
 40
10.0
  9
$AUNITS
 70
     0
  9
$AUPREC
 70
     0
  9
$MENU
  1
.
  9
$ELEVATION
 40
0.0
  9
$PELEVATION
 40
0.0
  9
$THICKNESS
 40
0.0
  9
$LIMCHECK
 70
     0
  9
$CHAMFERA
 40
10.0
  9
$CHAMFERB
 40
10.0
  9
$CHAMFERC
 40
20.0
  9
$CHAMFERD
 40
0.0
  9
$SKPOLY
 70
     0
  9
$TDCREATE
 40
2451187.461052778
  9
$TDUCREATE
 40
2451187.086052778
  9
$TDUPDATE
 40
2456423.570254225
  9
$TDUUPDATE
 40
2456423.195254224
  9
$TDINDWG
 40
0.0087878009
  9
$TDUSRTIMER
 40
0.0087878009
  9
$USRTIMER
 70
     1
  9
$ANGBASE
 50
0.0
  9
$ANGDIR
 70
     0
  9
$PDMODE
 70
     0
  9
$PDSIZE
 40
0.0
  9
$PLINEWID
 40
0.0
  9
$SPLFRAME
 70
     0
  9
$SPLINETYPE
 70
     6
  9
$SPLINESEGS
 70
     8
  9
$HANDSEED
  5
942
  9
$SURFTAB1
 70
     6
  9
$SURFTAB2
 70
     6
  9
$SURFTYPE
 70
     6
  9
$SURFU
 70
     6
  9
$SURFV
 70
     6
  9
$UCSBASE
  2

  9
$UCSNAME
  2

  9
$UCSORG
 10
0.0
 20
0.0
 30
0.0
  9
$UCSXDIR
 10
1.0
 20
0.0
 30
0.0
  9
$UCSYDIR
 10
0.0
 20
1.0
 30
0.0
  9
$UCSORTHOREF
  2

  9
$UCSORTHOVIEW
 70
     0
  9
$UCSORGTOP
 10
0.0
 20
0.0
 30
0.0
  9
$UCSORGBOTTOM
 10
0.0
 20
0.0
 30
0.0
  9
$UCSORGLEFT
 10
0.0
 20
0.0
 30
0.0
  9
$UCSORGRIGHT
 10
0.0
 20
0.0
 30
0.0
  9
$UCSORGFRONT
 10
0.0
 20
0.0
 30
0.0
  9
$UCSORGBACK
 10
0.0
 20
0.0
 30
0.0
  9
$PUCSBASE
  2

  9
$PUCSNAME
  2

  9
$PUCSORG
 10
0.0
 20
0.0
 30
0.0
  9
$PUCSXDIR
 10
1.0
 20
0.0
 30
0.0
  9
$PUCSYDIR
 10
0.0
 20
1.0
 30
0.0
  9
$PUCSORTHOREF
  2

  9
$PUCSORTHOVIEW
 70
     0
  9
$PUCSORGTOP
 10
0.0
 20
0.0
 30
0.0
  9
$PUCSORGBOTTOM
 10
0.0
 20
0.0
 30
0.0
  9
$PUCSORGLEFT
 10
0.0
 20
0.0
 30
0.0
  9
$PUCSORGRIGHT
 10
0.0
 20
0.0
 30
0.0
  9
$PUCSORGFRONT
 10
0.0
 20
0.0
 30
0.0
  9
$PUCSORGBACK
 10
0.0
 20
0.0
 30
0.0
  9
$USERI1
 70
     0
  9
$USERI2
 70
     0
  9
$USERI3
 70
     0
  9
$USERI4
 70
     0
  9
$USERI5
 70
     0
  9
$USERR1
 40
0.0
  9
$USERR2
 40
0.0
  9
$USERR3
 40
0.0
  9
$USERR4
 40
0.0
  9
$USERR5
 40
0.0
  9
$WORLDVIEW
 70
     1
  9
$SHADEDGE
 70
     3
  9
$SHADEDIF
 70
    70
  9
$TILEMODE
 70
     1
  9
$MAXACTVP
 70
    16
  9
$PINSBASE
 10
0.0
 20
0.0
 30
0.0
  9
$PLIMCHECK
 70
     0
  9
$PEXTMIN
 10
0.0
 20
0.0
 30
0.0
  9
$PEXTMAX
 10
420.0
 20
297.0
 30
0.0
  9
$PLIMMIN
 10
0.0
 20
0.0
  9
$PLIMMAX
 10
420.0
 20
297.0
  9
$UNITMODE
 70
     0
  9
$VISRETAIN
 70
     0
  9
$PLINEGEN
 70
     0
  9
$PSLTSCALE
 70
     1
  9
$TREEDEPTH
 70
  3020
  9
$CMLSTYLE
  2
STANDARD
  9
$CMLJUST
 70
     0
  9
$CMLSCALE
 40
1.0
  9
$PROXYGRAPHICS
 70
     1
  9
$MEASUREMENT
 70
     1
  9
$CELWEIGHT
370
    -1
  9
$ENDCAPS
280
     0
  9
$JOINSTYLE
280
     0
  9
$LWDISPLAY
290
     0
  9
$INSUNITS
 70
     0
  9
$HYPERLINKBASE
  1

  9
$STYLESHEET
  1
print.ctb
  9
$XEDIT
290
     1
  9
$CEPSNTYPE
380
     0
  9
$PSTYLEMODE
290
     1
  9
$FINGERPRINTGUID
  2
{7612489D-9E0F-4C1F-ADA2-3C5326981559}
  9
$VERSIONGUID
  2
{AE3F01E8-A5F8-4639-ABBA-EF4CC74D860F}
  9
$EXTNAMES
290
     1
  9
$PSVPSCALE
 40
0.0
  9
$OLESTARTUP
290
     0
  0
ENDSEC
  0
SECTION
  2
CLASSES
  0
CLASS
  1
ACDBDICTIONARYWDFLT
  2
AcDbDictionaryWithDefault
  3
ObjectDBX Classes
 90
        0
280
     0
281
     0
  0
CLASS
  1
ACDBPLACEHOLDER
  2
AcDbPlaceHolder
  3
ObjectDBX Classes
 90
        0
280
     0
281
     0
  0
CLASS
  1
LAYOUT
  2
AcDbLayout
  3
ObjectDBX Classes
 90
        0
280
     0
281
     0
  0
CLASS
  1
DICTIONARYVAR
  2
AcDbDictionaryVar
  3
ObjectDBX Classes
 90
        0
280
     0
281
     0
  0
ENDSEC
  0
SECTION
  2
TABLES
  0
TABLE
  2
VPORT
  5
8
330
0
100
AcDbSymbolTable
 70
     6
  0
VPORT
  5
936
330
8
100
AcDbSymbolTableRecord
100
AcDbViewportTableRecord
  2
*Active
 70
     0
 10
0.0
 20
0.0
 11
1.0
 21
1.0
 12
211.6644860315787
 22
86.68585356902189
 13
0.0
 23
0.0
 14
5.0
 24
5.0
 15
0.0
 25
0.0
 16
0.0
 26
0.0
 36
1.0
 17
0.0
 27
0.0
 37
0.0
 40
467.7594129326426
 41
2.128775834658187
 42
50.0
 43
0.0
 44
0.0
 50
0.0
 51
0.0
 71
     0
 72
   100
 73
     1
 74
     0
 75
     0
 76
     0
 77
     0
 78
     0
281
     0
 65
     1
110
0.0
120
0.0
130
0.0
111
1.0
121
0.0
131
0.0
112
0.0
122
1.0
132
0.0
 79
     0
146
0.0
  0
ENDTAB
  0
TABLE
  2
LTYPE
  5
5
330
0
100
AcDbSymbolTable
 70
     3
  0
LTYPE
  5
14
330
5
100
AcDbSymbolTableRecord
100
AcDbLinetypeTableRecord
  2
BYBLOCK
 70
     0
  3

 72
    65
 73
     0
 40
0.0
  0
LTYPE
  5
15
330
5
100
AcDbSymbolTableRecord
100
AcDbLinetypeTableRecord
  2
BYLAYER
 70
     0
  3

 72
    65
 73
     0
 40
0.0
  0
LTYPE
  5
16
330
5
100
AcDbSymbolTableRecord
100
AcDbLinetypeTableRecord
  2
CONTINUOUS
 70
     0
  3
Solid line
 72
    65
 73
     0
 40
0.0
  0
LTYPE
  5
120
330
5
100
AcDbSymbolTableRecord
100
AcDbLinetypeTableRecord
  2
CENTER
 70
     0
  3
____ _ ____ _ ____ _ ____ _ ____ _ ____ _ ____ 
 72
    65
 73
     4
 40
2.0
 49
1.25
 74
     0
 49
-0.25
 74
     0
 49
0.25
 74
     0
 49
-0.25
 74
     0
  0
LTYPE
  5
122
330
5
100
AcDbSymbolTableRecord
100
AcDbLinetypeTableRecord
  2
PHANTOM
 70
     0
  3
______  __  __  ______  __  __  ______  __  __ 
 72
    65
 73
     6
 40
2.5
 49
1.25
 74
     0
 49
-0.25
 74
     0
 49
0.25
 74
     0
 49
-0.25
 74
     0
 49
0.25
 74
     0
 49
-0.25
 74
     0
  0
ENDTAB
  0
TABLE
  2
LAYER
  5
2
330
0
100
AcDbSymbolTable
 70
     9
  0
LAYER
  5
F
330
2
100
AcDbSymbolTableRecord
100
AcDbLayerTableRecord
  2
0
 70
     0
 62
     7
  6
CONTINUOUS
370
    -3
390
37F
  0
LAYER
  5
62
330
2
100
AcDbSymbolTableRecord
100
AcDbLayerTableRecord
  2
VIEWPORT
 70
     0
 62
     7
  6
CONTINUOUS
370
    -3
390
37F
  0
LAYER
  5
6B
330
2
100
AcDbSymbolTableRecord
100
AcDbLayerTableRecord
  2
ZUWAKU
 70
     0
 62
     7
  6
CONTINUOUS
370
    -3
390
37F
  0
LAYER
  5
17C
330
2
100
AcDbSymbolTableRecord
100
AcDbLayerTableRecord
  2
SEIHIN
 70
     0
 62
     3
  6
CONTINUOUS
370
    -3
390
37F
  0
LAYER
  5
17D
330
2
100
AcDbSymbolTableRecord
100
AcDbLayerTableRecord
  2
SUNPOU
 70
     0
 62
     4
  6
CONTINUOUS
370
    -3
390
37F
  0
LAYER
  5
17E
330
2
100
AcDbSymbolTableRecord
100
AcDbLayerTableRecord
  2
CENTER L
 70
     0
 62
     1
  6
CENTER
370
    -3
390
37F
  0
LAYER
  5
17F
330
2
100
AcDbSymbolTableRecord
100
AcDbLayerTableRecord
  2
NOKITOI
 70
     0
 62
     8
  6
PHANTOM
370
    -3
390
37F
  0
LAYER
  5
180
330
2
100
AcDbSymbolTableRecord
100
AcDbLayerTableRecord
  2
DEFPOINTS
 70
     0
 62
     7
  6
CONTINUOUS
290
     0
370
    -3
390
37F
  0
LAYER
  5
577
330
2
100
AcDbSymbolTableRecord
100
AcDbLayerTableRecord
  2
moji
 70
     0
 62
     2
  6
CONTINUOUS
370
    -3
390
37F
  0
ENDTAB
  0
TABLE
  2
STYLE
  5
3
330
0
100
AcDbSymbolTable
 70
     2
  0
STYLE
  5
10
330
3
100
AcDbSymbolTableRecord
100
AcDbTextStyleTableRecord
  2
STANDARD
 70
     0
 40
0.0
 41
1.0
 50
0.0
 71
     0
 42
2.5
  3
TXT
  4
bigfont.shx
  0
STYLE
  5
578
330
3
100
AcDbSymbolTableRecord
100
AcDbTextStyleTableRecord
  2
ｽﾀｲﾙ1
 70
     0
 40
0.0
 41
1.0
 50
0.0
 71
     0
 42
2.5
  3
MS PGothic.ttf
  4

1001
ACAD
1000
MS PGothic
1071
    32818
  0
ENDTAB
  0
TABLE
  2
VIEW
  5
6
330
0
100
AcDbSymbolTable
 70
     0
  0
ENDTAB
  0
TABLE
  2
UCS
  5
7
330
0
100
AcDbSymbolTable
 70
     0
  0
ENDTAB
  0
TABLE
  2
APPID
  5
9
330
0
100
AcDbSymbolTable
 70
     1
  0
APPID
  5
11
330
9
100
AcDbSymbolTableRecord
100
AcDbRegAppTableRecord
  2
ACAD
 70
     0
  0
ENDTAB
  0
TABLE
  2
DIMSTYLE
  5
A
330
0
100
AcDbSymbolTable
 70
     1
100
AcDbDimStyleTable
 71
     0
  0
DIMSTYLE
105
1D
102
{ACAD_REACTORS
330
207
330
22D
330
25B
330
266
330
267
330
302
102
}
330
A
100
AcDbSymbolTableRecord
100
AcDbDimStyleTableRecord
  2
STANDARD
 70
     0
340
10
  0
ENDTAB
  0
TABLE
  2
BLOCK_RECORD
  5
1
330
0
100
AcDbSymbolTable
 70
     8
  0
BLOCK_RECORD
  5
1A
102
{ACAD_XDICTIONARY
360
3AF
102
}
330
1
100
AcDbSymbolTableRecord
100
AcDbBlockTableRecord
  2
*MODEL_SPACE
340
382
  0
BLOCK_RECORD
  5
17
102
{ACAD_XDICTIONARY
360
3AD
102
}
330
1
100
AcDbSymbolTableRecord
100
AcDbBlockTableRecord
  2
*PAPER_SPACE
340
383
  0
BLOCK_RECORD
  5
B2
330
1
100
AcDbSymbolTableRecord
100
AcDbBlockTableRecord
  2
_OPEN
340
0
102
{BLKREFS
331
7C5
331
7C6
331
7BC
331
7BD
331
7D7
331
7D8
331
7E9
331
7EA
331
7E0
331
7E1
331
7CE
331
7CF
102
}
  0
BLOCK_RECORD
  5
278
330
1
100
AcDbSymbolTableRecord
100
AcDbBlockTableRecord
  2
*D1
340
0
  0
BLOCK_RECORD
  5
284
330
1
100
AcDbSymbolTableRecord
100
AcDbBlockTableRecord
  2
*D2
340
0
  0
BLOCK_RECORD
  5
290
330
1
100
AcDbSymbolTableRecord
100
AcDbBlockTableRecord
  2
*D3
340
0
  0
BLOCK_RECORD
  5
29C
330
1
100
AcDbSymbolTableRecord
100
AcDbBlockTableRecord
  2
*D4
340
0
  0
BLOCK_RECORD
  5
2A8
330
1
100
AcDbSymbolTableRecord
100
AcDbBlockTableRecord
  2
*D5
340
0
  0
BLOCK_RECORD
  5
2F6
330
1
100
AcDbSymbolTableRecord
100
AcDbBlockTableRecord
  2
*D6
340
0
  0
BLOCK_RECORD
  5
3E1
330
1
100
AcDbSymbolTableRecord
100
AcDbBlockTableRecord
  2
*X7
340
0
102
{BLKREFS
331
671
102
}
  0
ENDTAB
  0
ENDSEC
  0
SECTION
  2
BLOCKS
  0
BLOCK
  5
1B
330
1A
100
AcDbEntity
  8
0
100
AcDbBlockBegin
  2
*MODEL_SPACE
 70
     0
 10
0.0
 20
0.0
 30
0.0
  3
*MODEL_SPACE
  1

  0
ENDBLK
  5
1C
330
1A
100
AcDbEntity
  8
0
100
AcDbBlockEnd
  0
BLOCK
  5
18
330
17
100
AcDbEntity
 67
     1
  8
0
100
AcDbBlockBegin
  2
*PAPER_SPACE
 70
     0
 10
0.0
 20
0.0
 30
0.0
  3
*PAPER_SPACE
  1

  0
ENDBLK
  5
19
330
17
100
AcDbEntity
 67
     1
  8
0
100
AcDbBlockEnd
  0
BLOCK
  5
B3
330
B2
100
AcDbEntity
  8
0
100
AcDbBlockBegin
  2
_OPEN
 70
     0
 10
0.0
 20
0.0
 30
0.0
  3
_OPEN
  1

  0
LINE
  5
B4
330
B2
100
AcDbEntity
  8
0
  6
ByBlock
 62
     0
100
AcDbLine
 10
-1.0
 20
0.1666666666666666
 30
0.0
 11
0.0
 21
0.0
 31
0.0
  0
LINE
  5
B5
330
B2
100
AcDbEntity
  8
0
  6
ByBlock
 62
     0
100
AcDbLine
 10
0.0
 20
0.0
 30
0.0
 11
-1.0
 21
-0.1666666666666666
 31
0.0
  0
LINE
  5
B6
330
B2
100
AcDbEntity
  8
0
  6
ByBlock
 62
     0
100
AcDbLine
 10
0.0
 20
0.0
 30
0.0
 11
-1.0
 21
0.0
 31
0.0
  0
ENDBLK
  5
B7
330
B2
100
AcDbEntity
  8
0
100
AcDbBlockEnd
  0
BLOCK
  5
352
330
278
100
AcDbEntity
  8
0
100
AcDbBlockBegin
  2
*D1
 70
     1
 10
0.0
 20
0.0
 30
0.0
  3
*D1
  1

  0
LINE
  5
7C2
330
278
100
AcDbEntity
  8
SUNPOU
  6
Continuous
 62
     4
370
    -2
100
AcDbLine
 10
218.1999731683674
 20
141.9104716734222
 30
0.0
 11
218.1999731683674
 21
166.2637034483849
 31
0.0
  0
LINE
  5
7C3
330
278
100
AcDbEntity
  8
SUNPOU
  6
Continuous
 62
     4
370
    -2
100
AcDbLine
 10
86.29967316836729
 20
141.9104716734222
 30
0.0
 11
86.29967316836729
 21
166.2637034483849
 31
0.0
  0
LINE
  5
7C4
330
278
100
AcDbEntity
  8
SUNPOU
  6
Continuous
 62
     4
370
    -2
100
AcDbLine
 10
215.1999731683674
 20
164.7637034483849
 30
0.0
 11
89.29967316836728
 21
164.7637034483849
 31
0.0
  0
INSERT
  5
7C5
330
278
100
AcDbEntity
  8
SUNPOU
  6
Continuous
 62
     4
370
    -2
100
AcDbBlockReference
  2
_OPEN
 10
218.1999731683674
 20
164.7637034483849
 30
0.0
 41
3.0
 42
3.0
 43
3.0
  0
INSERT
  5
7C6
330
278
100
AcDbEntity
  8
SUNPOU
  6
Continuous
 62
     4
370
    -2
100
AcDbBlockReference
  2
_OPEN
 10
86.29967316836729
 20
164.7637034483849
 30
0.0
 41
3.0
 42
3.0
 43
3.0
 50
180.0
  0
MTEXT
  5
7C7
330
278
100
AcDbEntity
  8
SUNPOU
  6
Continuous
 62
     4
100
AcDbMText
 10
152.2498231683673
 20
167.2637034483849
 30
0.0
 40
3.0
 41
0.0
 71
     5
 72
     5
  1
\A1;132
 73
     1
 44
1.0
1001
ACAD
1000
MTEXTBEGIN
1070
    73
1070
     1
1070
    44
1040
1.0
1070
    74
1070
     0
1000
MTEXTEND
  0
POINT
  5
7C8
330
278
100
AcDbEntity
  8
DEFPOINTS
  6
Continuous
 62
     0
100
AcDbPoint
 10
218.1999731683674
 20
138.9104716734222
 30
0.0
  0
POINT
  5
7C9
330
278
100
AcDbEntity
  8
DEFPOINTS
  6
Continuous
 62
     0
100
AcDbPoint
 10
86.29967316836729
 20
138.9104716734222
 30
0.0
  0
POINT
  5
7CA
330
278
100
AcDbEntity
  8
DEFPOINTS
  6
Continuous
 62
     0
100
AcDbPoint
 10
86.29967316836729
 20
164.7637034483849
 30
0.0
  0
ENDBLK
  5
35C
330
278
100
AcDbEntity
  8
0
100
AcDbBlockEnd
  0
BLOCK
  5
35D
330
284
100
AcDbEntity
  8
0
100
AcDbBlockBegin
  2
*D2
 70
     1
 10
0.0
 20
0.0
 30
0.0
  3
*D2
  1

  0
LINE
  5
7B9
330
284
100
AcDbEntity
  8
SUNPOU
  6
Continuous
 62
     4
370
    -2
100
AcDbLine
 10
298.3086205822695
 20
148.4104796874684
 30
0.0
 11
298.308679606224
 21
166.4128153708667
 31
0.0
  0
LINE
  5
7BA
330
284
100
AcDbEntity
  8
SUNPOU
  6
Continuous
 62
     4
370
    -2
100
AcDbLine
 10
276.5087205823864
 20
148.4105511624331
 30
0.0
 11
276.5087796063409
 21
166.4128868458313
 31
0.0
  0
LINE
  5
7BB
330
284
100
AcDbEntity
  8
SUNPOU
  6
Continuous
 62
     4
370
    -2
100
AcDbLine
 10
295.3086746882155
 20
164.9128252069242
 30
0.0
 11
279.5087746883002
 21
164.91287700979
 31
0.0
  0
INSERT
  5
7BC
330
284
100
AcDbEntity
  8
SUNPOU
  6
Continuous
 62
     4
370
    -2
100
AcDbBlockReference
  2
_OPEN
 10
298.3086746881994
 20
164.9128153708748
 30
0.0
 41
3.0
 42
3.0
 43
3.0
 50
359.9998121452936
  0
INSERT
  5
7BD
330
284
100
AcDbEntity
  8
SUNPOU
  6
Continuous
 62
     4
370
    -2
100
AcDbBlockReference
  2
_OPEN
 10
276.5087746883162
 20
164.9128868458394
 30
0.0
 41
3.0
 42
3.0
 43
3.0
 50
179.9998121452936
  0
MTEXT
  5
7BE
330
284
100
AcDbEntity
  8
SUNPOU
  6
Continuous
 62
     4
100
AcDbMText
 10
287.4087328849656
 20
167.4128511083437
 30
0.0
 40
3.0
 41
0.0
 71
     5
 72
     5
  1
\A1;22
 11
0.9999999999946252
 21
-0.0000032786831419
 31
0.0
 73
     1
 44
1.0
1001
ACAD
1000
MTEXTBEGIN
1070
    73
1070
     1
1070
    44
1040
1.0
1070
    74
1070
     0
1000
MTEXTEND
  0
POINT
  5
7BF
330
284
100
AcDbEntity
  8
DEFPOINTS
  6
Continuous
 62
     0
100
AcDbPoint
 10
298.3086107462201
 20
145.4104796874846
 30
0.0
  0
POINT
  5
7C0
330
284
100
AcDbEntity
  8
DEFPOINTS
  6
Continuous
 62
     0
100
AcDbPoint
 10
276.508710746337
 20
145.4105511624492
 30
0.0
  0
POINT
  5
7C1
330
284
100
AcDbEntity
  8
DEFPOINTS
  6
Continuous
 62
     0
100
AcDbPoint
 10
276.5087746883162
 20
164.9128868458394
 30
0.0
  0
ENDBLK
  5
367
330
284
100
AcDbEntity
  8
0
100
AcDbBlockEnd
  0
BLOCK
  5
368
330
290
100
AcDbEntity
  8
0
100
AcDbBlockBegin
  2
*D3
 70
     1
 10
0.0
 20
0.0
 30
0.0
  3
*D3
  1

  0
LINE
  5
7D4
330
290
100
AcDbEntity
  8
SUNPOU
 62
     4
370
    -2
100
AcDbLine
 10
278.5085081233803
 20
80.61044460541511
 30
0.0
 11
278.5085081233803
 21
67.78844590700026
 31
0.0
  0
LINE
  5
7D5
330
290
100
AcDbEntity
  8
SUNPOU
 62
     4
370
    -2
100
AcDbLine
 10
298.3085094347471
 20
80.61037968748463
 30
0.0
 11
298.3085094347471
 21
67.78844590700026
 31
0.0
  0
LINE
  5
7D6
330
290
100
AcDbEntity
  8
SUNPOU
 62
     4
370
    -2
100
AcDbLine
 10
281.5085081233803
 20
69.28844590700027
 30
0.0
 11
295.3085094347471
 21
69.28844590700027
 31
0.0
  0
INSERT
  5
7D7
330
290
100
AcDbEntity
  8
SUNPOU
 62
     4
370
    -2
100
AcDbBlockReference
  2
_OPEN
 10
278.5085081233803
 20
69.28844590700027
 30
0.0
 41
3.0
 42
3.0
 43
3.0
 50
180.0
  0
INSERT
  5
7D8
330
290
100
AcDbEntity
  8
SUNPOU
 62
     4
370
    -2
100
AcDbBlockReference
  2
_OPEN
 10
298.3085094347471
 20
69.28844590700027
 30
0.0
 41
3.0
 42
3.0
 43
3.0
  0
MTEXT
  5
7D9
330
290
100
AcDbEntity
  8
SUNPOU
 62
     4
100
AcDbMText
 10
288.4085087790637
 20
71.78844590700027
 30
0.0
 40
3.0
 41
0.0
 71
     5
 72
     5
  1
\A1;20
 73
     1
 44
1.0
1001
ACAD
1000
MTEXTBEGIN
1070
    73
1070
     1
1070
    44
1040
1.0
1070
    74
1070
     0
1000
MTEXTEND
  0
POINT
  5
7DA
330
290
100
AcDbEntity
  8
DEFPOINTS
 62
     0
100
AcDbPoint
 10
278.5085081233803
 20
83.61044460541512
 30
0.0
  0
POINT
  5
7DB
330
290
100
AcDbEntity
  8
DEFPOINTS
 62
     0
100
AcDbPoint
 10
298.3085094347471
 20
83.61037968748462
 30
0.0
  0
POINT
  5
7DC
330
290
100
AcDbEntity
  8
DEFPOINTS
 62
     0
100
AcDbPoint
 10
298.3085094347471
 20
69.28844590700027
 30
0.0
  0
ENDBLK
  5
372
330
290
100
AcDbEntity
  8
0
100
AcDbBlockEnd
  0
BLOCK
  5
347
330
29C
100
AcDbEntity
  8
0
100
AcDbBlockBegin
  2
*D4
 70
     1
 10
0.0
 20
0.0
 30
0.0
  3
*D4
  1

  0
LINE
  5
7E6
330
29C
100
AcDbEntity
  8
SUNPOU
  6
Continuous
 62
     4
370
    -2
100
AcDbLine
 10
221.2000731683674
 20
198.5926796874845
 30
0.0
 11
244.816644640124
 21
198.5926796874845
 31
0.0
  0
LINE
  5
7E7
330
29C
100
AcDbEntity
  8
SUNPOU
  6
Continuous
 62
     4
370
    -2
100
AcDbLine
 10
221.2001731683673
 20
220.3926796874845
 30
0.0
 11
244.816644640124
 21
220.3926796874845
 31
0.0
  0
LINE
  5
7E8
330
29C
100
AcDbEntity
  8
SUNPOU
  6
Continuous
 62
     4
370
    -2
100
AcDbLine
 10
243.316644640124
 20
201.5926796874845
 30
0.0
 11
243.316644640124
 21
217.3926796874845
 31
0.0
  0
INSERT
  5
7E9
330
29C
100
AcDbEntity
  8
SUNPOU
  6
Continuous
 62
     4
370
    -2
100
AcDbBlockReference
  2
_OPEN
 10
243.316644640124
 20
198.5926796874845
 30
0.0
 41
3.0
 42
3.0
 43
3.0
 50
270.0
  0
INSERT
  5
7EA
330
29C
100
AcDbEntity
  8
SUNPOU
  6
Continuous
 62
     4
370
    -2
100
AcDbBlockReference
  2
_OPEN
 10
243.316644640124
 20
220.3926796874845
 30
0.0
 41
3.0
 42
3.0
 43
3.0
 50
90.0
  0
MTEXT
  5
7EB
330
29C
100
AcDbEntity
  8
SUNPOU
  6
Continuous
 62
     4
100
AcDbMText
 10
240.816644640124
 20
209.4926796874845
 30
0.0
 40
3.0
 41
0.0
 71
     5
 72
     5
  1
\A1;22
 11
0.0000000000000001
 21
1.0
 31
0.0
 73
     1
 44
1.0
1001
ACAD
1000
MTEXTBEGIN
1070
    73
1070
     1
1070
    44
1040
1.0
1070
    74
1070
     0
1000
MTEXTEND
  0
POINT
  5
7EC
330
29C
100
AcDbEntity
  8
DEFPOINTS
  6
Continuous
 62
     0
100
AcDbPoint
 10
218.2000731683674
 20
198.5926796874845
 30
0.0
  0
POINT
  5
7ED
330
29C
100
AcDbEntity
  8
DEFPOINTS
  6
Continuous
 62
     0
100
AcDbPoint
 10
218.2001731683673
 20
220.3926796874845
 30
0.0
  0
POINT
  5
7EE
330
29C
100
AcDbEntity
  8
DEFPOINTS
  6
Continuous
 62
     0
100
AcDbPoint
 10
243.316644640124
 20
220.3926796874845
 30
0.0
  0
ENDBLK
  5
351
330
29C
100
AcDbEntity
  8
0
100
AcDbBlockEnd
  0
BLOCK
  5
331
330
2A8
100
AcDbEntity
  8
0
100
AcDbBlockBegin
  2
*D5
 70
     1
 10
0.0
 20
0.0
 30
0.0
  3
*D5
  1

  0
LINE
  5
7DD
330
2A8
100
AcDbEntity
  8
SUNPOU
 62
     4
370
    -2
100
AcDbLine
 10
221.2001731683673
 20
220.3926796874845
 30
0.0
 11
236.7398318490939
 21
220.3926796874845
 31
0.0
  0
LINE
  5
7DE
330
2A8
100
AcDbEntity
  8
SUNPOU
 62
     4
370
    -2
100
AcDbLine
 10
210.5378731683674
 20
202.5926796874845
 30
0.0
 11
236.7398318490939
 21
202.5926796874845
 31
0.0
  0
LINE
  5
7DF
330
2A8
100
AcDbEntity
  8
SUNPOU
 62
     4
370
    -2
100
AcDbLine
 10
235.2398318490939
 20
217.3926796874845
 30
0.0
 11
235.2398318490939
 21
205.5926796874845
 31
0.0
  0
INSERT
  5
7E0
330
2A8
100
AcDbEntity
  8
SUNPOU
 62
     4
370
    -2
100
AcDbBlockReference
  2
_OPEN
 10
235.2398318490939
 20
220.3926796874845
 30
0.0
 41
3.0
 42
3.0
 43
3.0
 50
90.0
  0
INSERT
  5
7E1
330
2A8
100
AcDbEntity
  8
SUNPOU
 62
     4
370
    -2
100
AcDbBlockReference
  2
_OPEN
 10
235.2398318490939
 20
202.5926796874845
 30
0.0
 41
3.0
 42
3.0
 43
3.0
 50
270.0
  0
MTEXT
  5
7E2
330
2A8
100
AcDbEntity
  8
SUNPOU
 62
     4
100
AcDbMText
 10
232.7398318490939
 20
211.4926796874845
 30
0.0
 40
3.0
 41
0.0
 71
     5
 72
     5
  1
\A1;\U+203b18
 11
0.0000000000000001
 21
1.0
 31
0.0
 73
     1
 44
1.0
1001
ACAD
1000
MTEXTBEGIN
1070
    73
1070
     1
1070
    44
1040
1.0
1070
    74
1070
     0
1000
MTEXTEND
  0
POINT
  5
7E3
330
2A8
100
AcDbEntity
  8
DEFPOINTS
 62
     0
100
AcDbPoint
 10
218.2001731683673
 20
220.3926796874845
 30
0.0
  0
POINT
  5
7E4
330
2A8
100
AcDbEntity
  8
DEFPOINTS
 62
     0
100
AcDbPoint
 10
207.5378731683673
 20
202.5926796874845
 30
0.0
  0
POINT
  5
7E5
330
2A8
100
AcDbEntity
  8
DEFPOINTS
 62
     0
100
AcDbPoint
 10
235.2398318490939
 20
202.5926796874845
 30
0.0
  0
ENDBLK
  5
33B
330
2A8
100
AcDbEntity
  8
0
100
AcDbBlockEnd
  0
BLOCK
  5
33C
330
2F6
100
AcDbEntity
  8
0
100
AcDbBlockBegin
  2
*D6
 70
     1
 10
0.0
 20
0.0
 30
0.0
  3
*D6
  1

  0
LINE
  5
7CB
330
2F6
100
AcDbEntity
  8
SUNPOU
 62
     4
370
    -2
100
AcDbLine
 10
214.699988595327
 20
145.4104562464674
 30
0.0
 11
236.7398318490939
 21
145.4104562464674
 31
0.0
  0
LINE
  5
7CC
330
2F6
100
AcDbEntity
  8
SUNPOU
 62
     4
370
    -2
100
AcDbLine
 10
155.2498731683673
 20
83.61037968744552
 30
0.0
 11
236.7398318490939
 21
83.61037968744549
 31
0.0
  0
LINE
  5
7CD
330
2F6
100
AcDbEntity
  8
SUNPOU
 62
     4
370
    -2
100
AcDbLine
 10
235.2398318490939
 20
142.4104562464674
 30
0.0
 11
235.2398318490939
 21
86.61037968744549
 31
0.0
  0
INSERT
  5
7CE
330
2F6
100
AcDbEntity
  8
SUNPOU
 62
     4
370
    -2
100
AcDbBlockReference
  2
_OPEN
 10
235.2398318490939
 20
145.4104562464674
 30
0.0
 41
3.0
 42
3.0
 43
3.0
 50
90.0
  0
INSERT
  5
7CF
330
2F6
100
AcDbEntity
  8
SUNPOU
 62
     4
370
    -2
100
AcDbBlockReference
  2
_OPEN
 10
235.2398318490939
 20
83.61037968744549
 30
0.0
 41
3.0
 42
3.0
 43
3.0
 50
270.0
  0
MTEXT
  5
7D0
330
2F6
100
AcDbEntity
  8
SUNPOU
 62
     4
100
AcDbMText
 10
232.7398318490939
 20
114.5104179669565
 30
0.0
 40
3.0
 41
0.0
 71
     5
 72
     5
  1
\A1;62
 11
0.0000000000000001
 21
1.0
 31
0.0
 73
     1
 44
1.0
1001
ACAD
1000
MTEXTBEGIN
1070
    73
1070
     1
1070
    44
1040
1.0
1070
    74
1070
     0
1000
MTEXTEND
  0
POINT
  5
7D1
330
2F6
100
AcDbEntity
  8
DEFPOINTS
 62
     0
100
AcDbPoint
 10
211.6999885953271
 20
145.4104562464674
 30
0.0
  0
POINT
  5
7D2
330
2F6
100
AcDbEntity
  8
DEFPOINTS
 62
     0
100
AcDbPoint
 10
152.2498731683673
 20
83.61037968744552
 30
0.0
  0
POINT
  5
7D3
330
2F6
100
AcDbEntity
  8
DEFPOINTS
 62
     0
100
AcDbPoint
 10
235.2398318490939
 20
83.61037968744549
 30
0.0
  0
ENDBLK
  5
346
330
2F6
100
AcDbEntity
  8
0
100
AcDbBlockEnd
  0
BLOCK
  5
575
330
3E1
100
AcDbEntity
  8
0
100
AcDbBlockBegin
  2
*X7
 70
     1
 10
0.0
 20
0.0
 30
0.0
  3
*X7
  1

  0
LINE
  5
3E2
330
3E1
100
AcDbEntity
  8
0
 62
     0
100
AcDbLine
 10
34.52110638501717
 20
11.30208418761393
 30
0.0
 11
34.1981909201597
 21
11.62499965247141
 31
0.0
  0
LINE
  5
3E3
330
3E1
100
AcDbEntity
  8
0
 62
     0
100
AcDbLine
 10
34.52110638501717
 20
10.85307138156048
 30
0.0
 11
33.74917811410623
 21
11.62499965247141
 31
0.0
  0
LINE
  5
3E4
330
3E1
100
AcDbEntity
  8
0
 62
     0
100
AcDbLine
 10
34.52110638501713
 20
10.40405857550701
 30
0.0
 11
33.31053941200966
 21
11.61462554851448
 31
0.0
  0
LINE
  5
3E5
330
3E1
100
AcDbEntity
  8
0
 62
     0
100
AcDbLine
 10
34.52110638501717
 20
9.95504576945359
 30
0.0
 11
33.12110638501713
 21
11.3550457694536
 31
0.0
  0
LINE
  5
3E6
330
3E1
100
AcDbEntity
  8
0
 62
     0
100
AcDbLine
 10
34.52110638501717
 20
9.506032963400116
 30
0.0
 11
33.12110638501713
 21
10.90603296340015
 31
0.0
  0
LINE
  5
3E7
330
3E1
100
AcDbEntity
  8
0
 62
     0
100
AcDbLine
 10
34.52110638501713
 20
9.057020157346642
 30
0.0
 11
33.1211063850171
 21
10.45702015734667
 31
0.0
  0
LINE
  5
3E8
330
3E1
100
AcDbEntity
  8
0
 62
     0
100
AcDbLine
 10
32.07110638501712
 20
11.05800735129324
 30
0.0
 11
31.50411408383897
 21
11.62499965247141
 31
0.0
  0
LINE
  5
3E9
330
3E1
100
AcDbEntity
  8
0
 62
     0
100
AcDbLine
 10
34.52110638501717
 20
8.608007351293224
 30
0.0
 11
33.12110638501713
 21
10.00800735129326
 31
0.0
  0
LINE
  5
3EA
330
3E1
100
AcDbEntity
  8
0
 62
     0
100
AcDbLine
 10
32.07110638501712
 20
10.60899454523979
 30
0.0
 11
31.0551012777855
 21
11.62499965247139
 31
0.0
  0
LINE
  5
3EB
330
3E1
100
AcDbEntity
  8
0
 62
     0
100
AcDbLine
 10
34.52110638501713
 20
8.15899454523975
 30
0.0
 11
33.12110638501713
 21
9.558994545239784
 31
0.0
  0
LINE
  5
3EC
330
3E1
100
AcDbEntity
  8
0
 62
     0
100
AcDbLine
 10
32.07110638501712
 20
10.15998173918632
 30
0.0
 11
30.71835090244858
 21
11.51273722175486
 31
0.0
  0
LINE
  5
3ED
330
3E1
100
AcDbEntity
  8
0
 62
     0
100
AcDbLine
 10
34.52110638501713
 20
7.709981739186304
 30
0.0
 11
33.1211063850171
 21
9.109981739186309
 31
0.0
  0
LINE
  5
3EE
330
3E1
100
AcDbEntity
  8
0
 62
     0
100
AcDbLine
 10
32.07110638501717
 20
9.710968933132818
 30
0.0
 11
30.67110638501714
 21
11.11096893313285
 31
0.0
  0
LINE
  5
3EF
330
3E1
100
AcDbEntity
  8
0
 62
     0
100
AcDbLine
 10
34.52110638501717
 20
7.260968933132829
 30
0.0
 11
33.12110638501713
 21
8.660968933132863
 31
0.0
  0
LINE
  5
3F0
330
3E1
100
AcDbEntity
  8
0
 62
     0
100
AcDbLine
 10
32.07110638501715
 20
9.261956127079372
 30
0.0
 11
30.67110638501711
 21
10.6619561270794
 31
0.0
  0
LINE
  5
3F1
330
3E1
100
AcDbEntity
  8
0
 62
     0
100
AcDbLine
 10
34.52110638501713
 20
6.811956127079383
 30
0.0
 11
33.12110638501716
 21
8.211956127079389
 31
0.0
  0
LINE
  5
3F2
330
3E1
100
AcDbEntity
  8
0
 62
     0
100
AcDbLine
 10
32.07110638501715
 20
8.812943321025926
 30
0.0
 11
30.67110638501714
 21
10.2129433210259
 31
0.0
  0
LINE
  5
3F3
330
3E1
100
AcDbEntity
  8
0
 62
     0
100
AcDbLine
 10
34.52110638501713
 20
6.362943321025937
 30
0.0
 11
33.12110638501713
 21
7.762943321025915
 31
0.0
  0
LINE
  5
3F4
330
3E1
100
AcDbEntity
  8
0
 62
     0
100
AcDbLine
 10
32.07110638501712
 20
8.363930514972452
 30
0.0
 11
30.67110638501714
 21
9.763930514972457
 31
0.0
  0
LINE
  5
3F5
330
3E1
100
AcDbEntity
  8
0
 62
     0
100
AcDbLine
 10
34.52110638501711
 20
5.913930514972463
 30
0.0
 11
33.12110638501713
 21
7.313930514972469
 31
0.0
  0
LINE
  5
3F6
330
3E1
100
AcDbEntity
  8
0
 62
     0
100
AcDbLine
 10
32.07110638501715
 20
7.914917708919034
 30
0.0
 11
30.67110638501717
 21
9.314917708919011
 31
0.0
  0
LINE
  5
3F7
330
3E1
100
AcDbEntity
  8
0
 62
     0
100
AcDbLine
 10
28.92110638501711
 20
11.06491770891907
 30
0.0
 11
28.36102444146474
 21
11.62499965247141
 31
0.0
  0
LINE
  5
3F8
330
3E1
100
AcDbEntity
  8
0
 62
     0
100
AcDbLine
 10
34.52110638501713
 20
5.464917708919045
 30
0.0
 11
33.12110638501716
 21
6.864917708919023
 31
0.0
  0
LINE
  5
3F9
330
3E1
100
AcDbEntity
  8
0
 62
     0
100
AcDbLine
 10
32.07110638501715
 20
7.46590490286556
 30
0.0
 11
30.67110638501714
 21
8.865904902865537
 31
0.0
  0
LINE
  5
3FA
330
3E1
100
AcDbEntity
  8
0
 62
     0
100
AcDbLine
 10
28.92110638501714
 20
10.61590490286556
 30
0.0
 11
27.91201163541129
 21
11.62499965247141
 31
0.0
  0
LINE
  5
3FB
330
3E1
100
AcDbEntity
  8
0
 62
     0
100
AcDbLine
 10
34.52110638501713
 20
5.015904902865571
 30
0.0
 11
33.12110638501713
 21
6.415904902865548
 31
0.0
  0
LINE
  5
3FC
330
3E1
100
AcDbEntity
  8
0
 62
     0
100
AcDbLine
 10
32.07110638501712
 20
7.016892096812114
 30
0.0
 11
30.67110638501714
 21
8.416892096812091
 31
0.0
  0
LINE
  5
3FD
330
3E1
100
AcDbEntity
  8
0
 62
     0
100
AcDbLine
 10
28.92110638501711
 20
10.16689209681209
 30
0.0
 11
27.57122502335509
 21
11.51677345847414
 31
0.0
  0
LINE
  5
3FE
330
3E1
100
AcDbEntity
  8
0
 62
     0
100
AcDbLine
 10
34.52110638501711
 20
4.566892096812125
 30
0.0
 11
33.12110638501713
 21
5.966892096812102
 31
0.0
  0
LINE
  5
3FF
330
3E1
100
AcDbEntity
  8
0
 62
     0
100
AcDbLine
 10
32.07110638501715
 20
6.567879290758639
 30
0.0
 11
30.67110638501714
 21
7.967879290758617
 31
0.0
  0
LINE
  5
400
330
3E1
100
AcDbEntity
  8
0
 62
     0
100
AcDbLine
 10
28.92110638501714
 20
9.717879290758645
 30
0.0
 11
27.52110638501711
 21
11.11787929075868
 31
0.0
  0
LINE
  5
401
330
3E1
100
AcDbEntity
  8
0
 62
     0
100
AcDbLine
 10
34.52110638501713
 20
4.117879290758651
 30
0.0
 11
33.12110638501713
 21
5.517879290758628
 31
0.0
  0
LINE
  5
402
330
3E1
100
AcDbEntity
  8
0
 62
     0
100
AcDbLine
 10
32.07110638501712
 20
6.118866484705193
 30
0.0
 11
30.67110638501714
 21
7.518866484705199
 31
0.0
  0
LINE
  5
403
330
3E1
100
AcDbEntity
  8
0
 62
     0
100
AcDbLine
 10
28.92110638501714
 20
9.268866484705199
 30
0.0
 11
27.52110638501714
 21
10.6688664847052
 31
0.0
  0
LINE
  5
404
330
3E1
100
AcDbEntity
  8
0
 62
     0
100
AcDbLine
 10
34.48512370757223
 20
3.704849162150111
 30
0.0
 11
33.12110638501713
 21
5.06886648470521
 31
0.0
  0
LINE
  5
405
330
3E1
100
AcDbEntity
  8
0
 62
     0
100
AcDbLine
 10
32.07110638501715
 20
5.669853678651691
 30
0.0
 11
30.67110638501714
 21
7.069853678651725
 31
0.0
  0
LINE
  5
406
330
3E1
100
AcDbEntity
  8
0
 62
     0
100
AcDbLine
 10
28.92110638501711
 20
8.819853678651753
 30
0.0
 11
27.52110638501714
 21
10.21985367865173
 31
0.0
  0
LINE
  5
407
330
3E1
100
AcDbEntity
  8
0
 62
     0
100
AcDbLine
 10
34.16596041119749
 20
3.574999652471376
 30
0.0
 11
33.12110638501716
 21
4.619853678651708
 31
0.0
  0
LINE
  5
408
330
3E1
100
AcDbEntity
  8
0
 62
     0
100
AcDbLine
 10
28.92110638501711
 20
8.370840872598279
 30
0.0
 11
27.52110638501711
 21
9.770840872598256
 31
0.0
  0
LINE
  5
409
330
3E1
100
AcDbEntity
  8
0
 62
     0
100
AcDbLine
 10
32.07110638501715
 20
5.220840872598245
 30
0.0
 11
30.67110638501711
 21
6.62084087259825
 31
0.0
  0
LINE
  5
40A
330
3E1
100
AcDbEntity
  8
0
 62
     0
100
AcDbLine
 10
26.20860638501714
 20
11.08334087259825
 30
0.0
 11
25.66694760514395
 21
11.62499965247141
 31
0.0
  0
LINE
  5
40B
330
3E1
100
AcDbEntity
  8
0
 62
     0
100
AcDbLine
 10
33.71694760514404
 20
3.574999652471319
 30
0.0
 11
33.12110638501716
 21
4.170840872598233
 31
0.0
  0
LINE
  5
40C
330
3E1
100
AcDbEntity
  8
0
 62
     0
100
AcDbLine
 10
28.92110638501711
 20
7.921828066544833
 30
0.0
 11
27.52110638501714
 21
9.321828066544838
 31
0.0
  0
LINE
  5
40D
330
3E1
100
AcDbEntity
  8
0
 62
     0
100
AcDbLine
 10
26.20860638501716
 20
10.63432806654481
 30
0.0
 11
25.21793479909053
 21
11.62499965247144
 31
0.0
  0
LINE
  5
40E
330
3E1
100
AcDbEntity
  8
0
 62
     0
100
AcDbLine
 10
32.05812723469435
 20
4.784807216867619
 30
0.0
 11
30.67110638501714
 21
6.171828066544833
 31
0.0
  0
LINE
  5
40F
330
3E1
100
AcDbEntity
  8
0
 62
     0
100
AcDbLine
 10
28.92110638501714
 20
7.47281526049133
 30
0.0
 11
27.52110638501714
 21
8.872815260491364
 31
0.0
  0
LINE
  5
410
330
3E1
100
AcDbEntity
  8
0
 62
     0
100
AcDbLine
 10
26.11081611196019
 20
10.28310553354831
 30
0.0
 11
24.76892199303711
 21
11.62499965247139
 31
0.0
  0
LINE
  5
411
330
3E1
100
AcDbEntity
  8
0
 62
     0
100
AcDbLine
 10
31.96163458706573
 20
4.432287058442739
 30
0.0
 11
30.67110638501711
 21
5.722815260491358
 31
0.0
  0
LINE
  5
412
330
3E1
100
AcDbEntity
  8
0
 62
     0
100
AcDbLine
 10
28.92110638501714
 20
7.023802454437884
 30
0.0
 11
27.52110638501711
 21
8.423802454437918
 31
0.0
  0
LINE
  5
413
330
3E1
100
AcDbEntity
  8
0
 62
     0
100
AcDbLine
 10
25.71990918698361
 20
10.22499965247138
 30
0.0
 11
24.31990918698361
 21
11.62499965247141
 31
0.0
  0
LINE
  5
414
330
3E1
100
AcDbEntity
  8
0
 62
     0
100
AcDbLine
 10
31.79911864910395
 20
4.14579019035105
 30
0.0
 11
30.63534851543733
 21
5.309560324017695
 31
0.0
  0
LINE
  5
415
330
3E1
100
AcDbEntity
  8
0
 62
     0
100
AcDbLine
 10
28.92110638501717
 20
6.574789648384438
 30
0.0
 11
27.52110638501714
 21
7.974789648384472
 31
0.0
  0
LINE
  5
416
330
3E1
100
AcDbEntity
  8
0
 62
     0
100
AcDbLine
 10
25.2708963809302
 20
10.22499965247141
 30
0.0
 11
23.9021130163415
 21
11.5937830170601
 31
0.0
  0
LINE
  5
417
330
3E1
100
AcDbEntity
  8
0
 62
     0
100
AcDbLine
 10
31.58309775044143
 20
3.912798282960153
 30
0.0
 11
30.43455569620358
 21
5.061340337198004
 31
0.0
  0
LINE
  5
418
330
3E1
100
AcDbEntity
  8
0
 62
     0
100
AcDbLine
 10
28.92110638501714
 20
6.125776842330992
 30
0.0
 11
27.52110638501711
 21
7.525776842330998
 31
0.0
  0
LINE
  5
419
330
3E1
100
AcDbEntity
  8
0
 62
     0
100
AcDbLine
 10
24.82188357487672
 20
10.22499965247141
 30
0.0
 11
23.56979280407481
 21
11.47709042327329
 31
0.0
  0
LINE
  5
41A
330
3E1
100
AcDbEntity
  8
0
 62
     0
100
AcDbLine
 10
31.31501657797841
 20
3.73186664936972
 30
0.0
 11
30.07188357487672
 21
4.974999652471382
 31
0.0
  0
LINE
  5
41B
330
3E1
100
AcDbEntity
  8
0
 62
     0
100
AcDbLine
 10
28.92110638501714
 20
5.676764036277518
 30
0.0
 11
27.52110638501714
 21
7.076764036277495
 31
0.0
  0
LINE
  5
41C
330
3E1
100
AcDbEntity
  8
0
 62
     0
100
AcDbLine
 10
24.38376568283232
 20
10.21410473846231
 30
0.0
 11
23.29849233546972
 21
11.29937808582491
 31
0.0
  0
LINE
  5
41D
330
3E1
100
AcDbEntity
  8
0
 62
     0
100
AcDbLine
 10
30.98681029802276
 20
3.611060123271897
 30
0.0
 11
29.62287076882328
 21
4.974999652471382
 31
0.0
  0
LINE
  5
41E
330
3E1
100
AcDbEntity
  8
0
 62
     0
100
AcDbLine
 10
24.19610638501715
 20
9.952751230224009
 30
0.0
 11
23.07943630594744
 21
11.06942130929371
 31
0.0
  0
LINE
  5
41F
330
3E1
100
AcDbEntity
  8
0
 62
     0
100
AcDbLine
 10
30.57385796276978
 20
3.574999652471376
 30
0.0
 11
27.52110638501714
 21
6.627751230224049
 31
0.0
  0
LINE
  5
420
330
3E1
100
AcDbEntity
  8
0
 62
     0
100
AcDbLine
 10
24.19610638501718
 20
9.503738424170592
 30
0.0
 11
22.91355084977093
 21
10.78629395941684
 31
0.0
  0
LINE
  5
421
330
3E1
100
AcDbEntity
  8
0
 62
     0
100
AcDbLine
 10
30.12484515671636
 20
3.574999652471404
 30
0.0
 11
27.52110638501716
 21
6.178738424170603
 31
0.0
  0
LINE
  5
422
330
3E1
100
AcDbEntity
  8
0
 62
     0
100
AcDbLine
 10
24.29937852556904
 20
8.951453477565252
 30
0.0
 11
22.81246159008887
 21
10.43837041304539
 31
0.0
  0
LINE
  5
423
330
3E1
100
AcDbEntity
  8
0
 62
     0
100
AcDbLine
 10
29.67583235066289
 20
3.574999652471376
 30
0.0
 11
27.52110638501714
 21
5.729725618117157
 31
0.0
  0
LINE
  5
424
330
3E1
100
AcDbEntity
  8
0
 62
     0
100
AcDbLine
 10
26.4079082363628
 20
6.393910960718017
 30
0.0
 11
22.79610638501711
 21
10.00571281206368
 31
0.0
  0
LINE
  5
425
330
3E1
100
AcDbEntity
  8
0
 62
     0
100
AcDbLine
 10
21.74610638501707
 20
11.05571281206372
 30
0.0
 11
21.17681954460943
 21
11.62499965247139
 31
0.0
  0
LINE
  5
426
330
3E1
100
AcDbEntity
  8
0
 62
     0
100
AcDbLine
 10
29.22681954460944
 20
3.574999652471376
 30
0.0
 11
27.52110638501714
 21
5.280712812063683
 31
0.0
  0
LINE
  5
427
330
3E1
100
AcDbEntity
  8
0
 62
     0
100
AcDbLine
 10
26.47110638501715
 20
5.881700006010248
 30
0.0
 11
22.79610638501714
 21
9.55670000601026
 31
0.0
  0
LINE
  5
428
330
3E1
100
AcDbEntity
  8
0
 62
     0
100
AcDbLine
 10
21.74610638501713
 20
10.60670000601024
 30
0.0
 11
20.72780673855596
 21
11.62499965247144
 31
0.0
  0
LINE
  5
429
330
3E1
100
AcDbEntity
  8
0
 62
     0
100
AcDbLine
 10
28.76958279918358
 20
3.583223591843818
 30
0.0
 11
27.52933032438958
 21
4.823476066637823
 31
0.0
  0
LINE
  5
42A
330
3E1
100
AcDbEntity
  8
0
 62
     0
100
AcDbLine
 10
21.74610638501713
 20
10.15768719995679
 30
0.0
 11
20.39241144112947
 21
11.51138214384443
 31
0.0
  0
LINE
  5
42B
330
3E1
100
AcDbEntity
  8
0
 62
     0
100
AcDbLine
 10
26.47110638501712
 20
5.432687199956774
 30
0.0
 11
22.80781171895831
 21
9.09598186601562
 31
0.0
  0
LINE
  5
42C
330
3E1
100
AcDbEntity
  8
0
 62
     0
100
AcDbLine
 10
21.74610638501713
 20
9.708674393903322
 30
0.0
 11
20.34610638501712
 21
11.1086743939033
 31
0.0
  0
LINE
  5
42D
330
3E1
100
AcDbEntity
  8
0
 62
     0
100
AcDbLine
 10
26.47110638501707
 20
4.983674393903356
 30
0.0
 11
22.96687142787832
 21
8.487909351042134
 31
0.0
  0
LINE
  5
42E
330
3E1
100
AcDbEntity
  8
0
 62
     0
100
AcDbLine
 10
21.74610638501713
 20
9.259661587849876
 30
0.0
 11
20.34610638501715
 21
10.65966158784985
 31
0.0
  0
LINE
  5
42F
330
3E1
100
AcDbEntity
  8
0
 62
     0
100
AcDbLine
 10
26.41682547622258
 20
4.58894249664442
 30
0.0
 11
25.06900808170343
 21
5.936759891163575
 31
0.0
  0
LINE
  5
430
330
3E1
100
AcDbEntity
  8
0
 62
     0
100
AcDbLine
 10
21.74610638501713
 20
8.81064878179643
 30
0.0
 11
20.34610638501712
 21
10.2106487817964
 31
0.0
  0
LINE
  5
431
330
3E1
100
AcDbEntity
  8
0
 62
     0
100
AcDbLine
 10
19.20036293472861
 20
11.35639223208491
 30
0.0
 11
18.93175551434211
 21
11.62499965247144
 31
0.0
  0
LINE
  5
432
330
3E1
100
AcDbEntity
  8
0
 62
     0
100
AcDbLine
 10
26.28288762234181
 20
4.273867544471755
 30
0.0
 11
25.07110638501718
 21
5.485648781796385
 31
0.0
  0
LINE
  5
433
330
3E1
100
AcDbEntity
  8
0
 62
     0
100
AcDbLine
 10
21.7461063850171
 20
8.361635975742956
 30
0.0
 11
20.34610638501712
 21
9.761635975742962
 31
0.0
  0
LINE
  5
434
330
3E1
100
AcDbEntity
  8
0
 62
     0
100
AcDbLine
 10
19.10089910260231
 20
11.00684325815774
 30
0.0
 11
18.48274270828867
 21
11.62499965247141
 31
0.0
  0
LINE
  5
435
330
3E1
100
AcDbEntity
  8
0
 62
     0
100
AcDbLine
 10
26.09139422325416
 20
4.016348137505929
 30
0.0
 11
25.02246379357391
 21
5.085278567186179
 31
0.0
  0
LINE
  5
436
330
3E1
100
AcDbEntity
  8
0
 62
     0
100
AcDbLine
 10
21.7461063850171
 20
7.91262316968951
 30
0.0
 11
20.34610638501712
 21
9.312623169689487
 31
0.0
  0
LINE
  5
437
330
3E1
100
AcDbEntity
  8
0
 62
     0
100
AcDbLine
 10
18.99313602914947
 20
10.66559352555711
 30
0.0
 11
18.03852824741418
 21
11.62020130729243
 31
0.0
  0
LINE
  5
438
330
3E1
100
AcDbEntity
  8
0
 62
     0
100
AcDbLine
 10
25.84823474069634
 20
3.81049481401024
 30
0.0
 11
24.68372990223523
 21
4.974999652471382
 31
0.0
  0
LINE
  5
439
330
3E1
100
AcDbEntity
  8
0
 62
     0
100
AcDbLine
 10
21.74610638501716
 20
7.463610363636036
 30
0.0
 11
20.34610638501712
 21
8.863610363636041
 31
0.0
  0
LINE
  5
43A
330
3E1
100
AcDbEntity
  8
0
 62
     0
100
AcDbLine
 10
18.88537295569671
 20
10.32434379295648
 30
0.0
 11
17.82137295569668
 21
11.3883437929565
 31
0.0
  0
LINE
  5
43B
330
3E1
100
AcDbEntity
  8
0
 62
     0
100
AcDbLine
 10
25.55019276646615
 20
3.65952398218701
 30
0.0
 11
24.23471709618179
 21
4.97499965247141
 31
0.0
  0
LINE
  5
43C
330
3E1
100
AcDbEntity
  8
0
 62
     0
100
AcDbLine
 10
21.74610638501716
 20
7.014597557582561
 30
0.0
 11
20.34610638501712
 21
8.414597557582595
 31
0.0
  0
LINE
  5
43D
330
3E1
100
AcDbEntity
  8
0
 62
     0
100
AcDbLine
 10
18.77760988224378
 20
9.983094060355938
 30
0.0
 11
17.71360988224379
 21
11.04709406035593
 31
0.0
  0
LINE
  5
43E
330
3E1
100
AcDbEntity
  8
0
 62
     0
100
AcDbLine
 10
25.18135644064242
 20
3.5793475019573
 30
0.0
 11
23.78570429012833
 21
4.974999652471382
 31
0.0
  0
LINE
  5
43F
330
3E1
100
AcDbEntity
  8
0
 62
     0
100
AcDbLine
 10
21.74610638501713
 20
6.565584751529115
 30
0.0
 11
20.34610638501709
 21
7.965584751529121
 31
0.0
  0
LINE
  5
440
330
3E1
100
AcDbEntity
  8
0
 62
     0
100
AcDbLine
 10
18.66984680879099
 20
9.641844327755251
 30
0.0
 11
17.60584680879094
 21
10.70584432775527
 31
0.0
  0
LINE
  5
441
330
3E1
100
AcDbEntity
  8
0
 62
     0
100
AcDbLine
 10
24.73669148407484
 20
3.574999652471376
 30
0.0
 11
23.33669148407486
 21
4.974999652471382
 31
0.0
  0
LINE
  5
442
330
3E1
100
AcDbEntity
  8
0
 62
     0
100
AcDbLine
 10
21.74610638501716
 20
6.116571945475669
 30
0.0
 11
20.34610638501712
 21
7.516571945475703
 31
0.0
  0
LINE
  5
443
330
3E1
100
AcDbEntity
  8
0
 62
     0
100
AcDbLine
 10
18.5620837353382
 20
9.30059459515462
 30
0.0
 11
17.49808373533813
 21
10.36459459515467
 31
0.0
  0
LINE
  5
444
330
3E1
100
AcDbEntity
  8
0
 62
     0
100
AcDbLine
 10
24.28767867802142
 20
3.574999652471404
 30
0.0
 11
23.07087282937326
 21
4.791805501119569
 31
0.0
  0
LINE
  5
445
330
3E1
100
AcDbEntity
  8
0
 62
     0
100
AcDbLine
 10
18.45432066188533
 20
8.959344862554019
 30
0.0
 11
17.39032066188531
 21
10.02334486255404
 31
0.0
  0
LINE
  5
446
330
3E1
100
AcDbEntity
  8
0
 62
     0
100
AcDbLine
 10
21.74610638501713
 20
5.667559139422195
 30
0.0
 11
20.34610638501712
 21
7.067559139422229
 31
0.0
  0
LINE
  5
447
330
3E1
100
AcDbEntity
  8
0
 62
     0
100
AcDbLine
 10
16.32110638501717
 20
11.09255913942218
 30
0.0
 11
15.78866587196793
 21
11.62499965247141
 31
0.0
  0
LINE
  5
448
330
3E1
100
AcDbEntity
  8
0
 62
     0
100
AcDbLine
 10
23.838665871968
 20
3.574999652471348
 30
0.0
 11
23.05860638501713
 21
4.355059139422223
 31
0.0
  0
LINE
  5
449
330
3E1
100
AcDbEntity
  8
0
 62
     0
100
AcDbLine
 10
18.34655758843249
 20
8.618095129953388
 30
0.0
 11
17.28255758843249
 21
9.682095129953381
 31
0.0
  0
LINE
  5
44A
330
3E1
100
AcDbEntity
  8
0
 62
     0
100
AcDbLine
 10
21.74610638501713
 20
5.218546333368749
 30
0.0
 11
20.34610638501709
 21
6.618546333368783
 31
0.0
  0
LINE
  5
44B
330
3E1
100
AcDbEntity
  8
0
 62
     0
100
AcDbLine
 10
16.32110638501714
 20
10.64354633336873
 30
0.0
 11
15.33965306591446
 21
11.62499965247139
 31
0.0
  0
LINE
  5
44C
330
3E1
100
AcDbEntity
  8
0
 62
     0
100
AcDbLine
 10
23.3896530659145
 20
3.574999652471376
 30
0.0
 11
23.0586063850171
 21
3.906046333368749
 31
0.0
  0
LINE
  5
44D
330
3E1
100
AcDbEntity
  8
0
 62
     0
100
AcDbLine
 10
18.23879451497964
 20
8.276845397352758
 30
0.0
 11
17.17479451497962
 21
9.340845397352779
 31
0.0
  0
LINE
  5
44E
330
3E1
100
AcDbEntity
  8
0
 62
     0
100
AcDbLine
 10
16.32110638501714
 20
10.19453352731526
 30
0.0
 11
14.98338392056828
 21
11.53225599176411
 31
0.0
  0
LINE
  5
44F
330
3E1
100
AcDbEntity
  8
0
 62
     0
100
AcDbLine
 10
21.74610638501713
 20
4.769533527315275
 30
0.0
 11
20.34610638501709
 21
6.169533527315309
 31
0.0
  0
LINE
  5
450
330
3E1
100
AcDbEntity
  8
0
 62
     0
100
AcDbLine
 10
18.13103144152683
 20
7.935595664752156
 30
0.0
 11
17.06703144152683
 21
8.999595664752149
 31
0.0
  0
LINE
  5
451
330
3E1
100
AcDbEntity
  8
0
 62
     0
100
AcDbLine
 10
16.32110638501714
 20
9.745520721261812
 30
0.0
 11
14.92110638501714
 21
11.14552072126184
 31
0.0
  0
LINE
  5
452
330
3E1
100
AcDbEntity
  8
0
 62
     0
100
AcDbLine
 10
21.74610638501713
 20
4.320520721261857
 30
0.0
 11
20.34610638501709
 21
5.720520721261863
 31
0.0
  0
LINE
  5
453
330
3E1
100
AcDbEntity
  8
0
 62
     0
100
AcDbLine
 10
18.02848718683089
 20
7.589127113394624
 30
0.0
 11
16.95926836807396
 21
8.658345932151547
 31
0.0
  0
LINE
  5
454
330
3E1
100
AcDbEntity
  8
0
 62
     0
100
AcDbLine
 10
16.32110638501714
 20
9.296507915208366
 30
0.0
 11
14.92110638501711
 21
10.69650791520837
 31
0.0
  0
LINE
  5
455
330
3E1
100
AcDbEntity
  8
0
 62
     0
100
AcDbLine
 10
21.74610638501716
 20
3.871507915208354
 30
0.0
 11
20.34610638501709
 21
5.271507915208417
 31
0.0
  0
LINE
  5
456
330
3E1
100
AcDbEntity
  8
0
 62
     0
100
AcDbLine
 10
18.23572386654788
 20
6.932877627624151
 30
0.0
 11
16.81399462023165
 21
8.354606873940383
 31
0.0
  0
LINE
  5
457
330
3E1
100
AcDbEntity
  8
0
 62
     0
100
AcDbLine
 10
16.32110638501714
 20
8.847495109154891
 30
0.0
 11
14.92110638501711
 21
10.24749510915492
 31
0.0
  0
LINE
  5
458
330
3E1
100
AcDbEntity
  8
0
 62
     0
100
AcDbLine
 10
21.5765838863509
 20
3.592017607821105
 30
0.0
 11
20.34610638501712
 21
4.822495109154914
 31
0.0
  0
LINE
  5
459
330
3E1
100
AcDbEntity
  8
0
 62
     0
100
AcDbLine
 10
18.44296054626491
 20
6.276628141853706
 30
0.0
 11
14.92110638501711
 21
9.798482303101479
 31
0.0
  0
LINE
  5
45A
330
3E1
100
AcDbEntity
  8
0
 62
     0
100
AcDbLine
 10
13.6961063850172
 20
11.02348230310141
 30
0.0
 11
13.0945890356472
 21
11.62499965247139
 31
0.0
  0
LINE
  5
45B
330
3E1
100
AcDbEntity
  8
0
 62
     0
100
AcDbLine
 10
21.14458903564724
 20
3.574999652471376
 30
0.0
 11
20.34610638501715
 21
4.373482303101468
 31
0.0
  0
LINE
  5
45C
330
3E1
100
AcDbEntity
  8
0
 62
     0
100
AcDbLine
 10
18.65019722598185
 20
5.620378656083261
 30
0.0
 11
14.92110638501711
 21
9.349469497048033
 31
0.0
  0
LINE
  5
45D
330
3E1
100
AcDbEntity
  8
0
 62
     0
100
AcDbLine
 10
13.69610638501714
 20
10.574469497048
 30
0.0
 11
12.64557622959376
 21
11.62499965247139
 31
0.0
  0
LINE
  5
45E
330
3E1
100
AcDbEntity
  8
0
 62
     0
100
AcDbLine
 10
20.69557622959374
 20
3.574999652471404
 30
0.0
 11
20.34610638501712
 21
3.924469497048022
 31
0.0
  0
LINE
  5
45F
330
3E1
100
AcDbEntity
  8
0
 62
     0
100
AcDbLine
 10
13.56265303732209
 20
10.25891003868958
 30
0.0
 11
12.21254217821638
 21
11.60902089779526
 31
0.0
  0
LINE
  5
460
330
3E1
100
AcDbEntity
  8
0
 62
     0
100
AcDbLine
 10
18.85743390569883
 20
4.964129170312844
 30
0.0
 11
14.92110638501711
 21
8.900456690994559
 31
0.0
  0
LINE
  5
461
330
3E1
100
AcDbEntity
  8
0
 62
     0
100
AcDbLine
 10
16.48986084618792
 20
6.882689423770301
 30
0.0
 11
14.92110638501717
 21
8.451443884941056
 31
0.0
  0
LINE
  5
462
330
3E1
100
AcDbEntity
  8
0
 62
     0
100
AcDbLine
 10
13.14755061748681
 20
10.22499965247141
 30
0.0
 11
11.84352064342275
 21
11.52902962653547
 31
0.0
  0
LINE
  5
463
330
3E1
100
AcDbEntity
  8
0
 62
     0
100
AcDbLine
 10
19.06467058541582
 20
4.307879684542399
 30
0.0
 11
17.01851673926188
 21
6.354033530696312
 31
0.0
  0
LINE
  5
464
330
3E1
100
AcDbEntity
  8
0
 62
     0
100
AcDbLine
 10
16.32110638501714
 20
6.602431078887633
 30
0.0
 11
14.92110638501714
 21
8.002431078887639
 31
0.0
  0
LINE
  5
465
330
3E1
100
AcDbEntity
  8
0
 62
     0
100
AcDbLine
 10
12.69853781143337
 20
10.22499965247138
 30
0.0
 11
11.52415993550738
 21
11.39937752839736
 31
0.0
  0
LINE
  5
466
330
3E1
100
AcDbEntity
  8
0
 62
     0
100
AcDbLine
 10
19.18219001427113
 20
3.741347449633622
 30
0.0
 11
17.22575341897885
 21
5.697784044925924
 31
0.0
  0
LINE
  5
467
330
3E1
100
AcDbEntity
  8
0
 62
     0
100
AcDbLine
 10
16.32110638501712
 20
6.153418272834187
 30
0.0
 11
14.92110638501714
 21
7.553418272834164
 31
0.0
  0
LINE
  5
468
330
3E1
100
AcDbEntity
  8
0
 62
     0
100
AcDbLine
 10
12.2769810601616
 20
10.1975435976897
 30
0.0
 11
11.24478544784011
 21
11.22973921001119
 31
0.0
  0
LINE
  5
469
330
3E1
100
AcDbEntity
  8
0
 62
     0
100
AcDbLine
 10
18.8995250053799
 20
3.574999652471404
 30
0.0
 11
17.43299009869582
 21
5.041534559155479
 31
0.0
  0
LINE
  5
46A
330
3E1
100
AcDbEntity
  8
0
 62
     0
100
AcDbLine
 10
16.32110638501712
 20
5.704405466780713
 30
0.0
 11
14.92110638501711
 21
7.10440546678069
 31
0.0
  0
LINE
  5
46B
330
3E1
100
AcDbEntity
  8
0
 62
     0
100
AcDbLine
 10
11.9910529637421
 20
10.03445888805572
 30
0.0
 11
11.00095784353422
 21
11.0245540082636
 31
0.0
  0
LINE
  5
46C
330
3E1
100
AcDbEntity
  8
0
 62
     0
100
AcDbLine
 10
18.45051219932645
 20
3.574999652471376
 30
0.0
 11
17.64022677841285
 21
4.385285073384977
 31
0.0
  0
LINE
  5
46D
330
3E1
100
AcDbEntity
  8
0
 62
     0
100
AcDbLine
 10
13.86382095141599
 20
7.712678094328424
 30
0.0
 11
13.10878482687411
 21
8.467714218870298
 31
0.0
  0
LINE
  5
46E
330
3E1
100
AcDbEntity
  8
0
 62
     0
100
AcDbLine
 10
16.32110638501717
 20
5.255392660727238
 30
0.0
 11
14.92110638501714
 21
6.655392660727272
 31
0.0
  0
LINE
  5
46F
330
3E1
100
AcDbEntity
  8
0
 62
     0
100
AcDbLine
 10
11.81299217867763
 20
9.76350686706678
 30
0.0
 11
10.7912748305286
 21
10.7852242152158
 31
0.0
  0
LINE
  5
470
330
3E1
100
AcDbEntity
  8
0
 62
     0
100
AcDbLine
 10
17.97633289117072
 20
3.600166154573685
 30
0.0
 11
17.85115580537507
 21
3.72534324036934
 31
0.0
  0
LINE
  5
471
330
3E1
100
AcDbEntity
  8
0
 62
     0
100
AcDbLine
 10
13.82056412134503
 20
7.306922118345909
 30
0.0
 11
12.7030288508916
 21
8.424457388799339
 31
0.0
  0
LINE
  5
472
330
3E1
100
AcDbEntity
  8
0
 62
     0
100
AcDbLine
 10
11.77110638501716
 20
9.356379854673775
 30
0.0
 11
10.61680532004777
 21
10.51068091964316
 31
0.0
  0
LINE
  5
473
330
3E1
100
AcDbEntity
  8
0
 62
     0
100
AcDbLine
 10
16.32110638501714
 20
4.806379854673764
 30
0.0
 11
14.92110638501714
 21
6.206379854673798
 31
0.0
  0
LINE
  5
474
330
3E1
100
AcDbEntity
  8
0
 62
     0
100
AcDbLine
 10
13.654636341696
 20
7.02383709194143
 30
0.0
 11
12.41994382448712
 21
8.258529609150315
 31
0.0
  0
LINE
  5
475
330
3E1
100
AcDbEntity
  8
0
 62
     0
100
AcDbLine
 10
11.77110638501716
 20
8.907367048620301
 30
0.0
 11
10.48151546644269
 21
10.19695796719477
 31
0.0
  0
LINE
  5
476
330
3E1
100
AcDbEntity
  8
0
 62
     0
100
AcDbLine
 10
16.32110638501714
 20
4.357367048620318
 30
0.0
 11
14.92110638501711
 21
5.757367048620352
 31
0.0
  0
LINE
  5
477
330
3E1
100
AcDbEntity
  8
0
 62
     0
100
AcDbLine
 10
11.77110638501716
 20
8.458354242566855
 30
0.0
 11
10.39415852997976
 21
9.835302097604284
 31
0.0
  0
LINE
  5
478
330
3E1
100
AcDbEntity
  8
0
 62
     0
100
AcDbLine
 10
13.40371962062778
 20
6.825741006956263
 30
0.0
 11
12.22184773950195
 21
8.007612888082093
 31
0.0
  0
LINE
  5
479
330
3E1
100
AcDbEntity
  8
0
 62
     0
100
AcDbLine
 10
9.058606385017128
 20
11.17085424256692
 30
0.0
 11
8.60446097511263
 21
11.62499965247141
 31
0.0
  0
LINE
  5
47A
330
3E1
100
AcDbEntity
  8
0
 62
     0
100
AcDbLine
 10
16.32110638501717
 20
3.908354242566872
 30
0.0
 11
14.92110638501714
 21
5.308354242566906
 31
0.0
  0
LINE
  5
47B
330
3E1
100
AcDbEntity
  8
0
 62
     0
100
AcDbLine
 10
11.77110638501716
 20
8.009341436513409
 30
0.0
 11
10.37110638501713
 21
9.409341436513443
 31
0.0
  0
LINE
  5
47C
330
3E1
100
AcDbEntity
  8
0
 62
     0
100
AcDbLine
 10
13.05355989941407
 20
6.726887922116503
 30
0.0
 11
12.12299465466219
 21
7.657453166868378
 31
0.0
  0
LINE
  5
47D
330
3E1
100
AcDbEntity
  8
0
 62
     0
100
AcDbLine
 10
9.0586063850171
 20
10.72184143651344
 30
0.0
 11
8.155448169059155
 21
11.62499965247139
 31
0.0
  0
LINE
  5
47E
330
3E1
100
AcDbEntity
  8
0
 62
     0
100
AcDbLine
 10
16.17715448438181
 20
3.603293337148755
 30
0.0
 11
14.92110638501711
 21
4.859341436513432
 31
0.0
  0
LINE
  5
47F
330
3E1
100
AcDbEntity
  8
0
 62
     0
100
AcDbLine
 10
11.77110638501716
 20
7.560328630459935
 30
0.0
 11
10.37110638501713
 21
8.960328630459969
 31
0.0
  0
LINE
  5
480
330
3E1
100
AcDbEntity
  8
0
 62
     0
100
AcDbLine
 10
9.004089399881934
 20
10.32734561559516
 30
0.0
 11
7.706435363005653
 21
11.62499965247141
 31
0.0
  0
LINE
  5
481
330
3E1
100
AcDbEntity
  8
0
 62
     0
100
AcDbLine
 10
15.75643536300572
 20
3.574999652471376
 30
0.0
 11
14.92110638501711
 21
4.410328630459986
 31
0.0
  0
LINE
  5
482
330
3E1
100
AcDbEntity
  8
0
 62
     0
100
AcDbLine
 10
11.77110638501713
 20
7.111315824406489
 30
0.0
 11
10.3711063850171
 21
8.511315824406494
 31
0.0
  0
LINE
  5
483
330
3E1
100
AcDbEntity
  8
0
 62
     0
100
AcDbLine
 10
8.657422556952241
 20
10.22499965247138
 30
0.0
 11
7.257422556952207
 21
11.62499965247141
 31
0.0
  0
LINE
  5
484
330
3E1
100
AcDbEntity
  8
0
 62
     0
100
AcDbLine
 10
15.30742255695225
 20
3.574999652471348
 30
0.0
 11
14.92110638501711
 21
3.961315824406511
 31
0.0
  0
LINE
  5
485
330
3E1
100
AcDbEntity
  8
0
 62
     0
100
AcDbLine
 10
11.77110638501719
 20
6.662303018353014
 30
0.0
 11
10.37110638501713
 21
8.062303018353077
 31
0.0
  0
LINE
  5
486
330
3E1
100
AcDbEntity
  8
0
 62
     0
100
AcDbLine
 10
8.208409750898795
 20
10.22499965247141
 30
0.0
 11
6.825845114846373
 21
11.60756428852383
 31
0.0
  0
LINE
  5
487
330
3E1
100
AcDbEntity
  8
0
 62
     0
100
AcDbLine
 10
13.69480516059866
 20
4.738604242771515
 30
0.0
 11
13.4597109753173
 21
4.973698428052898
 31
0.0
  0
LINE
  5
488
330
3E1
100
AcDbEntity
  8
0
 62
     0
100
AcDbLine
 10
11.77110638501719
 20
6.21329021229954
 30
0.0
 11
10.37110638501713
 21
7.613290212299602
 31
0.0
  0
LINE
  5
489
330
3E1
100
AcDbEntity
  8
0
 62
     0
100
AcDbLine
 10
7.75939694484532
 20
10.22499965247138
 30
0.0
 11
6.479277710607135
 21
11.50511888670959
 31
0.0
  0
LINE
  5
48A
330
3E1
100
AcDbEntity
  8
0
 62
     0
100
AcDbLine
 10
13.69610638501717
 20
4.288290212299557
 30
0.0
 11
13.00939694484535
 21
4.974999652471382
 31
0.0
  0
LINE
  5
48B
330
3E1
100
AcDbEntity
  8
0
 62
     0
100
AcDbLine
 10
11.77110638501716
 20
5.764277406246065
 30
0.0
 11
10.37110638501715
 21
7.1642774062461
 31
0.0
  0
LINE
  5
48C
330
3E1
100
AcDbEntity
  8
0
 62
     0
100
AcDbLine
 10
7.310384138791818
 20
10.22499965247141
 30
0.0
 11
6.197154380683514
 21
11.33822941057971
 31
0.0
  0
LINE
  5
48D
330
3E1
100
AcDbEntity
  8
0
 62
     0
100
AcDbLine
 10
13.69610638501714
 20
3.839277406246083
 30
0.0
 11
12.56038413879184
 21
4.97499965247141
 31
0.0
  0
LINE
  5
48E
330
3E1
100
AcDbEntity
  8
0
 62
     0
100
AcDbLine
 10
7.055237724984607
 20
10.03113326022523
 30
0.0
 11
5.968107974563139
 21
11.1182630106467
 31
0.0
  0
LINE
  5
48F
330
3E1
100
AcDbEntity
  8
0
 62
     0
100
AcDbLine
 10
13.50223999277097
 20
3.584130992438872
 30
0.0
 11
10.37110638501715
 21
6.715264600192682
 31
0.0
  0
LINE
  5
490
330
3E1
100
AcDbEntity
  8
0
 62
     0
100
AcDbLine
 10
7.046106385017139
 20
9.591251794139225
 30
0.0
 11
5.791367373328597
 21
10.84599080582776
 31
0.0
  0
LINE
  5
491
330
3E1
100
AcDbEntity
  8
0
 62
     0
100
AcDbLine
 10
13.06235852668502
 20
3.574999652471348
 30
0.0
 11
10.37110638501715
 21
6.266251794139208
 31
0.0
  0
LINE
  5
492
330
3E1
100
AcDbEntity
  8
0
 62
     0
100
AcDbLine
 10
7.077174239084854
 20
9.111171134018007
 30
0.0
 11
5.675927322181735
 21
10.51241805092115
 31
0.0
  0
LINE
  5
493
330
3E1
100
AcDbEntity
  8
0
 62
     0
100
AcDbLine
 10
12.61334572063151
 20
3.574999652471376
 30
0.0
 11
10.37110638501713
 21
5.817238988085733
 31
0.0
  0
LINE
  5
494
330
3E1
100
AcDbEntity
  8
0
 62
     0
100
AcDbLine
 10
9.22329443062847
 20
6.516038136420974
 30
0.0
 11
5.646106385017162
 21
10.09322618203228
 31
0.0
  0
LINE
  5
495
330
3E1
100
AcDbEntity
  8
0
 62
     0
100
AcDbLine
 10
12.13769687104974
 20
3.601635695999704
 30
0.0
 11
10.39774242854545
 21
5.341590138503988
 31
0.0
  0
LINE
  5
496
330
3E1
100
AcDbEntity
  8
0
 62
     0
100
AcDbLine
 10
9.31924168767108
 20
5.971078073324918
 30
0.0
 11
5.646106385017134
 21
9.644213375978836
 31
0.0
  0
LINE
  5
497
330
3E1
100
AcDbEntity
  8
0
 62
     0
100
AcDbLine
 10
11.45079291474894
 20
3.839526846247025
 30
0.0
 11
10.63563357879275
 21
4.654686182203249
 31
0.0
  0
LINE
  5
498
330
3E1
100
AcDbEntity
  8
0
 62
     0
100
AcDbLine
 10
9.321106385017174
 20
5.52020056992535
 30
0.0
 11
5.649888608728304
 21
9.191418346214192
 31
0.0
  0
LINE
  5
499
330
3E1
100
AcDbEntity
  8
0
 62
     0
100
AcDbLine
 10
9.321106385017117
 20
5.071187763871932
 30
0.0
 11
5.761533987890231
 21
8.630760160998789
 31
0.0
  0
LINE
  5
49A
330
3E1
100
AcDbEntity
  8
0
 62
     0
100
AcDbLine
 10
9.284846386951159
 20
4.658434955884473
 30
0.0
 11
7.903150565141629
 21
6.040130777694002
 31
0.0
  0
LINE
  5
49B
330
3E1
100
AcDbEntity
  8
0
 62
     0
100
AcDbLine
 10
9.163877417436737
 20
4.330391119345421
 30
0.0
 11
7.921106385017139
 21
5.573162151765018
 31
0.0
  0
LINE
  5
49C
330
3E1
100
AcDbEntity
  8
0
 62
     0
100
AcDbLine
 10
8.982817793745851
 20
4.062437936982831
 30
0.0
 11
7.903156868866773
 21
5.14209886186191
 31
0.0
  0
LINE
  5
49D
330
3E1
100
AcDbEntity
  8
0
 62
     0
100
AcDbLine
 10
8.749704607612414
 20
3.846538317062822
 30
0.0
 11
7.621243272203855
 21
4.97499965247141
 31
0.0
  0
LINE
  5
49E
330
3E1
100
AcDbEntity
  8
0
 62
     0
100
AcDbLine
 10
8.463072383746009
 20
3.684157734875782
 30
0.0
 11
7.172230466150381
 21
4.974999652471382
 31
0.0
  0
LINE
  5
49F
330
3E1
100
AcDbEntity
  8
0
 62
     0
100
AcDbLine
 10
8.11036608920304
 20
3.587851223365277
 30
0.0
 11
6.723217660096935
 21
4.974999652471382
 31
0.0
  0
LINE
  5
4A0
330
3E1
100
AcDbEntity
  8
0
 62
     0
100
AcDbLine
 10
7.674204854043466
 20
3.574999652471376
 30
0.0
 11
6.27420485404346
 21
4.974999652471382
 31
0.0
  0
LINE
  5
4A1
330
3E1
100
AcDbEntity
  8
0
 62
     0
100
AcDbLine
 10
7.225192047990049
 20
3.574999652471348
 30
0.0
 11
5.948530100581109
 21
4.851661599880316
 31
0.0
  0
LINE
  5
4A2
330
3E1
100
AcDbEntity
  8
0
 62
     0
100
AcDbLine
 10
6.776179241936546
 20
3.574999652471376
 30
0.0
 11
5.908606385017151
 21
4.442572509390771
 31
0.0
  0
LINE
  5
4A3
330
3E1
100
AcDbEntity
  8
0
 62
     0
100
AcDbLine
 10
6.327166435883128
 20
3.574999652471348
 30
0.0
 11
5.908606385017151
 21
3.993559703337325
 31
0.0
  0
LINE
  5
4A4
330
3E1
100
AcDbEntity
  8
0
 62
     0
100
AcDbLine
 10
34.3169500273506
 20
3.58156554103013
 30
0.0
 11
34.5145404964585
 21
3.779156010138024
 31
0.0
  0
LINE
  5
4A5
330
3E1
100
AcDbEntity
  8
0
 62
     0
100
AcDbLine
 10
33.86137133273837
 20
3.574999652471319
 30
0.0
 11
34.52110638501722
 21
4.234734704750167
 31
0.0
  0
LINE
  5
4A6
330
3E1
100
AcDbEntity
  8
0
 62
     0
100
AcDbLine
 10
33.41235852668493
 20
3.574999652471319
 30
0.0
 11
34.52110638501722
 21
4.683747510803613
 31
0.0
  0
LINE
  5
4A7
330
3E1
100
AcDbEntity
  8
0
 62
     0
100
AcDbLine
 10
33.13670516664306
 20
3.748359098482922
 30
0.0
 11
34.52110638501719
 21
5.132760316857087
 31
0.0
  0
LINE
  5
4A8
330
3E1
100
AcDbEntity
  8
0
 62
     0
100
AcDbLine
 10
33.12110638501716
 20
4.181773122910499
 30
0.0
 11
34.52110638501719
 21
5.581773122910504
 31
0.0
  0
LINE
  5
4A9
330
3E1
100
AcDbEntity
  8
0
 62
     0
100
AcDbLine
 10
33.12110638501719
 20
4.630785928963945
 30
0.0
 11
34.52110638501719
 21
6.030785928963979
 31
0.0
  0
LINE
  5
4AA
330
3E1
100
AcDbEntity
  8
0
 62
     0
100
AcDbLine
 10
33.12110638501716
 20
5.079798735017419
 30
0.0
 11
34.52110638501719
 21
6.479798735017453
 31
0.0
  0
LINE
  5
4AB
330
3E1
100
AcDbEntity
  8
0
 62
     0
100
AcDbLine
 10
33.12110638501716
 20
5.528811541070865
 30
0.0
 11
34.52110638501719
 21
6.928811541070899
 31
0.0
  0
LINE
  5
4AC
330
3E1
100
AcDbEntity
  8
0
 62
     0
100
AcDbLine
 10
31.3343888160498
 20
3.742093972103504
 30
0.0
 11
31.90401206538508
 21
4.311717221438811
 31
0.0
  0
LINE
  5
4AD
330
3E1
100
AcDbEntity
  8
0
 62
     0
100
AcDbLine
 10
33.12110638501716
 20
5.977824347124311
 30
0.0
 11
34.52110638501719
 21
7.377824347124345
 31
0.0
  0
LINE
  5
4AE
330
3E1
100
AcDbEntity
  8
0
 62
     0
100
AcDbLine
 10
30.7191047327884
 20
3.575822694895549
 30
0.0
 11
32.07028334259306
 21
4.927001304700183
 31
0.0
  0
LINE
  5
4AF
330
3E1
100
AcDbEntity
  8
0
 62
     0
100
AcDbLine
 10
33.12110638501716
 20
6.426837153177785
 30
0.0
 11
34.52110638501719
 21
7.826837153177791
 31
0.0
  0
LINE
  5
4B0
330
3E1
100
AcDbEntity
  8
0
 62
     0
100
AcDbLine
 10
30.26926888431069
 20
3.574999652471319
 30
0.0
 11
32.0711063850172
 21
5.376837153177802
 31
0.0
  0
LINE
  5
4B1
330
3E1
100
AcDbEntity
  8
0
 62
     0
100
AcDbLine
 10
33.12110638501716
 20
6.875849959231231
 30
0.0
 11
34.52110638501717
 21
8.275849959231265
 31
0.0
  0
LINE
  5
4B2
330
3E1
100
AcDbEntity
  8
0
 62
     0
100
AcDbLine
 10
29.82025607825725
 20
3.574999652471319
 30
0.0
 11
32.07110638501717
 21
5.825849959231277
 31
0.0
  0
LINE
  5
4B3
330
3E1
100
AcDbEntity
  8
0
 62
     0
100
AcDbLine
 10
33.12110638501716
 20
7.324862765284677
 30
0.0
 11
34.52110638501719
 21
8.724862765284711
 31
0.0
  0
LINE
  5
4B4
330
3E1
100
AcDbEntity
  8
0
 62
     0
100
AcDbLine
 10
29.37124327220383
 20
3.574999652471348
 30
0.0
 11
32.0711063850172
 21
6.274862765284723
 31
0.0
  0
LINE
  5
4B5
330
3E1
100
AcDbEntity
  8
0
 62
     0
100
AcDbLine
 10
30.61881078397664
 20
5.271579970297636
 30
0.0
 11
32.0711063850172
 21
6.723875571338169
 31
0.0
  0
LINE
  5
4B6
330
3E1
100
AcDbEntity
  8
0
 62
     0
100
AcDbLine
 10
33.12110638501716
 20
7.773875571338123
 30
0.0
 11
34.52110638501719
 21
9.173875571338157
 31
0.0
  0
LINE
  5
4B7
330
3E1
100
AcDbEntity
  8
0
 62
     0
100
AcDbLine
 10
28.92223046615033
 20
3.574999652471319
 30
0.0
 11
30.37452606719089
 21
5.027295253511852
 31
0.0
  0
LINE
  5
4B8
330
3E1
100
AcDbEntity
  8
0
 62
     0
100
AcDbLine
 10
30.67110638501714
 20
5.772888377391609
 30
0.0
 11
32.07110638501717
 21
7.172888377391643
 31
0.0
  0
LINE
  5
4B9
330
3E1
100
AcDbEntity
  8
0
 62
     0
100
AcDbLine
 10
33.12110638501713
 20
8.222888377391598
 30
0.0
 11
34.52110638501717
 21
9.622888377391632
 31
0.0
  0
LINE
  5
4BA
330
3E1
100
AcDbEntity
  8
0
 62
     0
100
AcDbLine
 10
28.52919253578548
 20
3.630974528159924
 30
0.0
 11
29.87321766009691
 21
4.974999652471353
 31
0.0
  0
LINE
  5
4BB
330
3E1
100
AcDbEntity
  8
0
 62
     0
100
AcDbLine
 10
30.67110638501717
 20
6.221901183445112
 30
0.0
 11
32.07110638501717
 21
7.621901183445089
 31
0.0
  0
LINE
  5
4BC
330
3E1
100
AcDbEntity
  8
0
 62
     0
100
AcDbLine
 10
33.12110638501713
 20
8.671901183445072
 30
0.0
 11
34.52110638501717
 21
10.07190118344508
 31
0.0
  0
LINE
  5
4BD
330
3E1
100
AcDbEntity
  8
0
 62
     0
100
AcDbLine
 10
28.21519910218041
 20
3.76599390060835
 30
0.0
 11
29.42464374686563
 21
4.97543854529357
 31
0.0
  0
LINE
  5
4BE
330
3E1
100
AcDbEntity
  8
0
 62
     0
100
AcDbLine
 10
30.6711063850172
 20
6.670913989498558
 30
0.0
 11
32.07110638501717
 21
8.070913989498535
 31
0.0
  0
LINE
  5
4BF
330
3E1
100
AcDbEntity
  8
0
 62
     0
100
AcDbLine
 10
33.12110638501716
 20
9.12091398949849
 30
0.0
 11
34.52110638501717
 21
10.52091398949852
 31
0.0
  0
LINE
  5
4C0
330
3E1
100
AcDbEntity
  8
0
 62
     0
100
AcDbLine
 10
27.95856916149788
 20
3.95837676597921
 30
0.0
 11
29.10290445250928
 21
5.10271205699064
 31
0.0
  0
LINE
  5
4C1
330
3E1
100
AcDbEntity
  8
0
 62
     0
100
AcDbLine
 10
30.6711063850172
 20
7.119926795552004
 30
0.0
 11
32.07110638501717
 21
8.519926795552009
 31
0.0
  0
LINE
  5
4C2
330
3E1
100
AcDbEntity
  8
0
 62
     0
100
AcDbLine
 10
33.12110638501713
 20
9.569926795551964
 30
0.0
 11
34.52110638501717
 21
10.969926795552
 31
0.0
  0
LINE
  5
4C3
330
3E1
100
AcDbEntity
  8
0
 62
     0
100
AcDbLine
 10
27.75358707388531
 20
4.20240748442012
 30
0.0
 11
28.93428531330457
 21
5.383105723839406
 31
0.0
  0
LINE
  5
4C4
330
3E1
100
AcDbEntity
  8
0
 62
     0
100
AcDbLine
 10
30.67110638501717
 20
7.568939601605478
 30
0.0
 11
32.0711063850172
 21
8.968939601605512
 31
0.0
  0
LINE
  5
4C5
330
3E1
100
AcDbEntity
  8
0
 62
     0
100
AcDbLine
 10
33.12110638501713
 20
10.01893960160541
 30
0.0
 11
34.51603180824193
 21
11.41386502483024
 31
0.0
  0
LINE
  5
4C6
330
3E1
100
AcDbEntity
  8
0
 62
     0
100
AcDbLine
 10
27.60362463466831
 20
4.501457851256617
 30
0.0
 11
28.92110638501717
 21
5.81893960160545
 31
0.0
  0
LINE
  5
4C7
330
3E1
100
AcDbEntity
  8
0
 62
     0
100
AcDbLine
 10
30.6711063850172
 20
8.017952407658896
 30
0.0
 11
32.07110638501723
 21
9.41795240765893
 31
0.0
  0
LINE
  5
4C8
330
3E1
100
AcDbEntity
  8
0
 62
     0
100
AcDbLine
 10
33.12110638501713
 20
10.46795240765885
 30
0.0
 11
34.27747463570219
 21
11.62432065834392
 31
0.0
  0
LINE
  5
4C9
330
3E1
100
AcDbEntity
  8
0
 62
     0
100
AcDbLine
 10
27.52491786719009
 20
4.871763889831811
 30
0.0
 11
28.92110638501717
 21
6.267952407658896
 31
0.0
  0
LINE
  5
4CA
330
3E1
100
AcDbEntity
  8
0
 62
     0
100
AcDbLine
 10
30.67110638501717
 20
8.46696521371237
 30
0.0
 11
32.0711063850172
 21
9.866965213712404
 31
0.0
  0
LINE
  5
4CB
330
3E1
100
AcDbEntity
  8
0
 62
     0
100
AcDbLine
 10
33.12110638501716
 20
10.91696521371236
 30
0.0
 11
33.82914082377616
 21
11.62499965247136
 31
0.0
  0
LINE
  5
4CC
330
3E1
100
AcDbEntity
  8
0
 62
     0
100
AcDbLine
 10
27.52110638501719
 20
5.316965213712364
 30
0.0
 11
28.9211063850172
 21
6.716965213712398
 31
0.0
  0
LINE
  5
4CD
330
3E1
100
AcDbEntity
  8
0
 62
     0
100
AcDbLine
 10
30.67110638501717
 20
8.915978019765844
 30
0.0
 11
32.0711063850172
 21
10.31597801976585
 31
0.0
  0
LINE
  5
4CE
330
3E1
100
AcDbEntity
  8
0
 62
     0
100
AcDbLine
 10
27.52110638501716
 20
5.765978019765839
 30
0.0
 11
28.9211063850172
 21
7.165978019765873
 31
0.0
  0
LINE
  5
4CF
330
3E1
100
AcDbEntity
  8
0
 62
     0
100
AcDbLine
 10
33.12112974239088
 20
11.36600137713955
 30
0.0
 11
33.38010466034902
 21
11.62497629509767
 31
0.0
  0
LINE
  5
4D0
330
3E1
100
AcDbEntity
  8
0
 62
     0
100
AcDbLine
 10
25.36032856966116
 20
3.605200204409811
 30
0.0
 11
26.44090583307875
 21
4.685777467827421
 31
0.0
  0
LINE
  5
4D1
330
3E1
100
AcDbEntity
  8
0
 62
     0
100
AcDbLine
 10
27.52110638501716
 20
6.214990825819285
 30
0.0
 11
28.9211063850172
 21
7.614990825819319
 31
0.0
  0
LINE
  5
4D2
330
3E1
100
AcDbEntity
  8
0
 62
     0
100
AcDbLine
 10
30.67110638501717
 20
9.36499082581929
 30
0.0
 11
32.07110638501717
 21
10.76499082581932
 31
0.0
  0
LINE
  5
4D3
330
3E1
100
AcDbEntity
  8
0
 62
     0
100
AcDbLine
 10
24.88111521166923
 20
3.574999652471376
 30
0.0
 11
26.47110638501715
 21
5.164990825819302
 31
0.0
  0
LINE
  5
4D4
330
3E1
100
AcDbEntity
  8
0
 62
     0
100
AcDbLine
 10
27.52110638501716
 20
6.664003631872731
 30
0.0
 11
28.9211063850172
 21
8.064003631872765
 31
0.0
  0
LINE
  5
4D5
330
3E1
100
AcDbEntity
  8
0
 62
     0
100
AcDbLine
 10
30.67110638501717
 20
9.814003631872736
 30
0.0
 11
32.0711063850172
 21
11.21400363187277
 31
0.0
  0
LINE
  5
4D6
330
3E1
100
AcDbEntity
  8
0
 62
     0
100
AcDbLine
 10
24.43210240561578
 20
3.574999652471348
 30
0.0
 11
26.47110638501718
 21
5.614003631872719
 31
0.0
  0
LINE
  5
4D7
330
3E1
100
AcDbEntity
  8
0
 62
     0
100
AcDbLine
 10
27.52110638501716
 20
7.113016437926205
 30
0.0
 11
28.9211063850172
 21
8.513016437926211
 31
0.0
  0
LINE
  5
4D8
330
3E1
100
AcDbEntity
  8
0
 62
     0
100
AcDbLine
 10
30.67110638501717
 20
10.26301643792618
 30
0.0
 11
31.97423765760013
 21
11.56614771050917
 31
0.0
  0
LINE
  5
4D9
330
3E1
100
AcDbEntity
  8
0
 62
     0
100
AcDbLine
 10
23.98308959956233
 20
3.574999652471376
 30
0.0
 11
26.46394708481068
 21
6.055857137719726
 31
0.0
  0
LINE
  5
4DA
330
3E1
100
AcDbEntity
  8
0
 62
     0
100
AcDbLine
 10
27.52110638501716
 20
7.562029243979651
 30
0.0
 11
28.92110638501717
 21
8.962029243979685
 31
0.0
  0
LINE
  5
4DB
330
3E1
100
AcDbEntity
  8
0
 62
     0
100
AcDbLine
 10
30.67110638501714
 20
10.71202924397965
 30
0.0
 11
31.58407679350887
 21
11.62499965247139
 31
0.0
  0
LINE
  5
4DC
330
3E1
100
AcDbEntity
  8
0
 62
     0
100
AcDbLine
 10
23.53407679350886
 20
3.574999652471376
 30
0.0
 11
26.39649089949632
 21
6.437413758458802
 31
0.0
  0
LINE
  5
4DD
330
3E1
100
AcDbEntity
  8
0
 62
     0
100
AcDbLine
 10
27.52110638501716
 20
8.011042050033097
 30
0.0
 11
28.9211063850172
 21
9.411042050033131
 31
0.0
  0
LINE
  5
4DE
330
3E1
100
AcDbEntity
  8
0
 62
     0
100
AcDbLine
 10
25.07110638501723
 20
5.561042050033137
 30
0.0
 11
26.27619717103704
 21
6.766132836052946
 31
0.0
  0
LINE
  5
4DF
330
3E1
100
AcDbEntity
  8
0
 62
     0
100
AcDbLine
 10
30.67110638501717
 20
11.1610420500331
 30
0.0
 11
31.13506398745546
 21
11.62499965247139
 31
0.0
  0
LINE
  5
4E0
330
3E1
100
AcDbEntity
  8
0
 62
     0
100
AcDbLine
 10
23.14919166402098
 20
3.639127329036909
 30
0.0
 11
24.48506398745542
 21
4.974999652471353
 31
0.0
  0
LINE
  5
4E1
330
3E1
100
AcDbEntity
  8
0
 62
     0
100
AcDbLine
 10
25.06117109745352
 20
6.000119568522904
 30
0.0
 11
26.11444751860677
 21
7.053395989676147
 31
0.0
  0
LINE
  5
4E2
330
3E1
100
AcDbEntity
  8
0
 62
     0
100
AcDbLine
 10
27.52110638501716
 20
8.460054856086543
 30
0.0
 11
28.92110638501717
 21
9.860054856086577
 31
0.0
  0
LINE
  5
4E3
330
3E1
100
AcDbEntity
  8
0
 62
     0
100
AcDbLine
 10
23.05860638501719
 20
3.997554856086566
 30
0.0
 11
24.03605118140195
 21
4.974999652471353
 31
0.0
  0
LINE
  5
4E4
330
3E1
100
AcDbEntity
  8
0
 62
     0
100
AcDbLine
 10
24.92397867888409
 20
6.311939956006966
 30
0.0
 11
25.91651195964286
 21
7.304473236765744
 31
0.0
  0
LINE
  5
4E5
330
3E1
100
AcDbEntity
  8
0
 62
     0
100
AcDbLine
 10
27.52110638501714
 20
8.909067662140017
 30
0.0
 11
28.92110638501717
 21
10.30906766214005
 31
0.0
  0
LINE
  5
4E6
330
3E1
100
AcDbEntity
  8
0
 62
     0
100
AcDbLine
 10
23.05860638501716
 20
4.44656766214004
 30
0.0
 11
23.5870383753485
 21
4.974999652471382
 31
0.0
  0
LINE
  5
4E7
330
3E1
100
AcDbEntity
  8
0
 62
     0
100
AcDbLine
 10
27.52110638501716
 20
9.358080468193463
 30
0.0
 11
28.9211063850172
 21
10.75808046819347
 31
0.0
  0
LINE
  5
4E8
330
3E1
100
AcDbEntity
  8
0
 62
     0
100
AcDbLine
 10
24.70334123032555
 20
6.540315313501821
 30
0.0
 11
25.69329072398671
 21
7.530264807162978
 31
0.0
  0
LINE
  5
4E9
330
3E1
100
AcDbEntity
  8
0
 62
     0
100
AcDbLine
 10
24.47883482729881
 20
6.764821716528558
 30
0.0
 11
25.46878432095997
 21
7.754771210189716
 31
0.0
  0
LINE
  5
4EA
330
3E1
100
AcDbEntity
  8
0
 62
     0
100
AcDbLine
 10
27.52110638501714
 20
9.807093274246909
 30
0.0
 11
28.92110638501717
 21
11.20709327424694
 31
0.0
  0
LINE
  5
4EB
330
3E1
100
AcDbEntity
  8
0
 62
     0
100
AcDbLine
 10
21.28901276324157
 20
3.574999652471348
 30
0.0
 11
21.74610638501716
 21
4.032093274246904
 31
0.0
  0
LINE
  5
4EC
330
3E1
100
AcDbEntity
  8
0
 62
     0
100
AcDbLine
 10
24.25432842427208
 20
6.989328119555295
 30
0.0
 11
25.24427791793323
 21
7.979277613216453
 31
0.0
  0
LINE
  5
4ED
330
3E1
100
AcDbEntity
  8
0
 62
     0
100
AcDbLine
 10
27.52110638501714
 20
10.25610608030038
 30
0.0
 11
28.82801593096784
 21
11.56301562625106
 31
0.0
  0
LINE
  5
4EE
330
3E1
100
AcDbEntity
  8
0
 62
     0
100
AcDbLine
 10
20.8399999571881
 20
3.574999652471348
 30
0.0
 11
21.74610638501718
 21
4.481106080300406
 31
0.0
  0
LINE
  5
4EF
330
3E1
100
AcDbEntity
  8
0
 62
     0
100
AcDbLine
 10
24.02982202124534
 20
7.213834522582033
 30
0.0
 11
25.01977151490649
 21
8.20378401624319
 31
0.0
  0
LINE
  5
4F0
330
3E1
100
AcDbEntity
  8
0
 62
     0
100
AcDbLine
 10
27.52110638501714
 20
10.70511888635383
 30
0.0
 11
28.44098715113469
 21
11.62499965247141
 31
0.0
  0
LINE
  5
4F1
330
3E1
100
AcDbEntity
  8
0
 62
     0
100
AcDbLine
 10
20.44679272006565
 20
3.63080522140234
 30
0.0
 11
21.74610638501716
 21
4.930118886353881
 31
0.0
  0
LINE
  5
4F2
330
3E1
100
AcDbEntity
  8
0
 62
     0
100
AcDbLine
 10
23.80531561821863
 20
7.438340925608741
 30
0.0
 11
24.79526511187979
 21
8.428290419269899
 31
0.0
  0
LINE
  5
4F3
330
3E1
100
AcDbEntity
  8
0
 62
     0
100
AcDbLine
 10
27.52110638501714
 20
11.15413169240727
 30
0.0
 11
27.99197434508128
 21
11.62499965247139
 31
0.0
  0
LINE
  5
4F4
330
3E1
100
AcDbEntity
  8
0
 62
     0
100
AcDbLine
 10
20.34610638501718
 20
3.979131692407321
 30
0.0
 11
21.74610638501718
 21
5.379131692407298
 31
0.0
  0
LINE
  5
4F5
330
3E1
100
AcDbEntity
  8
0
 62
     0
100
AcDbLine
 10
23.58080921519189
 20
7.662847328635479
 30
0.0
 11
24.57075870885305
 21
8.652796822296636
 31
0.0
  0
LINE
  5
4F6
330
3E1
100
AcDbEntity
  8
0
 62
     0
100
AcDbLine
 10
20.34610638501718
 20
4.428144498460795
 30
0.0
 11
21.74610638501716
 21
5.828144498460773
 31
0.0
  0
LINE
  5
4F7
330
3E1
100
AcDbEntity
  8
0
 62
     0
100
AcDbLine
 10
23.35731726467122
 20
7.888368184168314
 30
0.0
 11
24.34930403136224
 21
8.880354950859299
 31
0.0
  0
LINE
  5
4F8
330
3E1
100
AcDbEntity
  8
0
 62
     0
100
AcDbLine
 10
20.34610638501718
 20
4.877157304514241
 30
0.0
 11
21.74610638501716
 21
6.277157304514247
 31
0.0
  0
LINE
  5
4F9
330
3E1
100
AcDbEntity
  8
0
 62
     0
100
AcDbLine
 10
25.69394873297426
 20
10.22499965247135
 30
0.0
 11
26.20860638501719
 21
10.73965730451425
 31
0.0
  0
LINE
  5
4FA
330
3E1
100
AcDbEntity
  8
0
 62
     0
100
AcDbLine
 10
19.09977827266206
 20
3.630829192159126
 30
0.0
 11
19.14460445338957
 21
3.675655372886666
 31
0.0
  0
LINE
  5
4FB
330
3E1
100
AcDbEntity
  8
0
 62
     0
100
AcDbLine
 10
23.15831617526024
 20
8.138379900810747
 30
0.0
 11
24.20813331396954
 21
9.188197039520048
 31
0.0
  0
LINE
  5
4FC
330
3E1
100
AcDbEntity
  8
0
 62
     0
100
AcDbLine
 10
20.34610638501718
 20
5.326170110567687
 30
0.0
 11
21.74610638501718
 21
6.726170110567665
 31
0.0
  0
LINE
  5
4FD
330
3E1
100
AcDbEntity
  8
0
 62
     0
100
AcDbLine
 10
25.24493592692087
 20
10.22499965247138
 30
0.0
 11
26.20860638501719
 21
11.1886701105677
 31
0.0
  0
LINE
  5
4FE
330
3E1
100
AcDbEntity
  8
0
 62
     0
100
AcDbLine
 10
18.59493592692084
 20
3.574999652471348
 30
0.0
 11
19.1278254750741
 21
4.107889200624612
 31
0.0
  0
LINE
  5
4FF
330
3E1
100
AcDbEntity
  8
0
 62
     0
100
AcDbLine
 10
22.9953990430619
 20
8.424475574665876
 30
0.0
 11
24.19610638501723
 21
9.625182916621213
 31
0.0
  0
LINE
  5
500
330
3E1
100
AcDbEntity
  8
0
 62
     0
100
AcDbLine
 10
20.34610638501718
 20
5.775182916621133
 30
0.0
 11
21.74610638501716
 21
7.175182916621139
 31
0.0
  0
LINE
  5
501
330
3E1
100
AcDbEntity
  8
0
 62
     0
100
AcDbLine
 10
24.79592312086737
 20
10.22499965247135
 30
0.0
 11
26.12527191911823
 21
11.55434845072221
 31
0.0
  0
LINE
  5
502
330
3E1
100
AcDbEntity
  8
0
 62
     0
100
AcDbLine
 10
18.14592312086734
 20
3.574999652471319
 30
0.0
 11
19.02006240162126
 21
4.449138933225242
 31
0.0
  0
LINE
  5
503
330
3E1
100
AcDbEntity
  8
0
 62
     0
100
AcDbLine
 10
20.34610638501715
 20
6.224195722674608
 30
0.0
 11
21.74610638501716
 21
7.624195722674585
 31
0.0
  0
LINE
  5
504
330
3E1
100
AcDbEntity
  8
0
 62
     0
100
AcDbLine
 10
22.87370801172685
 20
8.751797349384304
 30
0.0
 11
25.74691031481393
 21
11.62499965247139
 31
0.0
  0
LINE
  5
505
330
3E1
100
AcDbEntity
  8
0
 62
     0
100
AcDbLine
 10
17.84991596553985
 20
3.728005303197306
 30
0.0
 11
18.91229932816841
 21
4.790388665825872
 31
0.0
  0
LINE
  5
506
330
3E1
100
AcDbEntity
  8
0
 62
     0
100
AcDbLine
 10
20.34610638501715
 20
6.673208528728082
 30
0.0
 11
21.74610638501713
 21
8.073208528728059
 31
0.0
  0
LINE
  5
507
330
3E1
100
AcDbEntity
  8
0
 62
     0
100
AcDbLine
 10
22.804354582184
 20
9.131456725894935
 30
0.0
 11
25.29789750876048
 21
11.62499965247139
 31
0.0
  0
LINE
  5
508
330
3E1
100
AcDbEntity
  8
0
 62
     0
100
AcDbLine
 10
17.74053625471555
 20
4.067638398426481
 30
0.0
 11
18.80453625471557
 21
5.131638398426503
 31
0.0
  0
LINE
  5
509
330
3E1
100
AcDbEntity
  8
0
 62
     0
100
AcDbLine
 10
20.34610638501718
 20
7.122221334781499
 30
0.0
 11
21.74610638501716
 21
8.522221334781505
 31
0.0
  0
LINE
  5
50A
330
3E1
100
AcDbEntity
  8
0
 62
     0
100
AcDbLine
 10
22.79610638501717
 20
9.572221334781488
 30
0.0
 11
24.84888470270704
 21
11.62499965247139
 31
0.0
  0
LINE
  5
50B
330
3E1
100
AcDbEntity
  8
0
 62
     0
100
AcDbLine
 10
17.63277318126273
 20
4.408888131027083
 30
0.0
 11
18.69677318126278
 21
5.472888131027104
 31
0.0
  0
LINE
  5
50C
330
3E1
100
AcDbEntity
  8
0
 62
     0
100
AcDbLine
 10
20.34610638501715
 20
7.571234140834974
 30
0.0
 11
21.74610638501716
 21
8.971234140834951
 31
0.0
  0
LINE
  5
50D
330
3E1
100
AcDbEntity
  8
0
 62
     0
100
AcDbLine
 10
22.7961063850172
 20
10.02123414083499
 30
0.0
 11
24.39987189665359
 21
11.62499965247139
 31
0.0
  0
LINE
  5
50E
330
3E1
100
AcDbEntity
  8
0
 62
     0
100
AcDbLine
 10
17.52501010780986
 20
4.750137863627685
 30
0.0
 11
18.58901010780997
 21
5.814137863627792
 31
0.0
  0
LINE
  5
50F
330
3E1
100
AcDbEntity
  8
0
 62
     0
100
AcDbLine
 10
20.34610638501715
 20
8.02024694688842
 30
0.0
 11
21.74610638501718
 21
9.420246946888454
 31
0.0
  0
LINE
  5
510
330
3E1
100
AcDbEntity
  8
0
 62
     0
100
AcDbLine
 10
17.41724703435705
 20
5.091387596228344
 30
0.0
 11
18.4812470343571
 21
6.155387596228365
 31
0.0
  0
LINE
  5
511
330
3E1
100
AcDbEntity
  8
0
 62
     0
100
AcDbLine
 10
22.82276472007777
 20
10.49690528194907
 30
0.0
 11
23.92420075553943
 21
11.59834131741073
 31
0.0
  0
LINE
  5
512
330
3E1
100
AcDbEntity
  8
0
 62
     0
100
AcDbLine
 10
15.90085909060005
 20
3.574999652471348
 30
0.0
 11
16.32110638501714
 21
3.995246946888443
 31
0.0
  0
LINE
  5
513
330
3E1
100
AcDbEntity
  8
0
 62
     0
100
AcDbLine
 10
17.30948396090426
 20
5.432637328828946
 30
0.0
 11
18.37348396090428
 21
6.496637328828995
 31
0.0
  0
LINE
  5
514
330
3E1
100
AcDbEntity
  8
0
 62
     0
100
AcDbLine
 10
20.34610638501715
 20
8.469259752941866
 30
0.0
 11
21.74610638501718
 21
9.8692597529419
 31
0.0
  0
LINE
  5
515
330
3E1
100
AcDbEntity
  8
0
 62
     0
100
AcDbLine
 10
15.45184628454663
 20
3.574999652471319
 30
0.0
 11
16.32110638501717
 21
4.444259752941889
 31
0.0
  0
LINE
  5
516
330
3E1
100
AcDbEntity
  8
0
 62
     0
100
AcDbLine
 10
17.20172088745141
 20
5.773887061429576
 30
0.0
 11
18.26572088745144
 21
6.837887061429626
 31
0.0
  0
LINE
  5
517
330
3E1
100
AcDbEntity
  8
0
 62
     0
100
AcDbLine
 10
20.34610638501715
 20
8.91827255899534
 30
0.0
 11
21.74610638501718
 21
10.31827255899534
 31
0.0
  0
LINE
  5
518
330
3E1
100
AcDbEntity
  8
0
 62
     0
100
AcDbLine
 10
15.04340835231881
 20
3.615574526296995
 30
0.0
 11
16.32110638501717
 21
4.893272558995334
 31
0.0
  0
LINE
  5
519
330
3E1
100
AcDbEntity
  8
0
 62
     0
100
AcDbLine
 10
17.09395781399857
 20
6.115136794030206
 30
0.0
 11
18.15795781399859
 21
7.179136794030256
 31
0.0
  0
LINE
  5
51A
330
3E1
100
AcDbEntity
  8
0
 62
     0
100
AcDbLine
 10
20.34610638501715
 20
9.367285365048786
 30
0.0
 11
21.74610638501716
 21
10.76728536504882
 31
0.0
  0
LINE
  5
51B
330
3E1
100
AcDbEntity
  8
0
 62
     0
100
AcDbLine
 10
14.92110638501717
 20
3.942285365048803
 30
0.0
 11
16.3211063850172
 21
5.342285365048837
 31
0.0
  0
LINE
  5
51C
330
3E1
100
AcDbEntity
  8
0
 62
     0
100
AcDbLine
 10
16.98619474054575
 20
6.456386526630808
 30
0.0
 11
18.05019474054583
 21
7.520386526630886
 31
0.0
  0
LINE
  5
51D
330
3E1
100
AcDbEntity
  8
0
 62
     0
100
AcDbLine
 10
20.34610638501715
 20
9.816298171102232
 30
0.0
 11
21.74610638501718
 21
11.21629817110227
 31
0.0
  0
LINE
  5
51E
330
3E1
100
AcDbEntity
  8
0
 62
     0
100
AcDbLine
 10
14.92110638501717
 20
4.391298171102249
 30
0.0
 11
16.3211063850172
 21
5.791298171102283
 31
0.0
  0
LINE
  5
51F
330
3E1
100
AcDbEntity
  8
0
 62
     0
100
AcDbLine
 10
16.86879534705989
 20
6.787999939198442
 30
0.0
 11
18.18394238102533
 21
8.103146973163887
 31
0.0
  0
LINE
  5
520
330
3E1
100
AcDbEntity
  8
0
 62
     0
100
AcDbLine
 10
20.34610638501718
 20
10.26531097715573
 30
0.0
 11
21.64796867376796
 21
11.56717326590649
 31
0.0
  0
LINE
  5
521
330
3E1
100
AcDbEntity
  8
0
 62
     0
100
AcDbLine
 10
14.92110638501717
 20
4.840310977155724
 30
0.0
 11
16.3211063850172
 21
6.240310977155729
 31
0.0
  0
LINE
  5
522
330
3E1
100
AcDbEntity
  8
0
 62
     0
100
AcDbLine
 10
16.52520266212619
 20
6.89342006031822
 30
0.0
 11
18.39117906074233
 21
8.759396458934361
 31
0.0
  0
LINE
  5
523
330
3E1
100
AcDbEntity
  8
0
 62
     0
100
AcDbLine
 10
14.92110638501717
 20
5.289323783209169
 30
0.0
 11
16.32768597717032
 21
6.69590337536232
 31
0.0
  0
LINE
  5
524
330
3E1
100
AcDbEntity
  8
0
 62
     0
100
AcDbLine
 10
20.34610638501718
 20
10.71432378320918
 30
0.0
 11
21.25678225427936
 21
11.62499965247139
 31
0.0
  0
LINE
  5
525
330
3E1
100
AcDbEntity
  8
0
 62
     0
100
AcDbLine
 10
13.20678225427935
 20
3.574999652471348
 30
0.0
 11
13.69610638501717
 21
4.064323783209204
 31
0.0
  0
LINE
  5
526
330
3E1
100
AcDbEntity
  8
0
 62
     0
100
AcDbLine
 10
14.92110638501714
 20
5.738336589262644
 30
0.0
 11
18.5984157404593
 21
9.415645944704806
 31
0.0
  0
LINE
  5
527
330
3E1
100
AcDbEntity
  8
0
 62
     0
100
AcDbLine
 10
20.34610638501715
 20
11.16333658926265
 30
0.0
 11
20.80776944822588
 21
11.62499965247139
 31
0.0
  0
LINE
  5
528
330
3E1
100
AcDbEntity
  8
0
 62
     0
100
AcDbLine
 10
12.75776944822587
 20
3.574999652471376
 30
0.0
 11
13.6961063850172
 21
4.513336589262706
 31
0.0
  0
LINE
  5
529
330
3E1
100
AcDbEntity
  8
0
 62
     0
100
AcDbLine
 10
14.92110638501717
 20
6.187349395316061
 30
0.0
 11
18.80565242017636
 21
10.07189543047528
 31
0.0
  0
LINE
  5
52A
330
3E1
100
AcDbEntity
  8
0
 62
     0
100
AcDbLine
 10
12.31459695434748
 20
3.580839964646401
 30
0.0
 11
13.62543924321409
 21
4.891682253512982
 31
0.0
  0
LINE
  5
52B
330
3E1
100
AcDbEntity
  8
0
 62
     0
100
AcDbLine
 10
14.92110638501714
 20
6.636362201369536
 30
0.0
 11
16.58474383611897
 21
8.29999965247137
 31
0.0
  0
LINE
  5
52C
330
3E1
100
AcDbEntity
  8
0
 62
     0
100
AcDbLine
 10
16.96673525373933
 20
8.681991070091726
 30
0.0
 11
19.01288909989333
 21
10.72814491624572
 31
0.0
  0
LINE
  5
52D
330
3E1
100
AcDbEntity
  8
0
 62
     0
100
AcDbLine
 10
11.93051669562399
 20
3.64577251197636
 30
0.0
 11
13.25974383611896
 21
4.974999652471353
 31
0.0
  0
LINE
  5
52E
330
3E1
100
AcDbEntity
  8
0
 62
     0
100
AcDbLine
 10
14.92110638501714
 20
7.08537500742301
 30
0.0
 11
16.3301016703713
 21
8.494370292777148
 31
0.0
  0
LINE
  5
52F
330
3E1
100
AcDbEntity
  8
0
 62
     0
100
AcDbLine
 10
17.1739719334563
 20
9.338240555862142
 30
0.0
 11
19.20042482579399
 21
11.36469344819986
 31
0.0
  0
LINE
  5
530
330
3E1
100
AcDbEntity
  8
0
 62
     0
100
AcDbLine
 10
11.59994956721078
 20
3.764218189616656
 30
0.0
 11
12.81073103006551
 21
4.974999652471353
 31
0.0
  0
LINE
  5
531
330
3E1
100
AcDbEntity
  8
0
 62
     0
100
AcDbLine
 10
14.92110638501717
 20
7.534387813476428
 30
0.0
 11
16.32110638501717
 21
8.934387813476462
 31
0.0
  0
LINE
  5
532
330
3E1
100
AcDbEntity
  8
0
 62
     0
100
AcDbLine
 10
17.38120861317336
 20
9.994490041632644
 30
0.0
 11
19.00341888950939
 21
11.61670031796868
 31
0.0
  0
LINE
  5
533
330
3E1
100
AcDbEntity
  8
0
 62
     0
100
AcDbLine
 10
11.31114792512863
 20
3.924429353587896
 30
0.0
 11
12.36917885437506
 21
4.982460282834352
 31
0.0
  0
LINE
  5
534
330
3E1
100
AcDbEntity
  8
0
 62
     0
100
AcDbLine
 10
14.92110638501714
 20
7.983400619529902
 30
0.0
 11
16.32110638501717
 21
9.383400619529936
 31
0.0
  0
LINE
  5
535
330
3E1
100
AcDbEntity
  8
0
 62
     0
100
AcDbLine
 10
17.58844529289033
 20
10.65073952740306
 30
0.0
 11
18.5627054179586
 21
11.62499965247136
 31
0.0
  0
LINE
  5
536
330
3E1
100
AcDbEntity
  8
0
 62
     0
100
AcDbLine
 10
11.05867044193761
 20
4.120964676450341
 30
0.0
 11
12.05202078386591
 21
5.114315018378647
 31
0.0
  0
LINE
  5
537
330
3E1
100
AcDbEntity
  8
0
 62
     0
100
AcDbLine
 10
14.92110638501714
 20
8.432413425583348
 30
0.0
 11
16.32110638501717
 21
9.832413425583382
 31
0.0
  0
LINE
  5
538
330
3E1
100
AcDbEntity
  8
0
 62
     0
100
AcDbLine
 10
13.25192345090539
 20
6.763230491471631
 30
0.0
 11
13.83287554601693
 21
7.344182586583173
 31
0.0
  0
LINE
  5
539
330
3E1
100
AcDbEntity
  8
0
 62
     0
100
AcDbLine
 10
17.79568197260727
 20
11.3069890131735
 30
0.0
 11
18.11369261190518
 21
11.62499965247141
 31
0.0
  0
LINE
  5
53A
330
3E1
100
AcDbEntity
  8
0
 62
     0
100
AcDbLine
 10
10.84045190527269
 20
4.351758945838923
 30
0.0
 11
11.84689530822982
 21
5.358202348796055
 31
0.0
  0
LINE
  5
53B
330
3E1
100
AcDbEntity
  8
0
 62
     0
100
AcDbLine
 10
12.78943703009048
 20
6.749756876710193
 30
0.0
 11
13.84634916077837
 21
7.806669007398056
 31
0.0
  0
LINE
  5
53C
330
3E1
100
AcDbEntity
  8
0
 62
     0
100
AcDbLine
 10
14.92110638501717
 20
8.881426231636851
 30
0.0
 11
16.3211063850172
 21
10.28142623163688
 31
0.0
  0
LINE
  5
53D
330
3E1
100
AcDbEntity
  8
0
 62
     0
100
AcDbLine
 10
10.6569422928012
 20
4.617262139420887
 30
0.0
 11
11.77110638501716
 21
5.731426231636874
 31
0.0
  0
LINE
  5
53E
330
3E1
100
AcDbEntity
  8
0
 62
     0
100
AcDbLine
 10
12.48236374538038
 20
6.891696398053483
 30
0.0
 11
13.70440963943506
 21
8.113742292108184
 31
0.0
  0
LINE
  5
53F
330
3E1
100
AcDbEntity
  8
0
 62
     0
100
AcDbLine
 10
14.92110638501717
 20
9.330439037690297
 30
0.0
 11
16.3211063850172
 21
10.73043903769033
 31
0.0
  0
LINE
  5
540
330
3E1
100
AcDbEntity
  8
0
 62
     0
100
AcDbLine
 10
10.51128353783883
 20
4.920616190511964
 30
0.0
 11
11.77110638501716
 21
6.180439037690291
 31
0.0
  0
LINE
  5
541
330
3E1
100
AcDbEntity
  8
0
 62
     0
100
AcDbLine
 10
12.26338378188552
 20
7.121729240612125
 30
0.0
 11
13.47437679687644
 21
8.332722255603016
 31
0.0
  0
LINE
  5
542
330
3E1
100
AcDbEntity
  8
0
 62
     0
100
AcDbLine
 10
14.92110638501717
 20
9.779451843743771
 30
0.0
 11
16.3211063850172
 21
11.17945184374377
 31
0.0
  0
LINE
  5
543
330
3E1
100
AcDbEntity
  8
0
 62
     0
100
AcDbLine
 10
10.41071485575151
 20
5.26906031447811
 30
0.0
 11
11.77110638501716
 21
6.629451843743765
 31
0.0
  0
LINE
  5
544
330
3E1
100
AcDbEntity
  8
0
 62
     0
100
AcDbLine
 10
12.13535841568134
 20
7.442716680461387
 30
0.0
 11
13.15338935702715
 21
8.460747621807229
 31
0.0
  0
LINE
  5
545
330
3E1
100
AcDbEntity
  8
0
 62
     0
100
AcDbLine
 10
10.37110638501713
 20
5.678464649797206
 30
0.0
 11
11.77110638501716
 21
7.078464649797211
 31
0.0
  0
LINE
  5
546
330
3E1
100
AcDbEntity
  8
0
 62
     0
100
AcDbLine
 10
14.92110638501717
 20
10.22846464979721
 30
0.0
 11
16.24248133083961
 21
11.54983959561969
 31
0.0
  0
LINE
  5
547
330
3E1
100
AcDbEntity
  8
0
 62
     0
100
AcDbLine
 10
8.328108006079332
 20
3.63546627085941
 30
0.0
 11
9.260639766629196
 21
4.567998031409274
 31
0.0
  0
LINE
  5
548
330
3E1
100
AcDbEntity
  8
0
 62
     0
100
AcDbLine
 10
12.19456495742173
 20
7.950936028255227
 30
0.0
 11
12.64517000923334
 21
8.401541080066834
 31
0.0
  0
LINE
  5
549
330
3E1
100
AcDbEntity
  8
0
 62
     0
100
AcDbLine
 10
10.37110638501713
 20
6.127477455850623
 30
0.0
 11
11.77110638501716
 21
7.527477455850657
 31
0.0
  0
LINE
  5
54A
330
3E1
100
AcDbEntity
  8
0
 62
     0
100
AcDbLine
 10
14.92110638501717
 20
10.67747745585066
 30
0.0
 11
15.86862858163786
 21
11.62499965247136
 31
0.0
  0
LINE
  5
54B
330
3E1
100
AcDbEntity
  8
0
 62
     0
100
AcDbLine
 10
7.818628581637852
 20
3.574999652471348
 30
0.0
 11
9.321106385017174
 21
5.077477455850669
 31
0.0
  0
LINE
  5
54C
330
3E1
100
AcDbEntity
  8
0
 62
     0
100
AcDbLine
 10
10.37110638501713
 20
6.576490261904098
 30
0.0
 11
11.77110638501716
 21
7.976490261904132
 31
0.0
  0
LINE
  5
54D
330
3E1
100
AcDbEntity
  8
0
 62
     0
100
AcDbLine
 10
14.92110638501717
 20
11.12649026190411
 30
0.0
 11
15.41961577558442
 21
11.62499965247139
 31
0.0
  0
LINE
  5
54E
330
3E1
100
AcDbEntity
  8
0
 62
     0
100
AcDbLine
 10
7.36961577558435
 20
3.574999652471319
 30
0.0
 11
9.321106385017174
 21
5.526490261904143
 31
0.0
  0
LINE
  5
54F
330
3E1
100
AcDbEntity
  8
0
 62
     0
100
AcDbLine
 10
10.37110638501713
 20
7.025503067957544
 30
0.0
 11
11.77110638501713
 21
8.425503067957578
 31
0.0
  0
LINE
  5
550
330
3E1
100
AcDbEntity
  8
0
 62
     0
100
AcDbLine
 10
6.920602969530932
 20
3.574999652471376
 30
0.0
 11
9.319136708736579
 21
5.973533391677023
 31
0.0
  0
LINE
  5
551
330
3E1
100
AcDbEntity
  8
0
 62
     0
100
AcDbLine
 10
10.37110638501713
 20
7.474515874011018
 30
0.0
 11
11.77110638501716
 21
8.874515874011052
 31
0.0
  0
LINE
  5
552
330
3E1
100
AcDbEntity
  8
0
 62
     0
100
AcDbLine
 10
13.12159016347752
 20
10.22499965247141
 30
0.0
 11
13.69610638501723
 21
10.79951587401112
 31
0.0
  0
LINE
  5
553
330
3E1
100
AcDbEntity
  8
0
 62
     0
100
AcDbLine
 10
6.471590163477458
 20
3.574999652471348
 30
0.0
 11
9.264305790575917
 21
6.367715279569807
 31
0.0
  0
LINE
  5
554
330
3E1
100
AcDbEntity
  8
0
 62
     0
100
AcDbLine
 10
10.37110638501713
 20
7.923528680064464
 30
0.0
 11
11.77110638501716
 21
9.32352868006447
 31
0.0
  0
LINE
  5
555
330
3E1
100
AcDbEntity
  8
0
 62
     0
100
AcDbLine
 10
7.921106385017168
 20
5.473528680064504
 30
0.0
 11
9.153136418553856
 21
6.705558713601192
 31
0.0
  0
LINE
  5
556
330
3E1
100
AcDbEntity
  8
0
 62
     0
100
AcDbLine
 10
12.67257735742402
 20
10.22499965247135
 30
0.0
 11
13.69610638501723
 21
11.24852868006454
 31
0.0
  0
LINE
  5
557
330
3E1
100
AcDbEntity
  8
0
 62
     0
100
AcDbLine
 10
6.051440295053993
 20
3.603862590101329
 30
0.0
 11
7.422577357424017
 21
4.974999652471353
 31
0.0
  0
LINE
  5
558
330
3E1
100
AcDbEntity
  8
0
 62
     0
100
AcDbLine
 10
10.3711063850171
 20
8.37254148611791
 30
0.0
 11
11.85401373790699
 21
9.855448839007806
 31
0.0
  0
LINE
  5
559
330
3E1
100
AcDbEntity
  8
0
 62
     0
100
AcDbLine
 10
7.920026839212539
 20
5.921461940313321
 30
0.0
 11
8.998920651217844
 21
7.000355752318654
 31
0.0
  0
LINE
  5
55A
330
3E1
100
AcDbEntity
  8
0
 62
     0
100
AcDbLine
 10
12.14065719848077
 20
10.14209229958157
 30
0.0
 11
13.57937267755727
 21
11.58080777865805
 31
0.0
  0
LINE
  5
55B
330
3E1
100
AcDbEntity
  8
0
 62
     0
100
AcDbLine
 10
5.908606385017179
 20
3.910041486117961
 30
0.0
 11
6.973564551370571
 21
4.974999652471353
 31
0.0
  0
LINE
  5
55C
330
3E1
100
AcDbEntity
  8
0
 62
     0
100
AcDbLine
 10
7.810225329462184
 20
6.260673236616469
 30
0.0
 11
8.807799668798395
 21
7.25824757595268
 31
0.0
  0
LINE
  5
55D
330
3E1
100
AcDbEntity
  8
0
 62
     0
100
AcDbLine
 10
10.3711063850171
 20
8.821554292171384
 30
0.0
 11
13.17455174531713
 21
11.62499965247141
 31
0.0
  0
LINE
  5
55E
330
3E1
100
AcDbEntity
  8
0
 62
     0
100
AcDbLine
 10
5.908606385017151
 20
4.359054292171435
 30
0.0
 11
6.524551745317097
 21
4.974999652471382
 31
0.0
  0
LINE
  5
55F
330
3E1
100
AcDbEntity
  8
0
 62
     0
100
AcDbLine
 10
7.597097915309831
 20
6.496558628517533
 30
0.0
 11
8.587047408971017
 21
7.486508122178719
 31
0.0
  0
LINE
  5
560
330
3E1
100
AcDbEntity
  8
0
 62
     0
100
AcDbLine
 10
10.37110638501713
 20
9.270567098224802
 30
0.0
 11
12.7255389392636
 21
11.6249996524713
 31
0.0
  0
LINE
  5
561
330
3E1
100
AcDbEntity
  8
0
 62
     0
100
AcDbLine
 10
5.94308234602704
 20
4.842543059234742
 30
0.0
 11
6.041062978253847
 21
4.94052369146155
 31
0.0
  0
LINE
  5
562
330
3E1
100
AcDbEntity
  8
0
 62
     0
100
AcDbLine
 10
10.38109394209542
 20
9.729567461356566
 30
0.0
 11
12.26653857613192
 21
11.6150120953931
 31
0.0
  0
LINE
  5
563
330
3E1
100
AcDbEntity
  8
0
 62
     0
100
AcDbLine
 10
7.372591512283094
 20
6.72106503154427
 30
0.0
 11
8.362541005944279
 21
7.711014525205456
 31
0.0
  0
LINE
  5
564
330
3E1
100
AcDbEntity
  8
0
 62
     0
100
AcDbLine
 10
10.53082565822831
 20
10.32831198354296
 30
0.0
 11
11.66779405394555
 21
11.4652803792602
 31
0.0
  0
LINE
  5
565
330
3E1
100
AcDbEntity
  8
0
 62
     0
100
AcDbLine
 10
7.148085109256356
 20
6.945571434571007
 30
0.0
 11
8.138034602917542
 21
7.935520928232193
 31
0.0
  0
LINE
  5
566
330
3E1
100
AcDbEntity
  8
0
 62
     0
100
AcDbLine
 10
6.923578706229648
 20
7.170077837597716
 30
0.0
 11
7.913528199890805
 21
8.160027331258845
 31
0.0
  0
LINE
  5
567
330
3E1
100
AcDbEntity
  8
0
 62
     0
100
AcDbLine
 10
6.69907230320291
 20
7.394584240624453
 30
0.0
 11
7.689021796864068
 21
8.384533734285582
 31
0.0
  0
LINE
  5
568
330
3E1
100
AcDbEntity
  8
0
 62
     0
100
AcDbLine
 10
6.474565900176173
 20
7.61909064365119
 30
0.0
 11
7.464515393837331
 21
8.609040137312319
 31
0.0
  0
LINE
  5
569
330
3E1
100
AcDbEntity
  8
0
 62
     0
100
AcDbLine
 10
8.631462102942919
 20
10.22499965247141
 30
0.0
 11
9.0586063850171
 21
10.65214393454559
 31
0.0
  0
LINE
  5
56A
330
3E1
100
AcDbEntity
  8
0
 62
     0
100
AcDbLine
 10
6.250101154163502
 20
7.843638703691993
 30
0.0
 11
7.240133975879729
 21
8.83367152540822
 31
0.0
  0
LINE
  5
56B
330
3E1
100
AcDbEntity
  8
0
 62
     0
100
AcDbLine
 10
8.182449296889444
 20
10.22499965247135
 30
0.0
 11
9.058606385017156
 21
11.10115674059906
 31
0.0
  0
LINE
  5
56C
330
3E1
100
AcDbEntity
  8
0
 62
     0
100
AcDbLine
 10
6.044367191887715
 20
8.086917547469596
 30
0.0
 11
7.07518553523576
 21
9.117735890817669
 31
0.0
  0
LINE
  5
56D
330
3E1
100
AcDbEntity
  8
0
 62
     0
100
AcDbLine
 10
7.73343649083597
 20
10.22499965247135
 30
0.0
 11
9.015326935136585
 21
11.50689009677197
 31
0.0
  0
LINE
  5
56E
330
3E1
100
AcDbEntity
  8
0
 62
     0
100
AcDbLine
 10
5.874136888756481
 20
8.365700050391836
 30
0.0
 11
7.046106385017196
 21
9.537669546652551
 31
0.0
  0
LINE
  5
56F
330
3E1
100
AcDbEntity
  8
0
 62
     0
100
AcDbLine
 10
7.283190360197465
 20
10.22376632788629
 30
0.0
 11
8.684423684782558
 21
11.62499965247139
 31
0.0
  0
LINE
  5
570
330
3E1
100
AcDbEntity
  8
0
 62
     0
100
AcDbLine
 10
5.743790240890433
 20
8.684366208579263
 30
0.0
 11
7.047339709602226
 21
9.987915677291084
 31
0.0
  0
LINE
  5
571
330
3E1
100
AcDbEntity
  8
0
 62
     0
100
AcDbLine
 10
5.6628842597664
 20
9.052473033508675
 30
0.0
 11
8.235410878729112
 21
11.62499965247139
 31
0.0
  0
LINE
  5
572
330
3E1
100
AcDbEntity
  8
0
 62
     0
100
AcDbLine
 10
5.646106385017191
 20
9.48470796481294
 30
0.0
 11
7.786398072675638
 21
11.62499965247139
 31
0.0
  0
LINE
  5
573
330
3E1
100
AcDbEntity
  8
0
 62
     0
100
AcDbLine
 10
5.646106385017191
 20
9.933720770866386
 30
0.0
 11
7.337385266622192
 21
11.62499965247139
 31
0.0
  0
LINE
  5
574
330
3E1
100
AcDbEntity
  8
0
 62
     0
100
AcDbLine
 10
5.656202390236302
 20
10.39282958213897
 30
0.0
 11
6.878276455349606
 21
11.61490364725227
 31
0.0
  0
ENDBLK
  5
576
330
3E1
100
AcDbEntity
  8
0
100
AcDbBlockEnd
  0
ENDSEC
  0
SECTION
  2
ENTITIES
  0
ARC
  5
1F9
330
1A
100
AcDbEntity
  8
NOKITOI
  6
Continuous
 62
     8
 48
5.0
100
AcDbCircle
 10
152.2498235281884
 20
142.6103803156139
 30
0.0
 40
55.69997777445496
100
AcDbArc
 50
183.4893828011791
 51
356.5101019184219
  0
ARC
  5
1FA
330
1A
100
AcDbEntity
  8
SEIHIN
  6
Continuous
 62
     3
 48
16.0
100
AcDbCircle
 10
152.2498671280979
 20
142.6103844919013
 30
0.0
 40
59.00000480449153
100
AcDbArc
 50
193.0027822068725
 51
269.9999087543124
  0
ARC
  5
1FB
330
1A
100
AcDbEntity
  8
SEIHIN
  6
Continuous
 62
     3
 48
16.0
100
AcDbCircle
 10
152.2500668508198
 20
742.410470332932
 30
0.0
 40
599.9999906464441
100
AcDbArc
 50
264.4697756905182
 51
269.9998955610173
  0
LINE
  5
1FD
330
1A
100
AcDbEntity
  8
SEIHIN
  6
Continuous
 62
     3
 48
16.0
100
AcDbLine
 10
152.2498731683673
 20
220.3926796874845
 30
0.0
 11
86.29977316836733
 21
220.3926796874845
 31
0.0
  0
LINE
  5
1FE
330
1A
100
AcDbEntity
  8
SEIHIN
  6
Continuous
 62
     3
 48
16.0
100
AcDbLine
 10
152.2498731683673
 20
198.5926796874845
 30
0.0
 11
86.29977316836733
 21
198.5926796874845
 31
0.0
  0
LINE
  5
1FF
330
1A
100
AcDbEntity
  8
SEIHIN
  6
Continuous
 62
     3
 48
16.0
100
AcDbLine
 10
152.2498731683673
 20
207.3926796874845
 30
0.0
 11
99.06097316836747
 21
207.3926796874845
 31
0.0
  0
ARC
  5
200
330
1A
100
AcDbEntity
  8
SEIHIN
  6
Continuous
 62
     3
 48
16.0
100
AcDbCircle
 10
152.2497193957672
 20
-111.5896094386573
 30
0.0
 40
249.9999891262699
100
AcDbArc
 50
89.99994230119218
 51
104.3483581796522
  0
ARC
  5
201
330
1A
100
AcDbEntity
  8
SEIHIN
  6
Continuous
 62
     3
 48
16.0
100
AcDbCircle
 10
152.2500183247383
 20
-111.5895757668192
 30
0.0
 40
246.9999554547019
100
AcDbArc
 50
90.00010243207162
 51
101.4446444496158
  0
ARC
  5
202
330
1A
100
AcDbEntity
  8
SEIHIN
  6
Continuous
 62
     3
 48
16.0
100
AcDbCircle
 10
137.024068498658
 20
111.066191395487
 30
0.0
 40
10.99996841034754
100
AcDbArc
 50
180.0
 51
241.0635469781124
  0
ARC
  5
203
330
1A
100
AcDbEntity
  8
SEIHIN
  6
Continuous
 62
     3
 48
16.0
100
AcDbCircle
 10
152.2500579840425
 20
142.6103320002083
 30
0.0
 40
53.69995231278818
100
AcDbArc
 50
241.0632412571075
 51
269.9999127543199
  0
ARC
  5
204
330
1A
100
AcDbEntity
  8
SEIHIN
  6
Continuous
 62
     3
 48
16.0
100
AcDbCircle
 10
157.2003308142878
 20
147.5601926508
 30
0.0
 40
53.70003137684755
100
AcDbArc
 50
241.0634356953926
 51
264.9010920970486
  0
ARC
  5
205
330
1A
100
AcDbEntity
  8
SEIHIN
  6
Continuous
 62
     3
 48
16.0
100
AcDbCircle
 10
152.2499569737466
 20
-111.5895824258214
 30
0.0
 40
238.9999621133761
100
AcDbArc
 50
90.00004369823297
 51
99.96599698063386
  0
ARC
  5
206
330
1A
100
AcDbEntity
  8
SEIHIN
  6
Continuous
 62
     3
 48
16.0
100
AcDbCircle
 10
152.2496227651078
 20
-111.589613877291
 30
0.0
 40
239.9999935648225
100
AcDbArc
 50
89.99996439061064
 51
100.2888047055443
  0
DIMENSION
  5
207
330
1A
100
AcDbEntity
  8
SUNPOU
  6
Continuous
100
AcDbDimension
  2
*D1
 10
86.29967316836729
 20
164.7637034483849
 30
0.0
 11
152.2498231683673
 21
167.2637034483849
 31
0.0
 70
    32
 71
     5
 42
-1.0
  3
STANDARD
100
AcDbAlignedDimension
 13
218.1999731683674
 23
138.9104716734222
 33
0.0
 14
86.29967316836729
 24
138.9104716734222
 34
0.0
100
AcDbRotatedDimension
1001
ACAD
1000
DSTYLE
1002
{
1070
   140
1040
3.0
1070
    74
1070
     0
1070
   172
1070
     1
1070
    73
1070
     0
1070
   272
1070
     2
1070
    77
1070
     3
1070
   173
1070
     1
1070
   147
1040
1.0
1070
    42
1040
3.0
1070
    44
1040
1.5
1070
    43
1040
7.0
1070
   271
1070
     0
1070
   178
1070
     4
1070
   177
1070
     4
1070
   176
1070
     4
1070
   141
1040
150.0
1070
     7
1000
_OPEN
1070
     6
1000
_OPEN
1070
    41
1040
3.0
1002
}
  0
ARC
  5
208
330
1A
100
AcDbEntity
  8
NOKITOI
  6
Continuous
 62
     8
 48
5.0
100
AcDbCircle
 10
152.2498731683674
 20
142.6103785028652
 30
0.0
 40
56.99999881544602
100
AcDbArc
 50
186.7561500022946
 51
353.2434543568847
  0
LINE
  5
209
330
1A
100
AcDbEntity
  8
SEIHIN
  6
Continuous
 62
     3
 48
16.0
100
AcDbLine
 10
152.2498731683673
 20
200.5926796874845
 30
0.0
 11
94.9620731683675
 21
200.5926796874845
 31
0.0
  0
LINE
  5
210
330
1A
100
AcDbEntity
  8
SEIHIN
  6
Continuous
 62
     3
 48
16.0
100
AcDbLine
 10
86.29967316836729
 20
136.6103796874847
 30
0.0
 11
86.29967316836729
 21
138.9104796874846
 31
0.0
  0
ARC
  5
211
330
1A
100
AcDbEntity
  8
NOKITOI
  6
Continuous
 62
     8
 48
5.0
100
AcDbCircle
 10
92.69980398271451
 20
138.6105661647066
 30
0.0
 40
4.000015298737716
100
AcDbArc
 50
8.764757762685649
 51
317.4315014146483
  0
CIRCLE
  5
212
330
1A
100
AcDbEntity
  8
NOKITOI
  6
PHANTOM
100
AcDbCircle
 10
92.69980828290403
 20
138.6105803156819
 30
0.0
 40
2.7
  0
ARC
  5
213
330
1A
100
AcDbEntity
  8
SEIHIN
  6
Continuous
 62
     3
 48
16.0
100
AcDbCircle
 10
92.7996731683673
 20
136.6103796874847
 30
0.0
 40
6.5
100
AcDbArc
 50
180.0
 51
270.0
  0
ARC
  5
214
330
1A
100
AcDbEntity
  8
SEIHIN
  6
Continuous
 62
     3
 48
16.0
100
AcDbCircle
 10
93.78831257565172
 20
129.1103483459671
 30
0.0
 40
1.000031342294086
100
AcDbArc
 50
13.01018670864474
 51
90.00225780031113
  0
LINE
  5
215
330
1A
100
AcDbEntity
  8
SEIHIN
  6
Continuous
 62
     3
 48
16.0
100
AcDbLine
 10
92.7996731683673
 20
130.1103796874847
 30
0.0
 11
93.78827316836737
 21
130.1103796874847
 31
0.0
  0
ARC
  5
216
330
1A
100
AcDbEntity
  8
SEIHIN
  6
Continuous
 62
     3
 48
16.0
100
AcDbCircle
 10
92.79965774140761
 20
138.9104716734222
 30
0.0
 40
6.499984573045224
100
AcDbArc
 50
75.4891337801925
 51
179.9999293579932
  0
ARC
  5
217
330
1A
100
AcDbEntity
  8
SEIHIN
  6
Continuous
 62
     3
 48
16.0
100
AcDbCircle
 10
157.2008269184454
 20
147.5592717066093
 30
0.0
 40
53.70002425223745
100
AcDbArc
 50
206.2143329847134
 51
208.9528304101271
  0
ARC
  5
218
330
1A
100
AcDbEntity
  8
SEIHIN
  6
Continuous
 62
     3
 48
16.0
100
AcDbCircle
 10
157.2004501139925
 20
147.5600257147806
 30
0.0
 40
52.70007065016227
100
AcDbArc
 50
207.6797597574832
 51
208.9536934491946
  0
ARC
  5
219
330
1A
100
AcDbEntity
  8
SEIHIN
  6
Continuous
 62
     3
 48
16.0
100
AcDbCircle
 10
152.249893421241
 20
142.6103322325034
 30
0.0
 40
53.69992560248705
100
AcDbArc
 50
197.2698292508491
 51
208.9537806105736
  0
ARC
  5
21A
330
1A
100
AcDbEntity
  8
SEIHIN
  6
Continuous
 62
     3
 48
16.0
100
AcDbCircle
 10
115.7557973464893
 20
122.4343155506512
 30
0.0
 40
12.00000409829278
100
AcDbArc
 50
208.8676583681205
 51
270.0
  0
ARC
  5
21B
330
1A
100
AcDbEntity
  8
SEIHIN
  6
Continuous
 62
     3
 48
16.0
100
AcDbCircle
 10
120.7063036347677
 20
127.3840652772675
 30
0.0
 40
12.00003361265095
100
AcDbArc
 50
208.867824163459
 51
270.0
  0
ARC
  5
21C
330
1A
100
AcDbEntity
  8
SEIHIN
  6
Continuous
 62
     3
 48
16.0
100
AcDbCircle
 10
120.7063036347677
 20
127.3840652772675
 30
0.0
 40
12.00003361265095
100
AcDbArc
 50
208.867824163459
 51
270.0
  0
ARC
  5
21D
330
1A
100
AcDbEntity
  8
SEIHIN
  6
Continuous
 62
     3
 48
16.0
100
AcDbCircle
 10
120.7062726402793
 20
127.3840798985281
 30
0.0
 40
11.00004036436036
100
AcDbArc
 50
208.8678343814693
 51
270.0
  0
LINE
  5
21E
330
1A
100
AcDbEntity
  8
SEIHIN
  6
Continuous
100
AcDbLine
 10
120.0737083749119
 20
106.1164236041781
 30
0.0
 11
120.073708374912
 21
110.4343114523584
 31
0.0
  0
ARC
  5
21F
330
1A
100
AcDbEntity
  8
SEIHIN
  6
Continuous
 62
     3
 48
16.0
100
AcDbCircle
 10
137.0240819866049
 20
111.0661610149408
 30
0.0
 40
11.99996708693041
100
AcDbArc
 50
180.0
 51
241.0636645879431
  0
ARC
  5
220
330
1A
100
AcDbEntity
  8
SEIHIN
  6
Continuous
 62
     3
 48
16.0
100
AcDbCircle
 10
132.0736996538813
 20
106.1164236041781
 30
0.0
 40
11.99999127896941
100
AcDbArc
 50
180.0
 51
241.0631690684754
  0
LINE
  5
221
330
1A
100
AcDbEntity
  8
SEIHIN
  6
Continuous
100
AcDbLine
 10
120.7062726402793
 20
116.3840395341678
 30
0.0
 11
126.0241000883105
 21
116.3840395341678
 31
0.0
  0
LINE
  5
222
330
1A
100
AcDbEntity
  8
SEIHIN
  6
Continuous
100
AcDbLine
 10
120.7063036347677
 20
115.3840316646166
 30
0.0
 11
125.0241148996745
 21
115.3840316646166
 31
0.0
  0
LINE
  5
223
330
1A
100
AcDbEntity
  8
SEIHIN
  6
Continuous
100
AcDbLine
 10
115.7557973464893
 20
110.4343114523585
 30
0.0
 11
120.073708374912
 21
110.4343114523584
 31
0.0
  0
LINE
  5
224
330
1A
100
AcDbEntity
  8
SEIHIN
  6
Continuous
100
AcDbLine
 10
126.0241000883105
 20
111.066191395487
 30
0.0
 11
126.0241000883105
 21
116.3840395341678
 31
0.0
  0
LINE
  5
225
330
1A
100
AcDbEntity
  8
SEIHIN
  6
Continuous
100
AcDbLine
 10
125.0241148996745
 20
111.0661610149408
 30
0.0
 11
125.0241148996745
 21
115.3840316646166
 31
0.0
  0
ARC
  5
226
330
1A
100
AcDbEntity
  8
SEIHIN
  6
Continuous
 62
     3
 48
16.0
100
AcDbCircle
 10
103.8355358805502
 20
127.5590167438472
 30
0.0
 40
2.999970558859001
100
AcDbArc
 50
101.4442124655489
 51
197.2696542487755
  0
ARC
  5
227
330
1A
100
AcDbEntity
  8
SEIHIN
  6
Continuous
 62
     3
 48
16.0
100
AcDbCircle
 10
109.4725371211287
 20
124.0592092926067
 30
0.0
 40
0.5
100
AcDbArc
 50
100.2888047055404
 51
206.2143329837569
  0
ARC
  5
228
330
1A
100
AcDbEntity
  8
SEIHIN
  6
Continuous
 62
     3
 48
16.0
100
AcDbCircle
 10
110.9742714288382
 20
123.3115663812453
 30
0.0
 40
0.5
100
AcDbArc
 50
99.96599698063299
 51
207.6797597574857
  0
LINE
  5
229
330
1A
100
AcDbEntity
  8
SEIHIN
  6
Continuous
 62
     3
 48
16.0
100
AcDbLine
 10
96.96207316836751
 20
220.3926796874845
 30
0.0
 11
96.96207316836751
 21
200.5926796874845
 31
0.0
  0
LINE
  5
22A
330
1A
100
AcDbEntity
  8
SEIHIN
  6
Continuous
 62
     3
 48
16.0
100
AcDbLine
 10
86.29977316836733
 20
220.3926796874845
 30
0.0
 11
86.29977316836733
 21
198.5926796874845
 31
0.0
  0
LINE
  5
22B
330
1A
100
AcDbEntity
  8
SEIHIN
  6
Continuous
 62
     3
 48
16.0
100
AcDbLine
 10
99.06097316836747
 20
207.3926796874845
 30
0.0
 11
99.06097316836747
 21
200.5926796874845
 31
0.0
  0
LINE
  5
22C
330
1A
100
AcDbEntity
  8
SEIHIN
  6
Continuous
 62
     3
 48
16.0
100
AcDbLine
 10
99.06097316836747
 20
202.5926796874845
 30
0.0
 11
96.96207316836751
 21
202.5926796874845
 31
0.0
  0
DIMENSION
  5
22D
330
1A
100
AcDbEntity
  8
SUNPOU
  6
Continuous
100
AcDbDimension
  2
*D2
 10
276.5087746883162
 20
164.9128868458394
 30
0.0
 11
287.4087328849656
 21
167.4128511083437
 31
0.0
 70
    32
 71
     5
 42
-1.0
  3
STANDARD
100
AcDbAlignedDimension
 13
298.3086107462201
 23
145.4104796874846
 33
0.0
 14
276.508710746337
 24
145.4105511624492
 34
0.0
 50
359.9998121452936
100
AcDbRotatedDimension
1001
ACAD
1000
DSTYLE
1002
{
1070
   140
1040
3.0
1070
    74
1070
     0
1070
   172
1070
     1
1070
    73
1070
     0
1070
   272
1070
     2
1070
    77
1070
     3
1070
   173
1070
     1
1070
   147
1040
1.0
1070
    42
1040
3.0
1070
    44
1040
1.5
1070
    43
1040
7.0
1070
   271
1070
     0
1070
   178
1070
     4
1070
   177
1070
     4
1070
   176
1070
     4
1070
   141
1040
150.0
1070
     7
1000
_OPEN
1070
     6
1000
_OPEN
1070
    41
1040
3.0
1002
}
  0
ARC
  5
22E
330
1A
100
AcDbEntity
  8
SEIHIN
  6
Continuous
 62
     3
 48
16.0
100
AcDbCircle
 10
152.2494457340892
 20
742.4104590445607
 30
0.0
 40
599.9999793572621
100
AcDbArc
 50
269.9999548732961
 51
275.5300261790349
  0
ARC
  5
22F
330
1A
100
AcDbEntity
  8
SEIHIN
  6
Continuous
 62
     3
 48
16.0
100
AcDbCircle
 10
152.2498462464471
 20
142.6103582740055
 30
0.0
 40
58.99997858656619
100
AcDbArc
 50
269.9999290327616
 51
346.9970387101707
  0
ARC
  5
230
330
1A
100
AcDbEntity
  8
SEIHIN
  6
Continuous
 62
     3
 48
16.0
100
AcDbCircle
 10
147.2989194182893
 20
147.5592717066093
 30
0.0
 40
53.70002425223745
100
AcDbArc
 50
331.047169589873
 51
333.7856670152776
  0
ARC
  5
231
330
1A
100
AcDbEntity
  8
SEIHIN
  6
Continuous
 62
     3
 48
16.0
100
AcDbCircle
 10
195.0272092156059
 20
124.0592092926067
 30
0.0
 40
0.5
100
AcDbArc
 50
333.7856670162341
 51
79.71119529445956
  0
ARC
  5
232
330
1A
100
AcDbEntity
  8
SEIHIN
  6
Continuous
 62
     3
 48
16.0
100
AcDbCircle
 10
152.2497280119964
 20
-111.5895757668192
 30
0.0
 40
246.9999554547019
100
AcDbArc
 50
78.55535555038416
 51
89.99989756792839
  0
ARC
  5
233
330
1A
100
AcDbEntity
  8
SEIHIN
  6
Continuous
 62
     3
 48
16.0
100
AcDbCircle
 10
188.7439489902453
 20
122.4343155506512
 30
0.0
 40
12.00000409829278
100
AcDbArc
 50
270.0
 51
331.1323416318795
  0
ARC
  5
234
330
1A
100
AcDbEntity
  8
SEIHIN
  6
Continuous
 62
     3
 48
16.0
100
AcDbCircle
 10
152.2498341480078
 20
-111.5895854591531
 30
0.0
 40
249.9999651466763
100
AcDbArc
 50
75.65162707453715
 51
89.99996839174217
  0
ARC
  5
235
330
1A
100
AcDbEntity
  8
SEIHIN
  6
Continuous
 62
     3
 48
16.0
100
AcDbCircle
 10
152.2496883526922
 20
142.6103320002083
 30
0.0
 40
53.69995231278818
100
AcDbArc
 50
270.0000872456801
 51
298.9367587428926
  0
LINE
  5
236
330
1A
100
AcDbEntity
  8
CENTER L
  6
CENTER
 62
     1
 48
5.0
100
AcDbLine
 10
152.2498731683673
 20
76.61037968744487
 30
0.0
 11
152.2498731683673
 21
149.4104796874525
 31
0.0
  0
ARC
  5
237
330
1A
100
AcDbEntity
  8
SEIHIN
  6
Continuous
 62
     3
 48
16.0
100
AcDbCircle
 10
152.2501235716269
 20
-111.589613877291
 30
0.0
 40
239.9999935648225
100
AcDbArc
 50
79.71119529445569
 51
90.00003560938935
  0
ARC
  5
238
330
1A
100
AcDbEntity
  8
SEIHIN
  6
Continuous
 62
     3
 48
16.0
100
AcDbCircle
 10
152.249789362988
 20
-111.5895824258214
 30
0.0
 40
238.9999621133761
100
AcDbArc
 50
80.03400301936613
 51
89.99995630176705
  0
ARC
  5
239
330
1A
100
AcDbEntity
  8
SEIHIN
  6
Continuous
 62
     3
 48
16.0
100
AcDbCircle
 10
147.2992786268783
 20
147.5601507511371
 30
0.0
 40
52.70004220596086
100
AcDbArc
 50
275.0990248896666
 51
298.936770926264
  0
ARC
  5
23A
330
1A
100
AcDbEntity
  8
SEIHIN
  6
Continuous
 62
     3
 48
16.0
100
AcDbCircle
 10
147.2994155224468
 20
147.5601926508
 30
0.0
 40
53.70003137684755
100
AcDbArc
 50
275.0989079029514
 51
298.9365643046074
  0
ARC
  5
23B
330
1A
100
AcDbEntity
  8
SEIHIN
  6
Continuous
 62
     3
 48
16.0
100
AcDbCircle
 10
157.2004677098563
 20
147.5601507511371
 30
0.0
 40
52.70004220596086
100
AcDbArc
 50
241.063229073736
 51
264.9009751103334
  0
ARC
  5
23C
330
1A
100
AcDbEntity
  8
SEIHIN
  6
Continuous
 62
     3
 48
16.0
100
AcDbCircle
 10
147.2992962227421
 20
147.5600257147806
 30
0.0
 40
52.70007065016227
100
AcDbArc
 50
331.0463065508054
 51
332.3202402425168
  0
LINE
  5
23D
330
1A
100
AcDbEntity
  8
SEIHIN
  6
Continuous
100
AcDbLine
 10
183.7934736964553
 20
116.3840395341678
 30
0.0
 11
178.4756462484242
 21
116.3840395341678
 31
0.0
  0
ARC
  5
23E
330
1A
100
AcDbEntity
  8
SEIHIN
  6
Continuous
 62
     3
 48
16.0
100
AcDbCircle
 10
172.4260466828533
 20
106.1164236041781
 30
0.0
 40
11.99999127896941
100
AcDbArc
 50
298.9368309315246
 51
0.0
  0
ARC
  5
23F
330
1A
100
AcDbEntity
  8
SEIHIN
  6
Continuous
 62
     3
 48
16.0
100
AcDbCircle
 10
167.4756778380766
 20
111.066191395487
 30
0.0
 40
10.99996841034754
100
AcDbArc
 50
298.9364530218876
 51
0.0
  0
ARC
  5
240
330
1A
100
AcDbEntity
  8
SEIHIN
  6
Continuous
 62
     3
 48
16.0
100
AcDbCircle
 10
167.4756643501297
 20
111.0661610149408
 30
0.0
 40
11.99996708693041
100
AcDbArc
 50
298.9363354120569
 51
0.0
  0
LINE
  5
241
330
1A
100
AcDbEntity
  8
SEIHIN
  6
Continuous
100
AcDbLine
 10
178.4756462484242
 20
111.066191395487
 30
0.0
 11
178.4756462484242
 21
116.3840395341678
 31
0.0
  0
LINE
  5
242
330
1A
100
AcDbEntity
  8
SEIHIN
  6
Continuous
100
AcDbLine
 10
184.4260379618227
 20
106.1164236041781
 30
0.0
 11
184.4260379618227
 21
110.4343114523584
 31
0.0
  0
ARC
  5
243
330
1A
100
AcDbEntity
  8
SEIHIN
  6
Continuous
 62
     3
 48
16.0
100
AcDbCircle
 10
183.7934736964553
 20
127.3840798985281
 30
0.0
 40
11.00004036436036
100
AcDbArc
 50
270.0
 51
331.1321656185307
  0
ARC
  5
244
330
1A
100
AcDbEntity
  8
SEIHIN
  6
Continuous
 62
     3
 48
16.0
100
AcDbCircle
 10
183.793442701967
 20
127.3840652772675
 30
0.0
 40
12.00003361265095
100
AcDbArc
 50
270.0
 51
331.132175836541
  0
ARC
  5
245
330
1A
100
AcDbEntity
  8
SEIHIN
  6
Continuous
 62
     3
 48
16.0
100
AcDbCircle
 10
183.793442701967
 20
127.3840652772675
 30
0.0
 40
12.00003361265095
100
AcDbArc
 50
270.0
 51
331.132175836541
  0
LINE
  5
246
330
1A
100
AcDbEntity
  8
SEIHIN
  6
Continuous
100
AcDbLine
 10
188.7439489902453
 20
110.4343114523585
 30
0.0
 11
184.4260379618227
 21
110.4343114523584
 31
0.0
  0
LINE
  5
247
330
1A
100
AcDbEntity
  8
SEIHIN
  6
Continuous
100
AcDbLine
 10
179.4756314370602
 20
111.0661610149408
 30
0.0
 11
179.4756314370602
 21
115.3840316646166
 31
0.0
  0
LINE
  5
248
330
1A
100
AcDbEntity
  8
SEIHIN
  6
Continuous
100
AcDbLine
 10
183.793442701967
 20
115.3840316646166
 30
0.0
 11
179.4756314370602
 21
115.3840316646166
 31
0.0
  0
ARC
  5
249
330
1A
100
AcDbEntity
  8
SEIHIN
  6
Continuous
 62
     3
 48
16.0
100
AcDbCircle
 10
193.5254749078965
 20
123.3115663812453
 30
0.0
 40
0.5
100
AcDbArc
 50
332.3202402425143
 51
80.034003019367
  0
ARC
  5
24A
330
1A
100
AcDbEntity
  8
SEIHIN
  6
Continuous
 62
     3
 48
16.0
100
AcDbCircle
 10
152.2498529154937
 20
142.6103322325034
 30
0.0
 40
53.69992560248705
100
AcDbArc
 50
331.0462193894264
 51
342.7301707491508
  0
ARC
  5
24B
330
1A
100
AcDbEntity
  8
SEIHIN
  6
Continuous
 62
     3
 48
16.0
100
AcDbCircle
 10
211.6999885953271
 20
138.9104716734222
 30
0.0
 40
6.499984573045248
100
AcDbArc
 50
0.0000706420069602
 51
104.5101353259992
  0
LINE
  5
24C
330
1A
100
AcDbEntity
  8
SEIHIN
  6
Continuous
 62
     3
 48
16.0
100
AcDbLine
 10
211.6999731683673
 20
130.1103796874847
 30
0.0
 11
210.7113731683674
 21
130.1103796874847
 31
0.0
  0
ARC
  5
24D
330
1A
100
AcDbEntity
  8
NOKITOI
  6
Continuous
 62
     8
 48
5.0
100
AcDbCircle
 10
211.7997898785617
 20
138.6104408823179
 30
0.0
 40
3.999981474645155
100
AcDbArc
 50
222.570219189405
 51
171.2362504387284
  0
CIRCLE
  5
24E
330
1A
100
AcDbEntity
  8
NOKITOI
  6
PHANTOM
100
AcDbCircle
 10
211.7998082829041
 20
138.6103803156821
 30
0.0
 40
2.7
  0
ARC
  5
24F
330
1A
100
AcDbEntity
  8
SEIHIN
  6
Continuous
 62
     3
 48
16.0
100
AcDbCircle
 10
200.6642104561845
 20
127.5590167438472
 30
0.0
 40
2.999970558859001
100
AcDbArc
 50
342.7303457512244
 51
78.55578753445103
  0
ARC
  5
250
330
1A
100
AcDbEntity
  8
SEIHIN
  6
Continuous
 62
     3
 48
16.0
100
AcDbCircle
 10
210.7113337610829
 20
129.110348345967
 30
0.0
 40
1.000031342294152
100
AcDbArc
 50
89.99774219968479
 51
166.9898132913518
  0
LINE
  5
251
330
1A
100
AcDbEntity
  8
SEIHIN
  6
Continuous
 62
     3
 48
16.0
100
AcDbLine
 10
218.1999731683674
 20
136.6103796874847
 30
0.0
 11
218.1999731683674
 21
138.9104796874846
 31
0.0
  0
ARC
  5
252
330
1A
100
AcDbEntity
  8
SEIHIN
  6
Continuous
 62
     3
 48
16.0
100
AcDbCircle
 10
211.6999731683673
 20
136.6103796874847
 30
0.0
 40
6.5
100
AcDbArc
 50
270.0
 51
0.0
  0
TEXT
  5
257
330
1A
100
AcDbEntity
  8
SUNPOU
 62
     4
100
AcDbText
 10
297.8780855004396
 20
42.46057351294138
 30
0.0
 40
4.0
  1
※　のきといの差込み寸法を示す。
100
AcDbText
  0
LINE
  5
258
330
1A
100
AcDbEntity
  8
SEIHIN
  6
Continuous
 62
     3
 48
16.0
100
AcDbLine
 10
278.5085081233803
 20
83.61044460541512
 30
0.0
 11
278.5086605821464
 21
130.1104446051652
 31
0.0
  0
LINE
  5
259
330
1A
100
AcDbEntity
  8
SEIHIN
  6
Continuous
 62
     3
 48
16.0
100
AcDbLine
 10
298.3085107462203
 20
84.41037968748473
 30
0.0
 11
298.3086107462201
 21
145.4104796874846
 31
0.0
  0
LINE
  5
25A
330
1A
100
AcDbEntity
  8
SEIHIN
  6
Continuous
 62
     3
 48
16.0
100
AcDbLine
 10
293.3085081233007
 20
83.61039608090463
 30
0.0
 11
293.3086605820668
 21
130.1103960806547
 31
0.0
  0
DIMENSION
  5
25B
330
1A
100
AcDbEntity
  8
SUNPOU
100
AcDbDimension
  2
*D3
 10
298.3085094347471
 20
69.28844590700027
 30
0.0
 11
288.4085087790637
 21
71.78844590700027
 31
0.0
 70
    32
 71
     5
 42
-1.0
  3
STANDARD
100
AcDbAlignedDimension
 13
278.5085081233803
 23
83.61044460541512
 33
0.0
 14
298.3085094347471
 24
83.61037968748462
 34
0.0
100
AcDbRotatedDimension
1001
ACAD
1000
DSTYLE
1002
{
1070
   140
1040
3.0
1070
    74
1070
     0
1070
   172
1070
     1
1070
    73
1070
     0
1070
   272
1070
     2
1070
    77
1070
     3
1070
   173
1070
     1
1070
   147
1040
1.0
1070
    42
1040
3.0
1070
    44
1040
1.5
1070
    43
1040
7.0
1070
   271
1070
     0
1070
   178
1070
     4
1070
   177
1070
     4
1070
   176
1070
     4
1070
   141
1040
150.0
1070
     7
1000
_OPEN
1070
     6
1000
_OPEN
1070
    41
1040
3.0
1002
}
  0
LINE
  5
25C
330
1A
100
AcDbEntity
  8
SEIHIN
  6
Continuous
 62
     3
 48
16.0
100
AcDbLine
 10
293.3085081233007
 20
83.61039608090463
 30
0.0
 11
278.5085081233803
 21
83.61044460541512
 31
0.0
  0
LINE
  5
25D
330
1A
100
AcDbEntity
  8
SEIHIN
  6
Continuous
 62
     3
 48
16.0
100
AcDbLine
 10
298.3085107462203
 20
84.41037968748473
 30
0.0
 11
293.3085081233007
 21
83.61039608090463
 31
0.0
  0
LINE
  5
25E
330
1A
100
AcDbEntity
  8
SEIHIN
  6
Continuous
 62
     3
 48
16.0
100
AcDbLine
 10
298.3086605820399
 20
130.110379687239
 30
0.0
 11
276.5086605821571
 21
130.1104511625315
 31
0.0
  0
LINE
  5
25F
330
1A
100
AcDbEntity
  8
SEIHIN
  6
Continuous
 62
     3
 48
16.0
100
AcDbLine
 10
298.3087107462198
 20
145.4104796871567
 30
0.0
 11
276.508710746337
 21
145.4105511624492
 31
0.0
  0
LINE
  5
260
330
1A
100
AcDbEntity
  8
SEIHIN
  6
Continuous
 62
     3
 48
16.0
100
AcDbLine
 10
276.5086605821571
 20
130.1104511625315
 30
0.0
 11
276.508710746337
 21
145.4105511624492
 31
0.0
  0
LINE
  5
261
330
1A
100
AcDbEntity
  8
SEIHIN
  6
Continuous
 62
     3
 48
16.0
100
AcDbLine
 10
152.2499731683673
 20
207.3926796874845
 30
0.0
 11
205.4388731683675
 21
207.3926796874845
 31
0.0
  0
LINE
  5
262
330
1A
100
AcDbEntity
  8
SEIHIN
  6
Continuous
 62
     3
 48
16.0
100
AcDbLine
 10
152.2499731683673
 20
198.5926796874845
 30
0.0
 11
218.2000731683674
 21
198.5926796874845
 31
0.0
  0
LINE
  5
263
330
1A
100
AcDbEntity
  8
SEIHIN
  6
Continuous
 62
     3
 48
16.0
100
AcDbLine
 10
152.2499731683673
 20
220.3926796874845
 30
0.0
 11
218.2001731683673
 21
220.3926796874845
 31
0.0
  0
LINE
  5
264
330
1A
100
AcDbEntity
  8
SEIHIN
  6
Continuous
 62
     3
 48
16.0
100
AcDbLine
 10
152.2499731683673
 20
200.5926796874845
 30
0.0
 11
209.5378731683673
 21
200.5926796874845
 31
0.0
  0
LINE
  5
265
330
1A
100
AcDbEntity
  8
CENTER L
  6
CENTER
 62
     1
 48
5.0
100
AcDbLine
 10
152.2498731683673
 20
226.7122796874845
 30
0.0
 11
152.2498731683673
 21
190.9160796874845
 31
0.0
  0
DIMENSION
  5
266
330
1A
100
AcDbEntity
  8
SUNPOU
  6
Continuous
100
AcDbDimension
  2
*D4
 10
243.316644640124
 20
220.3926796874845
 30
0.0
 11
240.816644640124
 21
209.4926796874845
 31
0.0
 70
    32
 71
     5
 42
-1.0
  3
STANDARD
100
AcDbAlignedDimension
 13
218.2000731683674
 23
198.5926796874845
 33
0.0
 14
218.2001731683673
 24
220.3926796874845
 34
0.0
 50
270.0
100
AcDbRotatedDimension
1001
ACAD
1000
DSTYLE
1002
{
1070
   140
1040
3.0
1070
    74
1070
     0
1070
   172
1070
     1
1070
    73
1070
     0
1070
   272
1070
     2
1070
    77
1070
     3
1070
   173
1070
     1
1070
   147
1040
1.0
1070
    42
1040
3.0
1070
    44
1040
1.5
1070
    43
1040
7.0
1070
   271
1070
     0
1070
   178
1070
     4
1070
   177
1070
     4
1070
   176
1070
     4
1070
   141
1040
150.0
1070
     7
1000
_OPEN
1070
     6
1000
_OPEN
1070
    41
1040
3.0
1002
}
  0
DIMENSION
  5
267
330
1A
100
AcDbEntity
  8
SUNPOU
100
AcDbDimension
  2
*D5
 10
235.2398318490939
 20
202.5926796874845
 30
0.0
 11
232.7398318490939
 21
211.4926796874845
 31
0.0
 70
    32
  1
※<>
 71
     5
 42
-1.0
  3
STANDARD
100
AcDbAlignedDimension
 13
218.2001731683673
 23
220.3926796874845
 33
0.0
 14
207.5378731683673
 24
202.5926796874845
 34
0.0
 50
90.0
100
AcDbRotatedDimension
1001
ACAD
1000
DSTYLE
1002
{
1070
   140
1040
3.0
1070
    74
1070
     0
1070
   172
1070
     1
1070
    73
1070
     0
1070
   272
1070
     2
1070
    77
1070
     3
1070
   173
1070
     1
1070
   147
1040
1.0
1070
    42
1040
3.0
1070
    44
1040
1.5
1070
    43
1040
7.0
1070
   271
1070
     0
1070
   178
1070
     4
1070
   177
1070
     4
1070
   176
1070
     4
1070
   141
1040
150.0
1070
     7
1000
_OPEN
1070
     6
1000
_OPEN
1070
    41
1040
3.0
1002
}
  0
LINE
  5
268
330
1A
100
AcDbEntity
  8
SEIHIN
  6
Continuous
 62
     3
 48
16.0
100
AcDbLine
 10
207.5378731683673
 20
220.3926796874845
 30
0.0
 11
207.5378731683673
 21
200.5926796874845
 31
0.0
  0
LINE
  5
269
330
1A
100
AcDbEntity
  8
SEIHIN
  6
Continuous
 62
     3
 48
16.0
100
AcDbLine
 10
205.4388731683675
 20
207.3926796874845
 30
0.0
 11
205.4388731683675
 21
200.5926796874845
 31
0.0
  0
LINE
  5
26A
330
1A
100
AcDbEntity
  8
SEIHIN
  6
Continuous
 62
     3
 48
16.0
100
AcDbLine
 10
205.4388731683675
 20
202.5926796874845
 30
0.0
 11
207.5378731683673
 21
202.5926796874845
 31
0.0
  0
LINE
  5
26B
330
1A
100
AcDbEntity
  8
SEIHIN
  6
Continuous
 62
     3
 48
16.0
100
AcDbLine
 10
218.2001731683673
 20
220.3926796874845
 30
0.0
 11
218.2000731683674
 21
198.5926796874845
 31
0.0
  0
DIMENSION
  5
302
330
1A
100
AcDbEntity
  8
SUNPOU
100
AcDbDimension
  2
*D6
 10
235.2398318490939
 20
83.61037968744549
 30
0.0
 11
232.7398318490939
 21
114.5104179669565
 31
0.0
 70
    32
 71
     5
 42
-1.0
  3
STANDARD
100
AcDbAlignedDimension
 13
211.6999885953271
 23
145.4104562464674
 33
0.0
 14
152.2498731683673
 24
83.61037968744552
 34
0.0
 50
90.0
100
AcDbRotatedDimension
1001
ACAD
1000
DSTYLE
1002
{
1070
   140
1040
3.0
1070
    74
1070
     0
1070
   172
1070
     1
1070
    73
1070
     0
1070
   272
1070
     2
1070
    77
1070
     3
1070
   173
1070
     1
1070
   147
1040
1.0
1070
    42
1040
3.0
1070
    44
1040
1.5
1070
    43
1040
7.0
1070
   271
1070
     0
1070
   178
1070
     4
1070
   177
1070
     4
1070
   176
1070
     4
1070
   141
1040
150.0
1070
     7
1000
_OPEN
1070
     6
1000
_OPEN
1070
    41
1040
3.0
1002
}
  0
LWPOLYLINE
  5
653
330
1A
100
AcDbEntity
  8
ZUWAKU
100
AcDbPolyline
 90
        4
 70
     1
 43
0.0
 10
0.3999999999999772
 20
275.4
 10
0.3999999999999772
 20
0.4000000000000341
 10
398.4
 20
0.4000000000000341
 10
398.4
 20
275.4
  0
LWPOLYLINE
  5
654
330
1A
100
AcDbEntity
  8
ZUWAKU
100
AcDbPolyline
 90
        4
 70
     1
 43
0.0
 10
0.1999999999999886
 20
275.6
 10
0.1999999999999886
 20
0.2000000000000455
 10
398.6
 20
0.2000000000000348
 10
398.6
 20
275.6
  0
LWPOLYLINE
  5
655
330
1A
100
AcDbEntity
  8
ZUWAKU
100
AcDbPolyline
 90
        4
 70
     1
 43
0.0
 10
0.0
 20
275.8
 10
0.0
 20
0.0
 10
398.8000000000001
 20
0.0000000000000338
 10
398.8000000000001
 20
275.8000000000001
  0
LWPOLYLINE
  5
656
330
1A
100
AcDbEntity
  8
ZUWAKU
100
AcDbPolyline
 90
        4
 70
     1
 43
0.0
 10
0.2999999999999545
 20
275.5000000000001
 10
0.2999999999999545
 20
0.3000000000000114
 10
398.5000000000001
 20
0.3000000000000345
 10
398.5
 20
275.5000000000001
  0
LWPOLYLINE
  5
657
330
1A
100
AcDbEntity
  8
ZUWAKU
100
AcDbPolyline
 90
        4
 70
     1
 43
0.0
 10
0.0999999999999659
 20
275.7000000000001
 10
0.0999999999999659
 20
0.1000000000000227
 10
398.6999999999999
 20
0.1000000000000334
 10
398.7
 20
275.7000000000001
  0
LINE
  5
658
330
1A
100
AcDbEntity
  8
ZUWAKU
100
AcDbLine
 10
0.0
 20
15.0
 30
0.0
 11
398.6999999999999
 21
15.0
 31
0.0
  0
LINE
  5
659
330
1A
100
AcDbEntity
  8
ZUWAKU
100
AcDbLine
 10
0.0
 20
15.1
 30
0.0
 11
398.6999999999999
 21
15.1
 31
0.0
  0
LINE
  5
65A
330
1A
100
AcDbEntity
  8
ZUWAKU
100
AcDbLine
 10
0.0
 20
15.2
 30
0.0
 11
398.6999999999999
 21
15.2
 31
0.0
  0
LINE
  5
65B
330
1A
100
AcDbEntity
  8
ZUWAKU
100
AcDbLine
 10
0.0
 20
15.3
 30
0.0
 11
398.6999999999999
 21
15.3
 31
0.0
  0
LINE
  5
65C
330
1A
100
AcDbEntity
  8
ZUWAKU
100
AcDbLine
 10
0.0
 20
15.4
 30
0.0
 11
398.6999999999999
 21
15.4
 31
0.0
  0
LINE
  5
65D
330
1A
100
AcDbEntity
  8
ZUWAKU
100
AcDbLine
 10
104.323300645034
 20
7.700000000000017
 30
0.0
 11
223.7121819854957
 21
7.700000000000017
 31
0.0
  0
LINE
  5
65E
330
1A
100
AcDbEntity
  8
ZUWAKU
100
AcDbLine
 10
104.323300645034
 20
7.800000000000018
 30
0.0
 11
223.7121819854957
 21
7.800000000000018
 31
0.0
  0
LINE
  5
65F
330
1A
100
AcDbEntity
  8
ZUWAKU
100
AcDbLine
 10
104.323300645034
 20
7.600000000000019
 30
0.0
 11
223.7121819854957
 21
7.600000000000015
 31
0.0
  0
CIRCLE
  5
66C
330
1A
100
AcDbEntity
  8
ZUWAKU
100
AcDbCircle
 10
12.99610607739055
 20
7.600000000000001
 30
0.0
 40
0.875
  0
LINE
  5
66D
330
1A
100
AcDbEntity
  8
ZUWAKU
100
AcDbLine
 10
13.43360607739055
 20
3.575000000000002
 30
0.0
 11
12.47110607739057
 21
3.575000000000002
 31
0.0
  0
LINE
  5
66E
330
1A
100
AcDbEntity
  8
ZUWAKU
100
AcDbLine
 10
12.47110607739057
 20
4.975000000000001
 30
0.0
 11
13.43360607739055
 21
4.975000000000001
 31
0.0
  0
LINE
  5
66F
330
1A
100
AcDbEntity
  8
ZUWAKU
100
AcDbLine
 10
13.43360607739055
 20
10.225
 30
0.0
 11
12.47110607739057
 21
10.225
 31
0.0
  0
LINE
  5
670
330
1A
100
AcDbEntity
  8
ZUWAKU
100
AcDbLine
 10
12.47110607739057
 20
11.62499999999998
 30
0.0
 11
13.43360607739055
 21
11.625
 31
0.0
  0
INSERT
  5
671
330
1A
100
AcDbEntity
  8
ZUWAKU
  6
Continuous
100
AcDbBlockReference
  2
*X7
 10
-0.0000003076265784
 20
0.0000003475286121
 30
0.0
1001
ACAD
1000
HATCH
1002
{
1070
    19
1000
ANSI37
1040
0.1
1040
0.0
1000
R14_HATCH_DATA
1000
67A
1011
0.9999996923734215
1021
0.0000003475286121
1031
0.0
1011
-0.0000003076265784
1021
1.000000347528612
1031
0.0
1011
-0.0000003076265784
1021
0.0000003475286121
1031
1.0
1040
0.0
1010
0.0
1020
0.0
1030
1.0
1000
ANSI37
1070
     0
1070
     0
1071
        8
1071
        7
1070
     1
1070
     1
1071
       24
1040
7.251131638186507
1040
8.822423892963179
1040
-0.1989123673796348
1040
7.046106385017139
1040
9.317398639793704
1040
0.0
1040
7.046106385017139
1040
9.962499652471393
1040
-0.4142135623730912
1040
7.308606385017128
1040
10.22499965247139
1040
0.0
1040
8.796106385017083
1040
10.22499965247139
1040
0.4142135623731546
1040
9.058606385017128
1040
10.48749965247138
1040
0.0
1040
9.058606385017128
1040
11.36249965247139
1040
0.4142135623731586
1040
8.796106385017083
1040
11.62499965247139
1040
0.0
1040
7.046106385017139
1040
11.62499965247139
1040
0.4142135623730928
1040
5.646106385017162
1040
10.2249996524714
1040
0.0
1040
5.646106385017162
1040
9.317398639793768
1040
0.1989123673796619
1040
6.261182144525378
1040
7.832474399301965
1040
0.0
1040
7.716081131847715
1040
6.377575411979636
1040
-0.1989123673796613
1040
7.921106385017139
1040
5.882600665149043
1040
0.0
1040
7.921106385017139
1040
5.237499652471385
1040
-0.4142135623730911
1040
7.658606385017151
1040
4.974999652471389
1040
0.0
1040
6.171106385017196
1040
4.974999652471389
1040
0.4142135623731526
1040
5.908606385017151
1040
4.712499652471395
1040
0.0
1040
5.908606385017151
1040
3.837499652471384
1040
0.4142135623731526
1040
6.171106385017196
1040
3.57499965247139
1040
0.0
1040
7.921106385017139
1040
3.57499965247139
1040
0.4142135623731044
1040
9.321106385017174
1040
4.974999652471378
1040
0.0
1040
9.321106385017174
1040
5.882600665149015
1040
0.1989123673796604
1040
8.706030625508901
1040
7.367524905640784
1040
0.0
1071
        0
1071
        7
1070
     1
1070
     1
1071
       16
1040
11.77110638501716
1040
9.524999652471393
1040
-0.4142135623730935
1040
12.47110638501715
1040
10.22499965247139
1040
0.0
1040
13.43360638501713
1040
10.22499965247139
1040
0.4142135623731546
1040
13.69610638501717
1040
10.48749965247138
1040
0.0
1040
13.69610638501717
1040
11.36249965247139
1040
0.4142135623730951
1040
13.43360638501718
1040
11.62499965247139
1040
0.0
1040
12.47110638501709
1040
11.62499965247137
1040
0.4142135623730892
1040
10.37110638501713
1040
9.524999652471358
1040
0.0
1040
10.37110638501713
1040
5.674999652471402
1040
0.4142135623730969
1040
12.47110638501715
1040
3.57499965247139
1040
0.0
1040
13.43360638501713
1040
3.57499965247139
1040
0.4142135623731526
1040
13.69610638501717
1040
3.837499652471384
1040
0.0
1040
13.69610638501717
1040
4.712499652471395
1040
0.4142135623730891
1040
13.43360638501718
1040
4.974999652471389
1040
0.0
1040
12.47110638501715
1040
4.974999652471389
1040
-0.4142135623730928
1040
11.77110638501716
1040
5.674999652471383
1040
0.0
1071
        0
1071
        7
1070
     1
1070
     1
1071
        2
1040
12.12110638501713
1040
7.599999652471389
1040
1.0
1040
13.87110638501713
1040
7.599999652471389
1040
1.0
1071
        0
1071
        7
1070
     1
1070
     1
1071
       26
1040
18.65742962610613
1040
9.602523249253103
1040
0.0
1040
19.18824944267504
1040
11.2834526683879
1040
0.5069206636600134
1040
18.93793399307736
1040
11.62499965247139
1040
0.0
1040
18.08848930327275
1040
11.62499965247139
1040
0.3272098845218764
1040
17.83817385367507
1040
11.44154663655487
1040
0.0
1040
16.90403891635918
1040
8.483452668387929
1040
-0.3272098845219541
1040
16.65372346676145
1040
8.299999652471388
1040
0.0
1040
16.58360638501722
1040
8.299999652471388
1040
-0.4142135623731526
1040
16.32110638501717
1040
8.562499652471382
1040
0.0
1040
16.32110638501717
1040
11.36249965247139
1040
0.4142135623730951
1040
16.05860638501718
1040
11.62499965247139
1040
0.0
1040
15.18360638501713
1040
11.62499965247139
1040
0.4142135623730871
1040
14.92110638501714
1040
11.3624996524714
1040
0.0
1040
14.92110638501714
1040
3.837499652471384
1040
0.4142135623730891
1040
15.18360638501713
1040
3.57499965247139
1040
0.0
1040
16.05860638501713
1040
3.57499965247139
1040
0.4142135623731526
1040
16.32110638501717
1040
3.837499652471384
1040
0.0
1040
16.32110638501717
1040
6.637499652471396
1040
-0.4142135623731526
1040
16.58360638501722
1040
6.89999965247139
1040
0.0
1040
16.6537234667615
1040
6.89999965247139
1040
-0.3272098845218915
1040
16.90403891635918
1040
6.716546636554852
1040
0.0
1040
17.83817385367507
1040
3.758452668387926
1040
0.3272098845218902
1040
18.08848930327275
1040
3.57499965247139
1040
0.0
1040
18.93793399307736
1040
3.57499965247139
1040
0.5069206636600335
1040
19.18824944267504
1040
3.916546636554894
1040
0.0
1040
18.02505375343821
1040
7.599999652471458
1040
0.0
1071
        0
1071
        7
1070
     1
1070
     1
1071
        8
1040
21.74610638501713
1040
11.36249965247139
1040
0.4142135623731546
1040
21.48360638501708
1040
11.62499965247139
1040
0.0
1040
20.6086063850172
1040
11.62499965247139
1040
0.4142135623731507
1040
20.34610638501715
1040
11.3624996524714
1040
0.0
1040
20.34610638501715
1040
3.837499652471384
1040
0.4142135623731526
1040
20.6086063850172
1040
3.57499965247139
1040
0.0
1040
21.48360638501708
1040
3.57499965247139
1040
0.4142135623731526
1040
21.74610638501713
1040
3.837499652471384
1040
0.0
1071
        0
1071
        7
1070
     1
1070
     1
1071
       24
1040
24.19610638501718
1040
9.962499652471393
1040
-0.4142135623731546
1040
24.45860638501722
1040
10.22499965247139
1040
0.0
1040
25.94610638501718
1040
10.22499965247139
1040
0.4142135623730911
1040
26.20860638501716
1040
10.48749965247138
1040
0.0
1040
26.20860638501716
1040
11.36249965247139
1040
0.4142135623730952
1040
25.94610638501718
1040
11.62499965247139
1040
0.0
1040
24.19610638501718
1040
11.62499965247139
1040
0.4142135623731048
1040
22.79610638501714
1040
10.2249996524714
1040
0.0
1040
22.79610638501714
1040
9.317398639793768
1040
0.1989123673796613
1040
23.41118214452541
1040
7.832474399301993
1040
0.0
1040
24.86608113184775
1040
6.377575411979659
1040
-0.1989123673796402
1040
25.07110638501718
1040
5.882600665149123
1040
0.0
1040
25.07110638501718
1040
5.237499652471385
1040
-0.4142135623730911
1040
24.80860638501719
1040
4.974999652471389
1040
0.0
1040
23.32110638501717
1040
4.974999652471389
1040
0.4142135623731526
1040
23.05860638501713
1040
4.712499652471395
1040
0.0
1040
23.05860638501713
1040
3.837499652471384
1040
0.4142135623730891
1040
23.32110638501712
1040
3.57499965247139
1040
0.0
1040
25.07110638501718
1040
3.57499965247139
1040
0.4142135623730925
1040
26.47110638501715
1040
4.974999652471378
1040
0.0
1040
26.47110638501715
1040
5.882600665149015
1040
0.1989123673796675
1040
25.85603062550888
1040
7.367524905640841
1040
0.0
1040
24.4011316381866
1040
8.822423892963099
1040
-0.1989123673796652
1040
24.19610638501718
1040
9.317398639793683
1040
0.0
1071
        0
1071
        7
1070
     1
1070
     1
1071
       16
1040
28.92110638501714
1040
11.36249965247138
1040
0.414213562373103
1040
28.65860638501715
1040
11.62499965247139
1040
0.0
1040
27.78360638501715
1040
11.62499965247139
1040
0.4142135623730871
1040
27.52110638501716
1040
11.3624996524714
1040
0.0
1040
27.52110638501716
1040
4.974999652471378
1040
0.4142135623730926
1040
28.92110638501714
1040
3.57499965247139
1040
0.0
1040
30.67110638501714
1040
3.57499965247139
1040
0.4142135623731044
1040
32.07110638501717
1040
4.974999652471378
1040
0.0
1040
32.07110638501717
1040
11.36249965247139
1040
0.4142135623730951
1040
31.80860638501719
1040
11.62499965247139
1040
0.0
1040
30.93360638501713
1040
11.62499965247139
1040
0.4142135623730871
1040
30.67110638501714
1040
11.3624996524714
1040
0.0
1040
30.67110638501714
1040
5.499999652471377
1040
-0.414213562373088
1040
30.14610638501717
1040
4.974999652471389
1040
0.0
1040
29.44610638501718
1040
4.974999652471389
1040
-0.4142135623731197
1040
28.92110638501714
1040
5.499999652471377
1040
0.0
1071
        0
1071
        7
1070
     1
1070
     1
1071
        8
1040
34.52110638501717
1040
11.3624996524714
1040
0.4142135623730871
1040
34.25860638501717
1040
11.62499965247139
1040
0.0
1040
33.38360638501717
1040
11.62499965247139
1040
0.4142135623731507
1040
33.12110638501713
1040
11.3624996524714
1040
0.0
1040
33.12110638501713
1040
3.837499652471384
1040
0.4142135623730891
1040
33.38360638501712
1040
3.57499965247139
1040
0.0
1040
34.25860638501717
1040
3.57499965247139
1040
0.4142135623730891
1040
34.52110638501717
1040
3.837499652471384
1040
0.0
1071
        0
1070
     0
1070
     1
1040
0.0
1040
0.1
1070
     0
1070
     2
1040
0.7853981633974483
1040
-450.4711518597129
1040
-6.600000347528578
1040
-0.2245064030267288
1040
0.2245064030267288
1070
     0
1040
2.356194490192344
1040
-450.4711518597129
1040
-6.600000347528578
1040
-0.2245064030267288
1040
-0.2245064030267288
1070
     0
1040
0.057451373970553
1071
        8
1040
8.039927789138232
1040
7.583586475414165
1040
0.0
1040
11.20225781084616
1040
9.422030743696893
1040
0.0
1040
12.5821842504564
1040
7.755940475506747
1040
0.0
1040
15.45703029844515
1040
8.100648475692139
1040
0.0
1040
20.91923631710495
1040
8.330454609462947
1040
0.0
1040
23.44910075519135
1040
9.709287810674993
1040
0.0
1040
28.27884329382675
1040
9.364578610018895
1040
0.0
1040
33.91354011743795
1040
9.594384743789703
1040
0.0
1002
}
  0
ARC
  5
672
330
1A
100
AcDbEntity
  8
ZUWAKU
100
AcDbCircle
 10
7.74610607739055
 20
9.317398987322352
 30
0.0
 40
2.099999999999999
100
AcDbArc
 50
180.0
 51
224.9999999999996
  0
LINE
  5
673
330
1A
100
AcDbEntity
  8
ZUWAKU
100
AcDbLine
 10
10.37110607739055
 20
5.675000000000004
 30
0.0
 11
10.37110607739055
 21
9.52499999999998
 31
0.0
  0
LINE
  5
674
330
1A
100
AcDbEntity
  8
ZUWAKU
100
AcDbLine
 10
11.77110607739058
 20
9.525000000000002
 30
0.0
 11
11.77110607739058
 21
5.675000000000004
 31
0.0
  0
ARC
  5
675
330
1A
100
AcDbEntity
  8
ZUWAKU
100
AcDbCircle
 10
7.74610607739055
 20
9.317398987322352
 30
0.0
 40
0.7
100
AcDbArc
 50
180.0000000000016
 51
224.9999999999994
  0
ARC
  5
676
330
1A
100
AcDbEntity
  8
ZUWAKU
100
AcDbCircle
 10
12.47110607739057
 20
5.675000000000004
 30
0.0
 40
2.099999999999999
100
AcDbArc
 50
180.0
 51
270.0
  0
ARC
  5
677
330
1A
100
AcDbEntity
  8
ZUWAKU
100
AcDbCircle
 10
7.921106077390561
 20
4.975000000000001
 30
0.0
 40
1.399999999999999
100
AcDbArc
 50
270.0
 51
0.0
  0
ARC
  5
678
330
1A
100
AcDbEntity
  8
ZUWAKU
100
AcDbCircle
 10
7.221106077390572
 20
5.882601012677653
 30
0.0
 40
2.099999999999999
100
AcDbArc
 50
0.0
 51
44.99999999999956
  0
LINE
  5
679
330
1A
100
AcDbEntity
  8
ZUWAKU
100
AcDbLine
 10
6.261181836898799
 20
7.832474746830591
 30
0.0
 11
7.716080824221137
 21
6.37757575950826
 31
0.0
  0
LINE
  5
67A
330
1A
100
AcDbEntity
  8
ZUWAKU
100
AcDbLine
 10
6.171106077390561
 20
4.975000000000001
 30
0.0
 11
7.658606077390572
 21
4.975000000000001
 31
0.0
  0
LINE
  5
67B
330
1A
100
AcDbEntity
  8
ZUWAKU
100
AcDbLine
 10
6.171106077390561
 20
3.575000000000002
 30
0.0
 11
7.921106077390561
 21
3.575000000000002
 31
0.0
  0
ARC
  5
67C
330
1A
100
AcDbEntity
  8
ZUWAKU
100
AcDbCircle
 10
6.171106077390561
 20
4.712500000000002
 30
0.0
 40
0.2625
100
AcDbArc
 50
90.0
 51
180.0
  0
ARC
  5
67D
330
1A
100
AcDbEntity
  8
ZUWAKU
100
AcDbCircle
 10
6.171106077390561
 20
3.837500000000002
 30
0.0
 40
0.2625
100
AcDbArc
 50
180.0
 51
270.0
  0
LINE
  5
67E
330
1A
100
AcDbEntity
  8
ZUWAKU
100
AcDbLine
 10
5.908606077390572
 20
3.837500000000002
 30
0.0
 11
5.908606077390572
 21
4.712500000000002
 31
0.0
  0
ARC
  5
67F
330
1A
100
AcDbEntity
  8
ZUWAKU
100
AcDbCircle
 10
7.221106077390572
 20
5.882601012677675
 30
0.0
 40
0.7
100
AcDbArc
 50
0.0
 51
44.99999999999956
  0
ARC
  5
680
330
1A
100
AcDbEntity
  8
ZUWAKU
100
AcDbCircle
 10
7.658606077390572
 20
5.237500000000004
 30
0.0
 40
0.2625
100
AcDbArc
 50
270.0
 51
0.0
  0
LINE
  5
681
330
1A
100
AcDbEntity
  8
ZUWAKU
100
AcDbLine
 10
7.921106077390561
 20
5.237500000000004
 30
0.0
 11
7.921106077390561
 21
5.882601012677675
 31
0.0
  0
LINE
  5
682
330
1A
100
AcDbEntity
  8
ZUWAKU
100
AcDbLine
 10
8.706030317882323
 20
7.367525253169414
 30
0.0
 11
7.251131330559985
 21
8.822424240491752
 31
0.0
  0
ARC
  5
683
330
1A
100
AcDbEntity
  8
ZUWAKU
100
AcDbCircle
 10
12.47110607739057
 20
5.675000000000004
 30
0.0
 40
0.7
100
AcDbArc
 50
180.0
 51
270.0
  0
LINE
  5
684
330
1A
100
AcDbEntity
  8
ZUWAKU
100
AcDbLine
 10
9.321106077390595
 20
4.975000000000001
 30
0.0
 11
9.321106077390595
 21
5.882601012677675
 31
0.0
  0
ARC
  5
685
330
1A
100
AcDbEntity
  8
ZUWAKU
100
AcDbCircle
 10
8.796106077390561
 20
10.4875
 30
0.0
 40
0.2625
100
AcDbArc
 50
270.0
 51
0.0
  0
ARC
  5
686
330
1A
100
AcDbEntity
  8
ZUWAKU
100
AcDbCircle
 10
8.796106077390561
 20
11.3625
 30
0.0
 40
0.2625
100
AcDbArc
 50
0.0
 51
90.0
  0
ARC
  5
687
330
1A
100
AcDbEntity
  8
ZUWAKU
100
AcDbCircle
 10
7.046106077390561
 20
10.225
 30
0.0
 40
1.399999999999999
100
AcDbArc
 50
90.0
 51
180.0
  0
LINE
  5
688
330
1A
100
AcDbEntity
  8
ZUWAKU
100
AcDbLine
 10
5.646106077390584
 20
10.225
 30
0.0
 11
5.646106077390584
 21
9.317398987322331
 31
0.0
  0
LINE
  5
689
330
1A
100
AcDbEntity
  8
ZUWAKU
100
AcDbLine
 10
8.796106077390561
 20
10.225
 30
0.0
 11
7.30860607739055
 21
10.225
 31
0.0
  0
LINE
  5
68A
330
1A
100
AcDbEntity
  8
ZUWAKU
100
AcDbLine
 10
7.046106077390561
 20
9.962500000000002
 30
0.0
 11
7.046106077390561
 21
9.317398987322331
 31
0.0
  0
ARC
  5
68B
330
1A
100
AcDbEntity
  8
ZUWAKU
100
AcDbCircle
 10
7.30860607739055
 20
9.962500000000002
 30
0.0
 40
0.2625
100
AcDbArc
 50
90.0
 51
180.0
  0
LINE
  5
68C
330
1A
100
AcDbEntity
  8
ZUWAKU
100
AcDbLine
 10
7.046106077390561
 20
11.625
 30
0.0
 11
8.796106077390561
 21
11.625
 31
0.0
  0
ARC
  5
68D
330
1A
100
AcDbEntity
  8
ZUWAKU
100
AcDbCircle
 10
12.47110607739057
 20
9.52499999999998
 30
0.0
 40
2.099999999999999
100
AcDbArc
 50
90.0
 51
180.0
  0
ARC
  5
68E
330
1A
100
AcDbEntity
  8
ZUWAKU
100
AcDbCircle
 10
12.47110607739057
 20
9.525000000000002
 30
0.0
 40
0.7
100
AcDbArc
 50
90.0
 51
180.0
  0
LINE
  5
68F
330
1A
100
AcDbEntity
  8
ZUWAKU
100
AcDbLine
 10
9.05860607739055
 20
11.3625
 30
0.0
 11
9.05860607739055
 21
10.4875
 31
0.0
  0
LINE
  5
690
330
1A
100
AcDbEntity
  8
ZUWAKU
100
AcDbLine
 10
17.83817354604849
 20
11.44154698408349
 30
0.0
 11
16.9040386087326
 21
8.483453015916516
 31
0.0
  0
LINE
  5
691
330
1A
100
AcDbEntity
  8
ZUWAKU
100
AcDbLine
 10
14.92110607739056
 20
11.3625
 30
0.0
 11
14.92110607739056
 21
3.837500000000002
 31
0.0
  0
LINE
  5
692
330
1A
100
AcDbEntity
  8
ZUWAKU
100
AcDbLine
 10
16.32110607739059
 20
8.562500000000003
 30
0.0
 11
16.32110607739059
 21
11.3625
 31
0.0
  0
LINE
  5
693
330
1A
100
AcDbEntity
  8
ZUWAKU
100
AcDbLine
 10
28.92110607739056
 20
5.5
 30
0.0
 11
28.92110607739056
 21
11.3625
 31
0.0
  0
LINE
  5
694
330
1A
100
AcDbEntity
  8
ZUWAKU
100
AcDbLine
 10
27.52110607739059
 20
11.3625
 30
0.0
 11
27.52110607739059
 21
4.975000000000001
 31
0.0
  0
LINE
  5
695
330
1A
100
AcDbEntity
  8
ZUWAKU
100
AcDbLine
 10
21.74610607739055
 20
3.837500000000002
 30
0.0
 11
21.74610607739055
 21
11.3625
 31
0.0
  0
LINE
  5
696
330
1A
100
AcDbEntity
  8
ZUWAKU
100
AcDbLine
 10
20.34610607739057
 20
11.3625
 30
0.0
 11
20.34610607739057
 21
3.837500000000002
 31
0.0
  0
LINE
  5
697
330
1A
100
AcDbEntity
  8
ZUWAKU
100
AcDbLine
 10
18.65742931847956
 20
9.602523596781715
 30
0.0
 11
18.02505344581163
 21
7.600000000000012
 31
0.0
  0
ARC
  5
698
330
1A
100
AcDbEntity
  8
ZUWAKU
100
AcDbCircle
 10
24.89610607739058
 20
9.317398987322352
 30
0.0
 40
2.099999999999999
100
AcDbArc
 50
180.0
 51
224.9999999999996
  0
ARC
  5
699
330
1A
100
AcDbEntity
  8
ZUWAKU
100
AcDbCircle
 10
24.89610607739058
 20
9.317398987322352
 30
0.0
 40
0.7
100
AcDbArc
 50
180.0000000000016
 51
224.9999999999994
  0
LINE
  5
69A
330
1A
100
AcDbEntity
  8
ZUWAKU
100
AcDbLine
 10
33.12110607739055
 20
11.3625
 30
0.0
 11
33.12110607739055
 21
3.837500000000002
 31
0.0
  0
LINE
  5
69B
330
1A
100
AcDbEntity
  8
ZUWAKU
100
AcDbLine
 10
34.52110607739058
 20
3.837500000000002
 30
0.0
 11
34.52110607739058
 21
11.3625
 31
0.0
  0
LINE
  5
69C
330
1A
100
AcDbEntity
  8
ZUWAKU
100
AcDbLine
 10
30.67110607739056
 20
11.3625
 30
0.0
 11
30.67110607739056
 21
5.5
 31
0.0
  0
LINE
  5
69D
330
1A
100
AcDbEntity
  8
ZUWAKU
100
AcDbLine
 10
32.0711060773906
 20
4.975000000000001
 30
0.0
 11
32.0711060773906
 21
11.3625
 31
0.0
  0
LINE
  5
69E
330
1A
100
AcDbEntity
  8
ZUWAKU
100
AcDbLine
 10
39.5633147739942
 20
15.0
 30
0.0
 11
39.5633147739942
 21
0.4000000000000341
 31
0.0
  0
LINE
  5
69F
330
1A
100
AcDbEntity
  8
ZUWAKU
100
AcDbLine
 10
39.76331477399412
 20
15.0
 30
0.0
 11
39.76331477399424
 21
0.4000000000000341
 31
0.0
  0
LINE
  5
6A0
330
1A
100
AcDbEntity
  8
ZUWAKU
100
AcDbLine
 10
39.6633147739941
 20
15.0
 30
0.0
 11
39.66331477399421
 21
0.4000000000000341
 31
0.0
  0
TEXT
  5
6A1
330
1A
100
AcDbEntity
  8
moji
100
AcDbText
 10
43.25535990707556
 20
6.287972048099675
 30
0.0
 40
3.0
  1
丸トップのきとい・半丸といＨ型
 41
0.9
  7
ｽﾀｲﾙ1
100
AcDbText
  0
LINE
  5
6A2
330
1A
100
AcDbEntity
  8
ZUWAKU
100
AcDbLine
 10
28.92110607739056
 20
3.575000000000002
 30
0.0
 11
30.67110607739056
 21
3.575000000000002
 31
0.0
  0
LINE
  5
6A3
330
1A
100
AcDbEntity
  8
ZUWAKU
100
AcDbLine
 10
30.14610607739058
 20
4.975000000000001
 30
0.0
 11
29.4461060773906
 21
4.975000000000001
 31
0.0
  0
LINE
  5
6A4
330
1A
100
AcDbEntity
  8
ZUWAKU
100
AcDbLine
 10
20.60860607739056
 20
3.575000000000002
 30
0.0
 11
21.48360607739056
 21
3.575000000000002
 31
0.0
  0
LINE
  5
6A5
330
1A
100
AcDbEntity
  8
ZUWAKU
100
AcDbLine
 10
17.83817354604849
 20
3.758453015916515
 30
0.0
 11
16.9040386087326
 21
6.716546984083485
 31
0.0
  0
ARC
  5
6A6
330
1A
100
AcDbEntity
  8
ZUWAKU
100
AcDbCircle
 10
16.58360607739058
 20
6.637500000000002
 30
0.0
 40
0.2625
100
AcDbArc
 50
90.0
 51
180.0
  0
ARC
  5
6A7
330
1A
100
AcDbEntity
  8
ZUWAKU
100
AcDbCircle
 10
16.65372315913493
 20
6.637500000000002
 30
0.0
 40
0.2625
100
AcDbArc
 50
17.52556837372265
 51
90.0
  0
ARC
  5
6A8
330
1A
100
AcDbEntity
  8
ZUWAKU
100
AcDbCircle
 10
15.18360607739055
 20
3.837500000000002
 30
0.0
 40
0.2625
100
AcDbArc
 50
180.0
 51
270.0
  0
ARC
  5
6A9
330
1A
100
AcDbEntity
  8
ZUWAKU
100
AcDbCircle
 10
13.43360607739055
 20
4.712500000000002
 30
0.0
 40
0.2625
100
AcDbArc
 50
0.0
 51
90.0
  0
ARC
  5
6AA
330
1A
100
AcDbEntity
  8
ZUWAKU
100
AcDbCircle
 10
13.43360607739055
 20
3.837500000000002
 30
0.0
 40
0.2625
100
AcDbArc
 50
270.0
 51
0.0
  0
LINE
  5
6AB
330
1A
100
AcDbEntity
  8
ZUWAKU
100
AcDbLine
 10
13.69610607739059
 20
4.712500000000002
 30
0.0
 11
13.69610607739059
 21
3.837500000000002
 31
0.0
  0
LINE
  5
6AC
330
1A
100
AcDbEntity
  8
ZUWAKU
100
AcDbLine
 10
16.32110607739059
 20
3.837500000000002
 30
0.0
 11
16.32110607739059
 21
6.637500000000002
 31
0.0
  0
ARC
  5
6AD
330
1A
100
AcDbEntity
  8
ZUWAKU
100
AcDbCircle
 10
16.05860607739055
 20
3.837500000000002
 30
0.0
 40
0.2625
100
AcDbArc
 50
270.0
 51
0.0
  0
LINE
  5
6AE
330
1A
100
AcDbEntity
  8
ZUWAKU
100
AcDbLine
 10
15.18360607739055
 20
3.575000000000002
 30
0.0
 11
16.05860607739055
 21
3.575000000000002
 31
0.0
  0
ARC
  5
6AF
330
1A
100
AcDbEntity
  8
ZUWAKU
100
AcDbCircle
 10
16.58360607739058
 20
8.562500000000003
 30
0.0
 40
0.2625
100
AcDbArc
 50
180.0
 51
270.0
  0
LINE
  5
6B0
330
1A
100
AcDbEntity
  8
ZUWAKU
100
AcDbLine
 10
16.58360607739058
 20
6.900000000000002
 30
0.0
 11
16.65372315913493
 21
6.900000000000002
 31
0.0
  0
LINE
  5
6B1
330
1A
100
AcDbEntity
  8
ZUWAKU
100
AcDbLine
 10
16.65372315913493
 20
8.3
 30
0.0
 11
16.58360607739058
 21
8.3
 31
0.0
  0
ARC
  5
6B2
330
1A
100
AcDbEntity
  8
ZUWAKU
100
AcDbCircle
 10
16.65372315913493
 20
8.562500000000003
 30
0.0
 40
0.2625
100
AcDbArc
 50
270.0
 51
342.4744316262774
  0
ARC
  5
6B3
330
1A
100
AcDbEntity
  8
ZUWAKU
100
AcDbCircle
 10
18.08848899564623
 20
3.837500000000002
 30
0.0
 40
0.2625
100
AcDbArc
 50
197.5255683737225
 51
270.0
  0
LINE
  5
6B4
330
1A
100
AcDbEntity
  8
ZUWAKU
100
AcDbLine
 10
19.18824913504846
 20
3.916546984083488
 30
0.0
 11
18.02505344581163
 21
7.600000000000012
 31
0.0
  0
ARC
  5
6B5
330
1A
100
AcDbEntity
  8
ZUWAKU
100
AcDbCircle
 10
18.93793368545073
 20
3.837500000000002
 30
0.0
 40
0.2625
100
AcDbArc
 50
270.0
 51
17.52556837372265
  0
LINE
  5
6B6
330
1A
100
AcDbEntity
  8
ZUWAKU
100
AcDbLine
 10
18.08848899564623
 20
3.575000000000002
 30
0.0
 11
18.93793368545073
 21
3.575000000000002
 31
0.0
  0
ARC
  5
6B7
330
1A
100
AcDbEntity
  8
ZUWAKU
100
AcDbCircle
 10
20.60860607739056
 20
3.837500000000002
 30
0.0
 40
0.2625
100
AcDbArc
 50
180.0
 51
270.0
  0
ARC
  5
6B8
330
1A
100
AcDbEntity
  8
ZUWAKU
100
AcDbCircle
 10
25.0711060773906
 20
4.975000000000001
 30
0.0
 40
1.399999999999999
100
AcDbArc
 50
270.0
 51
0.0
  0
ARC
  5
6B9
330
1A
100
AcDbEntity
  8
ZUWAKU
100
AcDbCircle
 10
28.92110607739056
 20
4.975000000000001
 30
0.0
 40
1.399999999999999
100
AcDbArc
 50
180.0
 51
270.0
  0
LINE
  5
6BA
330
1A
100
AcDbEntity
  8
ZUWAKU
100
AcDbLine
 10
25.85603031788236
 20
7.367525253169414
 30
0.0
 11
24.40113133055997
 21
8.822424240491752
 31
0.0
  0
LINE
  5
6BB
330
1A
100
AcDbEntity
  8
ZUWAKU
100
AcDbLine
 10
23.41118183689884
 20
7.832474746830591
 30
0.0
 11
24.86608082422117
 21
6.37757575950826
 31
0.0
  0
LINE
  5
6BC
330
1A
100
AcDbEntity
  8
ZUWAKU
100
AcDbLine
 10
23.3211060773906
 20
3.575000000000002
 30
0.0
 11
25.0711060773906
 21
3.575000000000002
 31
0.0
  0
LINE
  5
6BD
330
1A
100
AcDbEntity
  8
ZUWAKU
100
AcDbLine
 10
23.3211060773906
 20
4.975000000000001
 30
0.0
 11
24.80860607739055
 21
4.975000000000001
 31
0.0
  0
ARC
  5
6BE
330
1A
100
AcDbEntity
  8
ZUWAKU
100
AcDbCircle
 10
23.3211060773906
 20
4.712500000000002
 30
0.0
 40
0.2625
100
AcDbArc
 50
90.0
 51
180.0
  0
ARC
  5
6BF
330
1A
100
AcDbEntity
  8
ZUWAKU
100
AcDbCircle
 10
21.48360607739056
 20
3.837500000000002
 30
0.0
 40
0.2625
100
AcDbArc
 50
270.0
 51
0.0
  0
ARC
  5
6C0
330
1A
100
AcDbEntity
  8
ZUWAKU
100
AcDbCircle
 10
23.3211060773906
 20
3.837500000000002
 30
0.0
 40
0.2625
100
AcDbArc
 50
180.0
 51
270.0
  0
LINE
  5
6C1
330
1A
100
AcDbEntity
  8
ZUWAKU
100
AcDbLine
 10
23.05860607739055
 20
3.837500000000002
 30
0.0
 11
23.05860607739055
 21
4.712500000000002
 31
0.0
  0
ARC
  5
6C2
330
1A
100
AcDbEntity
  8
ZUWAKU
100
AcDbCircle
 10
24.80860607739055
 20
5.237500000000004
 30
0.0
 40
0.2625
100
AcDbArc
 50
270.0
 51
0.0
  0
ARC
  5
6C3
330
1A
100
AcDbEntity
  8
ZUWAKU
100
AcDbCircle
 10
24.37110607739055
 20
5.882601012677675
 30
0.0
 40
0.7
100
AcDbArc
 50
0.0
 51
44.99999999999956
  0
LINE
  5
6C4
330
1A
100
AcDbEntity
  8
ZUWAKU
100
AcDbLine
 10
25.0711060773906
 20
5.237500000000004
 30
0.0
 11
25.0711060773906
 21
5.882601012677675
 31
0.0
  0
ARC
  5
6C5
330
1A
100
AcDbEntity
  8
ZUWAKU
100
AcDbCircle
 10
29.4461060773906
 20
5.5
 30
0.0
 40
0.525
100
AcDbArc
 50
180.0
 51
270.0
  0
ARC
  5
6C6
330
1A
100
AcDbEntity
  8
ZUWAKU
100
AcDbCircle
 10
24.37110607739055
 20
5.882601012677653
 30
0.0
 40
2.099999999999999
100
AcDbArc
 50
0.0
 51
44.99999999999956
  0
LINE
  5
6C7
330
1A
100
AcDbEntity
  8
ZUWAKU
100
AcDbLine
 10
26.47110607739057
 20
4.975000000000001
 30
0.0
 11
26.47110607739057
 21
5.882601012677675
 31
0.0
  0
ARC
  5
6C8
330
1A
100
AcDbEntity
  8
ZUWAKU
100
AcDbCircle
 10
30.67110607739056
 20
4.975000000000001
 30
0.0
 40
1.399999999999999
100
AcDbArc
 50
270.0
 51
0.0
  0
LINE
  5
6C9
330
1A
100
AcDbEntity
  8
ZUWAKU
100
AcDbLine
 10
33.3836060773906
 20
3.575000000000002
 30
0.0
 11
34.2586060773906
 21
3.575000000000002
 31
0.0
  0
ARC
  5
6CA
330
1A
100
AcDbEntity
  8
ZUWAKU
100
AcDbCircle
 10
30.14610607739058
 20
5.5
 30
0.0
 40
0.525
100
AcDbArc
 50
270.0
 51
0.0
  0
ARC
  5
6CB
330
1A
100
AcDbEntity
  8
ZUWAKU
100
AcDbCircle
 10
33.3836060773906
 20
3.837500000000002
 30
0.0
 40
0.2625
100
AcDbArc
 50
180.0
 51
270.0
  0
ARC
  5
6CC
330
1A
100
AcDbEntity
  8
ZUWAKU
100
AcDbCircle
 10
34.2586060773906
 20
3.837500000000002
 30
0.0
 40
0.2625
100
AcDbArc
 50
270.0
 51
0.0
  0
LINE
  5
6CD
330
1A
100
AcDbEntity
  8
ZUWAKU
100
AcDbLine
 10
21.48360607739056
 20
11.625
 30
0.0
 11
20.60860607739056
 21
11.625
 31
0.0
  0
LINE
  5
6CE
330
1A
100
AcDbEntity
  8
ZUWAKU
100
AcDbLine
 10
13.69610607739059
 20
11.3625
 30
0.0
 11
13.69610607739059
 21
10.4875
 31
0.0
  0
ARC
  5
6CF
330
1A
100
AcDbEntity
  8
ZUWAKU
100
AcDbCircle
 10
13.43360607739055
 20
10.4875
 30
0.0
 40
0.2625
100
AcDbArc
 50
270.0
 51
0.0
  0
ARC
  5
6D0
330
1A
100
AcDbEntity
  8
ZUWAKU
100
AcDbCircle
 10
15.18360607739055
 20
11.3625
 30
0.0
 40
0.2625
100
AcDbArc
 50
90.0
 51
180.0
  0
ARC
  5
6D1
330
1A
100
AcDbEntity
  8
ZUWAKU
100
AcDbCircle
 10
13.43360607739055
 20
11.3625
 30
0.0
 40
0.2625
100
AcDbArc
 50
0.0
 51
90.0
  0
LINE
  5
6D2
330
1A
100
AcDbEntity
  8
ZUWAKU
100
AcDbLine
 10
16.05860607739055
 20
11.625
 30
0.0
 11
15.18360607739055
 21
11.625
 31
0.0
  0
ARC
  5
6D3
330
1A
100
AcDbEntity
  8
ZUWAKU
100
AcDbCircle
 10
16.05860607739055
 20
11.3625
 30
0.0
 40
0.2625
100
AcDbArc
 50
0.0
 51
90.0
  0
ARC
  5
6D4
330
1A
100
AcDbEntity
  8
ZUWAKU
100
AcDbCircle
 10
18.08848899564623
 20
11.3625
 30
0.0
 40
0.2625
100
AcDbArc
 50
90.0
 51
162.4744316262773
  0
LINE
  5
6D5
330
1A
100
AcDbEntity
  8
ZUWAKU
100
AcDbLine
 10
19.18824913504846
 20
11.28345301591652
 30
0.0
 11
18.65742931847956
 21
9.602523596781715
 31
0.0
  0
ARC
  5
6D6
330
1A
100
AcDbEntity
  8
ZUWAKU
100
AcDbCircle
 10
18.93793368545073
 20
11.3625
 30
0.0
 40
0.2625
100
AcDbArc
 50
342.4744316262774
 51
90.0
  0
LINE
  5
6D7
330
1A
100
AcDbEntity
  8
ZUWAKU
100
AcDbLine
 10
18.08848899564623
 20
11.625
 30
0.0
 11
18.93793368545073
 21
11.625
 31
0.0
  0
ARC
  5
6D8
330
1A
100
AcDbEntity
  8
ZUWAKU
100
AcDbCircle
 10
20.60860607739056
 20
11.3625
 30
0.0
 40
0.2625
100
AcDbArc
 50
90.0
 51
180.0
  0
LINE
  5
6D9
330
1A
100
AcDbEntity
  8
ZUWAKU
100
AcDbLine
 10
25.9461060773906
 20
10.225
 30
0.0
 11
24.45860607739059
 21
10.225
 31
0.0
  0
LINE
  5
6DA
330
1A
100
AcDbEntity
  8
ZUWAKU
100
AcDbLine
 10
24.1961060773906
 20
11.625
 30
0.0
 11
25.9461060773906
 21
11.625
 31
0.0
  0
ARC
  5
6DB
330
1A
100
AcDbEntity
  8
ZUWAKU
100
AcDbCircle
 10
24.1961060773906
 20
10.225
 30
0.0
 40
1.399999999999999
100
AcDbArc
 50
90.0
 51
180.0
  0
LINE
  5
6DC
330
1A
100
AcDbEntity
  8
ZUWAKU
100
AcDbLine
 10
22.79610607739056
 20
10.225
 30
0.0
 11
22.79610607739056
 21
9.317398987322331
 31
0.0
  0
ARC
  5
6DD
330
1A
100
AcDbEntity
  8
ZUWAKU
100
AcDbCircle
 10
21.48360607739056
 20
11.3625
 30
0.0
 40
0.2625
100
AcDbArc
 50
0.0
 51
90.0
  0
LINE
  5
6DE
330
1A
100
AcDbEntity
  8
ZUWAKU
100
AcDbLine
 10
24.1961060773906
 20
9.962500000000002
 30
0.0
 11
24.1961060773906
 21
9.317398987322331
 31
0.0
  0
ARC
  5
6DF
330
1A
100
AcDbEntity
  8
ZUWAKU
100
AcDbCircle
 10
24.45860607739059
 20
9.962500000000002
 30
0.0
 40
0.2625
100
AcDbArc
 50
90.0
 51
180.0
  0
LINE
  5
6E0
330
1A
100
AcDbEntity
  8
ZUWAKU
100
AcDbLine
 10
26.20860607739059
 20
11.3625
 30
0.0
 11
26.20860607739059
 21
10.4875
 31
0.0
  0
ARC
  5
6E1
330
1A
100
AcDbEntity
  8
ZUWAKU
100
AcDbCircle
 10
25.9461060773906
 20
10.4875
 30
0.0
 40
0.2625
100
AcDbArc
 50
270.0
 51
0.0
  0
ARC
  5
6E2
330
1A
100
AcDbEntity
  8
ZUWAKU
100
AcDbCircle
 10
25.9461060773906
 20
11.3625
 30
0.0
 40
0.2625
100
AcDbArc
 50
0.0
 51
90.0
  0
LINE
  5
6E3
330
1A
100
AcDbEntity
  8
ZUWAKU
100
AcDbLine
 10
28.65860607739057
 20
11.625
 30
0.0
 11
27.78360607739057
 21
11.625
 31
0.0
  0
ARC
  5
6E4
330
1A
100
AcDbEntity
  8
ZUWAKU
100
AcDbCircle
 10
27.78360607739057
 20
11.3625
 30
0.0
 40
0.2625
100
AcDbArc
 50
90.0
 51
180.0
  0
ARC
  5
6E5
330
1A
100
AcDbEntity
  8
ZUWAKU
100
AcDbCircle
 10
28.65860607739057
 20
11.3625
 30
0.0
 40
0.2625
100
AcDbArc
 50
0.0
 51
90.0
  0
LINE
  5
6E6
330
1A
100
AcDbEntity
  8
ZUWAKU
100
AcDbLine
 10
34.2586060773906
 20
11.625
 30
0.0
 11
33.3836060773906
 21
11.625
 31
0.0
  0
ARC
  5
6E7
330
1A
100
AcDbEntity
  8
ZUWAKU
100
AcDbCircle
 10
30.93360607739055
 20
11.3625
 30
0.0
 40
0.2625
100
AcDbArc
 50
90.0
 51
180.0
  0
LINE
  5
6E8
330
1A
100
AcDbEntity
  8
ZUWAKU
100
AcDbLine
 10
31.80860607739055
 20
11.625
 30
0.0
 11
30.93360607739055
 21
11.625
 31
0.0
  0
ARC
  5
6E9
330
1A
100
AcDbEntity
  8
ZUWAKU
100
AcDbCircle
 10
31.80860607739055
 20
11.3625
 30
0.0
 40
0.2625
100
AcDbArc
 50
0.0
 51
90.0
  0
ARC
  5
6EA
330
1A
100
AcDbEntity
  8
ZUWAKU
100
AcDbCircle
 10
33.3836060773906
 20
11.3625
 30
0.0
 40
0.2625
100
AcDbArc
 50
90.0
 51
180.0
  0
ARC
  5
6EB
330
1A
100
AcDbEntity
  8
ZUWAKU
100
AcDbCircle
 10
34.2586060773906
 20
11.3625
 30
0.0
 40
0.2625
100
AcDbArc
 50
0.0
 51
90.0
  0
LINE
  5
6EE
330
1A
100
AcDbEntity
  8
ZUWAKU
100
AcDbLine
 10
104.2233006450338
 20
15.0
 30
0.0
 11
104.223300645034
 21
0.4000000000000341
 31
0.0
  0
LINE
  5
6EF
330
1A
100
AcDbEntity
  8
ZUWAKU
100
AcDbLine
 10
104.3233006450339
 20
15.0
 30
0.0
 11
104.323300645034
 21
0.4000000000000341
 31
0.0
  0
LINE
  5
6F0
330
1A
100
AcDbEntity
  8
ZUWAKU
100
AcDbLine
 10
104.1233006450339
 20
15.0
 30
0.0
 11
104.1233006450339
 21
0.4000000000000341
 31
0.0
  0
TEXT
  5
6F1
330
1A
100
AcDbEntity
  8
moji
100
AcDbText
 10
119.9136013404255
 20
9.002460528703693
 30
0.0
 40
2.799999999999999
  1
止り　ＧＳ式
 41
0.9
  7
ｽﾀｲﾙ1
100
AcDbText
  0
TEXT
  5
6F2
330
1A
100
AcDbEntity
  8
ZUWAKU
100
AcDbText
 10
104.8620231561387
 20
4.827678269192809
 30
0.0
 40
2.0
  1
サイズ
 41
0.9
  7
ｽﾀｲﾙ1
100
AcDbText
  0
TEXT
  5
6F3
330
1A
100
AcDbEntity
  8
moji
100
AcDbText
 10
119.9136013404255
 20
1.602460528703709
 30
0.0
 40
2.799999999999999
  1
１２０（Ｈ－８０）
 41
0.9
  7
ｽﾀｲﾙ1
100
AcDbText
  0
TEXT
  5
6F4
330
1A
100
AcDbEntity
  8
ZUWAKU
100
AcDbText
 10
104.8620231561386
 20
12.02767826919279
 30
0.0
 40
2.0
  1
品名
 41
0.9
  7
ｽﾀｲﾙ1
100
AcDbText
  0
TEXT
  5
700
330
1A
100
AcDbEntity
  8
ZUWAKU
100
AcDbText
 10
329.1019688436512
 20
9.002460528703693
 30
0.0
 40
2.799999999999999
  1
　　．　　．　　
 41
0.9
  7
ｽﾀｲﾙ1
100
AcDbText
  0
LINE
  5
701
330
1A
100
AcDbEntity
  8
ZUWAKU
100
AcDbLine
 10
324.4086012551021
 20
7.800000000000018
 30
0.0
 11
348.6245052742706
 21
7.800000000000018
 31
0.0
  0
LINE
  5
702
330
1A
100
AcDbEntity
  8
ZUWAKU
100
AcDbLine
 10
324.4086012551022
 20
7.700000000000017
 30
0.0
 11
348.6245052742706
 21
7.700000000000017
 31
0.0
  0
LINE
  5
703
330
1A
100
AcDbEntity
  8
ZUWAKU
100
AcDbLine
 10
324.4086012551021
 20
7.600000000000015
 30
0.0
 11
348.6245052742706
 21
7.600000000000015
 31
0.0
  0
LINE
  5
704
330
1A
100
AcDbEntity
  8
ZUWAKU
100
AcDbLine
 10
252.5995897490704
 20
7.800000000000018
 30
0.0
 11
276.2634778830562
 21
7.800000000000018
 31
0.0
  0
LINE
  5
705
330
1A
100
AcDbEntity
  8
ZUWAKU
100
AcDbLine
 10
252.5995897490704
 20
7.700000000000017
 30
0.0
 11
276.2634778830562
 21
7.700000000000017
 31
0.0
  0
LINE
  5
706
330
1A
100
AcDbEntity
  8
ZUWAKU
100
AcDbLine
 10
252.5995897490704
 20
7.600000000000019
 30
0.0
 11
276.2634778830562
 21
7.600000000000019
 31
0.0
  0
LINE
  5
707
330
1A
100
AcDbEntity
  8
ZUWAKU
100
AcDbLine
 10
252.3995897490705
 20
15.0
 30
0.0
 11
252.3995897490705
 21
0.4000000000000341
 31
0.0
  0
LINE
  5
708
330
1A
100
AcDbEntity
  8
ZUWAKU
100
AcDbLine
 10
252.5995897490704
 20
15.0
 30
0.0
 11
252.5995897490706
 21
0.4000000000000341
 31
0.0
  0
LINE
  5
709
330
1A
100
AcDbEntity
  8
ZUWAKU
100
AcDbLine
 10
252.4995897490704
 20
15.0
 30
0.0
 11
252.4995897490705
 21
0.4000000000000341
 31
0.0
  0
TEXT
  5
70A
330
1A
100
AcDbEntity
  8
moji
100
AcDbText
 10
264.0204539861565
 20
9.002460528703693
 30
0.0
 40
2.799999999999999
  1
Ａ３
 41
0.9
  7
ｽﾀｲﾙ1
100
AcDbText
  0
LINE
  5
70B
330
1A
100
AcDbEntity
  8
ZUWAKU
100
AcDbLine
 10
223.7121819854957
 20
15.0
 30
0.0
 11
223.7121819854957
 21
0.4000000000000341
 31
0.0
  0
LINE
  5
70C
330
1A
100
AcDbEntity
  8
ZUWAKU
100
AcDbLine
 10
223.9121819854956
 20
15.0
 30
0.0
 11
223.9121819854958
 21
0.4000000000000341
 31
0.0
  0
LINE
  5
70D
330
1A
100
AcDbEntity
  8
ZUWAKU
100
AcDbLine
 10
223.8121819854956
 20
15.0
 30
0.0
 11
223.8121819854957
 21
0.4000000000000341
 31
0.0
  0
TEXT
  5
70E
330
1A
100
AcDbEntity
  8
moji
100
AcDbText
 10
231.2836391609943
 20
5.971308860829992
 30
0.0
 40
2.799999999999999
  1
ＧU57□
 41
0.9
  7
ｽﾀｲﾙ1
100
AcDbText
  0
TEXT
  5
70F
330
1A
100
AcDbEntity
  8
ZUWAKU
100
AcDbText
 10
231.3468808277536
 20
1.307035455569746
 30
0.0
 40
1.5
  1
□には色品番が入ります
 41
0.9
  7
ｽﾀｲﾙ1
100
AcDbText
  0
TEXT
  5
710
330
1A
100
AcDbEntity
  8
ZUWAKU
100
AcDbText
 10
253.3383122601754
 20
4.827678269192809
 30
0.0
 40
2.0
  1
縮尺
 41
0.9
  7
ｽﾀｲﾙ1
100
AcDbText
  0
TEXT
  5
711
330
1A
100
AcDbEntity
  8
moji
100
AcDbText
 10
264.0204539861565
 20
1.602460528703709
 30
0.0
 40
2.799999999999999
  1
１/１
 41
0.9
  7
ｽﾀｲﾙ1
100
AcDbText
  0
TEXT
  5
712
330
1A
100
AcDbEntity
  8
ZUWAKU
100
AcDbText
 10
224.6509044966004
 20
12.02767826919279
 30
0.0
 40
2.0
  1
品番
 41
0.9
  7
ｽﾀｲﾙ1
100
AcDbText
  0
TEXT
  5
713
330
1A
100
AcDbEntity
  8
ZUWAKU
100
AcDbText
 10
253.3383122601752
 20
12.02767826919279
 30
0.0
 40
2.0
  1
用紙
 41
0.9
  7
ｽﾀｲﾙ1
100
AcDbText
  0
LINE
  5
714
330
1A
100
AcDbEntity
  8
ZUWAKU
100
AcDbLine
 10
276.2634778830562
 20
15.0
 30
0.0
 11
276.2634778830562
 21
0.4000000000000341
 31
0.0
  0
LINE
  5
715
330
1A
100
AcDbEntity
  8
ZUWAKU
100
AcDbLine
 10
276.4634778830561
 20
15.0
 30
0.0
 11
276.4634778830563
 21
0.4000000000000341
 31
0.0
  0
LINE
  5
716
330
1A
100
AcDbEntity
  8
ZUWAKU
100
AcDbLine
 10
276.3634778830561
 20
15.0
 30
0.0
 11
276.3634778830562
 21
0.4000000000000341
 31
0.0
  0
LINE
  5
717
330
1A
100
AcDbEntity
  8
ZUWAKU
100
AcDbLine
 10
324.2086012551023
 20
15.0
 30
0.0
 11
324.2086012551023
 21
0.4000000000000341
 31
0.0
  0
LINE
  5
718
330
1A
100
AcDbEntity
  8
ZUWAKU
100
AcDbLine
 10
324.4086012551022
 20
15.0
 30
0.0
 11
324.4086012551023
 21
0.4000000000000341
 31
0.0
  0
LINE
  5
719
330
1A
100
AcDbEntity
  8
ZUWAKU
100
AcDbLine
 10
324.3086012551022
 20
15.0
 30
0.0
 11
324.3086012551023
 21
0.4000000000000341
 31
0.0
  0
TEXT
  5
71A
330
1A
100
AcDbEntity
  8
ZUWAKU
100
AcDbText
 10
325.147323766207
 20
12.02767826919279
 30
0.0
 40
2.0
  1
DATE
 41
0.9
  7
ｽﾀｲﾙ1
100
AcDbText
  0
TEXT
  5
721
330
1A
100
AcDbEntity
  8
ZUWAKU
100
AcDbText
 10
354.2640420961219
 20
6.176919667843399
 30
0.0
 40
3.0
  1
積水化学工業株式会社
 41
0.9
  7
ｽﾀｲﾙ1
100
AcDbText
  0
LINE
  5
722
330
1A
100
AcDbEntity
  8
ZUWAKU
100
AcDbLine
 10
348.9245052742706
 20
15.0
 30
0.0
 11
348.9245052742707
 21
0.4000000000000341
 31
0.0
  0
LINE
  5
723
330
1A
100
AcDbEntity
  8
ZUWAKU
100
AcDbLine
 10
348.8245052742706
 20
15.0
 30
0.0
 11
348.8245052742707
 21
0.4000000000000341
 31
0.0
  0
LINE
  5
724
330
1A
100
AcDbEntity
  8
ZUWAKU
100
AcDbLine
 10
348.7245052742707
 20
15.0
 30
0.0
 11
348.7245052742707
 21
0.4000000000000341
 31
0.0
  0
LINE
  5
725
330
1A
100
AcDbEntity
  8
ZUWAKU
100
AcDbLine
 10
348.6245052742706
 20
15.0
 30
0.0
 11
348.6245052742706
 21
0.4000000000000341
 31
0.0
  0
VIEWPORT
  5
22
102
{ACAD_XDICTIONARY
360
93A
102
}
330
17
100
AcDbEntity
 67
     1
  8
0
100
AcDbViewport
 10
313.6808219178083
 20
148.5
 30
0.0
 40
627.3616438356165
 41
297.0
 68
     2
 69
     1
 12
313.6808219178083
 22
148.5
 13
0.0
 23
0.0
 14
1.0
 24
1.0
 15
10.0
 25
10.0
 16
0.0
 26
0.0
 36
1.0
 17
0.0
 27
0.0
 37
0.0
 42
50.0
 43
0.0
 44
0.0
 45
297.0
 50
0.0
 51
0.0
 72
   100
 90
    32768
  1

281
     0
 71
     1
 74
     0
110
0.0
120
0.0
130
0.0
111
1.0
121
0.0
131
0.0
112
0.0
122
1.0
132
0.0
 79
     0
146
0.0
  0
VIEWPORT
  5
64
102
{ACAD_XDICTIONARY
360
93C
102
}
330
17
100
AcDbEntity
 67
     1
  8
VIEWPORT
100
AcDbViewport
 10
210.0
 20
148.5
 30
0.0
 40
420.0
 41
297.0
 68
     1
 69
     2
 12
210.0
 22
148.5
 13
0.0
 23
0.0
 14
5.0
 24
5.0
 15
0.0
 25
0.0
 16
0.0
 26
0.0
 36
1.0
 17
0.0
 27
0.0
 37
0.0
 42
50.0
 43
0.0
 44
0.0
 45
302.9399999999999
 50
0.0
 51
0.0
 72
   100
 90
    32768
  1

281
     0
 71
     1
 74
     0
110
0.0
120
0.0
130
0.0
111
1.0
121
0.0
131
0.0
112
0.0
122
1.0
132
0.0
 79
     0
146
0.0
  0
ENDSEC
  0
SECTION
  2
OBJECTS
  0
DICTIONARY
  5
C
330
0
100
AcDbDictionary
281
     1
  3
ACAD_COLOR
350
91C
  3
ACAD_GROUP
350
D
  3
ACAD_LAYOUT
350
380
  3
ACAD_MATERIAL
350
91B
  3
ACAD_MLINESTYLE
350
E
  3
ACAD_PLOTSETTINGS
350
381
  3
ACAD_PLOTSTYLENAME
350
37E
  3
ACDBHEADERROUNDTRIPXREC
350
937
  3
AcDbVariableDictionary
350
933
  0
DICTIONARY
  5
3AF
330
1A
100
AcDbDictionary
280
     1
281
     1
  3
ACAD_LAYOUTSELFREF
360
8F8
  0
DICTIONARY
  5
3AD
330
17
100
AcDbDictionary
280
     1
281
     1
  3
ACAD_LAYOUTSELFREF
360
8F7
  0
DICTIONARY
  5
93A
330
22
100
AcDbDictionary
280
     1
281
     1
  3
ACAD_XREC_ROUNDTRIP
360
93B
  0
DICTIONARY
  5
93C
330
64
100
AcDbDictionary
280
     1
281
     1
  3
ACAD_XREC_ROUNDTRIP
360
93D
  0
DICTIONARY
  5
91C
102
{ACAD_REACTORS
330
C
102
}
330
C
100
AcDbDictionary
281
     1
  0
DICTIONARY
  5
D
102
{ACAD_REACTORS
330
C
102
}
330
C
100
AcDbDictionary
281
     1
  0
DICTIONARY
  5
380
102
{ACAD_REACTORS
330
C
102
}
330
C
100
AcDbDictionary
281
     1
  3
Model
350
382
  3
ﾚｲｱｳﾄ1
350
383
  0
DICTIONARY
  5
91B
102
{ACAD_REACTORS
330
C
102
}
330
C
100
AcDbDictionary
281
     1
  0
DICTIONARY
  5
E
102
{ACAD_REACTORS
330
C
102
}
330
C
100
AcDbDictionary
281
     1
  3
STANDARD
350
13
  0
DICTIONARY
  5
381
102
{ACAD_REACTORS
330
C
102
}
330
C
100
AcDbDictionary
281
     1
  0
ACDBDICTIONARYWDFLT
  5
37E
102
{ACAD_REACTORS
330
C
102
}
330
C
100
AcDbDictionary
281
     1
  3
Normal
350
37F
100
AcDbDictionaryWithDefault
340
37F
1001
ACAD
1000
TREAT_AS_HARD
1070
     0
1000
TREAT_AS_HARD
1070
     0
1000
TREAT_AS_HARD
1070
     0
1000
TREAT_AS_HARD
1070
     0
  0
DICTIONARY
  5
937
102
{ACAD_REACTORS
330
C
102
}
330
C
100
AcDbDictionary
281
     1
  3
COLORDICT
350
939
  3
MATERIALDICT
350
938
  0
DICTIONARY
  5
933
102
{ACAD_REACTORS
330
C
102
}
330
C
100
AcDbDictionary
281
     1
  3
DIMASSOC
350
934
  3
PROJECTNAME
350
935
  0
XRECORD
  5
8F8
102
{ACAD_REACTORS
330
3AF
102
}
330
3AF
100
AcDbXrecord
280
     1
340
1A
  0
XRECORD
  5
8F7
102
{ACAD_REACTORS
330
3AD
102
}
330
3AD
100
AcDbXrecord
280
     1
340
17
  0
XRECORD
  5
93B
102
{ACAD_REACTORS
330
93A
102
}
330
93A
100
AcDbXrecord
280
     1
102
SHADEPLOT
 70
     0
  0
XRECORD
  5
93D
102
{ACAD_REACTORS
330
93C
102
}
330
93C
100
AcDbXrecord
280
     1
102
SHADEPLOT
 70
     0
  0
LAYOUT
  5
382
102
{ACAD_XDICTIONARY
360
93E
102
}
102
{ACAD_REACTORS
330
380
102
}
330
380
100
AcDbPlotSettings
  1

  2
Acrobat Distiller
  4
A3
  6

 40
3.174999952316284
 41
3.174999952316284
 42
3.17498779296875
 43
3.17498779296875
 44
297.0318298339844
 45
420.1583251953125
 46
7.0
 47
7.0
 48
0.0
 49
0.0
140
0.0
141
0.0
142
1.0
143
1.0
 70
 11952
 72
     1
 73
     1
 74
     2
  7
print.ctb
 75
    16
147
1.0
148
0.0
149
0.0
100
AcDbLayout
  1
Model
 70
     1
 71
     0
 10
0.0
 20
0.0
 11
12.0
 21
9.0
 12
0.0
 22
0.0
 32
0.0
 14
0.0
 24
0.0
 34
0.0
 15
0.0
 25
0.0
 35
0.0
146
0.0
 13
0.0
 23
0.0
 33
0.0
 16
1.0
 26
0.0
 36
0.0
 17
0.0
 27
1.0
 37
0.0
 76
     0
330
1A
  0
LAYOUT
  5
383
102
{ACAD_XDICTIONARY
360
940
102
}
102
{ACAD_REACTORS
330
380
102
}
330
380
100
AcDbPlotSettings
  1

  2
Canon LBP-730 LIPS4
  4

  6

 40
0.0
 41
0.0
 42
0.0
 43
0.0
 44
0.0
 45
0.0
 46
0.0
 47
0.0
 48
0.0
 49
0.0
140
0.0
141
0.0
142
1.0
143
1.0
 70
   688
 72
     0
 73
     0
 74
     5
  7
print.ctb
 75
    16
147
1.0
148
0.0
149
0.0
100
AcDbLayout
  1
ﾚｲｱｳﾄ1
 70
     1
 71
     1
 10
0.0
 20
0.0
 11
420.0
 21
297.0
 12
0.0
 22
0.0
 32
0.0
 14
0.0
 24
0.0
 34
0.0
 15
420.0
 25
297.0
 35
0.0
146
0.0
 13
0.0
 23
0.0
 33
0.0
 16
1.0
 26
0.0
 36
0.0
 17
0.0
 27
1.0
 37
0.0
 76
     0
330
17
331
64
  0
MLINESTYLE
  5
13
102
{ACAD_REACTORS
330
E
102
}
330
E
100
AcDbMlineStyle
  2
STANDARD
 70
     0
  3

 62
     0
 51
90.0
 52
90.0
 71
     2
 49
0.5
 62
   256
  6
BYLAYER
 49
-0.5
 62
   256
  6
BYLAYER
  0
ACDBPLACEHOLDER
  5
37F
102
{ACAD_REACTORS
330
37E
102
}
330
37E
  0
XRECORD
  5
939
102
{ACAD_REACTORS
330
937
102
}
330
937
100
AcDbXrecord
280
     1
340
91C
  0
XRECORD
  5
938
102
{ACAD_REACTORS
330
937
102
}
330
937
100
AcDbXrecord
280
     1
340
91B
  0
DICTIONARYVAR
  5
934
102
{ACAD_REACTORS
330
933
102
}
330
933
100
DictionaryVariables
280
     0
  1
1
  0
DICTIONARYVAR
  5
935
102
{ACAD_REACTORS
330
933
102
}
330
933
100
DictionaryVariables
280
     0
  1

  0
DICTIONARY
  5
93E
330
382
100
AcDbDictionary
280
     1
281
     1
  3
ACAD_XREC_ROUNDTRIP
360
93F
  0
DICTIONARY
  5
940
330
383
100
AcDbDictionary
280
     1
281
     1
  3
ACAD_XREC_ROUNDTRIP
360
941
  0
XRECORD
  5
93F
102
{ACAD_REACTORS
330
93E
102
}
330
93E
100
AcDbXrecord
280
     1
102
SHADEPLOT
 70
     0
102
SHADEPLOTRESLEVEL
 70
     2
102
SHADEPLOTCUSTOMDPI
 70
   300
  0
XRECORD
  5
941
102
{ACAD_REACTORS
330
940
102
}
330
940
100
AcDbXrecord
280
     1
102
SHADEPLOT
 70
     0
102
SHADEPLOTRESLEVEL
 70
     2
102
SHADEPLOTCUSTOMDPI
 70
   300
  0
ENDSEC
  0
EOF
