  0
SECTION
  2
HEADER
  9
$ACADVER
  1
AC1015
  9
$ACADMAINTVER
 70
    20
  9
$DWGCODEPAGE
  3
ANSI_932
  9
$INSBASE
 10
0.0
 20
0.0
 30
0.0
  9
$EXTMIN
 10
5.819092781538074
 20
8.148285613102189
 30
-0.0015258207003583
  9
$EXTMAX
 10
404.6319589678105
 20
283.9799658863107
 30
0.0000000349246037
  9
$LIMMIN
 10
0.0
 20
0.0
  9
$LIMMAX
 10
420.0
 20
297.0
  9
$ORTHOMODE
 70
     0
  9
$REGENMODE
 70
     1
  9
$FILLMODE
 70
     1
  9
$QTEXTMODE
 70
     0
  9
$MIRRTEXT
 70
     1
  9
$LTSCALE
 40
1.0
  9
$ATTMODE
 70
     1
  9
$TEXTSIZE
 40
2.5
  9
$TRACEWID
 40
1.0
  9
$TEXTSTYLE
  7
STANDARD
  9
$CLAYER
  8
SUNPOU
  9
$CELTYPE
  6
BYLAYER
  9
$CECOLOR
 62
   256
  9
$CELTSCALE
 40
1.0
  9
$DISPSILH
 70
     0
  9
$DIMSCALE
 40
1.0
  9
$DIMASZ
 40
3.0
  9
$DIMEXO
 40
3.0
  9
$DIMDLI
 40
7.0
  9
$DIMRND
 40
0.0
  9
$DIMDLE
 40
0.0
  9
$DIMEXE
 40
1.5
  9
$DIMTP
 40
0.0
  9
$DIMTM
 40
0.0
  9
$DIMTXT
 40
3.0
  9
$DIMCEN
 40
150.0
  9
$DIMTSZ
 40
0.0
  9
$DIMTOL
 70
     0
  9
$DIMLIM
 70
     0
  9
$DIMTIH
 70
     0
  9
$DIMTOH
 70
     0
  9
$DIMSE1
 70
     0
  9
$DIMSE2
 70
     0
  9
$DIMTAD
 70
     3
  9
$DIMZIN
 70
     0
  9
$DIMBLK
  1

  9
$DIMASO
 70
     1
  9
$DIMSHO
 70
     1
  9
$DIMPOST
  1

  9
$DIMAPOST
  1

  9
$DIMALT
 70
     0
  9
$DIMALTD
 70
     2
  9
$DIMALTF
 40
25.4
  9
$DIMLFAC
 40
1.0
  9
$DIMTOFL
 70
     1
  9
$DIMTVP
 40
0.0
  9
$DIMTIX
 70
     0
  9
$DIMSOXD
 70
     0
  9
$DIMSAH
 70
     1
  9
$DIMBLK1
  1
OPEN
  9
$DIMBLK2
  1
OPEN
  9
$DIMSTYLE
  2
STANDARD
  9
$DIMCLRD
 70
   256
  9
$DIMCLRE
 70
   256
  9
$DIMCLRT
 70
   256
  9
$DIMTFAC
 40
1.0
  9
$DIMGAP
 40
1.0
  9
$DIMJUST
 70
     0
  9
$DIMSD1
 70
     0
  9
$DIMSD2
 70
     0
  9
$DIMTOLJ
 70
     1
  9
$DIMTZIN
 70
     0
  9
$DIMALTZ
 70
     0
  9
$DIMALTTZ
 70
     0
  9
$DIMUPT
 70
     0
  9
$DIMDEC
 70
     0
  9
$DIMTDEC
 70
     0
  9
$DIMALTU
 70
     2
  9
$DIMALTTD
 70
     2
  9
$DIMTXSTY
  7
STANDARD
  9
$DIMAUNIT
 70
     0
  9
$DIMADEC
 70
     0
  9
$DIMALTRND
 40
0.0
  9
$DIMAZIN
 70
     0
  9
$DIMDSEP
 70
    46
  9
$DIMATFIT
 70
     3
  9
$DIMFRAC
 70
     0
  9
$DIMLDRBLK
  1
OPEN
  9
$DIMLUNIT
 70
     2
  9
$DIMLWD
 70
    -1
  9
$DIMLWE
 70
    -1
  9
$DIMTMOVE
 70
     0
  9
$LUNITS
 70
     2
  9
$LUPREC
 70
     4
  9
$SKETCHINC
 40
1.0
  9
$FILLETRAD
 40
10.0
  9
$AUNITS
 70
     0
  9
$AUPREC
 70
     0
  9
$MENU
  1
.
  9
$ELEVATION
 40
0.0
  9
$PELEVATION
 40
0.0
  9
$THICKNESS
 40
0.0
  9
$LIMCHECK
 70
     0
  9
$CHAMFERA
 40
0.0
  9
$CHAMFERB
 40
0.0
  9
$CHAMFERC
 40
20.0
  9
$CHAMFERD
 40
0.0
  9
$SKPOLY
 70
     0
  9
$TDCREATE
 40
2450994.350997107
  9
$TDUCREATE
 40
2450993.975997107
  9
$TDUPDATE
 40
2458306.588276424
  9
$TDUUPDATE
 40
2458306.213276424
  9
$TDINDWG
 40
0.1002961921
  9
$TDUSRTIMER
 40
0.1002961921
  9
$USRTIMER
 70
     1
  9
$ANGBASE
 50
0.0
  9
$ANGDIR
 70
     0
  9
$PDMODE
 70
     0
  9
$PDSIZE
 40
0.0
  9
$PLINEWID
 40
0.0
  9
$SPLFRAME
 70
     0
  9
$SPLINETYPE
 70
     6
  9
$SPLINESEGS
 70
     8
  9
$HANDSEED
  5
3AD6
  9
$SURFTAB1
 70
     6
  9
$SURFTAB2
 70
     6
  9
$SURFTYPE
 70
     6
  9
$SURFU
 70
     6
  9
$SURFV
 70
     6
  9
$UCSBASE
  2

  9
$UCSNAME
  2

  9
$UCSORG
 10
0.0
 20
0.0
 30
0.0
  9
$UCSXDIR
 10
1.0
 20
0.0
 30
0.0
  9
$UCSYDIR
 10
0.0
 20
1.0
 30
0.0
  9
$UCSORTHOREF
  2

  9
$UCSORTHOVIEW
 70
     0
  9
$UCSORGTOP
 10
0.0
 20
0.0
 30
0.0
  9
$UCSORGBOTTOM
 10
0.0
 20
0.0
 30
0.0
  9
$UCSORGLEFT
 10
0.0
 20
0.0
 30
0.0
  9
$UCSORGRIGHT
 10
0.0
 20
0.0
 30
0.0
  9
$UCSORGFRONT
 10
0.0
 20
0.0
 30
0.0
  9
$UCSORGBACK
 10
0.0
 20
0.0
 30
0.0
  9
$PUCSBASE
  2

  9
$PUCSNAME
  2

  9
$PUCSORG
 10
0.0
 20
0.0
 30
0.0
  9
$PUCSXDIR
 10
1.0
 20
0.0
 30
0.0
  9
$PUCSYDIR
 10
0.0
 20
1.0
 30
0.0
  9
$PUCSORTHOREF
  2

  9
$PUCSORTHOVIEW
 70
     0
  9
$PUCSORGTOP
 10
0.0
 20
0.0
 30
0.0
  9
$PUCSORGBOTTOM
 10
0.0
 20
0.0
 30
0.0
  9
$PUCSORGLEFT
 10
0.0
 20
0.0
 30
0.0
  9
$PUCSORGRIGHT
 10
0.0
 20
0.0
 30
0.0
  9
$PUCSORGFRONT
 10
0.0
 20
0.0
 30
0.0
  9
$PUCSORGBACK
 10
0.0
 20
0.0
 30
0.0
  9
$USERI1
 70
     0
  9
$USERI2
 70
     0
  9
$USERI3
 70
     0
  9
$USERI4
 70
     0
  9
$USERI5
 70
     0
  9
$USERR1
 40
0.0
  9
$USERR2
 40
0.0
  9
$USERR3
 40
0.0
  9
$USERR4
 40
0.0
  9
$USERR5
 40
0.0
  9
$WORLDVIEW
 70
     1
  9
$SHADEDGE
 70
     3
  9
$SHADEDIF
 70
    70
  9
$TILEMODE
 70
     1
  9
$MAXACTVP
 70
    16
  9
$PINSBASE
 10
0.0
 20
0.0
 30
0.0
  9
$PLIMCHECK
 70
     0
  9
$PEXTMIN
 10
0.0
 20
0.0
 30
0.0
  9
$PEXTMAX
 10
420.0
 20
297.0
 30
0.0
  9
$PLIMMIN
 10
0.0
 20
0.0
  9
$PLIMMAX
 10
420.0
 20
297.0
  9
$UNITMODE
 70
     0
  9
$VISRETAIN
 70
     0
  9
$PLINEGEN
 70
     0
  9
$PSLTSCALE
 70
     1
  9
$TREEDEPTH
 70
  3020
  9
$CMLSTYLE
  2
STANDARD
  9
$CMLJUST
 70
     0
  9
$CMLSCALE
 40
1.0
  9
$PROXYGRAPHICS
 70
     1
  9
$MEASUREMENT
 70
     1
  9
$CELWEIGHT
370
    -1
  9
$ENDCAPS
280
     0
  9
$JOINSTYLE
280
     0
  9
$LWDISPLAY
290
     0
  9
$INSUNITS
 70
     0
  9
$HYPERLINKBASE
  1

  9
$STYLESHEET
  1
monochrome.ctb
  9
$XEDIT
290
     1
  9
$CEPSNTYPE
380
     0
  9
$PSTYLEMODE
290
     1
  9
$FINGERPRINTGUID
  2
{B4565D9B-6A16-43F4-BC10-4AF2DFFDD405}
  9
$VERSIONGUID
  2
{BE368C32-EE56-41EF-9A53-A24BF3B1C2BF}
  9
$EXTNAMES
290
     1
  9
$PSVPSCALE
 40
0.0
  9
$OLESTARTUP
290
     0
  0
ENDSEC
  0
SECTION
  2
CLASSES
  0
CLASS
  1
ACDBDICTIONARYWDFLT
  2
AcDbDictionaryWithDefault
  3
ObjectDBX Classes
 90
        0
280
     0
281
     0
  0
CLASS
  1
ACDBPLACEHOLDER
  2
AcDbPlaceHolder
  3
ObjectDBX Classes
 90
        0
280
     0
281
     0
  0
CLASS
  1
LAYOUT
  2
AcDbLayout
  3
ObjectDBX Classes
 90
        0
280
     0
281
     0
  0
CLASS
  1
MATERIAL
  2
AcDbMaterial
  3
ObjectDBX Classes
 90
     1153
280
     0
281
     0
  0
CLASS
  1
VISUALSTYLE
  2
AcDbVisualStyle
  3
ObjectDBX Classes
 90
     4095
280
     0
281
     0
  0
CLASS
  1
TABLESTYLE
  2
AcDbTableStyle
  3
ObjectDBX Classes
 90
     4095
280
     0
281
     0
  0
CLASS
  1
SCALE
  2
AcDbScale
  3
ObjectDBX Classes
 90
     1153
280
     0
281
     0
  0
CLASS
  1
MLEADERSTYLE
  2
AcDbMLeaderStyle
  3
ACDB_MLEADERSTYLE_CLASS
 90
     4095
280
     0
281
     0
  0
CLASS
  1
SORTENTSTABLE
  2
AcDbSortentsTable
  3
ObjectDBX Classes
 90
        0
280
     0
281
     0
  0
CLASS
  1
DICTIONARYVAR
  2
AcDbDictionaryVar
  3
ObjectDBX Classes
 90
        0
280
     0
281
     0
  0
CLASS
  1
CELLSTYLEMAP
  2
AcDbCellStyleMap
  3
ObjectDBX Classes
 90
     1152
280
     0
281
     0
  0
CLASS
  1
ACAD_PROXY_OBJECT_WRAPPER
  2
AcDbProxyObjectWrapper
  3
ObjectDBX Classes
 90
    32768
280
     0
281
     0
  0
ENDSEC
  0
SECTION
  2
TABLES
  0
TABLE
  2
VPORT
  5
8
102
{ACAD_XDICTIONARY
360
32B8
102
}
330
0
100
AcDbSymbolTable
 70
     1
  0
VPORT
  5
39C4
330
8
100
AcDbSymbolTableRecord
100
AcDbViewportTableRecord
  2
*Active
 70
     0
 10
0.0
 20
0.0
 11
1.0
 21
1.0
 12
205.2255258746743
 22
146.0641257497064
 13
0.0
 23
0.0
 14
5.0
 24
5.0
 15
0.0
 25
0.0
 16
0.0
 26
0.0
 36
1.0
 17
0.0
 27
0.0
 37
0.0
 40
277.6227950801773
 41
2.061755146262188
 42
50.0
 43
0.0
 44
0.0
 50
0.0
 51
0.0
 71
     0
 72
   100
 73
     1
 74
     0
 75
     0
 76
     0
 77
     0
 78
     0
281
     0
 65
     1
110
0.0
120
0.0
130
0.0
111
1.0
121
0.0
131
0.0
112
0.0
122
1.0
132
0.0
 79
     0
146
0.0
  0
ENDTAB
  0
TABLE
  2
LTYPE
  5
5
330
0
100
AcDbSymbolTable
 70
     4
  0
LTYPE
  5
14
330
5
100
AcDbSymbolTableRecord
100
AcDbLinetypeTableRecord
  2
BYBLOCK
 70
     0
  3

 72
    65
 73
     0
 40
0.0
  0
LTYPE
  5
15
330
5
100
AcDbSymbolTableRecord
100
AcDbLinetypeTableRecord
  2
BYLAYER
 70
     0
  3

 72
    65
 73
     0
 40
0.0
  0
LTYPE
  5
16
330
5
100
AcDbSymbolTableRecord
100
AcDbLinetypeTableRecord
  2
CONTINUOUS
 70
     0
  3
Solid line
 72
    65
 73
     0
 40
0.0
  0
LTYPE
  5
120
330
5
100
AcDbSymbolTableRecord
100
AcDbLinetypeTableRecord
  2
CENTER
 70
     0
  3
____ _ ____ _ ____ _ ____ _ ____ _ ____ _ ____ 
 72
    65
 73
     4
 40
2.0
 49
1.25
 74
     0
 49
-0.25
 74
     0
 49
0.25
 74
     0
 49
-0.25
 74
     0
  0
LTYPE
  5
38B6
330
5
100
AcDbSymbolTableRecord
100
AcDbLinetypeTableRecord
  2
DASHED2
 70
     0
  3
Dashed (.5x) _ _ _ _ _ _ _ _ _ _ _ _ _ _ _ _ _
 72
    65
 73
     2
 40
9.524999999999998
 49
6.349999999999999
 74
     0
 49
-3.174999999999999
 74
     0
  0
LTYPE
  5
3985
330
5
100
AcDbSymbolTableRecord
100
AcDbLinetypeTableRecord
  2
PHANTOM2
 70
     0
  3
Phantom (.5x) ___ _ _ ___ _ _ ___ _ _ ___ _ _
 72
    65
 73
     6
 40
31.75
 49
15.875
 74
     0
 49
-3.174999999999999
 74
     0
 49
3.174999999999999
 74
     0
 49
-3.174999999999999
 74
     0
 49
3.174999999999999
 74
     0
 49
-3.174999999999999
 74
     0
  0
ENDTAB
  0
TABLE
  2
LAYER
  5
2
330
0
100
AcDbSymbolTable
 70
     8
  0
LAYER
  5
F
102
{ACAD_XDICTIONARY
360
3121
102
}
330
2
100
AcDbSymbolTableRecord
100
AcDbLayerTableRecord
  2
0
 70
     0
 62
     7
  6
CONTINUOUS
370
    -3
390
290
  0
LAYER
  5
62
102
{ACAD_XDICTIONARY
360
3123
102
}
330
2
100
AcDbSymbolTableRecord
100
AcDbLayerTableRecord
  2
VIEWPORT
 70
     0
 62
     7
  6
CONTINUOUS
370
    -3
390
290
  0
LAYER
  5
6B
102
{ACAD_XDICTIONARY
360
3125
102
}
330
2
100
AcDbSymbolTableRecord
100
AcDbLayerTableRecord
  2
ZUWAKU
 70
     0
 62
     7
  6
CONTINUOUS
370
    -3
390
290
  0
LAYER
  5
140
102
{ACAD_XDICTIONARY
360
3127
102
}
330
2
100
AcDbSymbolTableRecord
100
AcDbLayerTableRecord
  2
SEIHIN
 70
     0
 62
     3
  6
CONTINUOUS
370
    -3
390
290
  0
LAYER
  5
141
102
{ACAD_XDICTIONARY
360
3129
102
}
330
2
100
AcDbSymbolTableRecord
100
AcDbLayerTableRecord
  2
SUNPOU
 70
     0
 62
     4
  6
CONTINUOUS
370
    -3
390
290
  0
LAYER
  5
142
102
{ACAD_XDICTIONARY
360
312B
102
}
330
2
100
AcDbSymbolTableRecord
100
AcDbLayerTableRecord
  2
CENTER L
 70
     0
 62
     1
  6
CENTER
370
    -3
390
290
  0
LAYER
  5
1F5
330
2
100
AcDbSymbolTableRecord
100
AcDbLayerTableRecord
  2
DEFPOINTS
 70
     0
 62
     7
  6
CONTINUOUS
290
     0
370
    -3
390
290
  0
LAYER
  5
4EF
102
{ACAD_XDICTIONARY
360
312D
102
}
330
2
100
AcDbSymbolTableRecord
100
AcDbLayerTableRecord
  2
moji
 70
     0
 62
     2
  6
CONTINUOUS
370
    -3
390
290
  0
ENDTAB
  0
TABLE
  2
STYLE
  5
3
330
0
100
AcDbSymbolTable
 70
     3
  0
STYLE
  5
10
330
3
100
AcDbSymbolTableRecord
100
AcDbTextStyleTableRecord
  2
STANDARD
 70
     0
 40
0.0
 41
1.0
 50
0.0
 71
     0
 42
2.5
  3
TXT
  4
bigfont.shx
  0
STYLE
  5
4F0
330
3
100
AcDbSymbolTableRecord
100
AcDbTextStyleTableRecord
  2
ｽﾀｲﾙ1
 70
     0
 40
0.0
 41
1.0
 50
0.0
 71
     0
 42
2.5
  3

  4

1001
ACAD
1000
MS PGothic
1071
    32818
  0
STYLE
  5
38B5
330
3
100
AcDbSymbolTableRecord
100
AcDbTextStyleTableRecord
  2

 70
     1
 40
0.0
 41
1.0
 50
0.0
 71
     0
 42
2.5
  3
ltypeshp.shx
  4

  0
ENDTAB
  0
TABLE
  2
VIEW
  5
6
330
0
100
AcDbSymbolTable
 70
     0
  0
ENDTAB
  0
TABLE
  2
UCS
  5
7
330
0
100
AcDbSymbolTable
 70
     0
  0
ENDTAB
  0
TABLE
  2
APPID
  5
9
330
0
100
AcDbSymbolTable
 70
     5
  0
APPID
  5
11
330
9
100
AcDbSymbolTableRecord
100
AcDbRegAppTableRecord
  2
ACAD
 70
     0
  0
APPID
  5
309A
330
9
100
AcDbSymbolTableRecord
100
AcDbRegAppTableRecord
  2
ACAD_DSTYLE_DIMJAG
 70
     0
  0
APPID
  5
309B
330
9
100
AcDbSymbolTableRecord
100
AcDbRegAppTableRecord
  2
ACAD_DSTYLE_DIMTALN
 70
     0
  0
APPID
  5
30CE
330
9
100
AcDbSymbolTableRecord
100
AcDbRegAppTableRecord
  2
ACAD_EXEMPT_FROM_CAD_STANDARDS
 70
     0
  0
APPID
  5
32F6
330
9
100
AcDbSymbolTableRecord
100
AcDbRegAppTableRecord
  2
ACAD_MLEADERVER
 70
     0
  0
ENDTAB
  0
TABLE
  2
DIMSTYLE
  5
A
330
0
100
AcDbSymbolTable
 70
     1
100
AcDbDimStyleTable
 71
     1
340
1D
  0
DIMSTYLE
105
1D
102
{ACAD_REACTORS
330
31AF
330
31A3
330
31BB
330
321C
330
3233
330
378B
330
378C
102
}
330
A
100
AcDbSymbolTableRecord
100
AcDbDimStyleTableRecord
  2
STANDARD
 70
     0
340
10
  0
ENDTAB
  0
TABLE
  2
BLOCK_RECORD
  5
1
330
0
100
AcDbSymbolTable
 70
     9
  0
BLOCK_RECORD
  5
1A
102
{ACAD_XDICTIONARY
360
2D8
102
}
330
1
100
AcDbSymbolTableRecord
100
AcDbBlockTableRecord
  2
*MODEL_SPACE
340
293
  0
BLOCK_RECORD
  5
17
102
{ACAD_XDICTIONARY
360
2D6
102
}
330
1
100
AcDbSymbolTableRecord
100
AcDbBlockTableRecord
  2
*PAPER_SPACE
340
294
  0
BLOCK_RECORD
  5
B2
330
1
100
AcDbSymbolTableRecord
100
AcDbBlockTableRecord
  2
_OPEN
340
0
102
{BLKREFS
331
3A0E
331
3A0F
331
3A17
331
3A18
331
3A20
331
3A21
331
3A29
331
3A2A
331
3A32
331
3A33
331
3A3B
331
3A3C
331
3A47
331
3A48
102
}
  0
BLOCK_RECORD
  5
28AC
330
1
100
AcDbSymbolTableRecord
100
AcDbBlockTableRecord
  2
*X1
340
0
102
{BLKREFS
331
2BB2
102
}
  0
BLOCK_RECORD
  5
31C1
330
1
100
AcDbSymbolTableRecord
100
AcDbBlockTableRecord
  2
*D2
340
0
  0
BLOCK_RECORD
  5
31CD
330
1
100
AcDbSymbolTableRecord
100
AcDbBlockTableRecord
  2
*D3
340
0
  0
BLOCK_RECORD
  5
31D9
330
1
100
AcDbSymbolTableRecord
100
AcDbBlockTableRecord
  2
*D4
340
0
  0
BLOCK_RECORD
  5
321D
330
1
100
AcDbSymbolTableRecord
100
AcDbBlockTableRecord
  2
*D5
340
0
  0
BLOCK_RECORD
  5
3234
330
1
100
AcDbSymbolTableRecord
100
AcDbBlockTableRecord
  2
*D6
340
0
  0
BLOCK_RECORD
  5
378D
330
1
100
AcDbSymbolTableRecord
100
AcDbBlockTableRecord
  2
*D7
340
0
  0
BLOCK_RECORD
  5
3799
330
1
100
AcDbSymbolTableRecord
100
AcDbBlockTableRecord
  2
*D8
340
0
  0
ENDTAB
  0
ENDSEC
  0
SECTION
  2
BLOCKS
  0
BLOCK
  5
1B
330
1A
100
AcDbEntity
  8
0
100
AcDbBlockBegin
  2
*MODEL_SPACE
 70
     0
 10
0.0
 20
0.0
 30
0.0
  3
*MODEL_SPACE
  1

  0
ENDBLK
  5
1C
330
1A
100
AcDbEntity
  8
0
100
AcDbBlockEnd
  0
BLOCK
  5
18
330
17
100
AcDbEntity
 67
     1
  8
0
100
AcDbBlockBegin
  2
*PAPER_SPACE
 70
     0
 10
0.0
 20
0.0
 30
0.0
  3
*PAPER_SPACE
  1

  0
ENDBLK
  5
19
330
17
100
AcDbEntity
 67
     1
  8
0
100
AcDbBlockEnd
  0
BLOCK
  5
B3
330
B2
100
AcDbEntity
  8
0
100
AcDbBlockBegin
  2
_OPEN
 70
     0
 10
0.0
 20
0.0
 30
0.0
  3
_OPEN
  1

  0
LINE
  5
B4
330
B2
100
AcDbEntity
  8
0
  6
ByBlock
 62
     0
100
AcDbLine
 10
-1.0
 20
0.1666666666666666
 30
0.0
 11
0.0
 21
0.0
 31
0.0
  0
LINE
  5
B5
330
B2
100
AcDbEntity
  8
0
  6
ByBlock
 62
     0
100
AcDbLine
 10
0.0
 20
0.0
 30
0.0
 11
-1.0
 21
-0.1666666666666666
 31
0.0
  0
LINE
  5
B6
330
B2
100
AcDbEntity
  8
0
  6
ByBlock
 62
     0
100
AcDbLine
 10
0.0
 20
0.0
 30
0.0
 11
-1.0
 21
0.0
 31
0.0
  0
ENDBLK
  5
B7
330
B2
100
AcDbEntity
  8
0
100
AcDbBlockEnd
  0
BLOCK
  5
2A40
330
28AC
100
AcDbEntity
  8
0
100
AcDbBlockBegin
  2
*X1
 70
     1
 10
0.0
 20
0.0
 30
0.0
  3
*X1
  1

  0
LINE
  5
28AD
330
28AC
100
AcDbEntity
  8
0
 62
     0
100
AcDbLine
 10
66.75047808566091
 20
28.71175535310772
 30
0.0
 11
66.10464715594599
 21
29.3575862828227
 31
0.0
  0
LINE
  5
28AE
330
28AC
100
AcDbEntity
  8
0
 62
     0
100
AcDbLine
 10
66.75047808566091
 20
27.81372974100083
 30
0.0
 11
65.20662154383905
 21
29.3575862828227
 31
0.0
  0
LINE
  5
28AF
330
28AC
100
AcDbEntity
  8
0
 62
     0
100
AcDbLine
 10
66.75047808566086
 20
26.91570412889388
 30
0.0
 11
64.32934413964591
 21
29.33683807490883
 31
0.0
  0
LINE
  5
28B0
330
28AC
100
AcDbEntity
  8
0
 62
     0
100
AcDbLine
 10
66.75047808566091
 20
26.01767851678705
 30
0.0
 11
63.95047808566085
 21
28.81767851678706
 31
0.0
  0
LINE
  5
28B1
330
28AC
100
AcDbEntity
  8
0
 62
     0
100
AcDbLine
 10
66.75047808566091
 20
25.1196529046801
 30
0.0
 11
63.95047808566085
 21
27.91965290468017
 31
0.0
  0
LINE
  5
28B2
330
28AC
100
AcDbEntity
  8
0
 62
     0
100
AcDbLine
 10
66.75047808566086
 20
24.22162729257315
 30
0.0
 11
63.95047808566079
 21
27.02162729257322
 31
0.0
  0
LINE
  5
28B3
330
28AC
100
AcDbEntity
  8
0
 62
     0
100
AcDbLine
 10
61.85047808566082
 20
28.22360168046635
 30
0.0
 11
60.71649348330453
 21
29.3575862828227
 31
0.0
  0
LINE
  5
28B4
330
28AC
100
AcDbEntity
  8
0
 62
     0
100
AcDbLine
 10
66.75047808566091
 20
23.32360168046631
 30
0.0
 11
63.95047808566085
 21
26.12360168046638
 31
0.0
  0
LINE
  5
28B5
330
28AC
100
AcDbEntity
  8
0
 62
     0
100
AcDbLine
 10
61.85047808566082
 20
27.32557606835945
 30
0.0
 11
59.81846787119758
 21
29.35758628282264
 31
0.0
  0
LINE
  5
28B6
330
28AC
100
AcDbEntity
  8
0
 62
     0
100
AcDbLine
 10
66.75047808566086
 20
22.42557606835936
 30
0.0
 11
63.95047808566085
 21
25.22557606835943
 31
0.0
  0
LINE
  5
28B7
330
28AC
100
AcDbEntity
  8
0
 62
     0
100
AcDbLine
 10
61.85047808566082
 20
26.4275504562525
 30
0.0
 11
59.14496712052375
 21
29.13306142138959
 31
0.0
  0
LINE
  5
28B8
330
28AC
100
AcDbEntity
  8
0
 62
     0
100
AcDbLine
 10
66.75047808566086
 20
21.52755045625247
 30
0.0
 11
63.95047808566079
 21
24.32755045625248
 31
0.0
  0
LINE
  5
28B9
330
28AC
100
AcDbEntity
  8
0
 62
     0
100
AcDbLine
 10
61.85047808566094
 20
25.5295248441455
 30
0.0
 11
59.05047808566076
 21
28.32952484414562
 31
0.0
  0
LINE
  5
28BA
330
28AC
100
AcDbEntity
  8
0
 62
     0
100
AcDbLine
 10
66.75047808566091
 20
20.62952484414552
 30
0.0
 11
63.95047808566085
 21
23.42952484414559
 31
0.0
  0
LINE
  5
28BB
330
28AC
100
AcDbEntity
  8
0
 62
     0
100
AcDbLine
 10
61.85047808566088
 20
24.63149923203861
 30
0.0
 11
59.05047808566076
 21
27.43149923203879
 31
0.0
  0
LINE
  5
28BC
330
28AC
100
AcDbEntity
  8
0
 62
     0
100
AcDbLine
 10
66.75047808566086
 20
19.73149923203863
 30
0.0
 11
63.95047808566079
 21
22.5314992320387
 31
0.0
  0
LINE
  5
28BD
330
28AC
100
AcDbEntity
  8
0
 62
     0
100
AcDbLine
 10
61.85047808566088
 20
23.73347361993172
 30
0.0
 11
59.05047808566076
 21
26.53347361993184
 31
0.0
  0
LINE
  5
28BE
330
28AC
100
AcDbEntity
  8
0
 62
     0
100
AcDbLine
 10
66.75047808566086
 20
18.83347361993173
 30
0.0
 11
63.95047808566079
 21
21.63347361993181
 31
0.0
  0
LINE
  5
28BF
330
28AC
100
AcDbEntity
  8
0
 62
     0
100
AcDbLine
 10
61.85047808566082
 20
22.83544800782477
 30
0.0
 11
59.0504780856607
 21
25.63544800782489
 31
0.0
  0
LINE
  5
28C0
330
28AC
100
AcDbEntity
  8
0
 62
     0
100
AcDbLine
 10
66.7504780856608
 20
17.93544800782479
 30
0.0
 11
63.95047808566079
 21
20.73544800782486
 31
0.0
  0
LINE
  5
28C1
330
28AC
100
AcDbEntity
  8
0
 62
     0
100
AcDbLine
 10
61.85047808566088
 20
21.93742239571793
 30
0.0
 11
59.05047808566076
 21
24.73742239571806
 31
0.0
  0
LINE
  5
28C2
330
28AC
100
AcDbEntity
  8
0
 62
     0
100
AcDbLine
 10
55.55047808566081
 20
28.237422395718
 30
0.0
 11
54.43031419855618
 21
29.35758628282264
 31
0.0
  0
LINE
  5
28C3
330
28AC
100
AcDbEntity
  8
0
 62
     0
100
AcDbLine
 10
66.75047808566086
 20
17.03742239571795
 30
0.0
 11
63.95047808566079
 21
19.83742239571796
 31
0.0
  0
LINE
  5
28C4
330
28AC
100
AcDbEntity
  8
0
 62
     0
100
AcDbLine
 10
61.85047808566088
 20
21.03939678361098
 30
0.0
 11
59.0504780856607
 21
23.83939678361111
 31
0.0
  0
LINE
  5
28C5
330
28AC
100
AcDbEntity
  8
0
 62
     0
100
AcDbLine
 10
55.55047808566076
 20
27.33939678361105
 30
0.0
 11
53.53228858644922
 21
29.35758628282264
 31
0.0
  0
LINE
  5
28C6
330
28AC
100
AcDbEntity
  8
0
 62
     0
100
AcDbLine
 10
66.75047808566086
 20
16.139396783611
 30
0.0
 11
63.95047808566079
 21
18.93939678361107
 31
0.0
  0
LINE
  5
28C7
330
28AC
100
AcDbEntity
  8
0
 62
     0
100
AcDbLine
 10
61.85047808566082
 20
20.14137117150409
 30
0.0
 11
59.05047808566076
 21
22.9413711715041
 31
0.0
  0
LINE
  5
28C8
330
28AC
100
AcDbEntity
  8
0
 62
     0
100
AcDbLine
 10
55.55047808566076
 20
26.44137117150416
 30
0.0
 11
52.85071536233676
 21
29.14113389482816
 31
0.0
  0
LINE
  5
28C9
330
28AC
100
AcDbEntity
  8
0
 62
     0
100
AcDbLine
 10
66.7504780856608
 20
15.24137117150411
 30
0.0
 11
63.95047808566073
 21
18.04137117150412
 31
0.0
  0
LINE
  5
28CA
330
28AC
100
AcDbEntity
  8
0
 62
     0
100
AcDbLine
 10
61.85047808566088
 20
19.24334555939714
 30
0.0
 11
59.05047808566081
 21
22.04334555939721
 31
0.0
  0
LINE
  5
28CB
330
28AC
100
AcDbEntity
  8
0
 62
     0
100
AcDbLine
 10
55.55047808566081
 20
25.54334555939721
 30
0.0
 11
52.7504780856608
 21
28.34334555939722
 31
0.0
  0
LINE
  5
28CC
330
28AC
100
AcDbEntity
  8
0
 62
     0
100
AcDbLine
 10
66.75047808566086
 20
14.34334555939716
 30
0.0
 11
63.95047808566079
 21
17.14334555939723
 31
0.0
  0
LINE
  5
28CD
330
28AC
100
AcDbEntity
  8
0
 62
     0
100
AcDbLine
 10
61.85047808566082
 20
18.34531994729025
 30
0.0
 11
59.05047808566081
 21
21.14531994729032
 31
0.0
  0
LINE
  5
28CE
330
28AC
100
AcDbEntity
  8
0
 62
     0
100
AcDbLine
 10
55.55047808566087
 20
24.64531994729026
 30
0.0
 11
52.7504780856608
 21
27.44531994729033
 31
0.0
  0
LINE
  5
28CF
330
28AC
100
AcDbEntity
  8
0
 62
     0
100
AcDbLine
 10
66.67851273077104
 20
13.51728530218008
 30
0.0
 11
63.95047808566079
 21
16.24531994729034
 31
0.0
  0
LINE
  5
28D0
330
28AC
100
AcDbEntity
  8
0
 62
     0
100
AcDbLine
 10
61.85047808566088
 20
17.44729433518324
 30
0.0
 11
59.05047808566076
 21
20.24729433518337
 31
0.0
  0
LINE
  5
28D1
330
28AC
100
AcDbEntity
  8
0
 62
     0
100
AcDbLine
 10
55.55047808566081
 20
23.74729433518337
 30
0.0
 11
52.75047808566075
 21
26.54729433518338
 31
0.0
  0
LINE
  5
28D2
330
28AC
100
AcDbEntity
  8
0
 62
     0
100
AcDbLine
 10
66.04018613802157
 20
13.25758628282261
 30
0.0
 11
63.95047808566073
 21
15.34729433518345
 31
0.0
  0
LINE
  5
28D3
330
28AC
100
AcDbEntity
  8
0
 62
     0
100
AcDbLine
 10
55.55047808566081
 20
22.84926872307642
 30
0.0
 11
52.75047808566075
 21
25.64926872307649
 31
0.0
  0
LINE
  5
28D4
330
28AC
100
AcDbEntity
  8
0
 62
     0
100
AcDbLine
 10
61.85047808566088
 20
16.54926872307635
 30
0.0
 11
59.05047808566076
 21
19.34926872307648
 31
0.0
  0
LINE
  5
28D5
330
28AC
100
AcDbEntity
  8
0
 62
     0
100
AcDbLine
 10
50.1254780856608
 20
28.27426872307643
 30
0.0
 11
49.04216052591465
 21
29.35758628282253
 31
0.0
  0
LINE
  5
28D6
330
28AC
100
AcDbEntity
  8
0
 62
     0
100
AcDbLine
 10
65.14216052591468
 20
13.2575862828225
 30
0.0
 11
63.95047808566073
 21
14.4492687230765
 31
0.0
  0
LINE
  5
28D7
330
28AC
100
AcDbEntity
  8
0
 62
     0
100
AcDbLine
 10
55.55047808566081
 20
21.95124311096953
 30
0.0
 11
52.75047808566085
 21
24.75124311096954
 31
0.0
  0
LINE
  5
28D8
330
28AC
100
AcDbEntity
  8
0
 62
     0
100
AcDbLine
 10
50.1254780856608
 20
27.37624311096954
 30
0.0
 11
48.14413491380782
 21
29.35758628282258
 31
0.0
  0
LINE
  5
28D9
330
28AC
100
AcDbEntity
  8
0
 62
     0
100
AcDbLine
 10
61.82451978501529
 20
15.6772014116151
 30
0.0
 11
59.05047808566076
 21
18.45124311096958
 31
0.0
  0
LINE
  5
28DA
330
28AC
100
AcDbEntity
  8
0
 62
     0
100
AcDbLine
 10
55.55047808566081
 20
21.05321749886264
 30
0.0
 11
52.75047808566085
 21
23.85321749886259
 31
0.0
  0
LINE
  5
28DB
330
28AC
100
AcDbEntity
  8
0
 62
     0
100
AcDbLine
 10
49.92989753954697
 20
26.67379804497648
 30
0.0
 11
47.24610930170081
 21
29.35758628282264
 31
0.0
  0
LINE
  5
28DC
330
28AC
100
AcDbEntity
  8
0
 62
     0
100
AcDbLine
 10
61.63153448975805
 20
14.97216109476534
 30
0.0
 11
59.05047808566076
 21
17.55321749886269
 31
0.0
  0
LINE
  5
28DD
330
28AC
100
AcDbEntity
  8
0
 62
     0
100
AcDbLine
 10
55.55047808566081
 20
20.15519188675569
 30
0.0
 11
52.7504780856608
 21
22.9551918867557
 31
0.0
  0
LINE
  5
28DE
330
28AC
100
AcDbEntity
  8
0
 62
     0
100
AcDbLine
 10
49.14808368959382
 20
26.55758628282263
 30
0.0
 11
46.34808368959392
 21
29.35758628282253
 31
0.0
  0
LINE
  5
28DF
330
28AC
100
AcDbEntity
  8
0
 62
     0
100
AcDbLine
 10
61.30650261383448
 20
14.39916735858196
 30
0.0
 11
58.97896234650125
 21
16.72670762591525
 31
0.0
  0
LINE
  5
28E0
330
28AC
100
AcDbEntity
  8
0
 62
     0
100
AcDbLine
 10
55.55047808566081
 20
19.25716627464885
 30
0.0
 11
52.75047808566085
 21
22.05716627464881
 31
0.0
  0
LINE
  5
28E1
330
28AC
100
AcDbEntity
  8
0
 62
     0
100
AcDbLine
 10
48.25005807748704
 20
26.55758628282257
 30
0.0
 11
45.5124913483096
 21
29.29515301200007
 31
0.0
  0
LINE
  5
28E2
330
28AC
100
AcDbEntity
  8
0
 62
     0
100
AcDbLine
 10
60.87446081650944
 20
13.93318354380017
 30
0.0
 11
58.57737670803373
 21
16.23026765227587
 31
0.0
  0
LINE
  5
28E3
330
28AC
100
AcDbEntity
  8
0
 62
     0
100
AcDbLine
 10
55.55047808566081
 20
18.3591406625419
 30
0.0
 11
52.7504780856608
 21
21.15914066254186
 31
0.0
  0
LINE
  5
28E4
330
28AC
100
AcDbEntity
  8
0
 62
     0
100
AcDbLine
 10
47.35203246538015
 20
26.55758628282257
 30
0.0
 11
44.8478509237762
 21
29.06176782442646
 31
0.0
  0
LINE
  5
28E5
330
28AC
100
AcDbEntity
  8
0
 62
     0
100
AcDbLine
 10
60.33829847158341
 20
13.5713202766193
 30
0.0
 11
57.85203246538014
 21
16.05758628282257
 31
0.0
  0
LINE
  5
28E6
330
28AC
100
AcDbEntity
  8
0
 62
     0
100
AcDbLine
 10
55.55047808566076
 20
17.46111505043495
 30
0.0
 11
52.7504780856608
 21
20.26111505043497
 31
0.0
  0
LINE
  5
28E7
330
28AC
100
AcDbEntity
  8
0
 62
     0
100
AcDbLine
 10
46.47579668129123
 20
26.53579645480448
 30
0.0
 11
44.30524998656602
 21
28.70634314952969
 31
0.0
  0
LINE
  5
28E8
330
28AC
100
AcDbEntity
  8
0
 62
     0
100
AcDbLine
 10
59.68188591167211
 20
13.32970722442366
 30
0.0
 11
56.95400685327314
 21
16.05758628282262
 31
0.0
  0
LINE
  5
28E9
330
28AC
100
AcDbEntity
  8
0
 62
     0
100
AcDbLine
 10
46.10047808566088
 20
26.01308943832788
 30
0.0
 11
43.86713792752146
 21
28.24642959646729
 31
0.0
  0
LINE
  5
28EA
330
28AC
100
AcDbEntity
  8
0
 62
     0
100
AcDbLine
 10
58.85598124116626
 20
13.25758628282256
 30
0.0
 11
52.7504780856608
 21
19.36308943832802
 31
0.0
  0
LINE
  5
28EB
330
28AC
100
AcDbEntity
  8
0
 62
     0
100
AcDbLine
 10
46.10047808566088
 20
25.11506382622111
 30
0.0
 11
43.53536701516844
 21
27.68017489671354
 31
0.0
  0
LINE
  5
28EC
330
28AC
100
AcDbEntity
  8
0
 62
     0
100
AcDbLine
 10
57.95795562905937
 20
13.25758628282256
 30
0.0
 11
52.7504780856608
 21
18.46506382622118
 31
0.0
  0
LINE
  5
28ED
330
28AC
100
AcDbEntity
  8
0
 62
     0
100
AcDbLine
 10
46.30702236676467
 20
24.01049393301037
 30
0.0
 11
43.33318849580433
 21
26.98432780397065
 31
0.0
  0
LINE
  5
28EE
330
28AC
100
AcDbEntity
  8
0
 62
     0
100
AcDbLine
 10
57.05993001695247
 20
13.25758628282256
 30
0.0
 11
52.7504780856608
 21
17.56703821411423
 31
0.0
  0
LINE
  5
28EF
330
28AC
100
AcDbEntity
  8
0
 62
     0
100
AcDbLine
 10
50.52408178835225
 20
18.89540889931584
 30
0.0
 11
43.30047808566075
 21
26.11901260200733
 31
0.0
  0
LINE
  5
28F0
330
28AC
100
AcDbEntity
  8
0
 62
     0
100
AcDbLine
 10
41.20047808566073
 20
28.2190126020073
 30
0.0
 11
40.06190440484544
 21
29.35758628282264
 31
0.0
  0
LINE
  5
28F1
330
28AC
100
AcDbEntity
  8
0
 62
     0
100
AcDbLine
 10
56.16190440484553
 20
13.25758628282256
 30
0.0
 11
52.75047808566075
 21
16.66901260200728
 31
0.0
  0
LINE
  5
28F2
330
28AC
100
AcDbEntity
  8
0
 62
     0
100
AcDbLine
 10
50.65047808566089
 20
17.87098698990036
 30
0.0
 11
43.30047808566081
 21
25.22098698990044
 31
0.0
  0
LINE
  5
28F3
330
28AC
100
AcDbEntity
  8
0
 62
     0
100
AcDbLine
 10
41.20047808566084
 20
27.32098698990035
 30
0.0
 11
39.16387879273856
 21
29.3575862828227
 31
0.0
  0
LINE
  5
28F4
330
28AC
100
AcDbEntity
  8
0
 62
     0
100
AcDbLine
 10
55.24743091399376
 20
13.2740341615675
 30
0.0
 11
52.76692596440574
 21
15.75453911115551
 31
0.0
  0
LINE
  5
28F5
330
28AC
100
AcDbEntity
  8
0
 62
     0
100
AcDbLine
 10
41.20047808566084
 20
26.42296137779346
 30
0.0
 11
38.49308819788553
 21
29.13035126556872
 31
0.0
  0
LINE
  5
28F6
330
28AC
100
AcDbEntity
  8
0
 62
     0
100
AcDbLine
 10
50.65047808566084
 20
16.97296137779341
 30
0.0
 11
43.3238887535432
 21
24.2995507099111
 31
0.0
  0
LINE
  5
28F7
330
28AC
100
AcDbEntity
  8
0
 62
     0
100
AcDbLine
 10
41.20047808566084
 20
25.52493576568651
 30
0.0
 11
38.40047808566078
 21
28.32493576568658
 31
0.0
  0
LINE
  5
28F8
330
28AC
100
AcDbEntity
  8
0
 62
     0
100
AcDbLine
 10
50.65047808566072
 20
16.07493576568657
 30
0.0
 11
43.64200817138322
 21
23.08340567996413
 31
0.0
  0
LINE
  5
28F9
330
28AC
100
AcDbEntity
  8
0
 62
     0
100
AcDbLine
 10
41.20047808566084
 20
24.62691015357961
 30
0.0
 11
38.40047808566078
 21
27.42691015357963
 31
0.0
  0
LINE
  5
28FA
330
28AC
100
AcDbEntity
  8
0
 62
     0
100
AcDbLine
 10
50.54191626807176
 20
15.2854719711687
 30
0.0
 11
47.84628147903345
 21
17.98110676020701
 31
0.0
  0
LINE
  5
28FB
330
28AC
100
AcDbEntity
  8
0
 62
     0
100
AcDbLine
 10
41.20047808566084
 20
23.72888454147272
 30
0.0
 11
38.40047808566078
 21
26.52888454147279
 31
0.0
  0
LINE
  5
28FC
330
28AC
100
AcDbEntity
  8
0
 62
     0
100
AcDbLine
 10
36.10899118508382
 20
28.82037144204969
 30
0.0
 11
35.57177634431094
 21
29.35758628282264
 31
0.0
  0
LINE
  5
28FD
330
28AC
100
AcDbEntity
  8
0
 62
     0
100
AcDbLine
 10
50.2740405603102
 20
14.65532206682337
 30
0.0
 11
47.85047808566088
 21
17.07888454147269
 31
0.0
  0
LINE
  5
28FE
330
28AC
100
AcDbEntity
  8
0
 62
     0
100
AcDbLine
 10
41.20047808566079
 20
22.83085892936577
 30
0.0
 11
38.40047808566078
 21
25.63085892936584
 31
0.0
  0
LINE
  5
28FF
330
28AC
100
AcDbEntity
  8
0
 62
     0
100
AcDbLine
 10
35.91006352083122
 20
28.12127349419535
 30
0.0
 11
34.67375073220399
 21
29.35758628282264
 31
0.0
  0
LINE
  5
2900
330
28AC
100
AcDbEntity
  8
0
 62
     0
100
AcDbLine
 10
49.8910537621349
 20
14.14028325289172
 30
0.0
 11
47.75319290277439
 21
16.27814411225222
 31
0.0
  0
LINE
  5
2901
330
28AC
100
AcDbEntity
  8
0
 62
     0
100
AcDbLine
 10
41.20047808566079
 20
21.93283331725888
 30
0.0
 11
38.40047808566072
 21
24.7328333172589
 31
0.0
  0
LINE
  5
2902
330
28AC
100
AcDbEntity
  8
0
 62
     0
100
AcDbLine
 10
35.69453737392553
 20
27.43877402899409
 30
0.0
 11
33.78532181045495
 21
29.34798959246473
 31
0.0
  0
LINE
  5
2903
330
28AC
100
AcDbEntity
  8
0
 62
     0
100
AcDbLine
 10
49.40473479701927
 20
13.72857660590034
 30
0.0
 11
47.07572512009704
 21
16.05758628282262
 31
0.0
  0
LINE
  5
2904
330
28AC
100
AcDbEntity
  8
0
 62
     0
100
AcDbLine
 10
41.20047808566084
 20
21.03480770515199
 30
0.0
 11
38.40047808566078
 21
23.83480770515206
 31
0.0
  0
LINE
  5
2905
330
28AC
100
AcDbEntity
  8
0
 62
     0
100
AcDbLine
 10
35.47901122702001
 20
26.75627456379283
 30
0.0
 11
33.35101122701997
 21
28.88427456379287
 31
0.0
  0
LINE
  5
2906
330
28AC
100
AcDbEntity
  8
0
 62
     0
100
AcDbLine
 10
48.8086508485589
 20
13.42663494225388
 30
0.0
 11
46.17769950799015
 21
16.05758628282268
 31
0.0
  0
LINE
  5
2907
330
28AC
100
AcDbEntity
  8
0
 62
     0
100
AcDbLine
 10
41.20047808566079
 20
20.1367820930451
 30
0.0
 11
38.40047808566072
 21
22.93678209304511
 31
0.0
  0
LINE
  5
2908
330
28AC
100
AcDbEntity
  8
0
 62
     0
100
AcDbLine
 10
35.26348508011415
 20
26.07377509859174
 30
0.0
 11
33.13548508011417
 21
28.20177509859173
 31
0.0
  0
LINE
  5
2909
330
28AC
100
AcDbEntity
  8
0
 62
     0
100
AcDbLine
 10
48.07097819691143
 20
13.26628198179446
 30
0.0
 11
45.27967389588326
 21
16.05758628282262
 31
0.0
  0
LINE
  5
290A
330
28AC
100
AcDbEntity
  8
0
 62
     0
100
AcDbLine
 10
41.20047808566079
 20
19.23875648093815
 30
0.0
 11
38.40047808566078
 21
22.03875648093811
 31
0.0
  0
LINE
  5
290B
330
28AC
100
AcDbEntity
  8
0
 62
     0
100
AcDbLine
 10
35.04795893320858
 20
25.39127563339036
 30
0.0
 11
32.91995893320848
 21
27.51927563339041
 31
0.0
  0
LINE
  5
290C
330
28AC
100
AcDbEntity
  8
0
 62
     0
100
AcDbLine
 10
47.18164828377638
 20
13.25758628282256
 30
0.0
 11
44.38164828377631
 21
16.05758628282262
 31
0.0
  0
LINE
  5
290D
330
28AC
100
AcDbEntity
  8
0
 62
     0
100
AcDbLine
 10
41.20047808566079
 20
18.34073086883126
 30
0.0
 11
38.40047808566083
 21
21.14073086883127
 31
0.0
  0
LINE
  5
290E
330
28AC
100
AcDbEntity
  8
0
 62
     0
100
AcDbLine
 10
34.83243278630295
 20
24.70877616818916
 30
0.0
 11
32.70443278630285
 21
26.83677616818921
 31
0.0
  0
LINE
  5
290F
330
28AC
100
AcDbEntity
  8
0
 62
     0
100
AcDbLine
 10
46.28362267166949
 20
13.25758628282261
 30
0.0
 11
43.8500109743731
 21
15.691197980119
 31
0.0
  0
LINE
  5
2910
330
28AC
100
AcDbEntity
  8
0
 62
     0
100
AcDbLine
 10
34.61690663939732
 20
24.02627670298779
 30
0.0
 11
32.48890663939722
 21
26.15427670298795
 31
0.0
  0
LINE
  5
2911
330
28AC
100
AcDbEntity
  8
0
 62
     0
100
AcDbLine
 10
41.20047808566079
 20
17.44270525672436
 30
0.0
 11
38.40047808566083
 21
20.24270525672432
 31
0.0
  0
LINE
  5
2912
330
28AC
100
AcDbEntity
  8
0
 62
     0
100
AcDbLine
 10
30.35047808566083
 20
28.29270525672433
 30
0.0
 11
29.28559705956252
 21
29.35758628282258
 31
0.0
  0
LINE
  5
2913
330
28AC
100
AcDbEntity
  8
0
 62
     0
100
AcDbLine
 10
45.38559705956259
 20
13.25758628282256
 30
0.0
 11
43.82547808566084
 21
14.81770525672431
 31
0.0
  0
LINE
  5
2914
330
28AC
100
AcDbEntity
  8
0
 62
     0
100
AcDbLine
 10
34.40138049249152
 20
23.3437772377867
 30
0.0
 11
32.27338049249159
 21
25.47177723778663
 31
0.0
  0
LINE
  5
2915
330
28AC
100
AcDbEntity
  8
0
 62
     0
100
AcDbLine
 10
41.20047808566079
 20
16.54467964461742
 30
0.0
 11
38.40047808566078
 21
19.34467964461743
 31
0.0
  0
LINE
  5
2916
330
28AC
100
AcDbEntity
  8
0
 62
     0
100
AcDbLine
 10
30.35047808566083
 20
27.39467964461738
 30
0.0
 11
28.38757144745563
 21
29.35758628282258
 31
0.0
  0
LINE
  5
2917
330
28AC
100
AcDbEntity
  8
0
 62
     0
100
AcDbLine
 10
44.48757144745559
 20
13.25758628282261
 30
0.0
 11
43.82547808566079
 21
13.91967964461736
 31
0.0
  0
LINE
  5
2918
330
28AC
100
AcDbEntity
  8
0
 62
     0
100
AcDbLine
 10
34.18585434558588
 20
22.66127777258538
 30
0.0
 11
32.05785434558584
 21
24.78927777258542
 31
0.0
  0
LINE
  5
2919
330
28AC
100
AcDbEntity
  8
0
 62
     0
100
AcDbLine
 10
30.35047808566077
 20
26.49665403251044
 30
0.0
 11
27.67503315676317
 21
29.1720989614081
 31
0.0
  0
LINE
  5
291A
330
28AC
100
AcDbEntity
  8
0
 62
     0
100
AcDbLine
 10
41.20047808566073
 20
15.64665403251052
 30
0.0
 11
38.40047808566078
 21
18.44665403251048
 31
0.0
  0
LINE
  5
291B
330
28AC
100
AcDbEntity
  8
0
 62
     0
100
AcDbLine
 10
33.97032819868025
 20
21.97877830738418
 30
0.0
 11
31.84232819868026
 21
24.10677830738416
 31
0.0
  0
LINE
  5
291C
330
28AC
100
AcDbEntity
  8
0
 62
     0
100
AcDbLine
 10
30.35047808566083
 20
25.5986284204036
 30
0.0
 11
27.55047808566076
 21
28.39862842040361
 31
0.0
  0
LINE
  5
291D
330
28AC
100
AcDbEntity
  8
0
 62
     0
100
AcDbLine
 10
41.20047808566079
 20
14.74862842040363
 30
0.0
 11
38.40047808566078
 21
17.54862842040359
 31
0.0
  0
LINE
  5
291E
330
28AC
100
AcDbEntity
  8
0
 62
     0
100
AcDbLine
 10
33.7652396892882
 20
21.28584120466928
 30
0.0
 11
31.62680205177452
 21
23.42427884218296
 31
0.0
  0
LINE
  5
291F
330
28AC
100
AcDbEntity
  8
0
 62
     0
100
AcDbLine
 10
30.35047808566083
 20
24.70060280829665
 30
0.0
 11
27.55047808566076
 21
27.50060280829672
 31
0.0
  0
LINE
  5
2920
330
28AC
100
AcDbEntity
  8
0
 62
     0
100
AcDbLine
 10
41.20047808566073
 20
13.85060280829668
 30
0.0
 11
38.40047808566078
 21
16.65060280829669
 31
0.0
  0
LINE
  5
2921
330
28AC
100
AcDbEntity
  8
0
 62
     0
100
AcDbLine
 10
34.1797130487222
 20
19.97334223312833
 30
0.0
 11
31.3362545560899
 21
22.81680072576063
 31
0.0
  0
LINE
  5
2922
330
28AC
100
AcDbEntity
  8
0
 62
     0
100
AcDbLine
 10
30.35047808566088
 20
23.80257719618965
 30
0.0
 11
27.5504780856607
 21
26.60257719618977
 31
0.0
  0
LINE
  5
2923
330
28AC
100
AcDbEntity
  8
0
 62
     0
100
AcDbLine
 10
40.8614330883284
 20
13.29162219352207
 30
0.0
 11
38.40047808566078
 21
15.75257719618974
 31
0.0
  0
LINE
  5
2924
330
28AC
100
AcDbEntity
  8
0
 62
     0
100
AcDbLine
 10
34.59418640815619
 20
18.6608432615875
 30
0.0
 11
27.55047808566076
 21
25.70455158408293
 31
0.0
  0
LINE
  5
2925
330
28AC
100
AcDbEntity
  8
0
 62
     0
100
AcDbLine
 10
25.10047808566088
 20
28.15455158408281
 30
0.0
 11
23.89744338692111
 21
29.35758628282258
 31
0.0
  0
LINE
  5
2926
330
28AC
100
AcDbEntity
  8
0
 62
     0
100
AcDbLine
 10
39.99744338692114
 20
13.25758628282256
 30
0.0
 11
38.40047808566089
 21
14.8545515840828
 31
0.0
  0
LINE
  5
2927
330
28AC
100
AcDbEntity
  8
0
 62
     0
100
AcDbLine
 10
35.00865976759025
 20
17.34834429004649
 30
0.0
 11
27.55047808566076
 21
24.80652597197599
 31
0.0
  0
LINE
  5
2928
330
28AC
100
AcDbEntity
  8
0
 62
     0
100
AcDbLine
 10
25.10047808566088
 20
27.25652597197586
 30
0.0
 11
22.99941777481411
 21
29.35758628282264
 31
0.0
  0
LINE
  5
2929
330
28AC
100
AcDbEntity
  8
0
 62
     0
100
AcDbLine
 10
39.09941777481419
 20
13.2575862828225
 30
0.0
 11
38.40047808566083
 21
13.95652597197591
 31
0.0
  0
LINE
  5
292A
330
28AC
100
AcDbEntity
  8
0
 62
     0
100
AcDbLine
 10
24.83357139027078
 20
26.62540705525902
 30
0.0
 11
22.13334967205935
 21
29.32562877347038
 31
0.0
  0
LINE
  5
292B
330
28AC
100
AcDbEntity
  8
0
 62
     0
100
AcDbLine
 10
35.42313312702419
 20
16.03584531850561
 30
0.0
 11
27.55047808566081
 21
23.90850035986898
 31
0.0
  0
LINE
  5
292C
330
28AC
100
AcDbEntity
  8
0
 62
     0
100
AcDbLine
 10
30.68798700800244
 20
19.87296582542046
 30
0.0
 11
27.55047808566081
 21
23.01047474776209
 31
0.0
  0
LINE
  5
292D
330
28AC
100
AcDbEntity
  8
0
 62
     0
100
AcDbLine
 10
24.00336655060034
 20
26.55758628282252
 30
0.0
 11
21.39530660247209
 21
29.16564623095081
 31
0.0
  0
LINE
  5
292E
330
28AC
100
AcDbEntity
  8
0
 62
     0
100
AcDbLine
 10
35.83760648645824
 20
14.72334634696466
 30
0.0
 11
31.74529879415013
 21
18.81565403927277
 31
0.0
  0
LINE
  5
292F
330
28AC
100
AcDbEntity
  8
0
 62
     0
100
AcDbLine
 10
30.35047808566088
 20
19.31244913565513
 30
0.0
 11
27.55047808566081
 21
22.1124491356552
 31
0.0
  0
LINE
  5
2930
330
28AC
100
AcDbEntity
  8
0
 62
     0
100
AcDbLine
 10
23.10534093849333
 20
26.55758628282263
 30
0.0
 11
20.75658518664136
 21
28.9063420346746
 31
0.0
  0
LINE
  5
2931
330
28AC
100
AcDbEntity
  8
0
 62
     0
100
AcDbLine
 10
36.07264534416885
 20
13.59028187714711
 30
0.0
 11
32.15977215358407
 21
17.50315506773194
 31
0.0
  0
LINE
  5
2932
330
28AC
100
AcDbEntity
  8
0
 62
     0
100
AcDbLine
 10
30.35047808566083
 20
18.41442352354824
 30
0.0
 11
27.55047808566076
 21
21.21442352354825
 31
0.0
  0
LINE
  5
2933
330
28AC
100
AcDbEntity
  8
0
 62
     0
100
AcDbLine
 10
22.2622274359498
 20
26.50267417325927
 30
0.0
 11
20.19783621130682
 21
28.56706539790224
 31
0.0
  0
LINE
  5
2934
330
28AC
100
AcDbEntity
  8
0
 62
     0
100
AcDbLine
 10
35.5073153263865
 20
13.25758628282256
 30
0.0
 11
32.57424551301813
 21
16.19065609619088
 31
0.0
  0
LINE
  5
2935
330
28AC
100
AcDbEntity
  8
0
 62
     0
100
AcDbLine
 10
30.35047808566083
 20
17.51639791144128
 30
0.0
 11
27.55047808566076
 21
20.31639791144136
 31
0.0
  0
LINE
  5
2936
330
28AC
100
AcDbEntity
  8
0
 62
     0
100
AcDbLine
 10
21.6903712431108
 20
26.17650475399131
 30
0.0
 11
19.71018100269503
 21
28.15669499440708
 31
0.0
  0
LINE
  5
2937
330
28AC
100
AcDbEntity
  8
0
 62
     0
100
AcDbLine
 10
34.60928971427956
 20
13.25758628282256
 30
0.0
 11
32.98871887245207
 21
14.87815712465004
 31
0.0
  0
LINE
  5
2938
330
28AC
100
AcDbEntity
  8
0
 62
     0
100
AcDbLine
 10
25.43590721845857
 20
21.53294316653671
 30
0.0
 11
23.92583496937482
 21
23.04301541562046
 31
0.0
  0
LINE
  5
2939
330
28AC
100
AcDbEntity
  8
0
 62
     0
100
AcDbLine
 10
30.35047808566094
 20
16.61837229933434
 30
0.0
 11
27.55047808566081
 21
19.41837229933446
 31
0.0
  0
LINE
  5
293A
330
28AC
100
AcDbEntity
  8
0
 62
     0
100
AcDbLine
 10
21.33424967298186
 20
25.63460071201343
 30
0.0
 11
19.2908149766838
 21
27.67803540831148
 31
0.0
  0
LINE
  5
293B
330
28AC
100
AcDbEntity
  8
0
 62
     0
100
AcDbLine
 10
33.66093109796805
 20
13.30791928702723
 30
0.0
 11
33.41057692637674
 21
13.55827345861854
 31
0.0
  0
LINE
  5
293C
330
28AC
100
AcDbEntity
  8
0
 62
     0
100
AcDbLine
 10
25.34939355831665
 20
20.72143121457168
 30
0.0
 11
23.11432301740979
 21
22.95650175547854
 31
0.0
  0
LINE
  5
293D
330
28AC
100
AcDbEntity
  8
0
 62
     0
100
AcDbLine
 10
21.25047808566092
 20
24.82034668722742
 30
0.0
 11
18.94187595572214
 21
27.12894881716619
 31
0.0
  0
LINE
  5
293E
330
28AC
100
AcDbEntity
  8
0
 62
     0
100
AcDbLine
 10
30.35047808566088
 20
15.72034668722739
 30
0.0
 11
27.55047808566076
 21
18.52034668722757
 31
0.0
  0
LINE
  5
293F
330
28AC
100
AcDbEntity
  8
0
 62
     0
100
AcDbLine
 10
25.0175379990186
 20
20.15526116176272
 30
0.0
 11
22.54815296460083
 21
22.62464619618049
 31
0.0
  0
LINE
  5
2940
330
28AC
100
AcDbEntity
  8
0
 62
     0
100
AcDbLine
 10
21.25047808566092
 20
23.92232107512047
 30
0.0
 11
18.67129624851196
 21
26.50150291226942
 31
0.0
  0
LINE
  5
2941
330
28AC
100
AcDbEntity
  8
0
 62
     0
100
AcDbLine
 10
30.35047808566088
 20
14.8223210751205
 30
0.0
 11
27.55047808566081
 21
17.62232107512057
 31
0.0
  0
LINE
  5
2942
330
28AC
100
AcDbEntity
  8
0
 62
     0
100
AcDbLine
 10
21.25047808566092
 20
23.02429546301357
 30
0.0
 11
18.49658237558611
 21
25.77819117308843
 31
0.0
  0
LINE
  5
2943
330
28AC
100
AcDbEntity
  8
0
 62
     0
100
AcDbLine
 10
24.51570455688216
 20
19.75906899179239
 30
0.0
 11
22.1519607946305
 21
22.12281275404405
 31
0.0
  0
LINE
  5
2944
330
28AC
100
AcDbEntity
  8
0
 62
     0
100
AcDbLine
 10
15.82547808566073
 20
28.44929546301376
 30
0.0
 11
14.91718726585185
 21
29.3575862828227
 31
0.0
  0
LINE
  5
2945
330
28AC
100
AcDbEntity
  8
0
 62
     0
100
AcDbLine
 10
30.35047808566094
 20
13.9242954630136
 30
0.0
 11
27.55047808566087
 21
16.72429546301367
 31
0.0
  0
LINE
  5
2946
330
28AC
100
AcDbEntity
  8
0
 62
     0
100
AcDbLine
 10
21.25047808566092
 20
22.12626985090668
 30
0.0
 11
18.45047808566085
 21
24.92626985090675
 31
0.0
  0
LINE
  5
2947
330
28AC
100
AcDbEntity
  8
0
 62
     0
100
AcDbLine
 10
23.81538511445473
 20
19.56136282211287
 30
0.0
 11
21.95425462495098
 21
21.42249331161662
 31
0.0
  0
LINE
  5
2948
330
28AC
100
AcDbEntity
  8
0
 62
     0
100
AcDbLine
 10
15.82547808566073
 20
27.55126985090686
 30
0.0
 11
14.0191616537449
 21
29.35758628282264
 31
0.0
  0
LINE
  5
2949
330
28AC
100
AcDbEntity
  8
0
 62
     0
100
AcDbLine
 10
30.06257428439023
 20
13.31417365217737
 30
0.0
 11
27.55047808566081
 21
15.82626985090672
 31
0.0
  0
LINE
  5
294A
330
28AC
100
AcDbEntity
  8
0
 62
     0
100
AcDbLine
 10
21.25047808566092
 20
21.22824423879973
 30
0.0
 11
18.45047808566085
 21
24.0282442387998
 31
0.0
  0
LINE
  5
294B
330
28AC
100
AcDbEntity
  8
0
 62
     0
100
AcDbLine
 10
15.71644411539046
 20
26.76227820907019
 30
0.0
 11
13.12113604163789
 21
29.3575862828227
 31
0.0
  0
LINE
  5
294C
330
28AC
100
AcDbEntity
  8
0
 62
     0
100
AcDbLine
 10
29.22113604163809
 20
13.2575862828225
 30
0.0
 11
27.55047808566081
 21
14.92824423879983
 31
0.0
  0
LINE
  5
294D
330
28AC
100
AcDbEntity
  8
0
 62
     0
100
AcDbLine
 10
21.25047808566086
 20
20.33021862669284
 30
0.0
 11
18.45047808566079
 21
23.13021862669285
 31
0.0
  0
LINE
  5
294E
330
28AC
100
AcDbEntity
  8
0
 62
     0
100
AcDbLine
 10
15.02311042953113
 20
26.55758628282257
 30
0.0
 11
12.223110429531
 21
29.3575862828227
 31
0.0
  0
LINE
  5
294F
330
28AC
100
AcDbEntity
  8
0
 62
     0
100
AcDbLine
 10
28.32311042953108
 20
13.25758628282256
 30
0.0
 11
27.55047808566081
 21
14.03021862669288
 31
0.0
  0
LINE
  5
2950
330
28AC
100
AcDbEntity
  8
0
 62
     0
100
AcDbLine
 10
21.25047808566092
 20
19.43219301458595
 30
0.0
 11
18.45047808566085
 21
22.23219301458602
 31
0.0
  0
LINE
  5
2951
330
28AC
100
AcDbEntity
  8
0
 62
     0
100
AcDbLine
 10
14.12508481742424
 20
26.55758628282257
 30
0.0
 11
11.35995554531934
 21
29.32271555492753
 31
0.0
  0
LINE
  5
2952
330
28AC
100
AcDbEntity
  8
0
 62
     0
100
AcDbLine
 10
25.09787563682392
 20
15.58479546342289
 30
0.0
 11
24.62768726626121
 21
16.05498383398566
 31
0.0
  0
LINE
  5
2953
330
28AC
100
AcDbEntity
  8
0
 62
     0
100
AcDbLine
 10
21.25047808566086
 20
18.534167402479
 30
0.0
 11
18.45047808566085
 21
21.33416740247907
 31
0.0
  0
LINE
  5
2954
330
28AC
100
AcDbEntity
  8
0
 62
     0
100
AcDbLine
 10
13.22705920531734
 20
26.55758628282257
 30
0.0
 11
10.66682073684086
 21
29.11782475129906
 31
0.0
  0
LINE
  5
2955
330
28AC
100
AcDbEntity
  8
0
 62
     0
100
AcDbLine
 10
25.10047808566083
 20
14.68416740247903
 30
0.0
 11
23.72705920531729
 21
16.05758628282262
 31
0.0
  0
LINE
  5
2956
330
28AC
100
AcDbEntity
  8
0
 62
     0
100
AcDbLine
 10
21.25047808566086
 20
17.63614179037211
 30
0.0
 11
18.4504780856609
 21
20.43614179037206
 31
0.0
  0
LINE
  5
2957
330
28AC
100
AcDbEntity
  8
0
 62
     0
100
AcDbLine
 10
12.3290335932104
 20
26.55758628282252
 30
0.0
 11
10.10257407699362
 21
28.78404579903929
 31
0.0
  0
LINE
  5
2958
330
28AC
100
AcDbEntity
  8
0
 62
     0
100
AcDbLine
 10
25.10047808566083
 20
13.78614179037214
 30
0.0
 11
22.8290335932104
 21
16.05758628282251
 31
0.0
  0
LINE
  5
2959
330
28AC
100
AcDbEntity
  8
0
 62
     0
100
AcDbLine
 10
11.8187407655958
 20
26.16985349833033
 30
0.0
 11
9.644481264752869
 21
28.34411299917326
 31
0.0
  0
LINE
  5
295A
330
28AC
100
AcDbEntity
  8
0
 62
     0
100
AcDbLine
 10
24.71274530116853
 20
13.27584896275761
 30
0.0
 11
18.4504780856609
 21
19.53811617826523
 31
0.0
  0
LINE
  5
295B
330
28AC
100
AcDbEntity
  8
0
 62
     0
100
AcDbLine
 10
11.80047808566087
 20
25.29009056615831
 30
0.0
 11
9.291000062283785
 21
27.7995685895354
 31
0.0
  0
LINE
  5
295C
330
28AC
100
AcDbEntity
  8
0
 62
     0
100
AcDbLine
 10
23.83298236899662
 20
13.25758628282256
 30
0.0
 11
18.4504780856609
 21
18.64009056615828
 31
0.0
  0
LINE
  5
295D
330
28AC
100
AcDbEntity
  8
0
 62
     0
100
AcDbLine
 10
11.8626137937963
 20
24.32992924591588
 30
0.0
 11
9.060119959990061
 21
27.13242307972218
 31
0.0
  0
LINE
  5
295E
330
28AC
100
AcDbEntity
  8
0
 62
     0
100
AcDbLine
 10
22.93495675688962
 20
13.25758628282261
 30
0.0
 11
18.45047808566085
 21
17.74206495405133
 31
0.0
  0
LINE
  5
295F
330
28AC
100
AcDbEntity
  8
0
 62
     0
100
AcDbLine
 10
16.15485417688353
 20
19.13966325072181
 30
0.0
 11
9.000478085660915
 21
26.29403934194443
 31
0.0
  0
LINE
  5
2960
330
28AC
100
AcDbEntity
  8
0
 62
     0
100
AcDbLine
 10
21.98365905772607
 20
13.31085836987927
 30
0.0
 11
18.5037501727175
 21
16.79076725488784
 31
0.0
  0
LINE
  5
2961
330
28AC
100
AcDbEntity
  8
0
 62
     0
100
AcDbLine
 10
16.34674869096875
 20
18.04974312452969
 30
0.0
 11
9.000478085660802
 21
25.39601372983765
 31
0.0
  0
LINE
  5
2962
330
28AC
100
AcDbEntity
  8
0
 62
     0
100
AcDbLine
 10
20.60985114512448
 20
13.78664067037391
 30
0.0
 11
18.97953247321209
 21
15.41695934228636
 31
0.0
  0
LINE
  5
2963
330
28AC
100
AcDbEntity
  8
0
 62
     0
100
AcDbLine
 10
16.35047808566088
 20
17.14798811773062
 30
0.0
 11
9.008042533083198
 21
24.49042367030825
 31
0.0
  0
LINE
  5
2964
330
28AC
100
AcDbEntity
  8
0
 62
     0
100
AcDbLine
 10
16.35047808566082
 20
16.24996250562373
 30
0.0
 11
9.231333291407054
 21
23.36910729987744
 31
0.0
  0
LINE
  5
2965
330
28AC
100
AcDbEntity
  8
0
 62
     0
100
AcDbLine
 10
16.27795808952891
 20
15.42445688964881
 30
0.0
 11
13.51456644590985
 21
18.18784853326787
 31
0.0
  0
LINE
  5
2966
330
28AC
100
AcDbEntity
  8
0
 62
     0
100
AcDbLine
 10
16.03602015050006
 20
14.7683692165707
 30
0.0
 11
13.55047808566081
 21
17.25391128140995
 31
0.0
  0
LINE
  5
2967
330
28AC
100
AcDbEntity
  8
0
 62
     0
100
AcDbLine
 10
15.67390090311829
 20
14.23246285184552
 30
0.0
 11
13.51457905336014
 21
16.39178470160368
 31
0.0
  0
LINE
  5
2968
330
28AC
100
AcDbEntity
  8
0
 62
     0
100
AcDbLine
 10
15.20767453085142
 20
13.80066361200551
 30
0.0
 11
12.9507518600343
 21
16.05758628282268
 31
0.0
  0
LINE
  5
2969
330
28AC
100
AcDbEntity
  8
0
 62
     0
100
AcDbLine
 10
14.63441008311861
 20
13.47590244763142
 30
0.0
 11
12.05272624792735
 21
16.05758628282262
 31
0.0
  0
LINE
  5
296A
330
28AC
100
AcDbEntity
  8
0
 62
     0
100
AcDbLine
 10
13.92899749403267
 20
13.28328942461041
 30
0.0
 11
11.15470063582046
 21
16.05758628282262
 31
0.0
  0
LINE
  5
296B
330
28AC
100
AcDbEntity
  8
0
 62
     0
100
AcDbLine
 10
13.05667502371363
 20
13.25758628282244
 30
0.0
 11
10.25667502371351
 21
16.05758628282262
 31
0.0
  0
LINE
  5
296C
330
28AC
100
AcDbEntity
  8
0
 62
     0
100
AcDbLine
 10
12.15864941160669
 20
13.25758628282256
 30
0.0
 11
9.605325516788809
 21
15.81091017764049
 31
0.0
  0
LINE
  5
296D
330
28AC
100
AcDbEntity
  8
0
 62
     0
100
AcDbLine
 10
11.2606237994998
 20
13.25758628282256
 30
0.0
 11
9.525478085660836
 21
14.99273199666152
 31
0.0
  0
LINE
  5
296E
330
28AC
100
AcDbEntity
  8
0
 62
     0
100
AcDbLine
 10
10.36259818739285
 20
13.25758628282256
 30
0.0
 11
9.525478085660836
 21
14.09470638455457
 31
0.0
  0
LINE
  5
296F
330
28AC
100
AcDbEntity
  8
0
 62
     0
100
AcDbLine
 10
66.34216537032779
 20
13.27071805994012
 30
0.0
 11
66.73734630854358
 21
13.66589899815591
 31
0.0
  0
LINE
  5
2970
330
28AC
100
AcDbEntity
  8
0
 62
     0
100
AcDbLine
 10
65.43100798110334
 20
13.2575862828225
 30
0.0
 11
66.75047808566103
 21
14.57705638738019
 31
0.0
  0
LINE
  5
2971
330
28AC
100
AcDbEntity
  8
0
 62
     0
100
AcDbLine
 10
64.53298236899644
 20
13.2575862828225
 30
0.0
 11
66.75047808566103
 21
15.47508199948708
 31
0.0
  0
LINE
  5
2972
330
28AC
100
AcDbEntity
  8
0
 62
     0
100
AcDbLine
 10
63.9816756489127
 20
13.60430517484571
 30
0.0
 11
66.75047808566097
 21
16.37310761159404
 31
0.0
  0
LINE
  5
2973
330
28AC
100
AcDbEntity
  8
0
 62
     0
100
AcDbLine
 10
63.9504780856609
 20
14.47113322370086
 30
0.0
 11
66.75047808566097
 21
17.27113322370087
 31
0.0
  0
LINE
  5
2974
330
28AC
100
AcDbEntity
  8
0
 62
     0
100
AcDbLine
 10
63.95047808566096
 20
15.36915883580775
 30
0.0
 11
66.75047808566097
 21
18.16915883580782
 31
0.0
  0
LINE
  5
2975
330
28AC
100
AcDbEntity
  8
0
 62
     0
100
AcDbLine
 10
63.9504780856609
 20
16.2671844479147
 30
0.0
 11
66.75047808566097
 21
19.06718444791477
 31
0.0
  0
LINE
  5
2976
330
28AC
100
AcDbEntity
  8
0
 62
     0
100
AcDbLine
 10
63.9504780856609
 20
17.16521006002159
 30
0.0
 11
66.75047808566097
 21
19.96521006002166
 31
0.0
  0
LINE
  5
2977
330
28AC
100
AcDbEntity
  8
0
 62
     0
100
AcDbLine
 10
60.37704294772618
 20
13.59177492208687
 30
0.0
 11
61.51628944639674
 21
14.73102142075748
 31
0.0
  0
LINE
  5
2978
330
28AC
100
AcDbEntity
  8
0
 62
     0
100
AcDbLine
 10
63.9504780856609
 20
18.06323567212848
 30
0.0
 11
66.75047808566097
 21
20.86323567212855
 31
0.0
  0
LINE
  5
2979
330
28AC
100
AcDbEntity
  8
0
 62
     0
100
AcDbLine
 10
59.14647478120338
 20
13.25923236767096
 30
0.0
 11
61.8488320008127
 21
15.96158958728023
 31
0.0
  0
LINE
  5
297A
330
28AC
100
AcDbEntity
  8
0
 62
     0
100
AcDbLine
 10
63.9504780856609
 20
18.96126128423543
 30
0.0
 11
66.75047808566097
 21
21.76126128423545
 31
0.0
  0
LINE
  5
297B
330
28AC
100
AcDbEntity
  8
0
 62
     0
100
AcDbLine
 10
58.24680308424797
 20
13.2575862828225
 30
0.0
 11
61.850478085661
 21
16.86126128423547
 31
0.0
  0
LINE
  5
297C
330
28AC
100
AcDbEntity
  8
0
 62
     0
100
AcDbLine
 10
63.9504780856609
 20
19.85928689634232
 30
0.0
 11
66.75047808566091
 21
22.6592868963424
 31
0.0
  0
LINE
  5
297D
330
28AC
100
AcDbEntity
  8
0
 62
     0
100
AcDbLine
 10
57.34877747214108
 20
13.2575862828225
 30
0.0
 11
61.85047808566094
 21
17.75928689634241
 31
0.0
  0
LINE
  5
297E
330
28AC
100
AcDbEntity
  8
0
 62
     0
100
AcDbLine
 10
63.9504780856609
 20
20.75731250844922
 30
0.0
 11
66.75047808566097
 21
23.55731250844929
 31
0.0
  0
LINE
  5
297F
330
28AC
100
AcDbEntity
  8
0
 62
     0
100
AcDbLine
 10
56.45075186003424
 20
13.25758628282256
 30
0.0
 11
61.850478085661
 21
18.65731250844931
 31
0.0
  0
LINE
  5
2980
330
28AC
100
AcDbEntity
  8
0
 62
     0
100
AcDbLine
 10
58.94588688357988
 20
16.65074691847513
 30
0.0
 11
61.850478085661
 21
19.5553381205562
 31
0.0
  0
LINE
  5
2981
330
28AC
100
AcDbEntity
  8
0
 62
     0
100
AcDbLine
 10
63.9504780856609
 20
21.65533812055611
 30
0.0
 11
66.75047808566097
 21
24.45533812055618
 31
0.0
  0
LINE
  5
2982
330
28AC
100
AcDbEntity
  8
0
 62
     0
100
AcDbLine
 10
55.55272624792724
 20
13.2575862828225
 30
0.0
 11
58.45731745000836
 21
16.16217748490356
 31
0.0
  0
LINE
  5
2983
330
28AC
100
AcDbEntity
  8
0
 62
     0
100
AcDbLine
 10
59.05047808566087
 20
17.65336373266308
 30
0.0
 11
61.85047808566094
 21
20.45336373266315
 31
0.0
  0
LINE
  5
2984
330
28AC
100
AcDbEntity
  8
0
 62
     0
100
AcDbLine
 10
63.95047808566085
 20
22.55336373266306
 30
0.0
 11
66.75047808566091
 21
25.35336373266313
 31
0.0
  0
LINE
  5
2985
330
28AC
100
AcDbEntity
  8
0
 62
     0
100
AcDbLine
 10
54.76665038719755
 20
13.36953603419971
 30
0.0
 11
57.45470063582041
 21
16.05758628282257
 31
0.0
  0
LINE
  5
2986
330
28AC
100
AcDbEntity
  8
0
 62
     0
100
AcDbLine
 10
59.05047808566092
 20
18.55138934477009
 30
0.0
 11
61.85047808566094
 21
21.35138934477004
 31
0.0
  0
LINE
  5
2987
330
28AC
100
AcDbEntity
  8
0
 62
     0
100
AcDbLine
 10
63.95047808566085
 20
23.45138934477001
 30
0.0
 11
66.75047808566091
 21
26.25138934477002
 31
0.0
  0
LINE
  5
2988
330
28AC
100
AcDbEntity
  8
0
 62
     0
100
AcDbLine
 10
54.1386635199874
 20
13.63957477909656
 30
0.0
 11
56.55755280935784
 21
16.058464068467
 31
0.0
  0
LINE
  5
2989
330
28AC
100
AcDbEntity
  8
0
 62
     0
100
AcDbLine
 10
59.05047808566099
 20
19.44941495687698
 30
0.0
 11
61.85047808566094
 21
22.24941495687693
 31
0.0
  0
LINE
  5
298A
330
28AC
100
AcDbEntity
  8
0
 62
     0
100
AcDbLine
 10
63.9504780856609
 20
24.34941495687684
 30
0.0
 11
66.75047808566091
 21
27.14941495687691
 31
0.0
  0
LINE
  5
298B
330
28AC
100
AcDbEntity
  8
0
 62
     0
100
AcDbLine
 10
53.62540363862234
 20
14.02434050983828
 30
0.0
 11
55.91407422064515
 21
16.31301109186114
 31
0.0
  0
LINE
  5
298C
330
28AC
100
AcDbEntity
  8
0
 62
     0
100
AcDbLine
 10
59.05047808566099
 20
20.34744056898387
 30
0.0
 11
61.85047808566094
 21
23.14744056898388
 31
0.0
  0
LINE
  5
298D
330
28AC
100
AcDbEntity
  8
0
 62
     0
100
AcDbLine
 10
63.95047808566085
 20
25.24744056898379
 30
0.0
 11
66.75047808566091
 21
28.04744056898386
 31
0.0
  0
LINE
  5
298E
330
28AC
100
AcDbEntity
  8
0
 62
     0
100
AcDbLine
 10
53.21543946339722
 20
14.5124019467201
 30
0.0
 11
55.57683594223573
 21
16.87379842555867
 31
0.0
  0
LINE
  5
298F
330
28AC
100
AcDbEntity
  8
0
 62
     0
100
AcDbLine
 10
59.05047808566092
 20
21.24546618109082
 30
0.0
 11
61.850478085661
 21
24.04546618109089
 31
0.0
  0
LINE
  5
2990
330
28AC
100
AcDbEntity
  8
0
 62
     0
100
AcDbLine
 10
63.95047808566085
 20
26.14546618109069
 30
0.0
 11
66.74032893211045
 21
28.93531702754035
 31
0.0
  0
LINE
  5
2991
330
28AC
100
AcDbEntity
  8
0
 62
     0
100
AcDbLine
 10
52.91551458496321
 20
15.1105026803931
 30
0.0
 11
55.55047808566093
 21
17.74546618109076
 31
0.0
  0
LINE
  5
2992
330
28AC
100
AcDbEntity
  8
0
 62
     0
100
AcDbLine
 10
59.05047808566099
 20
22.14349179319766
 30
0.0
 11
61.85047808566105
 21
24.94349179319772
 31
0.0
  0
LINE
  5
2993
330
28AC
100
AcDbEntity
  8
0
 62
     0
100
AcDbLine
 10
63.95047808566085
 20
27.04349179319758
 30
0.0
 11
66.26321458703097
 21
29.3562282945677
 31
0.0
  0
LINE
  5
2994
330
28AC
100
AcDbEntity
  8
0
 62
     0
100
AcDbLine
 10
52.75810105000676
 20
15.85111475754348
 30
0.0
 11
55.55047808566093
 21
18.64349179319765
 31
0.0
  0
LINE
  5
2995
330
28AC
100
AcDbEntity
  8
0
 62
     0
100
AcDbLine
 10
59.05047808566092
 20
23.04151740530461
 30
0.0
 11
61.850478085661
 21
25.84151740530467
 31
0.0
  0
LINE
  5
2996
330
28AC
100
AcDbEntity
  8
0
 62
     0
100
AcDbLine
 10
63.9504780856609
 20
27.94151740530458
 30
0.0
 11
65.3665469631789
 21
29.35758628282258
 31
0.0
  0
LINE
  5
2997
330
28AC
100
AcDbEntity
  8
0
 62
     0
100
AcDbLine
 10
52.75047808566097
 20
16.74151740530459
 30
0.0
 11
55.55047808566098
 21
19.54151740530466
 31
0.0
  0
LINE
  5
2998
330
28AC
100
AcDbEntity
  8
0
 62
     0
100
AcDbLine
 10
59.05047808566092
 20
23.93954301741155
 30
0.0
 11
61.850478085661
 21
26.73954301741157
 31
0.0
  0
LINE
  5
2999
330
28AC
100
AcDbEntity
  8
0
 62
     0
100
AcDbLine
 10
52.75047808566092
 20
17.63954301741154
 30
0.0
 11
55.55047808566098
 21
20.43954301741161
 31
0.0
  0
LINE
  5
299A
330
28AC
100
AcDbEntity
  8
0
 62
     0
100
AcDbLine
 10
63.95052480040835
 20
28.83958973215897
 30
0.0
 11
64.46847463632463
 21
29.3575395680752
 31
0.0
  0
LINE
  5
299B
330
28AC
100
AcDbEntity
  8
0
 62
     0
100
AcDbLine
 10
48.42892245494891
 20
13.31798738669948
 30
0.0
 11
50.59007698178408
 21
15.4791419135347
 31
0.0
  0
LINE
  5
299C
330
28AC
100
AcDbEntity
  8
0
 62
     0
100
AcDbLine
 10
52.75047808566092
 20
18.53756862951843
 30
0.0
 11
55.55047808566098
 21
21.3375686295185
 31
0.0
  0
LINE
  5
299D
330
28AC
100
AcDbEntity
  8
0
 62
     0
100
AcDbLine
 10
59.05047808566092
 20
24.83756862951845
 30
0.0
 11
61.85047808566094
 21
27.63756862951851
 31
0.0
  0
LINE
  5
299E
330
28AC
100
AcDbEntity
  8
0
 62
     0
100
AcDbLine
 10
47.47049573896504
 20
13.25758628282261
 30
0.0
 11
50.65047808566089
 21
16.43756862951846
 31
0.0
  0
LINE
  5
299F
330
28AC
100
AcDbEntity
  8
0
 62
     0
100
AcDbLine
 10
52.75047808566092
 20
19.43559424162532
 30
0.0
 11
55.55047808566098
 21
22.23559424162539
 31
0.0
  0
LINE
  5
29A0
330
28AC
100
AcDbEntity
  8
0
 62
     0
100
AcDbLine
 10
59.05047808566092
 20
25.73559424162534
 30
0.0
 11
61.850478085661
 21
28.5355942416254
 31
0.0
  0
LINE
  5
29A1
330
28AC
100
AcDbEntity
  8
0
 62
     0
100
AcDbLine
 10
46.57247012685814
 20
13.25758628282256
 30
0.0
 11
50.65047808566095
 21
17.3355942416253
 31
0.0
  0
LINE
  5
29A2
330
28AC
100
AcDbEntity
  8
0
 62
     0
100
AcDbLine
 10
52.75047808566092
 20
20.33361985373227
 30
0.0
 11
55.55047808566098
 21
23.13361985373228
 31
0.0
  0
LINE
  5
29A3
330
28AC
100
AcDbEntity
  8
0
 62
     0
100
AcDbLine
 10
59.05047808566092
 20
26.63361985373223
 30
0.0
 11
61.65674063082684
 21
29.23988239889821
 31
0.0
  0
LINE
  5
29A4
330
28AC
100
AcDbEntity
  8
0
 62
     0
100
AcDbLine
 10
45.67444451475125
 20
13.25758628282261
 30
0.0
 11
50.63615948524807
 21
18.21930125331937
 31
0.0
  0
LINE
  5
29A5
330
28AC
100
AcDbEntity
  8
0
 62
     0
100
AcDbLine
 10
52.75047808566092
 20
21.23164546583916
 30
0.0
 11
55.55047808566093
 21
24.03164546583923
 31
0.0
  0
LINE
  5
29A6
330
28AC
100
AcDbEntity
  8
0
 62
     0
100
AcDbLine
 10
59.05047808566087
 20
27.53164546583918
 30
0.0
 11
60.87641890264433
 21
29.35758628282264
 31
0.0
  0
LINE
  5
29A7
330
28AC
100
AcDbEntity
  8
0
 62
     0
100
AcDbLine
 10
44.77641890264431
 20
13.25758628282261
 30
0.0
 11
50.50124711461927
 21
18.98241449479758
 31
0.0
  0
LINE
  5
29A8
330
28AC
100
AcDbEntity
  8
0
 62
     0
100
AcDbLine
 10
52.75047808566092
 20
22.12967107794606
 30
0.0
 11
55.55047808566098
 21
24.92967107794612
 31
0.0
  0
LINE
  5
29A9
330
28AC
100
AcDbEntity
  8
0
 62
     0
100
AcDbLine
 10
47.85047808566105
 20
17.22967107794613
 30
0.0
 11
50.26065965770072
 21
19.63985264998587
 31
0.0
  0
LINE
  5
29AA
330
28AC
100
AcDbEntity
  8
0
 62
     0
100
AcDbLine
 10
59.05047808566092
 20
28.42967107794607
 30
0.0
 11
59.9783932905375
 21
29.35758628282264
 31
0.0
  0
LINE
  5
29AB
330
28AC
100
AcDbEntity
  8
0
 62
     0
100
AcDbLine
 10
44.00664864366854
 20
13.38584163595368
 30
0.0
 11
46.67839329053743
 21
16.05758628282257
 31
0.0
  0
LINE
  5
29AC
330
28AC
100
AcDbEntity
  8
0
 62
     0
100
AcDbLine
 10
47.83060751053364
 20
18.10782611492567
 30
0.0
 11
49.93716035284013
 21
20.21437895723216
 31
0.0
  0
LINE
  5
29AD
330
28AC
100
AcDbEntity
  8
0
 62
     0
100
AcDbLine
 10
52.75047808566092
 20
23.02769669005295
 30
0.0
 11
55.55047808566093
 21
25.82769669005302
 31
0.0
  0
LINE
  5
29AE
330
28AC
100
AcDbEntity
  8
0
 62
     0
100
AcDbLine
 10
43.82547808566096
 20
14.10269669005299
 30
0.0
 11
45.78036767843047
 21
16.05758628282257
 31
0.0
  0
LINE
  5
29AF
330
28AC
100
AcDbEntity
  8
0
 62
     0
100
AcDbLine
 10
47.55622267339475
 20
18.73146688989379
 30
0.0
 11
49.54128923491231
 21
20.71653345141135
 31
0.0
  0
LINE
  5
29B0
330
28AC
100
AcDbEntity
  8
0
 62
     0
100
AcDbLine
 10
52.75047808566085
 20
23.9257223021599
 30
0.0
 11
55.55047808566093
 21
26.72572230215997
 31
0.0
  0
LINE
  5
29B1
330
28AC
100
AcDbEntity
  8
0
 62
     0
100
AcDbLine
 10
43.8254780856609
 20
15.00072230215994
 30
0.0
 11
44.88234206632358
 21
16.05758628282262
 31
0.0
  0
LINE
  5
29B2
330
28AC
100
AcDbEntity
  8
0
 62
     0
100
AcDbLine
 10
52.75047808566092
 20
24.82374791426679
 30
0.0
 11
55.55047808566098
 21
27.6237479142668
 31
0.0
  0
LINE
  5
29B3
330
28AC
100
AcDbEntity
  8
0
 62
     0
100
AcDbLine
 10
47.11494777627769
 20
19.1882176048835
 30
0.0
 11
49.09484676360006
 21
21.16811659220593
 31
0.0
  0
LINE
  5
29B4
330
28AC
100
AcDbEntity
  8
0
 62
     0
100
AcDbLine
 10
46.66593497022421
 20
19.63723041093698
 30
0.0
 11
48.64583395754658
 21
21.61712939825941
 31
0.0
  0
LINE
  5
29B5
330
28AC
100
AcDbEntity
  8
0
 62
     0
100
AcDbLine
 10
52.75047808566085
 20
25.72177352637368
 30
0.0
 11
55.55047808566093
 21
28.52177352637375
 31
0.0
  0
LINE
  5
29B6
330
28AC
100
AcDbEntity
  8
0
 62
     0
100
AcDbLine
 10
40.28629084210973
 20
13.25758628282256
 30
0.0
 11
41.2004780856609
 21
14.17177352637367
 31
0.0
  0
LINE
  5
29B7
330
28AC
100
AcDbEntity
  8
0
 62
     0
100
AcDbLine
 10
46.21692216417073
 20
20.08624321699045
 30
0.0
 11
48.19682115149311
 21
22.06614220431288
 31
0.0
  0
LINE
  5
29B8
330
28AC
100
AcDbEntity
  8
0
 62
     0
100
AcDbLine
 10
52.75047808566085
 20
26.61979913848063
 30
0.0
 11
55.36429717756226
 21
29.23361823038198
 31
0.0
  0
LINE
  5
29B9
330
28AC
100
AcDbEntity
  8
0
 62
     0
100
AcDbLine
 10
39.38826523000279
 20
13.25758628282256
 30
0.0
 11
41.20047808566096
 21
15.06979913848067
 31
0.0
  0
LINE
  5
29BA
330
28AC
100
AcDbEntity
  8
0
 62
     0
100
AcDbLine
 10
45.76790935811726
 20
20.53525602304393
 30
0.0
 11
47.74780834543963
 21
22.51515501036636
 31
0.0
  0
LINE
  5
29BB
330
28AC
100
AcDbEntity
  8
0
 62
     0
100
AcDbLine
 10
52.75047808566085
 20
27.51782475058752
 30
0.0
 11
54.59023961789597
 21
29.3575862828227
 31
0.0
  0
LINE
  5
29BC
330
28AC
100
AcDbEntity
  8
0
 62
     0
100
AcDbLine
 10
38.60185075575788
 20
13.36919742068454
 30
0.0
 11
41.2004780856609
 21
15.96782475058762
 31
0.0
  0
LINE
  5
29BD
330
28AC
100
AcDbEntity
  8
0
 62
     0
100
AcDbLine
 10
45.31889655206384
 20
20.98426882909735
 30
0.0
 11
47.29879553938622
 21
22.96416781641978
 31
0.0
  0
LINE
  5
29BE
330
28AC
100
AcDbEntity
  8
0
 62
     0
100
AcDbLine
 10
52.75047808566085
 20
28.41585036269441
 30
0.0
 11
53.69221400578914
 21
29.35758628282264
 31
0.0
  0
LINE
  5
29BF
330
28AC
100
AcDbEntity
  8
0
 62
     0
100
AcDbLine
 10
38.40047808566095
 20
14.0658503626945
 30
0.0
 11
41.20047808566096
 21
16.86585036269446
 31
0.0
  0
LINE
  5
29C0
330
28AC
100
AcDbEntity
  8
0
 62
     0
100
AcDbLine
 10
44.86988374601037
 20
21.43328163515082
 30
0.0
 11
46.84978273333274
 21
23.41318062247325
 31
0.0
  0
LINE
  5
29C1
330
28AC
100
AcDbEntity
  8
0
 62
     0
100
AcDbLine
 10
38.40047808566095
 20
14.96387597480145
 30
0.0
 11
41.2004780856609
 21
17.76387597480141
 31
0.0
  0
LINE
  5
29C2
330
28AC
100
AcDbEntity
  8
0
 62
     0
100
AcDbLine
 10
44.42289984496904
 20
21.88432334621649
 30
0.0
 11
46.40687337835106
 21
23.86829687959846
 31
0.0
  0
LINE
  5
29C3
330
28AC
100
AcDbEntity
  8
0
 62
     0
100
AcDbLine
 10
38.40047808566095
 20
15.86190158690834
 30
0.0
 11
41.2004780856609
 21
18.66190158690836
 31
0.0
  0
LINE
  5
29C4
330
28AC
100
AcDbEntity
  8
0
 62
     0
100
AcDbLine
 10
49.09616278157511
 20
26.55758628282257
 30
0.0
 11
50.12547808566097
 21
27.58690158690837
 31
0.0
  0
LINE
  5
29C5
330
28AC
100
AcDbEntity
  8
0
 62
     0
100
AcDbLine
 10
35.90782186095072
 20
13.36924536219811
 30
0.0
 11
35.99747422240574
 21
13.45889772365319
 31
0.0
  0
LINE
  5
29C6
330
28AC
100
AcDbEntity
  8
0
 62
     0
100
AcDbLine
 10
44.02489766614706
 20
22.38434677950136
 30
0.0
 11
46.12453194356567
 21
24.48398105691996
 31
0.0
  0
LINE
  5
29C7
330
28AC
100
AcDbEntity
  8
0
 62
     0
100
AcDbLine
 10
38.40047808566095
 20
16.75992719901524
 30
0.0
 11
41.20047808566096
 21
19.55992719901519
 31
0.0
  0
LINE
  5
29C8
330
28AC
100
AcDbEntity
  8
0
 62
     0
100
AcDbLine
 10
48.19813716946834
 20
26.55758628282263
 30
0.0
 11
50.12547808566097
 21
28.48492719901526
 31
0.0
  0
LINE
  5
29C9
330
28AC
100
AcDbEntity
  8
0
 62
     0
100
AcDbLine
 10
34.89813716946827
 20
13.25758628282256
 30
0.0
 11
35.9639162657748
 21
14.32336537912908
 31
0.0
  0
LINE
  5
29CA
330
28AC
100
AcDbEntity
  8
0
 62
     0
100
AcDbLine
 10
43.69906340175037
 20
22.95653812721162
 30
0.0
 11
46.10047808566105
 21
25.35795281112229
 31
0.0
  0
LINE
  5
29CB
330
28AC
100
AcDbEntity
  8
0
 62
     0
100
AcDbLine
 10
38.40047808566095
 20
17.65795281112213
 30
0.0
 11
41.2004780856609
 21
20.45795281112214
 31
0.0
  0
LINE
  5
29CC
330
28AC
100
AcDbEntity
  8
0
 62
     0
100
AcDbLine
 10
47.30011155736133
 20
26.55758628282257
 30
0.0
 11
49.95880915386305
 21
29.21628387932429
 31
0.0
  0
LINE
  5
29CD
330
28AC
100
AcDbEntity
  8
0
 62
     0
100
AcDbLine
 10
34.00011155736127
 20
13.2575862828225
 30
0.0
 11
35.74839011886911
 21
15.00586484433035
 31
0.0
  0
LINE
  5
29CE
330
28AC
100
AcDbEntity
  8
0
 62
     0
100
AcDbLine
 10
38.40047808566089
 20
18.55597842322907
 30
0.0
 11
41.2004780856609
 21
21.35597842322903
 31
0.0
  0
LINE
  5
29CF
330
28AC
100
AcDbEntity
  8
0
 62
     0
100
AcDbLine
 10
43.45568133908028
 20
23.61118167664847
 30
0.0
 11
49.20208594525445
 21
29.35758628282264
 31
0.0
  0
LINE
  5
29D0
330
28AC
100
AcDbEntity
  8
0
 62
     0
100
AcDbLine
 10
33.40809724670629
 20
13.56359758427447
 30
0.0
 11
35.53286397196342
 21
15.68836430953161
 31
0.0
  0
LINE
  5
29D1
330
28AC
100
AcDbEntity
  8
0
 62
     0
100
AcDbLine
 10
38.40047808566089
 20
19.45400403533603
 30
0.0
 11
41.20047808566084
 21
22.25400403533598
 31
0.0
  0
LINE
  5
29D2
330
28AC
100
AcDbEntity
  8
0
 62
     0
100
AcDbLine
 10
43.31697447999459
 20
24.37050042966973
 30
0.0
 11
48.30406033314756
 21
29.35758628282264
 31
0.0
  0
LINE
  5
29D3
330
28AC
100
AcDbEntity
  8
0
 62
     0
100
AcDbLine
 10
33.18933782505769
 20
14.24286377473282
 30
0.0
 11
35.31733782505773
 21
16.37086377473287
 31
0.0
  0
LINE
  5
29D4
330
28AC
100
AcDbEntity
  8
0
 62
     0
100
AcDbLine
 10
38.40047808566095
 20
20.35202964744286
 30
0.0
 11
41.2004780856609
 21
23.15202964744287
 31
0.0
  0
LINE
  5
29D5
330
28AC
100
AcDbEntity
  8
0
 62
     0
100
AcDbLine
 10
43.30047808566092
 20
25.25202964744284
 30
0.0
 11
47.40603472104067
 21
29.35758628282264
 31
0.0
  0
LINE
  5
29D6
330
28AC
100
AcDbEntity
  8
0
 62
     0
100
AcDbLine
 10
32.97381167815206
 20
14.92536323993403
 30
0.0
 11
35.10181167815216
 21
17.05336323993407
 31
0.0
  0
LINE
  5
29D7
330
28AC
100
AcDbEntity
  8
0
 62
     0
100
AcDbLine
 10
38.40047808566089
 20
21.25005525954981
 30
0.0
 11
41.2004780856609
 21
24.05005525954976
 31
0.0
  0
LINE
  5
29D8
330
28AC
100
AcDbEntity
  8
0
 62
     0
100
AcDbLine
 10
43.30047808566098
 20
26.15005525954984
 30
0.0
 11
46.50800910893377
 21
29.35758628282264
 31
0.0
  0
LINE
  5
29D9
330
28AC
100
AcDbEntity
  8
0
 62
     0
100
AcDbLine
 10
32.75828553124632
 20
15.60786270513523
 30
0.0
 11
34.88628553124653
 21
17.73586270513544
 31
0.0
  0
LINE
  5
29DA
330
28AC
100
AcDbEntity
  8
0
 62
     0
100
AcDbLine
 10
38.40047808566089
 20
22.1480808716567
 30
0.0
 11
41.20047808566096
 21
24.94808087165677
 31
0.0
  0
LINE
  5
29DB
330
28AC
100
AcDbEntity
  8
0
 62
     0
100
AcDbLine
 10
32.54275938434068
 20
16.29036217033655
 30
0.0
 11
34.67075938434078
 21
18.41836217033659
 31
0.0
  0
LINE
  5
29DC
330
28AC
100
AcDbEntity
  8
0
 62
     0
100
AcDbLine
 10
43.35379475578213
 20
27.101397541778
 30
0.0
 11
45.55666682670545
 21
29.30426961270132
 31
0.0
  0
LINE
  5
29DD
330
28AC
100
AcDbEntity
  8
0
 62
     0
100
AcDbLine
 10
29.50998349682669
 20
13.25758628282256
 30
0.0
 11
30.35047808566088
 21
14.09808087165675
 31
0.0
  0
LINE
  5
29DE
330
28AC
100
AcDbEntity
  8
0
 62
     0
100
AcDbLine
 10
32.32723323743511
 20
16.97286163553775
 30
0.0
 11
34.45523323743515
 21
19.10086163553785
 31
0.0
  0
LINE
  5
29DF
330
28AC
100
AcDbEntity
  8
0
 62
     0
100
AcDbLine
 10
38.40047808566089
 20
23.04610648376359
 30
0.0
 11
41.20047808566096
 21
25.84610648376366
 31
0.0
  0
LINE
  5
29E0
330
28AC
100
AcDbEntity
  8
0
 62
     0
100
AcDbLine
 10
28.61195788471986
 20
13.2575862828225
 30
0.0
 11
30.35047808566094
 21
14.99610648376364
 31
0.0
  0
LINE
  5
29E1
330
28AC
100
AcDbEntity
  8
0
 62
     0
100
AcDbLine
 10
32.11170709052942
 20
17.65536110073901
 30
0.0
 11
34.23970709052947
 21
19.78336110073911
 31
0.0
  0
LINE
  5
29E2
330
28AC
100
AcDbEntity
  8
0
 62
     0
100
AcDbLine
 10
38.40047808566089
 20
23.94413209587054
 30
0.0
 11
41.20047808566096
 21
26.74413209587056
 31
0.0
  0
LINE
  5
29E3
330
28AC
100
AcDbEntity
  8
0
 62
     0
100
AcDbLine
 10
27.7950820202642
 20
13.33873603047385
 30
0.0
 11
30.35047808566094
 21
15.89413209587053
 31
0.0
  0
LINE
  5
29E4
330
28AC
100
AcDbEntity
  8
0
 62
     0
100
AcDbLine
 10
31.89618094362373
 20
18.33786056594027
 30
0.0
 11
34.02418094362378
 21
20.46586056594037
 31
0.0
  0
LINE
  5
29E5
330
28AC
100
AcDbEntity
  8
0
 62
     0
100
AcDbLine
 10
38.40047808566089
 20
24.84215770797744
 30
0.0
 11
41.2004780856609
 21
27.64215770797751
 31
0.0
  0
LINE
  5
29E6
330
28AC
100
AcDbEntity
  8
0
 62
     0
100
AcDbLine
 10
27.55047808566093
 20
13.99215770797747
 30
0.0
 11
30.350478085661
 21
16.79215770797753
 31
0.0
  0
LINE
  5
29E7
330
28AC
100
AcDbEntity
  8
0
 62
     0
100
AcDbLine
 10
31.6806547967181
 20
19.02036003114148
 30
0.0
 11
33.80865479671826
 21
21.14836003114163
 31
0.0
  0
LINE
  5
29E8
330
28AC
100
AcDbEntity
  8
0
 62
     0
100
AcDbLine
 10
38.40047808566089
 20
25.74018332008433
 30
0.0
 11
41.20047808566096
 21
28.5401833200844
 31
0.0
  0
LINE
  5
29E9
330
28AC
100
AcDbEntity
  8
0
 62
     0
100
AcDbLine
 10
27.55047808566093
 20
14.89018332008436
 30
0.0
 11
30.350478085661
 21
17.69018332008443
 31
0.0
  0
LINE
  5
29EA
330
28AC
100
AcDbEntity
  8
0
 62
     0
100
AcDbLine
 10
31.44585600974636
 20
19.68358685627675
 30
0.0
 11
34.07615007767737
 21
22.3138809242077
 31
0.0
  0
LINE
  5
29EB
330
28AC
100
AcDbEntity
  8
0
 62
     0
100
AcDbLine
 10
38.40047808566095
 20
26.63820893219134
 30
0.0
 11
41.00420266316251
 21
29.24193350969284
 31
0.0
  0
LINE
  5
29EC
330
28AC
100
AcDbEntity
  8
0
 62
     0
100
AcDbLine
 10
27.55047808566093
 20
15.78820893219131
 30
0.0
 11
30.350478085661
 21
18.58820893219132
 31
0.0
  0
LINE
  5
29ED
330
28AC
100
AcDbEntity
  8
0
 62
     0
100
AcDbLine
 10
30.75867063987897
 20
19.8944270985163
 30
0.0
 11
34.49062343711125
 21
23.62637989574858
 31
0.0
  0
LINE
  5
29EE
330
28AC
100
AcDbEntity
  8
0
 62
     0
100
AcDbLine
 10
27.55047808566093
 20
16.6862345442982
 30
0.0
 11
30.36363726996723
 21
19.4993937286045
 31
0.0
  0
LINE
  5
29EF
330
28AC
100
AcDbEntity
  8
0
 62
     0
100
AcDbLine
 10
38.40047808566095
 20
27.53623454429823
 30
0.0
 11
40.2218298241853
 21
29.35758628282264
 31
0.0
  0
LINE
  5
29F0
330
28AC
100
AcDbEntity
  8
0
 62
     0
100
AcDbLine
 10
24.12182982418528
 20
13.25758628282256
 30
0.0
 11
25.10047808566094
 21
14.23623454429827
 31
0.0
  0
LINE
  5
29F1
330
28AC
100
AcDbEntity
  8
0
 62
     0
100
AcDbLine
 10
27.55047808566087
 20
17.58426015640515
 30
0.0
 11
34.9050967965452
 21
24.93887886728948
 31
0.0
  0
LINE
  5
29F2
330
28AC
100
AcDbEntity
  8
0
 62
     0
100
AcDbLine
 10
38.40047808566089
 20
28.43426015640517
 30
0.0
 11
39.3238042120783
 21
29.35758628282258
 31
0.0
  0
LINE
  5
29F3
330
28AC
100
AcDbEntity
  8
0
 62
     0
100
AcDbLine
 10
23.22380421207833
 20
13.25758628282261
 30
0.0
 11
25.10047808566099
 21
15.13426015640527
 31
0.0
  0
LINE
  5
29F4
330
28AC
100
AcDbEntity
  8
0
 62
     0
100
AcDbLine
 10
27.55047808566093
 20
18.48228576851198
 30
0.0
 11
35.31957015597931
 21
26.25137783883042
 31
0.0
  0
LINE
  5
29F5
330
28AC
100
AcDbEntity
  8
0
 62
     0
100
AcDbLine
 10
22.33745922432155
 20
13.26926690717266
 30
0.0
 11
24.95914380205477
 21
15.89095148490583
 31
0.0
  0
LINE
  5
29F6
330
28AC
100
AcDbEntity
  8
0
 62
     0
100
AcDbLine
 10
27.55047808566087
 20
19.38031138061893
 30
0.0
 11
30.87775298786454
 21
22.7075862828226
 31
0.0
  0
LINE
  5
29F7
330
28AC
100
AcDbEntity
  8
0
 62
     0
100
AcDbLine
 10
31.64173582310542
 20
23.47156911806349
 30
0.0
 11
35.73404351541325
 21
27.56387681037131
 31
0.0
  0
LINE
  5
29F8
330
28AC
100
AcDbEntity
  8
0
 62
     0
100
AcDbLine
 10
21.56929870687458
 20
13.39913200183258
 30
0.0
 11
24.22775298786451
 21
16.05758628282257
 31
0.0
  0
LINE
  5
29F9
330
28AC
100
AcDbEntity
  8
0
 62
     0
100
AcDbLine
 10
27.55047808566087
 20
20.27833699272588
 30
0.0
 11
30.3684686563692
 21
23.09632756343416
 31
0.0
  0
LINE
  5
29FA
330
28AC
100
AcDbEntity
  8
0
 62
     0
100
AcDbLine
 10
32.05620918253937
 20
24.78406808960432
 30
0.0
 11
36.10911496721457
 21
28.83697387427958
 31
0.0
  0
LINE
  5
29FB
330
28AC
100
AcDbEntity
  8
0
 62
     0
100
AcDbLine
 10
20.90816445004816
 20
13.63602335711317
 30
0.0
 11
23.32972737575762
 21
16.05758628282257
 31
0.0
  0
LINE
  5
29FC
330
28AC
100
AcDbEntity
  8
0
 62
     0
100
AcDbLine
 10
27.55047808566093
 20
21.17636260483272
 30
0.0
 11
30.35047808566094
 21
23.97636260483279
 31
0.0
  0
LINE
  5
29FD
330
28AC
100
AcDbEntity
  8
0
 62
     0
100
AcDbLine
 10
32.4706825419733
 20
26.09656706114515
 30
0.0
 11
35.71510309464537
 21
29.34098761381722
 31
0.0
  0
LINE
  5
29FE
330
28AC
100
AcDbEntity
  8
0
 62
     0
100
AcDbLine
 10
20.33056116588387
 20
13.95644568505565
 30
0.0
 11
22.44662302437672
 21
16.07250754354857
 31
0.0
  0
LINE
  5
29FF
330
28AC
100
AcDbEntity
  8
0
 62
     0
100
AcDbLine
 10
27.55047808566087
 20
22.07438821693967
 30
0.0
 11
30.35047808566094
 21
24.87438821693974
 31
0.0
  0
LINE
  5
2A00
330
28AC
100
AcDbEntity
  8
0
 62
     0
100
AcDbLine
 10
32.88515590140725
 20
27.40906603268598
 30
0.0
 11
34.83367615154378
 21
29.35758628282258
 31
0.0
  0
LINE
  5
2A01
330
28AC
100
AcDbEntity
  8
0
 62
     0
100
AcDbLine
 10
19.8256061995018
 20
14.34951633078054
 30
0.0
 11
21.81230688335842
 21
16.33621701463716
 31
0.0
  0
LINE
  5
2A02
330
28AC
100
AcDbEntity
  8
0
 62
     0
100
AcDbLine
 10
27.55047808566087
 20
22.97241382904656
 30
0.0
 11
30.35047808566094
 21
25.77241382904663
 31
0.0
  0
LINE
  5
2A03
330
28AC
100
AcDbEntity
  8
0
 62
     0
100
AcDbLine
 10
24.21211221743738
 20
19.63404796082312
 30
0.0
 11
25.37401640766046
 21
20.79595215104621
 31
0.0
  0
LINE
  5
2A04
330
28AC
100
AcDbEntity
  8
0
 62
     0
100
AcDbLine
 10
33.29962926084113
 20
28.72156500422688
 30
0.0
 11
33.93565053943684
 21
29.35758628282258
 31
0.0
  0
LINE
  5
2A05
330
28AC
100
AcDbEntity
  8
0
 62
     0
100
AcDbLine
 10
19.38916912617196
 20
14.81110486955771
 30
0.0
 11
21.40205593208623
 21
16.82399167547197
 31
0.0
  0
LINE
  5
2A06
330
28AC
100
AcDbEntity
  8
0
 62
     0
100
AcDbLine
 10
23.28713937580756
 20
19.60710073130025
 30
0.0
 11
25.40096363718334
 21
21.72092499267598
 31
0.0
  0
LINE
  5
2A07
330
28AC
100
AcDbEntity
  8
0
 62
     0
100
AcDbLine
 10
27.55047808566093
 20
23.87043944115356
 30
0.0
 11
30.350478085661
 21
26.67043944115363
 31
0.0
  0
LINE
  5
2A08
330
28AC
100
AcDbEntity
  8
0
 62
     0
100
AcDbLine
 10
19.022149901229
 20
15.34211125672164
 30
0.0
 11
21.25047808566092
 21
17.57043944115361
 31
0.0
  0
LINE
  5
2A09
330
28AC
100
AcDbEntity
  8
0
 62
     0
100
AcDbLine
 10
22.67299280638736
 20
19.89097977398683
 30
0.0
 11
25.1170845944967
 21
22.33507156209623
 31
0.0
  0
LINE
  5
2A0A
330
28AC
100
AcDbEntity
  8
0
 62
     0
100
AcDbLine
 10
27.55047808566093
 20
24.76846505326046
 30
0.0
 11
30.350478085661
 21
27.56846505326052
 31
0.0
  0
LINE
  5
2A0B
330
28AC
100
AcDbEntity
  8
0
 62
     0
100
AcDbLine
 10
18.73083239130426
 20
15.94881935890379
 30
0.0
 11
21.25047808566092
 21
18.46846505326044
 31
0.0
  0
LINE
  5
2A0C
330
28AC
100
AcDbEntity
  8
0
 62
     0
100
AcDbLine
 10
22.23503287939764
 20
20.35104545910412
 30
0.0
 11
24.65701890937948
 21
22.7730314890859
 31
0.0
  0
LINE
  5
2A0D
330
28AC
100
AcDbEntity
  8
0
 62
     0
100
AcDbLine
 10
27.55047808566093
 20
25.6664906653674
 30
0.0
 11
30.350478085661
 21
28.46649066536742
 31
0.0
  0
LINE
  5
2A0E
330
28AC
100
AcDbEntity
  8
0
 62
     0
100
AcDbLine
 10
18.5296950271296
 20
16.64570760683608
 30
0.0
 11
21.25047808566092
 21
19.36649066536739
 31
0.0
  0
LINE
  5
2A0F
330
28AC
100
AcDbEntity
  8
0
 62
     0
100
AcDbLine
 10
21.97898214698927
 20
20.99302033880264
 30
0.0
 11
24.0150440296809
 21
23.02908222149432
 31
0.0
  0
LINE
  5
2A10
330
28AC
100
AcDbEntity
  8
0
 62
     0
100
AcDbLine
 10
18.45047808566085
 20
17.46451627747427
 30
0.0
 11
21.25047808566092
 21
20.26451627747428
 31
0.0
  0
LINE
  5
2A11
330
28AC
100
AcDbEntity
  8
0
 62
     0
100
AcDbLine
 10
27.55047808566093
 20
26.5645162774743
 30
0.0
 11
30.19322797730581
 21
29.20726616911924
 31
0.0
  0
LINE
  5
2A12
330
28AC
100
AcDbEntity
  8
0
 62
     0
100
AcDbLine
 10
14.36448132778525
 20
13.37851951959868
 30
0.0
 11
16.22954484888498
 21
15.24358304069841
 31
0.0
  0
LINE
  5
2A13
330
28AC
100
AcDbEntity
  8
0
 62
     0
100
AcDbLine
 10
22.09739523047006
 20
22.00945903439032
 30
0.0
 11
22.99860533409327
 21
22.91066913801353
 31
0.0
  0
LINE
  5
2A14
330
28AC
100
AcDbEntity
  8
0
 62
     0
100
AcDbLine
 10
18.45047808566085
 20
18.36254188958111
 30
0.0
 11
21.25047808566092
 21
21.16254188958118
 31
0.0
  0
LINE
  5
2A15
330
28AC
100
AcDbEntity
  8
0
 62
     0
100
AcDbLine
 10
27.55047808566093
 20
27.46254188958119
 30
0.0
 11
29.44552247890232
 21
29.35758628282258
 31
0.0
  0
LINE
  5
2A16
330
28AC
100
AcDbEntity
  8
0
 62
     0
100
AcDbLine
 10
13.34552247890229
 20
13.25758628282256
 30
0.0
 11
16.35047808566105
 21
16.26254188958126
 31
0.0
  0
LINE
  5
2A17
330
28AC
100
AcDbEntity
  8
0
 62
     0
100
AcDbLine
 10
18.45047808566085
 20
19.26056750168806
 30
0.0
 11
21.25047808566092
 21
22.06056750168813
 31
0.0
  0
LINE
  5
2A18
330
28AC
100
AcDbEntity
  8
0
 62
     0
100
AcDbLine
 10
27.55047808566093
 20
28.36056750168808
 30
0.0
 11
28.54749686679543
 21
29.35758628282264
 31
0.0
  0
LINE
  5
2A19
330
28AC
100
AcDbEntity
  8
0
 62
     0
100
AcDbLine
 10
12.44749686679529
 20
13.2575862828225
 30
0.0
 11
16.35047808566099
 21
17.1605675016882
 31
0.0
  0
LINE
  5
2A1A
330
28AC
100
AcDbEntity
  8
0
 62
     0
100
AcDbLine
 10
18.45047808566085
 20
20.15859311379495
 30
0.0
 11
21.25047808566086
 21
22.95859311379502
 31
0.0
  0
LINE
  5
2A1B
330
28AC
100
AcDbEntity
  8
0
 62
     0
100
AcDbLine
 10
11.54947125468845
 20
13.25758628282261
 30
0.0
 11
16.34653873309975
 21
18.05465376123391
 31
0.0
  0
LINE
  5
2A1C
330
28AC
100
AcDbEntity
  8
0
 62
     0
100
AcDbLine
 10
18.45047808566085
 20
21.0566187259019
 30
0.0
 11
21.25047808566092
 21
23.85661872590197
 31
0.0
  0
LINE
  5
2A1D
330
28AC
100
AcDbEntity
  8
0
 62
     0
100
AcDbLine
 10
23.95144564258163
 20
26.55758628282268
 30
0.0
 11
25.10047808566105
 21
27.7066187259021
 31
0.0
  0
LINE
  5
2A1E
330
28AC
100
AcDbEntity
  8
0
 62
     0
100
AcDbLine
 10
10.6514456425815
 20
13.25758628282256
 30
0.0
 11
16.23687689677842
 21
18.84301753701947
 31
0.0
  0
LINE
  5
2A1F
330
28AC
100
AcDbEntity
  8
0
 62
     0
100
AcDbLine
 10
18.45047808566085
 20
21.95464433800879
 30
0.0
 11
21.25047808566092
 21
24.7546443380088
 31
0.0
  0
LINE
  5
2A20
330
28AC
100
AcDbEntity
  8
0
 62
     0
100
AcDbLine
 10
13.55047808566093
 20
17.05464433800887
 30
0.0
 11
16.0145381527343
 21
19.51870440508225
 31
0.0
  0
LINE
  5
2A21
330
28AC
100
AcDbEntity
  8
0
 62
     0
100
AcDbLine
 10
23.05342003047463
 20
26.55758628282257
 30
0.0
 11
25.10047808566105
 21
28.60464433800894
 31
0.0
  0
LINE
  5
2A22
330
28AC
100
AcDbEntity
  8
0
 62
     0
100
AcDbLine
 10
9.811145905734576
 20
13.31531215808252
 30
0.0
 11
12.55342003047462
 21
16.05758628282257
 31
0.0
  0
LINE
  5
2A23
330
28AC
100
AcDbEntity
  8
0
 62
     0
100
AcDbLine
 10
18.45047808566079
 20
22.85266995011568
 30
0.0
 11
21.41629279144058
 21
25.81848465589548
 31
0.0
  0
LINE
  5
2A24
330
28AC
100
AcDbEntity
  8
0
 62
     0
100
AcDbLine
 10
13.54831899405167
 20
17.9505108585065
 30
0.0
 11
15.70610661806228
 21
20.10829848251717
 31
0.0
  0
LINE
  5
2A25
330
28AC
100
AcDbEntity
  8
0
 62
     0
100
AcDbLine
 10
21.98957971258812
 20
26.39177157704302
 30
0.0
 11
24.86701067074114
 21
29.26920253519597
 31
0.0
  0
LINE
  5
2A26
330
28AC
100
AcDbEntity
  8
0
 62
     0
100
AcDbLine
 10
9.52547808566095
 20
13.92766995011578
 30
0.0
 11
11.65539441836773
 21
16.05758628282257
 31
0.0
  0
LINE
  5
2A27
330
28AC
100
AcDbEntity
  8
0
 62
     0
100
AcDbLine
 10
13.32871597455096
 20
18.6289334511128
 30
0.0
 11
15.32386465322338
 21
20.62408212978522
 31
0.0
  0
LINE
  5
2A28
330
28AC
100
AcDbEntity
  8
0
 62
     0
100
AcDbLine
 10
18.45047808566079
 20
23.75069556222263
 30
0.0
 11
24.05736880626085
 21
29.3575862828227
 31
0.0
  0
LINE
  5
2A29
330
28AC
100
AcDbEntity
  8
0
 62
     0
100
AcDbLine
 10
9.525478085660893
 20
14.82569556222273
 30
0.0
 11
10.75736880626078
 21
16.05758628282262
 31
0.0
  0
LINE
  5
2A2A
330
28AC
100
AcDbEntity
  8
0
 62
     0
100
AcDbLine
 10
12.90246114624625
 20
19.10070423491493
 30
0.0
 11
14.88236013356862
 21
21.0806032222373
 31
0.0
  0
LINE
  5
2A2B
330
28AC
100
AcDbEntity
  8
0
 62
     0
100
AcDbLine
 10
18.45047808566085
 20
24.64872117432947
 30
0.0
 11
23.15934319415379
 21
29.35758628282247
 31
0.0
  0
LINE
  5
2A2C
330
28AC
100
AcDbEntity
  8
0
 62
     0
100
AcDbLine
 10
9.594430007680671
 20
15.79267309634935
 30
0.0
 11
9.790391272134286
 21
15.98863436080296
 31
0.0
  0
LINE
  5
2A2D
330
28AC
100
AcDbEntity
  8
0
 62
     0
100
AcDbLine
 10
18.47045319981743
 20
25.566721900593
 30
0.0
 11
22.24134246789043
 21
29.33761116866606
 31
0.0
  0
LINE
  5
2A2E
330
28AC
100
AcDbEntity
  8
0
 62
     0
100
AcDbLine
 10
12.45344834019278
 20
19.5497170409684
 30
0.0
 11
14.43334732751515
 21
21.52961602829078
 31
0.0
  0
LINE
  5
2A2F
330
28AC
100
AcDbEntity
  8
0
 62
     0
100
AcDbLine
 10
18.76991663208321
 20
26.76421094496578
 30
0.0
 11
21.0438534235177
 21
29.03814773640028
 31
0.0
  0
LINE
  5
2A30
330
28AC
100
AcDbEntity
  8
0
 62
     0
100
AcDbLine
 10
12.0044355341393
 20
19.99872984702188
 30
0.0
 11
13.98433452146167
 21
21.97862883434425
 31
0.0
  0
LINE
  5
2A31
330
28AC
100
AcDbEntity
  8
0
 62
     0
100
AcDbLine
 10
11.55542272808588
 20
20.4477426530753
 30
0.0
 11
13.5353217154082
 21
22.42764164039755
 31
0.0
  0
LINE
  5
2A32
330
28AC
100
AcDbEntity
  8
0
 62
     0
100
AcDbLine
 10
11.10640992203241
 20
20.89675545912877
 30
0.0
 11
13.08630890935473
 21
22.87665444645103
 31
0.0
  0
LINE
  5
2A33
330
28AC
100
AcDbEntity
  8
0
 62
     0
100
AcDbLine
 10
10.65739711597894
 20
21.34576826518225
 30
0.0
 11
12.63729610330125
 21
23.3256672525045
 31
0.0
  0
LINE
  5
2A34
330
28AC
100
AcDbEntity
  8
0
 62
     0
100
AcDbLine
 10
14.97118952151237
 20
26.55758628282257
 30
0.0
 11
15.82547808566085
 21
27.4118748469711
 31
0.0
  0
LINE
  5
2A35
330
28AC
100
AcDbEntity
  8
0
 62
     0
100
AcDbLine
 10
10.20846762395359
 20
21.79486438526385
 30
0.0
 11
12.18853326738605
 21
23.77493002869631
 31
0.0
  0
LINE
  5
2A36
330
28AC
100
AcDbEntity
  8
0
 62
     0
100
AcDbLine
 10
14.07316390940548
 20
26.55758628282257
 30
0.0
 11
15.8254780856609
 21
28.309900459078
 31
0.0
  0
LINE
  5
2A37
330
28AC
100
AcDbEntity
  8
0
 62
     0
100
AcDbLine
 10
9.796999699402022
 20
22.28142207281905
 30
0.0
 11
11.85863638609811
 21
24.3430587595152
 31
0.0
  0
LINE
  5
2A38
330
28AC
100
AcDbEntity
  8
0
 62
     0
100
AcDbLine
 10
13.17513829729853
 20
26.55758628282257
 30
0.0
 11
15.73891918589976
 21
29.1213671714238
 31
0.0
  0
LINE
  5
2A39
330
28AC
100
AcDbEntity
  8
0
 62
     0
100
AcDbLine
 10
9.456539093139554
 20
22.83898707866354
 30
0.0
 11
11.80047808566098
 21
25.18292607118497
 31
0.0
  0
LINE
  5
2A3A
330
28AC
100
AcDbEntity
  8
0
 62
     0
100
AcDbLine
 10
12.27464603602152
 20
26.55511963365245
 30
0.0
 11
15.07711268519171
 21
29.35758628282264
 31
0.0
  0
LINE
  5
2A3B
330
28AC
100
AcDbEntity
  8
0
 62
     0
100
AcDbLine
 10
9.195845797407457
 20
23.47631939503839
 30
0.0
 11
11.80294473483104
 21
26.08341833246203
 31
0.0
  0
LINE
  5
2A3C
330
28AC
100
AcDbEntity
  8
0
 62
     0
100
AcDbLine
 10
9.034033835159391
 20
24.21253304489721
 30
0.0
 11
14.17908707308481
 21
29.35758628282264
 31
0.0
  0
LINE
  5
2A3D
330
28AC
100
AcDbEntity
  8
0
 62
     0
100
AcDbLine
 10
9.000478085660972
 20
25.07700290750574
 30
0.0
 11
13.28106146097781
 21
29.35758628282258
 31
0.0
  0
LINE
  5
2A3E
330
28AC
100
AcDbEntity
  8
0
 62
     0
100
AcDbLine
 10
9.000478085660972
 20
25.97502851961264
 30
0.0
 11
12.38303584887086
 21
29.35758628282258
 31
0.0
  0
LINE
  5
2A3F
330
28AC
100
AcDbEntity
  8
0
 62
     0
100
AcDbLine
 10
9.020670096099195
 20
26.89324614215781
 30
0.0
 11
11.4648182263258
 21
29.33739427238442
 31
0.0
  0
ENDBLK
  5
2A41
330
28AC
100
AcDbEntity
  8
0
100
AcDbBlockEnd
  0
BLOCK
  5
31C2
330
31C1
100
AcDbEntity
  8
0
100
AcDbBlockBegin
  2
*D2
 70
     1
 10
0.0
 20
0.0
 30
0.0
  3
*D2
  1

  0
LINE
  5
3A0B
330
31C1
100
AcDbEntity
  8
SUNPOU
  6
Continuous
100
AcDbLine
 10
302.6978757350824
 20
75.79231764677342
 30
0.0
 11
313.0040572310748
 21
75.79231764677342
 31
0.0
  0
LINE
  5
3A0C
330
31C1
100
AcDbEntity
  8
SUNPOU
  6
Continuous
100
AcDbLine
 10
301.6978757350823
 20
105.7923176467733
 30
0.0
 11
313.0040572310748
 21
105.7923176467733
 31
0.0
  0
LINE
  5
3A0D
330
31C1
100
AcDbEntity
  8
SUNPOU
  6
Continuous
100
AcDbLine
 10
311.5040572310748
 20
78.79231764677342
 30
0.0
 11
311.5040572310748
 21
102.7923176467733
 31
0.0
  0
INSERT
  5
3A0E
330
31C1
100
AcDbEntity
  8
SUNPOU
  6
Continuous
100
AcDbBlockReference
  2
_OPEN
 10
311.5040572310748
 20
75.79231764677342
 30
0.0
 41
3.0
 42
3.0
 43
3.0
 50
270.0
  0
INSERT
  5
3A0F
330
31C1
100
AcDbEntity
  8
SUNPOU
  6
Continuous
100
AcDbBlockReference
  2
_OPEN
 10
311.5040572310748
 20
105.7923176467733
 30
0.0
 41
3.0
 42
3.0
 43
3.0
 50
90.0
  0
MTEXT
  5
3A10
330
31C1
100
AcDbEntity
  8
SUNPOU
  6
Continuous
100
AcDbMText
 10
309.0040572310748
 20
90.79231764677343
 30
0.0
 40
3.0
 41
0.0
 71
     5
 72
     1
  1
\A1;30
 11
0.0000000000000001
 21
1.0
 31
0.0
 73
     1
 44
1.0
1001
ACAD
1000
MTEXTBEGIN
1070
    73
1070
     1
1070
    44
1040
1.0
1070
    74
1070
     0
1000
MTEXTEND
  0
POINT
  5
3A11
330
31C1
100
AcDbEntity
  8
DEFPOINTS
  6
Continuous
 62
     0
100
AcDbPoint
 10
299.6978757350823
 20
75.79231764677342
 30
0.0
  0
POINT
  5
3A12
330
31C1
100
AcDbEntity
  8
DEFPOINTS
  6
Continuous
 62
     0
100
AcDbPoint
 10
298.6978757350824
 20
105.7923176467733
 30
0.0
  0
POINT
  5
3A13
330
31C1
100
AcDbEntity
  8
DEFPOINTS
  6
Continuous
 62
     0
100
AcDbPoint
 10
311.5040572310748
 20
105.7923176467733
 30
0.0
  0
ENDBLK
  5
31C3
330
31C1
100
AcDbEntity
  8
0
100
AcDbBlockEnd
  0
BLOCK
  5
31CE
330
31CD
100
AcDbEntity
  8
0
100
AcDbBlockBegin
  2
*D3
 70
     1
 10
0.0
 20
0.0
 30
0.0
  3
*D3
  1

  0
LINE
  5
3A14
330
31CD
100
AcDbEntity
  8
SUNPOU
  6
Continuous
100
AcDbLine
 10
302.6978757350824
 20
75.79231764677342
 30
0.0
 11
321.0080404248846
 21
75.79231764677342
 31
0.0
  0
LINE
  5
3A15
330
31CD
100
AcDbEntity
  8
SUNPOU
  6
Continuous
100
AcDbLine
 10
263.1978757350823
 20
240.7923176467734
 30
0.0
 11
321.0080404248847
 21
240.7923176467734
 31
0.0
  0
LINE
  5
3A16
330
31CD
100
AcDbEntity
  8
SUNPOU
  6
Continuous
100
AcDbLine
 10
319.5080404248847
 20
78.79231764677342
 30
0.0
 11
319.5080404248847
 21
237.7923176467734
 31
0.0
  0
INSERT
  5
3A17
330
31CD
100
AcDbEntity
  8
SUNPOU
  6
Continuous
100
AcDbBlockReference
  2
_OPEN
 10
319.5080404248847
 20
75.79231764677342
 30
0.0
 41
3.0
 42
3.0
 43
3.0
 50
270.0
  0
INSERT
  5
3A18
330
31CD
100
AcDbEntity
  8
SUNPOU
  6
Continuous
100
AcDbBlockReference
  2
_OPEN
 10
319.5080404248847
 20
240.7923176467734
 30
0.0
 41
3.0
 42
3.0
 43
3.0
 50
90.0
  0
MTEXT
  5
3A19
330
31CD
100
AcDbEntity
  8
SUNPOU
  6
Continuous
100
AcDbMText
 10
317.0080404248846
 20
158.2923176467734
 30
0.0
 40
3.0
 41
0.0
 71
     5
 72
     1
  1
\A1;165
 11
0.0000000000000001
 21
1.0
 31
0.0
 73
     1
 44
1.0
1001
ACAD
1000
MTEXTBEGIN
1070
    73
1070
     1
1070
    44
1040
1.0
1070
    74
1070
     0
1000
MTEXTEND
  0
POINT
  5
3A1A
330
31CD
100
AcDbEntity
  8
DEFPOINTS
  6
Continuous
 62
     0
100
AcDbPoint
 10
299.6978757350823
 20
75.79231764677342
 30
0.0
  0
POINT
  5
3A1B
330
31CD
100
AcDbEntity
  8
DEFPOINTS
  6
Continuous
 62
     0
100
AcDbPoint
 10
260.1978757350823
 20
240.7923176467734
 30
0.0
  0
POINT
  5
3A1C
330
31CD
100
AcDbEntity
  8
DEFPOINTS
  6
Continuous
 62
     0
100
AcDbPoint
 10
319.5080404248847
 20
240.7923176467734
 30
0.0
  0
ENDBLK
  5
31CF
330
31CD
100
AcDbEntity
  8
0
100
AcDbBlockEnd
  0
BLOCK
  5
31DA
330
31D9
100
AcDbEntity
  8
0
100
AcDbBlockBegin
  2
*D4
 70
     1
 10
0.0
 20
0.0
 30
0.0
  3
*D4
  1

  0
LINE
  5
3A1D
330
31D9
100
AcDbEntity
  8
SUNPOU
  6
Continuous
100
AcDbLine
 10
97.69787573508267
 20
72.79231764677343
 30
0.0
 11
97.69787573508267
 21
52.68722770329486
 31
0.0
  0
LINE
  5
3A1E
330
31D9
100
AcDbEntity
  8
SUNPOU
  6
Continuous
100
AcDbLine
 10
299.6978757350823
 20
74.04231764677343
 30
0.0
 11
299.6978757350823
 21
52.68722770329486
 31
0.0
  0
LINE
  5
3A1F
330
31D9
100
AcDbEntity
  8
SUNPOU
  6
Continuous
100
AcDbLine
 10
100.6978757350827
 20
54.18722770329487
 30
0.0
 11
296.6978757350823
 21
54.18722770329487
 31
0.0
  0
INSERT
  5
3A20
330
31D9
100
AcDbEntity
  8
SUNPOU
  6
Continuous
100
AcDbBlockReference
  2
_OPEN
 10
97.69787573508267
 20
54.18722770329487
 30
0.0
 41
3.0
 42
3.0
 43
3.0
 50
180.0
  0
INSERT
  5
3A21
330
31D9
100
AcDbEntity
  8
SUNPOU
  6
Continuous
100
AcDbBlockReference
  2
_OPEN
 10
299.6978757350823
 20
54.18722770329487
 30
0.0
 41
3.0
 42
3.0
 43
3.0
  0
MTEXT
  5
3A22
330
31D9
100
AcDbEntity
  8
SUNPOU
  6
Continuous
100
AcDbMText
 10
198.6978757350825
 20
56.68722770329487
 30
0.0
 40
3.0
 41
0.0
 71
     5
 72
     1
  1
\A1;\U+03C6202
 73
     1
 44
1.0
1001
ACAD
1000
MTEXTBEGIN
1070
    73
1070
     1
1070
    44
1040
1.0
1070
    74
1070
     0
1000
MTEXTEND
  0
POINT
  5
3A23
330
31D9
100
AcDbEntity
  8
DEFPOINTS
  6
Continuous
 62
     0
100
AcDbPoint
 10
97.69787573508267
 20
75.79231764677342
 30
0.0
  0
POINT
  5
3A24
330
31D9
100
AcDbEntity
  8
DEFPOINTS
  6
Continuous
 62
     0
100
AcDbPoint
 10
299.6978757350823
 20
77.04231764677342
 30
0.0
  0
POINT
  5
3A25
330
31D9
100
AcDbEntity
  8
DEFPOINTS
  6
Continuous
 62
     0
100
AcDbPoint
 10
299.6978757350823
 20
54.18722770329487
 30
0.0
  0
ENDBLK
  5
31DB
330
31D9
100
AcDbEntity
  8
0
100
AcDbBlockEnd
  0
BLOCK
  5
321E
330
321D
100
AcDbEntity
  8
0
100
AcDbBlockBegin
  2
*D5
 70
     1
 10
0.0
 20
0.0
 30
0.0
  3
*D5
  1

  0
LINE
  5
3A26
330
321D
100
AcDbEntity
  8
SUNPOU
  6
Continuous
100
AcDbLine
 10
139.1978757350823
 20
243.7923176467734
 30
0.0
 11
139.1978757350823
 21
255.2237788261339
 31
0.0
  0
LINE
  5
3A27
330
321D
100
AcDbEntity
  8
SUNPOU
  6
Continuous
100
AcDbLine
 10
258.1978757350823
 20
243.7923176467734
 30
0.0
 11
258.1978757350823
 21
255.2237788261339
 31
0.0
  0
LINE
  5
3A28
330
321D
100
AcDbEntity
  8
SUNPOU
  6
Continuous
100
AcDbLine
 10
142.1978757350823
 20
253.7237788261339
 30
0.0
 11
255.1978757350823
 21
253.7237788261339
 31
0.0
  0
INSERT
  5
3A29
330
321D
100
AcDbEntity
  8
SUNPOU
  6
Continuous
100
AcDbBlockReference
  2
_OPEN
 10
139.1978757350823
 20
253.7237788261339
 30
0.0
 41
3.0
 42
3.0
 43
3.0
 50
180.0
  0
INSERT
  5
3A2A
330
321D
100
AcDbEntity
  8
SUNPOU
  6
Continuous
100
AcDbBlockReference
  2
_OPEN
 10
258.1978757350823
 20
253.7237788261339
 30
0.0
 41
3.0
 42
3.0
 43
3.0
  0
MTEXT
  5
3A2B
330
321D
100
AcDbEntity
  8
SUNPOU
  6
Continuous
100
AcDbMText
 10
198.6978757350823
 20
256.2237788261338
 30
0.0
 40
3.0
 41
0.0
 71
     5
 72
     1
  1
\A1;\U+03C6119
 73
     1
 44
1.0
1001
ACAD
1000
MTEXTBEGIN
1070
    73
1070
     1
1070
    44
1040
1.0
1070
    74
1070
     0
1000
MTEXTEND
  0
POINT
  5
3A2C
330
321D
100
AcDbEntity
  8
DEFPOINTS
  6
Continuous
 62
     0
100
AcDbPoint
 10
139.1978757350823
 20
240.7923176467734
 30
0.0
  0
POINT
  5
3A2D
330
321D
100
AcDbEntity
  8
DEFPOINTS
  6
Continuous
 62
     0
100
AcDbPoint
 10
258.1978757350823
 20
240.7923176467734
 30
0.0
  0
POINT
  5
3A2E
330
321D
100
AcDbEntity
  8
DEFPOINTS
  6
Continuous
 62
     0
100
AcDbPoint
 10
258.1978757350823
 20
253.7237788261339
 30
0.0
  0
ENDBLK
  5
321F
330
321D
100
AcDbEntity
  8
0
100
AcDbBlockEnd
  0
BLOCK
  5
3235
330
3234
100
AcDbEntity
  8
0
100
AcDbBlockBegin
  2
*D6
 70
     1
 10
0.0
 20
0.0
 30
0.0
  3
*D6
  1

  0
LINE
  5
3A2F
330
3234
100
AcDbEntity
  8
SUNPOU
  6
Continuous
100
AcDbLine
 10
134.1976553467095
 20
72.79231764677343
 30
0.0
 11
134.1976553467095
 21
61.22813457307803
 31
0.0
  0
LINE
  5
3A30
330
3234
100
AcDbEntity
  8
SUNPOU
  6
Continuous
100
AcDbLine
 10
263.1980961234551
 20
72.79231764677343
 30
0.0
 11
263.1980961234551
 21
61.22813457307803
 31
0.0
  0
LINE
  5
3A31
330
3234
100
AcDbEntity
  8
SUNPOU
  6
Continuous
100
AcDbLine
 10
137.1976553467095
 20
62.72813457307802
 30
0.0
 11
260.1980961234551
 21
62.72813457307802
 31
0.0
  0
INSERT
  5
3A32
330
3234
100
AcDbEntity
  8
SUNPOU
  6
Continuous
100
AcDbBlockReference
  2
_OPEN
 10
134.1976553467095
 20
62.72813457307802
 30
0.0
 41
3.0
 42
3.0
 43
3.0
 50
180.0
  0
INSERT
  5
3A33
330
3234
100
AcDbEntity
  8
SUNPOU
  6
Continuous
100
AcDbBlockReference
  2
_OPEN
 10
263.1980961234551
 20
62.72813457307802
 30
0.0
 41
3.0
 42
3.0
 43
3.0
  0
MTEXT
  5
3A34
330
3234
100
AcDbEntity
  8
SUNPOU
  6
Continuous
100
AcDbMText
 10
198.6978757350823
 20
65.22813457307802
 30
0.0
 40
3.0
 41
0.0
 71
     5
 72
     1
  1
\A1;\U+03C6129
 73
     1
 44
1.0
1001
ACAD
1000
MTEXTBEGIN
1070
    73
1070
     1
1070
    44
1040
1.0
1070
    74
1070
     0
1000
MTEXTEND
  0
POINT
  5
3A35
330
3234
100
AcDbEntity
  8
DEFPOINTS
  6
Continuous
 62
     0
100
AcDbPoint
 10
134.1976553467095
 20
75.79231764677342
 30
0.0
  0
POINT
  5
3A36
330
3234
100
AcDbEntity
  8
DEFPOINTS
  6
Continuous
 62
     0
100
AcDbPoint
 10
263.1980961234551
 20
75.79231764677342
 30
0.0
  0
POINT
  5
3A37
330
3234
100
AcDbEntity
  8
DEFPOINTS
  6
Continuous
 62
     0
100
AcDbPoint
 10
263.1980961234551
 20
62.72813457307802
 30
0.0
  0
ENDBLK
  5
3236
330
3234
100
AcDbEntity
  8
0
100
AcDbBlockEnd
  0
BLOCK
  5
3797
330
378D
100
AcDbEntity
  8
0
100
AcDbBlockBegin
  2
*D7
 70
     1
 10
0.0
 20
0.0
 30
0.0
  3
*D7
  1

  0
LINE
  5
3A38
330
378D
100
AcDbEntity
  8
SUNPOU
  6
Continuous
 62
     4
370
    -2
100
AcDbLine
 10
257.1978757350823
 20
75.79231764677342
 30
0.0
 11
227.6433460438989
 21
75.79231764677342
 31
0.0
  0
LINE
  5
3A39
330
378D
100
AcDbEntity
  8
SUNPOU
  6
Continuous
 62
     4
370
    -2
100
AcDbLine
 10
256.1069666441732
 20
165.7923176467734
 30
0.0
 11
227.6433460438989
 21
165.7923176467734
 31
0.0
  0
LINE
  5
3A3A
330
378D
100
AcDbEntity
  8
SUNPOU
  6
Continuous
 62
     4
370
    -2
100
AcDbLine
 10
229.1433460438989
 20
78.79231764677342
 30
0.0
 11
229.1433460438989
 21
162.7923176467734
 31
0.0
  0
INSERT
  5
3A3B
330
378D
100
AcDbEntity
  8
SUNPOU
  6
Continuous
 62
     4
370
    -2
100
AcDbBlockReference
  2
_OPEN
 10
229.1433460438989
 20
75.79231764677342
 30
0.0
 41
3.0
 42
3.0
 43
3.0
 50
270.0
  0
INSERT
  5
3A3C
330
378D
100
AcDbEntity
  8
SUNPOU
  6
Continuous
 62
     4
370
    -2
100
AcDbBlockReference
  2
_OPEN
 10
229.1433460438989
 20
165.7923176467734
 30
0.0
 41
3.0
 42
3.0
 43
3.0
 50
90.0
  0
MTEXT
  5
3A3D
330
378D
100
AcDbEntity
  8
SUNPOU
  6
Continuous
 62
     4
100
AcDbMText
 10
224.1433460438988
 20
120.7923176467734
 30
0.0
 40
3.0
 41
0.0
 71
     5
 72
     1
  1
\A1;たてといの端部位置\P８０～１００ｍｍ
 11
0.0000000000000001
 21
1.0
 31
0.0
 73
     1
 44
1.0
1001
ACAD
1000
MTEXTBEGIN
1070
    73
1070
     1
1070
    44
1040
1.0
1070
    74
1070
     0
1000
MTEXTEND
  0
POINT
  5
3A3E
330
378D
100
AcDbEntity
  8
DEFPOINTS
  6
Continuous
 62
     0
100
AcDbPoint
 10
260.1978757350823
 20
75.79231764677342
 30
0.0
  0
POINT
  5
3A3F
330
378D
100
AcDbEntity
  8
DEFPOINTS
  6
Continuous
 62
     0
100
AcDbPoint
 10
259.1069666441732
 20
165.7923176467734
 30
0.0
  0
POINT
  5
3A40
330
378D
100
AcDbEntity
  8
DEFPOINTS
  6
Continuous
 62
     0
100
AcDbPoint
 10
229.1433460438989
 20
165.7923176467734
 30
0.0
  0
ENDBLK
  5
3798
330
378D
100
AcDbEntity
  8
0
100
AcDbBlockEnd
  0
BLOCK
  5
37A3
330
3799
100
AcDbEntity
  8
0
100
AcDbBlockBegin
  2
*D8
 70
     1
 10
0.0
 20
0.0
 30
0.0
  3
*D8
  1

  0
LINE
  5
3A41
330
3799
100
AcDbEntity
  8
SUNPOU
  6
Continuous
 62
     4
370
    -2
100
AcDbLine
 10
260.5670552066574
 20
105.7923176467734
 30
0.0
 11
248.9937952559549
 21
105.7923176467734
 31
0.0
  0
LINE
  5
3A42
330
3799
100
AcDbEntity
  8
SUNPOU
  6
Continuous
 62
     4
370
    -2
100
AcDbLine
 10
259.5609980735626
 20
75.79231764677342
 30
0.0
 11
248.9937952559549
 21
75.79231764677342
 31
0.0
  0
LINE
  5
3A43
330
3799
100
AcDbEntity
  8
SUNPOU
  6
Continuous
 62
     4
370
    -2
100
AcDbLine
 10
250.4937952559548
 20
108.7923176467734
 30
0.0
 11
250.4937952559548
 21
111.7923176467734
 31
0.0
  0
LINE
  5
3A44
330
3799
100
AcDbEntity
  8
SUNPOU
  6
Continuous
 62
     4
370
    -2
100
AcDbLine
 10
250.4937952559548
 20
72.79231764677343
 30
0.0
 11
250.4937952559548
 21
69.79231764677343
 31
0.0
  0
MTEXT
  5
3A45
330
3799
100
AcDbEntity
  8
SUNPOU
  6
Continuous
 62
     4
100
AcDbMText
 10
245.7698433083924
 20
94.4555699876364
 30
0.0
 40
3.0
 41
0.0
 71
     5
 72
     1
  1
\A1;排水管のパイプの高さ\P３０～３５ｍｍ
 11
0.0000000000000001
 21
1.0
 31
0.0
 73
     1
 44
1.0
1001
ACAD
1000
MTEXTBEGIN
1070
    73
1070
     1
1070
    44
1040
1.0
1070
    74
1070
     0
1000
MTEXTEND
  0
LINE
  5
3A46
330
3799
100
AcDbEntity
  8
SUNPOU
  6
Continuous
 62
     4
370
    -2
100
AcDbLine
 10
250.4937952559548
 20
105.7923176467734
 30
0.0
 11
250.4937952559548
 21
75.79231764677342
 31
0.0
  0
INSERT
  5
3A47
330
3799
100
AcDbEntity
  8
SUNPOU
  6
Continuous
 62
     4
370
    -2
100
AcDbBlockReference
  2
_OPEN
 10
250.4937952559548
 20
105.7923176467734
 30
0.0
 41
3.0
 42
3.0
 43
3.0
 50
270.0
  0
INSERT
  5
3A48
330
3799
100
AcDbEntity
  8
SUNPOU
  6
Continuous
 62
     4
370
    -2
100
AcDbBlockReference
  2
_OPEN
 10
250.4937952559548
 20
75.79231764677342
 30
0.0
 41
3.0
 42
3.0
 43
3.0
 50
90.0
  0
POINT
  5
3A49
330
3799
100
AcDbEntity
  8
DEFPOINTS
  6
Continuous
 62
     0
100
AcDbPoint
 10
263.5670552066574
 20
105.7923176467734
 30
0.0
  0
POINT
  5
3A4A
330
3799
100
AcDbEntity
  8
DEFPOINTS
  6
Continuous
 62
     0
100
AcDbPoint
 10
262.5609980735626
 20
75.79231764677342
 30
0.0
  0
POINT
  5
3A4B
330
3799
100
AcDbEntity
  8
DEFPOINTS
  6
Continuous
 62
     0
100
AcDbPoint
 10
250.4937952559548
 20
75.79231764677342
 30
0.0
  0
ENDBLK
  5
37A4
330
3799
100
AcDbEntity
  8
0
100
AcDbBlockEnd
  0
ENDSEC
  0
SECTION
  2
ENTITIES
  0
LWPOLYLINE
  5
5EF
330
1A
100
AcDbEntity
  8
ZUWAKU
100
AcDbPolyline
 90
        4
 70
     1
 43
0.0
 10
5.928893922609404
 20
283.8625000000001
 10
5.928893922609404
 20
8.26250000000002
 10
404.5288939226093
 20
8.262500000000031
 10
404.5288939226096
 20
283.8625000000001
  0
LWPOLYLINE
  5
5F0
330
1A
100
AcDbEntity
  8
ZUWAKU
100
AcDbPolyline
 90
        4
 70
     1
 43
0.0
 10
6.128893922609393
 20
283.6625000000001
 10
6.128893922609393
 20
8.462500000000009
 10
404.3288939226095
 20
8.462500000000032
 10
404.3288939226095
 20
283.6625000000001
  0
LWPOLYLINE
  5
5F1
330
1A
100
AcDbEntity
  8
ZUWAKU
100
AcDbPolyline
 90
        4
 70
     1
 43
0.0
 10
5.828893922609438
 20
283.9625
 10
5.828893922609438
 20
8.162499999999997
 10
404.6288939226094
 20
8.162500000000031
 10
404.6288939226094
 20
283.9625000000001
  0
LWPOLYLINE
  5
5F2
330
1A
100
AcDbEntity
  8
ZUWAKU
100
AcDbPolyline
 90
        4
 70
     1
 43
0.0
 10
6.028893922609427
 20
283.7625
 10
6.028893922609427
 20
8.362500000000043
 10
404.4288939226095
 20
8.362500000000032
 10
404.4288939226095
 20
283.7625
  0
LWPOLYLINE
  5
5F3
330
1A
100
AcDbEntity
  8
ZUWAKU
100
AcDbPolyline
 90
        4
 70
     1
 43
0.0
 10
6.228893922609415
 20
283.5625000000001
 10
6.228893922609415
 20
8.562500000000031
 10
404.2288939226094
 20
8.562500000000031
 10
404.2288939226094
 20
283.5625000000001
  0
LINE
  5
2BA1
330
1A
100
AcDbEntity
  8
ZUWAKU
100
AcDbLine
 10
110.1521945676434
 20
15.76250000000001
 30
0.0
 11
229.5410759081051
 21
15.76250000000001
 31
0.0
  0
LINE
  5
2BA2
330
1A
100
AcDbEntity
  8
ZUWAKU
100
AcDbLine
 10
110.1521945676434
 20
15.96250000000001
 30
0.0
 11
229.5410759081051
 21
15.96250000000001
 31
0.0
  0
LINE
  5
2BA3
330
1A
100
AcDbEntity
  8
ZUWAKU
100
AcDbLine
 10
110.1521945676434
 20
15.86250000000001
 30
0.0
 11
229.5410759081051
 21
15.86250000000001
 31
0.0
  0
LINE
  5
2BA4
330
1A
100
AcDbEntity
  8
ZUWAKU
100
AcDbLine
 10
5.828893922609552
 20
23.56250000000001
 30
0.0
 11
404.5288939226093
 21
23.56250000000001
 31
0.0
  0
LINE
  5
2BA5
330
1A
100
AcDbEntity
  8
ZUWAKU
100
AcDbLine
 10
5.828893922609552
 20
23.4625
 30
0.0
 11
404.5288939226093
 21
23.4625
 31
0.0
  0
LINE
  5
2BA6
330
1A
100
AcDbEntity
  8
ZUWAKU
100
AcDbLine
 10
5.828893922609552
 20
23.3625
 30
0.0
 11
404.5288939226093
 21
23.3625
 31
0.0
  0
LINE
  5
2BA7
330
1A
100
AcDbEntity
  8
ZUWAKU
100
AcDbLine
 10
5.828893922609552
 20
23.2625
 30
0.0
 11
404.5288939226093
 21
23.2625
 31
0.0
  0
LINE
  5
2BA8
330
1A
100
AcDbEntity
  8
ZUWAKU
100
AcDbLine
 10
5.828893922609552
 20
23.1625
 30
0.0
 11
404.5288939226093
 21
23.1625
 31
0.0
  0
LINE
  5
2BB0
330
1A
100
AcDbEntity
  8
ZUWAKU
100
AcDbLine
 10
14.62500000000005
 20
18.3875
 30
0.0
 11
13.1375000000001
 21
18.3875
 31
0.0
  0
ARC
  5
2BB1
330
1A
100
AcDbEntity
  8
ZUWAKU
100
AcDbCircle
 10
13.75000000000005
 20
13.1375
 30
0.0
 40
1.399999999999999
100
AcDbArc
 50
270.0
 51
0.0
  0
INSERT
  5
2BB2
330
1A
100
AcDbEntity
  8
ZUWAKU
  6
Continuous
100
AcDbBlockReference
  2
*X1
 10
6.974760957169621
 20
5.108706858588675
 30
0.0
 41
0.5
 42
0.5
 43
0.5
1001
ACAD
1000
HATCH
1002
{
1070
    19
1000
ANSI37
1040
0.2
1040
0.0
1000
R14_HATCH_DATA
1000
4E4
1011
7.474760957169621
1021
5.108706858588675
1031
0.0
1011
6.974760957169621
1021
5.608706858588675
1031
0.0
1011
6.974760957169621
1021
5.108706858588675
1031
0.5
1040
0.0
1010
0.0
1020
0.0
1030
1.0
1000
ANSI37
1070
     0
1070
     0
1071
        8
1071
        7
1070
     1
1070
     1
1071
       24
1040
12.2105285919996
1040
23.75243476380623
1040
-0.1989123673796348
1040
11.80047808566087
1040
24.74238425746728
1040
0.0
1040
11.80047808566087
1040
26.03258628282266
1040
-0.4142135623730912
1040
12.32547808566085
1040
26.55758628282265
1040
0.0
1040
15.30047808566076
1040
26.55758628282265
1040
0.4142135623731546
1040
15.82547808566085
1040
27.08258628282264
1040
0.0
1040
15.82547808566085
1040
28.83258628282265
1040
0.4142135623731586
1040
15.30047808566076
1040
29.35758628282265
1040
0.0
1040
11.80047808566087
1040
29.35758628282265
1040
0.4142135623730928
1040
9.000478085660915
1040
26.55758628282268
1040
0.0
1040
9.000478085660915
1040
24.74238425746741
1040
0.1989123673796619
1040
10.23062960467735
1040
21.7725357764838
1040
0.0
1040
13.14042757932202
1040
18.86273780183914
1040
-0.1989123673796613
1040
13.55047808566087
1040
17.87278830817795
1040
0.0
1040
13.55047808566087
1040
16.58258628282264
1040
-0.4142135623730911
1040
13.02547808566089
1040
16.05758628282265
1040
0.0
1040
10.05047808566098
1040
16.05758628282265
1040
0.4142135623731526
1040
9.525478085660893
1040
15.53258628282266
1040
0.0
1040
9.525478085660893
1040
13.78258628282264
1040
0.4142135623731526
1040
10.05047808566098
1040
13.25758628282265
1040
0.0
1040
13.55047808566087
1040
13.25758628282265
1040
0.4142135623731044
1040
16.35047808566094
1040
16.05758628282262
1040
0.0
1040
16.35047808566094
1040
17.87278830817789
1040
0.1989123673796604
1040
15.12032656664439
1040
20.84263678916144
1040
0.0
1071
        0
1071
        7
1070
     1
1070
     1
1071
       16
1040
21.25047808566092
1040
25.15758628282266
1040
-0.4142135623730935
1040
22.65047808566089
1040
26.55758628282265
1040
0.0
1040
24.57547808566085
1040
26.55758628282265
1040
0.4142135623731546
1040
25.10047808566094
1040
27.08258628282264
1040
0.0
1040
25.10047808566094
1040
28.83258628282265
1040
0.4142135623730951
1040
24.57547808566096
1040
29.35758628282265
1040
0.0
1040
22.65047808566078
1040
29.35758628282261
1040
0.4142135623730892
1040
18.45047808566085
1040
25.15758628282259
1040
0.0
1040
18.45047808566085
1040
17.45758628282267
1040
0.4142135623730969
1040
22.65047808566089
1040
13.25758628282265
1040
0.0
1040
24.57547808566085
1040
13.25758628282265
1040
0.4142135623731526
1040
25.10047808566094
1040
13.78258628282264
1040
0.0
1040
25.10047808566094
1040
15.53258628282266
1040
0.4142135623730891
1040
24.57547808566096
1040
16.05758628282265
1040
0.0
1040
22.65047808566089
1040
16.05758628282265
1040
-0.4142135623730928
1040
21.25047808566092
1040
17.45758628282264
1040
0.0
1071
        0
1071
        7
1070
     1
1070
     1
1071
        2
1040
21.95047808566085
1040
21.30758628282265
1040
1.0
1040
25.45047808566085
1040
21.30758628282265
1040
1.0
1071
        0
1071
        7
1070
     1
1070
     1
1071
       26
1040
35.02312456783887
1040
25.31263347638608
1040
0.0
1040
36.08476420097668
1040
28.67449231465567
1040
0.5069206636600134
1040
35.58413330178132
1040
29.35758628282265
1040
0.0
1040
33.8852439221721
1040
29.35758628282265
1040
0.3272098845218764
1040
33.38461302297674
1040
28.99068025098962
1040
0.0
1040
31.51634314834496
1040
23.07449231465573
1040
-0.3272098845219541
1040
31.01571224914949
1040
22.70758628282265
1040
0.0
1040
30.87547808566103
1040
22.70758628282265
1040
-0.4142135623731526
1040
30.35047808566094
1040
23.23258628282263
1040
0.0
1040
30.35047808566094
1040
28.83258628282265
1040
0.4142135623730951
1040
29.82547808566096
1040
29.35758628282265
1040
0.0
1040
28.07547808566085
1040
29.35758628282265
1040
0.4142135623730871
1040
27.55047808566087
1040
28.83258628282267
1040
0.0
1040
27.55047808566087
1040
13.78258628282264
1040
0.4142135623730891
1040
28.07547808566085
1040
13.25758628282265
1040
0.0
1040
29.82547808566085
1040
13.25758628282265
1040
0.4142135623731526
1040
30.35047808566094
1040
13.78258628282264
1040
0.0
1040
30.35047808566094
1040
19.38258628282266
1040
-0.4142135623731526
1040
30.87547808566103
1040
19.90758628282265
1040
0.0
1040
31.0157122491496
1040
19.90758628282265
1040
-0.3272098845218915
1040
31.51634314834496
1040
19.54068025098957
1040
0.0
1040
33.38461302297674
1040
13.62449231465572
1040
0.3272098845218902
1040
33.8852439221721
1040
13.25758628282265
1040
0.0
1040
35.58413330178132
1040
13.25758628282265
1040
0.5069206636600335
1040
36.08476420097668
1040
13.94068025098966
1040
0.0
1040
33.75837282250302
1040
21.30758628282279
1040
0.0
1071
        0
1071
        7
1070
     1
1070
     1
1071
        8
1040
41.20047808566084
1040
28.83258628282266
1040
0.4142135623731546
1040
40.67547808566075
1040
29.35758628282265
1040
0.0
1040
38.92547808566098
1040
29.35758628282265
1040
0.4142135623731507
1040
38.40047808566089
1040
28.83258628282267
1040
0.0
1040
38.40047808566089
1040
13.78258628282264
1040
0.4142135623731526
1040
38.92547808566098
1040
13.25758628282265
1040
0.0
1040
40.67547808566075
1040
13.25758628282265
1040
0.4142135623731526
1040
41.20047808566084
1040
13.78258628282264
1040
0.0
1071
        0
1071
        7
1070
     1
1070
     1
1071
       24
1040
46.10047808566093
1040
26.03258628282266
1040
-0.4142135623731546
1040
46.62547808566102
1040
26.55758628282265
1040
0.0
1040
49.60047808566094
1040
26.55758628282265
1040
0.4142135623730911
1040
50.12547808566091
1040
27.08258628282264
1040
0.0
1040
50.12547808566091
1040
28.83258628282265
1040
0.4142135623730952
1040
49.60047808566094
1040
29.35758628282265
1040
0.0
1040
46.10047808566093
1040
29.35758628282265
1040
0.4142135623731048
1040
43.30047808566087
1040
26.55758628282268
1040
0.0
1040
43.30047808566087
1040
24.74238425746741
1040
0.1989123673796613
1040
44.53062960467741
1040
21.77253577648386
1040
0.0
1040
47.44042757932208
1040
18.86273780183919
1040
-0.1989123673796402
1040
47.85047808566093
1040
17.87278830817811
1040
0.0
1040
47.85047808566093
1040
16.58258628282264
1040
-0.4142135623730911
1040
47.32547808566096
1040
16.05758628282265
1040
0.0
1040
44.35047808566094
1040
16.05758628282265
1040
0.4142135623731526
1040
43.82547808566084
1040
15.53258628282266
1040
0.0
1040
43.82547808566084
1040
13.78258628282264
1040
0.4142135623730891
1040
44.35047808566082
1040
13.25758628282265
1040
0.0
1040
47.85047808566093
1040
13.25758628282265
1040
0.4142135623730925
1040
50.65047808566089
1040
16.05758628282262
1040
0.0
1040
50.65047808566089
1040
17.87278830817789
1040
0.1989123673796675
1040
49.42032656664435
1040
20.84263678916155
1040
0.0
1040
46.51052859199978
1040
23.75243476380607
1040
-0.1989123673796652
1040
46.10047808566093
1040
24.74238425746724
1040
0.0
1071
        0
1071
        7
1070
     1
1070
     1
1071
       16
1040
55.55047808566087
1040
28.83258628282264
1040
0.414213562373103
1040
55.02547808566089
1040
29.35758628282265
1040
0.0
1040
53.27547808566089
1040
29.35758628282265
1040
0.4142135623730871
1040
52.75047808566092
1040
28.83258628282267
1040
0.0
1040
52.75047808566092
1040
16.05758628282262
1040
0.4142135623730926
1040
55.55047808566087
1040
13.25758628282265
1040
0.0
1040
59.05047808566087
1040
13.25758628282265
1040
0.4142135623731044
1040
61.85047808566094
1040
16.05758628282262
1040
0.0
1040
61.85047808566094
1040
28.83258628282265
1040
0.4142135623730951
1040
61.32547808566096
1040
29.35758628282265
1040
0.0
1040
59.57547808566085
1040
29.35758628282265
1040
0.4142135623730871
1040
59.05047808566087
1040
28.83258628282267
1040
0.0
1040
59.05047808566087
1040
17.10758628282262
1040
-0.414213562373088
1040
58.00047808566091
1040
16.05758628282265
1040
0.0
1040
56.60047808566094
1040
16.05758628282265
1040
-0.4142135623731197
1040
55.55047808566087
1040
17.10758628282262
1040
0.0
1071
        0
1071
        7
1070
     1
1070
     1
1071
        8
1040
66.75047808566091
1040
28.83258628282267
1040
0.4142135623730871
1040
66.22547808566094
1040
29.35758628282265
1040
0.0
1040
64.47547808566094
1040
29.35758628282265
1040
0.4142135623731507
1040
63.95047808566085
1040
28.83258628282267
1040
0.0
1040
63.95047808566085
1040
13.78258628282264
1040
0.4142135623730891
1040
64.47547808566082
1040
13.25758628282265
1040
0.0
1040
66.22547808566094
1040
13.25758628282265
1040
0.4142135623730891
1040
66.75047808566091
1040
13.78258628282264
1040
0.0
1071
        0
1070
     0
1070
     1
1040
0.0
1040
0.2
1070
     0
1070
     2
1040
0.7853981633974483
1040
-903.2340384037992
1040
-7.092413717177286
1040
-0.4490128060534576
1040
0.4490128060534577
1070
     0
1040
2.356194490192344
1040
-903.2340384037992
1040
-7.092413717177286
1040
-0.4490128060534577
1040
-0.4490128060534576
1070
     0
1040
0.057451373970553
1071
        8
1040
13.78812089390305
1040
21.2747599287082
1040
0.0
1040
20.11278093731892
1040
24.95164846527366
1040
0.0
1040
22.87263381653941
1040
21.61946792889336
1040
0.0
1040
28.62232591251689
1040
22.30888392926415
1040
0.0
1040
39.54673794983648
1040
22.76849619680576
1040
0.0
1040
44.6064668260093
1040
25.52616259922986
1040
0.0
1040
54.2659519032801
1040
24.83674419791766
1040
0.0
1040
65.53534555050248
1040
25.29635646545928
1040
0.0
1002
}
  0
LINE
  5
2BB3
330
1A
100
AcDbEntity
  8
ZUWAKU
100
AcDbLine
 10
12.87500000000006
 20
19.7875
 30
0.0
 11
14.62500000000005
 21
19.7875
 31
0.0
  0
LINE
  5
2BB4
330
1A
100
AcDbEntity
  8
ZUWAKU
100
AcDbLine
 10
14.53492424049187
 20
15.53002525316941
 30
0.0
 11
13.08002525316948
 21
16.98492424049175
 31
0.0
  0
ARC
  5
2BB5
330
1A
100
AcDbEntity
  8
ZUWAKU
100
AcDbCircle
 10
13.5750000000001
 20
17.47989898732235
 30
0.0
 40
2.099999999999999
100
AcDbArc
 50
180.0
 51
224.9999999999996
  0
ARC
  5
2BB6
330
1A
100
AcDbEntity
  8
ZUWAKU
100
AcDbCircle
 10
13.05000000000001
 20
14.04510101267767
 30
0.0
 40
0.7
100
AcDbArc
 50
0.0
 51
44.99999999999955
  0
LINE
  5
2BB7
330
1A
100
AcDbEntity
  8
ZUWAKU
100
AcDbLine
 10
13.75000000000005
 20
13.4
 30
0.0
 11
13.75000000000005
 21
14.04510101267767
 31
0.0
  0
ARC
  5
2BB8
330
1A
100
AcDbEntity
  8
ZUWAKU
100
AcDbCircle
 10
13.48750000000001
 20
13.4
 30
0.0
 40
0.2625
100
AcDbArc
 50
270.0
 51
0.0
  0
LINE
  5
2BB9
330
1A
100
AcDbEntity
  8
ZUWAKU
100
AcDbLine
 10
11.73750000000001
 20
12.0
 30
0.0
 11
11.73750000000001
 21
12.875
 31
0.0
  0
ARC
  5
2BBA
330
1A
100
AcDbEntity
  8
ZUWAKU
100
AcDbCircle
 10
12.00000000000005
 20
12.0
 30
0.0
 40
0.2625
100
AcDbArc
 50
180.0
 51
270.0
  0
ARC
  5
2BBB
330
1A
100
AcDbEntity
  8
ZUWAKU
100
AcDbCircle
 10
12.00000000000005
 20
12.875
 30
0.0
 40
0.2625
100
AcDbArc
 50
90.0
 51
180.0
  0
LINE
  5
2BBC
330
1A
100
AcDbEntity
  8
ZUWAKU
100
AcDbLine
 10
12.00000000000005
 20
11.7375
 30
0.0
 11
13.75000000000005
 21
11.7375
 31
0.0
  0
LINE
  5
2BBD
330
1A
100
AcDbEntity
  8
ZUWAKU
100
AcDbLine
 10
12.00000000000005
 20
13.1375
 30
0.0
 11
13.48750000000001
 21
13.1375
 31
0.0
  0
LINE
  5
2BBE
330
1A
100
AcDbEntity
  8
ZUWAKU
100
AcDbLine
 10
12.09007575950824
 20
15.99497474683059
 30
0.0
 11
13.54497474683063
 21
14.54007575950826
 31
0.0
  0
LINE
  5
2BBF
330
1A
100
AcDbEntity
  8
ZUWAKU
100
AcDbLine
 10
12.87500000000006
 20
18.125
 30
0.0
 11
12.87500000000006
 21
17.47989898732233
 31
0.0
  0
LINE
  5
2BC0
330
1A
100
AcDbEntity
  8
ZUWAKU
100
AcDbLine
 10
11.47500000000008
 20
18.3875
 30
0.0
 11
11.47500000000008
 21
17.47989898732233
 31
0.0
  0
ARC
  5
2BC1
330
1A
100
AcDbEntity
  8
ZUWAKU
100
AcDbCircle
 10
12.87500000000006
 20
18.3875
 30
0.0
 40
1.399999999999999
100
AcDbArc
 50
90.0
 51
180.0
  0
ARC
  5
2BC2
330
1A
100
AcDbEntity
  8
ZUWAKU
100
AcDbCircle
 10
13.5750000000001
 20
17.47989898732235
 30
0.0
 40
0.7
100
AcDbArc
 50
180.0000000000016
 51
224.9999999999994
  0
ARC
  5
2BC3
330
1A
100
AcDbEntity
  8
ZUWAKU
100
AcDbCircle
 10
13.1375000000001
 20
18.125
 30
0.0
 40
0.2625
100
AcDbArc
 50
90.0
 51
180.0
  0
LINE
  5
2BC4
330
1A
100
AcDbEntity
  8
ZUWAKU
100
AcDbLine
 10
45.49220869660354
 20
23.1625
 30
0.0
 11
45.49220869660376
 21
8.562500000000031
 31
0.0
  0
LINE
  5
2BC5
330
1A
100
AcDbEntity
  8
ZUWAKU
100
AcDbLine
 10
45.59220869660367
 20
23.1625
 30
0.0
 11
45.59220869660367
 21
8.562500000000031
 31
0.0
  0
LINE
  5
2BC6
330
1A
100
AcDbEntity
  8
ZUWAKU
100
AcDbLine
 10
45.39220869660363
 20
23.1625
 30
0.0
 11
45.39220869660363
 21
8.562500000000031
 31
0.0
  0
LINE
  5
2BC7
330
1A
100
AcDbEntity
  8
ZUWAKU
100
AcDbLine
 10
30.02500000000015
 20
19.7875
 30
0.0
 11
31.77500000000015
 21
19.7875
 31
0.0
  0
LINE
  5
2BC8
330
1A
100
AcDbEntity
  8
ZUWAKU
100
AcDbLine
 10
31.77500000000015
 20
18.3875
 30
0.0
 11
30.2875000000002
 21
18.3875
 31
0.0
  0
LINE
  5
2BC9
330
1A
100
AcDbEntity
  8
ZUWAKU
100
AcDbLine
 10
31.68492424049174
 20
15.53002525316941
 30
0.0
 11
30.23002525316935
 21
16.98492424049175
 31
0.0
  0
LINE
  5
2BCA
330
1A
100
AcDbEntity
  8
ZUWAKU
100
AcDbLine
 10
29.15000000000015
 20
13.1375
 30
0.0
 11
30.6375000000001
 21
13.1375
 31
0.0
  0
LINE
  5
2BCB
330
1A
100
AcDbEntity
  8
ZUWAKU
100
AcDbLine
 10
29.15000000000015
 20
11.7375
 30
0.0
 11
30.90000000000015
 21
11.7375
 31
0.0
  0
LINE
  5
2BCC
330
1A
100
AcDbEntity
  8
ZUWAKU
100
AcDbLine
 10
29.24007575950833
 20
15.99497474683059
 30
0.0
 11
30.69497474683072
 21
14.54007575950826
 31
0.0
  0
ARC
  5
2BCD
330
1A
100
AcDbEntity
  8
ZUWAKU
100
AcDbCircle
 10
21.8875000000001
 20
19.525
 30
0.0
 40
0.2625
100
AcDbArc
 50
0.0
 51
90.0
  0
ARC
  5
2BCE
330
1A
100
AcDbEntity
  8
ZUWAKU
100
AcDbCircle
 10
22.41250000000019
 20
16.725
 30
0.0
 40
0.2625
100
AcDbArc
 50
180.0
 51
270.0
  0
ARC
  5
2BCF
330
1A
100
AcDbEntity
  8
ZUWAKU
100
AcDbCircle
 10
21.8875000000001
 20
12.0
 30
0.0
 40
0.2625
100
AcDbArc
 50
270.0
 51
0.0
  0
ARC
  5
2BD0
330
1A
100
AcDbEntity
  8
ZUWAKU
100
AcDbCircle
 10
22.41250000000019
 20
14.8
 30
0.0
 40
0.2625
100
AcDbArc
 50
90.0
 51
180.0
  0
CIRCLE
  5
2BD1
330
1A
100
AcDbEntity
  8
ZUWAKU
100
AcDbCircle
 10
18.8250000000001
 20
15.7625
 30
0.0
 40
0.875
  0
LINE
  5
2BD2
330
1A
100
AcDbEntity
  8
ZUWAKU
100
AcDbLine
 10
17.60000000000008
 20
17.6875
 30
0.0
 11
17.60000000000008
 21
13.8375
 31
0.0
  0
LINE
  5
2BD3
330
1A
100
AcDbEntity
  8
ZUWAKU
100
AcDbLine
 10
16.2000000000001
 20
13.8375
 30
0.0
 11
16.2000000000001
 21
17.68749999999998
 31
0.0
  0
LINE
  5
2BD4
330
1A
100
AcDbEntity
  8
ZUWAKU
100
AcDbLine
 10
20.75000000000006
 20
19.525
 30
0.0
 11
20.75000000000006
 21
12.0
 31
0.0
  0
ARC
  5
2BD5
330
1A
100
AcDbEntity
  8
ZUWAKU
100
AcDbCircle
 10
18.30000000000001
 20
13.8375
 30
0.0
 40
0.7
100
AcDbArc
 50
180.0
 51
270.0
  0
ARC
  5
2BD6
330
1A
100
AcDbEntity
  8
ZUWAKU
100
AcDbCircle
 10
18.30000000000001
 20
13.8375
 30
0.0
 40
2.099999999999999
100
AcDbArc
 50
180.0
 51
270.0
  0
LINE
  5
2BD7
330
1A
100
AcDbEntity
  8
ZUWAKU
100
AcDbLine
 10
15.15000000000014
 20
13.1375
 30
0.0
 11
15.15000000000014
 21
14.04510101267767
 31
0.0
  0
ARC
  5
2BD8
330
1A
100
AcDbEntity
  8
ZUWAKU
100
AcDbCircle
 10
13.05000000000001
 20
14.04510101267765
 30
0.0
 40
2.099999999999999
100
AcDbArc
 50
0.0
 51
44.99999999999955
  0
LINE
  5
2BD9
330
1A
100
AcDbEntity
  8
ZUWAKU
100
AcDbLine
 10
18.30000000000001
 20
13.1375
 30
0.0
 11
19.2625000000001
 21
13.1375
 31
0.0
  0
LINE
  5
2BDA
330
1A
100
AcDbEntity
  8
ZUWAKU
100
AcDbLine
 10
19.2625000000001
 20
11.7375
 30
0.0
 11
18.30000000000001
 21
11.7375
 31
0.0
  0
LINE
  5
2BDB
330
1A
100
AcDbEntity
  8
ZUWAKU
100
AcDbLine
 10
19.52500000000014
 20
12.875
 30
0.0
 11
19.52500000000014
 21
12.0
 31
0.0
  0
ARC
  5
2BDC
330
1A
100
AcDbEntity
  8
ZUWAKU
100
AcDbCircle
 10
19.2625000000001
 20
12.0
 30
0.0
 40
0.2625
100
AcDbArc
 50
270.0
 51
0.0
  0
ARC
  5
2BDD
330
1A
100
AcDbEntity
  8
ZUWAKU
100
AcDbCircle
 10
19.2625000000001
 20
12.875
 30
0.0
 40
0.2625
100
AcDbArc
 50
0.0
 51
90.0
  0
ARC
  5
2BDE
330
1A
100
AcDbEntity
  8
ZUWAKU
100
AcDbCircle
 10
21.0125000000001
 20
12.0
 30
0.0
 40
0.2625
100
AcDbArc
 50
180.0
 51
270.0
  0
LINE
  5
2BDF
330
1A
100
AcDbEntity
  8
ZUWAKU
100
AcDbLine
 10
21.0125000000001
 20
11.7375
 30
0.0
 11
21.8875000000001
 21
11.7375
 31
0.0
  0
ARC
  5
2BE0
330
1A
100
AcDbEntity
  8
ZUWAKU
100
AcDbCircle
 10
18.30000000000001
 20
17.6875
 30
0.0
 40
0.7
100
AcDbArc
 50
90.0
 51
180.0
  0
ARC
  5
2BE1
330
1A
100
AcDbEntity
  8
ZUWAKU
100
AcDbCircle
 10
18.30000000000001
 20
17.68749999999998
 30
0.0
 40
2.099999999999999
100
AcDbArc
 50
90.0
 51
180.0
  0
ARC
  5
2BE2
330
1A
100
AcDbEntity
  8
ZUWAKU
100
AcDbCircle
 10
14.62500000000005
 20
19.525
 30
0.0
 40
0.2625
100
AcDbArc
 50
0.0
 51
90.0
  0
ARC
  5
2BE3
330
1A
100
AcDbEntity
  8
ZUWAKU
100
AcDbCircle
 10
14.62500000000005
 20
18.65
 30
0.0
 40
0.2625
100
AcDbArc
 50
270.0
 51
0.0
  0
LINE
  5
2BE4
330
1A
100
AcDbEntity
  8
ZUWAKU
100
AcDbLine
 10
14.8875000000001
 20
19.525
 30
0.0
 11
14.8875000000001
 21
18.65
 31
0.0
  0
LINE
  5
2BE5
330
1A
100
AcDbEntity
  8
ZUWAKU
100
AcDbLine
 10
18.30000000000001
 20
19.78749999999998
 30
0.0
 11
19.2625000000001
 21
19.7875
 31
0.0
  0
LINE
  5
2BE6
330
1A
100
AcDbEntity
  8
ZUWAKU
100
AcDbLine
 10
19.2625000000001
 20
18.3875
 30
0.0
 11
18.30000000000001
 21
18.3875
 31
0.0
  0
ARC
  5
2BE7
330
1A
100
AcDbEntity
  8
ZUWAKU
100
AcDbCircle
 10
19.2625000000001
 20
19.525
 30
0.0
 40
0.2625
100
AcDbArc
 50
0.0
 51
90.0
  0
ARC
  5
2BE8
330
1A
100
AcDbEntity
  8
ZUWAKU
100
AcDbCircle
 10
21.0125000000001
 20
19.525
 30
0.0
 40
0.2625
100
AcDbArc
 50
90.0
 51
180.0
  0
ARC
  5
2BE9
330
1A
100
AcDbEntity
  8
ZUWAKU
100
AcDbCircle
 10
19.2625000000001
 20
18.65
 30
0.0
 40
0.2625
100
AcDbArc
 50
270.0
 51
0.0
  0
LINE
  5
2BEA
330
1A
100
AcDbEntity
  8
ZUWAKU
100
AcDbLine
 10
19.52500000000014
 20
19.525
 30
0.0
 11
19.52500000000014
 21
18.65
 31
0.0
  0
LINE
  5
2BEB
330
1A
100
AcDbEntity
  8
ZUWAKU
100
AcDbLine
 10
21.8875000000001
 20
19.7875
 30
0.0
 11
21.0125000000001
 21
19.7875
 31
0.0
  0
ARC
  5
2BEC
330
1A
100
AcDbEntity
  8
ZUWAKU
100
AcDbCircle
 10
30.72500000000019
 20
17.47989898732235
 30
0.0
 40
2.099999999999999
100
AcDbArc
 50
180.0
 51
224.9999999999996
  0
LINE
  5
2BED
330
1A
100
AcDbEntity
  8
ZUWAKU
100
AcDbLine
 10
24.486323241089
 20
17.76502359678171
 30
0.0
 11
23.85394736842119
 21
15.76250000000001
 31
0.0
  0
LINE
  5
2BEE
330
1A
100
AcDbEntity
  8
ZUWAKU
100
AcDbLine
 10
26.17500000000001
 20
19.525
 30
0.0
 11
26.17500000000001
 21
12.0
 31
0.0
  0
LINE
  5
2BEF
330
1A
100
AcDbEntity
  8
ZUWAKU
100
AcDbLine
 10
27.5750000000001
 20
12.0
 30
0.0
 11
27.5750000000001
 21
19.525
 31
0.0
  0
ARC
  5
2BF0
330
1A
100
AcDbEntity
  8
ZUWAKU
100
AcDbCircle
 10
26.43750000000006
 20
12.0
 30
0.0
 40
0.2625
100
AcDbArc
 50
180.0
 51
270.0
  0
LINE
  5
2BF1
330
1A
100
AcDbEntity
  8
ZUWAKU
100
AcDbLine
 10
22.15000000000015
 20
12.0
 30
0.0
 11
22.15000000000015
 21
14.8
 31
0.0
  0
LINE
  5
2BF2
330
1A
100
AcDbEntity
  8
ZUWAKU
100
AcDbLine
 10
23.66706746865799
 20
11.92095301591651
 30
0.0
 11
22.73293253134199
 21
14.87904698408348
 31
0.0
  0
LINE
  5
2BF3
330
1A
100
AcDbEntity
  8
ZUWAKU
100
AcDbLine
 10
23.91738291825578
 20
11.7375
 30
0.0
 11
24.76682760806017
 21
11.7375
 31
0.0
  0
ARC
  5
2BF4
330
1A
100
AcDbEntity
  8
ZUWAKU
100
AcDbCircle
 10
24.76682760806017
 20
12.0
 30
0.0
 40
0.2625
100
AcDbArc
 50
270.0
 51
17.52556837372243
  0
ARC
  5
2BF5
330
1A
100
AcDbEntity
  8
ZUWAKU
100
AcDbCircle
 10
23.91738291825578
 20
12.0
 30
0.0
 40
0.2625
100
AcDbArc
 50
197.5255683737224
 51
270.0
  0
LINE
  5
2BF6
330
1A
100
AcDbEntity
  8
ZUWAKU
100
AcDbLine
 10
22.41250000000019
 20
15.0625
 30
0.0
 11
22.48261708174442
 21
15.0625
 31
0.0
  0
LINE
  5
2BF7
330
1A
100
AcDbEntity
  8
ZUWAKU
100
AcDbLine
 10
25.01714305765796
 20
12.07904698408349
 30
0.0
 11
23.85394736842119
 21
15.76250000000001
 31
0.0
  0
ARC
  5
2BF8
330
1A
100
AcDbEntity
  8
ZUWAKU
100
AcDbCircle
 10
22.48261708174442
 20
14.8
 30
0.0
 40
0.2625
100
AcDbArc
 50
17.52556837372243
 51
90.0
  0
LINE
  5
2BF9
330
1A
100
AcDbEntity
  8
ZUWAKU
100
AcDbLine
 10
26.43750000000006
 20
11.7375
 30
0.0
 11
27.31250000000006
 21
11.7375
 31
0.0
  0
LINE
  5
2BFA
330
1A
100
AcDbEntity
  8
ZUWAKU
100
AcDbLine
 10
28.8875000000001
 20
12.0
 30
0.0
 11
28.8875000000001
 21
12.875
 31
0.0
  0
ARC
  5
2BFB
330
1A
100
AcDbEntity
  8
ZUWAKU
100
AcDbCircle
 10
29.15000000000015
 20
12.0
 30
0.0
 40
0.2625
100
AcDbArc
 50
180.0
 51
270.0
  0
ARC
  5
2BFC
330
1A
100
AcDbEntity
  8
ZUWAKU
100
AcDbCircle
 10
27.31250000000006
 20
12.0
 30
0.0
 40
0.2625
100
AcDbArc
 50
270.0
 51
0.0
  0
ARC
  5
2BFD
330
1A
100
AcDbEntity
  8
ZUWAKU
100
AcDbCircle
 10
29.15000000000015
 20
12.875
 30
0.0
 40
0.2625
100
AcDbArc
 50
90.0
 51
180.0
  0
ARC
  5
2BFE
330
1A
100
AcDbEntity
  8
ZUWAKU
100
AcDbCircle
 10
26.43750000000006
 20
19.525
 30
0.0
 40
0.2625
100
AcDbArc
 50
90.0
 51
180.0
  0
LINE
  5
2BFF
330
1A
100
AcDbEntity
  8
ZUWAKU
100
AcDbLine
 10
23.66706746865799
 20
19.60404698408348
 30
0.0
 11
22.73293253134199
 21
16.64595301591651
 31
0.0
  0
ARC
  5
2C00
330
1A
100
AcDbEntity
  8
ZUWAKU
100
AcDbCircle
 10
22.48261708174442
 20
16.725
 30
0.0
 40
0.2625
100
AcDbArc
 50
270.0
 51
342.4744316262775
  0
LINE
  5
2C01
330
1A
100
AcDbEntity
  8
ZUWAKU
100
AcDbLine
 10
22.48261708174442
 20
16.4625
 30
0.0
 11
22.41250000000019
 21
16.4625
 31
0.0
  0
LINE
  5
2C02
330
1A
100
AcDbEntity
  8
ZUWAKU
100
AcDbLine
 10
22.15000000000015
 20
16.725
 30
0.0
 11
22.15000000000015
 21
19.525
 31
0.0
  0
LINE
  5
2C03
330
1A
100
AcDbEntity
  8
ZUWAKU
100
AcDbLine
 10
23.91738291825578
 20
19.7875
 30
0.0
 11
24.76682760806017
 21
19.7875
 31
0.0
  0
ARC
  5
2C04
330
1A
100
AcDbEntity
  8
ZUWAKU
100
AcDbCircle
 10
24.76682760806017
 20
19.525
 30
0.0
 40
0.2625
100
AcDbArc
 50
342.4744316262775
 51
90.0
  0
LINE
  5
2C05
330
1A
100
AcDbEntity
  8
ZUWAKU
100
AcDbLine
 10
25.01714305765796
 20
19.44595301591651
 30
0.0
 11
24.486323241089
 21
17.76502359678171
 31
0.0
  0
ARC
  5
2C06
330
1A
100
AcDbEntity
  8
ZUWAKU
100
AcDbCircle
 10
23.91738291825578
 20
19.525
 30
0.0
 40
0.2625
100
AcDbArc
 50
90.0
 51
162.4744316262774
  0
ARC
  5
2C07
330
1A
100
AcDbEntity
  8
ZUWAKU
100
AcDbCircle
 10
30.2875000000002
 20
18.125
 30
0.0
 40
0.2625
100
AcDbArc
 50
90.0
 51
180.0
  0
LINE
  5
2C08
330
1A
100
AcDbEntity
  8
ZUWAKU
100
AcDbLine
 10
30.02500000000015
 20
18.125
 30
0.0
 11
30.02500000000015
 21
17.47989898732233
 31
0.0
  0
ARC
  5
2C09
330
1A
100
AcDbEntity
  8
ZUWAKU
100
AcDbCircle
 10
30.72500000000019
 20
17.47989898732235
 30
0.0
 40
0.7
100
AcDbArc
 50
180.0000000000016
 51
224.9999999999994
  0
LINE
  5
2C0A
330
1A
100
AcDbEntity
  8
ZUWAKU
100
AcDbLine
 10
27.31250000000006
 20
19.7875
 30
0.0
 11
26.43750000000006
 21
19.7875
 31
0.0
  0
ARC
  5
2C0B
330
1A
100
AcDbEntity
  8
ZUWAKU
100
AcDbCircle
 10
27.31250000000006
 20
19.525
 30
0.0
 40
0.2625
100
AcDbArc
 50
0.0
 51
90.0
  0
LINE
  5
2C0C
330
1A
100
AcDbEntity
  8
ZUWAKU
100
AcDbLine
 10
28.62500000000006
 20
18.3875
 30
0.0
 11
28.62500000000006
 21
17.47989898732233
 31
0.0
  0
ARC
  5
2C0D
330
1A
100
AcDbEntity
  8
ZUWAKU
100
AcDbCircle
 10
30.02500000000015
 20
18.3875
 30
0.0
 40
1.399999999999999
100
AcDbArc
 50
90.0
 51
180.0
  0
LINE
  5
2C0E
330
1A
100
AcDbEntity
  8
ZUWAKU
100
AcDbLine
 10
37.90000000000015
 20
13.1375
 30
0.0
 11
37.90000000000015
 21
19.525
 31
0.0
  0
LINE
  5
2C0F
330
1A
100
AcDbEntity
  8
ZUWAKU
100
AcDbLine
 10
36.50000000000006
 20
19.525
 30
0.0
 11
36.50000000000006
 21
13.6625
 31
0.0
  0
LINE
  5
2C10
330
1A
100
AcDbEntity
  8
ZUWAKU
100
AcDbLine
 10
33.35000000000019
 20
19.525
 30
0.0
 11
33.35000000000019
 21
13.1375
 31
0.0
  0
LINE
  5
2C11
330
1A
100
AcDbEntity
  8
ZUWAKU
100
AcDbLine
 10
34.75000000000006
 20
13.6625
 30
0.0
 11
34.75000000000006
 21
19.525
 31
0.0
  0
ARC
  5
2C12
330
1A
100
AcDbEntity
  8
ZUWAKU
100
AcDbCircle
 10
34.75000000000006
 20
13.1375
 30
0.0
 40
1.399999999999999
100
AcDbArc
 50
180.0
 51
270.0
  0
ARC
  5
2C13
330
1A
100
AcDbEntity
  8
ZUWAKU
100
AcDbCircle
 10
30.2000000000001
 20
14.04510101267767
 30
0.0
 40
0.7
100
AcDbArc
 50
0.0
 51
44.99999999999955
  0
ARC
  5
2C14
330
1A
100
AcDbEntity
  8
ZUWAKU
100
AcDbCircle
 10
30.90000000000015
 20
13.1375
 30
0.0
 40
1.399999999999999
100
AcDbArc
 50
270.0
 51
0.0
  0
LINE
  5
2C15
330
1A
100
AcDbEntity
  8
ZUWAKU
100
AcDbLine
 10
30.90000000000015
 20
13.4
 30
0.0
 11
30.90000000000015
 21
14.04510101267767
 31
0.0
  0
ARC
  5
2C16
330
1A
100
AcDbEntity
  8
ZUWAKU
100
AcDbCircle
 10
30.6375000000001
 20
13.4
 30
0.0
 40
0.2625
100
AcDbArc
 50
270.0
 51
0.0
  0
LINE
  5
2C17
330
1A
100
AcDbEntity
  8
ZUWAKU
100
AcDbLine
 10
32.30000000000001
 20
13.1375
 30
0.0
 11
32.30000000000001
 21
14.04510101267767
 31
0.0
  0
ARC
  5
2C18
330
1A
100
AcDbEntity
  8
ZUWAKU
100
AcDbCircle
 10
30.2000000000001
 20
14.04510101267765
 30
0.0
 40
2.099999999999999
100
AcDbArc
 50
0.0
 51
44.99999999999955
  0
LINE
  5
2C19
330
1A
100
AcDbEntity
  8
ZUWAKU
100
AcDbLine
 10
35.9750000000002
 20
13.1375
 30
0.0
 11
35.27500000000015
 21
13.1375
 31
0.0
  0
LINE
  5
2C1A
330
1A
100
AcDbEntity
  8
ZUWAKU
100
AcDbLine
 10
34.75000000000006
 20
11.7375
 30
0.0
 11
36.50000000000006
 21
11.7375
 31
0.0
  0
ARC
  5
2C1B
330
1A
100
AcDbEntity
  8
ZUWAKU
100
AcDbCircle
 10
35.27500000000015
 20
13.6625
 30
0.0
 40
0.525
100
AcDbArc
 50
180.0
 51
270.0
  0
ARC
  5
2C1C
330
1A
100
AcDbEntity
  8
ZUWAKU
100
AcDbCircle
 10
35.9750000000002
 20
13.6625
 30
0.0
 40
0.525
100
AcDbArc
 50
270.0
 51
0.0
  0
ARC
  5
2C1D
330
1A
100
AcDbEntity
  8
ZUWAKU
100
AcDbCircle
 10
36.50000000000006
 20
13.1375
 30
0.0
 40
1.399999999999999
100
AcDbArc
 50
270.0
 51
0.0
  0
LINE
  5
2C1E
330
1A
100
AcDbEntity
  8
ZUWAKU
100
AcDbLine
 10
34.48750000000001
 20
19.7875
 30
0.0
 11
33.61250000000001
 21
19.7875
 31
0.0
  0
ARC
  5
2C1F
330
1A
100
AcDbEntity
  8
ZUWAKU
100
AcDbCircle
 10
33.61250000000001
 20
19.525
 30
0.0
 40
0.2625
100
AcDbArc
 50
90.0
 51
180.0
  0
ARC
  5
2C20
330
1A
100
AcDbEntity
  8
ZUWAKU
100
AcDbCircle
 10
31.77500000000015
 20
19.525
 30
0.0
 40
0.2625
100
AcDbArc
 50
0.0
 51
90.0
  0
ARC
  5
2C21
330
1A
100
AcDbEntity
  8
ZUWAKU
100
AcDbCircle
 10
31.77500000000015
 20
18.65
 30
0.0
 40
0.2625
100
AcDbArc
 50
270.0
 51
0.0
  0
LINE
  5
2C22
330
1A
100
AcDbEntity
  8
ZUWAKU
100
AcDbLine
 10
32.03750000000019
 20
19.525
 30
0.0
 11
32.03750000000019
 21
18.65
 31
0.0
  0
ARC
  5
2C23
330
1A
100
AcDbEntity
  8
ZUWAKU
100
AcDbCircle
 10
34.48750000000001
 20
19.525
 30
0.0
 40
0.2625
100
AcDbArc
 50
0.0
 51
90.0
  0
LINE
  5
2C24
330
1A
100
AcDbEntity
  8
ZUWAKU
100
AcDbLine
 10
37.63750000000011
 20
19.7875
 30
0.0
 11
36.7625000000001
 21
19.7875
 31
0.0
  0
ARC
  5
2C25
330
1A
100
AcDbEntity
  8
ZUWAKU
100
AcDbCircle
 10
36.7625000000001
 20
19.525
 30
0.0
 40
0.2625
100
AcDbArc
 50
90.0
 51
180.0
  0
ARC
  5
2C26
330
1A
100
AcDbEntity
  8
ZUWAKU
100
AcDbCircle
 10
37.63750000000011
 20
19.525
 30
0.0
 40
0.2625
100
AcDbArc
 50
0.0
 51
90.0
  0
LINE
  5
2C27
330
1A
100
AcDbEntity
  8
ZUWAKU
100
AcDbLine
 10
40.35000000000019
 20
12.0
 30
0.0
 11
40.35000000000019
 21
19.525
 31
0.0
  0
LINE
  5
2C28
330
1A
100
AcDbEntity
  8
ZUWAKU
100
AcDbLine
 10
38.9500000000001
 20
19.525
 30
0.0
 11
38.9500000000001
 21
12.0
 31
0.0
  0
LINE
  5
2C29
330
1A
100
AcDbEntity
  8
ZUWAKU
100
AcDbLine
 10
39.21250000000015
 20
11.7375
 30
0.0
 11
40.08750000000015
 21
11.7375
 31
0.0
  0
ARC
  5
2C2A
330
1A
100
AcDbEntity
  8
ZUWAKU
100
AcDbCircle
 10
39.21250000000015
 20
12.0
 30
0.0
 40
0.2625
100
AcDbArc
 50
180.0
 51
270.0
  0
ARC
  5
2C2B
330
1A
100
AcDbEntity
  8
ZUWAKU
100
AcDbCircle
 10
40.08750000000015
 20
12.0
 30
0.0
 40
0.2625
100
AcDbArc
 50
270.0
 51
0.0
  0
LINE
  5
2C2C
330
1A
100
AcDbEntity
  8
ZUWAKU
100
AcDbLine
 10
40.08750000000015
 20
19.7875
 30
0.0
 11
39.21250000000015
 21
19.7875
 31
0.0
  0
ARC
  5
2C2D
330
1A
100
AcDbEntity
  8
ZUWAKU
100
AcDbCircle
 10
39.21250000000015
 20
19.525
 30
0.0
 40
0.2625
100
AcDbArc
 50
90.0
 51
180.0
  0
ARC
  5
2C2E
330
1A
100
AcDbEntity
  8
ZUWAKU
100
AcDbCircle
 10
40.08750000000015
 20
19.525
 30
0.0
 40
0.2625
100
AcDbArc
 50
0.0
 51
90.0
  0
TEXT
  5
2C2F
330
1A
100
AcDbEntity
  8
moji
100
AcDbText
 10
52.307788716694
 20
14.53308906513738
 30
0.0
 40
3.0
  1
大型　たてとい
 41
0.9
  7
ｽﾀｲﾙ1
100
AcDbText
  0
TEXT
  5
2C30
330
1A
100
AcDbEntity
  8
moji
100
AcDbText
 10
125.742495263035
 20
17.16496052870369
 30
0.0
 40
2.799999999999999
  1
排水管カバー
 41
0.9
  7
ｽﾀｲﾙ1
100
AcDbText
  0
LINE
  5
2C31
330
1A
100
AcDbEntity
  8
ZUWAKU
100
AcDbLine
 10
109.9521945676434
 20
23.1625
 30
0.0
 11
109.9521945676434
 21
8.562500000000031
 31
0.0
  0
LINE
  5
2C32
330
1A
100
AcDbEntity
  8
ZUWAKU
100
AcDbLine
 10
110.1521945676434
 20
23.1625
 30
0.0
 11
110.1521945676434
 21
8.562500000000031
 31
0.0
  0
LINE
  5
2C33
330
1A
100
AcDbEntity
  8
ZUWAKU
100
AcDbLine
 10
110.0521945676433
 20
23.1625
 30
0.0
 11
110.0521945676435
 21
8.562500000000031
 31
0.0
  0
TEXT
  5
2C34
330
1A
100
AcDbEntity
  8
moji
100
AcDbText
 10
125.742495263035
 20
9.764960528703708
 30
0.0
 40
2.799999999999999
  1
１００
 41
0.9
  7
ｽﾀｲﾙ1
100
AcDbText
  0
TEXT
  5
2C35
330
1A
100
AcDbEntity
  8
ZUWAKU
100
AcDbText
 10
110.6909170787483
 20
12.9901782691928
 30
0.0
 40
2.0
  1
サイズ
 41
0.9
  7
ｽﾀｲﾙ1
100
AcDbText
  0
TEXT
  5
2C36
330
1A
100
AcDbEntity
  8
ZUWAKU
100
AcDbText
 10
110.6909170787481
 20
20.19017826919279
 30
0.0
 40
2.0
  1
品名
 41
0.9
  7
ｽﾀｲﾙ1
100
AcDbText
  0
LINE
  5
2C47
330
1A
100
AcDbEntity
  8
ZUWAKU
100
AcDbLine
 10
330.2374951777115
 20
15.76250000000001
 30
0.0
 11
354.4533991968802
 21
15.76250000000001
 31
0.0
  0
LINE
  5
2C48
330
1A
100
AcDbEntity
  8
ZUWAKU
100
AcDbLine
 10
330.2374951777118
 20
15.86250000000001
 30
0.0
 11
354.4533991968802
 21
15.86250000000001
 31
0.0
  0
LINE
  5
2C49
330
1A
100
AcDbEntity
  8
ZUWAKU
100
AcDbLine
 10
330.2374951777115
 20
15.96250000000001
 30
0.0
 11
354.4533991968802
 21
15.96250000000001
 31
0.0
  0
TEXT
  5
2C4A
330
1A
100
AcDbEntity
  8
ZUWAKU
100
AcDbText
 10
334.9308627662606
 20
17.16496052870369
 30
0.0
 40
2.799999999999999
  1
　　．　　．　　
 41
0.9
  7
ｽﾀｲﾙ1
100
AcDbText
  0
TEXT
  5
2C60
330
1A
100
AcDbEntity
  8
moji
100
AcDbText
 10
269.8493479087659
 20
9.764960528703708
 30
0.0
 40
2.799999999999999
  1
１/１
 41
0.9
  7
ｽﾀｲﾙ1
100
AcDbText
  0
LINE
  5
2C61
330
1A
100
AcDbEntity
  8
ZUWAKU
100
AcDbLine
 10
258.42848367168
 20
15.76250000000001
 30
0.0
 11
282.0923718056657
 21
15.76250000000001
 31
0.0
  0
LINE
  5
2C62
330
1A
100
AcDbEntity
  8
ZUWAKU
100
AcDbLine
 10
258.42848367168
 20
15.86250000000001
 30
0.0
 11
282.0923718056657
 21
15.86250000000001
 31
0.0
  0
LINE
  5
2C63
330
1A
100
AcDbEntity
  8
ZUWAKU
100
AcDbLine
 10
258.42848367168
 20
15.96250000000001
 30
0.0
 11
282.0923718056657
 21
15.96250000000001
 31
0.0
  0
LINE
  5
2C64
330
1A
100
AcDbEntity
  8
ZUWAKU
100
AcDbLine
 10
229.6410759081051
 20
23.1625
 30
0.0
 11
229.6410759081053
 21
8.562500000000031
 31
0.0
  0
LINE
  5
2C65
330
1A
100
AcDbEntity
  8
ZUWAKU
100
AcDbLine
 10
229.7410759081052
 20
23.1625
 30
0.0
 11
229.7410759081052
 21
8.562500000000031
 31
0.0
  0
LINE
  5
2C66
330
1A
100
AcDbEntity
  8
ZUWAKU
100
AcDbLine
 10
229.5410759081051
 20
23.1625
 30
0.0
 11
229.5410759081051
 21
8.562500000000031
 31
0.0
  0
LINE
  5
2C67
330
1A
100
AcDbEntity
  8
ZUWAKU
100
AcDbLine
 10
258.3284836716799
 20
23.1625
 30
0.0
 11
258.3284836716801
 21
8.562500000000031
 31
0.0
  0
LINE
  5
2C68
330
1A
100
AcDbEntity
  8
ZUWAKU
100
AcDbLine
 10
258.42848367168
 20
23.1625
 30
0.0
 11
258.42848367168
 21
8.562500000000031
 31
0.0
  0
LINE
  5
2C69
330
1A
100
AcDbEntity
  8
ZUWAKU
100
AcDbLine
 10
258.2284836716799
 20
23.1625
 30
0.0
 11
258.2284836716799
 21
8.562500000000031
 31
0.0
  0
TEXT
  5
2C6A
330
1A
100
AcDbEntity
  8
moji
100
AcDbText
 10
236.8779989534874
 20
14.05322110919863
 30
0.0
 40
2.799999999999999
  1
ＧＵ６４□
 41
0.9
  7
ｽﾀｲﾙ1
100
AcDbText
  0
TEXT
  5
2C6B
330
1A
100
AcDbEntity
  8
ZUWAKU
100
AcDbText
 10
230.4797984192099
 20
20.19017826919279
 30
0.0
 40
2.0
  1
品番
 41
0.9
  7
ｽﾀｲﾙ1
100
AcDbText
  0
TEXT
  5
2C6C
330
1A
100
AcDbEntity
  8
ZUWAKU
100
AcDbText
 10
259.1672061827849
 20
12.9901782691928
 30
0.0
 40
2.0
  1
縮尺
 41
0.9
  7
ｽﾀｲﾙ1
100
AcDbText
  0
TEXT
  5
2C6D
330
1A
100
AcDbEntity
  8
ZUWAKU
100
AcDbText
 10
259.1672061827847
 20
20.19017826919279
 30
0.0
 40
2.0
  1
用紙
 41
0.9
  7
ｽﾀｲﾙ1
100
AcDbText
  0
TEXT
  5
2C6E
330
1A
100
AcDbEntity
  8
moji
100
AcDbText
 10
269.8493479087659
 20
17.16496052870369
 30
0.0
 40
2.799999999999999
  1
Ａ３
 41
0.9
  7
ｽﾀｲﾙ1
100
AcDbText
  0
LINE
  5
2C6F
330
1A
100
AcDbEntity
  8
ZUWAKU
100
AcDbLine
 10
282.1923718056656
 20
23.1625
 30
0.0
 11
282.1923718056658
 21
8.562500000000031
 31
0.0
  0
LINE
  5
2C70
330
1A
100
AcDbEntity
  8
ZUWAKU
100
AcDbLine
 10
282.0923718056657
 20
23.1625
 30
0.0
 11
282.0923718056657
 21
8.562500000000031
 31
0.0
  0
LINE
  5
2C71
330
1A
100
AcDbEntity
  8
ZUWAKU
100
AcDbLine
 10
330.1374951777116
 20
23.1625
 30
0.0
 11
330.1374951777118
 21
8.562500000000031
 31
0.0
  0
LINE
  5
2C72
330
1A
100
AcDbEntity
  8
ZUWAKU
100
AcDbLine
 10
330.2374951777118
 20
23.1625
 30
0.0
 11
330.2374951777118
 21
8.562500000000031
 31
0.0
  0
LINE
  5
2C73
330
1A
100
AcDbEntity
  8
ZUWAKU
100
AcDbLine
 10
330.0374951777117
 20
23.1625
 30
0.0
 11
330.0374951777117
 21
8.562500000000031
 31
0.0
  0
LINE
  5
2C74
330
1A
100
AcDbEntity
  8
ZUWAKU
100
AcDbLine
 10
282.2923718056657
 20
23.1625
 30
0.0
 11
282.2923718056657
 21
8.562500000000031
 31
0.0
  0
TEXT
  5
2C75
330
1A
100
AcDbEntity
  8
ZUWAKU
100
AcDbText
 10
330.9762176888165
 20
20.19017826919279
 30
0.0
 40
2.0
  1
DATE
 41
0.9
  7
ｽﾀｲﾙ1
100
AcDbText
  0
LINE
  5
2C89
330
1A
100
AcDbEntity
  8
ZUWAKU
100
AcDbLine
 10
354.4533991968802
 20
23.1625
 30
0.0
 11
354.4533991968802
 21
8.562500000000031
 31
0.0
  0
LINE
  5
2C8A
330
1A
100
AcDbEntity
  8
ZUWAKU
100
AcDbLine
 10
354.5533991968801
 20
23.1625
 30
0.0
 11
354.5533991968801
 21
8.562500000000031
 31
0.0
  0
LINE
  5
2C8B
330
1A
100
AcDbEntity
  8
ZUWAKU
100
AcDbLine
 10
354.65339919688
 20
23.1625
 30
0.0
 11
354.6533991968802
 21
8.562500000000031
 31
0.0
  0
LINE
  5
2C8C
330
1A
100
AcDbEntity
  8
ZUWAKU
100
AcDbLine
 10
354.7533991968801
 20
23.1625
 30
0.0
 11
354.7533991968801
 21
8.562500000000031
 31
0.0
  0
TEXT
  5
2C8E
330
1A
100
AcDbEntity
  8
ZUWAKU
100
AcDbText
 10
360.2061314826822
 20
14.56335245091478
 30
0.0
 40
3.0
  1
積水化学工業株式会社
 41
0.9
  7
ｽﾀｲﾙ1
100
AcDbText
  0
LINE
  5
319C
330
1A
100
AcDbEntity
  8
CENTER L
  6
CENTER
 62
     1
 48
5.0
100
AcDbLine
 10
198.6978757350823
 20
71.83480749349314
 30
0.0
 11
198.6978757350823
 21
243.4825386925966
 31
0.0
  0
LINE
  5
319D
330
1A
100
AcDbEntity
  8
SEIHIN
  6
Continuous
 62
     3
100
AcDbLine
 10
258.1978757350823
 20
240.7923176467734
 30
0.0
 11
260.1978757350823
 21
75.79231764677342
 31
0.0
  0
LINE
  5
319E
330
1A
100
AcDbEntity
  8
SEIHIN
  6
Continuous
 62
     3
100
AcDbLine
 10
263.6928704875615
 20
116.02233663523
 30
0.0
 11
263.1980961234551
 21
75.79231764677342
 31
0.0
  0
LINE
  5
319F
330
1A
100
AcDbEntity
  8
SEIHIN
  6
Continuous
 62
     3
100
AcDbLine
 10
260.1978757350823
 20
240.7923176467734
 30
0.0
 11
261.6348944194151
 21
122.2469844338741
 31
0.0
  0
ARC
  5
31A0
330
1A
100
AcDbEntity
  8
SEIHIN
  6
Continuous
 62
     3
100
AcDbCircle
 10
264.1928326777381
 20
116.0161877821858
 30
0.0
 40
0.5000000000000985
100
AcDbArc
 50
68.71359488632456
 51
179.2953755822117
  0
ARC
  5
31A1
330
1A
100
AcDbEntity
  8
SEIHIN
  6
Continuous
 62
     3
100
AcDbCircle
 10
293.6978757350821
 20
102.3742810386878
 30
0.0
 40
5.0
100
AcDbArc
 50
0.0
 51
68.71359488633853
  0
ARC
  5
31A2
330
1A
100
AcDbEntity
  8
SEIHIN
  6
Continuous
 62
     3
100
AcDbCircle
 10
293.6978757350823
 20
102.3742810386878
 30
0.0
 40
2.5
100
AcDbArc
 50
0.0
 51
68.71359488634201
  0
DIMENSION
  5
31A3
330
1A
100
AcDbEntity
  8
SUNPOU
  6
Continuous
100
AcDbDimension
  2
*D2
 10
311.5040572310748
 20
105.7923176467733
 30
0.0
 11
309.0040572310748
 21
90.79231764677343
 31
0.0
 70
    32
 71
     5
 42
29.99999999999989
  3
STANDARD
100
AcDbAlignedDimension
 13
299.6978757350823
 23
75.79231764677342
 33
0.0
 14
298.6978757350824
 24
105.7923176467733
 34
0.0
 50
90.0
100
AcDbRotatedDimension
1001
ACAD
1000
DSTYLE
1002
{
1070
    41
1040
3.0
1070
    42
1040
3.0
1070
    43
1040
7.0
1070
    44
1040
1.5
1070
    73
1070
     0
1070
    74
1070
     0
1070
    77
1070
     3
1070
   140
1040
3.0
1070
   141
1040
150.0
1070
   147
1040
1.0
1070
   172
1070
     1
1070
   173
1070
     1
1070
   176
1070
   256
1070
   177
1070
   256
1070
   178
1070
   256
1070
   271
1070
     0
1070
   272
1070
     0
1070
   341
1005
B2
1070
     6
1000
OPEN
1070
     7
1000
OPEN
1070
   371
1070
    -1
1070
   372
1070
    -1
1002
}
  0
LINE
  5
31A4
330
1A
100
AcDbEntity
  8
SEIHIN
  6
Continuous
 62
     3
100
AcDbLine
 10
298.6978757350824
 20
78.79231764677342
 30
0.0
 11
298.6978757350824
 21
102.5793505634608
 31
0.0
  0
LINE
  5
31A5
330
1A
100
AcDbEntity
  8
SEIHIN
  6
Continuous
 62
     3
100
AcDbLine
 10
296.1978757350824
 20
102.3742810386878
 30
0.0
 11
296.1978757350824
 21
75.79231764677342
 31
0.0
  0
LINE
  5
31A6
330
1A
100
AcDbEntity
  8
SEIHIN
  6
Continuous
 62
     3
100
AcDbLine
 10
298.6978757350824
 20
78.79231764677342
 30
0.0
 11
299.6978757350823
 21
78.29231764677342
 31
0.0
  0
LINE
  5
31A7
330
1A
100
AcDbEntity
  8
SEIHIN
  6
Continuous
 62
     3
100
AcDbLine
 10
296.1978757350824
 20
75.79231764677342
 30
0.0
 11
298.6978757350824
 21
75.79231764677342
 31
0.0
  0
LINE
  5
31A8
330
1A
100
AcDbEntity
  8
SEIHIN
  6
Continuous
 62
     3
100
AcDbLine
 10
299.6978757350823
 20
75.79231764677342
 30
0.0
 11
299.6978757350823
 21
78.29231764677342
 31
0.0
  0
LINE
  5
31A9
330
1A
100
AcDbEntity
  8
SEIHIN
  6
Continuous
 62
     3
100
AcDbLine
 10
135.1977288167777
 20
75.79231765357826
 30
0.0
 11
135.1977288166952
 21
75.79231764677342
 31
0.0
  0
ARC
  5
31AA
330
1A
100
AcDbEntity
  8
SEIHIN
  6
Continuous
 62
     3
100
AcDbCircle
 10
103.6978757350826
 20
102.3742810386878
 30
0.0
 40
5.000000000000069
100
AcDbArc
 50
111.286405113658
 51
180.0
  0
LINE
  5
31AB
330
1A
100
AcDbEntity
  8
SEIHIN
  6
Continuous
 62
     3
100
AcDbLine
 10
133.8501679026798
 20
119.4880158938892
 30
0.0
 11
101.8827249714749
 21
107.0331679986145
 31
0.0
  0
LINE
  5
31AC
330
1A
100
AcDbEntity
  8
SEIHIN
  6
Continuous
 62
     3
100
AcDbLine
 10
98.69787573508268
 20
78.79231764677342
 30
0.0
 11
98.69787573508268
 21
102.3742810386878
 31
0.0
  0
LINE
  5
31AD
330
1A
100
AcDbEntity
  8
SEIHIN
  6
Continuous
 62
     3
100
AcDbLine
 10
97.69787573508267
 20
75.79231764677342
 30
0.0
 11
97.69787573508267
 21
78.29231764677354
 31
0.0
  0
LINE
  5
31AE
330
1A
100
AcDbEntity
  8
SEIHIN
  6
Continuous
 62
     3
100
AcDbLine
 10
97.69787573508267
 20
78.29231764677354
 30
0.0
 11
98.69787573508268
 21
78.79231764677354
 31
0.0
  0
DIMENSION
  5
31AF
330
1A
100
AcDbEntity
  8
SUNPOU
  6
Continuous
100
AcDbDimension
  2
*D3
 10
319.5080404248847
 20
240.7923176467734
 30
0.0
 11
317.0080404248846
 21
158.2923176467734
 31
0.0
 70
    32
 71
     5
 42
165.0
  3
STANDARD
100
AcDbAlignedDimension
 13
299.6978757350823
 23
75.79231764677342
 33
0.0
 14
260.1978757350823
 24
240.7923176467734
 34
0.0
 50
90.0
100
AcDbRotatedDimension
1001
ACAD
1000
DSTYLE
1002
{
1070
    41
1040
3.0
1070
    42
1040
3.0
1070
    43
1040
7.0
1070
    44
1040
1.5
1070
    73
1070
     0
1070
    74
1070
     0
1070
    77
1070
     3
1070
   140
1040
3.0
1070
   141
1040
150.0
1070
   147
1040
1.0
1070
   172
1070
     1
1070
   173
1070
     1
1070
   176
1070
   256
1070
   177
1070
   256
1070
   178
1070
   256
1070
   271
1070
     0
1070
   272
1070
     0
1070
   341
1005
B2
1070
     6
1000
OPEN
1070
     7
1000
OPEN
1070
   371
1070
    -1
1070
   372
1070
    -1
1002
}
  0
LINE
  5
31B0
330
1A
100
AcDbEntity
  8
SEIHIN
  6
Continuous
 62
     3
100
AcDbLine
 10
263.5455835674847
 20
119.4880158938892
 30
0.0
 11
295.5130266865306
 21
107.0331679254298
 31
0.0
  0
LINE
  5
31B2
330
1A
100
AcDbEntity
  8
SEIHIN
  6
Continuous
 62
     3
100
AcDbLine
 10
198.6978757350823
 20
75.79231764677342
 30
0.0
 11
299.6978757350823
 21
75.79231764677342
 31
0.0
  0
LINE
  5
31B3
330
1A
100
AcDbEntity
  8
SEIHIN
  6
Continuous
 62
     3
100
AcDbLine
 10
264.374347754099
 20
116.4820764781784
 30
0.0
 11
294.6054511168861
 21
104.703724518651
 31
0.0
  0
ARC
  5
31B4
330
1A
100
AcDbEntity
  8
SEIHIN
  6
Continuous
 62
     3
100
AcDbCircle
 10
264.6346740256495
 20
122.283348069845
 30
0.0
 40
2.999999999999884
100
AcDbArc
 50
180.6945112970424
 51
248.7135948863455
  0
LINE
  5
31B8
330
1A
100
AcDbEntity
  8
SEIHIN
  6
Continuous
 62
     3
100
AcDbLine
 10
137.1978757350821
 20
240.7923176467734
 30
0.0
 11
135.7608570507491
 21
122.2469844338741
 31
0.0
  0
LINE
  5
31B9
330
1A
100
AcDbEntity
  8
SEIHIN
  6
Continuous
 62
     3
100
AcDbLine
 10
137.1978757350821
 20
75.79231764677342
 30
0.0
 11
139.1978757350823
 21
75.79231764677342
 31
0.0
  0
ARC
  5
31BA
330
1A
100
AcDbEntity
  8
SEIHIN
  6
Continuous
 62
     3
100
AcDbCircle
 10
132.7610774445151
 20
122.283348069845
 30
0.0
 40
3.000000000000049
100
AcDbArc
 50
291.2864051136615
 51
359.3054887029575
  0
DIMENSION
  5
31BB
330
1A
100
AcDbEntity
  8
SUNPOU
  6
Continuous
100
AcDbDimension
  2
*D4
 10
299.6978757350823
 20
54.18722770329487
 30
0.0
 11
198.6978757350825
 21
56.68722770329487
 31
0.0
 70
    32
  1
\U+03C6<>
 71
     5
 42
201.9999999999996
  3
STANDARD
100
AcDbAlignedDimension
 13
97.69787573508267
 23
75.79231764677342
 33
0.0
 14
299.6978757350823
 24
77.04231764677342
 34
0.0
100
AcDbRotatedDimension
1001
ACAD
1000
DSTYLE
1002
{
1070
    41
1040
3.0
1070
    42
1040
3.0
1070
    43
1040
7.0
1070
    44
1040
1.5
1070
    73
1070
     0
1070
    74
1070
     0
1070
    77
1070
     3
1070
   140
1040
3.0
1070
   141
1040
150.0
1070
   147
1040
1.0
1070
   172
1070
     1
1070
   173
1070
     1
1070
   176
1070
   256
1070
   177
1070
   256
1070
   178
1070
   256
1070
   271
1070
     0
1070
   272
1070
     0
1070
   341
1005
B2
1070
     6
1000
OPEN
1070
     7
1000
OPEN
1070
   371
1070
    -1
1070
   372
1070
    -1
1002
}
  0
LINE
  5
31BC
330
1A
100
AcDbEntity
  8
SEIHIN
  6
Continuous
 62
     3
100
AcDbLine
 10
98.69787573508268
 20
78.79231764677354
 30
0.0
 11
198.6978757350823
 21
78.79231764677354
 31
0.0
  0
LINE
  5
31BD
330
1A
100
AcDbEntity
  8
SEIHIN
  6
Continuous
 62
     3
100
AcDbLine
 10
97.69787573508267
 20
75.79231764677342
 30
0.0
 11
198.6978757350823
 21
75.79231764677342
 31
0.0
  0
LINE
  5
31BE
330
1A
100
AcDbEntity
  8
SEIHIN
  6
Continuous
 62
     3
100
AcDbLine
 10
103.0371098176386
 20
105.7923176467734
 30
0.0
 11
198.6978757350823
 21
105.7923176467734
 31
0.0
  0
LINE
  5
31BF
330
1A
100
AcDbEntity
  8
SEIHIN
  6
Continuous
 62
     3
100
AcDbLine
 10
139.1978757350823
 20
120.7923176467734
 30
0.0
 11
198.6978757350823
 21
120.7923176467734
 31
0.0
  0
LINE
  5
31C0
330
1A
100
AcDbEntity
  8
SEIHIN
  6
Continuous
 62
     3
100
AcDbLine
 10
137.1978757350821
 20
240.7923176467734
 30
0.0
 11
260.1978757350823
 21
240.7923176467734
 31
0.0
  0
DIMENSION
  5
321C
330
1A
100
AcDbEntity
  8
SUNPOU
  6
Continuous
100
AcDbDimension
  2
*D5
 10
258.1978757350823
 20
253.7237788261339
 30
0.0
 11
198.6978757350823
 21
253.7237788261339
 31
0.0
 70
   160
  1
\U+03C6<>
 71
     5
 42
119.0
  3
STANDARD
100
AcDbAlignedDimension
 13
139.1978757350823
 23
240.7923176467734
 33
0.0
 14
258.1978757350823
 24
240.7923176467734
 34
0.0
100
AcDbRotatedDimension
1001
ACAD
1000
DSTYLE
1002
{
1070
    41
1040
3.0
1070
    42
1040
3.0
1070
    43
1040
7.0
1070
    44
1040
1.5
1070
    73
1070
     0
1070
    74
1070
     0
1070
    77
1070
     3
1070
   140
1040
3.0
1070
   141
1040
150.0
1070
   147
1040
1.0
1070
   172
1070
     1
1070
   173
1070
     1
1070
   176
1070
   256
1070
   177
1070
   256
1070
   178
1070
   256
1070
   271
1070
     0
1070
   272
1070
     0
1070
   341
1005
B2
1070
     6
1000
OPEN
1070
     7
1000
OPEN
1070
   371
1070
    -1
1070
   372
1070
    -1
1002
}
  0
DIMENSION
  5
3233
330
1A
100
AcDbEntity
  8
SUNPOU
  6
Continuous
100
AcDbDimension
  2
*D6
 10
263.1980961234551
 20
62.72813457307802
 30
0.0
 11
198.6978757350823
 21
62.72813457307802
 31
0.0
 70
   160
  1
\U+03C6<>
 71
     5
 42
129.0004407767455
  3
STANDARD
100
AcDbAlignedDimension
 13
134.1976553467095
 23
75.79231764677342
 33
0.0
 14
263.1980961234551
 24
75.79231764677342
 34
0.0
100
AcDbRotatedDimension
1001
ACAD
1000
DSTYLE
1002
{
1070
    41
1040
3.0
1070
    42
1040
3.0
1070
    43
1040
7.0
1070
    44
1040
1.5
1070
    73
1070
     0
1070
    74
1070
     0
1070
    77
1070
     3
1070
   140
1040
3.0
1070
   141
1040
150.0
1070
   147
1040
1.0
1070
   172
1070
     1
1070
   173
1070
     1
1070
   176
1070
   256
1070
   177
1070
   256
1070
   178
1070
   256
1070
   271
1070
     0
1070
   272
1070
     0
1070
   341
1005
B2
1070
     6
1000
OPEN
1070
     7
1000
OPEN
1070
   371
1070
    -1
1070
   372
1070
    -1
1002
}
  0
LINE
  5
34DE
330
1A
100
AcDbEntity
  8
0
 62
     0
100
AcDbLine
 10
297.4051243365849
 20
75.79231764677349
 30
0.0
 11
299.6653354341861
 21
78.05252874437468
 31
0.0
  0
LINE
  5
34DF
330
1A
100
AcDbEntity
  8
0
 62
     0
100
AcDbLine
 10
296.1978757350822
 20
77.41349617001697
 30
0.0
 11
298.6978757350824
 21
79.91349617001702
 31
0.0
  0
LINE
  5
34E0
330
1A
100
AcDbEntity
  8
0
 62
     0
100
AcDbLine
 10
296.1978757350822
 20
80.24192329476312
 30
0.0
 11
298.6978757350824
 21
82.74192329476324
 31
0.0
  0
LINE
  5
34E1
330
1A
100
AcDbEntity
  8
0
 62
     0
100
AcDbLine
 10
296.1978757350823
 20
83.07035041950944
 30
0.0
 11
298.6978757350822
 21
85.57035041950939
 31
0.0
  0
LINE
  5
34E2
330
1A
100
AcDbEntity
  8
0
 62
     0
100
AcDbLine
 10
296.1978757350823
 20
85.89877754425561
 30
0.0
 11
298.6978757350824
 21
88.39877754425566
 31
0.0
  0
LINE
  5
34E3
330
1A
100
AcDbEntity
  8
0
 62
     0
100
AcDbLine
 10
296.1978757350822
 20
88.72720466900176
 30
0.0
 11
298.6978757350822
 21
91.22720466900188
 31
0.0
  0
LINE
  5
34E4
330
1A
100
AcDbEntity
  8
0
 62
     0
100
AcDbLine
 10
296.1978757350823
 20
91.55563179374798
 30
0.0
 11
298.6978757350824
 21
94.05563179374803
 31
0.0
  0
LINE
  5
34E5
330
1A
100
AcDbEntity
  8
0
 62
     0
100
AcDbLine
 10
296.1978757350823
 20
94.38405891849413
 30
0.0
 11
298.6978757350824
 21
96.8840589184942
 31
0.0
  0
LINE
  5
34E6
330
1A
100
AcDbEntity
  8
0
 62
     0
100
AcDbLine
 10
296.1978757350824
 20
97.21248604324046
 30
0.0
 11
298.6978757350822
 21
99.7124860432404
 31
0.0
  0
LINE
  5
34E7
330
1A
100
AcDbEntity
  8
0
 62
     0
100
AcDbLine
 10
296.1978757350824
 20
100.0409131679866
 30
0.0
 11
298.6944044624379
 21
102.5374418953421
 31
0.0
  0
LINE
  5
34E8
330
1A
100
AcDbEntity
  8
0
 62
     0
100
AcDbLine
 10
296.1563863380336
 20
102.8278508956841
 30
0.0
 11
298.0907816481197
 21
104.7622462057703
 31
0.0
  0
LINE
  5
34E9
330
1A
100
AcDbEntity
  8
0
 62
     0
100
AcDbLine
 10
295.0052798767745
 20
104.5051715591712
 30
0.0
 11
296.7976090935204
 21
106.2975007759171
 31
0.0
  0
LINE
  5
34EA
330
1A
100
AcDbEntity
  8
0
 62
     0
100
AcDbLine
 10
293.0006520868478
 20
105.3289708939907
 30
0.0
 11
294.9314409598506
 21
107.2597597669936
 31
0.0
  0
LINE
  5
34EB
330
1A
100
AcDbEntity
  8
0
 62
     0
100
AcDbLine
 10
290.9652419129652
 20
106.121987844854
 30
0.0
 11
292.896030785968
 21
108.0527767178569
 31
0.0
  0
LINE
  5
34EC
330
1A
100
AcDbEntity
  8
0
 62
     0
100
AcDbLine
 10
260.6355717148845
 20
75.79231764677342
 30
0.0
 11
263.2300041033039
 21
78.38675003519279
 31
0.0
  0
LINE
  5
34ED
330
1A
100
AcDbEntity
  8
0
 62
     0
100
AcDbLine
 10
288.9298317390823
 20
106.9150047957174
 30
0.0
 11
290.8606206120852
 21
108.8457936687203
 31
0.0
  0
LINE
  5
34EE
330
1A
100
AcDbEntity
  8
0
 62
     0
100
AcDbLine
 10
260.1692442243643
 20
78.15441728099944
 30
0.0
 11
263.2652230442038
 21
81.25039610083888
 31
0.0
  0
LINE
  5
34EF
330
1A
100
AcDbEntity
  8
0
 62
     0
100
AcDbLine
 10
286.8944215651995
 20
107.7080217465808
 30
0.0
 11
288.8252104382024
 21
109.6388106195837
 31
0.0
  0
LINE
  5
34F0
330
1A
100
AcDbEntity
  8
0
 62
     0
100
AcDbLine
 10
260.1353708456249
 20
80.94897102700622
 30
0.0
 11
263.3004419851037
 21
84.11404216648497
 31
0.0
  0
LINE
  5
34F1
330
1A
100
AcDbEntity
  8
0
 62
     0
100
AcDbLine
 10
284.8590113913168
 20
108.5010386974443
 30
0.0
 11
286.7898002643196
 21
110.4318275704471
 31
0.0
  0
LINE
  5
34F2
330
1A
100
AcDbEntity
  8
0
 62
     0
100
AcDbLine
 10
260.1014974668855
 20
83.743524773013
 30
0.0
 11
263.3356609260036
 21
86.97768823213113
 31
0.0
  0
LINE
  5
34F3
330
1A
100
AcDbEntity
  8
0
 62
     0
100
AcDbLine
 10
282.8236012174339
 20
109.2940556483076
 30
0.0
 11
284.7543900904368
 21
111.2248445213105
 31
0.0
  0
LINE
  5
34F4
330
1A
100
AcDbEntity
  8
0
 62
     0
100
AcDbLine
 10
260.0676240881459
 20
86.53807851901968
 30
0.0
 11
263.3708798669033
 21
89.84133429777717
 31
0.0
  0
LINE
  5
34F5
330
1A
100
AcDbEntity
  8
0
 62
     0
100
AcDbLine
 10
280.7881910435511
 20
110.0870725991711
 30
0.0
 11
282.718979916554
 21
112.017861472174
 31
0.0
  0
LINE
  5
34F6
330
1A
100
AcDbEntity
  8
0
 62
     0
100
AcDbLine
 10
260.0337507094064
 20
89.33263226502646
 30
0.0
 11
263.4060988078033
 21
92.70498036342321
 31
0.0
  0
LINE
  5
34F7
330
1A
100
AcDbEntity
  8
0
 62
     0
100
AcDbLine
 10
278.7527808696684
 20
110.8800895500346
 30
0.0
 11
280.6835697426712
 21
112.8108784230374
 31
0.0
  0
LINE
  5
34F8
330
1A
100
AcDbEntity
  8
0
 62
     0
100
AcDbLine
 10
259.999877330667
 20
92.12718601103313
 30
0.0
 11
263.4413177487031
 21
95.5686264290693
 31
0.0
  0
LINE
  5
34F9
330
1A
100
AcDbEntity
  8
0
 62
     0
100
AcDbLine
 10
276.7173706957856
 20
111.6731065008979
 30
0.0
 11
278.6481595687885
 21
113.6038953739008
 31
0.0
  0
LINE
  5
34FA
330
1A
100
AcDbEntity
  8
0
 62
     0
100
AcDbLine
 10
259.9660039519275
 20
94.92173975703975
 30
0.0
 11
263.476536689603
 21
98.43227249471528
 31
0.0
  0
LINE
  5
34FB
330
1A
100
AcDbEntity
  8
0
 62
     0
100
AcDbLine
 10
274.6819605219027
 20
112.4661234517612
 30
0.0
 11
276.6127493949057
 21
114.3969123247642
 31
0.0
  0
LINE
  5
34FC
330
1A
100
AcDbEntity
  8
0
 62
     0
100
AcDbLine
 10
259.932130573188
 20
97.71629350304653
 30
0.0
 11
263.5117556305029
 21
101.2959185603613
 31
0.0
  0
LINE
  5
34FD
330
1A
100
AcDbEntity
  8
0
 62
     0
100
AcDbLine
 10
272.6465503480201
 20
113.2591404026248
 30
0.0
 11
274.5773392210228
 21
115.1899292756276
 31
0.0
  0
LINE
  5
34FE
330
1A
100
AcDbEntity
  8
0
 62
     0
100
AcDbLine
 10
259.8982571944485
 20
100.5108472490532
 30
0.0
 11
263.5469745714027
 21
104.1595646260074
 31
0.0
  0
LINE
  5
34FF
330
1A
100
AcDbEntity
  8
0
 62
     0
100
AcDbLine
 10
270.6111401741372
 20
114.0521573534881
 30
0.0
 11
272.5419290471402
 21
115.9829462264911
 31
0.0
  0
LINE
  5
3500
330
1A
100
AcDbEntity
  8
0
 62
     0
100
AcDbLine
 10
259.864383815709
 20
103.3054009950599
 30
0.0
 11
263.5821935123027
 21
107.0232106916536
 31
0.0
  0
LINE
  5
3501
330
1A
100
AcDbEntity
  8
0
 62
     0
100
AcDbLine
 10
268.5757300002545
 20
114.8451743043516
 30
0.0
 11
270.5065188732573
 21
116.7759631773545
 31
0.0
  0
LINE
  5
3502
330
1A
100
AcDbEntity
  8
0
 62
     0
100
AcDbLine
 10
259.8305104369696
 20
106.0999547410667
 30
0.0
 11
263.6174124532026
 21
109.8868567572997
 31
0.0
  0
LINE
  5
3503
330
1A
100
AcDbEntity
  8
0
 62
     0
100
AcDbLine
 10
266.5403198263718
 20
115.638191255215
 30
0.0
 11
268.4711086993747
 21
117.568980128218
 31
0.0
  0
LINE
  5
3504
330
1A
100
AcDbEntity
  8
0
 62
     0
100
AcDbLine
 10
259.7966370582301
 20
108.8945084870734
 30
0.0
 11
263.6526313941025
 21
112.7505028229458
 31
0.0
  0
LINE
  5
3505
330
1A
100
AcDbEntity
  8
0
 62
     0
100
AcDbLine
 10
264.504909652489
 20
116.4312082060784
 30
0.0
 11
266.4356985254919
 21
118.3619970790813
 31
0.0
  0
LINE
  5
3506
330
1A
100
AcDbEntity
  8
0
 62
     0
100
AcDbLine
 10
259.7627636794907
 20
111.6890622330801
 30
0.0
 11
263.6878503350023
 21
115.6141488885918
 31
0.0
  0
LINE
  5
3507
330
1A
100
AcDbEntity
  8
0
 62
     0
100
AcDbLine
 10
259.7288903007512
 20
114.4836159790868
 30
0.0
 11
264.4002883516091
 21
119.1550140299447
 31
0.0
  0
LINE
  5
3508
330
1A
100
AcDbEntity
  8
0
 62
     0
100
AcDbLine
 10
259.6950169220117
 20
117.2781697250935
 30
0.0
 11
262.5463672871297
 21
120.1295200902115
 31
0.0
  0
LINE
  5
3509
330
1A
100
AcDbEntity
  8
0
 62
     0
100
AcDbLine
 10
259.6611435432722
 20
120.0727234711003
 30
0.0
 11
261.6433801694733
 21
122.0549600973014
 31
0.0
  0
LINE
  5
350A
330
1A
100
AcDbEntity
  8
0
 62
     0
100
AcDbLine
 10
259.6272701645327
 20
122.8672772171071
 30
0.0
 11
261.6034200748558
 21
124.8434271274301
 31
0.0
  0
LINE
  5
350B
330
1A
100
AcDbEntity
  8
0
 62
     0
100
AcDbLine
 10
259.5933967857932
 20
125.6618309631137
 30
0.0
 11
261.5695442376075
 21
127.637978414928
 31
0.0
  0
LINE
  5
350C
330
1A
100
AcDbEntity
  8
0
 62
     0
100
AcDbLine
 10
259.5595234070538
 20
128.4563847091205
 30
0.0
 11
261.5356684003593
 21
130.432529702426
 31
0.0
  0
LINE
  5
350D
330
1A
100
AcDbEntity
  8
0
 62
     0
100
AcDbLine
 10
259.5256500283144
 20
131.2509384551271
 30
0.0
 11
261.5017925631111
 21
133.2270809899238
 31
0.0
  0
LINE
  5
350E
330
1A
100
AcDbEntity
  8
0
 62
     0
100
AcDbLine
 10
259.4917766495749
 20
134.0454922011338
 30
0.0
 11
261.4679167258628
 21
136.0216322774217
 31
0.0
  0
LINE
  5
350F
330
1A
100
AcDbEntity
  8
0
 62
     0
100
AcDbLine
 10
259.4579032708355
 20
136.8400459471406
 30
0.0
 11
261.4340408886146
 21
138.8161835649197
 31
0.0
  0
LINE
  5
3510
330
1A
100
AcDbEntity
  8
0
 62
     0
100
AcDbLine
 10
259.4240298920959
 20
139.6345996931472
 30
0.0
 11
261.4001650513663
 21
141.6107348524176
 31
0.0
  0
LINE
  5
3511
330
1A
100
AcDbEntity
  8
0
 62
     0
100
AcDbLine
 10
259.3901565133565
 20
142.429153439154
 30
0.0
 11
261.3662892141181
 21
144.4052861399156
 31
0.0
  0
LINE
  5
3512
330
1A
100
AcDbEntity
  8
0
 62
     0
100
AcDbLine
 10
259.356283134617
 20
145.2237071851607
 30
0.0
 11
261.3324133768697
 21
147.1998374274135
 31
0.0
  0
LINE
  5
3513
330
1A
100
AcDbEntity
  8
0
 62
     0
100
AcDbLine
 10
259.3224097558775
 20
148.0182609311675
 30
0.0
 11
261.2985375396215
 21
149.9943887149114
 31
0.0
  0
LINE
  5
3514
330
1A
100
AcDbEntity
  8
0
 62
     0
100
AcDbLine
 10
259.288536377138
 20
150.8128146771741
 30
0.0
 11
261.2646617023731
 21
152.7889400024092
 31
0.0
  0
LINE
  5
3515
330
1A
100
AcDbEntity
  8
0
 62
     0
100
AcDbLine
 10
259.2546629983985
 20
153.6073684231808
 30
0.0
 11
261.2307858651249
 21
155.5834912899071
 31
0.0
  0
LINE
  5
3516
330
1A
100
AcDbEntity
  8
0
 62
     0
100
AcDbLine
 10
259.220789619659
 20
156.4019221691875
 30
0.0
 11
261.1969100278766
 21
158.3780425774051
 31
0.0
  0
LINE
  5
3517
330
1A
100
AcDbEntity
  8
0
 62
     0
100
AcDbLine
 10
259.1869162409196
 20
159.1964759151943
 30
0.0
 11
261.1630341906284
 21
161.1725938649031
 31
0.0
  0
LINE
  5
3518
330
1A
100
AcDbEntity
  8
0
 62
     0
100
AcDbLine
 10
259.1530428621801
 20
161.991029661201
 30
0.0
 11
261.1291583533801
 21
163.9671451524011
 31
0.0
  0
LINE
  5
3519
330
1A
100
AcDbEntity
  8
0
 62
     0
100
AcDbLine
 10
259.1191694834407
 20
164.7855834072077
 30
0.0
 11
261.0952825161319
 21
166.7616964398989
 31
0.0
  0
LINE
  5
351A
330
1A
100
AcDbEntity
  8
0
 62
     0
100
AcDbLine
 10
259.0852961047013
 20
167.5801371532145
 30
0.0
 11
261.0614066788837
 21
169.5562477273969
 31
0.0
  0
LINE
  5
351B
330
1A
100
AcDbEntity
  8
0
 62
     0
100
AcDbLine
 10
259.0514227259617
 20
170.3746908992211
 30
0.0
 11
261.0275308416354
 21
172.3507990148949
 31
0.0
  0
LINE
  5
351C
330
1A
100
AcDbEntity
  8
0
 62
     0
100
AcDbLine
 10
259.0175493472222
 20
173.1692446452279
 30
0.0
 11
260.9936550043871
 21
175.1453503023928
 31
0.0
  0
LINE
  5
351D
330
1A
100
AcDbEntity
  8
0
 62
     0
100
AcDbLine
 10
258.9836759684828
 20
175.9637983912346
 30
0.0
 11
260.9597791671388
 21
177.9399015898907
 31
0.0
  0
LINE
  5
351E
330
1A
100
AcDbEntity
  8
0
 62
     0
100
AcDbLine
 10
258.9498025897433
 20
178.7583521372414
 30
0.0
 11
260.9259033298906
 21
180.7344528773887
 31
0.0
  0
LINE
  5
351F
330
1A
100
AcDbEntity
  8
0
 62
     0
100
AcDbLine
 10
258.9159292110038
 20
181.5529058832481
 30
0.0
 11
260.8920274926423
 21
183.5290041648866
 31
0.0
  0
LINE
  5
3520
330
1A
100
AcDbEntity
  8
0
 62
     0
100
AcDbLine
 10
258.8820558322644
 20
184.3474596292547
 30
0.0
 11
260.8581516553941
 21
186.3235554523844
 31
0.0
  0
LINE
  5
3521
330
1A
100
AcDbEntity
  8
0
 62
     0
100
AcDbLine
 10
258.8481824535249
 20
187.1420133752614
 30
0.0
 11
260.8242758181458
 21
189.1181067398823
 31
0.0
  0
LINE
  5
3522
330
1A
100
AcDbEntity
  8
0
 62
     0
100
AcDbLine
 10
258.8143090747855
 20
189.9365671212682
 30
0.0
 11
260.7903999808977
 21
191.9126580273804
 31
0.0
  0
LINE
  5
3523
330
1A
100
AcDbEntity
  8
0
 62
     0
100
AcDbLine
 10
258.7804356960459
 20
192.7311208672748
 30
0.0
 11
260.7565241436494
 21
194.7072093148783
 31
0.0
  0
LINE
  5
3524
330
1A
100
AcDbEntity
  8
0
 62
     0
100
AcDbLine
 10
258.7465623173065
 20
195.5256746132816
 30
0.0
 11
260.7226483064011
 21
197.5017606023762
 31
0.0
  0
LINE
  5
3525
330
1A
100
AcDbEntity
  8
0
 62
     0
100
AcDbLine
 10
258.712688938567
 20
198.3202283592883
 30
0.0
 11
260.6887724691528
 21
200.2963118898742
 31
0.0
  0
LINE
  5
3526
330
1A
100
AcDbEntity
  8
0
 62
     0
100
AcDbLine
 10
258.6788155598275
 20
201.114782105295
 30
0.0
 11
260.6548966319045
 21
203.0908631773722
 31
0.0
  0
LINE
  5
3527
330
1A
100
AcDbEntity
  8
0
 62
     0
100
AcDbLine
 10
258.644942181088
 20
203.9093358513018
 30
0.0
 11
260.6210207946562
 21
205.8854144648701
 31
0.0
  0
LINE
  5
3528
330
1A
100
AcDbEntity
  8
0
 62
     0
100
AcDbLine
 10
258.6110688023485
 20
206.7038895973084
 30
0.0
 11
260.587144957408
 21
208.6799657523679
 31
0.0
  0
LINE
  5
3529
330
1A
100
AcDbEntity
  8
0
 62
     0
100
AcDbLine
 10
258.5771954236091
 20
209.4984433433152
 30
0.0
 11
260.5532691201598
 21
211.4745170398659
 31
0.0
  0
LINE
  5
352A
330
1A
100
AcDbEntity
  8
0
 62
     0
100
AcDbLine
 10
258.5433220448695
 20
212.2929970893218
 30
0.0
 11
260.5193932829114
 21
214.2690683273638
 31
0.0
  0
LINE
  5
352B
330
1A
100
AcDbEntity
  8
0
 62
     0
100
AcDbLine
 10
258.5094486661301
 20
215.0875508353286
 30
0.0
 11
260.4855174456631
 21
217.0636196148617
 31
0.0
  0
LINE
  5
352C
330
1A
100
AcDbEntity
  8
0
 62
     0
100
AcDbLine
 10
258.4755752873907
 20
217.8821045813354
 30
0.0
 11
260.451641608415
 21
219.8581709023596
 31
0.0
  0
LINE
  5
352D
330
1A
100
AcDbEntity
  8
0
 62
     0
100
AcDbLine
 10
258.4417019086513
 20
220.6766583273421
 30
0.0
 11
260.4177657711667
 21
222.6527221898576
 31
0.0
  0
LINE
  5
352E
330
1A
100
AcDbEntity
  8
0
 62
     0
100
AcDbLine
 10
258.4078285299117
 20
223.4712120733487
 30
0.0
 11
260.3838899339185
 21
225.4472734773556
 31
0.0
  0
LINE
  5
352F
330
1A
100
AcDbEntity
  8
0
 62
     0
100
AcDbLine
 10
258.3739551511722
 20
226.2657658193555
 30
0.0
 11
260.3500140966702
 21
228.2418247648535
 31
0.0
  0
LINE
  5
3530
330
1A
100
AcDbEntity
  8
0
 62
     0
100
AcDbLine
 10
258.3400817724328
 20
229.0603195653623
 30
0.0
 11
260.3161382594219
 21
231.0363760523514
 31
0.0
  0
LINE
  5
3531
330
1A
100
AcDbEntity
  8
0
 62
     0
100
AcDbLine
 10
258.3062083936932
 20
231.8548733113689
 30
0.0
 11
260.2822624221736
 21
233.8309273398493
 31
0.0
  0
LINE
  5
3532
330
1A
100
AcDbEntity
  8
0
 62
     0
100
AcDbLine
 10
258.2723350149537
 20
234.6494270573757
 30
0.0
 11
260.2483865849254
 21
236.6254786273473
 31
0.0
  0
LINE
  5
3533
330
1A
100
AcDbEntity
  8
0
 62
     0
100
AcDbLine
 10
258.2384616362142
 20
237.4439808033823
 30
0.0
 11
260.2145107476772
 21
239.4200299148451
 31
0.0
  0
LINE
  5
3534
330
1A
100
AcDbEntity
  8
0
 62
     0
100
AcDbLine
 10
258.204588257475
 20
240.2385345493891
 30
0.0
 11
258.7583713548593
 21
240.7923176467734
 31
0.0
  0
DIMENSION
  5
378B
330
1A
100
AcDbEntity
  8
SUNPOU
  6
Continuous
100
AcDbDimension
  2
*D7
 10
229.1433460438989
 20
165.7923176467734
 30
0.0
 11
224.1433460438988
 21
120.7923176467734
 31
0.0
 70
    32
  1
たてといの端部位置\P８０～１００ｍｍ
 71
     5
 42
90.0
  3
STANDARD
100
AcDbAlignedDimension
 13
260.1978757350823
 23
75.79231764677342
 33
0.0
 14
259.1069666441732
 24
165.7923176467734
 34
0.0
 50
90.0
100
AcDbRotatedDimension
1001
ACAD
1000
DSTYLE
1002
{
1070
    41
1040
3.0
1070
    42
1040
3.0
1070
    43
1040
7.0
1070
    44
1040
1.5
1070
    73
1070
     0
1070
    74
1070
     0
1070
    77
1070
     3
1070
   140
1040
3.0
1070
   141
1040
150.0
1070
   147
1040
1.0
1070
   172
1070
     1
1070
   173
1070
     1
1070
   176
1070
     4
1070
   177
1070
     4
1070
   178
1070
     4
1070
   271
1070
     0
1070
   272
1070
     2
1070
     6
1000
OPEN
1070
     7
1000
OPEN
1002
}
  0
DIMENSION
  5
378C
330
1A
100
AcDbEntity
  8
SUNPOU
  6
Continuous
100
AcDbDimension
  2
*D8
 10
250.4937952559548
 20
75.79231764677342
 30
0.0
 11
245.7698433083924
 21
94.4555699876364
 31
0.0
 70
   160
  1
排水管のパイプの高さ\P３０～３５ｍｍ
 71
     5
 42
30.00000000000002
  3
STANDARD
100
AcDbAlignedDimension
 13
263.5670552066574
 23
105.7923176467734
 33
0.0
 14
262.5609980735626
 24
75.79231764677342
 34
0.0
 50
90.0
100
AcDbRotatedDimension
1001
ACAD
1000
DSTYLE
1002
{
1070
   287
1070
     5
1070
   287
1070
     5
1070
    41
1040
3.0
1070
    42
1040
3.0
1070
    43
1040
7.0
1070
    44
1040
1.5
1070
    73
1070
     0
1070
    74
1070
     0
1070
    77
1070
     3
1070
   140
1040
3.0
1070
   141
1040
150.0
1070
   147
1040
1.0
1070
   172
1070
     1
1070
   173
1070
     1
1070
   176
1070
     4
1070
   177
1070
     4
1070
   178
1070
     4
1070
   271
1070
     0
1070
   272
1070
     2
1070
   279
1070
     2
1070
     6
1000
OPEN
1070
     7
1000
OPEN
1002
}
  0
LINE
  5
38A4
330
1A
100
AcDbEntity
  8
SEIHIN
  6
PHANTOM2
 62
   251
 48
0.5
370
     5
100
AcDbLine
 10
281.1978757350824
 20
33.46348373801197
 30
0.0
 11
281.1978757350824
 21
105.7923176467734
 31
0.0
  0
LINE
  5
38A5
330
1A
100
AcDbEntity
  8
SEIHIN
  6
PHANTOM2
 62
   251
 48
0.5
370
     5
100
AcDbLine
 10
276.0978757350823
 20
33.46348373801197
 30
0.0
 11
276.0978757350823
 21
105.7923176467734
 31
0.0
  0
LINE
  5
38A6
330
1A
100
AcDbEntity
  8
SEIHIN
  6
PHANTOM2
 62
   251
 48
0.5
370
     5
100
AcDbLine
 10
272.2978757350824
 20
33.46348373801197
 30
0.0
 11
272.2978757350823
 21
105.7923176467734
 31
0.0
  0
LINE
  5
38A7
330
1A
100
AcDbEntity
  8
SEIHIN
  6
PHANTOM2
 62
   251
 48
0.5
370
     5
100
AcDbLine
 10
268.6978757350823
 20
33.46348373801197
 30
0.0
 11
268.6978757350823
 21
105.7923176467734
 31
0.0
  0
LINE
  5
38A9
330
1A
100
AcDbEntity
  8
SEIHIN
  6
PHANTOM2
 62
   251
 48
0.5
370
     5
100
AcDbLine
 10
264.5978757350824
 20
33.46348373801197
 30
0.0
 11
264.5978757350823
 21
105.7923176467734
 31
0.0
  0
LINE
  5
38B3
330
1A
100
AcDbEntity
  8
SEIHIN
  6
PHANTOM2
 62
   251
 48
0.5
370
     5
100
AcDbLine
 10
263.5670552066574
 20
105.7923176467734
 30
0.0
 11
268.6978757350823
 21
105.7923176467734
 31
0.0
  0
LINE
  5
38B7
330
1A
100
AcDbEntity
  8
SEIHIN
  6
PHANTOM2
 62
   251
 48
0.5
370
     5
100
AcDbLine
 10
269.9326241946565
 20
105.7923176467734
 30
0.0
 11
281.1978757350824
 21
105.7923176467734
 31
0.0
  0
LEADER
  5
3953
330
1A
100
AcDbEntity
  8
SUNPOU
100
AcDbLeader
  3
STANDARD
 76
     3
 10
267.4369278260182
 20
105.7923176467735
 30
0.0
 10
284.3280908681563
 20
139.7454748206774
 30
0.0
 10
297.033443324337
 20
139.7454748206774
 30
0.0
1001
ACAD
1000
DSTYLE
1002
{
1070
    41
1040
3.0
1070
    42
1040
3.0
1070
    43
1040
7.0
1070
    44
1040
1.5
1070
    73
1070
     0
1070
    74
1070
     0
1070
    77
1070
     0
1070
   140
1040
3.0
1070
   141
1040
150.0
1070
   147
1040
1.0
1070
   172
1070
     1
1070
   173
1070
     1
1070
   176
1070
   256
1070
   177
1070
   256
1070
   178
1070
   256
1070
   271
1070
     0
1070
   272
1070
     0
1070
   341
1005
B2
1070
   343
1005
B2
1070
   344
1005
B2
1070
   371
1070
    -1
1070
   372
1070
    -1
1002
}
  0
LEADER
  5
3954
330
1A
100
AcDbEntity
  8
SUNPOU
100
AcDbLeader
  3
STANDARD
 76
     3
 10
276.0978757350823
 20
105.7923176467734
 30
0.0
 10
288.4334671692968
 20
131.0533686178771
 30
0.0
 10
312.7536400319404
 20
131.0533686178771
 30
0.0
1001
ACAD
1000
DSTYLE
1002
{
1070
    41
1040
3.0
1070
    42
1040
3.0
1070
    43
1040
7.0
1070
    44
1040
1.5
1070
    73
1070
     0
1070
    74
1070
     0
1070
    77
1070
     0
1070
   140
1040
3.0
1070
   141
1040
150.0
1070
   147
1040
1.0
1070
   172
1070
     1
1070
   173
1070
     1
1070
   176
1070
   256
1070
   177
1070
   256
1070
   178
1070
   256
1070
   271
1070
     0
1070
   272
1070
     0
1070
   341
1005
B2
1070
   343
1005
B2
1070
   344
1005
B2
1070
   371
1070
    -1
1070
   372
1070
    -1
1002
}
  0
TEXT
  5
3955
330
1A
100
AcDbEntity
  8
moji
100
AcDbText
 10
285.2246538936766
 20
140.884750048833
 30
0.0
 40
2.799999999999999
  1
VU125
 41
0.9
  7
ｽﾀｲﾙ1
100
AcDbText
  0
TEXT
  5
3958
330
1A
100
AcDbEntity
  8
moji
100
AcDbText
 10
288.8927750767026
 20
131.7037901731685
 30
0.0
 40
2.799999999999999
  1
VU150　VP150
 41
0.9
  7
ｽﾀｲﾙ1
100
AcDbText
  0
TEXT
  5
39B5
330
1A
100
AcDbEntity
  8
moji
100
AcDbText
 10
326.9690596105032
 20
46.1774270390008
 30
0.0
 40
2.799999999999999
  1
※VP125には、対応しません。
 41
0.9
  7
ｽﾀｲﾙ1
100
AcDbText
  0
VIEWPORT
  5
22
102
{ACAD_XDICTIONARY
360
3A9A
102
}
330
17
100
AcDbEntity
 67
     1
  8
0
100
AcDbViewport
 10
313.6808219178083
 20
148.5
 30
0.0
 40
627.3616438356165
 41
297.0
 68
     2
 69
     1
 12
313.6808219178083
 22
148.5
 13
0.0
 23
0.0
 14
1.0
 24
1.0
 15
10.0
 25
10.0
 16
0.0
 26
0.0
 36
1.0
 17
0.0
 27
0.0
 37
0.0
 42
50.0
 43
0.0
 44
0.0
 45
297.0
 50
0.0
 51
0.0
 72
   100
 90
    32768
  1

281
     0
 71
     1
 74
     0
110
0.0
120
0.0
130
0.0
111
1.0
121
0.0
131
0.0
112
0.0
122
1.0
132
0.0
 79
     0
146
0.0
  0
VIEWPORT
  5
64
102
{ACAD_XDICTIONARY
360
3A9C
102
}
330
17
100
AcDbEntity
 67
     1
  8
VIEWPORT
100
AcDbViewport
 10
210.0
 20
148.5
 30
0.0
 40
420.0
 41
297.0
 68
     1
 69
     2
 12
210.0
 22
148.5
 13
0.0
 23
0.0
 14
5.0
 24
5.0
 15
0.0
 25
0.0
 16
0.0
 26
0.0
 36
1.0
 17
0.0
 27
0.0
 37
0.0
 42
50.0
 43
0.0
 44
0.0
 45
302.9399999999999
 50
0.0
 51
0.0
 72
   100
 90
    32768
  1

281
     0
 71
     1
 74
     0
110
0.0
120
0.0
130
0.0
111
1.0
121
0.0
131
0.0
112
0.0
122
1.0
132
0.0
 79
     0
146
0.0
  0
ENDSEC
  0
SECTION
  2
OBJECTS
  0
DICTIONARY
  5
C
330
0
100
AcDbDictionary
281
     1
  3
ACAD_COLOR
350
2F77
  3
ACAD_GROUP
350
D
  3
ACAD_LAYOUT
350
291
  3
ACAD_MATERIAL
350
2F45
  3
ACAD_MLEADERSTYLE
350
2F8C
  3
ACAD_MLINESTYLE
350
E
  3
ACAD_PLOTSETTINGS
350
292
  3
ACAD_PLOTSTYLENAME
350
28F
  3
ACAD_SCALELIST
350
2F7A
  3
ACAD_TABLESTYLE
350
2F78
  3
ACAD_VISUALSTYLE
350
2F5E
  3
ACDB_RECOMPOSE_DATA
350
3A98
  3
AcDbVariableDictionary
350
32A3
  3
DWGPROPS
350
3A99
  0
DICTIONARY
  5
32B8
330
8
100
AcDbDictionary
280
     1
281
     1
  0
DICTIONARY
  5
3121
330
F
100
AcDbDictionary
280
     1
281
     1
  3
ADSK_XREC_LAYER_RECONCILED
360
3122
  0
DICTIONARY
  5
3123
330
62
100
AcDbDictionary
280
     1
281
     1
  3
ADSK_XREC_LAYER_RECONCILED
360
3124
  0
DICTIONARY
  5
3125
330
6B
100
AcDbDictionary
280
     1
281
     1
  3
ADSK_XREC_LAYER_RECONCILED
360
3126
  0
DICTIONARY
  5
3127
330
140
100
AcDbDictionary
280
     1
281
     1
  3
ADSK_XREC_LAYER_RECONCILED
360
3128
  0
DICTIONARY
  5
3129
330
141
100
AcDbDictionary
280
     1
281
     1
  3
ADSK_XREC_LAYER_RECONCILED
360
312A
  0
DICTIONARY
  5
312B
330
142
100
AcDbDictionary
280
     1
281
     1
  3
ADSK_XREC_LAYER_RECONCILED
360
312C
  0
DICTIONARY
  5
312D
330
4EF
100
AcDbDictionary
280
     1
281
     1
  3
ADSK_XREC_LAYER_RECONCILED
360
312E
  0
DICTIONARY
  5
2D8
330
1A
100
AcDbDictionary
280
     1
281
     1
  3
ACAD_LAYOUTSELFREF
360
3755
  3
ACAD_SORTENTS
360
3082
  0
DICTIONARY
  5
2D6
330
17
100
AcDbDictionary
280
     1
281
     1
  3
ACAD_LAYOUTSELFREF
360
3754
  0
DICTIONARY
  5
3A9A
330
22
100
AcDbDictionary
280
     1
281
     1
  3
ACAD_XREC_ROUNDTRIP
360
3A9B
  0
DICTIONARY
  5
3A9C
330
64
100
AcDbDictionary
280
     1
281
     1
  3
ACAD_XREC_ROUNDTRIP
360
3A9D
  0
DICTIONARY
  5
2F77
102
{ACAD_REACTORS
330
C
102
}
330
C
100
AcDbDictionary
281
     1
  0
DICTIONARY
  5
D
102
{ACAD_REACTORS
330
C
102
}
330
C
100
AcDbDictionary
281
     1
  0
DICTIONARY
  5
291
102
{ACAD_REACTORS
330
C
102
}
330
C
100
AcDbDictionary
281
     1
  3
Model
350
293
  3
ﾚｲｱｳﾄ1
350
294
  0
DICTIONARY
  5
2F45
102
{ACAD_REACTORS
330
C
102
}
330
C
100
AcDbDictionary
281
     1
  3
ByBlock
350
2F4E
  3
ByLayer
350
2F46
  3
Global
350
2F56
  0
DICTIONARY
  5
2F8C
102
{ACAD_REACTORS
330
C
102
}
330
C
100
AcDbDictionary
281
     1
  3
Standard
350
3A8F
  0
DICTIONARY
  5
E
102
{ACAD_REACTORS
330
C
102
}
330
C
100
AcDbDictionary
281
     1
  3
STANDARD
350
13
  0
DICTIONARY
  5
292
102
{ACAD_REACTORS
330
C
102
}
330
C
100
AcDbDictionary
281
     1
  0
ACDBDICTIONARYWDFLT
  5
28F
102
{ACAD_REACTORS
330
C
102
}
330
C
100
AcDbDictionary
281
     1
  3
Normal
350
290
100
AcDbDictionaryWithDefault
340
290
  0
DICTIONARY
  5
2F7A
102
{ACAD_REACTORS
330
C
102
}
330
C
100
AcDbDictionary
281
     1
  3
A0
350
2F7B
  3
A1
350
2F7C
  3
A2
350
2F7D
  3
A3
350
2F7E
  3
A4
350
2F7F
  3
A5
350
2F80
  3
A6
350
2F81
  3
A7
350
2F82
  3
A8
350
2F83
  3
A9
350
2F84
  3
B0
350
2F85
  3
B1
350
2F86
  3
B2
350
2F87
  3
B3
350
2F88
  3
B4
350
2F89
  3
B5
350
2F8A
  3
B6
350
2F8B
  0
DICTIONARY
  5
2F78
102
{ACAD_REACTORS
330
C
102
}
330
C
100
AcDbDictionary
281
     1
  3
Standard
350
2F79
  0
DICTIONARY
  5
2F5E
102
{ACAD_REACTORS
330
C
102
}
330
C
100
AcDbDictionary
281
     1
  3
2dWireframe
350
2F64
  3
Basic
350
2F63
  3
Brighten
350
2F6A
  3
ColorChange
350
2F6E
  3
Conceptual
350
2F67
  3
Dim
350
2F69
  3
EdgeColorOff
350
2F76
  3
Facepattern
350
2F6D
  3
Flat
350
2F5F
  3
FlatWithEdges
350
2F60
  3
Gouraud
350
2F61
  3
GouraudWithEdges
350
2F62
  3
Hidden
350
2F66
  3
JitterOff
350
2F74
  3
Linepattern
350
2F6C
  3
OverhangOff
350
2F75
  3
Realistic
350
2F68
  3
Shaded
350
2F73
  3
Shaded with edges
350
2F72
  3
Shades of Gray
350
2F6F
  3
Sketchy
350
2F70
  3
Thicken
350
2F6B
  3
Wireframe
350
2F65
  3
X-Ray
350
2F71
  0
XRECORD
  5
3A98
102
{ACAD_REACTORS
330
C
102
}
330
C
100
AcDbXrecord
280
     1
 90
        1
330
2F79
330
378C
  0
DICTIONARY
  5
32A3
102
{ACAD_REACTORS
330
C
102
}
330
C
100
AcDbDictionary
281
     1
  3
CANNOSCALE
350
32A7
  3
CMLEADERSTYLE
350
32A5
  3
CTABLESTYLE
350
32A4
  3
DIMASSOC
350
32F9
  3
INDEXCTL
350
32F8
  3
LAYEREVAL
350
32A9
  3
LAYERNOTIFY
350
32AA
  3
LIGHTINGUNITS
350
32A8
  3
MSLTSCALE
350
32A6
  3
SORTENTS
350
32F7
  3
XCLIPFRAME
350
3A96
  0
XRECORD
  5
3A99
102
{ACAD_REACTORS
330
C
102
}
330
C
100
AcDbXrecord
280
     1
  1
DWGPROPS COOKIE
  2

  3

  4

  6

  7

  8
furukawa011
  9

300
=
301
=
302
=
303
=
304
=
305
=
306
=
307
=
308
=
309
=
 40
0.100296087962963
 41
2450994.350997107
 42
2458306.588276424
  1

 90
        0
  0
XRECORD
  5
3122
102
{ACAD_REACTORS
330
3121
102
}
330
3121
100
AcDbXrecord
280
     1
290
     1
  0
XRECORD
  5
3124
102
{ACAD_REACTORS
330
3123
102
}
330
3123
100
AcDbXrecord
280
     1
290
     1
  0
XRECORD
  5
3126
102
{ACAD_REACTORS
330
3125
102
}
330
3125
100
AcDbXrecord
280
     1
290
     1
  0
XRECORD
  5
3128
102
{ACAD_REACTORS
330
3127
102
}
330
3127
100
AcDbXrecord
280
     1
290
     1
  0
XRECORD
  5
312A
102
{ACAD_REACTORS
330
3129
102
}
330
3129
100
AcDbXrecord
280
     1
290
     1
  0
XRECORD
  5
312C
102
{ACAD_REACTORS
330
312B
102
}
330
312B
100
AcDbXrecord
280
     1
290
     1
  0
XRECORD
  5
312E
102
{ACAD_REACTORS
330
312D
102
}
330
312D
100
AcDbXrecord
280
     1
290
     1
  0
XRECORD
  5
3755
102
{ACAD_REACTORS
330
2D8
102
}
330
2D8
100
AcDbXrecord
280
     1
340
1A
  0
SORTENTSTABLE
  5
3082
102
{ACAD_REACTORS
330
2D8
102
}
330
2D8
100
AcDbSortentsTable
330
1A
331
2BB1
  5
2BB1
331
2BB9
  5
2BB9
331
2BE0
  5
2BE0
331
2BE8
  5
2BE8
331
2C27
  5
2C27
331
2C2F
  5
2C2F
331
2BF0
  5
2BF0
331
2C8E
  5
2C8E
331
2BF8
  5
2BF8
331
5F1
  5
5F1
331
2BC1
  5
2BC1
331
2C00
  5
2C00
331
2BA2
  5
2BA2
331
2BC9
  5
2BC9
331
2C08
  5
2C08
331
2C47
  5
2C47
331
2C10
  5
2C10
331
2BD1
  5
2BD1
331
2BD9
  5
2BD9
331
2C18
  5
2C18
331
2C67
  5
2C67
331
2C6F
  5
2C6F
331
2BB2
  5
2BB2
331
2BBA
  5
2BBA
331
2BE1
  5
2BE1
331
2C20
  5
2C20
331
2BE9
  5
2BE9
331
2C28
  5
2C28
331
2C30
  5
2C30
331
2BF1
  5
2BF1
331
2BF9
  5
2BF9
331
5F2
  5
5F2
331
2BC2
  5
2BC2
331
2C01
  5
2C01
331
2BA3
  5
2BA3
331
2BCA
  5
2BCA
331
2C09
  5
2C09
331
2C48
  5
2C48
331
2C11
  5
2C11
331
2BD2
  5
2BD2
331
2C60
  5
2C60
331
2BDA
  5
2BDA
331
2C19
  5
2C19
331
2C68
  5
2C68
331
2BB3
  5
2BB3
331
2BBB
  5
2BBB
331
2BE2
  5
2BE2
331
2C21
  5
2C21
331
2C70
  5
2C70
331
2BEA
  5
2BEA
331
2C29
  5
2C29
331
2BF2
  5
2BF2
331
2C31
  5
2C31
331
2BFA
  5
2BFA
331
5F3
  5
5F3
331
2BC3
  5
2BC3
331
2C02
  5
2C02
331
2BA4
  5
2BA4
331
2BCB
  5
2BCB
331
2C0A
  5
2C0A
331
2C49
  5
2C49
331
2C12
  5
2C12
331
2BD3
  5
2BD3
331
2C61
  5
2C61
331
2BDB
  5
2BDB
331
2C1A
  5
2C1A
331
2C69
  5
2C69
331
2BB4
  5
2BB4
331
2BBC
  5
2BBC
331
2BE3
  5
2BE3
331
2C22
  5
2C22
331
2C71
  5
2C71
331
2BEB
  5
2BEB
331
2C2A
  5
2C2A
331
2C89
  5
2C89
331
2BF3
  5
2BF3
331
2C32
  5
2C32
331
2BFB
  5
2BFB
331
2BC4
  5
2BC4
331
2C03
  5
2C03
331
2BA5
  5
2BA5
331
2BCC
  5
2BCC
331
2C0B
  5
2C0B
331
2C4A
  5
2C4A
331
2BD4
  5
2BD4
331
2C13
  5
2C13
331
2C62
  5
2C62
331
2BDC
  5
2BDC
331
2C1B
  5
2C1B
331
2C6A
  5
2C6A
331
2BB5
  5
2BB5
331
2BBD
  5
2BBD
331
2BE4
  5
2BE4
331
2C23
  5
2C23
331
2C72
  5
2C72
331
2C8A
  5
2C8A
331
2BEC
  5
2BEC
331
2C2B
  5
2C2B
331
2BF4
  5
2BF4
331
2C33
  5
2C33
331
2BFC
  5
2BFC
331
2BC5
  5
2BC5
331
2C04
  5
2C04
331
2BA6
  5
2BA6
331
2BCD
  5
2BCD
331
2C0C
  5
2C0C
331
2BD5
  5
2BD5
331
2C14
  5
2C14
331
2C63
  5
2C63
331
2BDD
  5
2BDD
331
2C1C
  5
2C1C
331
2C6B
  5
2C6B
331
2BB6
  5
2BB6
331
2BBE
  5
2BBE
331
2BE5
  5
2BE5
331
2C24
  5
2C24
331
2C73
  5
2C73
331
2C8B
  5
2C8B
331
2BED
  5
2BED
331
2C2C
  5
2C2C
331
2BF5
  5
2BF5
331
2C34
  5
2C34
331
2BFD
  5
2BFD
331
2BC6
  5
2BC6
331
2C05
  5
2C05
331
2BA7
  5
2BA7
331
2BCE
  5
2BCE
331
2C0D
  5
2C0D
331
2BD6
  5
2BD6
331
2C15
  5
2C15
331
2C64
  5
2C64
331
2BDE
  5
2BDE
331
2C1D
  5
2C1D
331
2C6C
  5
2C6C
331
2BB7
  5
2BB7
331
2BE6
  5
2BE6
331
2C25
  5
2C25
331
2C74
  5
2C74
331
2BBF
  5
2BBF
331
2C8C
  5
2C8C
331
2BEE
  5
2BEE
331
2C2D
  5
2C2D
331
2BF6
  5
2BF6
331
2C35
  5
2C35
331
2BFE
  5
2BFE
331
5EF
  5
5EF
331
2BC7
  5
2BC7
331
2C06
  5
2C06
331
2BCF
  5
2BCF
331
2C0E
  5
2C0E
331
2BD7
  5
2BD7
331
2C16
  5
2C16
331
2C65
  5
2C65
331
2BDF
  5
2BDF
331
2C1E
  5
2C1E
331
2C6D
  5
2C6D
331
2BA8
  5
2BA8
331
2BB0
  5
2BB0
331
2BB8
  5
2BB8
331
2BE7
  5
2BE7
331
2C26
  5
2C26
331
2C75
  5
2C75
331
2C2E
  5
2C2E
331
2BEF
  5
2BEF
331
2BF7
  5
2BF7
331
2C36
  5
2C36
331
2BFF
  5
2BFF
331
5F0
  5
5F0
331
2BC0
  5
2BC0
331
2BA1
  5
2BA1
331
2BC8
  5
2BC8
331
2C07
  5
2C07
331
2BD0
  5
2BD0
331
2C0F
  5
2C0F
331
2BD8
  5
2BD8
331
2C17
  5
2C17
331
2C66
  5
2C66
331
2C1F
  5
2C1F
331
2C6E
  5
2C6E
  0
XRECORD
  5
3754
102
{ACAD_REACTORS
330
2D6
102
}
330
2D6
100
AcDbXrecord
280
     1
340
17
  0
XRECORD
  5
3A9B
102
{ACAD_REACTORS
330
3A9A
102
}
330
3A9A
100
AcDbXrecord
280
     1
102
SHADEPLOT
 70
     0
  0
XRECORD
  5
3A9D
102
{ACAD_REACTORS
330
3A9C
102
}
330
3A9C
100
AcDbXrecord
280
     1
102
SHADEPLOT
 70
     0
  0
LAYOUT
  5
293
102
{ACAD_XDICTIONARY
360
3A9E
102
}
102
{ACAD_REACTORS
330
291
102
}
330
291
100
AcDbPlotSettings
  1

  2
PDF reDirect v2
  4
A3
  6

 40
3.174999952316284
 41
3.174999952316284
 42
3.17498779296875
 43
3.17498779296875
 44
297.0530090332031
 45
420.1583251953125
 46
7.44
 47
7.5
 48
0.0
 49
0.0
140
0.0
141
0.0
142
1.0
143
1.0
 70
 11956
 72
     1
 73
     1
 74
     1
  7
monochrome.ctb
 75
    16
147
1.0
148
-5.819092781538074
149
-8.148285613102189
100
AcDbLayout
  1
Model
 70
     1
 71
     0
 10
0.0
 20
0.0
 11
12.0
 21
9.0
 12
0.0
 22
0.0
 32
0.0
 14
0.0
 24
0.0
 34
0.0
 15
0.0
 25
0.0
 35
0.0
146
0.0
 13
0.0
 23
0.0
 33
0.0
 16
1.0
 26
0.0
 36
0.0
 17
0.0
 27
1.0
 37
0.0
 76
     0
330
1A
331
39C4
  0
LAYOUT
  5
294
102
{ACAD_XDICTIONARY
360
3AA0
102
}
102
{ACAD_REACTORS
330
291
102
}
330
291
100
AcDbPlotSettings
  1

  2
Acrobat Distiller
  4

  6

 40
0.0
 41
0.0
 42
0.0
 43
0.0
 44
0.0
 45
0.0
 46
0.0
 47
0.0
 48
0.0
 49
0.0
140
0.0
141
0.0
142
1.0
143
1.0
 70
   688
 72
     0
 73
     0
 74
     5
  7
monochrome.ctb
 75
    16
147
1.0
148
0.0
149
0.0
100
AcDbLayout
  1
ﾚｲｱｳﾄ1
 70
     1
 71
     1
 10
0.0
 20
0.0
 11
420.0
 21
297.0
 12
0.0
 22
0.0
 32
0.0
 14
0.0
 24
0.0
 34
0.0
 15
420.0
 25
297.0
 35
0.0
146
0.0
 13
0.0
 23
0.0
 33
0.0
 16
1.0
 26
0.0
 36
0.0
 17
0.0
 27
1.0
 37
0.0
 76
     0
330
17
331
64
  0
MATERIAL
  5
2F4E
102
{ACAD_XDICTIONARY
360
2F4F
102
}
102
{ACAD_REACTORS
330
2F45
102
}
330
2F45
100
AcDbMaterial
  1
ByBlock
 72
     0
 43
0.0208333333333333
 43
0.0
 43
0.0
 43
0.0
 43
0.0
 43
0.0208333333333333
 43
0.0
 43
0.0
 43
0.0
 43
0.0
 43
1.0
 43
0.0
 43
0.0
 43
0.0
 43
0.0
 43
1.0
 77
     0
 47
0.0208333333333333
 47
0.0
 47
0.0
 47
0.0
 47
0.0
 47
0.0208333333333333
 47
0.0
 47
0.0
 47
0.0
 47
0.0
 47
1.0
 47
0.0
 47
0.0
 47
0.0
 47
0.0
 47
1.0
171
     0
 49
0.0208333333333333
 49
0.0
 49
0.0
 49
0.0
 49
0.0
 49
0.0208333333333333
 49
0.0
 49
0.0
 49
0.0
 49
0.0
 49
1.0
 49
0.0
 49
0.0
 49
0.0
 49
0.0
 49
1.0
175
     0
142
0.0208333333333333
142
0.0
142
0.0
142
0.0
142
0.0
142
0.0208333333333333
142
0.0
142
0.0
142
0.0
142
0.0
142
1.0
142
0.0
142
0.0
142
0.0
142
0.0
142
1.0
179
     0
144
0.0208333333333333
144
0.0
144
0.0
144
0.0
144
0.0
144
0.0208333333333333
144
0.0
144
0.0
144
0.0
144
0.0
144
1.0
144
0.0
144
0.0
144
0.0
144
0.0
144
1.0
147
0.0208333333333333
147
0.0
147
0.0
147
0.0
147
0.0
147
0.0208333333333333
147
0.0
147
0.0
147
0.0
147
0.0
147
1.0
147
0.0
147
0.0
147
0.0
147
0.0
147
1.0
  0
MATERIAL
  5
2F46
102
{ACAD_XDICTIONARY
360
2F47
102
}
102
{ACAD_REACTORS
330
2F45
102
}
330
2F45
100
AcDbMaterial
  1
ByLayer
 72
     0
 43
0.0208333333333333
 43
0.0
 43
0.0
 43
0.0
 43
0.0
 43
0.0208333333333333
 43
0.0
 43
0.0
 43
0.0
 43
0.0
 43
1.0
 43
0.0
 43
0.0
 43
0.0
 43
0.0
 43
1.0
 77
     0
 47
0.0208333333333333
 47
0.0
 47
0.0
 47
0.0
 47
0.0
 47
0.0208333333333333
 47
0.0
 47
0.0
 47
0.0
 47
0.0
 47
1.0
 47
0.0
 47
0.0
 47
0.0
 47
0.0
 47
1.0
171
     0
 49
0.0208333333333333
 49
0.0
 49
0.0
 49
0.0
 49
0.0
 49
0.0208333333333333
 49
0.0
 49
0.0
 49
0.0
 49
0.0
 49
1.0
 49
0.0
 49
0.0
 49
0.0
 49
0.0
 49
1.0
175
     0
142
0.0208333333333333
142
0.0
142
0.0
142
0.0
142
0.0
142
0.0208333333333333
142
0.0
142
0.0
142
0.0
142
0.0
142
1.0
142
0.0
142
0.0
142
0.0
142
0.0
142
1.0
179
     0
144
0.0208333333333333
144
0.0
144
0.0
144
0.0
144
0.0
144
0.0208333333333333
144
0.0
144
0.0
144
0.0
144
0.0
144
1.0
144
0.0
144
0.0
144
0.0
144
0.0
144
1.0
147
0.0208333333333333
147
0.0
147
0.0
147
0.0
147
0.0
147
0.0208333333333333
147
0.0
147
0.0
147
0.0
147
0.0
147
1.0
147
0.0
147
0.0
147
0.0
147
0.0
147
1.0
  0
MATERIAL
  5
2F56
102
{ACAD_XDICTIONARY
360
2F57
102
}
102
{ACAD_REACTORS
330
2F45
102
}
330
2F45
100
AcDbMaterial
  1
Global
 72
     0
 43
0.0208333333333333
 43
0.0
 43
0.0
 43
0.0
 43
0.0
 43
0.0208333333333333
 43
0.0
 43
0.0
 43
0.0
 43
0.0
 43
1.0
 43
0.0
 43
0.0
 43
0.0
 43
0.0
 43
1.0
 77
     0
 47
0.0208333333333333
 47
0.0
 47
0.0
 47
0.0
 47
0.0
 47
0.0208333333333333
 47
0.0
 47
0.0
 47
0.0
 47
0.0
 47
1.0
 47
0.0
 47
0.0
 47
0.0
 47
0.0
 47
1.0
171
     0
 49
0.0208333333333333
 49
0.0
 49
0.0
 49
0.0
 49
0.0
 49
0.0208333333333333
 49
0.0
 49
0.0
 49
0.0
 49
0.0
 49
1.0
 49
0.0
 49
0.0
 49
0.0
 49
0.0
 49
1.0
175
     0
142
0.0208333333333333
142
0.0
142
0.0
142
0.0
142
0.0
142
0.0208333333333333
142
0.0
142
0.0
142
0.0
142
0.0
142
1.0
142
0.0
142
0.0
142
0.0
142
0.0
142
1.0
179
     0
144
0.0208333333333333
144
0.0
144
0.0
144
0.0
144
0.0
144
0.0208333333333333
144
0.0
144
0.0
144
0.0
144
0.0
144
1.0
144
0.0
144
0.0
144
0.0
144
0.0
144
1.0
147
0.0208333333333333
147
0.0
147
0.0
147
0.0
147
0.0
147
0.0208333333333333
147
0.0
147
0.0
147
0.0
147
0.0
147
1.0
147
0.0
147
0.0
147
0.0
147
0.0
147
1.0
  0
MLEADERSTYLE
  5
3A8F
102
{ACAD_REACTORS
330
2F8C
102
}
330
2F8C
100
AcDbMLeaderStyle
170
     2
171
     1
172
     0
 90
        2
 40
0.0
 41
0.0
173
     1
 91
-1056964608
340
14
 92
       -2
290
     1
 42
2.0
291
     1
 43
0.36
  3
Standard
 44
4.0
300

342
10
174
     1
178
     6
175
     1
176
     0
 93
-1056964608
 45
4.0
292
     0
297
     0
 46
4.0
 94
-1056964608
 47
1.0
 49
1.0
140
1.0
293
     1
141
0.0
294
     1
177
     0
142
1.0
295
     0
296
     0
143
0.125
1001
ACAD_MLEADERVER
1070
     2
  0
MLINESTYLE
  5
13
102
{ACAD_REACTORS
330
E
102
}
330
E
100
AcDbMlineStyle
  2
STANDARD
 70
     0
  3

 62
     0
 51
90.0
 52
90.0
 71
     2
 49
0.5
 62
   256
  6
BYLAYER
 49
-0.5
 62
   256
  6
BYLAYER
  0
ACDBPLACEHOLDER
  5
290
102
{ACAD_REACTORS
330
28F
102
}
330
28F
  0
SCALE
  5
2F7B
102
{ACAD_REACTORS
330
2F7A
102
}
330
2F7A
100
AcDbScale
 70
     0
300
1:1
140
1.0
141
1.0
290
     1
  0
SCALE
  5
2F7C
102
{ACAD_REACTORS
330
2F7A
102
}
330
2F7A
100
AcDbScale
 70
     0
300
1:2
140
1.0
141
2.0
290
     0
  0
SCALE
  5
2F7D
102
{ACAD_REACTORS
330
2F7A
102
}
330
2F7A
100
AcDbScale
 70
     0
300
1:4
140
1.0
141
4.0
290
     0
  0
SCALE
  5
2F7E
102
{ACAD_REACTORS
330
2F7A
102
}
330
2F7A
100
AcDbScale
 70
     0
300
1:5
140
1.0
141
5.0
290
     0
  0
SCALE
  5
2F7F
102
{ACAD_REACTORS
330
2F7A
102
}
330
2F7A
100
AcDbScale
 70
     0
300
1:8
140
1.0
141
8.0
290
     0
  0
SCALE
  5
2F80
102
{ACAD_REACTORS
330
2F7A
102
}
330
2F7A
100
AcDbScale
 70
     0
300
1:10
140
1.0
141
10.0
290
     0
  0
SCALE
  5
2F81
102
{ACAD_REACTORS
330
2F7A
102
}
330
2F7A
100
AcDbScale
 70
     0
300
1:16
140
1.0
141
16.0
290
     0
  0
SCALE
  5
2F82
102
{ACAD_REACTORS
330
2F7A
102
}
330
2F7A
100
AcDbScale
 70
     0
300
1:20
140
1.0
141
20.0
290
     0
  0
SCALE
  5
2F83
102
{ACAD_REACTORS
330
2F7A
102
}
330
2F7A
100
AcDbScale
 70
     0
300
1:30
140
1.0
141
30.0
290
     0
  0
SCALE
  5
2F84
102
{ACAD_REACTORS
330
2F7A
102
}
330
2F7A
100
AcDbScale
 70
     0
300
1:40
140
1.0
141
40.0
290
     0
  0
SCALE
  5
2F85
102
{ACAD_REACTORS
330
2F7A
102
}
330
2F7A
100
AcDbScale
 70
     0
300
1:50
140
1.0
141
50.0
290
     0
  0
SCALE
  5
2F86
102
{ACAD_REACTORS
330
2F7A
102
}
330
2F7A
100
AcDbScale
 70
     0
300
1:100
140
1.0
141
100.0
290
     0
  0
SCALE
  5
2F87
102
{ACAD_REACTORS
330
2F7A
102
}
330
2F7A
100
AcDbScale
 70
     0
300
2:1
140
2.0
141
1.0
290
     0
  0
SCALE
  5
2F88
102
{ACAD_REACTORS
330
2F7A
102
}
330
2F7A
100
AcDbScale
 70
     0
300
4:1
140
4.0
141
1.0
290
     0
  0
SCALE
  5
2F89
102
{ACAD_REACTORS
330
2F7A
102
}
330
2F7A
100
AcDbScale
 70
     0
300
8:1
140
8.0
141
1.0
290
     0
  0
SCALE
  5
2F8A
102
{ACAD_REACTORS
330
2F7A
102
}
330
2F7A
100
AcDbScale
 70
     0
300
10:1
140
10.0
141
1.0
290
     0
  0
SCALE
  5
2F8B
102
{ACAD_REACTORS
330
2F7A
102
}
330
2F7A
100
AcDbScale
 70
     0
300
100:1
140
100.0
141
1.0
290
     0
  0
TABLESTYLE
  5
2F79
102
{ACAD_XDICTIONARY
360
32B4
102
}
102
{ACAD_REACTORS
330
2F78
102
}
330
2F78
100
AcDbTableStyle
  3
Standard
 70
     0
 71
     0
 40
1.5
 41
1.5
280
     0
281
     0
  7
STANDARD
140
4.5
170
     2
 62
     0
 63
     7
283
     0
274
    -2
284
     1
 64
     0
275
    -2
285
     1
 65
     0
276
    -2
286
     1
 66
     0
277
    -2
287
     1
 67
     0
278
    -2
288
     1
 68
     0
279
    -2
289
     1
 69
     0
  7
STANDARD
140
6.0
170
     5
 62
     0
 63
     7
283
     0
274
    -2
284
     1
 64
     0
275
    -2
285
     1
 65
     0
276
    -2
286
     1
 66
     0
277
    -2
287
     1
 67
     0
278
    -2
288
     1
 68
     0
279
    -2
289
     1
 69
     0
  7
STANDARD
140
4.5
170
     5
 62
     0
 63
     7
283
     0
274
    -2
284
     1
 64
     0
275
    -2
285
     1
 65
     0
276
    -2
286
     1
 66
     0
277
    -2
287
     1
 67
     0
278
    -2
288
     1
 68
     0
279
    -2
289
     1
 69
     0
  0
VISUALSTYLE
  5
2F64
102
{ACAD_XDICTIONARY
360
3AAF
102
}
102
{ACAD_REACTORS
330
2F5E
102
}
330
2F5E
100
AcDbVisualStyle
  2
2dWireframe
 70
     4
 71
     0
 72
     2
 73
     0
 90
        0
 40
-0.6
 41
-30.0
 62
     5
 63
     7
 74
     1
 91
        4
 64
     7
 65
   257
 75
     1
175
     1
 42
1.0
 92
        0
 66
   257
 43
1.0
 76
     1
 77
     6
 78
     2
 67
     7
 79
     5
170
     0
171
     0
290
     0
174
     0
 93
        1
 44
0.0
173
     0
291
     0
 45
0.0
1001
ACAD
1000
AcDbSavedByObjectVersion
1070
     0
  0
VISUALSTYLE
  5
2F63
102
{ACAD_XDICTIONARY
360
3AAD
102
}
102
{ACAD_REACTORS
330
2F5E
102
}
330
2F5E
100
AcDbVisualStyle
  2
Basic
 70
     7
 71
     1
 72
     0
 73
     1
 90
        0
 40
-0.6
 41
-30.0
 62
     5
 63
     7
 74
     0
 91
        4
 64
     7
 65
   257
 75
     1
175
     1
 42
1.0
 92
        8
 66
     7
 43
1.0
 76
     1
 77
     6
 78
     2
 67
     7
 79
     5
170
     0
171
     0
290
     0
174
     0
 93
        1
 44
0.0
173
     0
291
     1
 45
0.0
1001
ACAD
1000
AcDbSavedByObjectVersion
1070
     0
  0
VISUALSTYLE
  5
2F6A
102
{ACAD_XDICTIONARY
360
3ABB
102
}
102
{ACAD_REACTORS
330
2F5E
102
}
330
2F5E
100
AcDbVisualStyle
  2
Brighten
 70
    12
 71
     2
 72
     2
 73
     0
 90
        0
 40
-0.6
 41
-30.0
 62
     5
 63
     7
 74
     1
 91
        4
 64
     7
 65
   257
 75
     1
175
     1
 42
1.0
 92
        8
 66
     7
 43
1.0
 76
     1
 77
     6
 78
     2
 67
     7
 79
     5
170
     0
171
     0
290
     0
174
     0
 93
        1
 44
50.0
173
     0
291
     1
 45
0.0
1001
ACAD
1000
AcDbSavedByObjectVersion
1070
     0
  0
VISUALSTYLE
  5
2F6E
102
{ACAD_XDICTIONARY
360
3AC3
102
}
102
{ACAD_REACTORS
330
2F5E
102
}
330
2F5E
100
AcDbVisualStyle
  2
ColorChange
 70
    16
 71
     2
 72
     2
 73
     3
 90
        0
 40
-0.6
 41
-30.0
 62
     5
 63
     8
 74
     1
 91
        4
 64
     7
 65
   257
 75
     1
175
     1
 42
1.0
 92
        8
 66
     8
 43
1.0
 76
     1
 77
     6
 78
     2
 67
     7
 79
     5
170
     0
171
     0
290
     0
174
     0
 93
        1
 44
0.0
173
     0
291
     1
 45
0.0
1001
ACAD
1000
AcDbSavedByObjectVersion
1070
     0
  0
VISUALSTYLE
  5
2F67
102
{ACAD_XDICTIONARY
360
3AB5
102
}
102
{ACAD_REACTORS
330
2F5E
102
}
330
2F5E
100
AcDbVisualStyle
  2
Conceptual
 70
     9
 71
     3
 72
     2
 73
     0
 90
        0
 40
-0.6
 41
-30.0
 62
     5
 63
     7
 74
     2
 91
        2
 64
     7
 65
   257
 75
     1
175
     1
 42
179.0
 92
        8
 66
     7
 43
1.0
 76
     1
 77
     6
 78
     2
 67
     7
 79
     3
170
     0
171
     0
290
     0
174
     0
 93
        1
 44
0.0
173
     0
291
     0
 45
0.0
1001
ACAD
1000
AcDbSavedByObjectVersion
1070
     0
  0
VISUALSTYLE
  5
2F69
102
{ACAD_XDICTIONARY
360
3AB9
102
}
102
{ACAD_REACTORS
330
2F5E
102
}
330
2F5E
100
AcDbVisualStyle
  2
Dim
 70
    11
 71
     2
 72
     2
 73
     0
 90
        0
 40
-0.6
 41
-30.0
 62
     5
 63
     7
 74
     1
 91
        4
 64
     7
 65
   257
 75
     1
175
     1
 42
1.0
 92
        8
 66
     7
 43
1.0
 76
     1
 77
     6
 78
     2
 67
     7
 79
     5
170
     0
171
     0
290
     0
174
     0
 93
        1
 44
-50.0
173
     0
291
     1
 45
0.0
1001
ACAD
1000
AcDbSavedByObjectVersion
1070
     0
  0
VISUALSTYLE
  5
2F76
102
{ACAD_XDICTIONARY
360
3AD3
102
}
102
{ACAD_REACTORS
330
2F5E
102
}
330
2F5E
100
AcDbVisualStyle
  2
EdgeColorOff
 70
    22
 71
     2
 72
     2
 73
     0
 90
        0
 40
-0.6
 41
-30.0
 62
     5
 63
     7
 74
     1
 91
        4
 64
     7
 65
   257
 75
     1
175
     1
 42
1.0
 92
        8
 66
     7
 43
1.0
 76
     1
 77
     6
 78
     2
 67
     7
 79
     5
170
     0
171
     0
290
     0
174
     0
 93
        1
 44
0.0
173
     0
291
     1
 45
0.0
1001
ACAD
1000
AcDbSavedByObjectVersion
1070
     0
  0
VISUALSTYLE
  5
2F6D
102
{ACAD_XDICTIONARY
360
3AC1
102
}
102
{ACAD_REACTORS
330
2F5E
102
}
330
2F5E
100
AcDbVisualStyle
  2
Facepattern
 70
    15
 71
     2
 72
     2
 73
     0
 90
        0
 40
-0.6
 41
-30.0
 62
     5
 63
     7
 74
     1
 91
        4
 64
     7
 65
   257
 75
     1
175
     1
 42
1.0
 92
        8
 66
     7
 43
1.0
 76
     1
 77
     6
 78
     2
 67
     7
 79
     5
170
     0
171
     0
290
     0
174
     0
 93
        1
 44
0.0
173
     0
291
     1
 45
0.0
1001
ACAD
1000
AcDbSavedByObjectVersion
1070
     0
  0
VISUALSTYLE
  5
2F5F
102
{ACAD_XDICTIONARY
360
3AA5
102
}
102
{ACAD_REACTORS
330
2F5E
102
}
330
2F5E
100
AcDbVisualStyle
  2
Flat
 70
     0
 71
     2
 72
     1
 73
     1
 90
        2
 40
-0.6
 41
30.0
 62
     5
 63
     7
 74
     0
 91
        0
 64
     7
 65
   257
 75
     1
175
     1
 42
1.0
 92
        8
 66
     7
 43
1.0
 76
     1
 77
     6
 78
     2
 67
     7
 79
     5
170
     0
171
     0
290
     0
174
     0
 93
       13
 44
0.0
173
     0
291
     1
 45
0.0
1001
ACAD
1000
AcDbSavedByObjectVersion
1070
     0
  0
VISUALSTYLE
  5
2F60
102
{ACAD_XDICTIONARY
360
3AA7
102
}
102
{ACAD_REACTORS
330
2F5E
102
}
330
2F5E
100
AcDbVisualStyle
  2
FlatWithEdges
 70
     1
 71
     2
 72
     1
 73
     1
 90
        2
 40
-0.6
 41
30.0
 62
     5
 63
     7
 74
     1
 91
        0
 64
     7
 65
   257
 75
     1
175
     1
 42
1.0
 92
        0
 66
   257
 43
1.0
 76
     1
 77
     6
 78
     2
 67
     7
 79
     5
170
     0
171
     0
290
     0
174
     0
 93
       13
 44
0.0
173
     0
291
     1
 45
0.0
1001
ACAD
1000
AcDbSavedByObjectVersion
1070
     0
  0
VISUALSTYLE
  5
2F61
102
{ACAD_XDICTIONARY
360
3AA9
102
}
102
{ACAD_REACTORS
330
2F5E
102
}
330
2F5E
100
AcDbVisualStyle
  2
Gouraud
 70
     2
 71
     2
 72
     2
 73
     1
 90
        2
 40
-0.6
 41
30.0
 62
     5
 63
     7
 74
     0
 91
        0
 64
     7
 65
   257
 75
     1
175
     1
 42
1.0
 92
        0
 66
     7
 43
1.0
 76
     1
 77
     6
 78
     2
 67
     7
 79
     5
170
     0
171
     0
290
     0
174
     0
 93
       13
 44
0.0
173
     0
291
     1
 45
0.0
1001
ACAD
1000
AcDbSavedByObjectVersion
1070
     0
  0
VISUALSTYLE
  5
2F62
102
{ACAD_XDICTIONARY
360
3AAB
102
}
102
{ACAD_REACTORS
330
2F5E
102
}
330
2F5E
100
AcDbVisualStyle
  2
GouraudWithEdges
 70
     3
 71
     2
 72
     2
 73
     1
 90
        2
 40
-0.6
 41
30.0
 62
     5
 63
     7
 74
     1
 91
        0
 64
     7
 65
   257
 75
     1
175
     1
 42
1.0
 92
        0
 66
   257
 43
1.0
 76
     1
 77
     6
 78
     2
 67
     7
 79
     5
170
     0
171
     0
290
     0
174
     0
 93
       13
 44
0.0
173
     0
291
     1
 45
0.0
1001
ACAD
1000
AcDbSavedByObjectVersion
1070
     0
  0
VISUALSTYLE
  5
2F66
102
{ACAD_XDICTIONARY
360
3AB3
102
}
102
{ACAD_REACTORS
330
2F5E
102
}
330
2F5E
100
AcDbVisualStyle
  2
Hidden
 70
     6
 71
     1
 72
     2
 73
     2
 90
        0
 40
-0.6
 41
-30.0
 62
     5
 63
     7
 74
     2
 91
        2
 64
     7
 65
   257
 75
     2
175
     1
 42
40.0
 92
        0
 66
   257
 43
1.0
 76
     1
 77
     6
 78
     2
 67
     7
 79
     3
170
     0
171
     0
290
     0
174
     0
 93
        1
 44
0.0
173
     0
291
     0
 45
0.0
1001
ACAD
1000
AcDbSavedByObjectVersion
1070
     0
  0
VISUALSTYLE
  5
2F74
102
{ACAD_XDICTIONARY
360
3ACF
102
}
102
{ACAD_REACTORS
330
2F5E
102
}
330
2F5E
100
AcDbVisualStyle
  2
JitterOff
 70
    20
 71
     2
 72
     2
 73
     0
 90
        0
 40
-0.6
 41
-30.0
 62
     5
 63
     7
 74
     1
 91
        4
 64
     7
 65
   257
 75
     1
175
     1
 42
1.0
 92
       10
 66
     7
 43
1.0
 76
     1
 77
     6
 78
     2
 67
     7
 79
     5
170
     0
171
     0
290
     0
174
     0
 93
        1
 44
0.0
173
     0
291
     1
 45
0.0
1001
ACAD
1000
AcDbSavedByObjectVersion
1070
     0
  0
VISUALSTYLE
  5
2F6C
102
{ACAD_XDICTIONARY
360
3ABF
102
}
102
{ACAD_REACTORS
330
2F5E
102
}
330
2F5E
100
AcDbVisualStyle
  2
Linepattern
 70
    14
 71
     2
 72
     2
 73
     0
 90
        0
 40
-0.6
 41
-30.0
 62
     5
 63
     7
 74
     1
 91
        4
 64
     7
 65
   257
 75
     7
175
     7
 42
1.0
 92
        8
 66
     7
 43
1.0
 76
     1
 77
     6
 78
     2
 67
     7
 79
     5
170
     0
171
     0
290
     0
174
     0
 93
        1
 44
0.0
173
     0
291
     1
 45
0.0
1001
ACAD
1000
AcDbSavedByObjectVersion
1070
     0
  0
VISUALSTYLE
  5
2F75
102
{ACAD_XDICTIONARY
360
3AD1
102
}
102
{ACAD_REACTORS
330
2F5E
102
}
330
2F5E
100
AcDbVisualStyle
  2
OverhangOff
 70
    21
 71
     2
 72
     2
 73
     0
 90
        0
 40
-0.6
 41
-30.0
 62
     5
 63
     7
 74
     1
 91
        4
 64
     7
 65
   257
 75
     1
175
     1
 42
1.0
 92
        9
 66
     7
 43
1.0
 76
     1
 77
     6
 78
     2
 67
     7
 79
     5
170
     0
171
     0
290
     0
174
     0
 93
        1
 44
0.0
173
     0
291
     1
 45
0.0
1001
ACAD
1000
AcDbSavedByObjectVersion
1070
     0
  0
VISUALSTYLE
  5
2F68
102
{ACAD_XDICTIONARY
360
3AB7
102
}
102
{ACAD_REACTORS
330
2F5E
102
}
330
2F5E
100
AcDbVisualStyle
  2
Realistic
 70
     8
 71
     2
 72
     2
 73
     0
 90
        2
 40
-0.6
 41
30.0
 62
     5
 63
     7
 74
     0
 91
        0
 64
     7
 65
   257
 75
     1
175
     1
 42
1.0
 92
        8
 66
   257
 43
1.0
 76
     1
 77
     6
 78
     2
 67
     7
 79
     3
170
     0
171
     0
290
     0
174
     0
 93
       13
 44
0.0
173
     0
291
     0
 45
0.0
1001
ACAD
1000
AcDbSavedByObjectVersion
1070
     0
  0
VISUALSTYLE
  5
2F73
102
{ACAD_XDICTIONARY
360
3ACD
102
}
102
{ACAD_REACTORS
330
2F5E
102
}
330
2F5E
100
AcDbVisualStyle
  2
Shaded
 70
    27
 71
     2
 72
     2
 73
     1
 90
        2
 40
-0.6
 41
30.0
 62
     5
 63
     7
 74
     0
 91
        4
 64
     7
 65
   257
 75
     1
175
     1
 42
1.0
 92
        8
 66
   257
 43
1.0
 76
     1
 77
     6
 78
     2
 67
     8
 79
     3
170
     0
171
     0
290
     0
174
     0
 93
        5
 44
0.0
173
     0
291
     0
 45
0.0
1001
ACAD
1000
AcDbSavedByObjectVersion
1070
     0
  0
VISUALSTYLE
  5
2F72
102
{ACAD_XDICTIONARY
360
3ACB
102
}
102
{ACAD_REACTORS
330
2F5E
102
}
330
2F5E
100
AcDbVisualStyle
  2
Shaded with edges
 70
    26
 71
     2
 72
     2
 73
     1
 90
        2
 40
-0.6
 41
30.0
 62
     5
 63
     7
 74
     1
 91
       10
 64
     7
 65
   257
 75
     2
175
     1
 42
1.0
 92
        8
 66
   257
 43
1.0
 76
     1
 77
     6
 78
     2
 67
     7
 79
     3
170
     0
171
     0
290
     0
174
     0
 93
        5
 44
0.0
173
     0
291
     0
 45
0.0
1001
ACAD
1000
AcDbSavedByObjectVersion
1070
     0
  0
VISUALSTYLE
  5
2F6F
102
{ACAD_XDICTIONARY
360
3AC5
102
}
102
{ACAD_REACTORS
330
2F5E
102
}
330
2F5E
100
AcDbVisualStyle
  2
Shades of Gray
 70
    23
 71
     2
 72
     2
 73
     3
 90
        0
 40
-0.6
 41
-30.0
 62
     5
 63
     7
 74
     2
 91
        2
 64
     7
 65
     7
 75
     1
175
     1
 42
40.0
 92
        8
 66
     7
 43
1.0
 76
     1
 77
     6
 78
     2
 67
     7
 79
     3
170
     0
171
     0
290
     0
174
     0
 93
        1
 44
0.0
173
     0
291
     0
 45
0.0
1001
ACAD
1000
AcDbSavedByObjectVersion
1070
     0
  0
VISUALSTYLE
  5
2F70
102
{ACAD_XDICTIONARY
360
3AC7
102
}
102
{ACAD_REACTORS
330
2F5E
102
}
330
2F5E
100
AcDbVisualStyle
  2
Sketchy
 70
    24
 71
     1
 72
     2
 73
     2
 90
        0
 40
-0.6
 41
-30.0
 62
     5
 63
     7
 74
     2
 91
        2
 64
     7
 65
     7
 75
     1
175
     1
 42
40.0
 92
       11
 66
     7
 43
1.0
 76
     1
 77
     6
 78
     2
 67
     7
 79
     6
170
     0
171
     0
290
     0
174
     0
 93
        1
 44
0.0
173
     0
291
     0
 45
0.0
1001
ACAD
1000
AcDbSavedByObjectVersion
1070
     0
  0
VISUALSTYLE
  5
2F6B
102
{ACAD_XDICTIONARY
360
3ABD
102
}
102
{ACAD_REACTORS
330
2F5E
102
}
330
2F5E
100
AcDbVisualStyle
  2
Thicken
 70
    13
 71
     2
 72
     2
 73
     0
 90
        0
 40
-0.6
 41
-30.0
 62
     5
 63
     7
 74
     1
 91
        4
 64
     7
 65
   257
 75
     1
175
     1
 42
1.0
 92
       12
 66
     7
 43
1.0
 76
     1
 77
     6
 78
     2
 67
     7
 79
     5
170
     0
171
     0
290
     0
174
     0
 93
        1
 44
0.0
173
     0
291
     1
 45
0.0
1001
ACAD
1000
AcDbSavedByObjectVersion
1070
     0
  0
VISUALSTYLE
  5
2F65
102
{ACAD_XDICTIONARY
360
3AB1
102
}
102
{ACAD_REACTORS
330
2F5E
102
}
330
2F5E
100
AcDbVisualStyle
  2
Wireframe
 70
     5
 71
     0
 72
     2
 73
     0
 90
        0
 40
-0.6
 41
-30.0
 62
     5
 63
     7
 74
     1
 91
        4
 64
     7
 65
   257
 75
     1
175
     1
 42
1.0
 92
        0
 66
   257
 43
1.0
 76
     1
 77
     6
 78
     2
 67
     7
 79
     3
170
     0
171
     0
290
     0
174
     0
 93
        1
 44
0.0
173
     0
291
     0
 45
0.0
1001
ACAD
1000
AcDbSavedByObjectVersion
1070
     0
  0
VISUALSTYLE
  5
2F71
102
{ACAD_XDICTIONARY
360
3AC9
102
}
102
{ACAD_REACTORS
330
2F5E
102
}
330
2F5E
100
AcDbVisualStyle
  2
X-Ray
 70
    25
 71
     2
 72
     2
 73
     1
 90
        1
 40
0.5
 41
-30.0
 62
     5
 63
     7
 74
     1
 91
        0
 64
     7
 65
   257
 75
     1
175
     1
 42
1.0
 92
        8
 66
     7
 43
1.0
 76
     1
 77
     6
 78
     2
 67
     7
 79
     3
170
     0
171
     0
290
     0
174
     0
 93
       13
 44
0.0
173
     0
291
     0
 45
0.0
1001
ACAD
1000
AcDbSavedByObjectVersion
1070
     0
  0
DICTIONARYVAR
  5
32A7
102
{ACAD_REACTORS
330
32A3
102
}
330
32A3
100
DictionaryVariables
280
     0
  1
1:1
  0
DICTIONARYVAR
  5
32A5
102
{ACAD_REACTORS
330
32A3
102
}
330
32A3
100
DictionaryVariables
280
     0
  1
STANDARD
  0
DICTIONARYVAR
  5
32A4
102
{ACAD_REACTORS
330
32A3
102
}
330
32A3
100
DictionaryVariables
280
     0
  1
STANDARD
  0
DICTIONARYVAR
  5
32F9
102
{ACAD_REACTORS
330
32A3
102
}
330
32A3
100
DictionaryVariables
280
     0
  1
1
  0
DICTIONARYVAR
  5
32F8
102
{ACAD_REACTORS
330
32A3
102
}
330
32A3
100
DictionaryVariables
280
     0
  1
0
  0
DICTIONARYVAR
  5
32A9
102
{ACAD_REACTORS
330
32A3
102
}
330
32A3
100
DictionaryVariables
280
     0
  1
1
  0
DICTIONARYVAR
  5
32AA
102
{ACAD_REACTORS
330
32A3
102
}
330
32A3
100
DictionaryVariables
280
     0
  1
15
  0
DICTIONARYVAR
  5
32A8
102
{ACAD_REACTORS
330
32A3
102
}
330
32A3
100
DictionaryVariables
280
     0
  1
0
  0
DICTIONARYVAR
  5
32A6
102
{ACAD_REACTORS
330
32A3
102
}
330
32A3
100
DictionaryVariables
280
     0
  1
0
  0
DICTIONARYVAR
  5
32F7
102
{ACAD_REACTORS
330
32A3
102
}
330
32A3
100
DictionaryVariables
280
     0
  1
127
  0
DICTIONARYVAR
  5
3A96
102
{ACAD_REACTORS
330
32A3
102
}
330
32A3
100
DictionaryVariables
280
     0
  1
2
  0
DICTIONARY
  5
3A9E
330
293
100
AcDbDictionary
280
     1
281
     1
  3
ACAD_XREC_ROUNDTRIP
360
3A9F
  0
DICTIONARY
  5
3AA0
330
294
100
AcDbDictionary
280
     1
281
     1
  3
ACAD_XREC_ROUNDTRIP
360
3AA1
  0
DICTIONARY
  5
2F4F
330
2F4E
100
AcDbDictionary
280
     1
281
     1
  3
ACAD_XREC_ROUNDTRIP
360
3AA3
  3
BUMPTILE
360
2F51
  3
DIFFUSETILE
360
2F50
  3
OPACITYTILE
360
2F54
  3
REFLECTIONTILE
360
2F53
  3
REFRACTIONTILE
360
2F55
  3
SPECULARTILE
360
2F52
  0
DICTIONARY
  5
2F47
330
2F46
100
AcDbDictionary
280
     1
281
     1
  3
ACAD_XREC_ROUNDTRIP
360
3AA2
  3
BUMPTILE
360
2F49
  3
DIFFUSETILE
360
2F48
  3
OPACITYTILE
360
2F4C
  3
REFLECTIONTILE
360
2F4B
  3
REFRACTIONTILE
360
2F4D
  3
SPECULARTILE
360
2F4A
  0
DICTIONARY
  5
2F57
330
2F56
100
AcDbDictionary
280
     1
281
     1
  3
ACAD_XREC_ROUNDTRIP
360
3AA4
  3
BUMPTILE
360
2F59
  3
DIFFUSETILE
360
2F58
  3
OPACITYTILE
360
2F5C
  3
REFLECTIONTILE
360
2F5B
  3
REFRACTIONTILE
360
2F5D
  3
SPECULARTILE
360
2F5A
  0
DICTIONARY
  5
32B4
330
2F79
100
AcDbDictionary
280
     1
281
     1
  3
ACAD_ROUNDTRIP_2008_TABLESTYLE_CELLSTYLEMAP
360
3A97
  3
ACAD_XREC_ROUNDTRIP
360
3AD5
  0
DICTIONARY
  5
3AAF
330
2F64
100
AcDbDictionary
280
     1
281
     1
  3
ACAD_XREC_ROUNDTRIP
360
3AB0
  0
DICTIONARY
  5
3AAD
330
2F63
100
AcDbDictionary
280
     1
281
     1
  3
ACAD_XREC_ROUNDTRIP
360
3AAE
  0
DICTIONARY
  5
3ABB
330
2F6A
100
AcDbDictionary
280
     1
281
     1
  3
ACAD_XREC_ROUNDTRIP
360
3ABC
  0
DICTIONARY
  5
3AC3
330
2F6E
100
AcDbDictionary
280
     1
281
     1
  3
ACAD_XREC_ROUNDTRIP
360
3AC4
  0
DICTIONARY
  5
3AB5
330
2F67
100
AcDbDictionary
280
     1
281
     1
  3
ACAD_XREC_ROUNDTRIP
360
3AB6
  0
DICTIONARY
  5
3AB9
330
2F69
100
AcDbDictionary
280
     1
281
     1
  3
ACAD_XREC_ROUNDTRIP
360
3ABA
  0
DICTIONARY
  5
3AD3
330
2F76
100
AcDbDictionary
280
     1
281
     1
  3
ACAD_XREC_ROUNDTRIP
360
3AD4
  0
DICTIONARY
  5
3AC1
330
2F6D
100
AcDbDictionary
280
     1
281
     1
  3
ACAD_XREC_ROUNDTRIP
360
3AC2
  0
DICTIONARY
  5
3AA5
330
2F5F
100
AcDbDictionary
280
     1
281
     1
  3
ACAD_XREC_ROUNDTRIP
360
3AA6
  0
DICTIONARY
  5
3AA7
330
2F60
100
AcDbDictionary
280
     1
281
     1
  3
ACAD_XREC_ROUNDTRIP
360
3AA8
  0
DICTIONARY
  5
3AA9
330
2F61
100
AcDbDictionary
280
     1
281
     1
  3
ACAD_XREC_ROUNDTRIP
360
3AAA
  0
DICTIONARY
  5
3AAB
330
2F62
100
AcDbDictionary
280
     1
281
     1
  3
ACAD_XREC_ROUNDTRIP
360
3AAC
  0
DICTIONARY
  5
3AB3
330
2F66
100
AcDbDictionary
280
     1
281
     1
  3
ACAD_XREC_ROUNDTRIP
360
3AB4
  0
DICTIONARY
  5
3ACF
330
2F74
100
AcDbDictionary
280
     1
281
     1
  3
ACAD_XREC_ROUNDTRIP
360
3AD0
  0
DICTIONARY
  5
3ABF
330
2F6C
100
AcDbDictionary
280
     1
281
     1
  3
ACAD_XREC_ROUNDTRIP
360
3AC0
  0
DICTIONARY
  5
3AD1
330
2F75
100
AcDbDictionary
280
     1
281
     1
  3
ACAD_XREC_ROUNDTRIP
360
3AD2
  0
DICTIONARY
  5
3AB7
330
2F68
100
AcDbDictionary
280
     1
281
     1
  3
ACAD_XREC_ROUNDTRIP
360
3AB8
  0
DICTIONARY
  5
3ACD
330
2F73
100
AcDbDictionary
280
     1
281
     1
  3
ACAD_XREC_ROUNDTRIP
360
3ACE
  0
DICTIONARY
  5
3ACB
330
2F72
100
AcDbDictionary
280
     1
281
     1
  3
ACAD_XREC_ROUNDTRIP
360
3ACC
  0
DICTIONARY
  5
3AC5
330
2F6F
100
AcDbDictionary
280
     1
281
     1
  3
ACAD_XREC_ROUNDTRIP
360
3AC6
  0
DICTIONARY
  5
3AC7
330
2F70
100
AcDbDictionary
280
     1
281
     1
  3
ACAD_XREC_ROUNDTRIP
360
3AC8
  0
DICTIONARY
  5
3ABD
330
2F6B
100
AcDbDictionary
280
     1
281
     1
  3
ACAD_XREC_ROUNDTRIP
360
3ABE
  0
DICTIONARY
  5
3AB1
330
2F65
100
AcDbDictionary
280
     1
281
     1
  3
ACAD_XREC_ROUNDTRIP
360
3AB2
  0
DICTIONARY
  5
3AC9
330
2F71
100
AcDbDictionary
280
     1
281
     1
  3
ACAD_XREC_ROUNDTRIP
360
3ACA
  0
XRECORD
  5
3A9F
102
{ACAD_REACTORS
330
3A9E
102
}
330
3A9E
100
AcDbXrecord
280
     1
102
SHADEPLOT
 70
     0
102
SHADEPLOTRESLEVEL
 70
     2
102
SHADEPLOTCUSTOMDPI
 70
   300
  0
XRECORD
  5
3AA1
102
{ACAD_REACTORS
330
3AA0
102
}
330
3AA0
100
AcDbXrecord
280
     1
102
SHADEPLOT
 70
     0
102
SHADEPLOTRESLEVEL
 70
     2
102
SHADEPLOTCUSTOMDPI
 70
   300
  0
XRECORD
  5
3AA3
102
{ACAD_REACTORS
330
2F4F
102
}
330
2F4F
100
AcDbXrecord
280
     1
102
MATERIAL
148
0.0
149
0.0
149
0.0
 93
        0
 94
      127
282
     0
 72
     0
 77
     0
171
     0
175
     0
179
     0
273
     0
  0
XRECORD
  5
2F51
102
{ACAD_REACTORS
330
2F4F
102
}
330
2F4F
100
AcDbXrecord
280
     1
270
     1
271
     1
  0
XRECORD
  5
2F50
102
{ACAD_REACTORS
330
2F4F
102
}
330
2F4F
100
AcDbXrecord
280
     1
270
     1
271
     1
  0
XRECORD
  5
2F54
102
{ACAD_REACTORS
330
2F4F
102
}
330
2F4F
100
AcDbXrecord
280
     1
270
     1
271
     1
  0
XRECORD
  5
2F53
102
{ACAD_REACTORS
330
2F4F
102
}
330
2F4F
100
AcDbXrecord
280
     1
270
     1
271
     1
  0
XRECORD
  5
2F55
102
{ACAD_REACTORS
330
2F4F
102
}
330
2F4F
100
AcDbXrecord
280
     1
270
     1
271
     1
  0
XRECORD
  5
2F52
102
{ACAD_REACTORS
330
2F4F
102
}
330
2F4F
100
AcDbXrecord
280
     1
270
     1
271
     1
  0
XRECORD
  5
3AA2
102
{ACAD_REACTORS
330
2F47
102
}
330
2F47
100
AcDbXrecord
280
     1
102
MATERIAL
148
0.0
149
0.0
149
0.0
 93
        0
 94
      127
282
     0
 72
     0
 77
     0
171
     0
175
     0
179
     0
273
     0
  0
XRECORD
  5
2F49
102
{ACAD_REACTORS
330
2F47
102
}
330
2F47
100
AcDbXrecord
280
     1
270
     1
271
     1
  0
XRECORD
  5
2F48
102
{ACAD_REACTORS
330
2F47
102
}
330
2F47
100
AcDbXrecord
280
     1
270
     1
271
     1
  0
XRECORD
  5
2F4C
102
{ACAD_REACTORS
330
2F47
102
}
330
2F47
100
AcDbXrecord
280
     1
270
     1
271
     1
  0
XRECORD
  5
2F4B
102
{ACAD_REACTORS
330
2F47
102
}
330
2F47
100
AcDbXrecord
280
     1
270
     1
271
     1
  0
XRECORD
  5
2F4D
102
{ACAD_REACTORS
330
2F47
102
}
330
2F47
100
AcDbXrecord
280
     1
270
     1
271
     1
  0
XRECORD
  5
2F4A
102
{ACAD_REACTORS
330
2F47
102
}
330
2F47
100
AcDbXrecord
280
     1
270
     1
271
     1
  0
XRECORD
  5
3AA4
102
{ACAD_REACTORS
330
2F57
102
}
330
2F57
100
AcDbXrecord
280
     1
102
MATERIAL
148
0.0
149
0.0
149
0.0
 93
        0
 94
      127
282
     0
 72
     0
 77
     0
171
     0
175
     0
179
     0
273
     0
  0
XRECORD
  5
2F59
102
{ACAD_REACTORS
330
2F57
102
}
330
2F57
100
AcDbXrecord
280
     1
270
     1
271
     1
  0
XRECORD
  5
2F58
102
{ACAD_REACTORS
330
2F57
102
}
330
2F57
100
AcDbXrecord
280
     1
270
     1
271
     1
  0
XRECORD
  5
2F5C
102
{ACAD_REACTORS
330
2F57
102
}
330
2F57
100
AcDbXrecord
280
     1
270
     1
271
     1
  0
XRECORD
  5
2F5B
102
{ACAD_REACTORS
330
2F57
102
}
330
2F57
100
AcDbXrecord
280
     1
270
     1
271
     1
  0
XRECORD
  5
2F5D
102
{ACAD_REACTORS
330
2F57
102
}
330
2F57
100
AcDbXrecord
280
     1
270
     1
271
     1
  0
XRECORD
  5
2F5A
102
{ACAD_REACTORS
330
2F57
102
}
330
2F57
100
AcDbXrecord
280
     1
270
     1
271
     1
  0
CELLSTYLEMAP
  5
3A97
102
{ACAD_REACTORS
330
32B4
102
}
330
32B4
100
AcDbCellStyleMap
 90
        3
300
CELLSTYLE
  1
TABLEFORMAT_BEGIN
 90
        5
170
     1
 91
        0
 92
    32768
 62
   257
 93
        1
300
CONTENTFORMAT
  1
CONTENTFORMAT_BEGIN
 90
        0
 91
        0
 92
      512
 93
        0
300

 40
0.0
140
1.0
 94
        5
 62
     0
340
10
144
6.0
309
CONTENTFORMAT_END
171
     1
301
MARGIN
  1
CELLMARGIN_BEGIN
 40
1.5
 40
1.5
 40
1.5
 40
1.5
 40
0.18
 40
0.18
309
CELLMARGIN_END
 94
        6
 95
        1
302
GRIDFORMAT
  1
GRIDFORMAT_BEGIN
 90
        0
 91
        1
 62
     0
 92
       -2
340
0
 93
        0
 40
1.125
309
GRIDFORMAT_END
 95
        2
302
GRIDFORMAT
  1
GRIDFORMAT_BEGIN
 90
        0
 91
        1
 62
     0
 92
       -2
340
0
 93
        0
 40
1.125
309
GRIDFORMAT_END
 95
        4
302
GRIDFORMAT
  1
GRIDFORMAT_BEGIN
 90
        0
 91
        1
 62
     0
 92
       -2
340
0
 93
        0
 40
1.125
309
GRIDFORMAT_END
 95
        8
302
GRIDFORMAT
  1
GRIDFORMAT_BEGIN
 90
        0
 91
        1
 62
     0
 92
       -2
340
0
 93
        0
 40
1.125
309
GRIDFORMAT_END
 95
       16
302
GRIDFORMAT
  1
GRIDFORMAT_BEGIN
 90
        0
 91
        1
 62
     0
 92
       -2
340
0
 93
        0
 40
1.125
309
GRIDFORMAT_END
 95
       32
302
GRIDFORMAT
  1
GRIDFORMAT_BEGIN
 90
        0
 91
        1
 62
     0
 92
       -2
340
0
 93
        0
 40
1.125
309
GRIDFORMAT_END
309
TABLEFORMAT_END
  1
CELLSTYLE_BEGIN
 90
        1
 91
        1
300
_TITLE
309
CELLSTYLE_END
300
CELLSTYLE
  1
TABLEFORMAT_BEGIN
 90
        5
170
     1
 91
        0
 92
        0
 62
   257
 93
        1
300
CONTENTFORMAT
  1
CONTENTFORMAT_BEGIN
 90
        0
 91
        0
 92
      512
 93
        0
300

 40
0.0
140
1.0
 94
        5
 62
     0
340
10
144
4.5
309
CONTENTFORMAT_END
171
     1
301
MARGIN
  1
CELLMARGIN_BEGIN
 40
1.5
 40
1.5
 40
1.5
 40
1.5
 40
0.18
 40
0.18
309
CELLMARGIN_END
 94
        6
 95
        1
302
GRIDFORMAT
  1
GRIDFORMAT_BEGIN
 90
        0
 91
        1
 62
     0
 92
       -2
340
0
 93
        0
 40
1.125
309
GRIDFORMAT_END
 95
        2
302
GRIDFORMAT
  1
GRIDFORMAT_BEGIN
 90
        0
 91
        1
 62
     0
 92
       -2
340
0
 93
        0
 40
1.125
309
GRIDFORMAT_END
 95
        4
302
GRIDFORMAT
  1
GRIDFORMAT_BEGIN
 90
        0
 91
        1
 62
     0
 92
       -2
340
0
 93
        0
 40
1.125
309
GRIDFORMAT_END
 95
        8
302
GRIDFORMAT
  1
GRIDFORMAT_BEGIN
 90
        0
 91
        1
 62
     0
 92
       -2
340
0
 93
        0
 40
1.125
309
GRIDFORMAT_END
 95
       16
302
GRIDFORMAT
  1
GRIDFORMAT_BEGIN
 90
        0
 91
        1
 62
     0
 92
       -2
340
0
 93
        0
 40
1.125
309
GRIDFORMAT_END
 95
       32
302
GRIDFORMAT
  1
GRIDFORMAT_BEGIN
 90
        0
 91
        1
 62
     0
 92
       -2
340
0
 93
        0
 40
1.125
309
GRIDFORMAT_END
309
TABLEFORMAT_END
  1
CELLSTYLE_BEGIN
 90
        2
 91
        1
300
_HEADER
309
CELLSTYLE_END
300
CELLSTYLE
  1
TABLEFORMAT_BEGIN
 90
        5
170
     1
 91
        0
 92
        0
 62
   257
 93
        1
300
CONTENTFORMAT
  1
CONTENTFORMAT_BEGIN
 90
        0
 91
        0
 92
      512
 93
        0
300

 40
0.0
140
1.0
 94
        2
 62
     0
340
10
144
4.5
309
CONTENTFORMAT_END
171
     1
301
MARGIN
  1
CELLMARGIN_BEGIN
 40
1.5
 40
1.5
 40
1.5
 40
1.5
 40
0.18
 40
0.18
309
CELLMARGIN_END
 94
        6
 95
        1
302
GRIDFORMAT
  1
GRIDFORMAT_BEGIN
 90
        0
 91
        1
 62
     0
 92
       -2
340
0
 93
        0
 40
1.125
309
GRIDFORMAT_END
 95
        2
302
GRIDFORMAT
  1
GRIDFORMAT_BEGIN
 90
        0
 91
        1
 62
     0
 92
       -2
340
0
 93
        0
 40
1.125
309
GRIDFORMAT_END
 95
        4
302
GRIDFORMAT
  1
GRIDFORMAT_BEGIN
 90
        0
 91
        1
 62
     0
 92
       -2
340
0
 93
        0
 40
1.125
309
GRIDFORMAT_END
 95
        8
302
GRIDFORMAT
  1
GRIDFORMAT_BEGIN
 90
        0
 91
        1
 62
     0
 92
       -2
340
0
 93
        0
 40
1.125
309
GRIDFORMAT_END
 95
       16
302
GRIDFORMAT
  1
GRIDFORMAT_BEGIN
 90
        0
 91
        1
 62
     0
 92
       -2
340
0
 93
        0
 40
1.125
309
GRIDFORMAT_END
 95
       32
302
GRIDFORMAT
  1
GRIDFORMAT_BEGIN
 90
        0
 91
        1
 62
     0
 92
       -2
340
0
 93
        0
 40
1.125
309
GRIDFORMAT_END
309
TABLEFORMAT_END
  1
CELLSTYLE_BEGIN
 90
        3
 91
        2
300
_DATA
309
CELLSTYLE_END
  0
XRECORD
  5
3AD5
102
{ACAD_REACTORS
330
32B4
102
}
330
32B4
100
AcDbXrecord
280
     1
102
ACAD_ROUNDTRIP_PRE2007_TABLESTYLE
 90
      512
 91
        0
  1

 92
      512
 93
        0
  2

 94
      512
 95
        0
  3

  0
XRECORD
  5
3AB0
102
{ACAD_REACTORS
330
3AAF
102
}
330
3AAF
100
AcDbXrecord
280
     1
102
RTVSPropertyOp0
 70
     1
102
RTVSPropertyOp1
 70
     1
102
RTVSPropertyOp2
 70
     1
102
RTVSPropertyOp3
 70
     1
102
RTVSPropertyOp4
 70
     1
102
RTVSPropertyOp5
 70
     1
102
RTVSPropertyOp6
 70
     1
102
RTVSPropertyOp7
 70
     1
102
RTVSPropertyOp8
 70
     1
102
RTVSPropertyOp9
 70
     1
102
RTVSPropertyOp10
 70
     1
102
RTVSPropertyOp11
 70
     1
102
RTVSPropertyOp12
 70
     1
102
RTVSPropertyOp13
 70
     1
102
RTVSPropertyOp14
 70
     1
102
RTVSPropertyOp15
 70
     1
102
RTVSPropertyOp16
 70
     1
102
RTVSPropertyOp17
 70
     1
102
RTVSPropertyOp18
 70
     1
102
RTVSPropertyOp19
 70
     1
102
RTVSPropertyOp20
 70
     1
102
RTVSPropertyOp21
 70
     1
102
RTVSPropertyOp22
 70
     1
102
RTVSPropertyOp23
 70
     1
102
RTVSPropertyOp24
 70
     1
102
RTVSPropertyOp25
 70
     1
102
RTVSPropertyOp26
 70
     1
102
RTVSPropertyOp27
 70
     1
102
RTVSPropertyOp28
 70
     1
102
RTVSPropertyOp29
 70
     1
102
RTVSPropertyOp30
 70
     1
102
RTVSPropertyOp31
 70
     1
102
RTVSPropertyOp32
 70
     1
  0
XRECORD
  5
3AAE
102
{ACAD_REACTORS
330
3AAD
102
}
330
3AAD
100
AcDbXrecord
280
     1
102
RTVSPropertyOp0
 70
     1
102
RTVSPropertyOp1
 70
     1
102
RTVSPropertyOp2
 70
     1
102
RTVSPropertyOp3
 70
     1
102
RTVSPropertyOp4
 70
     1
102
RTVSPropertyOp5
 70
     1
102
RTVSPropertyOp6
 70
     1
102
RTVSPropertyOp7
 70
     1
102
RTVSPropertyOp8
 70
     1
102
RTVSPropertyOp9
 70
     1
102
RTVSPropertyOp10
 70
     1
102
RTVSPropertyOp11
 70
     1
102
RTVSPropertyOp12
 70
     1
102
RTVSPropertyOp13
 70
     1
102
RTVSPropertyOp14
 70
     1
102
RTVSPropertyOp15
 70
     1
102
RTVSPropertyOp16
 70
     1
102
RTVSPropertyOp17
 70
     1
102
RTVSPropertyOp18
 70
     1
102
RTVSPropertyOp19
 70
     1
102
RTVSPropertyOp20
 70
     1
102
RTVSPropertyOp21
 70
     1
102
RTVSPropertyOp22
 70
     1
102
RTVSPropertyOp23
 70
     1
102
RTVSPropertyOp24
 70
     1
102
RTVSPropertyOp25
 70
     1
102
RTVSPropertyOp26
 70
     1
102
RTVSPropertyOp27
 70
     1
102
RTVSPropertyOp28
 70
     1
102
RTVSPropertyOp29
 70
     1
102
RTVSPropertyOp30
 70
     1
102
RTVSPropertyOp31
 70
     1
102
RTVSPropertyOp32
 70
     1
  0
XRECORD
  5
3ABC
102
{ACAD_REACTORS
330
3ABB
102
}
330
3ABB
100
AcDbXrecord
280
     1
102
RTVSPropertyOp0
 70
     1
102
RTVSPropertyOp1
 70
     1
102
RTVSPropertyOp2
 70
     1
102
RTVSPropertyOp3
 70
     1
102
RTVSPropertyOp4
 70
     1
102
RTVSPropertyOp5
 70
     1
102
RTVSPropertyOp6
 70
     1
102
RTVSPropertyOp7
 70
     1
102
RTVSPropertyOp8
 70
     1
102
RTVSPropertyOp9
 70
     1
102
RTVSPropertyOp10
 70
     1
102
RTVSPropertyOp11
 70
     1
102
RTVSPropertyOp12
 70
     1
102
RTVSPropertyOp13
 70
     1
102
RTVSPropertyOp14
 70
     1
102
RTVSPropertyOp15
 70
     1
102
RTVSPropertyOp16
 70
     1
102
RTVSPropertyOp17
 70
     1
102
RTVSPropertyOp18
 70
     1
102
RTVSPropertyOp19
 70
     1
102
RTVSPropertyOp20
 70
     1
102
RTVSPropertyOp21
 70
     1
102
RTVSPropertyOp22
 70
     1
102
RTVSPropertyOp23
 70
     1
102
RTVSPropertyOp24
 70
     1
102
RTVSPropertyOp25
 70
     1
102
RTVSPropertyOp26
 70
     1
102
RTVSPropertyOp27
 70
     1
102
RTVSPropertyOp28
 70
     1
102
RTVSPropertyOp29
 70
     1
102
RTVSPropertyOp30
 70
     1
102
RTVSPropertyOp31
 70
     1
102
RTVSPropertyOp32
 70
     1
  0
XRECORD
  5
3AC4
102
{ACAD_REACTORS
330
3AC3
102
}
330
3AC3
100
AcDbXrecord
280
     1
102
RTVSPropertyOp0
 70
     1
102
RTVSPropertyOp1
 70
     1
102
RTVSPropertyOp2
 70
     1
102
RTVSPropertyOp3
 70
     1
102
RTVSPropertyOp4
 70
     1
102
RTVSPropertyOp5
 70
     1
102
RTVSPropertyOp6
 70
     1
102
RTVSPropertyOp7
 70
     1
102
RTVSPropertyOp8
 70
     1
102
RTVSPropertyOp9
 70
     1
102
RTVSPropertyOp10
 70
     1
102
RTVSPropertyOp11
 70
     1
102
RTVSPropertyOp12
 70
     1
102
RTVSPropertyOp13
 70
     1
102
RTVSPropertyOp14
 70
     1
102
RTVSPropertyOp15
 70
     1
102
RTVSPropertyOp16
 70
     1
102
RTVSPropertyOp17
 70
     1
102
RTVSPropertyOp18
 70
     1
102
RTVSPropertyOp19
 70
     1
102
RTVSPropertyOp20
 70
     1
102
RTVSPropertyOp21
 70
     1
102
RTVSPropertyOp22
 70
     1
102
RTVSPropertyOp23
 70
     1
102
RTVSPropertyOp24
 70
     1
102
RTVSPropertyOp25
 70
     1
102
RTVSPropertyOp26
 70
     1
102
RTVSPropertyOp27
 70
     1
102
RTVSPropertyOp28
 70
     1
102
RTVSPropertyOp29
 70
     1
102
RTVSPropertyOp30
 70
     1
102
RTVSPropertyOp31
 70
     1
102
RTVSPropertyOp32
 70
     1
  0
XRECORD
  5
3AB6
102
{ACAD_REACTORS
330
3AB5
102
}
330
3AB5
100
AcDbXrecord
280
     1
102
RTVSPropertyOp0
 70
     1
102
RTVSPropertyOp1
 70
     1
102
RTVSPropertyOp2
 70
     1
102
RTVSPropertyOp3
 70
     1
102
RTVSPropertyOp4
 70
     1
102
RTVSPropertyOp5
 70
     1
102
RTVSPropertyOp6
 70
     1
102
RTVSPropertyOp7
 70
     1
102
RTVSPropertyOp8
 70
     1
102
RTVSPropertyOp9
 70
     1
102
RTVSPropertyOp10
 70
     1
102
RTVSPropertyOp11
 70
     1
102
RTVSPropertyOp12
 70
     1
102
RTVSPropertyOp13
 70
     1
102
RTVSPropertyOp14
 70
     1
102
RTVSPropertyOp15
 70
     1
102
RTVSPropertyOp16
 70
     1
102
RTVSPropertyOp17
 70
     1
102
RTVSPropertyOp18
 70
     1
102
RTVSPropertyOp19
 70
     1
102
RTVSPropertyOp20
 70
     1
102
RTVSPropertyOp21
 70
     1
102
RTVSPropertyOp22
 70
     1
102
RTVSPropertyOp23
 70
     1
102
RTVSPropertyOp24
 70
     1
102
RTVSPropertyOp25
 70
     1
102
RTVSPropertyOp26
 70
     1
102
RTVSPropertyOp27
 70
     1
102
RTVSPropertyOp28
 70
     1
102
RTVSPropertyOp29
 70
     1
102
RTVSPropertyOp30
 70
     1
102
RTVSPropertyOp31
 70
     1
102
RTVSPropertyOp32
 70
     1
  0
XRECORD
  5
3ABA
102
{ACAD_REACTORS
330
3AB9
102
}
330
3AB9
100
AcDbXrecord
280
     1
102
RTVSPropertyOp0
 70
     1
102
RTVSPropertyOp1
 70
     1
102
RTVSPropertyOp2
 70
     1
102
RTVSPropertyOp3
 70
     1
102
RTVSPropertyOp4
 70
     1
102
RTVSPropertyOp5
 70
     1
102
RTVSPropertyOp6
 70
     1
102
RTVSPropertyOp7
 70
     1
102
RTVSPropertyOp8
 70
     1
102
RTVSPropertyOp9
 70
     1
102
RTVSPropertyOp10
 70
     1
102
RTVSPropertyOp11
 70
     1
102
RTVSPropertyOp12
 70
     1
102
RTVSPropertyOp13
 70
     1
102
RTVSPropertyOp14
 70
     1
102
RTVSPropertyOp15
 70
     1
102
RTVSPropertyOp16
 70
     1
102
RTVSPropertyOp17
 70
     1
102
RTVSPropertyOp18
 70
     1
102
RTVSPropertyOp19
 70
     1
102
RTVSPropertyOp20
 70
     1
102
RTVSPropertyOp21
 70
     1
102
RTVSPropertyOp22
 70
     1
102
RTVSPropertyOp23
 70
     1
102
RTVSPropertyOp24
 70
     1
102
RTVSPropertyOp25
 70
     1
102
RTVSPropertyOp26
 70
     1
102
RTVSPropertyOp27
 70
     1
102
RTVSPropertyOp28
 70
     1
102
RTVSPropertyOp29
 70
     1
102
RTVSPropertyOp30
 70
     1
102
RTVSPropertyOp31
 70
     1
102
RTVSPropertyOp32
 70
     1
  0
XRECORD
  5
3AD4
102
{ACAD_REACTORS
330
3AD3
102
}
330
3AD3
100
AcDbXrecord
280
     1
102
RTVSPropertyOp0
 70
     0
102
RTVSPropertyOp1
 70
     0
102
RTVSPropertyOp2
 70
     0
102
RTVSPropertyOp3
 70
     0
102
RTVSPropertyOp4
 70
     0
102
RTVSPropertyOp5
 70
     0
102
RTVSPropertyOp6
 70
     0
102
RTVSPropertyOp7
 70
     0
102
RTVSPropertyOp8
 70
     0
102
RTVSPropertyOp9
 70
     0
102
RTVSPropertyOp10
 70
     0
102
RTVSPropertyOp11
 70
     0
102
RTVSPropertyOp12
 70
     0
102
RTVSPropertyOp13
 70
     0
102
RTVSPropertyOp14
 70
     2
102
RTVSPropertyOp15
 70
     0
102
RTVSPropertyOp16
 70
     0
102
RTVSPropertyOp17
 70
     0
102
RTVSPropertyOp18
 70
     0
102
RTVSPropertyOp19
 70
     0
102
RTVSPropertyOp20
 70
     0
102
RTVSPropertyOp21
 70
     0
102
RTVSPropertyOp22
 70
     0
102
RTVSPropertyOp23
 70
     0
102
RTVSPropertyOp24
 70
     0
102
RTVSPropertyOp25
 70
     0
102
RTVSPropertyOp26
 70
     0
102
RTVSPropertyOp27
 70
     0
102
RTVSPropertyOp28
 70
     1
102
RTVSPropertyOp29
 70
     1
102
RTVSPropertyOp30
 70
     1
102
RTVSPropertyOp31
 70
     1
102
RTVSPropertyOp32
 70
     1
  0
XRECORD
  5
3AC2
102
{ACAD_REACTORS
330
3AC1
102
}
330
3AC1
100
AcDbXrecord
280
     1
102
RTVSPropertyOp0
 70
     1
102
RTVSPropertyOp1
 70
     1
102
RTVSPropertyOp2
 70
     1
102
RTVSPropertyOp3
 70
     1
102
RTVSPropertyOp4
 70
     1
102
RTVSPropertyOp5
 70
     1
102
RTVSPropertyOp6
 70
     1
102
RTVSPropertyOp7
 70
     1
102
RTVSPropertyOp8
 70
     1
102
RTVSPropertyOp9
 70
     1
102
RTVSPropertyOp10
 70
     1
102
RTVSPropertyOp11
 70
     1
102
RTVSPropertyOp12
 70
     1
102
RTVSPropertyOp13
 70
     1
102
RTVSPropertyOp14
 70
     1
102
RTVSPropertyOp15
 70
     1
102
RTVSPropertyOp16
 70
     1
102
RTVSPropertyOp17
 70
     1
102
RTVSPropertyOp18
 70
     1
102
RTVSPropertyOp19
 70
     1
102
RTVSPropertyOp20
 70
     1
102
RTVSPropertyOp21
 70
     1
102
RTVSPropertyOp22
 70
     1
102
RTVSPropertyOp23
 70
     1
102
RTVSPropertyOp24
 70
     1
102
RTVSPropertyOp25
 70
     1
102
RTVSPropertyOp26
 70
     1
102
RTVSPropertyOp27
 70
     1
102
RTVSPropertyOp28
 70
     1
102
RTVSPropertyOp29
 70
     1
102
RTVSPropertyOp30
 70
     1
102
RTVSPropertyOp31
 70
     1
102
RTVSPropertyOp32
 70
     1
  0
XRECORD
  5
3AA6
102
{ACAD_REACTORS
330
3AA5
102
}
330
3AA5
100
AcDbXrecord
280
     1
102
RTVSPropertyOp0
 70
     1
102
RTVSPropertyOp1
 70
     1
102
RTVSPropertyOp2
 70
     1
102
RTVSPropertyOp3
 70
     1
102
RTVSPropertyOp4
 70
     1
102
RTVSPropertyOp5
 70
     1
102
RTVSPropertyOp6
 70
     1
102
RTVSPropertyOp7
 70
     1
102
RTVSPropertyOp8
 70
     1
102
RTVSPropertyOp9
 70
     1
102
RTVSPropertyOp10
 70
     1
102
RTVSPropertyOp11
 70
     1
102
RTVSPropertyOp12
 70
     1
102
RTVSPropertyOp13
 70
     1
102
RTVSPropertyOp14
 70
     1
102
RTVSPropertyOp15
 70
     1
102
RTVSPropertyOp16
 70
     1
102
RTVSPropertyOp17
 70
     1
102
RTVSPropertyOp18
 70
     1
102
RTVSPropertyOp19
 70
     1
102
RTVSPropertyOp20
 70
     1
102
RTVSPropertyOp21
 70
     1
102
RTVSPropertyOp22
 70
     1
102
RTVSPropertyOp23
 70
     1
102
RTVSPropertyOp24
 70
     1
102
RTVSPropertyOp25
 70
     1
102
RTVSPropertyOp26
 70
     1
102
RTVSPropertyOp27
 70
     1
102
RTVSPropertyOp28
 70
     1
102
RTVSPropertyOp29
 70
     1
102
RTVSPropertyOp30
 70
     1
102
RTVSPropertyOp31
 70
     1
102
RTVSPropertyOp32
 70
     1
  0
XRECORD
  5
3AA8
102
{ACAD_REACTORS
330
3AA7
102
}
330
3AA7
100
AcDbXrecord
280
     1
102
RTVSPropertyOp0
 70
     1
102
RTVSPropertyOp1
 70
     1
102
RTVSPropertyOp2
 70
     1
102
RTVSPropertyOp3
 70
     1
102
RTVSPropertyOp4
 70
     1
102
RTVSPropertyOp5
 70
     1
102
RTVSPropertyOp6
 70
     1
102
RTVSPropertyOp7
 70
     1
102
RTVSPropertyOp8
 70
     1
102
RTVSPropertyOp9
 70
     1
102
RTVSPropertyOp10
 70
     1
102
RTVSPropertyOp11
 70
     1
102
RTVSPropertyOp12
 70
     1
102
RTVSPropertyOp13
 70
     1
102
RTVSPropertyOp14
 70
     1
102
RTVSPropertyOp15
 70
     1
102
RTVSPropertyOp16
 70
     1
102
RTVSPropertyOp17
 70
     1
102
RTVSPropertyOp18
 70
     1
102
RTVSPropertyOp19
 70
     1
102
RTVSPropertyOp20
 70
     1
102
RTVSPropertyOp21
 70
     1
102
RTVSPropertyOp22
 70
     1
102
RTVSPropertyOp23
 70
     1
102
RTVSPropertyOp24
 70
     1
102
RTVSPropertyOp25
 70
     1
102
RTVSPropertyOp26
 70
     1
102
RTVSPropertyOp27
 70
     1
102
RTVSPropertyOp28
 70
     1
102
RTVSPropertyOp29
 70
     1
102
RTVSPropertyOp30
 70
     1
102
RTVSPropertyOp31
 70
     1
102
RTVSPropertyOp32
 70
     1
  0
XRECORD
  5
3AAA
102
{ACAD_REACTORS
330
3AA9
102
}
330
3AA9
100
AcDbXrecord
280
     1
102
RTVSPropertyOp0
 70
     1
102
RTVSPropertyOp1
 70
     1
102
RTVSPropertyOp2
 70
     1
102
RTVSPropertyOp3
 70
     1
102
RTVSPropertyOp4
 70
     1
102
RTVSPropertyOp5
 70
     1
102
RTVSPropertyOp6
 70
     1
102
RTVSPropertyOp7
 70
     1
102
RTVSPropertyOp8
 70
     1
102
RTVSPropertyOp9
 70
     1
102
RTVSPropertyOp10
 70
     1
102
RTVSPropertyOp11
 70
     1
102
RTVSPropertyOp12
 70
     1
102
RTVSPropertyOp13
 70
     1
102
RTVSPropertyOp14
 70
     1
102
RTVSPropertyOp15
 70
     1
102
RTVSPropertyOp16
 70
     1
102
RTVSPropertyOp17
 70
     1
102
RTVSPropertyOp18
 70
     1
102
RTVSPropertyOp19
 70
     1
102
RTVSPropertyOp20
 70
     1
102
RTVSPropertyOp21
 70
     1
102
RTVSPropertyOp22
 70
     1
102
RTVSPropertyOp23
 70
     1
102
RTVSPropertyOp24
 70
     1
102
RTVSPropertyOp25
 70
     1
102
RTVSPropertyOp26
 70
     1
102
RTVSPropertyOp27
 70
     1
102
RTVSPropertyOp28
 70
     1
102
RTVSPropertyOp29
 70
     1
102
RTVSPropertyOp30
 70
     1
102
RTVSPropertyOp31
 70
     1
102
RTVSPropertyOp32
 70
     1
  0
XRECORD
  5
3AAC
102
{ACAD_REACTORS
330
3AAB
102
}
330
3AAB
100
AcDbXrecord
280
     1
102
RTVSPropertyOp0
 70
     1
102
RTVSPropertyOp1
 70
     1
102
RTVSPropertyOp2
 70
     1
102
RTVSPropertyOp3
 70
     1
102
RTVSPropertyOp4
 70
     1
102
RTVSPropertyOp5
 70
     1
102
RTVSPropertyOp6
 70
     1
102
RTVSPropertyOp7
 70
     1
102
RTVSPropertyOp8
 70
     1
102
RTVSPropertyOp9
 70
     1
102
RTVSPropertyOp10
 70
     1
102
RTVSPropertyOp11
 70
     1
102
RTVSPropertyOp12
 70
     1
102
RTVSPropertyOp13
 70
     1
102
RTVSPropertyOp14
 70
     1
102
RTVSPropertyOp15
 70
     1
102
RTVSPropertyOp16
 70
     1
102
RTVSPropertyOp17
 70
     1
102
RTVSPropertyOp18
 70
     1
102
RTVSPropertyOp19
 70
     1
102
RTVSPropertyOp20
 70
     1
102
RTVSPropertyOp21
 70
     1
102
RTVSPropertyOp22
 70
     1
102
RTVSPropertyOp23
 70
     1
102
RTVSPropertyOp24
 70
     1
102
RTVSPropertyOp25
 70
     1
102
RTVSPropertyOp26
 70
     1
102
RTVSPropertyOp27
 70
     1
102
RTVSPropertyOp28
 70
     1
102
RTVSPropertyOp29
 70
     1
102
RTVSPropertyOp30
 70
     1
102
RTVSPropertyOp31
 70
     1
102
RTVSPropertyOp32
 70
     1
  0
XRECORD
  5
3AB4
102
{ACAD_REACTORS
330
3AB3
102
}
330
3AB3
100
AcDbXrecord
280
     1
102
RTVSPropertyOp0
 70
     1
102
RTVSPropertyOp1
 70
     1
102
RTVSPropertyOp2
 70
     1
102
RTVSPropertyOp3
 70
     1
102
RTVSPropertyOp4
 70
     1
102
RTVSPropertyOp5
 70
     1
102
RTVSPropertyOp6
 70
     1
102
RTVSPropertyOp7
 70
     1
102
RTVSPropertyOp8
 70
     1
102
RTVSPropertyOp9
 70
     1
102
RTVSPropertyOp10
 70
     1
102
RTVSPropertyOp11
 70
     1
102
RTVSPropertyOp12
 70
     1
102
RTVSPropertyOp13
 70
     1
102
RTVSPropertyOp14
 70
     1
102
RTVSPropertyOp15
 70
     1
102
RTVSPropertyOp16
 70
     1
102
RTVSPropertyOp17
 70
     1
102
RTVSPropertyOp18
 70
     1
102
RTVSPropertyOp19
 70
     1
102
RTVSPropertyOp20
 70
     1
102
RTVSPropertyOp21
 70
     1
102
RTVSPropertyOp22
 70
     1
102
RTVSPropertyOp23
 70
     1
102
RTVSPropertyOp24
 70
     1
102
RTVSPropertyOp25
 70
     1
102
RTVSPropertyOp26
 70
     1
102
RTVSPropertyOp27
 70
     1
102
RTVSPropertyOp28
 70
     1
102
RTVSPropertyOp29
 70
     1
102
RTVSPropertyOp30
 70
     1
102
RTVSPropertyOp31
 70
     1
102
RTVSPropertyOp32
 70
     1
  0
XRECORD
  5
3AD0
102
{ACAD_REACTORS
330
3ACF
102
}
330
3ACF
100
AcDbXrecord
280
     1
102
RTVSPropertyOp0
 70
     0
102
RTVSPropertyOp1
 70
     0
102
RTVSPropertyOp2
 70
     0
102
RTVSPropertyOp3
 70
     0
102
RTVSPropertyOp4
 70
     0
102
RTVSPropertyOp5
 70
     0
102
RTVSPropertyOp6
 70
     0
102
RTVSPropertyOp7
 70
     0
102
RTVSPropertyOp8
 70
     0
102
RTVSPropertyOp9
 70
     0
102
RTVSPropertyOp10
 70
     0
102
RTVSPropertyOp11
 70
     0
102
RTVSPropertyOp12
 70
     0
102
RTVSPropertyOp13
 70
     0
102
RTVSPropertyOp14
 70
     2
102
RTVSPropertyOp15
 70
     0
102
RTVSPropertyOp16
 70
     0
102
RTVSPropertyOp17
 70
     0
102
RTVSPropertyOp18
 70
     0
102
RTVSPropertyOp19
 70
     0
102
RTVSPropertyOp20
 70
     0
102
RTVSPropertyOp21
 70
     0
102
RTVSPropertyOp22
 70
     0
102
RTVSPropertyOp23
 70
     0
102
RTVSPropertyOp24
 70
     0
102
RTVSPropertyOp25
 70
     0
102
RTVSPropertyOp26
 70
     0
102
RTVSPropertyOp27
 70
     0
102
RTVSPropertyOp28
 70
     1
102
RTVSPropertyOp29
 70
     1
102
RTVSPropertyOp30
 70
     1
102
RTVSPropertyOp31
 70
     1
102
RTVSPropertyOp32
 70
     1
  0
XRECORD
  5
3AC0
102
{ACAD_REACTORS
330
3ABF
102
}
330
3ABF
100
AcDbXrecord
280
     1
102
RTVSPropertyOp0
 70
     1
102
RTVSPropertyOp1
 70
     1
102
RTVSPropertyOp2
 70
     1
102
RTVSPropertyOp3
 70
     1
102
RTVSPropertyOp4
 70
     1
102
RTVSPropertyOp5
 70
     1
102
RTVSPropertyOp6
 70
     1
102
RTVSPropertyOp7
 70
     1
102
RTVSPropertyOp8
 70
     1
102
RTVSPropertyOp9
 70
     1
102
RTVSPropertyOp10
 70
     1
102
RTVSPropertyOp11
 70
     1
102
RTVSPropertyOp12
 70
     1
102
RTVSPropertyOp13
 70
     1
102
RTVSPropertyOp14
 70
     1
102
RTVSPropertyOp15
 70
     1
102
RTVSPropertyOp16
 70
     1
102
RTVSPropertyOp17
 70
     1
102
RTVSPropertyOp18
 70
     1
102
RTVSPropertyOp19
 70
     1
102
RTVSPropertyOp20
 70
     1
102
RTVSPropertyOp21
 70
     1
102
RTVSPropertyOp22
 70
     1
102
RTVSPropertyOp23
 70
     1
102
RTVSPropertyOp24
 70
     1
102
RTVSPropertyOp25
 70
     1
102
RTVSPropertyOp26
 70
     1
102
RTVSPropertyOp27
 70
     1
102
RTVSPropertyOp28
 70
     1
102
RTVSPropertyOp29
 70
     1
102
RTVSPropertyOp30
 70
     1
102
RTVSPropertyOp31
 70
     1
102
RTVSPropertyOp32
 70
     1
  0
XRECORD
  5
3AD2
102
{ACAD_REACTORS
330
3AD1
102
}
330
3AD1
100
AcDbXrecord
280
     1
102
RTVSPropertyOp0
 70
     0
102
RTVSPropertyOp1
 70
     0
102
RTVSPropertyOp2
 70
     0
102
RTVSPropertyOp3
 70
     0
102
RTVSPropertyOp4
 70
     0
102
RTVSPropertyOp5
 70
     0
102
RTVSPropertyOp6
 70
     0
102
RTVSPropertyOp7
 70
     0
102
RTVSPropertyOp8
 70
     0
102
RTVSPropertyOp9
 70
     0
102
RTVSPropertyOp10
 70
     0
102
RTVSPropertyOp11
 70
     0
102
RTVSPropertyOp12
 70
     0
102
RTVSPropertyOp13
 70
     0
102
RTVSPropertyOp14
 70
     2
102
RTVSPropertyOp15
 70
     0
102
RTVSPropertyOp16
 70
     0
102
RTVSPropertyOp17
 70
     0
102
RTVSPropertyOp18
 70
     0
102
RTVSPropertyOp19
 70
     0
102
RTVSPropertyOp20
 70
     0
102
RTVSPropertyOp21
 70
     0
102
RTVSPropertyOp22
 70
     0
102
RTVSPropertyOp23
 70
     0
102
RTVSPropertyOp24
 70
     0
102
RTVSPropertyOp25
 70
     0
102
RTVSPropertyOp26
 70
     0
102
RTVSPropertyOp27
 70
     0
102
RTVSPropertyOp28
 70
     1
102
RTVSPropertyOp29
 70
     1
102
RTVSPropertyOp30
 70
     1
102
RTVSPropertyOp31
 70
     1
102
RTVSPropertyOp32
 70
     1
  0
XRECORD
  5
3AB8
102
{ACAD_REACTORS
330
3AB7
102
}
330
3AB7
100
AcDbXrecord
280
     1
102
RTVSPropertyOp0
 70
     1
102
RTVSPropertyOp1
 70
     1
102
RTVSPropertyOp2
 70
     1
102
RTVSPropertyOp3
 70
     1
102
RTVSPropertyOp4
 70
     1
102
RTVSPropertyOp5
 70
     1
102
RTVSPropertyOp6
 70
     1
102
RTVSPropertyOp7
 70
     1
102
RTVSPropertyOp8
 70
     1
102
RTVSPropertyOp9
 70
     1
102
RTVSPropertyOp10
 70
     1
102
RTVSPropertyOp11
 70
     1
102
RTVSPropertyOp12
 70
     1
102
RTVSPropertyOp13
 70
     1
102
RTVSPropertyOp14
 70
     1
102
RTVSPropertyOp15
 70
     1
102
RTVSPropertyOp16
 70
     1
102
RTVSPropertyOp17
 70
     1
102
RTVSPropertyOp18
 70
     1
102
RTVSPropertyOp19
 70
     1
102
RTVSPropertyOp20
 70
     1
102
RTVSPropertyOp21
 70
     1
102
RTVSPropertyOp22
 70
     1
102
RTVSPropertyOp23
 70
     1
102
RTVSPropertyOp24
 70
     1
102
RTVSPropertyOp25
 70
     1
102
RTVSPropertyOp26
 70
     1
102
RTVSPropertyOp27
 70
     1
102
RTVSPropertyOp28
 70
     1
102
RTVSPropertyOp29
 70
     1
102
RTVSPropertyOp30
 70
     1
102
RTVSPropertyOp31
 70
     1
102
RTVSPropertyOp32
 70
     1
  0
XRECORD
  5
3ACE
102
{ACAD_REACTORS
330
3ACD
102
}
330
3ACD
100
AcDbXrecord
280
     1
102
RTVSPropertyOp0
 70
     1
102
RTVSPropertyOp1
 70
     1
102
RTVSPropertyOp2
 70
     1
102
RTVSPropertyOp3
 70
     1
102
RTVSPropertyOp4
 70
     1
102
RTVSPropertyOp5
 70
     1
102
RTVSPropertyOp6
 70
     1
102
RTVSPropertyOp7
 70
     1
102
RTVSPropertyOp8
 70
     1
102
RTVSPropertyOp9
 70
     1
102
RTVSPropertyOp10
 70
     1
102
RTVSPropertyOp11
 70
     1
102
RTVSPropertyOp12
 70
     1
102
RTVSPropertyOp13
 70
     1
102
RTVSPropertyOp14
 70
     1
102
RTVSPropertyOp15
 70
     1
102
RTVSPropertyOp16
 70
     1
102
RTVSPropertyOp17
 70
     1
102
RTVSPropertyOp18
 70
     1
102
RTVSPropertyOp19
 70
     1
102
RTVSPropertyOp20
 70
     1
102
RTVSPropertyOp21
 70
     1
102
RTVSPropertyOp22
 70
     1
102
RTVSPropertyOp23
 70
     1
102
RTVSPropertyOp24
 70
     1
102
RTVSPropertyOp25
 70
     1
102
RTVSPropertyOp26
 70
     1
102
RTVSPropertyOp27
 70
     1
102
RTVSPropertyOp28
 70
     1
102
RTVSPropertyOp29
 70
     1
102
RTVSPropertyOp30
 70
     1
102
RTVSPropertyOp31
 70
     1
102
RTVSPropertyOp32
 70
     1
  0
XRECORD
  5
3ACC
102
{ACAD_REACTORS
330
3ACB
102
}
330
3ACB
100
AcDbXrecord
280
     1
102
RTVSPropertyOp0
 70
     1
102
RTVSPropertyOp1
 70
     1
102
RTVSPropertyOp2
 70
     1
102
RTVSPropertyOp3
 70
     1
102
RTVSPropertyOp4
 70
     1
102
RTVSPropertyOp5
 70
     1
102
RTVSPropertyOp6
 70
     1
102
RTVSPropertyOp7
 70
     1
102
RTVSPropertyOp8
 70
     1
102
RTVSPropertyOp9
 70
     1
102
RTVSPropertyOp10
 70
     1
102
RTVSPropertyOp11
 70
     1
102
RTVSPropertyOp12
 70
     1
102
RTVSPropertyOp13
 70
     1
102
RTVSPropertyOp14
 70
     1
102
RTVSPropertyOp15
 70
     1
102
RTVSPropertyOp16
 70
     1
102
RTVSPropertyOp17
 70
     1
102
RTVSPropertyOp18
 70
     1
102
RTVSPropertyOp19
 70
     1
102
RTVSPropertyOp20
 70
     1
102
RTVSPropertyOp21
 70
     1
102
RTVSPropertyOp22
 70
     1
102
RTVSPropertyOp23
 70
     1
102
RTVSPropertyOp24
 70
     1
102
RTVSPropertyOp25
 70
     1
102
RTVSPropertyOp26
 70
     1
102
RTVSPropertyOp27
 70
     1
102
RTVSPropertyOp28
 70
     1
102
RTVSPropertyOp29
 70
     1
102
RTVSPropertyOp30
 70
     1
102
RTVSPropertyOp31
 70
     1
102
RTVSPropertyOp32
 70
     1
  0
XRECORD
  5
3AC6
102
{ACAD_REACTORS
330
3AC5
102
}
330
3AC5
100
AcDbXrecord
280
     1
102
RTVSPropertyOp0
 70
     1
102
RTVSPropertyOp1
 70
     1
102
RTVSPropertyOp2
 70
     1
102
RTVSPropertyOp3
 70
     1
102
RTVSPropertyOp4
 70
     1
102
RTVSPropertyOp5
 70
     1
102
RTVSPropertyOp6
 70
     1
102
RTVSPropertyOp7
 70
     1
102
RTVSPropertyOp8
 70
     1
102
RTVSPropertyOp9
 70
     1
102
RTVSPropertyOp10
 70
     1
102
RTVSPropertyOp11
 70
     1
102
RTVSPropertyOp12
 70
     1
102
RTVSPropertyOp13
 70
     1
102
RTVSPropertyOp14
 70
     1
102
RTVSPropertyOp15
 70
     1
102
RTVSPropertyOp16
 70
     1
102
RTVSPropertyOp17
 70
     1
102
RTVSPropertyOp18
 70
     1
102
RTVSPropertyOp19
 70
     1
102
RTVSPropertyOp20
 70
     1
102
RTVSPropertyOp21
 70
     1
102
RTVSPropertyOp22
 70
     1
102
RTVSPropertyOp23
 70
     1
102
RTVSPropertyOp24
 70
     1
102
RTVSPropertyOp25
 70
     1
102
RTVSPropertyOp26
 70
     1
102
RTVSPropertyOp27
 70
     1
102
RTVSPropertyOp28
 70
     1
102
RTVSPropertyOp29
 70
     1
102
RTVSPropertyOp30
 70
     1
102
RTVSPropertyOp31
 70
     1
102
RTVSPropertyOp32
 70
     1
  0
XRECORD
  5
3AC8
102
{ACAD_REACTORS
330
3AC7
102
}
330
3AC7
100
AcDbXrecord
280
     1
102
RTVSPropertyOp0
 70
     1
102
RTVSPropertyOp1
 70
     1
102
RTVSPropertyOp2
 70
     1
102
RTVSPropertyOp3
 70
     1
102
RTVSPropertyOp4
 70
     1
102
RTVSPropertyOp5
 70
     1
102
RTVSPropertyOp6
 70
     1
102
RTVSPropertyOp7
 70
     1
102
RTVSPropertyOp8
 70
     1
102
RTVSPropertyOp9
 70
     1
102
RTVSPropertyOp10
 70
     1
102
RTVSPropertyOp11
 70
     1
102
RTVSPropertyOp12
 70
     1
102
RTVSPropertyOp13
 70
     1
102
RTVSPropertyOp14
 70
     1
102
RTVSPropertyOp15
 70
     1
102
RTVSPropertyOp16
 70
     1
102
RTVSPropertyOp17
 70
     1
102
RTVSPropertyOp18
 70
     1
102
RTVSPropertyOp19
 70
     1
102
RTVSPropertyOp20
 70
     1
102
RTVSPropertyOp21
 70
     1
102
RTVSPropertyOp22
 70
     1
102
RTVSPropertyOp23
 70
     1
102
RTVSPropertyOp24
 70
     1
102
RTVSPropertyOp25
 70
     1
102
RTVSPropertyOp26
 70
     1
102
RTVSPropertyOp27
 70
     1
102
RTVSPropertyOp28
 70
     1
102
RTVSPropertyOp29
 70
     1
102
RTVSPropertyOp30
 70
     1
102
RTVSPropertyOp31
 70
     1
102
RTVSPropertyOp32
 70
     1
  0
XRECORD
  5
3ABE
102
{ACAD_REACTORS
330
3ABD
102
}
330
3ABD
100
AcDbXrecord
280
     1
102
RTVSPropertyOp0
 70
     1
102
RTVSPropertyOp1
 70
     1
102
RTVSPropertyOp2
 70
     1
102
RTVSPropertyOp3
 70
     1
102
RTVSPropertyOp4
 70
     1
102
RTVSPropertyOp5
 70
     1
102
RTVSPropertyOp6
 70
     1
102
RTVSPropertyOp7
 70
     1
102
RTVSPropertyOp8
 70
     1
102
RTVSPropertyOp9
 70
     1
102
RTVSPropertyOp10
 70
     1
102
RTVSPropertyOp11
 70
     1
102
RTVSPropertyOp12
 70
     1
102
RTVSPropertyOp13
 70
     1
102
RTVSPropertyOp14
 70
     1
102
RTVSPropertyOp15
 70
     1
102
RTVSPropertyOp16
 70
     1
102
RTVSPropertyOp17
 70
     1
102
RTVSPropertyOp18
 70
     1
102
RTVSPropertyOp19
 70
     1
102
RTVSPropertyOp20
 70
     1
102
RTVSPropertyOp21
 70
     1
102
RTVSPropertyOp22
 70
     1
102
RTVSPropertyOp23
 70
     1
102
RTVSPropertyOp24
 70
     1
102
RTVSPropertyOp25
 70
     1
102
RTVSPropertyOp26
 70
     1
102
RTVSPropertyOp27
 70
     1
102
RTVSPropertyOp28
 70
     1
102
RTVSPropertyOp29
 70
     1
102
RTVSPropertyOp30
 70
     1
102
RTVSPropertyOp31
 70
     1
102
RTVSPropertyOp32
 70
     1
  0
XRECORD
  5
3AB2
102
{ACAD_REACTORS
330
3AB1
102
}
330
3AB1
100
AcDbXrecord
280
     1
102
RTVSPropertyOp0
 70
     1
102
RTVSPropertyOp1
 70
     1
102
RTVSPropertyOp2
 70
     1
102
RTVSPropertyOp3
 70
     1
102
RTVSPropertyOp4
 70
     1
102
RTVSPropertyOp5
 70
     1
102
RTVSPropertyOp6
 70
     1
102
RTVSPropertyOp7
 70
     1
102
RTVSPropertyOp8
 70
     1
102
RTVSPropertyOp9
 70
     1
102
RTVSPropertyOp10
 70
     1
102
RTVSPropertyOp11
 70
     1
102
RTVSPropertyOp12
 70
     1
102
RTVSPropertyOp13
 70
     1
102
RTVSPropertyOp14
 70
     1
102
RTVSPropertyOp15
 70
     1
102
RTVSPropertyOp16
 70
     1
102
RTVSPropertyOp17
 70
     1
102
RTVSPropertyOp18
 70
     1
102
RTVSPropertyOp19
 70
     1
102
RTVSPropertyOp20
 70
     1
102
RTVSPropertyOp21
 70
     1
102
RTVSPropertyOp22
 70
     1
102
RTVSPropertyOp23
 70
     1
102
RTVSPropertyOp24
 70
     1
102
RTVSPropertyOp25
 70
     1
102
RTVSPropertyOp26
 70
     1
102
RTVSPropertyOp27
 70
     1
102
RTVSPropertyOp28
 70
     1
102
RTVSPropertyOp29
 70
     1
102
RTVSPropertyOp30
 70
     1
102
RTVSPropertyOp31
 70
     1
102
RTVSPropertyOp32
 70
     1
  0
XRECORD
  5
3ACA
102
{ACAD_REACTORS
330
3AC9
102
}
330
3AC9
100
AcDbXrecord
280
     1
102
RTVSPropertyOp0
 70
     1
102
RTVSPropertyOp1
 70
     1
102
RTVSPropertyOp2
 70
     1
102
RTVSPropertyOp3
 70
     1
102
RTVSPropertyOp4
 70
     1
102
RTVSPropertyOp5
 70
     1
102
RTVSPropertyOp6
 70
     1
102
RTVSPropertyOp7
 70
     1
102
RTVSPropertyOp8
 70
     1
102
RTVSPropertyOp9
 70
     1
102
RTVSPropertyOp10
 70
     1
102
RTVSPropertyOp11
 70
     1
102
RTVSPropertyOp12
 70
     1
102
RTVSPropertyOp13
 70
     1
102
RTVSPropertyOp14
 70
     1
102
RTVSPropertyOp15
 70
     1
102
RTVSPropertyOp16
 70
     1
102
RTVSPropertyOp17
 70
     1
102
RTVSPropertyOp18
 70
     1
102
RTVSPropertyOp19
 70
     1
102
RTVSPropertyOp20
 70
     1
102
RTVSPropertyOp21
 70
     1
102
RTVSPropertyOp22
 70
     1
102
RTVSPropertyOp23
 70
     1
102
RTVSPropertyOp24
 70
     1
102
RTVSPropertyOp25
 70
     1
102
RTVSPropertyOp26
 70
     1
102
RTVSPropertyOp27
 70
     1
102
RTVSPropertyOp28
 70
     1
102
RTVSPropertyOp29
 70
     1
102
RTVSPropertyOp30
 70
     1
102
RTVSPropertyOp31
 70
     1
102
RTVSPropertyOp32
 70
     1
  0
ENDSEC
  0
EOF
