  0
SECTION
  2
HEADER
  9
$ACADVER
  1
AC1012
  9
$DWGCODEPAGE
  3
dos932
  9
$INSBASE
 10
0.0
 20
0.0
 30
0.0
  9
$EXTMIN
 10
-0.05126640194635
 20
-0.0362528016673878
 30
-0.0000000349181948
  9
$EXTMAX
 10
797.6628945888771
 20
551.6439420123595
 30
0.0000000814935746
  9
$LIMMIN
 10
0.0
 20
0.0
  9
$LIMMAX
 10
840.0
 20
594.0
  9
$ORTHOMODE
 70
     1
  9
$REGENMODE
 70
     1
  9
$FILLMODE
 70
     1
  9
$QTEXTMODE
 70
     0
  9
$MIRRTEXT
 70
     1
  9
$DRAGMODE
 70
     2
  9
$LTSCALE
 40
1.0
  9
$OSMODE
 70
    63
  9
$ATTMODE
 70
     1
  9
$TEXTSIZE
 40
5.0
  9
$TRACEWID
 40
1.0
  9
$TEXTSTYLE
  7
STANDARD
  9
$CLAYER
  8
SUNPOU
  9
$CELTYPE
  6
BYLAYER
  9
$CECOLOR
 62
   256
  9
$CELTSCALE
 40
1.0
  9
$DELOBJ
 70
     1
  9
$DISPSILH
 70
     0
  9
$DIMSCALE
 40
1.0
  9
$DIMASZ
 40
7.0
  9
$DIMEXO
 40
6.0
  9
$DIMDLI
 40
14.0
  9
$DIMRND
 40
0.0
  9
$DIMDLE
 40
0.0
  9
$DIMEXE
 40
3.0
  9
$DIMTP
 40
0.0
  9
$DIMTM
 40
0.0
  9
$DIMTXT
 40
6.0
  9
$DIMCEN
 40
150.0
  9
$DIMTSZ
 40
0.0
  9
$DIMTOL
 70
     0
  9
$DIMLIM
 70
     0
  9
$DIMTIH
 70
     0
  9
$DIMTOH
 70
     0
  9
$DIMSE1
 70
     0
  9
$DIMSE2
 70
     0
  9
$DIMTAD
 70
     3
  9
$DIMZIN
 70
     0
  9
$DIMBLK
  1

  9
$DIMASO
 70
     1
  9
$DIMSHO
 70
     1
  9
$DIMPOST
  1

  9
$DIMAPOST
  1

  9
$DIMALT
 70
     0
  9
$DIMALTD
 70
     2
  9
$DIMALTF
 40
25.4
  9
$DIMLFAC
 40
1.0
  9
$DIMTOFL
 70
     1
  9
$DIMTVP
 40
0.0
  9
$DIMTIX
 70
     0
  9
$DIMSOXD
 70
     0
  9
$DIMSAH
 70
     1
  9
$DIMBLK1
  1
OPEN
  9
$DIMBLK2
  1
OPEN
  9
$DIMSTYLE
  2
STANDARD
  9
$DIMCLRD
 70
   256
  9
$DIMCLRE
 70
   256
  9
$DIMCLRT
 70
   256
  9
$DIMTFAC
 40
1.0
  9
$DIMGAP
 40
2.0
  9
$DIMJUST
 70
     0
  9
$DIMSD1
 70
     0
  9
$DIMSD2
 70
     0
  9
$DIMTOLJ
 70
     1
  9
$DIMTZIN
 70
     0
  9
$DIMALTZ
 70
     0
  9
$DIMALTTZ
 70
     0
  9
$DIMFIT
 70
     3
  9
$DIMUPT
 70
     0
  9
$DIMUNIT
 70
     2
  9
$DIMDEC
 70
     0
  9
$DIMTDEC
 70
     0
  9
$DIMALTU
 70
     2
  9
$DIMALTTD
 70
     2
  9
$DIMTXSTY
  7
STANDARD
  9
$DIMAUNIT
 70
     0
  9
$LUNITS
 70
     2
  9
$LUPREC
 70
     4
  9
$SKETCHINC
 40
1.0
  9
$FILLETRAD
 40
1.0
  9
$AUNITS
 70
     0
  9
$AUPREC
 70
     0
  9
$MENU
  1
.
  9
$ELEVATION
 40
0.0
  9
$PELEVATION
 40
0.0
  9
$THICKNESS
 40
0.0
  9
$LIMCHECK
 70
     0
  9
$BLIPMODE
 70
     0
  9
$CHAMFERA
 40
20.0
  9
$CHAMFERB
 40
20.0
  9
$CHAMFERC
 40
40.0
  9
$CHAMFERD
 40
0.0
  9
$SKPOLY
 70
     0
  9
$TDCREATE
 40
2451212.496837384
  9
$TDUPDATE
 40
2455894.648827870
  9
$TDINDWG
 40
0.2927118287
  9
$TDUSRTIMER
 40
0.2927118287
  9
$USRTIMER
 70
     1
  9
$ANGBASE
 50
0.0
  9
$ANGDIR
 70
     0
  9
$PDMODE
 70
     0
  9
$PDSIZE
 40
0.0
  9
$PLINEWID
 40
0.0
  9
$COORDS
 70
     0
  9
$SPLFRAME
 70
     0
  9
$SPLINETYPE
 70
     6
  9
$SPLINESEGS
 70
     8
  9
$ATTDIA
 70
     0
  9
$ATTREQ
 70
     1
  9
$HANDLING
 70
 10241
  9
$HANDSEED
  5
7ADC
  9
$SURFTAB1
 70
     6
  9
$SURFTAB2
 70
     6
  9
$SURFTYPE
 70
     6
  9
$SURFU
 70
     6
  9
$SURFV
 70
     6
  9
$UCSNAME
  2

  9
$UCSORG
 10
0.0
 20
0.0
 30
0.0
  9
$UCSXDIR
 10
1.0
 20
0.0
 30
0.0
  9
$UCSYDIR
 10
0.0
 20
1.0
 30
0.0
  9
$PUCSNAME
  2

  9
$PUCSORG
 10
0.0
 20
0.0
 30
0.0
  9
$PUCSXDIR
 10
1.0
 20
0.0
 30
0.0
  9
$PUCSYDIR
 10
0.0
 20
1.0
 30
0.0
  9
$USERI1
 70
     0
  9
$USERI2
 70
     0
  9
$USERI3
 70
     0
  9
$USERI4
 70
     0
  9
$USERI5
 70
     0
  9
$USERR1
 40
0.0
  9
$USERR2
 40
0.0
  9
$USERR3
 40
0.0
  9
$USERR4
 40
0.0
  9
$USERR5
 40
0.0
  9
$WORLDVIEW
 70
     1
  9
$SHADEDGE
 70
     3
  9
$SHADEDIF
 70
    70
  9
$TILEMODE
 70
     1
  9
$MAXACTVP
 70
    16
  9
$PINSBASE
 10
0.0
 20
0.0
 30
0.0
  9
$PLIMCHECK
 70
     0
  9
$PEXTMIN
 10
0.0
 20
0.0
 30
0.0
  9
$PEXTMAX
 10
420.0
 20
297.0
 30
0.0
  9
$PLIMMIN
 10
0.0
 20
0.0
  9
$PLIMMAX
 10
420.0
 20
297.0
  9
$UNITMODE
 70
     0
  9
$VISRETAIN
 70
     0
  9
$PLINEGEN
 70
     0
  9
$PSLTSCALE
 70
     1
  9
$TREEDEPTH
 70
  3020
  9
$PICKSTYLE
 70
     1
  9
$CMLSTYLE
  2
STANDARD
  9
$CMLJUST
 70
     0
  9
$CMLSCALE
 40
1.0
  9
$SAVEIMAGES
 70
     1
  0
ENDSEC
  0
SECTION
  2
CLASSES
  0
CLASS
  1
ACDBDICTIONARYWDFLT
  2
AcDbDictionaryWithDefault
  3
AutoCAD 2000
 90
    32768
280
     0
281
     0
  0
CLASS
  1
ACDBPLACEHOLDER
  2
AcDbPlaceHolder
  3
AutoCAD 2000
 90
    32768
280
     0
281
     0
  0
CLASS
  1
LAYOUT
  2
AcDbLayout
  3
AutoCAD 2000
 90
    32768
280
     0
281
     0
  0
CLASS
  1
LONG_TRANSACTION
  2
AcDbLongTransaction
  3
AutoCAD 2000
 90
    32768
280
     0
281
     0
  0
CLASS
  1
LWPOLYLINE
  2
AcDbPolyline
  3
AutoCAD 2000
 90
    32768
280
     0
281
     1
  0
CLASS
  1
HATCH
  2
AcDbHatch
  3
AutoCAD 2000
 90
    32768
280
     0
281
     1
  0
CLASS
  1
XRECORD
  2
AcDbXrecord
  3
AutoCAD 2000
 90
    32768
280
     0
281
     0
  0
CLASS
  1
LONG_TRANSACTION
  2
AcDbLongTransaction
  3
AutoCAD 2000
 90
    32768
280
     0
281
     0
  0
CLASS
  1
LWPOLYLINE
  2
AcDbPolyline
  3
AutoCAD 2000
 90
    32768
280
     0
281
     1
  0
CLASS
  1
HATCH
  2
AcDbHatch
  3
AutoCAD 2000
 90
    32768
280
     0
281
     1
  0
CLASS
  1
XRECORD
  2
AcDbXrecord
  3
AutoCAD 2000
 90
    32768
280
     0
281
     0
  0
CLASS
  1
LONG_TRANSACTION
  2
AcDbLongTransaction
  3
AutoCAD 2000
 90
    32768
280
     0
281
     0
  0
CLASS
  1
LWPOLYLINE
  2
AcDbPolyline
  3
AutoCAD 2000
 90
    32768
280
     0
281
     1
  0
CLASS
  1
HATCH
  2
AcDbHatch
  3
AutoCAD 2000
 90
    32768
280
     0
281
     1
  0
CLASS
  1
XRECORD
  2
AcDbXrecord
  3
AutoCAD 2000
 90
    32768
280
     0
281
     0
  0
CLASS
  1
LONG_TRANSACTION
  2
AcDbLongTransaction
  3
AutoCAD 2000
 90
    32768
280
     0
281
     0
  0
CLASS
  1
LWPOLYLINE
  2
AcDbPolyline
  3
AutoCAD 2000
 90
    32768
280
     0
281
     1
  0
CLASS
  1
HATCH
  2
AcDbHatch
  3
AutoCAD 2000
 90
    32768
280
     0
281
     1
  0
CLASS
  1
XRECORD
  2
AcDbXrecord
  3
AutoCAD 2000
 90
    32768
280
     0
281
     0
  0
CLASS
  1
LONG_TRANSACTION
  2
AcDbLongTransaction
  3
AutoCAD 2000
 90
    32768
280
     0
281
     0
  0
CLASS
  1
LWPOLYLINE
  2
AcDbPolyline
  3
AutoCAD 2000
 90
    32768
280
     0
281
     1
  0
CLASS
  1
HATCH
  2
AcDbHatch
  3
AutoCAD 2000
 90
    32768
280
     0
281
     1
  0
CLASS
  1
XRECORD
  2
AcDbXrecord
  3
AutoCAD 2000
 90
    32768
280
     0
281
     0
  0
CLASS
  1
LONG_TRANSACTION
  2
AcDbLongTransaction
  3
AutoCAD 2000
 90
    32768
280
     0
281
     0
  0
CLASS
  1
LWPOLYLINE
  2
AcDbPolyline
  3
AutoCAD 2000
 90
    32768
280
     0
281
     1
  0
CLASS
  1
HATCH
  2
AcDbHatch
  3
AutoCAD 2000
 90
    32768
280
     0
281
     1
  0
CLASS
  1
XRECORD
  2
AcDbXrecord
  3
AutoCAD 2000
 90
    32768
280
     0
281
     0
  0
CLASS
  1
LONG_TRANSACTION
  2
AcDbLongTransaction
  3
AutoCAD 2000
 90
    32768
280
     0
281
     0
  0
CLASS
  1
LWPOLYLINE
  2
AcDbPolyline
  3
AutoCAD 2000
 90
    32768
280
     0
281
     1
  0
CLASS
  1
HATCH
  2
AcDbHatch
  3
AutoCAD 2000
 90
    32768
280
     0
281
     1
  0
CLASS
  1
XRECORD
  2
AcDbXrecord
  3
AutoCAD 2000
 90
    32768
280
     0
281
     0
  0
CLASS
  1
LONG_TRANSACTION
  2
AcDbLongTransaction
  3
AutoCAD 2000
 90
    32768
280
     0
281
     0
  0
CLASS
  1
LWPOLYLINE
  2
AcDbPolyline
  3
AutoCAD 2000
 90
    32768
280
     0
281
     1
  0
CLASS
  1
HATCH
  2
AcDbHatch
  3
AutoCAD 2000
 90
    32768
280
     0
281
     1
  0
CLASS
  1
XRECORD
  2
AcDbXrecord
  3
AutoCAD 2000
 90
    32768
280
     0
281
     0
  0
CLASS
  1
LONG_TRANSACTION
  2
AcDbLongTransaction
  3
AutoCAD 2000
 90
    32768
280
     0
281
     0
  0
CLASS
  1
LWPOLYLINE
  2
AcDbPolyline
  3
AutoCAD 2000
 90
    32768
280
     0
281
     1
  0
CLASS
  1
HATCH
  2
AcDbHatch
  3
AutoCAD 2000
 90
    32768
280
     0
281
     1
  0
CLASS
  1
XRECORD
  2
AcDbXrecord
  3
AutoCAD 2000
 90
    32768
280
     0
281
     0
  0
CLASS
  1
LONG_TRANSACTION
  2
AcDbLongTransaction
  3
AutoCAD 2000
 90
    32768
280
     0
281
     0
  0
CLASS
  1
LWPOLYLINE
  2
AcDbPolyline
  3
AutoCAD 2000
 90
    32768
280
     0
281
     1
  0
CLASS
  1
HATCH
  2
AcDbHatch
  3
AutoCAD 2000
 90
    32768
280
     0
281
     1
  0
CLASS
  1
XRECORD
  2
AcDbXrecord
  3
AutoCAD 2000
 90
    32768
280
     0
281
     0
  0
CLASS
  1
LONG_TRANSACTION
  2
AcDbLongTransaction
  3
AutoCAD 2000
 90
    32768
280
     0
281
     0
  0
CLASS
  1
LWPOLYLINE
  2
AcDbPolyline
  3
AutoCAD 2000
 90
    32768
280
     0
281
     1
  0
CLASS
  1
HATCH
  2
AcDbHatch
  3
AutoCAD 2000
 90
    32768
280
     0
281
     1
  0
CLASS
  1
XRECORD
  2
AcDbXrecord
  3
AutoCAD 2000
 90
    32768
280
     0
281
     0
  0
CLASS
  1
LONG_TRANSACTION
  2
AcDbLongTransaction
  3
AutoCAD 2000
 90
    32768
280
     0
281
     0
  0
CLASS
  1
LWPOLYLINE
  2
AcDbPolyline
  3
AutoCAD 2000
 90
    32768
280
     0
281
     1
  0
CLASS
  1
HATCH
  2
AcDbHatch
  3
AutoCAD 2000
 90
    32768
280
     0
281
     1
  0
CLASS
  1
XRECORD
  2
AcDbXrecord
  3
AutoCAD 2000
 90
    32768
280
     0
281
     0
  0
ENDSEC
  0
SECTION
  2
TABLES
  0
TABLE
  2
VPORT
  5
8
330
0
100
AcDbSymbolTable
 70
     4
  0
VPORT
  5
7AC0
330
8
100
AcDbSymbolTableRecord
100
AcDbViewportTableRecord
  2
*ACTIVE
 70
     0
 10
0.0
 20
0.0
 11
1.0
 21
1.0
 12
489.7569391206521
 22
303.5148857903897
 13
0.0
 23
0.0
 14
5.0
 24
5.0
 15
0.0
 25
0.0
 16
0.0
 26
0.0
 36
1.0
 17
0.0
 27
0.0
 37
0.0
 40
723.8565627447374
 41
1.535714285714286
 42
50.0
 43
0.0
 44
0.0
 50
0.0
 51
0.0
 71
     0
 72
   100
 73
     1
 74
     0
 75
     0
 76
     0
 77
     0
 78
     0
  0
ENDTAB
  0
TABLE
  2
LTYPE
  5
5
330
0
100
AcDbSymbolTable
 70
     2
  0
LTYPE
  5
14
330
5
100
AcDbSymbolTableRecord
100
AcDbLinetypeTableRecord
  2
BYBLOCK
 70
     0
  3

 72
    65
 73
     0
 40
0.0
  0
LTYPE
  5
15
330
5
100
AcDbSymbolTableRecord
100
AcDbLinetypeTableRecord
  2
BYLAYER
 70
     0
  3

 72
    65
 73
     0
 40
0.0
  0
LTYPE
  5
16
330
5
100
AcDbSymbolTableRecord
100
AcDbLinetypeTableRecord
  2
CONTINUOUS
 70
     0
  3
Solid line
 72
    65
 73
     0
 40
0.0
  0
LTYPE
  5
135
330
5
100
AcDbSymbolTableRecord
100
AcDbLinetypeTableRecord
  2
CENTER
 70
     0
  3
Center ____ _ ____ _ ____ _ ____ _ ____ _ ____
 72
    65
 73
     4
 40
50.8
 49
31.75
 74
     0
 49
-6.349999999999999
 74
     0
 49
6.349999999999999
 74
     0
 49
-6.349999999999999
 74
     0
  0
ENDTAB
  0
TABLE
  2
LAYER
  5
2
330
0
100
AcDbSymbolTable
 70
     9
  0
LAYER
  5
F
330
2
100
AcDbSymbolTableRecord
100
AcDbLayerTableRecord
  2
0
 70
     0
 62
     7
  6
CONTINUOUS
  0
LAYER
  5
62
330
2
100
AcDbSymbolTableRecord
100
AcDbLayerTableRecord
  2
VIEWPORT
 70
     0
 62
     7
  6
CONTINUOUS
  0
LAYER
  5
65
330
2
100
AcDbSymbolTableRecord
100
AcDbLayerTableRecord
  2
ZUWAKU
 70
     0
 62
     7
  6
CONTINUOUS
  0
LAYER
  5
28E
330
2
100
AcDbSymbolTableRecord
100
AcDbLayerTableRecord
  2
SEIHIN
 70
     0
 62
     3
  6
CONTINUOUS
  0
LAYER
  5
28F
330
2
100
AcDbSymbolTableRecord
100
AcDbLayerTableRecord
  2
SUNPOU
 70
     0
 62
     4
  6
CONTINUOUS
  0
LAYER
  5
290
330
2
100
AcDbSymbolTableRecord
100
AcDbLayerTableRecord
  2
CENTER_L
 70
     0
 62
     1
  6
CENTER
  0
LAYER
  5
3EF
330
2
100
AcDbSymbolTableRecord
100
AcDbLayerTableRecord
  2
DEFPOINTS
 70
     0
 62
     7
  6
CONTINUOUS
  0
LAYER
  5
702
330
2
100
AcDbSymbolTableRecord
100
AcDbLayerTableRecord
  2
MOJI
 70
     0
 62
     2
  6
CONTINUOUS
  0
LAYER
  5
4651
330
2
100
AcDbSymbolTableRecord
100
AcDbLayerTableRecord
  2
NOKITOI
 70
     0
 62
     7
  6
CONTINUOUS
  0
ENDTAB
  0
TABLE
  2
STYLE
  5
3
330
0
100
AcDbSymbolTable
 70
     2
  0
STYLE
  5
10
330
3
100
AcDbSymbolTableRecord
100
AcDbTextStyleTableRecord
  2
STANDARD
 70
     0
 40
0.0
 41
1.0
 50
0.0
 71
     0
 42
5.0
  3
TXT
  4
bigfont.shx
  0
STYLE
  5
703
330
3
100
AcDbSymbolTableRecord
100
AcDbTextStyleTableRecord
  2
ｽﾀｲﾙ1
 70
     0
 40
0.0
 41
1.0
 50
0.0
 71
     0
 42
2.5
  3
MS PGothic.ttf
  4

1001
ACAD
1000
MS PGothic
1071
    32818
  0
ENDTAB
  0
TABLE
  2
VIEW
  5
6
330
0
100
AcDbSymbolTable
 70
     0
  0
ENDTAB
  0
TABLE
  2
UCS
  5
7
330
0
100
AcDbSymbolTable
 70
     0
  0
ENDTAB
  0
TABLE
  2
APPID
  5
9
330
0
100
AcDbSymbolTable
 70
     1
  0
APPID
  5
11
330
9
100
AcDbSymbolTableRecord
100
AcDbRegAppTableRecord
  2
ACAD
 70
     0
  0
ENDTAB
  0
TABLE
  2
DIMSTYLE
  5
A
330
0
100
AcDbSymbolTable
 70
     1
  0
DIMSTYLE
105
1D
102
{ACAD_REACTORS
330
783C
330
7849
330
7856
330
7863
102
}
330
A
100
AcDbSymbolTableRecord
100
AcDbDimStyleTableRecord
  2
STANDARD
 70
     0
  3

  4

  5

  6

  7

 40
1.0
 41
0.18
 42
0.0625
 43
0.38
 44
0.18
 45
0.0
 46
0.0
 47
0.0
 48
0.0
140
0.18
141
0.09
142
0.0
143
25.4
144
1.0
145
0.0
146
1.0
147
0.09
 71
     0
 72
     0
 73
     1
 74
     1
 75
     0
 76
     0
 77
     0
 78
     0
170
     0
171
     2
172
     0
173
     0
174
     0
175
     0
176
     0
177
     0
178
     0
270
     2
271
     4
272
     4
273
     2
274
     2
340
10
275
     0
280
     0
281
     0
282
     0
283
     1
284
     0
285
     0
286
     0
287
     3
288
     0
  0
ENDTAB
  0
TABLE
  2
BLOCK_RECORD
  5
1
330
0
100
AcDbSymbolTable
 70
     6
  0
BLOCK_RECORD
  5
1A
102
{ACAD_XDICTIONARY
360
4EB
102
}
330
1
100
AcDbSymbolTableRecord
100
AcDbBlockTableRecord
  2
*MODEL_SPACE
  0
BLOCK_RECORD
  5
17
102
{ACAD_XDICTIONARY
360
4E9
102
}
330
1
100
AcDbSymbolTableRecord
100
AcDbBlockTableRecord
  2
*PAPER_SPACE
  0
BLOCK_RECORD
  5
6D
330
1
100
AcDbSymbolTableRecord
100
AcDbBlockTableRecord
  2
_OPEN
  0
BLOCK_RECORD
  5
2F7A
330
1
100
AcDbSymbolTableRecord
100
AcDbBlockTableRecord
  2
*X1
  0
BLOCK_RECORD
  5
783D
330
1
100
AcDbSymbolTableRecord
100
AcDbBlockTableRecord
  2
*D2
  0
BLOCK_RECORD
  5
784A
330
1
100
AcDbSymbolTableRecord
100
AcDbBlockTableRecord
  2
*D3
  0
BLOCK_RECORD
  5
7857
330
1
100
AcDbSymbolTableRecord
100
AcDbBlockTableRecord
  2
*D4
  0
BLOCK_RECORD
  5
7864
330
1
100
AcDbSymbolTableRecord
100
AcDbBlockTableRecord
  2
*D5
  0
ENDTAB
  0
ENDSEC
  0
SECTION
  2
BLOCKS
  0
BLOCK
  5
1B
330
1A
100
AcDbEntity
  8
0
100
AcDbBlockBegin
  2
*MODEL_SPACE
 70
     0
 10
0.0
 20
0.0
 30
0.0
  3
*MODEL_SPACE
  1

  0
ENDBLK
  5
1C
330
1A
100
AcDbEntity
  8
0
100
AcDbBlockEnd
  0
BLOCK
  5
18
330
17
100
AcDbEntity
 67
     1
  8
0
100
AcDbBlockBegin
  2
*PAPER_SPACE
 70
     0
 10
0.0
 20
0.0
 30
0.0
  3
*PAPER_SPACE
  1

  0
ENDBLK
  5
19
330
17
100
AcDbEntity
 67
     1
  8
0
100
AcDbBlockEnd
  0
BLOCK
  5
6E
330
6D
100
AcDbEntity
  8
0
100
AcDbBlockBegin
  2
_OPEN
 70
     0
 10
0.0
 20
0.0
 30
0.0
  3
_OPEN
  1

  0
LINE
  5
6F
330
6D
100
AcDbEntity
  8
0
  6
BYBLOCK
 62
     0
100
AcDbLine
 10
-1.0
 20
0.1666666666666666
 30
0.0
 11
0.0
 21
0.0
 31
0.0
  0
LINE
  5
70
330
6D
100
AcDbEntity
  8
0
  6
BYBLOCK
 62
     0
100
AcDbLine
 10
0.0
 20
0.0
 30
0.0
 11
-1.0
 21
-0.1666666666666666
 31
0.0
  0
LINE
  5
71
330
6D
100
AcDbEntity
  8
0
  6
BYBLOCK
 62
     0
100
AcDbLine
 10
0.0
 20
0.0
 30
0.0
 11
-1.0
 21
0.0
 31
0.0
  0
ENDBLK
  5
72
330
6D
100
AcDbEntity
  8
0
100
AcDbBlockEnd
  0
BLOCK
  5
310E
330
2F7A
100
AcDbEntity
  8
0
100
AcDbBlockBegin
  2
*X1
 70
     1
 10
0.0
 20
0.0
 30
0.0
  3
*X1
  1

  0
LINE
  5
2F7B
330
2F7A
100
AcDbEntity
  8
0
 62
     0
100
AcDbLine
 10
69.04221216833718
 20
22.60416893857376
 30
0.0
 11
68.39638123862227
 21
23.24999986828874
 31
0.0
  0
LINE
  5
2F7C
330
2F7A
100
AcDbEntity
  8
0
 62
     0
100
AcDbLine
 10
69.04221216833718
 20
21.70614332646687
 30
0.0
 11
67.49835562651532
 21
23.24999986828874
 31
0.0
  0
LINE
  5
2F7D
330
2F7A
100
AcDbEntity
  8
0
 62
     0
100
AcDbLine
 10
69.04221216833713
 20
20.80811771435992
 30
0.0
 11
66.62107822232218
 21
23.22925166037486
 31
0.0
  0
LINE
  5
2F7E
330
2F7A
100
AcDbEntity
  8
0
 62
     0
100
AcDbLine
 10
69.04221216833718
 20
19.91009210225309
 30
0.0
 11
66.24221216833712
 21
22.71009210225309
 31
0.0
  0
LINE
  5
2F7F
330
2F7A
100
AcDbEntity
  8
0
 62
     0
100
AcDbLine
 10
69.04221216833718
 20
19.01206649014613
 30
0.0
 11
66.24221216833712
 21
21.8120664901462
 31
0.0
  0
LINE
  5
2F80
330
2F7A
100
AcDbEntity
  8
0
 62
     0
100
AcDbLine
 10
69.04221216833713
 20
18.11404087803919
 30
0.0
 11
66.24221216833706
 21
20.91404087803926
 31
0.0
  0
LINE
  5
2F81
330
2F7A
100
AcDbEntity
  8
0
 62
     0
100
AcDbLine
 10
64.14221216833709
 20
22.11601526593239
 30
0.0
 11
63.0082275659808
 21
23.24999986828874
 31
0.0
  0
LINE
  5
2F82
330
2F7A
100
AcDbEntity
  8
0
 62
     0
100
AcDbLine
 10
69.04221216833718
 20
17.21601526593235
 30
0.0
 11
66.24221216833712
 21
20.01601526593242
 31
0.0
  0
LINE
  5
2F83
330
2F7A
100
AcDbEntity
  8
0
 62
     0
100
AcDbLine
 10
64.14221216833709
 20
21.21798965382549
 30
0.0
 11
62.11020195387385
 21
23.24999986828868
 31
0.0
  0
LINE
  5
2F84
330
2F7A
100
AcDbEntity
  8
0
 62
     0
100
AcDbLine
 10
69.04221216833713
 20
16.3179896538254
 30
0.0
 11
66.24221216833712
 21
19.11798965382547
 31
0.0
  0
LINE
  5
2F85
330
2F7A
100
AcDbEntity
  8
0
 62
     0
100
AcDbLine
 10
64.14221216833709
 20
20.31996404171855
 30
0.0
 11
61.43670120320002
 21
23.02547500685562
 31
0.0
  0
LINE
  5
2F86
330
2F7A
100
AcDbEntity
  8
0
 62
     0
100
AcDbLine
 10
69.04221216833713
 20
15.41996404171851
 30
0.0
 11
66.24221216833706
 21
18.21996404171852
 31
0.0
  0
LINE
  5
2F87
330
2F7A
100
AcDbEntity
  8
0
 62
     0
100
AcDbLine
 10
64.14221216833721
 20
19.42193842961154
 30
0.0
 11
61.34221216833703
 21
22.22193842961166
 31
0.0
  0
LINE
  5
2F88
330
2F7A
100
AcDbEntity
  8
0
 62
     0
100
AcDbLine
 10
69.04221216833718
 20
14.52193842961156
 30
0.0
 11
66.24221216833712
 21
17.32193842961163
 31
0.0
  0
LINE
  5
2F89
330
2F7A
100
AcDbEntity
  8
0
 62
     0
100
AcDbLine
 10
64.14221216833715
 20
18.52391281750465
 30
0.0
 11
61.34221216833703
 21
21.32391281750483
 31
0.0
  0
LINE
  5
2F8A
330
2F7A
100
AcDbEntity
  8
0
 62
     0
100
AcDbLine
 10
69.04221216833713
 20
13.62391281750467
 30
0.0
 11
66.24221216833706
 21
16.42391281750474
 31
0.0
  0
LINE
  5
2F8B
330
2F7A
100
AcDbEntity
  8
0
 62
     0
100
AcDbLine
 10
64.14221216833715
 20
17.62588720539776
 30
0.0
 11
61.34221216833703
 21
20.42588720539788
 31
0.0
  0
LINE
  5
2F8C
330
2F7A
100
AcDbEntity
  8
0
 62
     0
100
AcDbLine
 10
69.04221216833713
 20
12.72588720539778
 30
0.0
 11
66.24221216833706
 21
15.52588720539785
 31
0.0
  0
LINE
  5
2F8D
330
2F7A
100
AcDbEntity
  8
0
 62
     0
100
AcDbLine
 10
64.14221216833709
 20
16.72786159329081
 30
0.0
 11
61.34221216833697
 21
19.52786159329093
 31
0.0
  0
LINE
  5
2F8E
330
2F7A
100
AcDbEntity
  8
0
 62
     0
100
AcDbLine
 10
69.04221216833708
 20
11.82786159329083
 30
0.0
 11
66.24221216833706
 21
14.6278615932909
 31
0.0
  0
LINE
  5
2F8F
330
2F7A
100
AcDbEntity
  8
0
 62
     0
100
AcDbLine
 10
64.14221216833715
 20
15.82983598118397
 30
0.0
 11
61.34221216833703
 21
18.6298359811841
 31
0.0
  0
LINE
  5
2F90
330
2F7A
100
AcDbEntity
  8
0
 62
     0
100
AcDbLine
 10
57.84221216833708
 20
22.12983598118404
 30
0.0
 11
56.72204828123245
 21
23.24999986828868
 31
0.0
  0
LINE
  5
2F91
330
2F7A
100
AcDbEntity
  8
0
 62
     0
100
AcDbLine
 10
69.04221216833713
 20
10.92983598118399
 30
0.0
 11
66.24221216833706
 21
13.72983598118401
 31
0.0
  0
LINE
  5
2F92
330
2F7A
100
AcDbEntity
  8
0
 62
     0
100
AcDbLine
 10
64.14221216833715
 20
14.93181036907702
 30
0.0
 11
61.34221216833697
 21
17.73181036907715
 31
0.0
  0
LINE
  5
2F93
330
2F7A
100
AcDbEntity
  8
0
 62
     0
100
AcDbLine
 10
57.84221216833703
 20
21.23181036907709
 30
0.0
 11
55.82402266912549
 21
23.24999986828868
 31
0.0
  0
LINE
  5
2F94
330
2F7A
100
AcDbEntity
  8
0
 62
     0
100
AcDbLine
 10
69.04221216833713
 20
10.03181036907704
 30
0.0
 11
66.24221216833706
 21
12.83181036907711
 31
0.0
  0
LINE
  5
2F95
330
2F7A
100
AcDbEntity
  8
0
 62
     0
100
AcDbLine
 10
64.14221216833709
 20
14.03378475697013
 30
0.0
 11
61.34221216833703
 21
16.83378475697014
 31
0.0
  0
LINE
  5
2F96
330
2F7A
100
AcDbEntity
  8
0
 62
     0
100
AcDbLine
 10
57.84221216833703
 20
20.3337847569702
 30
0.0
 11
55.14244944501303
 21
23.0335474802942
 31
0.0
  0
LINE
  5
2F97
330
2F7A
100
AcDbEntity
  8
0
 62
     0
100
AcDbLine
 10
69.04221216833708
 20
9.133784756970158
 30
0.0
 11
66.242212168337
 21
11.93378475697016
 31
0.0
  0
LINE
  5
2F98
330
2F7A
100
AcDbEntity
  8
0
 62
     0
100
AcDbLine
 10
64.14221216833715
 20
13.13575914486318
 30
0.0
 11
61.34221216833708
 21
15.93575914486325
 31
0.0
  0
LINE
  5
2F99
330
2F7A
100
AcDbEntity
  8
0
 62
     0
100
AcDbLine
 10
57.84221216833708
 20
19.43575914486325
 30
0.0
 11
55.04221216833707
 21
22.23575914486326
 31
0.0
  0
LINE
  5
2F9A
330
2F7A
100
AcDbEntity
  8
0
 62
     0
100
AcDbLine
 10
69.04221216833713
 20
8.235759144863209
 30
0.0
 11
66.24221216833706
 21
11.03575914486327
 31
0.0
  0
LINE
  5
2F9B
330
2F7A
100
AcDbEntity
  8
0
 62
     0
100
AcDbLine
 10
64.14221216833709
 20
12.23773353275629
 30
0.0
 11
61.34221216833708
 21
15.03773353275636
 31
0.0
  0
LINE
  5
2F9C
330
2F7A
100
AcDbEntity
  8
0
 62
     0
100
AcDbLine
 10
57.84221216833714
 20
18.5377335327563
 30
0.0
 11
55.04221216833713
 21
21.33773353275632
 31
0.0
  0
LINE
  5
2F9D
330
2F7A
100
AcDbEntity
  8
0
 62
     0
100
AcDbLine
 10
68.97024681344731
 20
7.409698887646129
 30
0.0
 11
66.24221216833706
 21
10.13773353275638
 31
0.0
  0
LINE
  5
2F9E
330
2F7A
100
AcDbEntity
  8
0
 62
     0
100
AcDbLine
 10
64.14221216833715
 20
11.33970792064928
 30
0.0
 11
61.34221216833703
 21
14.13970792064941
 31
0.0
  0
LINE
  5
2F9F
330
2F7A
100
AcDbEntity
  8
0
 62
     0
100
AcDbLine
 10
57.84221216833708
 20
17.63970792064941
 30
0.0
 11
55.04221216833713
 21
20.43970792064937
 31
0.0
  0
LINE
  5
2FA0
330
2F7A
100
AcDbEntity
  8
0
 62
     0
100
AcDbLine
 10
68.33192022069784
 20
7.149999868288659
 30
0.0
 11
66.242212168337
 21
9.239707920649493
 31
0.0
  0
LINE
  5
2FA1
330
2F7A
100
AcDbEntity
  8
0
 62
     0
100
AcDbLine
 10
57.84221216833708
 20
16.74168230854246
 30
0.0
 11
55.04221216833707
 21
19.54168230854241
 31
0.0
  0
LINE
  5
2FA2
330
2F7A
100
AcDbEntity
  8
0
 62
     0
100
AcDbLine
 10
64.14221216833715
 20
10.44168230854239
 30
0.0
 11
61.34221216833703
 21
13.24168230854252
 31
0.0
  0
LINE
  5
2FA3
330
2F7A
100
AcDbEntity
  8
0
 62
     0
100
AcDbLine
 10
52.41721216833707
 20
22.16668230854247
 30
0.0
 11
51.33389460859075
 21
23.24999986828874
 31
0.0
  0
LINE
  5
2FA4
330
2F7A
100
AcDbEntity
  8
0
 62
     0
100
AcDbLine
 10
67.43389460859095
 20
7.149999868288546
 30
0.0
 11
66.242212168337
 21
8.341682308542544
 31
0.0
  0
LINE
  5
2FA5
330
2F7A
100
AcDbEntity
  8
0
 62
     0
100
AcDbLine
 10
57.84221216833708
 20
15.84365669643557
 30
0.0
 11
55.04221216833713
 21
18.64365669643558
 31
0.0
  0
LINE
  5
2FA6
330
2F7A
100
AcDbEntity
  8
0
 62
     0
100
AcDbLine
 10
52.41721216833707
 20
21.26865669643558
 30
0.0
 11
50.43586899648392
 21
23.24999986828879
 31
0.0
  0
LINE
  5
2FA7
330
2F7A
100
AcDbEntity
  8
0
 62
     0
100
AcDbLine
 10
64.11625386769157
 20
9.569614997081146
 30
0.0
 11
61.34221216833703
 21
12.34365669643563
 31
0.0
  0
LINE
  5
2FA8
330
2F7A
100
AcDbEntity
  8
0
 62
     0
100
AcDbLine
 10
57.84221216833708
 20
14.94563108432868
 30
0.0
 11
55.04221216833713
 21
17.74563108432863
 31
0.0
  0
LINE
  5
2FA9
330
2F7A
100
AcDbEntity
  8
0
 62
     0
100
AcDbLine
 10
52.22163162222324
 20
20.56621163044252
 30
0.0
 11
49.53784338437708
 21
23.24999986828868
 31
0.0
  0
LINE
  5
2FAA
330
2F7A
100
AcDbEntity
  8
0
 62
     0
100
AcDbLine
 10
63.92326857243432
 20
8.864574680231385
 30
0.0
 11
61.34221216833703
 21
11.44563108432873
 31
0.0
  0
LINE
  5
2FAB
330
2F7A
100
AcDbEntity
  8
0
 62
     0
100
AcDbLine
 10
57.84221216833708
 20
14.04760547222173
 30
0.0
 11
55.04221216833707
 21
16.84760547222174
 31
0.0
  0
LINE
  5
2FAC
330
2F7A
100
AcDbEntity
  8
0
 62
     0
100
AcDbLine
 10
51.43981777227009
 20
20.44999986828867
 30
0.0
 11
48.63981777227007
 21
23.24999986828874
 31
0.0
  0
LINE
  5
2FAD
330
2F7A
100
AcDbEntity
  8
0
 62
     0
100
AcDbLine
 10
63.59823669651075
 20
8.291580944048007
 30
0.0
 11
61.27069642917752
 21
10.61912121138129
 31
0.0
  0
LINE
  5
2FAE
330
2F7A
100
AcDbEntity
  8
0
 62
     0
100
AcDbLine
 10
57.84221216833708
 20
13.14957986011489
 30
0.0
 11
55.04221216833713
 21
15.94957986011485
 31
0.0
  0
LINE
  5
2FAF
330
2F7A
100
AcDbEntity
  8
0
 62
     0
100
AcDbLine
 10
50.54179216016326
 20
20.44999986828873
 30
0.0
 11
47.80422543098587
 21
23.18756659746611
 31
0.0
  0
LINE
  5
2FB0
330
2F7A
100
AcDbEntity
  8
0
 62
     0
100
AcDbLine
 10
63.16619489918571
 20
7.825597129266213
 30
0.0
 11
60.86911079071001
 21
10.12268123774191
 31
0.0
  0
LINE
  5
2FB1
330
2F7A
100
AcDbEntity
  8
0
 62
     0
100
AcDbLine
 10
57.84221216833708
 20
12.25155424800794
 30
0.0
 11
55.04221216833707
 21
15.0515542480079
 31
0.0
  0
LINE
  5
2FB2
330
2F7A
100
AcDbEntity
  8
0
 62
     0
100
AcDbLine
 10
49.6437665480563
 20
20.44999986828873
 30
0.0
 11
47.13958500645247
 21
22.95418140989249
 31
0.0
  0
LINE
  5
2FB3
330
2F7A
100
AcDbEntity
  8
0
 62
     0
100
AcDbLine
 10
62.63003255425968
 20
7.463733862085348
 30
0.0
 11
60.1437665480563
 21
9.949999868288671
 31
0.0
  0
LINE
  5
2FB4
330
2F7A
100
AcDbEntity
  8
0
 62
     0
100
AcDbLine
 10
57.84221216833703
 20
11.353528635901
 30
0.0
 11
55.04221216833713
 21
14.15352863590089
 31
0.0
  0
LINE
  5
2FB5
330
2F7A
100
AcDbEntity
  8
0
 62
     0
100
AcDbLine
 10
48.7675307639675
 20
20.42821004027052
 30
0.0
 11
46.59698406924229
 21
22.59875673499573
 31
0.0
  0
LINE
  5
2FB6
330
2F7A
100
AcDbEntity
  8
0
 62
     0
100
AcDbLine
 10
61.97361999434838
 20
7.222120809889702
 30
0.0
 11
59.24574093594941
 21
9.949999868288671
 31
0.0
  0
LINE
  5
2FB7
330
2F7A
100
AcDbEntity
  8
0
 62
     0
100
AcDbLine
 10
48.39221216833715
 20
19.90550302379392
 30
0.0
 11
46.15887201019774
 21
22.13884318193334
 31
0.0
  0
LINE
  5
2FB8
330
2F7A
100
AcDbEntity
  8
0
 62
     0
100
AcDbLine
 10
61.14771532384253
 20
7.149999868288603
 30
0.0
 11
55.04221216833713
 21
13.255503023794
 31
0.0
  0
LINE
  5
2FB9
330
2F7A
100
AcDbEntity
  8
0
 62
     0
100
AcDbLine
 10
48.3922121683372
 20
19.00747741168709
 30
0.0
 11
45.82710109784471
 21
21.57258848217958
 31
0.0
  0
LINE
  5
2FBA
330
2F7A
100
AcDbEntity
  8
0
 62
     0
100
AcDbLine
 10
60.24968971173564
 20
7.149999868288603
 30
0.0
 11
55.04221216833719
 21
12.35747741168711
 31
0.0
  0
LINE
  5
2FBB
330
2F7A
100
AcDbEntity
  8
0
 62
     0
100
AcDbLine
 10
48.59875644944094
 20
17.90290751847641
 30
0.0
 11
45.6249225784806
 21
20.87674138943668
 31
0.0
  0
LINE
  5
2FBC
330
2F7A
100
AcDbEntity
  8
0
 62
     0
100
AcDbLine
 10
59.35166409962874
 20
7.149999868288603
 30
0.0
 11
55.04221216833713
 21
11.45945179958022
 31
0.0
  0
LINE
  5
2FBD
330
2F7A
100
AcDbEntity
  8
0
 62
     0
100
AcDbLine
 10
52.81581587102846
 20
12.78782248478194
 30
0.0
 11
45.59221216833708
 21
20.01142618747326
 31
0.0
  0
LINE
  5
2FBE
330
2F7A
100
AcDbEntity
  8
0
 62
     0
100
AcDbLine
 10
43.492212168337
 20
22.11142618747334
 30
0.0
 11
42.35363848752172
 21
23.24999986828868
 31
0.0
  0
LINE
  5
2FBF
330
2F7A
100
AcDbEntity
  8
0
 62
     0
100
AcDbLine
 10
58.4536384875218
 20
7.149999868288603
 30
0.0
 11
55.04221216833713
 21
10.56142618747327
 31
0.0
  0
LINE
  5
2FC0
330
2F7A
100
AcDbEntity
  8
0
 62
     0
100
AcDbLine
 10
52.94221216833716
 20
11.7634005753664
 30
0.0
 11
45.59221216833714
 21
19.11340057536642
 31
0.0
  0
LINE
  5
2FC1
330
2F7A
100
AcDbEntity
  8
0
 62
     0
100
AcDbLine
 10
43.49221216833711
 20
21.21340057536639
 30
0.0
 11
41.45561287541477
 21
23.24999986828879
 31
0.0
  0
LINE
  5
2FC2
330
2F7A
100
AcDbEntity
  8
0
 62
     0
100
AcDbLine
 10
57.53916499667003
 20
7.166447747033544
 30
0.0
 11
55.05866004708201
 21
9.646952696621553
 31
0.0
  0
LINE
  5
2FC3
330
2F7A
100
AcDbEntity
  8
0
 62
     0
100
AcDbLine
 10
43.49221216833711
 20
20.3153749632595
 30
0.0
 11
40.7848222805618
 21
23.02276485103476
 31
0.0
  0
LINE
  5
2FC4
330
2F7A
100
AcDbEntity
  8
0
 62
     0
100
AcDbLine
 10
52.94221216833711
 20
10.86537496325945
 30
0.0
 11
45.61562283621947
 21
18.19196429537714
 31
0.0
  0
LINE
  5
2FC5
330
2F7A
100
AcDbEntity
  8
0
 62
     0
100
AcDbLine
 10
43.49221216833711
 20
19.41734935115255
 30
0.0
 11
40.6922121683371
 21
22.2173493511525
 31
0.0
  0
LINE
  5
2FC6
330
2F7A
100
AcDbEntity
  8
0
 62
     0
100
AcDbLine
 10
52.94221216833699
 20
9.96734935115262
 30
0.0
 11
45.93374225405949
 21
16.97581926543017
 31
0.0
  0
LINE
  5
2FC7
330
2F7A
100
AcDbEntity
  8
0
 62
     0
100
AcDbLine
 10
43.49221216833711
 20
18.51932373904566
 30
0.0
 11
40.69221216833716
 21
21.31932373904561
 31
0.0
  0
LINE
  5
2FC8
330
2F7A
100
AcDbEntity
  8
0
 62
     0
100
AcDbLine
 10
52.83365035074803
 20
9.177885556634748
 30
0.0
 11
50.13801556170972
 21
11.87352034567305
 31
0.0
  0
LINE
  5
2FC9
330
2F7A
100
AcDbEntity
  8
0
 62
     0
100
AcDbLine
 10
43.49221216833711
 20
17.62129812693876
 30
0.0
 11
40.6922121683371
 21
20.42129812693872
 31
0.0
  0
LINE
  5
2FCA
330
2F7A
100
AcDbEntity
  8
0
 62
     0
100
AcDbLine
 10
38.40072526776009
 20
22.71278502751573
 30
0.0
 11
37.86351042698709
 21
23.24999986828879
 31
0.0
  0
LINE
  5
2FCB
330
2F7A
100
AcDbEntity
  8
0
 62
     0
100
AcDbLine
 10
52.56577464298647
 20
8.547735652289418
 30
0.0
 11
50.14221216833715
 21
10.97129812693873
 31
0.0
  0
LINE
  5
2FCC
330
2F7A
100
AcDbEntity
  8
0
 62
     0
100
AcDbLine
 10
43.49221216833706
 20
16.72327251483181
 30
0.0
 11
40.6922121683371
 21
19.52327251483183
 31
0.0
  0
LINE
  5
2FCD
330
2F7A
100
AcDbEntity
  8
0
 62
     0
100
AcDbLine
 10
38.20179760350749
 20
22.01368707966139
 30
0.0
 11
36.9654848148802
 21
23.24999986828874
 31
0.0
  0
LINE
  5
2FCE
330
2F7A
100
AcDbEntity
  8
0
 62
     0
100
AcDbLine
 10
52.18278784481118
 20
8.032696838357765
 30
0.0
 11
50.04492698545067
 21
10.17055769771826
 31
0.0
  0
LINE
  5
2FCF
330
2F7A
100
AcDbEntity
  8
0
 62
     0
100
AcDbLine
 10
43.49221216833706
 20
15.82524690272492
 30
0.0
 11
40.6922121683371
 21
18.62524690272488
 31
0.0
  0
LINE
  5
2FD0
330
2F7A
100
AcDbEntity
  8
0
 62
     0
100
AcDbLine
 10
37.9862714566018
 20
21.33118761446013
 30
0.0
 11
36.07705589313122
 21
23.24040317793077
 31
0.0
  0
LINE
  5
2FD1
330
2F7A
100
AcDbEntity
  8
0
 62
     0
100
AcDbLine
 10
51.69646887969554
 20
7.620990191366388
 30
0.0
 11
49.36745920277331
 21
9.949999868288671
 31
0.0
  0
LINE
  5
2FD2
330
2F7A
100
AcDbEntity
  8
0
 62
     0
100
AcDbLine
 10
43.49221216833711
 20
14.92722129061803
 30
0.0
 11
40.6922121683371
 21
17.72722129061799
 31
0.0
  0
LINE
  5
2FD3
330
2F7A
100
AcDbEntity
  8
0
 62
     0
100
AcDbLine
 10
37.77074530969628
 20
20.64868814925887
 30
0.0
 11
35.64274530969623
 21
22.77668814925891
 31
0.0
  0
LINE
  5
2FD4
330
2F7A
100
AcDbEntity
  8
0
 62
     0
100
AcDbLine
 10
51.10038493123517
 20
7.319048527719928
 30
0.0
 11
48.46943359066642
 21
9.949999868288728
 31
0.0
  0
LINE
  5
2FD5
330
2F7A
100
AcDbEntity
  8
0
 62
     0
100
AcDbLine
 10
43.49221216833706
 20
14.02919567851114
 30
0.0
 11
40.6922121683371
 21
16.8291956785111
 31
0.0
  0
LINE
  5
2FD6
330
2F7A
100
AcDbEntity
  8
0
 62
     0
100
AcDbLine
 10
37.55521916279042
 20
19.96618868405778
 30
0.0
 11
35.42721916279043
 21
22.09418868405776
 31
0.0
  0
LINE
  5
2FD7
330
2F7A
100
AcDbEntity
  8
0
 62
     0
100
AcDbLine
 10
50.3627122795877
 20
7.158695567260508
 30
0.0
 11
47.57140797855953
 21
9.949999868288671
 31
0.0
  0
LINE
  5
2FD8
330
2F7A
100
AcDbEntity
  8
0
 62
     0
100
AcDbLine
 10
43.49221216833706
 20
13.13117006640419
 30
0.0
 11
40.69221216833705
 21
15.93117006640414
 31
0.0
  0
LINE
  5
2FD9
330
2F7A
100
AcDbEntity
  8
0
 62
     0
100
AcDbLine
 10
37.33969301588484
 20
19.2836892188564
 30
0.0
 11
35.21169301588475
 21
21.41168921885645
 31
0.0
  0
LINE
  5
2FDA
330
2F7A
100
AcDbEntity
  8
0
 62
     0
100
AcDbLine
 10
49.47338236645265
 20
7.149999868288603
 30
0.0
 11
46.67338236645258
 21
9.949999868288671
 31
0.0
  0
LINE
  5
2FDB
330
2F7A
100
AcDbEntity
  8
0
 62
     0
100
AcDbLine
 10
43.49221216833706
 20
12.2331444542973
 30
0.0
 11
40.6922121683371
 21
15.03314445429731
 31
0.0
  0
LINE
  5
2FDC
330
2F7A
100
AcDbEntity
  8
0
 62
     0
100
AcDbLine
 10
37.12416686897927
 20
18.60118975365514
 30
0.0
 11
34.99616686897911
 21
20.72918975365524
 31
0.0
  0
LINE
  5
2FDD
330
2F7A
100
AcDbEntity
  8
0
 62
     0
100
AcDbLine
 10
48.57535675434576
 20
7.149999868288659
 30
0.0
 11
46.14174505704937
 21
9.583611565585044
 31
0.0
  0
LINE
  5
2FDE
330
2F7A
100
AcDbEntity
  8
0
 62
     0
100
AcDbLine
 10
36.90864072207352
 20
17.91869028845394
 30
0.0
 11
34.78064072207348
 21
20.04669028845398
 31
0.0
  0
LINE
  5
2FDF
330
2F7A
100
AcDbEntity
  8
0
 62
     0
100
AcDbLine
 10
43.49221216833706
 20
11.33511884219041
 30
0.0
 11
40.6922121683371
 21
14.13511884219036
 31
0.0
  0
LINE
  5
2FE0
330
2F7A
100
AcDbEntity
  8
0
 62
     0
100
AcDbLine
 10
32.64221216833709
 20
22.18511884219037
 30
0.0
 11
31.57733114223879
 21
23.24999986828862
 31
0.0
  0
LINE
  5
2FE1
330
2F7A
100
AcDbEntity
  8
0
 62
     0
100
AcDbLine
 10
47.67733114223887
 20
7.149999868288603
 30
0.0
 11
46.11721216833712
 21
8.710118842190354
 31
0.0
  0
LINE
  5
2FE2
330
2F7A
100
AcDbEntity
  8
0
 62
     0
100
AcDbLine
 10
36.69311457516784
 20
17.23619082325268
 30
0.0
 11
34.56511457516785
 21
19.36419082325267
 31
0.0
  0
LINE
  5
2FE3
330
2F7A
100
AcDbEntity
  8
0
 62
     0
100
AcDbLine
 10
43.49221216833706
 20
10.43709323008346
 30
0.0
 11
40.69221216833705
 21
13.23709323008347
 31
0.0
  0
LINE
  5
2FE4
330
2F7A
100
AcDbEntity
  8
0
 62
     0
100
AcDbLine
 10
32.64221216833709
 20
21.28709323008342
 30
0.0
 11
30.67930553013189
 21
23.24999986828862
 31
0.0
  0
LINE
  5
2FE5
330
2F7A
100
AcDbEntity
  8
0
 62
     0
100
AcDbLine
 10
46.77930553013186
 20
7.149999868288659
 30
0.0
 11
46.11721216833706
 21
7.812093230083405
 31
0.0
  0
LINE
  5
2FE6
330
2F7A
100
AcDbEntity
  8
0
 62
     0
100
AcDbLine
 10
36.47758842826215
 20
16.55369135805142
 30
0.0
 11
34.34958842826211
 21
18.68169135805146
 31
0.0
  0
LINE
  5
2FE7
330
2F7A
100
AcDbEntity
  8
0
 62
     0
100
AcDbLine
 10
32.64221216833703
 20
20.38906761797647
 30
0.0
 11
29.96676723943943
 21
23.06451254687414
 31
0.0
  0
LINE
  5
2FE8
330
2F7A
100
AcDbEntity
  8
0
 62
     0
100
AcDbLine
 10
43.492212168337
 20
9.53906761797657
 30
0.0
 11
40.69221216833705
 21
12.33906761797652
 31
0.0
  0
LINE
  5
2FE9
330
2F7A
100
AcDbEntity
  8
0
 62
     0
100
AcDbLine
 10
36.26206228135652
 20
15.87119189285022
 30
0.0
 11
34.13406228135653
 21
17.9991918928502
 31
0.0
  0
LINE
  5
2FEA
330
2F7A
100
AcDbEntity
  8
0
 62
     0
100
AcDbLine
 10
32.64221216833709
 20
19.49104200586964
 30
0.0
 11
29.84221216833702
 21
22.29104200586965
 31
0.0
  0
LINE
  5
2FEB
330
2F7A
100
AcDbEntity
  8
0
 62
     0
100
AcDbLine
 10
43.49221216833706
 20
8.641042005869678
 30
0.0
 11
40.69221216833705
 21
11.44104200586963
 31
0.0
  0
LINE
  5
2FEC
330
2F7A
100
AcDbEntity
  8
0
 62
     0
100
AcDbLine
 10
36.05697377196463
 20
15.17825479013515
 30
0.0
 11
33.91853613445078
 21
17.316692427649
 31
0.0
  0
LINE
  5
2FED
330
2F7A
100
AcDbEntity
  8
0
 62
     0
100
AcDbLine
 10
32.64221216833709
 20
18.59301639376269
 30
0.0
 11
29.84221216833702
 21
21.39301639376276
 31
0.0
  0
LINE
  5
2FEE
330
2F7A
100
AcDbEntity
  8
0
 62
     0
100
AcDbLine
 10
43.492212168337
 20
7.743016393762729
 30
0.0
 11
40.69221216833705
 21
10.54301639376274
 31
0.0
  0
LINE
  5
2FEF
330
2F7A
100
AcDbEntity
  8
0
 62
     0
100
AcDbLine
 10
36.47144713139863
 20
13.8657558185942
 30
0.0
 11
33.62798863876617
 21
16.70921431122667
 31
0.0
  0
LINE
  5
2FF0
330
2F7A
100
AcDbEntity
  8
0
 62
     0
100
AcDbLine
 10
32.64221216833715
 20
17.69499078165569
 30
0.0
 11
29.84221216833697
 21
20.49499078165581
 31
0.0
  0
LINE
  5
2FF1
330
2F7A
100
AcDbEntity
  8
0
 62
     0
100
AcDbLine
 10
43.15316717100467
 20
7.184035778988118
 30
0.0
 11
40.6922121683371
 21
9.644990781655735
 31
0.0
  0
LINE
  5
2FF2
330
2F7A
100
AcDbEntity
  8
0
 62
     0
100
AcDbLine
 10
36.88592049083268
 20
12.55325684705332
 30
0.0
 11
29.84221216833702
 21
19.59696516954898
 31
0.0
  0
LINE
  5
2FF3
330
2F7A
100
AcDbEntity
  8
0
 62
     0
100
AcDbLine
 10
27.39221216833715
 20
22.04696516954885
 30
0.0
 11
26.18917746959738
 21
23.24999986828862
 31
0.0
  0
LINE
  5
2FF4
330
2F7A
100
AcDbEntity
  8
0
 62
     0
100
AcDbLine
 10
42.28917746959734
 20
7.149999868288659
 30
0.0
 11
40.69221216833716
 21
8.746965169548843
 31
0.0
  0
LINE
  5
2FF5
330
2F7A
100
AcDbEntity
  8
0
 62
     0
100
AcDbLine
 10
37.30039385026657
 20
11.24075787551243
 30
0.0
 11
29.84221216833702
 21
18.69893955744203
 31
0.0
  0
LINE
  5
2FF6
330
2F7A
100
AcDbEntity
  8
0
 62
     0
100
AcDbLine
 10
27.39221216833715
 20
21.1489395574419
 30
0.0
 11
25.29115185749037
 21
23.24999986828868
 31
0.0
  0
LINE
  5
2FF7
330
2F7A
100
AcDbEntity
  8
0
 62
     0
100
AcDbLine
 10
41.39115185749034
 20
7.149999868288716
 30
0.0
 11
40.6922121683371
 21
7.848939557441951
 31
0.0
  0
LINE
  5
2FF8
330
2F7A
100
AcDbEntity
  8
0
 62
     0
100
AcDbLine
 10
27.12530547294704
 20
20.51782064072506
 30
0.0
 11
24.42508375473562
 21
23.21804235893643
 31
0.0
  0
LINE
  5
2FF9
330
2F7A
100
AcDbEntity
  8
0
 62
     0
100
AcDbLine
 10
37.71486720970051
 20
9.928258903971595
 30
0.0
 11
29.84221216833708
 21
17.80091394533502
 31
0.0
  0
LINE
  5
2FFA
330
2F7A
100
AcDbEntity
  8
0
 62
     0
100
AcDbLine
 10
32.9797210906787
 20
13.76537941088651
 30
0.0
 11
29.84221216833708
 21
16.90288833322813
 31
0.0
  0
LINE
  5
2FFB
330
2F7A
100
AcDbEntity
  8
0
 62
     0
100
AcDbLine
 10
26.2951006332766
 20
20.44999986828855
 30
0.0
 11
23.68704068514836
 21
23.05805981641686
 31
0.0
  0
LINE
  5
2FFC
330
2F7A
100
AcDbEntity
  8
0
 62
     0
100
AcDbLine
 10
38.12934056913451
 20
8.615759932430705
 30
0.0
 11
34.03703287682663
 21
12.70806762473853
 31
0.0
  0
LINE
  5
2FFD
330
2F7A
100
AcDbEntity
  8
0
 62
     0
100
AcDbLine
 10
32.64221216833715
 20
13.20486272112117
 30
0.0
 11
29.84221216833708
 21
16.00486272112124
 31
0.0
  0
LINE
  5
2FFE
330
2F7A
100
AcDbEntity
  8
0
 62
     0
100
AcDbLine
 10
25.39707502116959
 20
20.44999986828867
 30
0.0
 11
23.04831926931762
 21
22.79875562014063
 31
0.0
  0
LINE
  5
2FFF
330
2F7A
100
AcDbEntity
  8
0
 62
     0
100
AcDbLine
 10
38.36437942684511
 20
7.48269546261315
 30
0.0
 11
34.45150623626057
 21
11.39556865319775
 31
0.0
  0
LINE
  5
3000
330
2F7A
100
AcDbEntity
  8
0
 62
     0
100
AcDbLine
 10
32.64221216833709
 20
12.30683710901428
 30
0.0
 11
29.84221216833702
 21
15.10683710901429
 31
0.0
  0
LINE
  5
3001
330
2F7A
100
AcDbEntity
  8
0
 62
     0
100
AcDbLine
 10
24.55396151862606
 20
20.39508775872531
 30
0.0
 11
22.48957029398309
 21
22.45947898336828
 31
0.0
  0
LINE
  5
3002
330
2F7A
100
AcDbEntity
  8
0
 62
     0
100
AcDbLine
 10
37.79904940906277
 20
7.149999868288603
 30
0.0
 11
34.86597959569451
 21
10.08306968165686
 31
0.0
  0
LINE
  5
3003
330
2F7A
100
AcDbEntity
  8
0
 62
     0
100
AcDbLine
 10
32.64221216833709
 20
11.40881149690733
 30
0.0
 11
29.84221216833702
 21
14.2088114969074
 31
0.0
  0
LINE
  5
3004
330
2F7A
100
AcDbEntity
  8
0
 62
     0
100
AcDbLine
 10
23.98210532578707
 20
20.06891833945735
 30
0.0
 11
22.0019150853713
 21
22.04910857987312
 31
0.0
  0
LINE
  5
3005
330
2F7A
100
AcDbEntity
  8
0
 62
     0
100
AcDbLine
 10
36.90102379695582
 20
7.149999868288603
 30
0.0
 11
35.28045295512856
 21
8.770570710115862
 31
0.0
  0
LINE
  5
3006
330
2F7A
100
AcDbEntity
  8
0
 62
     0
100
AcDbLine
 10
27.72764130113483
 20
15.42535675200275
 30
0.0
 11
26.21756905205109
 21
16.9354290010865
 31
0.0
  0
LINE
  5
3007
330
2F7A
100
AcDbEntity
  8
0
 62
     0
100
AcDbLine
 10
32.64221216833721
 20
10.51078588480038
 30
0.0
 11
29.84221216833708
 21
13.31078588480051
 31
0.0
  0
LINE
  5
3008
330
2F7A
100
AcDbEntity
  8
0
 62
     0
100
AcDbLine
 10
23.62598375565812
 20
19.52701429747946
 30
0.0
 11
21.58254905936007
 21
21.57044899377751
 31
0.0
  0
LINE
  5
3009
330
2F7A
100
AcDbEntity
  8
0
 62
     0
100
AcDbLine
 10
35.95266518064431
 20
7.200332872493277
 30
0.0
 11
35.702311009053
 21
7.450687044084588
 31
0.0
  0
LINE
  5
300A
330
2F7A
100
AcDbEntity
  8
0
 62
     0
100
AcDbLine
 10
27.64112764099292
 20
14.61384480003772
 30
0.0
 11
25.40605710008605
 21
16.84891534094458
 31
0.0
  0
LINE
  5
300B
330
2F7A
100
AcDbEntity
  8
0
 62
     0
100
AcDbLine
 10
23.54221216833718
 20
18.71276027269345
 30
0.0
 11
21.2336100383984
 21
21.02136240263223
 31
0.0
  0
LINE
  5
300C
330
2F7A
100
AcDbEntity
  8
0
 62
     0
100
AcDbLine
 10
32.64221216833715
 20
9.612760272693435
 30
0.0
 11
29.84221216833702
 21
12.41276027269361
 31
0.0
  0
LINE
  5
300D
330
2F7A
100
AcDbEntity
  8
0
 62
     0
100
AcDbLine
 10
27.30927208169487
 20
14.04767474722876
 30
0.0
 11
24.8398870472771
 21
16.51705978164653
 31
0.0
  0
LINE
  5
300E
330
2F7A
100
AcDbEntity
  8
0
 62
     0
100
AcDbLine
 10
23.54221216833718
 20
17.81473466058651
 30
0.0
 11
20.96303033118823
 21
20.39391649773546
 31
0.0
  0
LINE
  5
300F
330
2F7A
100
AcDbEntity
  8
0
 62
     0
100
AcDbLine
 10
32.64221216833715
 20
8.714734660586543
 30
0.0
 11
29.84221216833708
 21
11.51473466058661
 31
0.0
  0
LINE
  5
3010
330
2F7A
100
AcDbEntity
  8
0
 62
     0
100
AcDbLine
 10
23.54221216833718
 20
16.91670904847961
 30
0.0
 11
20.78831645826238
 21
19.67060475855447
 31
0.0
  0
LINE
  5
3011
330
2F7A
100
AcDbEntity
  8
0
 62
     0
100
AcDbLine
 10
26.80743863955842
 20
13.65148257725843
 30
0.0
 11
24.44369487730677
 21
16.01522633951009
 31
0.0
  0
LINE
  5
3012
330
2F7A
100
AcDbEntity
  8
0
 62
     0
100
AcDbLine
 10
18.11721216833712
 20
22.34170904847974
 30
0.0
 11
17.20892134852812
 21
23.24999986828874
 31
0.0
  0
LINE
  5
3013
330
2F7A
100
AcDbEntity
  8
0
 62
     0
100
AcDbLine
 10
32.64221216833721
 20
7.816709048479651
 30
0.0
 11
29.84221216833714
 21
10.61670904847971
 31
0.0
  0
LINE
  5
3014
330
2F7A
100
AcDbEntity
  8
0
 62
     0
100
AcDbLine
 10
23.54221216833718
 20
16.01868343637272
 30
0.0
 11
20.74221216833711
 21
18.81868343637279
 31
0.0
  0
LINE
  5
3015
330
2F7A
100
AcDbEntity
  8
0
 62
     0
100
AcDbLine
 10
26.107119197131
 20
13.45377640757891
 30
0.0
 11
24.24598870762725
 21
15.31490689708266
 31
0.0
  0
LINE
  5
3016
330
2F7A
100
AcDbEntity
  8
0
 62
     0
100
AcDbLine
 10
18.11721216833706
 20
21.44368343637279
 30
0.0
 11
16.31089573642117
 21
23.24999986828868
 31
0.0
  0
LINE
  5
3017
330
2F7A
100
AcDbEntity
  8
0
 62
     0
100
AcDbLine
 10
32.35430836706649
 20
7.206587237643418
 30
0.0
 11
29.84221216833708
 21
9.718683436372771
 31
0.0
  0
LINE
  5
3018
330
2F7A
100
AcDbEntity
  8
0
 62
     0
100
AcDbLine
 10
23.54221216833718
 20
15.12065782426577
 30
0.0
 11
20.74221216833711
 21
17.92065782426584
 31
0.0
  0
LINE
  5
3019
330
2F7A
100
AcDbEntity
  8
0
 62
     0
100
AcDbLine
 10
18.00817819806673
 20
20.65469179453623
 30
0.0
 11
15.41287012431416
 21
23.24999986828874
 31
0.0
  0
LINE
  5
301A
330
2F7A
100
AcDbEntity
  8
0
 62
     0
100
AcDbLine
 10
31.5128701243143
 20
7.149999868288659
 30
0.0
 11
29.84221216833708
 21
8.820657824265879
 31
0.0
  0
LINE
  5
301B
330
2F7A
100
AcDbEntity
  8
0
 62
     0
100
AcDbLine
 10
23.54221216833713
 20
14.22263221215888
 30
0.0
 11
20.74221216833706
 21
17.02263221215889
 31
0.0
  0
LINE
  5
301C
330
2F7A
100
AcDbEntity
  8
0
 62
     0
100
AcDbLine
 10
17.31484451220734
 20
20.44999986828867
 30
0.0
 11
14.51484451220727
 21
23.24999986828874
 31
0.0
  0
LINE
  5
301D
330
2F7A
100
AcDbEntity
  8
0
 62
     0
100
AcDbLine
 10
30.61484451220735
 20
7.149999868288603
 30
0.0
 11
29.84221216833708
 21
7.92263221215893
 31
0.0
  0
LINE
  5
301E
330
2F7A
100
AcDbEntity
  8
0
 62
     0
100
AcDbLine
 10
23.54221216833724
 20
13.32460660005193
 30
0.0
 11
20.74221216833711
 21
16.12460660005206
 31
0.0
  0
LINE
  5
301F
330
2F7A
100
AcDbEntity
  8
0
 62
     0
100
AcDbLine
 10
16.41681890010045
 20
20.44999986828873
 30
0.0
 11
13.6516896279956
 21
23.21512914039357
 31
0.0
  0
LINE
  5
3020
330
2F7A
100
AcDbEntity
  8
0
 62
     0
100
AcDbLine
 10
27.38960971950018
 20
9.477209048888937
 30
0.0
 11
26.91942134893747
 21
9.947397419451704
 31
0.0
  0
LINE
  5
3021
330
2F7A
100
AcDbEntity
  8
0
 62
     0
100
AcDbLine
 10
23.54221216833724
 20
12.42658098794498
 30
0.0
 11
20.74221216833711
 21
15.22658098794511
 31
0.0
  0
LINE
  5
3022
330
2F7A
100
AcDbEntity
  8
0
 62
     0
100
AcDbLine
 10
15.5187932879935
 20
20.44999986828867
 30
0.0
 11
12.95855481951713
 21
23.01023833676509
 31
0.0
  0
LINE
  5
3023
330
2F7A
100
AcDbEntity
  8
0
 62
     0
100
AcDbLine
 10
27.39221216833721
 20
8.576580987945021
 30
0.0
 11
26.01879328799356
 21
9.949999868288671
 31
0.0
  0
LINE
  5
3024
330
2F7A
100
AcDbEntity
  8
0
 62
     0
100
AcDbLine
 10
23.54221216833718
 20
11.52855537583803
 30
0.0
 11
20.74221216833717
 21
14.3285553758381
 31
0.0
  0
LINE
  5
3025
330
2F7A
100
AcDbEntity
  8
0
 62
     0
100
AcDbLine
 10
14.62076767588667
 20
20.44999986828855
 30
0.0
 11
12.39430815966989
 21
22.67645938450533
 31
0.0
  0
LINE
  5
3026
330
2F7A
100
AcDbEntity
  8
0
 62
     0
100
AcDbLine
 10
27.39221216833715
 20
7.678555375838072
 30
0.0
 11
25.12076767588666
 21
9.949999868288557
 31
0.0
  0
LINE
  5
3027
330
2F7A
100
AcDbEntity
  8
0
 62
     0
100
AcDbLine
 10
14.11047484827207
 20
20.06226708379637
 30
0.0
 11
11.93621534742914
 21
22.2365265846393
 31
0.0
  0
LINE
  5
3028
330
2F7A
100
AcDbEntity
  8
0
 62
     0
100
AcDbLine
 10
27.00447938384479
 20
7.168262548223651
 30
0.0
 11
20.74221216833717
 21
13.43052976373127
 31
0.0
  0
LINE
  5
3029
330
2F7A
100
AcDbEntity
  8
0
 62
     0
100
AcDbLine
 10
14.09221216833714
 20
19.18250415162435
 30
0.0
 11
11.58273414496005
 21
21.69198217500144
 31
0.0
  0
LINE
  5
302A
330
2F7A
100
AcDbEntity
  8
0
 62
     0
100
AcDbLine
 10
26.12471645167289
 20
7.149999868288603
 30
0.0
 11
20.74221216833717
 21
12.53250415162432
 31
0.0
  0
LINE
  5
302B
330
2F7A
100
AcDbEntity
  8
0
 62
     0
100
AcDbLine
 10
14.15434787647257
 20
18.22234283138192
 30
0.0
 11
11.35185404266633
 21
21.02483666518821
 31
0.0
  0
LINE
  5
302C
330
2F7A
100
AcDbEntity
  8
0
 62
     0
100
AcDbLine
 10
25.22669083956589
 20
7.149999868288659
 30
0.0
 11
20.74221216833711
 21
11.63447853951737
 31
0.0
  0
LINE
  5
302D
330
2F7A
100
AcDbEntity
  8
0
 62
     0
100
AcDbLine
 10
18.4465882595598
 20
13.03207683618785
 30
0.0
 11
11.29221216833718
 21
20.18645292741047
 31
0.0
  0
LINE
  5
302E
330
2F7A
100
AcDbEntity
  8
0
 62
     0
100
AcDbLine
 10
24.27539314040234
 20
7.203271955345314
 30
0.0
 11
20.79548425539377
 21
10.68318084035388
 31
0.0
  0
LINE
  5
302F
330
2F7A
100
AcDbEntity
  8
0
 62
     0
100
AcDbLine
 10
18.63848277364502
 20
11.94215670999574
 30
0.0
 11
11.29221216833707
 21
19.28842731530369
 31
0.0
  0
LINE
  5
3030
330
2F7A
100
AcDbEntity
  8
0
 62
     0
100
AcDbLine
 10
22.90158522780075
 20
7.679054255839957
 30
0.0
 11
21.27126655588836
 21
9.309372927752406
 31
0.0
  0
LINE
  5
3031
330
2F7A
100
AcDbEntity
  8
0
 62
     0
100
AcDbLine
 10
18.64221216833721
 20
11.0404017031966
 30
0.0
 11
11.29977661575946
 21
18.38283725577429
 31
0.0
  0
LINE
  5
3032
330
2F7A
100
AcDbEntity
  8
0
 62
     0
100
AcDbLine
 10
18.64221216833709
 20
10.14237609108977
 30
0.0
 11
11.52306737408332
 21
17.26152088534348
 31
0.0
  0
LINE
  5
3033
330
2F7A
100
AcDbEntity
  8
0
 62
     0
100
AcDbLine
 10
18.56969217220518
 20
9.316870475114853
 30
0.0
 11
15.80630052858612
 21
12.08026211873391
 31
0.0
  0
LINE
  5
3034
330
2F7A
100
AcDbEntity
  8
0
 62
     0
100
AcDbLine
 10
18.32775423317633
 20
8.660782802036749
 30
0.0
 11
15.84221216833708
 21
11.146324866876
 31
0.0
  0
LINE
  5
3035
330
2F7A
100
AcDbEntity
  8
0
 62
     0
100
AcDbLine
 10
17.96563498579456
 20
8.12487643731157
 30
0.0
 11
15.8063131360364
 21
10.28419828706972
 31
0.0
  0
LINE
  5
3036
330
2F7A
100
AcDbEntity
  8
0
 62
     0
100
AcDbLine
 10
17.49940861352769
 20
7.693077197471552
 30
0.0
 11
15.24248594271057
 21
9.949999868288728
 31
0.0
  0
LINE
  5
3037
330
2F7A
100
AcDbEntity
  8
0
 62
     0
100
AcDbLine
 10
16.92614416579488
 20
7.368316033097471
 30
0.0
 11
14.34446033060362
 21
9.949999868288671
 31
0.0
  0
LINE
  5
3038
330
2F7A
100
AcDbEntity
  8
0
 62
     0
100
AcDbLine
 10
16.22073157670894
 20
7.17570301007646
 30
0.0
 11
13.44643471849673
 21
9.949999868288671
 31
0.0
  0
LINE
  5
3039
330
2F7A
100
AcDbEntity
  8
0
 62
     0
100
AcDbLine
 10
15.34840910638979
 20
7.149999868288659
 30
0.0
 11
12.54840910638978
 21
9.949999868288671
 31
0.0
  0
LINE
  5
303A
330
2F7A
100
AcDbEntity
  8
0
 62
     0
100
AcDbLine
 10
14.45038349428296
 20
7.149999868288603
 30
0.0
 11
11.89705959946508
 21
9.703323763106538
 31
0.0
  0
LINE
  5
303B
330
2F7A
100
AcDbEntity
  8
0
 62
     0
100
AcDbLine
 10
13.55235788217595
 20
7.149999868288659
 30
0.0
 11
11.81721216833716
 21
8.885145582127449
 31
0.0
  0
LINE
  5
303C
330
2F7A
100
AcDbEntity
  8
0
 62
     0
100
AcDbLine
 10
12.65433227006911
 20
7.149999868288603
 30
0.0
 11
11.81721216833716
 21
7.987119970020557
 31
0.0
  0
LINE
  5
303D
330
2F7A
100
AcDbEntity
  8
0
 62
     0
100
AcDbLine
 10
68.63389945300406
 20
7.163131645406167
 30
0.0
 11
69.02908039121985
 21
7.558312583621955
 31
0.0
  0
LINE
  5
303E
330
2F7A
100
AcDbEntity
  8
0
 62
     0
100
AcDbLine
 10
67.72274206377961
 20
7.149999868288546
 30
0.0
 11
69.0422121683373
 21
8.469469972846241
 31
0.0
  0
LINE
  5
303F
330
2F7A
100
AcDbEntity
  8
0
 62
     0
100
AcDbLine
 10
66.82471645167272
 20
7.149999868288546
 30
0.0
 11
69.0422121683373
 21
9.367495584953132
 31
0.0
  0
LINE
  5
3040
330
2F7A
100
AcDbEntity
  8
0
 62
     0
100
AcDbLine
 10
66.27340973158897
 20
7.49671876031175
 30
0.0
 11
69.04221216833724
 21
10.26552119706008
 31
0.0
  0
LINE
  5
3041
330
2F7A
100
AcDbEntity
  8
0
 62
     0
100
AcDbLine
 10
66.24221216833717
 20
8.363546809166905
 30
0.0
 11
69.04221216833724
 21
11.16354680916691
 31
0.0
  0
LINE
  5
3042
330
2F7A
100
AcDbEntity
  8
0
 62
     0
100
AcDbLine
 10
66.24221216833723
 20
9.261572421273797
 30
0.0
 11
69.04221216833724
 21
12.06157242127386
 31
0.0
  0
LINE
  5
3043
330
2F7A
100
AcDbEntity
  8
0
 62
     0
100
AcDbLine
 10
66.24221216833717
 20
10.15959803338074
 30
0.0
 11
69.04221216833724
 21
12.95959803338081
 31
0.0
  0
LINE
  5
3044
330
2F7A
100
AcDbEntity
  8
0
 62
     0
100
AcDbLine
 10
66.24221216833717
 20
11.05762364548763
 30
0.0
 11
69.04221216833724
 21
13.8576236454877
 31
0.0
  0
LINE
  5
3045
330
2F7A
100
AcDbEntity
  8
0
 62
     0
100
AcDbLine
 10
62.66877703040245
 20
7.484188507552914
 30
0.0
 11
63.80802352907301
 21
8.62343500622353
 31
0.0
  0
LINE
  5
3046
330
2F7A
100
AcDbEntity
  8
0
 62
     0
100
AcDbLine
 10
66.24221216833717
 20
11.95564925759452
 30
0.0
 11
69.04221216833724
 21
14.75564925759459
 31
0.0
  0
LINE
  5
3047
330
2F7A
100
AcDbEntity
  8
0
 62
     0
100
AcDbLine
 10
61.43820886387965
 20
7.151645953137006
 30
0.0
 11
64.14056608348897
 21
9.854003172746274
 31
0.0
  0
LINE
  5
3048
330
2F7A
100
AcDbEntity
  8
0
 62
     0
100
AcDbLine
 10
66.24221216833717
 20
12.85367486970147
 30
0.0
 11
69.04221216833724
 21
15.65367486970149
 31
0.0
  0
LINE
  5
3049
330
2F7A
100
AcDbEntity
  8
0
 62
     0
100
AcDbLine
 10
60.53853716692424
 20
7.149999868288546
 30
0.0
 11
64.14221216833727
 21
10.75367486970151
 31
0.0
  0
LINE
  5
304A
330
2F7A
100
AcDbEntity
  8
0
 62
     0
100
AcDbLine
 10
66.24221216833717
 20
13.75170048180837
 30
0.0
 11
69.04221216833718
 21
16.55170048180844
 31
0.0
  0
LINE
  5
304B
330
2F7A
100
AcDbEntity
  8
0
 62
     0
100
AcDbLine
 10
59.64051155481735
 20
7.149999868288546
 30
0.0
 11
64.14221216833721
 21
11.65170048180846
 31
0.0
  0
LINE
  5
304C
330
2F7A
100
AcDbEntity
  8
0
 62
     0
100
AcDbLine
 10
66.24221216833729
 20
14.64972609391532
 30
0.0
 11
69.04221216833724
 21
17.44972609391533
 31
0.0
  0
LINE
  5
304D
330
2F7A
100
AcDbEntity
  8
0
 62
     0
100
AcDbLine
 10
58.74248594271051
 20
7.149999868288603
 30
0.0
 11
64.14221216833727
 21
12.54972609391535
 31
0.0
  0
LINE
  5
304E
330
2F7A
100
AcDbEntity
  8
0
 62
     0
100
AcDbLine
 10
61.23762096625615
 20
10.54316050394118
 30
0.0
 11
64.14221216833727
 21
13.44775170602224
 31
0.0
  0
LINE
  5
304F
330
2F7A
100
AcDbEntity
  8
0
 62
     0
100
AcDbLine
 10
66.24221216833723
 20
15.54775170602226
 30
0.0
 11
69.04221216833724
 21
18.34775170602222
 31
0.0
  0
LINE
  5
3050
330
2F7A
100
AcDbEntity
  8
0
 62
     0
100
AcDbLine
 10
57.84446033060351
 20
7.149999868288546
 30
0.0
 11
60.74905153268463
 21
10.05459107036961
 31
0.0
  0
LINE
  5
3051
330
2F7A
100
AcDbEntity
  8
0
 62
     0
100
AcDbLine
 10
61.34221216833714
 20
11.54577731812912
 30
0.0
 11
64.14221216833721
 21
14.34577731812919
 31
0.0
  0
LINE
  5
3052
330
2F7A
100
AcDbEntity
  8
0
 62
     0
100
AcDbLine
 10
66.24221216833723
 20
16.44577731812915
 30
0.0
 11
69.04221216833718
 21
19.24577731812917
 31
0.0
  0
LINE
  5
3053
330
2F7A
100
AcDbEntity
  8
0
 62
     0
100
AcDbLine
 10
57.05838446987383
 20
7.261949619665756
 30
0.0
 11
59.74643471849669
 21
9.949999868288614
 31
0.0
  0
LINE
  5
3054
330
2F7A
100
AcDbEntity
  8
0
 62
     0
100
AcDbLine
 10
61.3422121683372
 20
12.44380293023613
 30
0.0
 11
64.14221216833721
 21
15.24380293023608
 31
0.0
  0
LINE
  5
3055
330
2F7A
100
AcDbEntity
  8
0
 62
     0
100
AcDbLine
 10
66.24221216833717
 20
17.3438029302361
 30
0.0
 11
69.04221216833718
 21
20.14380293023606
 31
0.0
  0
LINE
  5
3056
330
2F7A
100
AcDbEntity
  8
0
 62
     0
100
AcDbLine
 10
56.43039760266367
 20
7.531988364562607
 30
0.0
 11
58.84928689203412
 21
9.950877653933048
 31
0.0
  0
LINE
  5
3057
330
2F7A
100
AcDbEntity
  8
0
 62
     0
100
AcDbLine
 10
61.34221216833726
 20
13.34182854234302
 30
0.0
 11
64.14221216833721
 21
16.14182854234297
 31
0.0
  0
LINE
  5
3058
330
2F7A
100
AcDbEntity
  8
0
 62
     0
100
AcDbLine
 10
66.24221216833723
 20
18.241828542343
 30
0.0
 11
69.04221216833718
 21
21.04182854234295
 31
0.0
  0
LINE
  5
3059
330
2F7A
100
AcDbEntity
  8
0
 62
     0
100
AcDbLine
 10
55.91713772129861
 20
7.916754095304327
 30
0.0
 11
58.20580830332142
 21
10.20542467732718
 31
0.0
  0
LINE
  5
305A
330
2F7A
100
AcDbEntity
  8
0
 62
     0
100
AcDbLine
 10
61.34221216833726
 20
14.23985415444991
 30
0.0
 11
64.14221216833721
 21
17.03985415444992
 31
0.0
  0
LINE
  5
305B
330
2F7A
100
AcDbEntity
  8
0
 62
     0
100
AcDbLine
 10
66.24221216833723
 20
19.13985415444989
 30
0.0
 11
69.04221216833718
 21
21.9398541544499
 31
0.0
  0
LINE
  5
305C
330
2F7A
100
AcDbEntity
  8
0
 62
     0
100
AcDbLine
 10
55.50717354607349
 20
8.404815532186148
 30
0.0
 11
57.868570024912
 21
10.76621201102472
 31
0.0
  0
LINE
  5
305D
330
2F7A
100
AcDbEntity
  8
0
 62
     0
100
AcDbLine
 10
61.3422121683372
 20
15.13787976655686
 30
0.0
 11
64.14221216833727
 21
17.93787976655693
 31
0.0
  0
LINE
  5
305E
330
2F7A
100
AcDbEntity
  8
0
 62
     0
100
AcDbLine
 10
66.24221216833717
 20
20.03787976655684
 30
0.0
 11
69.03206301478673
 21
22.82773061300639
 31
0.0
  0
LINE
  5
305F
330
2F7A
100
AcDbEntity
  8
0
 62
     0
100
AcDbLine
 10
55.20724866763948
 20
9.002916265859141
 30
0.0
 11
57.8422121683372
 21
11.6378797665568
 31
0.0
  0
LINE
  5
3060
330
2F7A
100
AcDbEntity
  8
0
 62
     0
100
AcDbLine
 10
61.34221216833726
 20
16.03590537866369
 30
0.0
 11
64.14221216833732
 21
18.83590537866376
 31
0.0
  0
LINE
  5
3061
330
2F7A
100
AcDbEntity
  8
0
 62
     0
100
AcDbLine
 10
66.24221216833729
 20
20.93590537866379
 30
0.0
 11
68.55494866970724
 21
23.24864188003374
 31
0.0
  0
LINE
  5
3062
330
2F7A
100
AcDbEntity
  8
0
 62
     0
100
AcDbLine
 10
55.04983513268303
 20
9.743528343009529
 30
0.0
 11
57.8422121683372
 21
12.5359053786637
 31
0.0
  0
LINE
  5
3063
330
2F7A
100
AcDbEntity
  8
0
 62
     0
100
AcDbLine
 10
61.3422121683372
 20
16.93393099077064
 30
0.0
 11
64.14221216833727
 21
19.73393099077071
 31
0.0
  0
LINE
  5
3064
330
2F7A
100
AcDbEntity
  8
0
 62
     0
100
AcDbLine
 10
66.24221216833729
 20
21.83393099077068
 30
0.0
 11
67.65828104585517
 21
23.24999986828862
 31
0.0
  0
LINE
  5
3065
330
2F7A
100
AcDbEntity
  8
0
 62
     0
100
AcDbLine
 10
55.04221216833724
 20
10.63393099077063
 30
0.0
 11
57.84221216833725
 21
13.4339309907707
 31
0.0
  0
LINE
  5
3066
330
2F7A
100
AcDbEntity
  8
0
 62
     0
100
AcDbLine
 10
61.3422121683372
 20
17.83195660287759
 30
0.0
 11
64.14221216833727
 21
20.6319566028776
 31
0.0
  0
LINE
  5
3067
330
2F7A
100
AcDbEntity
  8
0
 62
     0
100
AcDbLine
 10
55.04221216833719
 20
11.53195660287758
 30
0.0
 11
57.84221216833725
 21
14.33195660287765
 31
0.0
  0
LINE
  5
3068
330
2F7A
100
AcDbEntity
  8
0
 62
     0
100
AcDbLine
 10
66.24225888308462
 20
22.73200331762501
 30
0.0
 11
66.7602087190009
 21
23.24995315354124
 31
0.0
  0
LINE
  5
3069
330
2F7A
100
AcDbEntity
  8
0
 62
     0
100
AcDbLine
 10
50.72065653762519
 20
7.21040097216553
 30
0.0
 11
52.88181106446035
 21
9.371555499000749
 31
0.0
  0
LINE
  5
306A
330
2F7A
100
AcDbEntity
  8
0
 62
     0
100
AcDbLine
 10
55.04221216833719
 20
12.42998221498447
 30
0.0
 11
57.84221216833725
 21
15.22998221498454
 31
0.0
  0
LINE
  5
306B
330
2F7A
100
AcDbEntity
  8
0
 62
     0
100
AcDbLine
 10
61.3422121683372
 20
18.72998221498448
 30
0.0
 11
64.14221216833721
 21
21.52998221498455
 31
0.0
  0
LINE
  5
306C
330
2F7A
100
AcDbEntity
  8
0
 62
     0
100
AcDbLine
 10
49.76222982164131
 20
7.149999868288659
 30
0.0
 11
52.94221216833716
 21
10.32998221498451
 31
0.0
  0
LINE
  5
306D
330
2F7A
100
AcDbEntity
  8
0
 62
     0
100
AcDbLine
 10
55.04221216833719
 20
13.32800782709137
 30
0.0
 11
57.84221216833725
 21
16.12800782709143
 31
0.0
  0
LINE
  5
306E
330
2F7A
100
AcDbEntity
  8
0
 62
     0
100
AcDbLine
 10
61.3422121683372
 20
19.62800782709138
 30
0.0
 11
64.14221216833727
 21
22.42800782709144
 31
0.0
  0
LINE
  5
306F
330
2F7A
100
AcDbEntity
  8
0
 62
     0
100
AcDbLine
 10
48.86420420953442
 20
7.149999868288603
 30
0.0
 11
52.94221216833722
 21
11.22800782709134
 31
0.0
  0
LINE
  5
3070
330
2F7A
100
AcDbEntity
  8
0
 62
     0
100
AcDbLine
 10
55.04221216833719
 20
14.22603343919831
 30
0.0
 11
57.84221216833725
 21
17.02603343919832
 31
0.0
  0
LINE
  5
3071
330
2F7A
100
AcDbEntity
  8
0
 62
     0
100
AcDbLine
 10
61.3422121683372
 20
20.52603343919827
 30
0.0
 11
63.94847471350312
 21
23.13229598436425
 31
0.0
  0
LINE
  5
3072
330
2F7A
100
AcDbEntity
  8
0
 62
     0
100
AcDbLine
 10
47.96617859742752
 20
7.149999868288659
 30
0.0
 11
52.92789356792423
 21
12.11171483878536
 31
0.0
  0
LINE
  5
3073
330
2F7A
100
AcDbEntity
  8
0
 62
     0
100
AcDbLine
 10
55.04221216833724
 20
15.12405905130532
 30
0.0
 11
57.8422121683372
 21
17.92405905130527
 31
0.0
  0
LINE
  5
3074
330
2F7A
100
AcDbEntity
  8
0
 62
     0
100
AcDbLine
 10
61.34221216833714
 20
21.42405905130522
 30
0.0
 11
63.1681529853206
 21
23.24999986828868
 31
0.0
  0
LINE
  5
3075
330
2F7A
100
AcDbEntity
  8
0
 62
     0
100
AcDbLine
 10
47.06815298532058
 20
7.149999868288659
 30
0.0
 11
52.79298119729549
 21
12.87482808026351
 31
0.0
  0
LINE
  5
3076
330
2F7A
100
AcDbEntity
  8
0
 62
     0
100
AcDbLine
 10
55.0422121683373
 20
16.02208466341215
 30
0.0
 11
57.84221216833725
 21
18.82208466341216
 31
0.0
  0
LINE
  5
3077
330
2F7A
100
AcDbEntity
  8
0
 62
     0
100
AcDbLine
 10
50.14221216833732
 20
11.12208466341218
 30
0.0
 11
52.55239374037694
 21
13.5322662354518
 31
0.0
  0
LINE
  5
3078
330
2F7A
100
AcDbEntity
  8
0
 62
     0
100
AcDbLine
 10
61.3422121683372
 20
22.32208466341211
 30
0.0
 11
62.27012737321377
 21
23.24999986828868
 31
0.0
  0
LINE
  5
3079
330
2F7A
100
AcDbEntity
  8
0
 62
     0
100
AcDbLine
 10
46.29838272634481
 20
7.278255221419726
 30
0.0
 11
48.9701273732137
 21
9.949999868288614
 31
0.0
  0
LINE
  5
307A
330
2F7A
100
AcDbEntity
  8
0
 62
     0
100
AcDbLine
 10
50.12234159320991
 20
12.00023970039171
 30
0.0
 11
52.2288944355164
 21
14.1067925426982
 31
0.0
  0
LINE
  5
307B
330
2F7A
100
AcDbEntity
  8
0
 62
     0
100
AcDbLine
 10
55.04221216833724
 20
16.9201102755191
 30
0.0
 11
57.8422121683372
 21
19.72011027551906
 31
0.0
  0
LINE
  5
307C
330
2F7A
100
AcDbEntity
  8
0
 62
     0
100
AcDbLine
 10
46.11721216833723
 20
7.995110275519039
 30
0.0
 11
48.07210176110675
 21
9.949999868288614
 31
0.0
  0
LINE
  5
307D
330
2F7A
100
AcDbEntity
  8
0
 62
     0
100
AcDbLine
 10
49.84795675607102
 20
12.62388047535984
 30
0.0
 11
51.83302331758858
 21
14.60894703687739
 31
0.0
  0
LINE
  5
307E
330
2F7A
100
AcDbEntity
  8
0
 62
     0
100
AcDbLine
 10
55.04221216833724
 20
17.818135887626
 30
0.0
 11
57.8422121683372
 21
20.61813588762601
 31
0.0
  0
LINE
  5
307F
330
2F7A
100
AcDbEntity
  8
0
 62
     0
100
AcDbLine
 10
46.11721216833717
 20
8.893135887625987
 30
0.0
 11
47.17407614899985
 21
9.949999868288671
 31
0.0
  0
LINE
  5
3080
330
2F7A
100
AcDbEntity
  8
0
 62
     0
100
AcDbLine
 10
55.04221216833724
 20
18.71616149973289
 30
0.0
 11
57.84221216833725
 21
21.51616149973284
 31
0.0
  0
LINE
  5
3081
330
2F7A
100
AcDbEntity
  8
0
 62
     0
100
AcDbLine
 10
49.40668185895396
 20
13.08063119034954
 30
0.0
 11
51.38658084627627
 21
15.06053017767186
 31
0.0
  0
LINE
  5
3082
330
2F7A
100
AcDbEntity
  8
0
 62
     0
100
AcDbLine
 10
48.95766905290049
 20
13.52964399640302
 30
0.0
 11
50.93756804022286
 21
15.50954298372545
 31
0.0
  0
LINE
  5
3083
330
2F7A
100
AcDbEntity
  8
0
 62
     0
100
AcDbLine
 10
55.04221216833724
 20
19.61418711183983
 30
0.0
 11
57.8422121683372
 21
22.41418711183979
 31
0.0
  0
LINE
  5
3084
330
2F7A
100
AcDbEntity
  8
0
 62
     0
100
AcDbLine
 10
42.578024924786
 20
7.149999868288603
 30
0.0
 11
43.49221216833718
 21
8.064187111839714
 31
0.0
  0
LINE
  5
3085
330
2F7A
100
AcDbEntity
  8
0
 62
     0
100
AcDbLine
 10
48.50865624684701
 20
13.97865680245649
 30
0.0
 11
50.48855523416938
 21
15.95855578977892
 31
0.0
  0
LINE
  5
3086
330
2F7A
100
AcDbEntity
  8
0
 62
     0
100
AcDbLine
 10
55.04221216833719
 20
20.51221272394673
 30
0.0
 11
57.65603126023854
 21
23.12603181584802
 31
0.0
  0
LINE
  5
3087
330
2F7A
100
AcDbEntity
  8
0
 62
     0
100
AcDbLine
 10
41.67999931267906
 20
7.149999868288603
 30
0.0
 11
43.49221216833723
 21
8.96221272394672
 31
0.0
  0
LINE
  5
3088
330
2F7A
100
AcDbEntity
  8
0
 62
     0
100
AcDbLine
 10
48.05964344079353
 20
14.42766960850997
 30
0.0
 11
50.03954242811591
 21
16.4075685958324
 31
0.0
  0
LINE
  5
3089
330
2F7A
100
AcDbEntity
  8
0
 62
     0
100
AcDbLine
 10
55.04221216833719
 20
21.41023833605367
 30
0.0
 11
56.88197370057219
 21
23.24999986828868
 31
0.0
  0
LINE
  5
308A
330
2F7A
100
AcDbEntity
  8
0
 62
     0
100
AcDbLine
 10
40.89358483843414
 20
7.261611006150587
 30
0.0
 11
43.49221216833718
 21
9.860238336053669
 31
0.0
  0
LINE
  5
308B
330
2F7A
100
AcDbEntity
  8
0
 62
     0
100
AcDbLine
 10
47.61063063474011
 20
14.87668241456339
 30
0.0
 11
49.59052962206249
 21
16.85658140188581
 31
0.0
  0
LINE
  5
308C
330
2F7A
100
AcDbEntity
  8
0
 62
     0
100
AcDbLine
 10
55.0422121683373
 20
22.30826394816062
 30
0.0
 11
55.9839480884653
 21
23.24999986828862
 31
0.0
  0
LINE
  5
308D
330
2F7A
100
AcDbEntity
  8
0
 62
     0
100
AcDbLine
 10
40.69221216833722
 20
7.958263948160549
 30
0.0
 11
43.49221216833723
 21
10.7582639481605
 31
0.0
  0
LINE
  5
308E
330
2F7A
100
AcDbEntity
  8
0
 62
     0
100
AcDbLine
 10
47.16161782868664
 20
15.32569522061686
 30
0.0
 11
49.14151681600902
 21
17.30559420793929
 31
0.0
  0
LINE
  5
308F
330
2F7A
100
AcDbEntity
  8
0
 62
     0
100
AcDbLine
 10
40.69221216833722
 20
8.856289560267498
 30
0.0
 11
43.49221216833718
 21
11.65628956026745
 31
0.0
  0
LINE
  5
3090
330
2F7A
100
AcDbEntity
  8
0
 62
     0
100
AcDbLine
 10
46.71463392764531
 20
15.77673693168253
 30
0.0
 11
48.69860746102734
 21
17.7607104650645
 31
0.0
  0
LINE
  5
3091
330
2F7A
100
AcDbEntity
  8
0
 62
     0
100
AcDbLine
 10
40.69221216833722
 20
9.75431517237439
 30
0.0
 11
43.49221216833718
 21
12.5543151723744
 31
0.0
  0
LINE
  5
3092
330
2F7A
100
AcDbEntity
  8
0
 62
     0
100
AcDbLine
 10
51.38789686425139
 20
20.44999986828861
 30
0.0
 11
52.41721216833724
 21
21.47931517237441
 31
0.0
  0
LINE
  5
3093
330
2F7A
100
AcDbEntity
  8
0
 62
     0
100
AcDbLine
 10
38.19955594362699
 20
7.261658947664159
 30
0.0
 11
38.28920830508201
 21
7.351311309119239
 31
0.0
  0
LINE
  5
3094
330
2F7A
100
AcDbEntity
  8
0
 62
     0
100
AcDbLine
 10
46.31663174882334
 20
16.2767603649674
 30
0.0
 11
48.41626602624194
 21
18.376394642386
 31
0.0
  0
LINE
  5
3095
330
2F7A
100
AcDbEntity
  8
0
 62
     0
100
AcDbLine
 10
40.69221216833722
 20
10.65234078448128
 30
0.0
 11
43.49221216833723
 21
13.45234078448123
 31
0.0
  0
LINE
  5
3096
330
2F7A
100
AcDbEntity
  8
0
 62
     0
100
AcDbLine
 10
50.48987125214461
 20
20.44999986828867
 30
0.0
 11
52.41721216833724
 21
22.3773407844813
 31
0.0
  0
LINE
  5
3097
330
2F7A
100
AcDbEntity
  8
0
 62
     0
100
AcDbLine
 10
37.18987125214454
 20
7.149999868288603
 30
0.0
 11
38.25565034845107
 21
8.215778964595131
 31
0.0
  0
LINE
  5
3098
330
2F7A
100
AcDbEntity
  8
0
 62
     0
100
AcDbLine
 10
45.99079748442664
 20
16.84895171267766
 30
0.0
 11
48.39221216833732
 21
19.25036639658833
 31
0.0
  0
LINE
  5
3099
330
2F7A
100
AcDbEntity
  8
0
 62
     0
100
AcDbLine
 10
40.69221216833722
 20
11.55036639658817
 30
0.0
 11
43.49221216833718
 21
14.35036639658818
 31
0.0
  0
LINE
  5
309A
330
2F7A
100
AcDbEntity
  8
0
 62
     0
100
AcDbLine
 10
49.5918456400376
 20
20.44999986828861
 30
0.0
 11
52.25054323653933
 21
23.10869746479033
 31
0.0
  0
LINE
  5
309B
330
2F7A
100
AcDbEntity
  8
0
 62
     0
100
AcDbLine
 10
36.29184564003753
 20
7.149999868288546
 30
0.0
 11
38.04012420154538
 21
8.898278429796391
 31
0.0
  0
LINE
  5
309C
330
2F7A
100
AcDbEntity
  8
0
 62
     0
100
AcDbLine
 10
40.69221216833716
 20
12.44839200869512
 30
0.0
 11
43.49221216833718
 21
15.24839200869507
 31
0.0
  0
LINE
  5
309D
330
2F7A
100
AcDbEntity
  8
0
 62
     0
100
AcDbLine
 10
45.74741542175655
 20
17.50359526211451
 30
0.0
 11
51.49382002793072
 21
23.24999986828868
 31
0.0
  0
LINE
  5
309E
330
2F7A
100
AcDbEntity
  8
0
 62
     0
100
AcDbLine
 10
35.69983132938256
 20
7.45601116974052
 30
0.0
 11
37.82459805463969
 21
9.580777894997652
 31
0.0
  0
LINE
  5
309F
330
2F7A
100
AcDbEntity
  8
0
 62
     0
100
AcDbLine
 10
40.69221216833716
 20
13.34641762080207
 30
0.0
 11
43.49221216833711
 21
16.14641762080202
 31
0.0
  0
LINE
  5
30A0
330
2F7A
100
AcDbEntity
  8
0
 62
     0
100
AcDbLine
 10
45.60870856267086
 20
18.26291401513577
 30
0.0
 11
50.59579441582383
 21
23.24999986828868
 31
0.0
  0
LINE
  5
30A1
330
2F7A
100
AcDbEntity
  8
0
 62
     0
100
AcDbLine
 10
35.48107190773396
 20
8.13527736019887
 30
0.0
 11
37.609071907734
 21
10.26327736019891
 31
0.0
  0
LINE
  5
30A2
330
2F7A
100
AcDbEntity
  8
0
 62
     0
100
AcDbLine
 10
40.69221216833722
 20
14.2444432329089
 30
0.0
 11
43.49221216833718
 21
17.04444323290891
 31
0.0
  0
LINE
  5
30A3
330
2F7A
100
AcDbEntity
  8
0
 62
     0
100
AcDbLine
 10
45.59221216833726
 20
19.14444323290899
 30
0.0
 11
49.69776880371694
 21
23.24999986828868
 31
0.0
  0
LINE
  5
30A4
330
2F7A
100
AcDbEntity
  8
0
 62
     0
100
AcDbLine
 10
35.26554576082833
 20
8.817776825400073
 30
0.0
 11
37.39354576082843
 21
10.94577682540011
 31
0.0
  0
LINE
  5
30A5
330
2F7A
100
AcDbEntity
  8
0
 62
     0
100
AcDbLine
 10
40.69221216833727
 20
15.14246884501591
 30
0.0
 11
43.49221216833718
 21
17.94246884501581
 31
0.0
  0
LINE
  5
30A6
330
2F7A
100
AcDbEntity
  8
0
 62
     0
100
AcDbLine
 10
45.59221216833726
 20
20.04246884501589
 30
0.0
 11
48.79974319161004
 21
23.24999986828868
 31
0.0
  0
LINE
  5
30A7
330
2F7A
100
AcDbEntity
  8
0
 62
     0
100
AcDbLine
 10
35.05001961392264
 20
9.500276290601334
 30
0.0
 11
37.1780196139228
 21
11.62827629060149
 31
0.0
  0
LINE
  5
30A8
330
2F7A
100
AcDbEntity
  8
0
 62
     0
100
AcDbLine
 10
40.69221216833722
 20
16.04049445712286
 30
0.0
 11
43.49221216833723
 21
18.84049445712281
 31
0.0
  0
LINE
  5
30A9
330
2F7A
100
AcDbEntity
  8
0
 62
     0
100
AcDbLine
 10
34.83449346701695
 20
10.18277575580259
 30
0.0
 11
36.96249346701705
 21
12.31077575580263
 31
0.0
  0
LINE
  5
30AA
330
2F7A
100
AcDbEntity
  8
0
 62
     0
100
AcDbLine
 10
45.6455288384584
 20
20.99381112724404
 30
0.0
 11
47.84840090938172
 21
23.19668319816736
 31
0.0
  0
LINE
  5
30AB
330
2F7A
100
AcDbEntity
  8
0
 62
     0
100
AcDbLine
 10
31.80171757950296
 20
7.149999868288603
 30
0.0
 11
32.64221216833715
 21
7.990494457122792
 31
0.0
  0
LINE
  5
30AC
330
2F7A
100
AcDbEntity
  8
0
 62
     0
100
AcDbLine
 10
34.61896732011144
 20
10.86527522100391
 30
0.0
 11
36.74696732011142
 21
12.99327522100389
 31
0.0
  0
LINE
  5
30AD
330
2F7A
100
AcDbEntity
  8
0
 62
     0
100
AcDbLine
 10
40.69221216833727
 20
16.93852006922969
 30
0.0
 11
43.49221216833723
 21
19.7385200692297
 31
0.0
  0
LINE
  5
30AE
330
2F7A
100
AcDbEntity
  8
0
 62
     0
100
AcDbLine
 10
30.90369196739612
 20
7.149999868288546
 30
0.0
 11
32.64221216833727
 21
8.888520069229741
 31
0.0
  0
LINE
  5
30AF
330
2F7A
100
AcDbEntity
  8
0
 62
     0
100
AcDbLine
 10
34.40344117320569
 20
11.54777468620505
 30
0.0
 11
36.53144117320573
 21
13.67577468620515
 31
0.0
  0
LINE
  5
30B0
330
2F7A
100
AcDbEntity
  8
0
 62
     0
100
AcDbLine
 10
40.69221216833722
 20
17.83654568133664
 30
0.0
 11
43.49221216833723
 21
20.6365456813366
 31
0.0
  0
LINE
  5
30B1
330
2F7A
100
AcDbEntity
  8
0
 62
     0
100
AcDbLine
 10
30.08681610294047
 20
7.231149615939898
 30
0.0
 11
32.64221216833727
 21
9.78654568133669
 31
0.0
  0
LINE
  5
30B2
330
2F7A
100
AcDbEntity
  8
0
 62
     0
100
AcDbLine
 10
34.1879150263
 20
12.23027415140632
 30
0.0
 11
36.31591502630004
 21
14.35827415140642
 31
0.0
  0
LINE
  5
30B3
330
2F7A
100
AcDbEntity
  8
0
 62
     0
100
AcDbLine
 10
40.69221216833722
 20
18.73457129344359
 30
0.0
 11
43.49221216833718
 21
21.53457129344354
 31
0.0
  0
LINE
  5
30B4
330
2F7A
100
AcDbEntity
  8
0
 62
     0
100
AcDbLine
 10
29.8422121683372
 20
7.884571293443514
 30
0.0
 11
32.64221216833727
 21
10.68457129344358
 31
0.0
  0
LINE
  5
30B5
330
2F7A
100
AcDbEntity
  8
0
 62
     0
100
AcDbLine
 10
33.97238887939437
 20
12.91277361660752
 30
0.0
 11
36.10038887939452
 21
15.04077361660768
 31
0.0
  0
LINE
  5
30B6
330
2F7A
100
AcDbEntity
  8
0
 62
     0
100
AcDbLine
 10
40.69221216833727
 20
19.63259690555043
 30
0.0
 11
43.49221216833723
 21
22.43259690555043
 31
0.0
  0
LINE
  5
30B7
330
2F7A
100
AcDbEntity
  8
0
 62
     0
100
AcDbLine
 10
29.8422121683372
 20
8.782596905550406
 30
0.0
 11
32.64221216833727
 21
11.58259690555047
 31
0.0
  0
LINE
  5
30B8
330
2F7A
100
AcDbEntity
  8
0
 62
     0
100
AcDbLine
 10
33.73759009242263
 20
13.57600044174279
 30
0.0
 11
36.36788416035352
 21
16.20629450967368
 31
0.0
  0
LINE
  5
30B9
330
2F7A
100
AcDbEntity
  8
0
 62
     0
100
AcDbLine
 10
40.69221216833722
 20
20.53062251765737
 30
0.0
 11
43.29593674583878
 21
23.13434709515888
 31
0.0
  0
LINE
  5
30BA
330
2F7A
100
AcDbEntity
  8
0
 62
     0
100
AcDbLine
 10
29.8422121683372
 20
9.680622517657354
 30
0.0
 11
32.64221216833727
 21
12.48062251765736
 31
0.0
  0
LINE
  5
30BB
330
2F7A
100
AcDbEntity
  8
0
 62
     0
100
AcDbLine
 10
33.05040472255524
 20
13.78684068398234
 30
0.0
 11
36.78235751978752
 21
17.51879348121462
 31
0.0
  0
LINE
  5
30BC
330
2F7A
100
AcDbEntity
  8
0
 62
     0
100
AcDbLine
 10
29.8422121683372
 20
10.57864812976424
 30
0.0
 11
32.6553713526435
 21
13.39180731407054
 31
0.0
  0
LINE
  5
30BD
330
2F7A
100
AcDbEntity
  8
0
 62
     0
100
AcDbLine
 10
40.69221216833722
 20
21.42864812976426
 30
0.0
 11
42.51356390686157
 21
23.24999986828868
 31
0.0
  0
LINE
  5
30BE
330
2F7A
100
AcDbEntity
  8
0
 62
     0
100
AcDbLine
 10
26.41356390686155
 20
7.149999868288603
 30
0.0
 11
27.39221216833721
 21
8.128648129764314
 31
0.0
  0
LINE
  5
30BF
330
2F7A
100
AcDbEntity
  8
0
 62
     0
100
AcDbLine
 10
29.84221216833714
 20
11.47667374187119
 30
0.0
 11
37.19683087922146
 21
18.83129245275552
 31
0.0
  0
LINE
  5
30C0
330
2F7A
100
AcDbEntity
  8
0
 62
     0
100
AcDbLine
 10
40.69221216833716
 20
22.32667374187121
 30
0.0
 11
41.61553829475457
 21
23.24999986828862
 31
0.0
  0
LINE
  5
30C1
330
2F7A
100
AcDbEntity
  8
0
 62
     0
100
AcDbLine
 10
25.5155382947546
 20
7.149999868288659
 30
0.0
 11
27.39221216833726
 21
9.02667374187132
 31
0.0
  0
LINE
  5
30C2
330
2F7A
100
AcDbEntity
  8
0
 62
     0
100
AcDbLine
 10
29.8422121683372
 20
12.37469935397803
 30
0.0
 11
37.61130423865557
 21
20.14379142429646
 31
0.0
  0
LINE
  5
30C3
330
2F7A
100
AcDbEntity
  8
0
 62
     0
100
AcDbLine
 10
24.62919330699782
 20
7.161680492638708
 30
0.0
 11
27.25087788473103
 21
9.783365070371871
 31
0.0
  0
LINE
  5
30C4
330
2F7A
100
AcDbEntity
  8
0
 62
     0
100
AcDbLine
 10
29.84221216833714
 20
13.27272496608498
 30
0.0
 11
33.16948707054081
 21
16.59999986828864
 31
0.0
  0
LINE
  5
30C5
330
2F7A
100
AcDbEntity
  8
0
 62
     0
100
AcDbLine
 10
33.93346990578169
 20
17.36398270352952
 30
0.0
 11
38.02577759808952
 21
21.45629039583735
 31
0.0
  0
LINE
  5
30C6
330
2F7A
100
AcDbEntity
  8
0
 62
     0
100
AcDbLine
 10
23.86103278955084
 20
7.291545587298628
 30
0.0
 11
26.51948707054077
 21
9.949999868288614
 31
0.0
  0
LINE
  5
30C7
330
2F7A
100
AcDbEntity
  8
0
 62
     0
100
AcDbLine
 10
29.84221216833714
 20
14.17075057819192
 30
0.0
 11
32.66020273904547
 21
16.9887411489002
 31
0.0
  0
LINE
  5
30C8
330
2F7A
100
AcDbEntity
  8
0
 62
     0
100
AcDbLine
 10
34.34794326521563
 20
18.67648167507036
 30
0.0
 11
38.40084904989083
 21
22.72938745974562
 31
0.0
  0
LINE
  5
30C9
330
2F7A
100
AcDbEntity
  8
0
 62
     0
100
AcDbLine
 10
23.19989853272443
 20
7.528436942579219
 30
0.0
 11
25.62146145843388
 21
9.949999868288614
 31
0.0
  0
LINE
  5
30CA
330
2F7A
100
AcDbEntity
  8
0
 62
     0
100
AcDbLine
 10
29.8422121683372
 20
15.06877619029876
 30
0.0
 11
32.64221216833732
 21
17.86877619029888
 31
0.0
  0
LINE
  5
30CB
330
2F7A
100
AcDbEntity
  8
0
 62
     0
100
AcDbLine
 10
34.76241662464957
 20
19.98898064661119
 30
0.0
 11
38.00683717732164
 21
23.23340119928326
 31
0.0
  0
LINE
  5
30CC
330
2F7A
100
AcDbEntity
  8
0
 62
     0
100
AcDbLine
 10
22.62229524856013
 20
7.8488592705217
 30
0.0
 11
24.73835710705299
 21
9.964921129014612
 31
0.0
  0
LINE
  5
30CD
330
2F7A
100
AcDbEntity
  8
0
 62
     0
100
AcDbLine
 10
29.84221216833714
 20
15.96680180240571
 30
0.0
 11
32.64221216833727
 21
18.76680180240583
 31
0.0
  0
LINE
  5
30CE
330
2F7A
100
AcDbEntity
  8
0
 62
     0
100
AcDbLine
 10
35.17688998408351
 20
21.30147961815203
 30
0.0
 11
37.12541023422005
 21
23.24999986828862
 31
0.0
  0
LINE
  5
30CF
330
2F7A
100
AcDbEntity
  8
0
 62
     0
100
AcDbLine
 10
22.11734028217807
 20
8.24192991624659
 30
0.0
 11
24.10404096603468
 21
10.2286306001032
 31
0.0
  0
LINE
  5
30D0
330
2F7A
100
AcDbEntity
  8
0
 62
     0
100
AcDbLine
 10
29.84221216833714
 20
16.8648274145126
 30
0.0
 11
32.64221216833727
 21
19.66482741451278
 31
0.0
  0
LINE
  5
30D1
330
2F7A
100
AcDbEntity
  8
0
 62
     0
100
AcDbLine
 10
26.50384630011365
 20
13.52646154628917
 30
0.0
 11
27.66575049033673
 21
14.68836573651225
 31
0.0
  0
LINE
  5
30D2
330
2F7A
100
AcDbEntity
  8
0
 62
     0
100
AcDbLine
 10
35.5913633435174
 20
22.61397858969292
 30
0.0
 11
36.22738462211311
 21
23.24999986828862
 31
0.0
  0
LINE
  5
30D3
330
2F7A
100
AcDbEntity
  8
0
 62
     0
100
AcDbLine
 10
21.68090320884823
 20
8.703518455023754
 30
0.0
 11
23.6937900147625
 21
10.71640526093801
 31
0.0
  0
LINE
  5
30D4
330
2F7A
100
AcDbEntity
  8
0
 62
     0
100
AcDbLine
 10
25.57887345848382
 20
13.49951431676629
 30
0.0
 11
27.6926977198596
 21
15.61333857814202
 31
0.0
  0
LINE
  5
30D5
330
2F7A
100
AcDbEntity
  8
0
 62
     0
100
AcDbLine
 10
29.8422121683372
 20
17.7628530266196
 30
0.0
 11
32.64221216833727
 21
20.56285302661967
 31
0.0
  0
LINE
  5
30D6
330
2F7A
100
AcDbEntity
  8
0
 62
     0
100
AcDbLine
 10
21.31388398390527
 20
9.234524842187681
 30
0.0
 11
23.54221216833718
 21
11.46285302661965
 31
0.0
  0
LINE
  5
30D7
330
2F7A
100
AcDbEntity
  8
0
 62
     0
100
AcDbLine
 10
24.96472688906362
 20
13.78339335945287
 30
0.0
 11
27.40881867717297
 21
16.22748514756227
 31
0.0
  0
LINE
  5
30D8
330
2F7A
100
AcDbEntity
  8
0
 62
     0
100
AcDbLine
 10
29.8422121683372
 20
18.6608786387265
 30
0.0
 11
32.64221216833727
 21
21.46087863872657
 31
0.0
  0
LINE
  5
30D9
330
2F7A
100
AcDbEntity
  8
0
 62
     0
100
AcDbLine
 10
21.02256647398053
 20
9.841232944369835
 30
0.0
 11
23.54221216833718
 21
12.36087863872649
 31
0.0
  0
LINE
  5
30DA
330
2F7A
100
AcDbEntity
  8
0
 62
     0
100
AcDbLine
 10
24.5267669620739
 20
14.24345904457015
 30
0.0
 11
26.94875299205574
 21
16.66544507455194
 31
0.0
  0
LINE
  5
30DB
330
2F7A
100
AcDbEntity
  8
0
 62
     0
100
AcDbLine
 10
29.8422121683372
 20
19.55890425083345
 30
0.0
 11
32.64221216833727
 21
22.35890425083346
 31
0.0
  0
LINE
  5
30DC
330
2F7A
100
AcDbEntity
  8
0
 62
     0
100
AcDbLine
 10
20.82142910980587
 20
10.53812119230212
 30
0.0
 11
23.54221216833718
 21
13.25890425083343
 31
0.0
  0
LINE
  5
30DD
330
2F7A
100
AcDbEntity
  8
0
 62
     0
100
AcDbLine
 10
24.27071622966554
 20
14.88543392426868
 30
0.0
 11
26.30677811235716
 21
16.92149580696036
 31
0.0
  0
LINE
  5
30DE
330
2F7A
100
AcDbEntity
  8
0
 62
     0
100
AcDbLine
 10
20.74221216833711
 20
11.35692986294031
 30
0.0
 11
23.54221216833718
 21
14.15692986294033
 31
0.0
  0
LINE
  5
30DF
330
2F7A
100
AcDbEntity
  8
0
 62
     0
100
AcDbLine
 10
29.8422121683372
 20
20.45692986294034
 30
0.0
 11
32.48496205998208
 21
23.09967975458528
 31
0.0
  0
LINE
  5
30E0
330
2F7A
100
AcDbEntity
  8
0
 62
     0
100
AcDbLine
 10
16.65621541046152
 20
7.270933105064727
 30
0.0
 11
18.52127893156125
 21
9.135996626164455
 31
0.0
  0
LINE
  5
30E1
330
2F7A
100
AcDbEntity
  8
0
 62
     0
100
AcDbLine
 10
24.38912931314632
 20
15.90187261985636
 30
0.0
 11
25.29033941676954
 21
16.80308272347957
 31
0.0
  0
LINE
  5
30E2
330
2F7A
100
AcDbEntity
  8
0
 62
     0
100
AcDbLine
 10
20.74221216833711
 20
12.25495547504715
 30
0.0
 11
23.54221216833729
 21
15.05495547504728
 31
0.0
  0
LINE
  5
30E3
330
2F7A
100
AcDbEntity
  8
0
 62
     0
100
AcDbLine
 10
29.8422121683372
 20
21.35495547504723
 30
0.0
 11
31.73725656157859
 21
23.24999986828862
 31
0.0
  0
LINE
  5
30E4
330
2F7A
100
AcDbEntity
  8
0
 62
     0
100
AcDbLine
 10
15.63725656157856
 20
7.149999868288603
 30
0.0
 11
18.64221216833732
 21
10.1549554750473
 31
0.0
  0
LINE
  5
30E5
330
2F7A
100
AcDbEntity
  8
0
 62
     0
100
AcDbLine
 10
20.74221216833711
 20
13.1529810871541
 30
0.0
 11
23.54221216833724
 21
15.95298108715422
 31
0.0
  0
LINE
  5
30E6
330
2F7A
100
AcDbEntity
  8
0
 62
     0
100
AcDbLine
 10
29.8422121683372
 20
22.25298108715412
 30
0.0
 11
30.8392309494717
 21
23.24999986828868
 31
0.0
  0
LINE
  5
30E7
330
2F7A
100
AcDbEntity
  8
0
 62
     0
100
AcDbLine
 10
14.73923094947156
 20
7.149999868288546
 30
0.0
 11
18.64221216833726
 21
11.05298108715425
 31
0.0
  0
LINE
  5
30E8
330
2F7A
100
AcDbEntity
  8
0
 62
     0
100
AcDbLine
 10
20.74221216833711
 20
14.05100669926099
 30
0.0
 11
23.54221216833724
 21
16.85100669926117
 31
0.0
  0
LINE
  5
30E9
330
2F7A
100
AcDbEntity
  8
0
 62
     0
100
AcDbLine
 10
13.84120533736472
 20
7.149999868288659
 30
0.0
 11
18.63827281577601
 21
11.94706734669995
 31
0.0
  0
LINE
  5
30EA
330
2F7A
100
AcDbEntity
  8
0
 62
     0
100
AcDbLine
 10
20.74221216833711
 20
14.94903231136794
 30
0.0
 11
23.54221216833724
 21
17.74903231136806
 31
0.0
  0
LINE
  5
30EB
330
2F7A
100
AcDbEntity
  8
0
 62
     0
100
AcDbLine
 10
26.2431797252579
 20
20.44999986828873
 30
0.0
 11
27.39221216833732
 21
21.59903231136814
 31
0.0
  0
LINE
  5
30EC
330
2F7A
100
AcDbEntity
  8
0
 62
     0
100
AcDbLine
 10
12.94317972525777
 20
7.149999868288603
 30
0.0
 11
18.52861097945469
 21
12.73543112248552
 31
0.0
  0
LINE
  5
30ED
330
2F7A
100
AcDbEntity
  8
0
 62
     0
100
AcDbLine
 10
20.74221216833711
 20
15.84705792347483
 30
0.0
 11
23.54221216833724
 21
18.64705792347496
 31
0.0
  0
LINE
  5
30EE
330
2F7A
100
AcDbEntity
  8
0
 62
     0
100
AcDbLine
 10
15.8422121683372
 20
10.94705792347491
 30
0.0
 11
18.30627223541057
 21
13.41111799054829
 31
0.0
  0
LINE
  5
30EF
330
2F7A
100
AcDbEntity
  8
0
 62
     0
100
AcDbLine
 10
25.34515411315089
 20
20.44999986828861
 30
0.0
 11
27.39221216833732
 21
22.49705792347498
 31
0.0
  0
LINE
  5
30F0
330
2F7A
100
AcDbEntity
  8
0
 62
     0
100
AcDbLine
 10
12.10287998841084
 20
7.207725743548564
 30
0.0
 11
14.84515411315089
 21
9.949999868288614
 31
0.0
  0
LINE
  5
30F1
330
2F7A
100
AcDbEntity
  8
0
 62
     0
100
AcDbLine
 10
20.74221216833706
 20
16.74508353558172
 30
0.0
 11
23.70802687411685
 21
19.71089824136152
 31
0.0
  0
LINE
  5
30F2
330
2F7A
100
AcDbEntity
  8
0
 62
     0
100
AcDbLine
 10
15.84005307672794
 20
11.84292444397254
 30
0.0
 11
17.99784070073854
 21
14.00071206798321
 31
0.0
  0
LINE
  5
30F3
330
2F7A
100
AcDbEntity
  8
0
 62
     0
100
AcDbLine
 10
24.28131379526439
 20
20.28418516250906
 30
0.0
 11
27.1587447534174
 21
23.16161612066201
 31
0.0
  0
LINE
  5
30F4
330
2F7A
100
AcDbEntity
  8
0
 62
     0
100
AcDbLine
 10
11.81721216833722
 20
7.820083535581829
 30
0.0
 11
13.947128501044
 21
9.949999868288614
 31
0.0
  0
LINE
  5
30F5
330
2F7A
100
AcDbEntity
  8
0
 62
     0
100
AcDbLine
 10
15.62045005722723
 20
12.52134703657884
 30
0.0
 11
17.61559873589965
 21
14.51649571525126
 31
0.0
  0
LINE
  5
30F6
330
2F7A
100
AcDbEntity
  8
0
 62
     0
100
AcDbLine
 10
20.74221216833706
 20
17.64310914768867
 30
0.0
 11
26.34910288893701
 21
23.24999986828862
 31
0.0
  0
LINE
  5
30F7
330
2F7A
100
AcDbEntity
  8
0
 62
     0
100
AcDbLine
 10
11.81721216833716
 20
8.718109147688778
 30
0.0
 11
13.04910288893705
 21
9.949999868288671
 31
0.0
  0
LINE
  5
30F8
330
2F7A
100
AcDbEntity
  8
0
 62
     0
100
AcDbLine
 10
15.19419522892252
 20
12.99311782038097
 30
0.0
 11
17.17409421624489
 21
14.97301680770334
 31
0.0
  0
LINE
  5
30F9
330
2F7A
100
AcDbEntity
  8
0
 62
     0
100
AcDbLine
 10
20.74221216833711
 20
18.54113475979551
 30
0.0
 11
25.45107727683006
 21
23.24999986828851
 31
0.0
  0
LINE
  5
30FA
330
2F7A
100
AcDbEntity
  8
0
 62
     0
100
AcDbLine
 10
11.88616409035694
 20
9.685086681815391
 30
0.0
 11
12.08212535481055
 21
9.881047946269006
 31
0.0
  0
LINE
  5
30FB
330
2F7A
100
AcDbEntity
  8
0
 62
     0
100
AcDbLine
 10
20.7621872824937
 20
19.45913548605903
 30
0.0
 11
24.5330765505667
 21
23.2300247541321
 31
0.0
  0
LINE
  5
30FC
330
2F7A
100
AcDbEntity
  8
0
 62
     0
100
AcDbLine
 10
14.74518242286904
 20
13.44213062643444
 30
0.0
 11
16.72508141019142
 21
15.42202961375681
 31
0.0
  0
LINE
  5
30FD
330
2F7A
100
AcDbEntity
  8
0
 62
     0
100
AcDbLine
 10
21.06165071475948
 20
20.65662453043182
 30
0.0
 11
23.33558750619397
 21
22.93056132186632
 31
0.0
  0
LINE
  5
30FE
330
2F7A
100
AcDbEntity
  8
0
 62
     0
100
AcDbLine
 10
14.29616961681557
 20
13.89114343248792
 30
0.0
 11
16.27606860413794
 21
15.87104241981029
 31
0.0
  0
LINE
  5
30FF
330
2F7A
100
AcDbEntity
  8
0
 62
     0
100
AcDbLine
 10
13.84715681076215
 20
14.34015623854134
 30
0.0
 11
15.82705579808447
 21
16.32005522586359
 31
0.0
  0
LINE
  5
3100
330
2F7A
100
AcDbEntity
  8
0
 62
     0
100
AcDbLine
 10
13.39814400470868
 20
14.78916904459481
 30
0.0
 11
15.378042992031
 21
16.76906803191707
 31
0.0
  0
LINE
  5
3101
330
2F7A
100
AcDbEntity
  8
0
 62
     0
100
AcDbLine
 10
12.94913119865521
 20
15.23818185064828
 30
0.0
 11
14.92903018597752
 21
17.21808083797054
 31
0.0
  0
LINE
  5
3102
330
2F7A
100
AcDbEntity
  8
0
 62
     0
100
AcDbLine
 10
17.26292360418864
 20
20.44999986828861
 30
0.0
 11
18.11721216833712
 21
21.30428843243714
 31
0.0
  0
LINE
  5
3103
330
2F7A
100
AcDbEntity
  8
0
 62
     0
100
AcDbLine
 10
12.50020170662986
 20
15.68727797072989
 30
0.0
 11
14.48026735006232
 21
17.66734361416235
 31
0.0
  0
LINE
  5
3104
330
2F7A
100
AcDbEntity
  8
0
 62
     0
100
AcDbLine
 10
16.36489799208175
 20
20.44999986828861
 30
0.0
 11
18.11721216833717
 21
22.20231404454403
 31
0.0
  0
LINE
  5
3105
330
2F7A
100
AcDbEntity
  8
0
 62
     0
100
AcDbLine
 10
12.08873378207829
 20
16.1738356582851
 30
0.0
 11
14.15037046877438
 21
18.23547234498124
 31
0.0
  0
LINE
  5
3106
330
2F7A
100
AcDbEntity
  8
0
 62
     0
100
AcDbLine
 10
15.4668723799748
 20
20.44999986828861
 30
0.0
 11
18.03065326857603
 21
23.01378075688984
 31
0.0
  0
LINE
  5
3107
330
2F7A
100
AcDbEntity
  8
0
 62
     0
100
AcDbLine
 10
11.74827317581582
 20
16.73140066412958
 30
0.0
 11
14.09221216833725
 21
19.07533965665101
 31
0.0
  0
LINE
  5
3108
330
2F7A
100
AcDbEntity
  8
0
 62
     0
100
AcDbLine
 10
14.56638011869779
 20
20.44753321911849
 30
0.0
 11
17.36884676786786
 21
23.24999986828862
 31
0.0
  0
LINE
  5
3109
330
2F7A
100
AcDbEntity
  8
0
 62
     0
100
AcDbLine
 10
11.48757988008372
 20
17.36873298050443
 30
0.0
 11
14.09467881750731
 21
19.97583191792807
 31
0.0
  0
LINE
  5
310A
330
2F7A
100
AcDbEntity
  8
0
 62
     0
100
AcDbLine
 10
11.32576791783566
 20
18.10494663036325
 30
0.0
 11
16.47082115576103
 21
23.24999986828856
 31
0.0
  0
LINE
  5
310B
330
2F7A
100
AcDbEntity
  8
0
 62
     0
100
AcDbLine
 10
11.29221216833724
 20
18.96941649297178
 30
0.0
 11
15.57279554365408
 21
23.24999986828862
 31
0.0
  0
LINE
  5
310C
330
2F7A
100
AcDbEntity
  8
0
 62
     0
100
AcDbLine
 10
11.29221216833724
 20
19.86744210507868
 30
0.0
 11
14.67476993154713
 21
23.24999986828862
 31
0.0
  0
LINE
  5
310D
330
2F7A
100
AcDbEntity
  8
0
 62
     0
100
AcDbLine
 10
11.31240417877546
 20
20.78565972762385
 30
0.0
 11
13.75655230900207
 21
23.22980785785046
 31
0.0
  0
ENDBLK
  5
310F
330
2F7A
100
AcDbEntity
  8
0
100
AcDbBlockEnd
  0
BLOCK
  5
7847
330
783D
100
AcDbEntity
  8
0
100
AcDbBlockBegin
  2
*D2
 70
     1
 10
0.0
 20
0.0
 30
0.0
  3
*D2
  1

  0
LINE
  5
7A7A
330
783D
100
AcDbEntity
  8
SUNPOU
100
AcDbLine
 10
321.5415276546036
 20
283.6629254028393
 30
0.0
 11
321.5415276546036
 21
330.8998527629269
 31
0.0
  0
LINE
  5
7A7B
330
783D
100
AcDbEntity
  8
SUNPOU
100
AcDbLine
 10
472.4916036144199
 20
283.6429382209636
 30
0.0
 11
472.4916036144199
 21
330.8998527629269
 31
0.0
  0
LINE
  5
7A7C
330
783D
100
AcDbEntity
  8
SUNPOU
100
AcDbLine
 10
328.5415276546036
 20
327.8998527629269
 30
0.0
 11
465.4916036144199
 21
327.8998527629269
 31
0.0
  0
INSERT
  5
7A7D
330
783D
100
AcDbEntity
  8
SUNPOU
100
AcDbBlockReference
  2
_OPEN
 10
321.5415276546036
 20
327.8998527629269
 30
0.0
 41
7.0
 42
7.0
 43
7.0
 50
180.0
  0
INSERT
  5
7A7E
330
783D
100
AcDbEntity
  8
SUNPOU
100
AcDbBlockReference
  2
_OPEN
 10
472.4916036144199
 20
327.8998527629269
 30
0.0
 41
7.0
 42
7.0
 43
7.0
  0
MTEXT
  5
7A7F
330
783D
100
AcDbEntity
  8
SUNPOU
100
AcDbMText
 10
397.0165656345118
 20
332.8998527629269
 30
0.0
 40
6.0
 41
0.0
 71
     5
 72
     1
  1
\A1;151
1001
ACAD
1000
MTEXTBEGIN
1070
    73
1070
     1
1070
    44
1040
1.0
1070
    74
1070
     0
1000
MTEXTEND
  0
POINT
  5
7A80
330
783D
100
AcDbEntity
  8
DEFPOINTS
 62
     0
100
AcDbPoint
 10
321.5415276546036
 20
277.6629254028393
 30
0.0
  0
POINT
  5
7A81
330
783D
100
AcDbEntity
  8
DEFPOINTS
 62
     0
100
AcDbPoint
 10
472.4916036144199
 20
277.6429382209636
 30
0.0
  0
POINT
  5
7A82
330
783D
100
AcDbEntity
  8
DEFPOINTS
 62
     0
100
AcDbPoint
 10
472.4916036144199
 20
327.8998527629269
 30
0.0
  0
ENDBLK
  5
7848
330
783D
100
AcDbEntity
  8
0
100
AcDbBlockEnd
  0
BLOCK
  5
7854
330
784A
100
AcDbEntity
  8
0
100
AcDbBlockBegin
  2
*D3
 70
     1
 10
0.0
 20
0.0
 30
0.0
  3
*D3
  1

  0
LINE
  5
7A83
330
784A
100
AcDbEntity
  8
SUNPOU
100
AcDbLine
 10
476.49160361442
 20
279.6429382209636
 30
0.0
 11
508.7200900245697
 21
279.6429382209636
 31
0.0
  0
LINE
  5
7A84
330
784A
100
AcDbEntity
  8
SUNPOU
100
AcDbLine
 10
464.3982645933874
 20
139.6192531799652
 30
0.0
 11
508.7200900245697
 21
139.6192531799652
 31
0.0
  0
LINE
  5
7A85
330
784A
100
AcDbEntity
  8
SUNPOU
100
AcDbLine
 10
505.7200900245697
 20
272.6429382209636
 30
0.0
 11
505.7200900245697
 21
146.6192531799652
 31
0.0
  0
INSERT
  5
7A86
330
784A
100
AcDbEntity
  8
SUNPOU
100
AcDbBlockReference
  2
_OPEN
 10
505.7200900245697
 20
279.6429382209636
 30
0.0
 41
7.0
 42
7.0
 43
7.0
 50
90.0
  0
INSERT
  5
7A87
330
784A
100
AcDbEntity
  8
SUNPOU
100
AcDbBlockReference
  2
_OPEN
 10
505.7200900245697
 20
139.6192531799652
 30
0.0
 41
7.0
 42
7.0
 43
7.0
 50
270.0
  0
MTEXT
  5
7A88
330
784A
100
AcDbEntity
  8
SUNPOU
100
AcDbMText
 10
500.7200900245696
 20
209.6310957004645
 30
0.0
 40
6.0
 41
0.0
 71
     5
 72
     1
  1
\A1;140
 11
0.0000000000000001
 21
1.0
 31
0.0
1001
ACAD
1000
MTEXTBEGIN
1070
    73
1070
     1
1070
    44
1040
1.0
1070
    74
1070
     0
1000
MTEXTEND
  0
POINT
  5
7A89
330
784A
100
AcDbEntity
  8
DEFPOINTS
 62
     0
100
AcDbPoint
 10
470.49160361442
 20
279.6429382209636
 30
0.0
  0
POINT
  5
7A8A
330
784A
100
AcDbEntity
  8
DEFPOINTS
 62
     0
100
AcDbPoint
 10
458.3982645933875
 20
139.6192531799652
 30
0.0
  0
POINT
  5
7A8B
330
784A
100
AcDbEntity
  8
DEFPOINTS
 62
     0
100
AcDbPoint
 10
505.7200900245697
 20
139.6192531799652
 30
0.0
  0
ENDBLK
  5
7855
330
784A
100
AcDbEntity
  8
0
100
AcDbBlockEnd
  0
BLOCK
  5
7861
330
7857
100
AcDbEntity
  8
0
100
AcDbBlockBegin
  2
*D4
 70
     1
 10
0.0
 20
0.0
 30
0.0
  3
*D4
  1

  0
LINE
  5
7A8C
330
7857
100
AcDbEntity
  8
SUNPOU
100
AcDbLine
 10
478.49160361442
 20
435.0080420268221
 30
0.0
 11
508.7200900245698
 21
435.0080420268221
 31
0.0
  0
LINE
  5
7A8D
330
7857
100
AcDbEntity
  8
SUNPOU
100
AcDbLine
 10
478.49160361442
 20
385.0080420268213
 30
0.0
 11
508.7200900245698
 21
385.0080420268213
 31
0.0
  0
LINE
  5
7A8E
330
7857
100
AcDbEntity
  8
SUNPOU
100
AcDbLine
 10
505.7200900245698
 20
428.008042026822
 30
0.0
 11
505.7200900245698
 21
392.0080420268213
 31
0.0
  0
INSERT
  5
7A8F
330
7857
100
AcDbEntity
  8
SUNPOU
100
AcDbBlockReference
  2
_OPEN
 10
505.7200900245698
 20
435.0080420268221
 30
0.0
 41
7.0
 42
7.0
 43
7.0
 50
90.0
  0
INSERT
  5
7A90
330
7857
100
AcDbEntity
  8
SUNPOU
100
AcDbBlockReference
  2
_OPEN
 10
505.7200900245698
 20
385.0080420268213
 30
0.0
 41
7.0
 42
7.0
 43
7.0
 50
270.0
  0
MTEXT
  5
7A91
330
7857
100
AcDbEntity
  8
SUNPOU
100
AcDbMText
 10
500.7200900245697
 20
410.0080420268217
 30
0.0
 40
6.0
 41
0.0
 71
     5
 72
     1
  1
\A1;50
 11
0.0000000000000001
 21
1.0
 31
0.0
1001
ACAD
1000
MTEXTBEGIN
1070
    73
1070
     1
1070
    44
1040
1.0
1070
    74
1070
     0
1000
MTEXTEND
  0
POINT
  5
7A92
330
7857
100
AcDbEntity
  8
DEFPOINTS
 62
     0
100
AcDbPoint
 10
472.4916036144199
 20
435.0080420268221
 30
0.0
  0
POINT
  5
7A93
330
7857
100
AcDbEntity
  8
DEFPOINTS
 62
     0
100
AcDbPoint
 10
472.4916036144199
 20
385.0080420268213
 30
0.0
  0
POINT
  5
7A94
330
7857
100
AcDbEntity
  8
DEFPOINTS
 62
     0
100
AcDbPoint
 10
505.7200900245698
 20
385.0080420268213
 30
0.0
  0
ENDBLK
  5
7862
330
7857
100
AcDbEntity
  8
0
100
AcDbBlockEnd
  0
BLOCK
  5
786E
330
7864
100
AcDbEntity
  8
0
100
AcDbBlockBegin
  2
*D5
 70
     1
 10
0.0
 20
0.0
 30
0.0
  3
*D5
  1

  0
LINE
  5
7A95
330
7864
100
AcDbEntity
  8
SUNPOU
100
AcDbLine
 10
541.7302360636044
 20
285.6429382209636
 30
0.0
 11
541.7302360636044
 21
330.8998527629269
 31
0.0
  0
LINE
  5
7A96
330
7864
100
AcDbEntity
  8
SUNPOU
100
AcDbLine
 10
591.7302360636047
 20
285.6429382209636
 30
0.0
 11
591.7302360636047
 21
330.8998527629269
 31
0.0
  0
LINE
  5
7A97
330
7864
100
AcDbEntity
  8
SUNPOU
100
AcDbLine
 10
548.7302360636045
 20
327.8998527629269
 30
0.0
 11
584.7302360636047
 21
327.8998527629269
 31
0.0
  0
INSERT
  5
7A98
330
7864
100
AcDbEntity
  8
SUNPOU
100
AcDbBlockReference
  2
_OPEN
 10
541.7302360636044
 20
327.8998527629269
 30
0.0
 41
7.0
 42
7.0
 43
7.0
 50
180.0
  0
INSERT
  5
7A99
330
7864
100
AcDbEntity
  8
SUNPOU
100
AcDbBlockReference
  2
_OPEN
 10
591.7302360636047
 20
327.8998527629269
 30
0.0
 41
7.0
 42
7.0
 43
7.0
  0
MTEXT
  5
7A9A
330
7864
100
AcDbEntity
  8
SUNPOU
100
AcDbMText
 10
566.7302360636045
 20
332.8998527629269
 30
0.0
 40
6.0
 41
0.0
 71
     5
 72
     1
  1
\A1;50
1001
ACAD
1000
MTEXTBEGIN
1070
    73
1070
     1
1070
    44
1040
1.0
1070
    74
1070
     0
1000
MTEXTEND
  0
POINT
  5
7A9B
330
7864
100
AcDbEntity
  8
DEFPOINTS
 62
     0
100
AcDbPoint
 10
541.7302360636044
 20
279.6429382209636
 30
0.0
  0
POINT
  5
7A9C
330
7864
100
AcDbEntity
  8
DEFPOINTS
 62
     0
100
AcDbPoint
 10
591.7302360636047
 20
279.6429382209636
 30
0.0
  0
POINT
  5
7A9D
330
7864
100
AcDbEntity
  8
DEFPOINTS
 62
     0
100
AcDbPoint
 10
591.7302360636047
 20
327.8998527629269
 30
0.0
  0
ENDBLK
  5
786F
330
7864
100
AcDbEntity
  8
0
100
AcDbBlockEnd
  0
ENDSEC
  0
SECTION
  2
ENTITIES
  0
TEXT
  5
46F
330
1A
100
AcDbEntity
  8
SUNPOU
 62
     4
100
AcDbText
 10
684.9983445684752
 20
37.16107601380135
 30
0.0
 40
6.0
  1
※　のきといの差込み寸法を示す
100
AcDbText
  0
LINE
  5
7BE
330
1A
100
AcDbEntity
  8
ZUWAKU
100
AcDbLine
 10
208.646601303624
 20
15.19999986828872
 30
0.0
 11
447.4243639845474
 21
15.19999986828871
 31
0.0
  0
LINE
  5
7BF
330
1A
100
AcDbEntity
  8
ZUWAKU
100
AcDbLine
 10
208.646601303624
 20
15.59999986828871
 30
0.0
 11
447.4243639845474
 21
15.59999986828872
 31
0.0
  0
LINE
  5
7C0
330
1A
100
AcDbEntity
  8
ZUWAKU
100
AcDbLine
 10
208.646601303624
 20
15.39999986828871
 30
0.0
 11
447.4243639845474
 21
15.39999986828871
 31
0.0
  0
LINE
  5
7C1
330
1A
100
AcDbEntity
  8
ZUWAKU
100
AcDbLine
 10
0.0000000135560185
 20
30.79999986828869
 30
0.0
 11
797.4000000135559
 21
30.79999986828869
 31
0.0
  0
LINE
  5
7C2
330
1A
100
AcDbEntity
  8
ZUWAKU
100
AcDbLine
 10
0.0000000135560185
 20
30.59999986828869
 30
0.0
 11
797.4000000135559
 21
30.59999986828869
 31
0.0
  0
LINE
  5
7C3
330
1A
100
AcDbEntity
  8
ZUWAKU
100
AcDbLine
 10
0.0000000135560185
 20
30.39999986828869
 30
0.0
 11
797.4000000135559
 21
30.39999986828869
 31
0.0
  0
LINE
  5
7C4
330
1A
100
AcDbEntity
  8
ZUWAKU
100
AcDbLine
 10
0.0000000135560185
 20
30.19999986828868
 30
0.0
 11
797.4000000135559
 21
30.19999986828868
 31
0.0
  0
LINE
  5
7C5
330
1A
100
AcDbEntity
  8
ZUWAKU
100
AcDbLine
 10
0.0000000135560185
 20
29.99999986828868
 30
0.0
 11
797.4000000135559
 21
29.99999986828868
 31
0.0
  0
POLYLINE
  5
7C6
330
1A
100
AcDbEntity
  8
ZUWAKU
100
AcDb2dPolyline
 66
     1
 10
0.0
 20
0.0
 30
0.0
 70
     1
  0
VERTEX
  5
7AC3
330
7C6
100
AcDbEntity
  8
ZUWAKU
100
AcDbVertex
100
AcDb2dVertex
 10
0.2000000135559503
 20
551.3999998682887
 30
0.0
  0
VERTEX
  5
7AC4
330
7C6
100
AcDbEntity
  8
ZUWAKU
100
AcDbVertex
100
AcDb2dVertex
 10
0.2000000135559503
 20
0.1999998682887281
 30
0.0
  0
VERTEX
  5
7AC5
330
7C6
100
AcDbEntity
  8
ZUWAKU
100
AcDbVertex
100
AcDb2dVertex
 10
797.4000000135559
 20
0.1999998682887511
 30
0.0
  0
VERTEX
  5
7AC6
330
7C6
100
AcDbEntity
  8
ZUWAKU
100
AcDbVertex
100
AcDb2dVertex
 10
797.4000000135561
 20
551.3999998682887
 30
0.0
  0
SEQEND
  5
7AC7
330
7C6
100
AcDbEntity
  8
ZUWAKU
  0
POLYLINE
  5
7C7
330
1A
100
AcDbEntity
  8
ZUWAKU
100
AcDb2dPolyline
 66
     1
 10
0.0
 20
0.0
 30
0.0
 70
     1
  0
VERTEX
  5
7AC8
330
7C7
100
AcDbEntity
  8
ZUWAKU
100
AcDbVertex
100
AcDb2dVertex
 10
0.6000000135559276
 20
550.9999998682888
 30
0.0
  0
VERTEX
  5
7AC9
330
7C7
100
AcDbEntity
  8
ZUWAKU
100
AcDbVertex
100
AcDb2dVertex
 10
0.6000000135559276
 20
0.5999998682887054
 30
0.0
  0
VERTEX
  5
7ACA
330
7C7
100
AcDbEntity
  8
ZUWAKU
100
AcDbVertex
100
AcDb2dVertex
 10
797.0000000135562
 20
0.5999998682887516
 30
0.0
  0
VERTEX
  5
7ACB
330
7C7
100
AcDbEntity
  8
ZUWAKU
100
AcDbVertex
100
AcDb2dVertex
 10
797.000000013556
 20
550.9999998682888
 30
0.0
  0
SEQEND
  5
7ACC
330
7C7
100
AcDbEntity
  8
ZUWAKU
  0
POLYLINE
  5
7C8
330
1A
100
AcDbEntity
  8
ZUWAKU
100
AcDb2dPolyline
 66
     1
 10
0.0
 20
0.0
 30
0.0
 70
     1
  0
VERTEX
  5
7ACD
330
7C8
100
AcDbEntity
  8
ZUWAKU
100
AcDbVertex
100
AcDb2dVertex
 10
0.0000000135560185
 20
551.5999998682887
 30
0.0
  0
VERTEX
  5
7ACE
330
7C8
100
AcDbEntity
  8
ZUWAKU
100
AcDbVertex
100
AcDb2dVertex
 10
0.0000000135560185
 20
-0.0000001317113174
 30
0.0
  0
VERTEX
  5
7ACF
330
7C8
100
AcDbEntity
  8
ZUWAKU
100
AcDbVertex
100
AcDb2dVertex
 10
797.6000000135561
 20
-0.0000001317112499
 30
0.0
  0
VERTEX
  5
7AD0
330
7C8
100
AcDbEntity
  8
ZUWAKU
100
AcDbVertex
100
AcDb2dVertex
 10
797.6000000135561
 20
551.5999998682888
 30
0.0
  0
SEQEND
  5
7AD1
330
7C8
100
AcDbEntity
  8
ZUWAKU
  0
POLYLINE
  5
7C9
330
1A
100
AcDbEntity
  8
ZUWAKU
100
AcDb2dPolyline
 66
     1
 10
0.0
 20
0.0
 30
0.0
 70
     1
  0
VERTEX
  5
7AD2
330
7C9
100
AcDbEntity
  8
ZUWAKU
100
AcDbVertex
100
AcDb2dVertex
 10
0.4000000135559958
 20
551.1999998682887
 30
0.0
  0
VERTEX
  5
7AD3
330
7C9
100
AcDbEntity
  8
ZUWAKU
100
AcDbVertex
100
AcDb2dVertex
 10
0.4000000135559958
 20
0.3999998682887735
 30
0.0
  0
VERTEX
  5
7AD4
330
7C9
100
AcDbEntity
  8
ZUWAKU
100
AcDbVertex
100
AcDb2dVertex
 10
797.200000013556
 20
0.3999998682887504
 30
0.0
  0
VERTEX
  5
7AD5
330
7C9
100
AcDbEntity
  8
ZUWAKU
100
AcDbVertex
100
AcDb2dVertex
 10
797.200000013556
 20
551.1999998682887
 30
0.0
  0
SEQEND
  5
7AD6
330
7C9
100
AcDbEntity
  8
ZUWAKU
  0
POLYLINE
  5
7CA
330
1A
100
AcDbEntity
  8
ZUWAKU
100
AcDb2dPolyline
 66
     1
 10
0.0
 20
0.0
 30
0.0
 70
     1
  0
VERTEX
  5
7AD7
330
7CA
100
AcDbEntity
  8
ZUWAKU
100
AcDbVertex
100
AcDb2dVertex
 10
0.800000013555973
 20
550.7999998682887
 30
0.0
  0
VERTEX
  5
7AD8
330
7CA
100
AcDbEntity
  8
ZUWAKU
100
AcDbVertex
100
AcDb2dVertex
 10
0.800000013555973
 20
0.7999998682887508
 30
0.0
  0
VERTEX
  5
7AD9
330
7CA
100
AcDbEntity
  8
ZUWAKU
100
AcDbVertex
100
AcDb2dVertex
 10
796.8000000135559
 20
0.7999998682887508
 30
0.0
  0
VERTEX
  5
7ADA
330
7CA
100
AcDbEntity
  8
ZUWAKU
100
AcDbVertex
100
AcDb2dVertex
 10
796.8000000135559
 20
550.7999998682887
 30
0.0
  0
SEQEND
  5
7ADB
330
7CA
100
AcDbEntity
  8
ZUWAKU
  0
INSERT
  5
7CC
330
1A
100
AcDbEntity
  8
ZUWAKU
  6
CONTINUOUS
100
AcDbBlockReference
  2
*X1
 10
0.0
 20
0.0
 30
0.0
1001
ACAD
1000
HATCH
1002
{
1070
    19
1000
ANSI37
1040
0.2
1040
0.0
1000
R14_HATCH_DATA
1000
7CC
1011
1.0
1021
0.0
1031
0.0
1011
0.0
1021
1.0
1031
0.0
1011
0.0
1021
0.0
1031
1.0
1040
0.0
1010
0.0
1020
0.0
1030
1.0
1000
ANSI37
1070
     0
1070
     0
1071
        8
1071
        7
1070
     1
1070
     1
1071
       24
1040
14.50226267467587
1040
17.64484834927226
1040
-0.1989123673796348
1040
14.09221216833714
1040
18.63479784293331
1040
0.0
1040
14.09221216833714
1040
19.92499986828869
1040
-0.4142135623730912
1040
14.61721216833711
1040
20.44999986828868
1040
0.0
1040
17.59221216833702
1040
20.44999986828868
1040
0.4142135623731546
1040
18.11721216833712
1040
20.97499986828867
1040
0.0
1040
18.11721216833712
1040
22.72499986828869
1040
0.4142135623731586
1040
17.59221216833702
1040
23.24999986828868
1040
0.0
1040
14.09221216833714
1040
23.24999986828868
1040
0.4142135623730928
1040
11.29221216833718
1040
20.44999986828871
1040
0.0
1040
11.29221216833718
1040
18.63479784293344
1040
0.1989123673796619
1040
12.52236368735361
1040
15.66494936194983
1040
0.0
1040
15.43216166199829
1040
12.75515138730518
1040
-0.1989123673796613
1040
15.84221216833714
1040
11.76520189364399
1040
0.0
1040
15.84221216833714
1040
10.47499986828867
1040
-0.4142135623730911
1040
15.31721216833716
1040
9.949999868288685
1040
0.0
1040
12.34221216833725
1040
9.949999868288685
1040
0.4142135623731526
1040
11.81721216833716
1040
9.424999868288697
1040
0.0
1040
11.81721216833716
1040
7.674999868288676
1040
0.4142135623731526
1040
12.34221216833725
1040
7.149999868288688
1040
0.0
1040
15.84221216833714
1040
7.149999868288688
1040
0.4142135623731044
1040
18.64221216833721
1040
9.949999868288664
1040
0.0
1040
18.64221216833721
1040
11.76520189364393
1040
0.1989123673796604
1040
17.41206064932066
1040
14.73505037462747
1040
0.0
1071
        0
1071
        7
1070
     1
1070
     1
1071
       16
1040
23.54221216833718
1040
19.04999986828869
1040
-0.4142135623730935
1040
24.94221216833716
1040
20.44999986828868
1040
0.0
1040
26.86721216833712
1040
20.44999986828868
1040
0.4142135623731546
1040
27.39221216833721
1040
20.97499986828867
1040
0.0
1040
27.39221216833721
1040
22.72499986828869
1040
0.4142135623730951
1040
26.86721216833723
1040
23.24999986828868
1040
0.0
1040
24.94221216833705
1040
23.24999986828864
1040
0.4142135623730892
1040
20.74221216833711
1040
19.04999986828862
1040
0.0
1040
20.74221216833711
1040
11.34999986828871
1040
0.4142135623730969
1040
24.94221216833716
1040
7.149999868288688
1040
0.0
1040
26.86721216833712
1040
7.149999868288688
1040
0.4142135623731526
1040
27.39221216833721
1040
7.674999868288676
1040
0.0
1040
27.39221216833721
1040
9.424999868288697
1040
0.4142135623730891
1040
26.86721216833723
1040
9.949999868288685
1040
0.0
1040
24.94221216833716
1040
9.949999868288685
1040
-0.4142135623730928
1040
23.54221216833718
1040
11.34999986828867
1040
0.0
1071
        0
1071
        7
1070
     1
1070
     1
1071
        2
1040
24.24221216833712
1040
15.19999986828868
1040
1.0
1040
27.74221216833712
1040
15.19999986828868
1040
1.0
1071
        0
1071
        7
1070
     1
1070
     1
1071
       26
1040
37.31485865051513
1040
19.20504706185211
1040
0.0
1040
38.37649828365295
1040
22.5669059001217
1040
0.5069206636600134
1040
37.87586738445759
1040
23.24999986828868
1040
0.0
1040
36.17697800484836
1040
23.24999986828868
1040
0.3272098845218764
1040
35.676347105653
1040
22.88309383645565
1040
0.0
1040
33.80807723102122
1040
16.96690590012176
1040
-0.3272098845219541
1040
33.30744633182575
1040
16.59999986828868
1040
0.0
1040
33.1672121683373
1040
16.59999986828868
1040
-0.4142135623731526
1040
32.64221216833721
1040
17.12499986828867
1040
0.0
1040
32.64221216833721
1040
22.72499986828869
1040
0.4142135623730951
1040
32.11721216833723
1040
23.24999986828868
1040
0.0
1040
30.36721216833711
1040
23.24999986828868
1040
0.4142135623730871
1040
29.84221216833714
1040
22.7249998682887
1040
0.0
1040
29.84221216833714
1040
7.674999868288676
1040
0.4142135623730891
1040
30.36721216833711
1040
7.149999868288688
1040
0.0
1040
32.11721216833712
1040
7.149999868288688
1040
0.4142135623731526
1040
32.64221216833721
1040
7.674999868288676
1040
0.0
1040
32.64221216833721
1040
13.27499986828869
1040
-0.4142135623731526
1040
33.1672121683373
1040
13.79999986828868
1040
0.0
1040
33.30744633182587
1040
13.79999986828868
1040
-0.3272098845218915
1040
33.80807723102122
1040
13.43309383645561
1040
0.0
1040
35.676347105653
1040
7.516905900121759
1040
0.3272098845218902
1040
36.17697800484836
1040
7.149999868288688
1040
0.0
1040
37.87586738445759
1040
7.149999868288688
1040
0.5069206636600335
1040
38.37649828365295
1040
7.833093836455695
1040
0.0
1040
36.05010690517929
1040
15.19999986828882
1040
0.0
1071
        0
1071
        7
1070
     1
1070
     1
1071
        8
1040
43.49221216833711
1040
22.7249998682887
1040
0.4142135623731546
1040
42.96721216833702
1040
23.24999986828868
1040
0.0
1040
41.21721216833726
1040
23.24999986828868
1040
0.4142135623731507
1040
40.69221216833716
1040
22.7249998682887
1040
0.0
1040
40.69221216833716
1040
7.674999868288676
1040
0.4142135623731526
1040
41.21721216833726
1040
7.149999868288688
1040
0.0
1040
42.96721216833702
1040
7.149999868288688
1040
0.4142135623731526
1040
43.49221216833711
1040
7.674999868288676
1040
0.0
1071
        0
1071
        7
1070
     1
1070
     1
1071
       24
1040
48.3922121683372
1040
19.92499986828869
1040
-0.4142135623731546
1040
48.9172121683373
1040
20.44999986828868
1040
0.0
1040
51.89221216833721
1040
20.44999986828868
1040
0.4142135623730911
1040
52.41721216833719
1040
20.97499986828867
1040
0.0
1040
52.41721216833719
1040
22.72499986828869
1040
0.4142135623730952
1040
51.89221216833721
1040
23.24999986828868
1040
0.0
1040
48.3922121683372
1040
23.24999986828868
1040
0.4142135623731048
1040
45.59221216833714
1040
20.44999986828871
1040
0.0
1040
45.59221216833714
1040
18.63479784293344
1040
0.1989123673796613
1040
46.82236368735368
1040
15.66494936194989
1040
0.0
1040
49.73216166199836
1040
12.75515138730522
1040
-0.1989123673796402
1040
50.14221216833721
1040
11.76520189364415
1040
0.0
1040
50.14221216833721
1040
10.47499986828867
1040
-0.4142135623730911
1040
49.61721216833723
1040
9.949999868288685
1040
0.0
1040
46.64221216833721
1040
9.949999868288685
1040
0.4142135623731526
1040
46.11721216833712
1040
9.424999868288697
1040
0.0
1040
46.11721216833712
1040
7.674999868288676
1040
0.4142135623730891
1040
46.64221216833709
1040
7.149999868288688
1040
0.0
1040
50.14221216833721
1040
7.149999868288688
1040
0.4142135623730925
1040
52.94221216833716
1040
9.949999868288664
1040
0.0
1040
52.94221216833716
1040
11.76520189364393
1040
0.1989123673796675
1040
51.71206064932062
1040
14.73505037462759
1040
0.0
1040
48.80226267467605
1040
17.6448483492721
1040
-0.1989123673796652
1040
48.3922121683372
1040
18.63479784293327
1040
0.0
1071
        0
1071
        7
1070
     1
1070
     1
1071
       16
1040
57.84221216833714
1040
22.72499986828867
1040
0.414213562373103
1040
57.31721216833716
1040
23.24999986828868
1040
0.0
1040
55.56721216833716
1040
23.24999986828868
1040
0.4142135623730871
1040
55.04221216833719
1040
22.7249998682887
1040
0.0
1040
55.04221216833719
1040
9.949999868288664
1040
0.4142135623730926
1040
57.84221216833714
1040
7.149999868288688
1040
0.0
1040
61.34221216833714
1040
7.149999868288688
1040
0.4142135623731044
1040
64.14221216833721
1040
9.949999868288664
1040
0.0
1040
64.14221216833721
1040
22.72499986828869
1040
0.4142135623730951
1040
63.61721216833723
1040
23.24999986828868
1040
0.0
1040
61.86721216833712
1040
23.24999986828868
1040
0.4142135623730871
1040
61.34221216833714
1040
22.7249998682887
1040
0.0
1040
61.34221216833714
1040
10.99999986828866
1040
-0.414213562373088
1040
60.29221216833718
1040
9.949999868288685
1040
0.0
1040
58.89221216833721
1040
9.949999868288685
1040
-0.4142135623731197
1040
57.84221216833714
1040
10.99999986828866
1040
0.0
1071
        0
1071
        7
1070
     1
1070
     1
1071
        8
1040
69.04221216833718
1040
22.7249998682887
1040
0.4142135623730871
1040
68.51721216833721
1040
23.24999986828868
1040
0.0
1040
66.76721216833721
1040
23.24999986828868
1040
0.4142135623731507
1040
66.24221216833712
1040
22.7249998682887
1040
0.0
1040
66.24221216833712
1040
7.674999868288676
1040
0.4142135623730891
1040
66.76721216833709
1040
7.149999868288688
1040
0.0
1040
68.51721216833721
1040
7.149999868288688
1040
0.4142135623730891
1040
69.04221216833718
1040
7.674999868288676
1040
0.0
1071
        0
1070
     0
1070
     1
1040
0.0
1040
0.2
1070
     0
1070
     2
1040
0.7853981633974483
1040
-900.942304321123
1040
-13.20000013171124
1040
-0.4490128060534576
1040
0.4490128060534577
1070
     0
1040
2.356194490192344
1040
-900.942304321123
1040
-13.20000013171124
1040
-0.4490128060534577
1040
-0.4490128060534576
1070
     0
1040
0.057451373970553
1071
        8
1040
16.07985497657932
1040
15.16717351417423
1040
0.0
1040
22.40451501999519
1040
18.84406205073969
1040
0.0
1040
25.16436789921567
1040
15.5118815143594
1040
0.0
1040
30.91405999519315
1040
16.20129751473018
1040
0.0
1040
41.83847203251275
1040
16.6609097822718
1040
0.0
1040
46.89820090868557
1040
19.41857618469589
1040
0.0
1040
56.55768598595637
1040
18.72915778338369
1040
0.0
1040
67.82707963317875
1040
19.18877005092531
1040
0.0
1002
}
  0
LINE
  5
7CD
330
1A
100
AcDbEntity
  8
ZUWAKU
100
AcDbLine
 10
24.94221216833716
 20
23.24999986828864
 30
0.0
 11
26.86721216833712
 21
23.24999986828868
 31
0.0
  0
LINE
  5
7CE
330
1A
100
AcDbEntity
  8
ZUWAKU
100
AcDbLine
 10
26.86721216833712
 20
20.44999986828868
 30
0.0
 11
24.94221216833716
 21
20.44999986828868
 31
0.0
  0
LINE
  5
7CF
330
1A
100
AcDbEntity
  8
ZUWAKU
100
AcDbLine
 10
24.94221216833716
 20
9.949999868288685
 30
0.0
 11
26.86721216833712
 21
9.949999868288685
 31
0.0
  0
LINE
  5
7D0
330
1A
100
AcDbEntity
  8
ZUWAKU
100
AcDbLine
 10
26.86721216833712
 20
7.149999868288688
 30
0.0
 11
24.94221216833716
 21
7.149999868288688
 31
0.0
  0
CIRCLE
  5
7D1
330
1A
100
AcDbEntity
  8
ZUWAKU
100
AcDbCircle
 10
25.99221216833711
 20
15.19999986828868
 30
0.0
 40
1.75
  0
ARC
  5
7D2
330
1A
100
AcDbEntity
  8
ZUWAKU
100
AcDbCircle
 10
15.49221216833712
 20
18.63479784293338
 30
0.0
 40
1.399999999999999
100
AcDbArc
 50
180.0000000000016
 51
224.9999999999988
  0
LINE
  5
7D3
330
1A
100
AcDbEntity
  8
ZUWAKU
100
AcDbLine
 10
23.54221216833718
 20
19.04999986828868
 30
0.0
 11
23.54221216833718
 21
11.34999986828869
 31
0.0
  0
LINE
  5
7D4
330
1A
100
AcDbEntity
  8
ZUWAKU
100
AcDbLine
 10
20.74221216833711
 20
11.34999986828869
 30
0.0
 11
20.74221216833711
 21
19.04999986828864
 31
0.0
  0
ARC
  5
7D5
330
1A
100
AcDbEntity
  8
ZUWAKU
100
AcDbCircle
 10
15.49221216833712
 20
18.63479784293338
 30
0.0
 40
4.199999999999999
100
AcDbArc
 50
180.0
 51
225.0
  0
ARC
  5
7D6
330
1A
100
AcDbEntity
  8
ZUWAKU
100
AcDbCircle
 10
15.84221216833714
 20
9.949999868288685
 30
0.0
 40
2.799999999999999
100
AcDbArc
 50
270.0
 51
0.0
  0
ARC
  5
7D7
330
1A
100
AcDbEntity
  8
ZUWAKU
100
AcDbCircle
 10
24.94221216833716
 20
11.34999986828869
 30
0.0
 40
4.199999999999999
100
AcDbArc
 50
180.0
 51
270.0
  0
ARC
  5
7D8
330
1A
100
AcDbEntity
  8
ZUWAKU
100
AcDbCircle
 10
14.44221216833716
 20
11.76520189364399
 30
0.0
 40
4.199999999999999
100
AcDbArc
 50
0.0
 51
45.0
  0
LINE
  5
7D9
330
1A
100
AcDbEntity
  8
ZUWAKU
100
AcDbLine
 10
17.41206064932066
 20
14.73505037462751
 30
0.0
 11
14.50226267467598
 21
17.64484834927218
 31
0.0
  0
LINE
  5
7DA
330
1A
100
AcDbEntity
  8
ZUWAKU
100
AcDbLine
 10
15.84221216833714
 20
10.47499986828869
 30
0.0
 11
15.84221216833714
 21
11.76520189364403
 31
0.0
  0
ARC
  5
7DB
330
1A
100
AcDbEntity
  8
ZUWAKU
100
AcDbCircle
 10
15.31721216833716
 20
10.47499986828869
 30
0.0
 40
0.525
100
AcDbArc
 50
270.0
 51
0.0
  0
ARC
  5
7DC
330
1A
100
AcDbEntity
  8
ZUWAKU
100
AcDbCircle
 10
14.44221216833716
 20
11.76520189364403
 30
0.0
 40
1.399999999999999
100
AcDbArc
 50
0.0
 51
45.0
  0
LINE
  5
7DD
330
1A
100
AcDbEntity
  8
ZUWAKU
100
AcDbLine
 10
11.81721216833716
 20
7.674999868288686
 30
0.0
 11
11.81721216833716
 21
9.424999868288686
 31
0.0
  0
ARC
  5
7DE
330
1A
100
AcDbEntity
  8
ZUWAKU
100
AcDbCircle
 10
12.34221216833714
 20
7.674999868288686
 30
0.0
 40
0.525
100
AcDbArc
 50
180.0
 51
270.0
  0
ARC
  5
7DF
330
1A
100
AcDbEntity
  8
ZUWAKU
100
AcDbCircle
 10
12.34221216833714
 20
9.424999868288686
 30
0.0
 40
0.525
100
AcDbArc
 50
90.0
 51
180.0
  0
LINE
  5
7E0
330
1A
100
AcDbEntity
  8
ZUWAKU
100
AcDbLine
 10
12.34221216833714
 20
7.149999868288688
 30
0.0
 11
15.84221216833714
 21
7.149999868288688
 31
0.0
  0
LINE
  5
7E1
330
1A
100
AcDbEntity
  8
ZUWAKU
100
AcDbLine
 10
12.34221216833714
 20
9.949999868288685
 30
0.0
 11
15.31721216833716
 21
9.949999868288685
 31
0.0
  0
LINE
  5
7E2
330
1A
100
AcDbEntity
  8
ZUWAKU
100
AcDbLine
 10
12.52236368735361
 20
15.66494936194986
 30
0.0
 11
15.43216166199829
 21
12.7551513873052
 31
0.0
  0
LINE
  5
7E3
330
1A
100
AcDbEntity
  8
ZUWAKU
100
AcDbLine
 10
18.64221216833721
 20
9.949999868288685
 30
0.0
 11
18.64221216833721
 21
11.76520189364403
 31
0.0
  0
ARC
  5
7E4
330
1A
100
AcDbEntity
  8
ZUWAKU
100
AcDbCircle
 10
24.94221216833716
 20
11.34999986828869
 30
0.0
 40
1.399999999999999
100
AcDbArc
 50
180.0
 51
270.0
  0
ARC
  5
7E5
330
1A
100
AcDbEntity
  8
ZUWAKU
100
AcDbCircle
 10
17.59221216833714
 20
22.72499986828868
 30
0.0
 40
0.525
100
AcDbArc
 50
0.0
 51
90.0
  0
ARC
  5
7E6
330
1A
100
AcDbEntity
  8
ZUWAKU
100
AcDbCircle
 10
17.59221216833714
 20
20.97499986828868
 30
0.0
 40
0.525
100
AcDbArc
 50
270.0
 51
0.0
  0
LINE
  5
7E7
330
1A
100
AcDbEntity
  8
ZUWAKU
100
AcDbLine
 10
14.09221216833714
 20
23.24999986828868
 30
0.0
 11
17.59221216833714
 21
23.24999986828868
 31
0.0
  0
ARC
  5
7E8
330
1A
100
AcDbEntity
  8
ZUWAKU
100
AcDbCircle
 10
14.61721216833711
 20
19.92499986828868
 30
0.0
 40
0.525
100
AcDbArc
 50
90.0
 51
180.0
  0
LINE
  5
7E9
330
1A
100
AcDbEntity
  8
ZUWAKU
100
AcDbLine
 10
14.09221216833714
 20
19.92499986828868
 30
0.0
 11
14.09221216833714
 21
18.63479784293334
 31
0.0
  0
LINE
  5
7EA
330
1A
100
AcDbEntity
  8
ZUWAKU
100
AcDbLine
 10
17.59221216833714
 20
20.44999986828868
 30
0.0
 11
14.61721216833711
 21
20.44999986828868
 31
0.0
  0
LINE
  5
7EB
330
1A
100
AcDbEntity
  8
ZUWAKU
100
AcDbLine
 10
11.29221216833718
 20
20.44999986828868
 30
0.0
 11
11.29221216833718
 21
18.63479784293334
 31
0.0
  0
ARC
  5
7EC
330
1A
100
AcDbEntity
  8
ZUWAKU
100
AcDbCircle
 10
14.09221216833714
 20
20.44999986828868
 30
0.0
 40
2.799999999999999
100
AcDbArc
 50
90.0
 51
180.0
  0
LINE
  5
7ED
330
1A
100
AcDbEntity
  8
ZUWAKU
100
AcDbLine
 10
18.11721216833712
 20
22.72499986828868
 30
0.0
 11
18.11721216833712
 21
20.97499986828868
 31
0.0
  0
ARC
  5
7EE
330
1A
100
AcDbEntity
  8
ZUWAKU
100
AcDbCircle
 10
24.94221216833716
 20
19.04999986828868
 30
0.0
 40
1.399999999999999
100
AcDbArc
 50
90.0
 51
180.0
  0
ARC
  5
7EF
330
1A
100
AcDbEntity
  8
ZUWAKU
100
AcDbCircle
 10
24.94221216833716
 20
19.04999986828864
 30
0.0
 40
4.199999999999999
100
AcDbArc
 50
90.0
 51
180.0
  0
LINE
  5
7F0
330
1A
100
AcDbEntity
  8
ZUWAKU
100
AcDbLine
 10
79.32662956154422
 20
29.99999986828868
 30
0.0
 11
79.32662956154445
 21
0.7999998682887508
 31
0.0
  0
LINE
  5
7F1
330
1A
100
AcDbEntity
  8
ZUWAKU
100
AcDbLine
 10
79.52662956154426
 20
29.99999986828868
 30
0.0
 11
79.52662956154449
 21
0.7999998682887508
 31
0.0
  0
LINE
  5
7F2
330
1A
100
AcDbEntity
  8
ZUWAKU
100
AcDbLine
 10
79.12662956154441
 20
29.99999986828868
 30
0.0
 11
79.12662956154441
 21
0.7999998682887508
 31
0.0
  0
LINE
  5
7F3
330
1A
100
AcDbEntity
  8
ZUWAKU
100
AcDbLine
 10
64.14221216833721
 20
9.949999868288685
 30
0.0
 11
64.14221216833721
 21
22.72499986828868
 31
0.0
  0
LINE
  5
7F4
330
1A
100
AcDbEntity
  8
ZUWAKU
100
AcDbLine
 10
61.34221216833714
 20
22.72499986828868
 30
0.0
 11
61.34221216833714
 21
10.99999986828868
 31
0.0
  0
LINE
  5
7F5
330
1A
100
AcDbEntity
  8
ZUWAKU
100
AcDbLine
 10
69.04221216833718
 20
7.674999868288686
 30
0.0
 11
69.04221216833718
 21
22.72499986828868
 31
0.0
  0
LINE
  5
7F6
330
1A
100
AcDbEntity
  8
ZUWAKU
100
AcDbLine
 10
66.24221216833712
 20
22.72499986828868
 30
0.0
 11
66.24221216833712
 21
7.674999868288686
 31
0.0
  0
ARC
  5
7F7
330
1A
100
AcDbEntity
  8
ZUWAKU
100
AcDbCircle
 10
49.79221216833718
 20
18.63479784293338
 30
0.0
 40
1.399999999999999
100
AcDbArc
 50
180.0000000000016
 51
224.9999999999988
  0
ARC
  5
7F8
330
1A
100
AcDbEntity
  8
ZUWAKU
100
AcDbCircle
 10
49.79221216833718
 20
18.63479784293338
 30
0.0
 40
4.199999999999999
100
AcDbArc
 50
180.0
 51
225.0
  0
LINE
  5
7F9
330
1A
100
AcDbEntity
  8
ZUWAKU
100
AcDbLine
 10
37.31485865051513
 20
19.20504706185211
 30
0.0
 11
36.05010690517929
 21
15.1999998682887
 31
0.0
  0
LINE
  5
7FA
330
1A
100
AcDbEntity
  8
ZUWAKU
100
AcDbLine
 10
40.69221216833716
 20
22.72499986828868
 30
0.0
 11
40.69221216833716
 21
7.674999868288686
 31
0.0
  0
LINE
  5
7FB
330
1A
100
AcDbEntity
  8
ZUWAKU
100
AcDbLine
 10
43.49221216833711
 20
7.674999868288686
 30
0.0
 11
43.49221216833711
 21
22.72499986828868
 31
0.0
  0
LINE
  5
7FC
330
1A
100
AcDbEntity
  8
ZUWAKU
100
AcDbLine
 10
55.04221216833719
 20
22.72499986828868
 30
0.0
 11
55.04221216833719
 21
9.949999868288685
 31
0.0
  0
LINE
  5
7FD
330
1A
100
AcDbEntity
  8
ZUWAKU
100
AcDbLine
 10
57.84221216833714
 20
10.99999986828868
 30
0.0
 11
57.84221216833714
 21
22.72499986828868
 31
0.0
  0
LINE
  5
7FE
330
1A
100
AcDbEntity
  8
ZUWAKU
100
AcDbLine
 10
32.64221216833721
 20
17.12499986828869
 30
0.0
 11
32.64221216833721
 21
22.72499986828868
 31
0.0
  0
LINE
  5
7FF
330
1A
100
AcDbEntity
  8
ZUWAKU
100
AcDbLine
 10
29.84221216833714
 20
22.72499986828868
 30
0.0
 11
29.84221216833714
 21
7.674999868288686
 31
0.0
  0
LINE
  5
800
330
1A
100
AcDbEntity
  8
ZUWAKU
100
AcDbLine
 10
35.676347105653
 20
22.88309383645565
 30
0.0
 11
33.80807723102122
 21
16.96690590012171
 31
0.0
  0
LINE
  5
801
330
1A
100
AcDbEntity
  8
ZUWAKU
100
AcDbLine
 10
60.29221216833718
 20
9.949999868288685
 30
0.0
 11
58.89221216833721
 21
9.949999868288685
 31
0.0
  0
LINE
  5
802
330
1A
100
AcDbEntity
  8
ZUWAKU
100
AcDbLine
 10
57.84221216833714
 20
7.149999868288688
 30
0.0
 11
61.34221216833714
 21
7.149999868288688
 31
0.0
  0
LINE
  5
803
330
1A
100
AcDbEntity
  8
ZUWAKU
100
AcDbLine
 10
41.21721216833714
 20
7.149999868288688
 30
0.0
 11
42.96721216833714
 21
7.149999868288688
 31
0.0
  0
LINE
  5
804
330
1A
100
AcDbEntity
  8
ZUWAKU
100
AcDbLine
 10
35.676347105653
 20
7.516905900121713
 30
0.0
 11
33.80807723102122
 21
13.43309383645565
 31
0.0
  0
ARC
  5
805
330
1A
100
AcDbEntity
  8
ZUWAKU
100
AcDbCircle
 10
33.30744633182587
 20
17.12499986828869
 30
0.0
 40
0.525
100
AcDbArc
 50
270.0
 51
342.4744316262769
  0
LINE
  5
806
330
1A
100
AcDbEntity
  8
ZUWAKU
100
AcDbLine
 10
33.30744633182587
 20
16.59999986828868
 30
0.0
 11
33.16721216833718
 21
16.59999986828868
 31
0.0
  0
LINE
  5
807
330
1A
100
AcDbEntity
  8
ZUWAKU
100
AcDbLine
 10
33.16721216833718
 20
13.79999986828868
 30
0.0
 11
33.30744633182587
 21
13.79999986828868
 31
0.0
  0
ARC
  5
808
330
1A
100
AcDbEntity
  8
ZUWAKU
100
AcDbCircle
 10
33.16721216833718
 20
17.12499986828869
 30
0.0
 40
0.525
100
AcDbArc
 50
180.0
 51
270.0
  0
LINE
  5
809
330
1A
100
AcDbEntity
  8
ZUWAKU
100
AcDbLine
 10
30.36721216833711
 20
7.149999868288688
 30
0.0
 11
32.11721216833712
 21
7.149999868288688
 31
0.0
  0
ARC
  5
80A
330
1A
100
AcDbEntity
  8
ZUWAKU
100
AcDbCircle
 10
32.11721216833712
 20
7.674999868288686
 30
0.0
 40
0.525
100
AcDbArc
 50
270.0
 51
0.0
  0
LINE
  5
80B
330
1A
100
AcDbEntity
  8
ZUWAKU
100
AcDbLine
 10
32.64221216833721
 20
7.674999868288686
 30
0.0
 11
32.64221216833721
 21
13.27499986828868
 31
0.0
  0
LINE
  5
80C
330
1A
100
AcDbEntity
  8
ZUWAKU
100
AcDbLine
 10
27.39221216833721
 20
9.424999868288686
 30
0.0
 11
27.39221216833721
 21
7.674999868288686
 31
0.0
  0
ARC
  5
80D
330
1A
100
AcDbEntity
  8
ZUWAKU
100
AcDbCircle
 10
26.86721216833712
 20
7.674999868288686
 30
0.0
 40
0.525
100
AcDbArc
 50
270.0
 51
0.0
  0
ARC
  5
80E
330
1A
100
AcDbEntity
  8
ZUWAKU
100
AcDbCircle
 10
26.86721216833712
 20
9.424999868288686
 30
0.0
 40
0.525
100
AcDbArc
 50
0.0
 51
90.0
  0
ARC
  5
80F
330
1A
100
AcDbEntity
  8
ZUWAKU
100
AcDbCircle
 10
30.36721216833711
 20
7.674999868288686
 30
0.0
 40
0.525
100
AcDbArc
 50
180.0
 51
270.0
  0
ARC
  5
810
330
1A
100
AcDbEntity
  8
ZUWAKU
100
AcDbCircle
 10
33.30744633182587
 20
13.27499986828868
 30
0.0
 40
0.525
100
AcDbArc
 50
17.52556837372303
 51
90.0
  0
ARC
  5
811
330
1A
100
AcDbEntity
  8
ZUWAKU
100
AcDbCircle
 10
33.16721216833718
 20
13.27499986828868
 30
0.0
 40
0.525
100
AcDbArc
 50
90.0
 51
180.0
  0
ARC
  5
812
330
1A
100
AcDbEntity
  8
ZUWAKU
100
AcDbCircle
 10
41.21721216833714
 20
7.674999868288686
 30
0.0
 40
0.525
100
AcDbArc
 50
180.0
 51
270.0
  0
LINE
  5
813
330
1A
100
AcDbEntity
  8
ZUWAKU
100
AcDbLine
 10
36.17697800484847
 20
7.149999868288688
 30
0.0
 11
37.87586738445748
 21
7.149999868288688
 31
0.0
  0
ARC
  5
814
330
1A
100
AcDbEntity
  8
ZUWAKU
100
AcDbCircle
 10
37.87586738445748
 20
7.674999868288686
 30
0.0
 40
0.525
100
AcDbArc
 50
270.0
 51
17.52556837372303
  0
LINE
  5
815
330
1A
100
AcDbEntity
  8
ZUWAKU
100
AcDbLine
 10
38.37649828365295
 20
7.83309383645566
 30
0.0
 11
36.05010690517929
 21
15.1999998682887
 31
0.0
  0
ARC
  5
816
330
1A
100
AcDbEntity
  8
ZUWAKU
100
AcDbCircle
 10
36.17697800484847
 20
7.674999868288686
 30
0.0
 40
0.525
100
AcDbArc
 50
197.525568373723
 51
270.0
  0
ARC
  5
817
330
1A
100
AcDbEntity
  8
ZUWAKU
100
AcDbCircle
 10
57.84221216833714
 20
9.949999868288685
 30
0.0
 40
2.799999999999999
100
AcDbArc
 50
180.0
 51
270.0
  0
ARC
  5
818
330
1A
100
AcDbEntity
  8
ZUWAKU
100
AcDbCircle
 10
50.14221216833721
 20
9.949999868288685
 30
0.0
 40
2.799999999999999
100
AcDbArc
 50
270.0
 51
0.0
  0
LINE
  5
819
330
1A
100
AcDbEntity
  8
ZUWAKU
100
AcDbLine
 10
51.71206064932073
 20
14.73505037462751
 30
0.0
 11
48.80226267467595
 21
17.64484834927218
 31
0.0
  0
LINE
  5
81A
330
1A
100
AcDbEntity
  8
ZUWAKU
100
AcDbLine
 10
50.14221216833721
 20
10.47499986828869
 30
0.0
 11
50.14221216833721
 21
11.76520189364403
 31
0.0
  0
ARC
  5
81B
330
1A
100
AcDbEntity
  8
ZUWAKU
100
AcDbCircle
 10
48.74221216833712
 20
11.76520189364403
 30
0.0
 40
1.399999999999999
100
AcDbArc
 50
0.0
 51
45.0
  0
ARC
  5
81C
330
1A
100
AcDbEntity
  8
ZUWAKU
100
AcDbCircle
 10
49.61721216833712
 20
10.47499986828869
 30
0.0
 40
0.525
100
AcDbArc
 50
270.0
 51
0.0
  0
LINE
  5
81D
330
1A
100
AcDbEntity
  8
ZUWAKU
100
AcDbLine
 10
46.11721216833712
 20
7.674999868288686
 30
0.0
 11
46.11721216833712
 21
9.424999868288686
 31
0.0
  0
ARC
  5
81E
330
1A
100
AcDbEntity
  8
ZUWAKU
100
AcDbCircle
 10
46.64221216833721
 20
7.674999868288686
 30
0.0
 40
0.525
100
AcDbArc
 50
180.0
 51
270.0
  0
ARC
  5
81F
330
1A
100
AcDbEntity
  8
ZUWAKU
100
AcDbCircle
 10
42.96721216833714
 20
7.674999868288686
 30
0.0
 40
0.525
100
AcDbArc
 50
270.0
 51
0.0
  0
ARC
  5
820
330
1A
100
AcDbEntity
  8
ZUWAKU
100
AcDbCircle
 10
46.64221216833721
 20
9.424999868288686
 30
0.0
 40
0.525
100
AcDbArc
 50
90.0
 51
180.0
  0
LINE
  5
821
330
1A
100
AcDbEntity
  8
ZUWAKU
100
AcDbLine
 10
46.64221216833721
 20
9.949999868288685
 30
0.0
 11
49.61721216833712
 21
9.949999868288685
 31
0.0
  0
LINE
  5
822
330
1A
100
AcDbEntity
  8
ZUWAKU
100
AcDbLine
 10
46.64221216833721
 20
7.149999868288688
 30
0.0
 11
50.14221216833721
 21
7.149999868288688
 31
0.0
  0
LINE
  5
823
330
1A
100
AcDbEntity
  8
ZUWAKU
100
AcDbLine
 10
46.82236368735368
 20
15.66494936194986
 30
0.0
 11
49.73216166199836
 21
12.7551513873052
 31
0.0
  0
LINE
  5
824
330
1A
100
AcDbEntity
  8
ZUWAKU
100
AcDbLine
 10
52.94221216833716
 20
9.949999868288685
 30
0.0
 11
52.94221216833716
 21
11.76520189364403
 31
0.0
  0
ARC
  5
825
330
1A
100
AcDbEntity
  8
ZUWAKU
100
AcDbCircle
 10
48.74221216833712
 20
11.76520189364399
 30
0.0
 40
4.199999999999999
100
AcDbArc
 50
0.0
 51
45.0
  0
ARC
  5
826
330
1A
100
AcDbEntity
  8
ZUWAKU
100
AcDbCircle
 10
58.89221216833721
 20
10.99999986828868
 30
0.0
 40
1.049999999999999
100
AcDbArc
 50
180.0
 51
270.0
  0
ARC
  5
827
330
1A
100
AcDbEntity
  8
ZUWAKU
100
AcDbCircle
 10
61.34221216833714
 20
9.949999868288685
 30
0.0
 40
2.799999999999999
100
AcDbArc
 50
270.0
 51
0.0
  0
LINE
  5
828
330
1A
100
AcDbEntity
  8
ZUWAKU
100
AcDbLine
 10
66.76721216833721
 20
7.149999868288688
 30
0.0
 11
68.51721216833721
 21
7.149999868288688
 31
0.0
  0
ARC
  5
829
330
1A
100
AcDbEntity
  8
ZUWAKU
100
AcDbCircle
 10
66.76721216833721
 20
7.674999868288686
 30
0.0
 40
0.525
100
AcDbArc
 50
180.0
 51
270.0
  0
ARC
  5
82A
330
1A
100
AcDbEntity
  8
ZUWAKU
100
AcDbCircle
 10
60.29221216833718
 20
10.99999986828868
 30
0.0
 40
1.049999999999999
100
AcDbArc
 50
270.0
 51
0.0
  0
ARC
  5
82B
330
1A
100
AcDbEntity
  8
ZUWAKU
100
AcDbCircle
 10
68.51721216833721
 20
7.674999868288686
 30
0.0
 40
0.525
100
AcDbArc
 50
270.0
 51
0.0
  0
LINE
  5
82C
330
1A
100
AcDbEntity
  8
ZUWAKU
100
AcDbLine
 10
42.96721216833714
 20
23.24999986828868
 30
0.0
 11
41.21721216833714
 21
23.24999986828868
 31
0.0
  0
ARC
  5
82D
330
1A
100
AcDbEntity
  8
ZUWAKU
100
AcDbCircle
 10
32.11721216833712
 20
22.72499986828868
 30
0.0
 40
0.525
100
AcDbArc
 50
0.0
 51
90.0
  0
LINE
  5
82E
330
1A
100
AcDbEntity
  8
ZUWAKU
100
AcDbLine
 10
32.11721216833712
 20
23.24999986828868
 30
0.0
 11
30.36721216833711
 21
23.24999986828868
 31
0.0
  0
ARC
  5
82F
330
1A
100
AcDbEntity
  8
ZUWAKU
100
AcDbCircle
 10
26.86721216833712
 20
22.72499986828868
 30
0.0
 40
0.525
100
AcDbArc
 50
0.0
 51
90.0
  0
ARC
  5
830
330
1A
100
AcDbEntity
  8
ZUWAKU
100
AcDbCircle
 10
30.36721216833711
 20
22.72499986828868
 30
0.0
 40
0.525
100
AcDbArc
 50
90.0
 51
180.0
  0
ARC
  5
831
330
1A
100
AcDbEntity
  8
ZUWAKU
100
AcDbCircle
 10
26.86721216833712
 20
20.97499986828868
 30
0.0
 40
0.525
100
AcDbArc
 50
270.0
 51
0.0
  0
LINE
  5
832
330
1A
100
AcDbEntity
  8
ZUWAKU
100
AcDbLine
 10
27.39221216833721
 20
22.72499986828868
 30
0.0
 11
27.39221216833721
 21
20.97499986828868
 31
0.0
  0
ARC
  5
833
330
1A
100
AcDbEntity
  8
ZUWAKU
100
AcDbCircle
 10
41.21721216833714
 20
22.72499986828868
 30
0.0
 40
0.525
100
AcDbArc
 50
90.0
 51
180.0
  0
LINE
  5
834
330
1A
100
AcDbEntity
  8
ZUWAKU
100
AcDbLine
 10
36.17697800484847
 20
23.24999986828868
 30
0.0
 11
37.87586738445748
 21
23.24999986828868
 31
0.0
  0
ARC
  5
835
330
1A
100
AcDbEntity
  8
ZUWAKU
100
AcDbCircle
 10
37.87586738445748
 20
22.72499986828868
 30
0.0
 40
0.525
100
AcDbArc
 50
342.4744316262769
 51
90.0
  0
LINE
  5
836
330
1A
100
AcDbEntity
  8
ZUWAKU
100
AcDbLine
 10
38.37649828365295
 20
22.56690590012171
 30
0.0
 11
37.31485865051513
 21
19.20504706185211
 31
0.0
  0
ARC
  5
837
330
1A
100
AcDbEntity
  8
ZUWAKU
100
AcDbCircle
 10
36.17697800484847
 20
22.72499986828868
 30
0.0
 40
0.525
100
AcDbArc
 50
90.0
 51
162.4744316262769
  0
LINE
  5
838
330
1A
100
AcDbEntity
  8
ZUWAKU
100
AcDbLine
 10
48.3922121683372
 20
23.24999986828868
 30
0.0
 11
51.89221216833721
 21
23.24999986828868
 31
0.0
  0
LINE
  5
839
330
1A
100
AcDbEntity
  8
ZUWAKU
100
AcDbLine
 10
51.89221216833721
 20
20.44999986828868
 30
0.0
 11
48.91721216833719
 21
20.44999986828868
 31
0.0
  0
ARC
  5
83A
330
1A
100
AcDbEntity
  8
ZUWAKU
100
AcDbCircle
 10
48.91721216833719
 20
19.92499986828868
 30
0.0
 40
0.525
100
AcDbArc
 50
90.0
 51
180.0
  0
LINE
  5
83B
330
1A
100
AcDbEntity
  8
ZUWAKU
100
AcDbLine
 10
48.3922121683372
 20
19.92499986828868
 30
0.0
 11
48.3922121683372
 21
18.63479784293334
 31
0.0
  0
ARC
  5
83C
330
1A
100
AcDbEntity
  8
ZUWAKU
100
AcDbCircle
 10
42.96721216833714
 20
22.72499986828868
 30
0.0
 40
0.525
100
AcDbArc
 50
0.0
 51
90.0
  0
LINE
  5
83D
330
1A
100
AcDbEntity
  8
ZUWAKU
100
AcDbLine
 10
45.59221216833714
 20
20.44999986828868
 30
0.0
 11
45.59221216833714
 21
18.63479784293334
 31
0.0
  0
ARC
  5
83E
330
1A
100
AcDbEntity
  8
ZUWAKU
100
AcDbCircle
 10
48.3922121683372
 20
20.44999986828868
 30
0.0
 40
2.799999999999999
100
AcDbArc
 50
90.0
 51
180.0
  0
ARC
  5
83F
330
1A
100
AcDbEntity
  8
ZUWAKU
100
AcDbCircle
 10
57.31721216833716
 20
22.72499986828868
 30
0.0
 40
0.525
100
AcDbArc
 50
0.0
 51
90.0
  0
ARC
  5
840
330
1A
100
AcDbEntity
  8
ZUWAKU
100
AcDbCircle
 10
55.56721216833716
 20
22.72499986828868
 30
0.0
 40
0.525
100
AcDbArc
 50
90.0
 51
180.0
  0
LINE
  5
841
330
1A
100
AcDbEntity
  8
ZUWAKU
100
AcDbLine
 10
57.31721216833716
 20
23.24999986828868
 30
0.0
 11
55.56721216833716
 21
23.24999986828868
 31
0.0
  0
ARC
  5
842
330
1A
100
AcDbEntity
  8
ZUWAKU
100
AcDbCircle
 10
51.89221216833721
 20
22.72499986828868
 30
0.0
 40
0.525
100
AcDbArc
 50
0.0
 51
90.0
  0
ARC
  5
843
330
1A
100
AcDbEntity
  8
ZUWAKU
100
AcDbCircle
 10
51.89221216833721
 20
20.97499986828868
 30
0.0
 40
0.525
100
AcDbArc
 50
270.0
 51
0.0
  0
LINE
  5
844
330
1A
100
AcDbEntity
  8
ZUWAKU
100
AcDbLine
 10
52.41721216833719
 20
22.72499986828868
 30
0.0
 11
52.41721216833719
 21
20.97499986828868
 31
0.0
  0
LINE
  5
845
330
1A
100
AcDbEntity
  8
ZUWAKU
100
AcDbLine
 10
68.51721216833721
 20
23.24999986828868
 30
0.0
 11
66.76721216833721
 21
23.24999986828868
 31
0.0
  0
ARC
  5
846
330
1A
100
AcDbEntity
  8
ZUWAKU
100
AcDbCircle
 10
66.76721216833721
 20
22.72499986828868
 30
0.0
 40
0.525
100
AcDbArc
 50
90.0
 51
180.0
  0
ARC
  5
847
330
1A
100
AcDbEntity
  8
ZUWAKU
100
AcDbCircle
 10
63.61721216833712
 20
22.72499986828868
 30
0.0
 40
0.525
100
AcDbArc
 50
0.0
 51
90.0
  0
LINE
  5
848
330
1A
100
AcDbEntity
  8
ZUWAKU
100
AcDbLine
 10
63.61721216833712
 20
23.24999986828868
 30
0.0
 11
61.86721216833712
 21
23.24999986828868
 31
0.0
  0
ARC
  5
849
330
1A
100
AcDbEntity
  8
ZUWAKU
100
AcDbCircle
 10
61.86721216833712
 20
22.72499986828868
 30
0.0
 40
0.525
100
AcDbArc
 50
90.0
 51
180.0
  0
ARC
  5
84A
330
1A
100
AcDbEntity
  8
ZUWAKU
100
AcDbCircle
 10
68.51721216833721
 20
22.72499986828868
 30
0.0
 40
0.525
100
AcDbArc
 50
0.0
 51
90.0
  0
LINE
  5
84D
330
1A
100
AcDbEntity
  8
ZUWAKU
100
AcDbLine
 10
208.2466013036239
 20
29.99999986828868
 30
0.0
 11
208.2466013036239
 21
0.7999998682887508
 31
0.0
  0
LINE
  5
84E
330
1A
100
AcDbEntity
  8
ZUWAKU
100
AcDbLine
 10
208.6466013036238
 20
29.99999986828868
 30
0.0
 11
208.646601303624
 21
0.7999998682887508
 31
0.0
  0
LINE
  5
84F
330
1A
100
AcDbEntity
  8
ZUWAKU
100
AcDbLine
 10
208.4466013036237
 20
29.99999986828868
 30
0.0
 11
208.446601303624
 21
0.7999998682887508
 31
0.0
  0
TEXT
  5
850
330
1A
100
AcDbEntity
  8
ZUWAKU
100
AcDbText
 10
209.7240463258335
 20
9.6553564066743
 30
0.0
 40
4.0
  1
サイズ
 41
0.9
  7
ｽﾀｲﾙ1
100
AcDbText
  0
TEXT
  5
851
330
1A
100
AcDbEntity
  8
ZUWAKU
100
AcDbText
 10
209.7240463258333
 20
24.05535640667426
 30
0.0
 40
4.0
  1
品名
 41
0.9
  7
ｽﾀｲﾙ1
100
AcDbText
  0
LINE
  5
852
330
1A
100
AcDbEntity
  8
ZUWAKU
100
AcDbLine
 10
648.8172025237602
 20
15.19999986828871
 30
0.0
 11
697.2490105620972
 21
15.19999986828871
 31
0.0
  0
LINE
  5
853
330
1A
100
AcDbEntity
  8
ZUWAKU
100
AcDbLine
 10
648.8172025237604
 20
15.39999986828872
 30
0.0
 11
697.2490105620972
 21
15.39999986828871
 31
0.0
  0
LINE
  5
854
330
1A
100
AcDbEntity
  8
ZUWAKU
100
AcDbLine
 10
648.8172025237602
 20
15.59999986828871
 30
0.0
 11
697.2490105620972
 21
15.59999986828871
 31
0.0
  0
TEXT
  5
855
330
1A
100
AcDbEntity
  8
ZUWAKU
100
AcDbText
 10
658.2039377008584
 20
18.00492092569607
 30
0.0
 40
5.599999999999999
  1
　　．　　．　　
 41
0.9
  7
ｽﾀｲﾙ1
100
AcDbText
  0
LINE
  5
856
330
1A
100
AcDbEntity
  8
ZUWAKU
100
AcDbLine
 10
505.1991795116968
 20
15.19999986828872
 30
0.0
 11
552.5269557796685
 21
15.19999986828872
 31
0.0
  0
LINE
  5
857
330
1A
100
AcDbEntity
  8
ZUWAKU
100
AcDbLine
 10
505.1991795116968
 20
15.39999986828871
 30
0.0
 11
552.5269557796685
 21
15.39999986828871
 31
0.0
  0
LINE
  5
858
330
1A
100
AcDbEntity
  8
ZUWAKU
100
AcDbLine
 10
505.1991795116968
 20
15.59999986828871
 30
0.0
 11
552.5269557796685
 21
15.59999986828871
 31
0.0
  0
LINE
  5
85A
330
1A
100
AcDbEntity
  8
ZUWAKU
100
AcDbLine
 10
447.6243639845472
 20
29.99999986828868
 30
0.0
 11
447.6243639845474
 21
0.7999998682887508
 31
0.0
  0
LINE
  5
85B
330
1A
100
AcDbEntity
  8
ZUWAKU
100
AcDbLine
 10
447.8243639845472
 20
29.99999986828868
 30
0.0
 11
447.8243639845475
 21
0.7999998682887508
 31
0.0
  0
LINE
  5
85C
330
1A
100
AcDbEntity
  8
ZUWAKU
100
AcDbLine
 10
447.4243639845474
 20
29.99999986828868
 30
0.0
 11
447.4243639845474
 21
0.7999998682887508
 31
0.0
  0
TEXT
  5
85D
330
1A
100
AcDbEntity
  8
MOJI
100
AcDbText
 10
528.0409079858689
 20
18.00492092569607
 30
0.0
 40
5.599999999999999
  1
Ａ３
 41
0.9
  7
ｽﾀｲﾙ1
100
AcDbText
  0
LINE
  5
85E
330
1A
100
AcDbEntity
  8
ZUWAKU
100
AcDbLine
 10
504.9991795116969
 20
29.99999986828868
 30
0.0
 11
504.999179511697
 21
0.7999998682887508
 31
0.0
  0
LINE
  5
85F
330
1A
100
AcDbEntity
  8
ZUWAKU
100
AcDbLine
 10
505.1991795116968
 20
29.99999986828868
 30
0.0
 11
505.1991795116971
 21
0.7999998682887508
 31
0.0
  0
LINE
  5
860
330
1A
100
AcDbEntity
  8
ZUWAKU
100
AcDbLine
 10
504.799179511697
 20
29.99999986828868
 30
0.0
 11
504.799179511697
 21
0.7999998682887508
 31
0.0
  0
TEXT
  5
861
330
1A
100
AcDbEntity
  8
ZUWAKU
100
AcDbText
 10
462.1716760137121
 20
2.614070779428175
 30
0.0
 40
3.0
  1
色品番無し
 41
0.9
  7
ｽﾀｲﾙ1
100
AcDbText
  0
TEXT
  5
862
330
1A
100
AcDbEntity
  8
ZUWAKU
100
AcDbText
 10
506.6766245339067
 20
9.6553564066743
 30
0.0
 40
4.0
  1
縮尺
 41
0.9
  7
ｽﾀｲﾙ1
100
AcDbText
  0
TEXT
  5
863
330
1A
100
AcDbEntity
  8
MOJI
100
AcDbText
 10
528.0409079858689
 20
3.204920925696104
 30
0.0
 40
5.599999999999999
  1
１/２
 41
0.9
  7
ｽﾀｲﾙ1
100
AcDbText
  0
TEXT
  5
864
330
1A
100
AcDbEntity
  8
ZUWAKU
100
AcDbText
 10
449.3018090067569
 20
24.05535640667426
 30
0.0
 40
4.0
  1
品番
 41
0.9
  7
ｽﾀｲﾙ1
100
AcDbText
  0
TEXT
  5
865
330
1A
100
AcDbEntity
  8
ZUWAKU
100
AcDbText
 10
506.6766245339065
 20
24.05535640667426
 30
0.0
 40
4.0
  1
用紙
 41
0.9
  7
ｽﾀｲﾙ1
100
AcDbText
  0
LINE
  5
866
330
1A
100
AcDbEntity
  8
ZUWAKU
100
AcDbLine
 10
648.6172025237603
 20
29.99999986828868
 30
0.0
 11
648.6172025237606
 21
0.7999998682887508
 31
0.0
  0
LINE
  5
867
330
1A
100
AcDbEntity
  8
ZUWAKU
100
AcDbLine
 10
648.8172025237604
 20
29.99999986828868
 30
0.0
 11
648.8172025237607
 21
0.7999998682887508
 31
0.0
  0
LINE
  5
868
330
1A
100
AcDbEntity
  8
ZUWAKU
100
AcDbLine
 10
648.4172025237605
 20
29.99999986828868
 30
0.0
 11
648.4172025237605
 21
0.7999998682887508
 31
0.0
  0
LINE
  5
869
330
1A
100
AcDbEntity
  8
ZUWAKU
100
AcDbLine
 10
552.7269557796683
 20
29.99999986828868
 30
0.0
 11
552.7269557796684
 21
0.7999998682887508
 31
0.0
  0
LINE
  5
86A
330
1A
100
AcDbEntity
  8
ZUWAKU
100
AcDbLine
 10
552.9269557796683
 20
29.99999986828868
 30
0.0
 11
552.9269557796685
 21
0.7999998682887508
 31
0.0
  0
LINE
  5
86B
330
1A
100
AcDbEntity
  8
ZUWAKU
100
AcDbLine
 10
552.5269557796685
 20
29.99999986828868
 30
0.0
 11
552.5269557796685
 21
0.7999998682887508
 31
0.0
  0
TEXT
  5
86C
330
1A
100
AcDbEntity
  8
ZUWAKU
100
AcDbText
 10
650.29464754597
 20
24.05535640667426
 30
0.0
 40
4.0
  1
DATE
 41
0.9
  7
ｽﾀｲﾙ1
100
AcDbText
  0
LINE
  5
86D
330
1A
100
AcDbEntity
  8
ZUWAKU
100
AcDbLine
 10
697.2490105620972
 20
29.99999986828868
 30
0.0
 11
697.2490105620972
 21
0.7999998682887508
 31
0.0
  0
LINE
  5
86E
330
1A
100
AcDbEntity
  8
ZUWAKU
100
AcDbLine
 10
697.4490105620973
 20
29.99999986828868
 30
0.0
 11
697.4490105620973
 21
0.7999998682887508
 31
0.0
  0
LINE
  5
86F
330
1A
100
AcDbEntity
  8
ZUWAKU
100
AcDbLine
 10
697.6490105620971
 20
29.99999986828868
 30
0.0
 11
697.6490105620974
 21
0.7999998682887508
 31
0.0
  0
LINE
  5
870
330
1A
100
AcDbEntity
  8
ZUWAKU
100
AcDbLine
 10
697.8490105620972
 20
29.99999986828868
 30
0.0
 11
697.8490105620974
 21
0.7999998682887508
 31
0.0
  0
TEXT
  5
871
330
1A
100
AcDbEntity
  8
ZUWAKU
100
AcDbText
 10
708.5280842057998
 20
17.55383920397548
 30
0.0
 40
6.0
  1
積水化学工業株式会社
 41
0.9
  7
ｽﾀｲﾙ1
100
AcDbText
  0
TEXT
  5
872
330
1A
100
AcDbEntity
  8
ZUWAKU
100
AcDbText
 10
708.5280842057998
 20
6.648840182142748
 30
0.0
 40
6.0
  1
建材事業部
 41
0.9
  7
ｽﾀｲﾙ1
100
AcDbText
  0
TEXT
  5
55B9
330
1A
100
AcDbEntity
  8
MOJI
100
AcDbText
 10
93.35778960172513
 20
12.74117799856344
 30
0.0
 40
6.0
  1
ユニシェイプ
 41
0.9
  7
ｽﾀｲﾙ1
100
AcDbText
  0
TEXT
  5
55BE
330
1A
100
AcDbEntity
  8
MOJI
100
AcDbText
 10
233.179673069384
 20
4.786871367267067
 30
0.0
 40
5.599999999999999
  1
ＵＳＴ１４０
 41
0.9
  7
ｽﾀｲﾙ1
100
AcDbText
  0
TEXT
  5
6A8C
330
1A
100
AcDbEntity
  8
MOJI
100
AcDbText
 10
233.179673069384
 20
19.58687136726699
 30
0.0
 40
5.599999999999999
  1
のきとい切断治具
 41
0.9
  7
ｽﾀｲﾙ1
100
AcDbText
  0
TEXT
  5
6B21
330
1A
100
AcDbEntity
  8
MOJI
100
AcDbText
 10
463.246432004558
 20
11.94261758994865
 30
0.0
 40
5.599999999999999
  1
ＧＵ６６
 41
0.9
  7
ｽﾀｲﾙ1
100
AcDbText
  0
ARC
  5
740C
330
1A
100
AcDbEntity
  8
SEIHIN
100
AcDbCircle
 10
402.6916036144402
 20
1148.081829541912
 30
0.0
 40
1010.0
100
AcDbArc
 50
266.8161432143398
 51
273.1617594560321
  0
ARC
  5
740D
330
1A
100
AcDbEntity
  8
SEIHIN
100
AcDbCircle
 10
402.6916036144402
 20
1148.081829541912
 30
0.0
 40
1000.0
100
AcDbArc
 50
267.262553375748
 51
272.6029864808052
  0
LINE
  5
7412
330
1A
100
AcDbEntity
  8
SEIHIN
100
AcDbLine
 10
239.6897914066558
 20
269.4379371931642
 30
0.0
 11
239.6897914066558
 21
138.0818295419126
 31
0.0
  0
LINE
  5
7413
330
1A
100
AcDbEntity
  8
SEIHIN
100
AcDbLine
 10
242.689791406656
 20
279.6429382209639
 30
0.0
 11
242.6897914066562
 21
138.0818295419126
 31
0.0
  0
LINE
  5
7414
330
1A
100
AcDbEntity
  8
SEIHIN
100
AcDbLine
 10
192.6897914066556
 20
279.6429382209639
 30
0.0
 11
192.6897914066556
 21
138.0818295419126
 31
0.0
  0
LINE
  5
7415
330
1A
100
AcDbEntity
  8
SEIHIN
100
AcDbLine
 10
195.6897914066557
 20
138.0818295419126
 30
0.0
 11
195.6897914066557
 21
269.4379371931642
 31
0.0
  0
ARC
  5
7416
330
1A
100
AcDbEntity
  8
SEIHIN
100
AcDbCircle
 10
1331.491091106041
 20
267.5693985538856
 30
0.0
 40
1010.0
100
AcDbArc
 50
179.427399885607
 51
186.3672203186024
  0
ARC
  5
7417
330
1A
100
AcDbEntity
  8
SEIHIN
100
AcDbCircle
 10
1331.491091106041
 20
267.5693985538856
 30
0.0
 40
1000.0
100
AcDbArc
 50
179.9992870438939
 51
185.9056404636405
  0
LINE
  5
7418
330
1A
100
AcDbEntity
  8
SEIHIN
100
AcDbLine
 10
192.6897914066553
 20
213.3608987269245
 30
0.0
 11
192.6897914066553
 21
153.3383399475039
 31
0.0
  0
LINE
  5
7419
330
1A
100
AcDbEntity
  8
SEIHIN
100
AcDbLine
 10
242.6897914066557
 20
213.3608987269245
 30
0.0
 11
242.6897914066557
 21
153.3383399475038
 31
0.0
  0
LINE
  5
7444
330
1A
100
AcDbEntity
  8
SEIHIN
100
AcDbLine
 10
237.6897914066558
 20
160.7818295419129
 30
0.0
 11
197.6897914066562
 21
160.7818295419129
 31
0.0
  0
ARC
  5
7445
330
1A
100
AcDbEntity
  8
SEIHIN
100
AcDbCircle
 10
237.6897914066558
 20
158.7818295419129
 30
0.0
 40
2.000000000000028
100
AcDbArc
 50
0.0
 51
90.0
  0
ARC
  5
7447
330
1A
100
AcDbEntity
  8
SEIHIN
100
AcDbCircle
 10
197.6897914066562
 20
158.7818295419129
 30
0.0
 40
2.000000000000454
100
AcDbArc
 50
90.0
 51
180.0
  0
LINE
  5
744C
330
1A
100
AcDbEntity
  8
SEIHIN
100
AcDbLine
 10
242.6897914066562
 20
153.7818295419129
 30
0.0
 11
239.6897914066558
 21
153.7818295419129
 31
0.0
  0
LINE
  5
744F
330
1A
100
AcDbEntity
  8
SEIHIN
100
AcDbLine
 10
195.6897914066557
 20
153.7818295419129
 30
0.0
 11
192.6897914066557
 21
153.7818295419129
 31
0.0
  0
LINE
  5
7454
330
1A
100
AcDbEntity
  8
SEIHIN
100
AcDbLine
 10
197.6897914066557
 20
145.0818295419125
 30
0.0
 11
237.6897914066558
 21
145.0818295419125
 31
0.0
  0
ARC
  5
7455
330
1A
100
AcDbEntity
  8
SEIHIN
100
AcDbCircle
 10
237.6897914066558
 20
143.0818295419125
 30
0.0
 40
2.0
100
AcDbArc
 50
0.0
 51
90.0
  0
ARC
  5
7456
330
1A
100
AcDbEntity
  8
SEIHIN
100
AcDbCircle
 10
197.6897914066557
 20
143.0818295419125
 30
0.0
 40
2.000000000000454
100
AcDbArc
 50
90.0
 51
180.0
  0
LINE
  5
7457
330
1A
100
AcDbEntity
  8
SEIHIN
100
AcDbLine
 10
239.6897914066558
 20
138.0818295419126
 30
0.0
 11
242.6897914066557
 21
138.0818295419126
 31
0.0
  0
LINE
  5
7458
330
1A
100
AcDbEntity
  8
SEIHIN
100
AcDbLine
 10
192.6897914066557
 20
138.0818295419126
 30
0.0
 11
195.6897914066553
 21
138.0818295419126
 31
0.0
  0
ARC
  5
745F
330
1A
100
AcDbEntity
  8
SEIHIN
100
AcDbCircle
 10
346.7626324283132
 20
142.6361819895145
 30
0.0
 40
3.000000000000182
100
AcDbArc
 50
185.1322757015123
 51
266.8161432143398
  0
LINE
  5
7460
330
1A
100
AcDbEntity
  8
SEIHIN
100
AcDbLine
 10
350.9773937631139
 20
163.7818295419129
 30
0.0
 11
337.7930908783018
 21
163.7818295419129
 31
0.0
  0
ARC
  5
7461
330
1A
100
AcDbEntity
  8
SEIHIN
100
AcDbCircle
 10
329.7089094845109
 20
155.7818295419129
 30
0.0
 40
2.000000000000371
100
AcDbArc
 50
186.3672203186024
 51
270.0
  0
LINE
  5
7462
330
1A
100
AcDbEntity
  8
SEIHIN
100
AcDbLine
 10
329.7089094845109
 20
153.7818295419129
 30
0.0
 11
340.9210853986873
 21
153.7818295419129
 31
0.0
  0
ARC
  5
7463
330
1A
100
AcDbEntity
  8
SEIHIN
100
AcDbCircle
 10
340.9210853986873
 20
151.7818295419129
 30
0.0
 40
2.000000000000394
100
AcDbArc
 50
5.132275701510748
 51
90.0
  0
LINE
  5
7464
330
1A
100
AcDbEntity
  8
SEIHIN
100
AcDbLine
 10
342.9130670620611
 20
151.9607402816251
 30
0.0
 11
343.7746599332531
 21
142.3678158799461
 31
0.0
  0
ARC
  5
7465
330
1A
100
AcDbEntity
  8
SEIHIN
100
AcDbCircle
 10
337.7930908783018
 20
164.7818295419129
 30
0.0
 40
1.000000000000375
100
AcDbArc
 50
185.9056404636388
 51
270.0
  0
ARC
  5
7466
330
1A
100
AcDbEntity
  8
SEIHIN
100
AcDbCircle
 10
355.0278402298404
 20
151.2206728806568
 30
0.0
 40
2.000000000000131
100
AcDbArc
 50
185.1322757015139
 51
267.262553375748
  0
LINE
  5
7467
330
1A
100
AcDbEntity
  8
SEIHIN
100
AcDbLine
 10
353.0358585664671
 20
151.0417621409446
 30
0.0
 11
351.9733845948003
 21
162.871284911769
 31
0.0
  0
ARC
  5
7468
330
1A
100
AcDbEntity
  8
SEIHIN
100
AcDbCircle
 10
350.9773937631139
 20
162.7818295419129
 30
0.0
 40
1.0
100
AcDbArc
 50
5.132275701513991
 51
90.0
  0
LINE
  5
747E
330
1A
100
AcDbEntity
  8
SEIHIN
100
AcDbLine
 10
200.6897914066557
 20
266.0818295419129
 30
0.0
 11
200.6897914066557
 21
266.5818295419128
 31
0.0
  0
LINE
  5
747F
330
1A
100
AcDbEntity
  8
SEIHIN
100
AcDbLine
 10
234.6897914066562
 20
266.5818295419128
 30
0.0
 11
234.6897914066562
 21
266.0818295419129
 31
0.0
  0
LINE
  5
7480
330
1A
100
AcDbEntity
  8
SEIHIN
100
AcDbLine
 10
200.6897914066557
 20
266.5818295419128
 30
0.0
 11
200.6897914066557
 21
268.2048570930954
 31
0.0
  0
LINE
  5
7481
330
1A
100
AcDbEntity
  8
SEIHIN
100
AcDbLine
 10
234.6897914066562
 20
268.2048570930954
 30
0.0
 11
234.6897914066562
 21
266.5818295419128
 31
0.0
  0
LINE
  5
7482
330
1A
100
AcDbEntity
  8
SEIHIN
100
AcDbLine
 10
200.6897914066557
 20
268.2048570930954
 30
0.0
 11
200.6897914066557
 21
268.2454915915241
 31
0.0
  0
LINE
  5
7484
330
1A
100
AcDbEntity
  8
SEIHIN
100
AcDbLine
 10
200.6897914066557
 20
265.0818295419128
 30
0.0
 11
200.6897914066557
 21
267.9670411851279
 31
0.0
  0
LINE
  5
7485
330
1A
100
AcDbEntity
  8
SEIHIN
100
AcDbLine
 10
198.6897914066562
 20
267.9670411851279
 30
0.0
 11
198.6897914066562
 21
265.0818295419128
 31
0.0
  0
LINE
  5
7486
330
1A
100
AcDbEntity
  8
SEIHIN
100
AcDbLine
 10
234.6897914066562
 20
267.9670411851279
 30
0.0
 11
234.6897914066562
 21
265.0818295419128
 31
0.0
  0
LINE
  5
7487
330
1A
100
AcDbEntity
  8
SEIHIN
100
AcDbLine
 10
236.6897914066557
 20
265.0818295419128
 30
0.0
 11
236.6897914066557
 21
267.9670411851279
 31
0.0
  0
ARC
  5
7488
330
1A
100
AcDbEntity
  8
SEIHIN
100
AcDbCircle
 10
199.6897914066557
 20
265.0818295419126
 30
0.0
 40
1.0
100
AcDbArc
 50
270.0
 51
0.0000000000162844
  0
ARC
  5
7489
330
1A
100
AcDbEntity
  8
SEIHIN
100
AcDbCircle
 10
199.6897914066557
 20
265.081829541912
 30
0.0
 40
0.9999999999992041
100
AcDbArc
 50
179.9999999999544
 51
270.0
  0
ARC
  5
748A
330
1A
100
AcDbEntity
  8
SEIHIN
100
AcDbCircle
 10
235.6897914066558
 20
265.0818295419126
 30
0.0
 40
1.0
100
AcDbArc
 50
270.0
 51
0.0000000000162844
  0
ARC
  5
748B
330
1A
100
AcDbEntity
  8
SEIHIN
100
AcDbCircle
 10
235.6897914066558
 20
265.081829541912
 30
0.0
 40
0.9999999999995452
100
AcDbArc
 50
179.9999999999544
 51
270.0
  0
LINE
  5
748C
330
1A
100
AcDbEntity
  8
SEIHIN
100
AcDbLine
 10
236.6897914066557
 20
267.9670411851279
 30
0.0
 11
236.6897914066557
 21
269.8865650948134
 31
0.0
  0
LINE
  5
748E
330
1A
100
AcDbEntity
  8
SEIHIN
100
AcDbLine
 10
200.6897914066557
 20
267.9670411851279
 30
0.0
 11
200.6897914066557
 21
279.0887282469627
 31
0.0
  0
LINE
  5
748F
330
1A
100
AcDbEntity
  8
SEIHIN
100
AcDbLine
 10
234.6897914066563
 20
279.0887282469627
 30
0.0
 11
234.6897914066562
 21
267.9670411851279
 31
0.0
  0
LINE
  5
7491
330
1A
100
AcDbEntity
  8
SEIHIN
100
AcDbLine
 10
198.6897914066562
 20
269.8865650948134
 30
0.0
 11
198.6897914066562
 21
267.9670411851279
 31
0.0
  0
LINE
  5
7498
330
1A
100
AcDbEntity
  8
SEIHIN
100
AcDbLine
 10
239.6897914066558
 20
277.6629254028427
 30
0.0
 11
239.6897914066558
 21
279.6429382209636
 31
0.0
  0
LINE
  5
7499
330
1A
100
AcDbEntity
  8
SEIHIN
100
AcDbLine
 10
239.6897914066558
 20
279.6429382209636
 30
0.0
 11
242.6897914066562
 21
279.6429382209636
 31
0.0
  0
LINE
  5
749B
330
1A
100
AcDbEntity
  8
SEIHIN
100
AcDbLine
 10
195.6897914066557
 20
279.6429382209639
 30
0.0
 11
195.6897914066557
 21
277.6629254028431
 31
0.0
  0
LINE
  5
749C
330
1A
100
AcDbEntity
  8
SEIHIN
100
AcDbLine
 10
192.6897914066557
 20
279.6429382209639
 30
0.0
 11
195.6897914066557
 21
279.6429382209639
 31
0.0
  0
LINE
  5
749D
330
1A
100
AcDbEntity
  8
SEIHIN
100
AcDbLine
 10
236.6897914066557
 20
269.8865650948134
 30
0.0
 11
236.6897914066557
 21
271.5208832658146
 31
0.0
  0
LINE
  5
74A1
330
1A
100
AcDbEntity
  8
SEIHIN
100
AcDbLine
 10
200.6897914066557
 20
274.6429382209635
 30
0.0
 11
234.6897914066562
 21
274.6429382209635
 31
0.0
  0
LINE
  5
74A3
330
1A
100
AcDbEntity
  8
SEIHIN
100
AcDbLine
 10
200.6897914066557
 20
271.5208832658146
 30
0.0
 11
234.6897914066562
 21
271.5208832658146
 31
0.0
  0
LINE
  5
74A6
330
1A
100
AcDbEntity
  8
SEIHIN
100
AcDbLine
 10
198.6897914066562
 20
271.5208832658146
 30
0.0
 11
198.6897914066562
 21
269.8865650948134
 31
0.0
  0
LINE
  5
74A8
330
1A
100
AcDbEntity
  8
SEIHIN
100
AcDbLine
 10
236.6897914066557
 20
274.6429382209635
 30
0.0
 11
237.6897914066562
 21
274.6429382209635
 31
0.0
  0
LINE
  5
74A9
330
1A
100
AcDbEntity
  8
SEIHIN
100
AcDbLine
 10
236.6897914066557
 20
274.6429382209635
 30
0.0
 11
236.6897914066557
 21
271.5208832658146
 31
0.0
  0
LINE
  5
74AA
330
1A
100
AcDbEntity
  8
SEIHIN
100
AcDbLine
 10
236.6897914066557
 20
271.5208832658146
 30
0.0
 11
237.6897914066562
 21
271.5208832658146
 31
0.0
  0
LINE
  5
74AC
330
1A
100
AcDbEntity
  8
SEIHIN
100
AcDbLine
 10
239.6897914066558
 20
277.6629254028427
 30
0.0
 11
239.6897914066558
 21
276.7227353613774
 31
0.0
  0
ARC
  5
74AD
330
1A
100
AcDbEntity
  8
SEIHIN
100
AcDbCircle
 10
237.656710890827
 20
276.6762803302106
 30
0.0
 40
2.033611185493656
100
AcDbArc
 50
270.9320648677705
 51
1.308956592690462
  0
ARC
  5
74AE
330
1A
100
AcDbEntity
  8
SEIHIN
100
AcDbCircle
 10
237.6426474860795
 20
269.4739651684525
 30
0.0
 40
2.047460926747028
100
AcDbArc
 50
358.9917475624091
 51
88.68061637656522
  0
LINE
  5
74B3
330
1A
100
AcDbEntity
  8
SEIHIN
100
AcDbLine
 10
197.6897914066562
 20
271.5208832658146
 30
0.0
 11
198.6897914066562
 21
271.5208832658146
 31
0.0
  0
LINE
  5
74B4
330
1A
100
AcDbEntity
  8
SEIHIN
100
AcDbLine
 10
198.6897914066562
 20
271.5208832658146
 30
0.0
 11
198.6897914066562
 21
274.6429382209635
 31
0.0
  0
LINE
  5
74B5
330
1A
100
AcDbEntity
  8
SEIHIN
100
AcDbLine
 10
197.6897914066562
 20
274.6429382209635
 30
0.0
 11
198.6897914066562
 21
274.6429382209635
 31
0.0
  0
ARC
  5
74B6
330
1A
100
AcDbEntity
  8
SEIHIN
100
AcDbCircle
 10
197.7354699722564
 20
276.6883950211358
 30
0.0
 40
2.04596677703388
100
AcDbArc
 50
179.0382791261182
 51
268.720699413444
  0
LINE
  5
74B7
330
1A
100
AcDbEntity
  8
SEIHIN
100
AcDbLine
 10
195.6897914066557
 20
276.7227353613775
 30
0.0
 11
195.6897914066557
 21
277.6629254028431
 31
0.0
  0
ARC
  5
74B9
330
1A
100
AcDbEntity
  8
SEIHIN
100
AcDbCircle
 10
197.7238669430489
 20
269.4865131497513
 30
0.0
 40
2.034655477301234
100
AcDbArc
 50
90.95960997874025
 51
181.3680260822667
  0
LINE
  5
74BA
330
1A
100
AcDbEntity
  8
SEIHIN
100
AcDbLine
 10
234.6897914066562
 20
279.0887282469627
 30
0.0
 11
200.6897914066557
 21
279.0887282469627
 31
0.0
  0
LINE
  5
74BB
330
1A
100
AcDbEntity
  8
SEIHIN
100
AcDbLine
 10
340.9191513581918
 20
267.0264947062028
 30
0.0
 11
352.5217286692704
 21
275.4526661592482
 31
0.0
  0
LINE
  5
74BC
330
1A
100
AcDbEntity
  8
SEIHIN
100
AcDbLine
 10
352.1603301022587
 20
278.8978644228845
 30
0.0
 11
340.0330325866998
 21
270.0906239806579
 31
0.0
  0
ARC
  5
74BD
330
1A
100
AcDbEntity
  8
SEIHIN
100
AcDbCircle
 10
1331.491091106041
 20
267.5693985538856
 30
0.0
 40
1000.0
100
AcDbArc
 50
180.0185770793029
 51
180.1425273526271
  0
ARC
  5
74BE
330
1A
100
AcDbEntity
  8
SEIHIN
100
AcDbCircle
 10
1331.491091106041
 20
267.5693985538856
 30
0.0
 40
1000.0
100
AcDbArc
 50
180.0185770793029
 51
180.1425273526271
  0
LINE
  5
74BF
330
1A
100
AcDbEntity
  8
SEIHIN
100
AcDbLine
 10
338.2916036144256
 20
269.7088963325016
 30
0.0
 11
338.115290420249
 21
269.7607531543182
 31
0.0
  0
LINE
  5
74C0
330
1A
100
AcDbEntity
  8
SEIHIN
100
AcDbLine
 10
338.8577902307333
 20
269.7088963325016
 30
0.0
 11
338.2916036144256
 21
269.7088963325016
 31
0.0
  0
ARC
  5
74C1
330
1A
100
AcDbEntity
  8
SEIHIN
100
AcDbCircle
 10
332.4911436164129
 20
267.2454915915241
 30
0.0
 40
1.000000000000052
100
AcDbArc
 50
73.61045966596619
 51
180.0185770793013
  0
LINE
  5
74C2
330
1A
100
AcDbEntity
  8
SEIHIN
100
AcDbLine
 10
332.7733099404044
 20
268.2048570930954
 30
0.0
 11
338.2916036144256
 21
266.5818295419128
 31
0.0
  0
LINE
  5
74C3
330
1A
100
AcDbEntity
  8
SEIHIN
100
AcDbLine
 10
338.2916036144256
 20
266.5818295419128
 30
0.0
 11
338.2916036144256
 21
266.0818295419129
 31
0.0
  0
ARC
  5
74C4
330
1A
100
AcDbEntity
  8
SEIHIN
100
AcDbCircle
 10
337.9810454682751
 20
271.072175585812
 30
0.0
 40
5.000000000000018
100
AcDbArc
 50
273.561026374857
 51
305.9883808707543
  0
ARC
  5
74C5
330
1A
100
AcDbEntity
  8
SEIHIN
100
AcDbCircle
 10
338.8577902307333
 20
271.7088963325016
 30
0.0
 40
2.0
100
AcDbArc
 50
270.0
 51
305.9883808707534
  0
LINE
  5
74C6
330
1A
100
AcDbEntity
  8
SEIHIN
100
AcDbLine
 10
336.2916036144251
 20
268.5818295419128
 30
0.0
 11
332.4910911833835
 21
268.5818295419128
 31
0.0
  0
ARC
  5
74C7
330
1A
100
AcDbEntity
  8
SEIHIN
100
AcDbCircle
 10
336.2916036144251
 20
270.5818295419128
 30
0.0
 40
2.000000000000454
100
AcDbArc
 50
270.0
 51
0.0
  0
LINE
  5
74C8
330
1A
100
AcDbEntity
  8
SEIHIN
100
AcDbLine
 10
338.2916036144256
 20
277.6429382209636
 30
0.0
 11
338.2916036144256
 21
270.5818295419128
 31
0.0
  0
ARC
  5
74C9
330
1A
100
AcDbEntity
  8
SEIHIN
100
AcDbCircle
 10
336.2916036144251
 20
277.6429382209636
 30
0.0
 40
2.000000000000454
100
AcDbArc
 50
0.0
 51
90.0
  0
LINE
  5
74CA
330
1A
100
AcDbEntity
  8
SEIHIN
100
AcDbLine
 10
336.2916036144251
 20
279.6429382209636
 30
0.0
 11
323.5414277802501
 21
279.6429382209636
 31
0.0
  0
ARC
  5
74CB
330
1A
100
AcDbEntity
  8
SEIHIN
100
AcDbCircle
 10
323.5414277802501
 20
277.6429382209636
 30
0.0
 40
2.000000000000079
100
AcDbArc
 50
90.0
 51
179.4273998856054
  0
ARC
  5
74CC
330
1A
100
AcDbEntity
  8
SEIHIN
100
AcDbCircle
 10
332.4910911833835
 20
267.5818295419129
 30
0.0
 40
1.000000000000112
100
AcDbArc
 50
90.0
 51
179.9992870438955
  0
ARC
  5
74CD
330
1A
100
AcDbEntity
  8
SEIHIN
100
AcDbCircle
 10
350.7588651353203
 20
277.8800746870138
 30
0.0
 40
3.000000000000054
100
AcDbArc
 50
305.9883808707543
 51
5.988380870763182
  0
ARC
  5
74CE
330
1A
100
AcDbEntity
  8
SEIHIN
100
AcDbCircle
 10
352.7479512802419
 20
278.0887282469627
 30
0.0
 40
1.000000000000055
100
AcDbArc
 50
5.988380870763182
 51
125.9883808707534
  0
LINE
  5
74D7
330
1A
100
AcDbEntity
  8
SEIHIN
100
AcDbLine
 10
472.4916036144199
 20
217.4271675832225
 30
0.0
 11
472.4916036144199
 21
277.6429382209636
 31
0.0
  0
LINE
  5
74D8
330
1A
100
AcDbEntity
  8
SEIHIN
100
AcDbLine
 10
453.5682347837082
 20
277.7747224869835
 30
0.0
 11
450.6592975333814
 21
233.7237064493598
 31
0.0
  0
LINE
  5
74D9
330
1A
100
AcDbEntity
  8
SEIHIN
100
AcDbLine
 10
461.1969999594339
 20
142.1526105687021
 30
0.0
 11
472.05723872209
 21
211.8206453722664
 31
0.0
  0
LINE
  5
74DA
330
1A
100
AcDbEntity
  8
SEIHIN
100
AcDbLine
 10
462.1765697364658
 20
213.3608987269245
 30
0.0
 11
452.8199211482283
 21
153.3383399475038
 31
0.0
  0
ARC
  5
74DB
330
1A
100
AcDbEntity
  8
SEIHIN
100
AcDbCircle
 10
458.232799263747
 20
142.6146865750996
 30
0.0
 40
2.999999999999903
100
AcDbArc
 50
273.1617594560321
 51
351.1397267088256
  0
ARC
  5
74DC
330
1A
100
AcDbEntity
  8
SEIHIN
100
AcDbCircle
 10
447.8795866554164
 20
154.108466624833
 30
0.0
 40
5.000000000000136
100
AcDbArc
 50
272.6029864808052
 51
351.139726708824
  0
ARC
  5
74DD
330
1A
100
AcDbEntity
  8
SEIHIN
100
AcDbCircle
 10
453.153864413131
 20
233.5589761168349
 30
0.0
 40
2.499999999999966
100
AcDbArc
 50
176.2219215780946
 51
262.2469128134947
  0
LINE
  5
74DE
330
1A
100
AcDbEntity
  8
SEIHIN
100
AcDbLine
 10
452.8166036144125
 20
231.0818295419129
 30
0.0
 11
453.6916036144194
 21
233.5818295419129
 31
0.0
  0
LINE
  5
74DF
330
1A
100
AcDbEntity
  8
SEIHIN
100
AcDbLine
 10
453.6916036144194
 20
233.5818295419129
 30
0.0
 11
457.4916036144195
 21
233.5818295419129
 31
0.0
  0
ARC
  5
74E0
330
1A
100
AcDbEntity
  8
SEIHIN
100
AcDbCircle
 10
457.4916036144195
 20
228.5818295419129
 30
0.0
 40
5.000000000000454
100
AcDbArc
 50
0.0
 51
90.0
  0
LINE
  5
74E1
330
1A
100
AcDbEntity
  8
SEIHIN
100
AcDbLine
 10
462.49160361442
 20
228.5818295419129
 30
0.0
 11
462.49160361442
 21
217.4271675832225
 31
0.0
  0
ARC
  5
74E2
330
1A
100
AcDbEntity
  8
SEIHIN
100
AcDbCircle
 10
436.0916036144199
 20
217.4271675832225
 30
0.0
 40
26.40000000000009
100
AcDbArc
 50
351.139726708824
 51
0.0
  0
ARC
  5
74E3
330
1A
100
AcDbEntity
  8
SEIHIN
100
AcDbCircle
 10
436.0916036144199
 20
217.4271675832225
 30
0.0
 40
36.40000000000021
100
AcDbArc
 50
351.1397267088256
 51
0.0
  0
ARC
  5
7520
330
1A
100
AcDbEntity
  8
SEIHIN
100
AcDbCircle
 10
470.49160361442
 20
277.6429382209636
 30
0.0
 40
2.0
100
AcDbArc
 50
0.0
 51
90.0
  0
LINE
  5
7521
330
1A
100
AcDbEntity
  8
SEIHIN
100
AcDbLine
 10
470.49160361442
 20
279.6429382209636
 30
0.0
 11
455.5638882875086
 21
279.6429382209636
 31
0.0
  0
ARC
  5
7522
330
1A
100
AcDbEntity
  8
SEIHIN
100
AcDbCircle
 10
455.5638882875086
 20
277.6429382209636
 30
0.0
 40
2.000000000000344
100
AcDbArc
 50
90.0
 51
176.2219215780946
  0
LINE
  5
757D
330
1A
100
AcDbEntity
  8
SEIHIN
100
AcDbLine
 10
472.4916036144199
 20
435.0080420268221
 30
0.0
 11
321.5415276546036
 21
435.0080420268222
 31
0.0
  0
LINE
  5
757F
330
1A
100
AcDbEntity
  8
SEIHIN
100
AcDbLine
 10
353.0358585664671
 20
427.0080420268216
 30
0.0
 11
353.0358585664671
 21
435.0080420268221
 31
0.0
  0
LINE
  5
7580
330
1A
100
AcDbEntity
  8
SEIHIN
100
AcDbLine
 10
351.9733845948003
 20
435.008042026822
 30
0.0
 11
351.9733845948003
 21
427.0080420268216
 31
0.0
  0
LINE
  5
7581
330
1A
100
AcDbEntity
  8
SEIHIN
100
AcDbLine
 10
350.9773937631139
 20
427.0080420268216
 30
0.0
 11
350.9773937631139
 21
435.008042026822
 31
0.0
  0
LINE
  5
7582
330
1A
100
AcDbEntity
  8
SEIHIN
100
AcDbLine
 10
354.9323216659436
 20
435.0080420268221
 30
0.0
 11
354.9323216659436
 21
385.0080420268221
 31
0.0
  0
ARC
  5
7583
330
1A
100
AcDbEntity
  8
SEIHIN
100
AcDbCircle
 10
663.7354211738275
 20
395.5539808129961
 30
0.0
 40
327.437859579651
100
AcDbArc
 50
173.6735368643852
 51
173.9599734633248
  0
LINE
  5
758A
330
1A
100
AcDbEntity
  8
SEIHIN
100
AcDbLine
 10
337.7930908783018
 20
429.0080420268217
 30
0.0
 11
337.7930908783018
 21
427.0080420268217
 31
0.0
  0
LINE
  5
758B
330
1A
100
AcDbEntity
  8
SEIHIN
100
AcDbLine
 10
336.7983981853808
 20
427.0080420268217
 30
0.0
 11
336.7983981853808
 21
429.0080420268217
 31
0.0
  0
ARC
  5
7595
330
1A
100
AcDbEntity
  8
SEIHIN
100
AcDbCircle
 10
230.0151557357812
 20
428.2048605695398
 30
0.0
 40
101.4822078165092
100
AcDbArc
 50
359.8888782660552
 51
0.4534724768192544
  0
ARC
  5
7596
330
1A
100
AcDbEntity
  8
SEIHIN
100
AcDbCircle
 10
255.6456610064815
 20
427.7346502294888
 30
0.0
 40
75.85200437863595
100
AcDbArc
 50
359.4511388269224
 51
0.2065104302039978
  0
ARC
  5
759D
330
1A
100
AcDbEntity
  8
SEIHIN
100
AcDbCircle
 10
226.7107040322853
 20
427.8112234651117
 30
0.0
 40
101.7866407589006
100
AcDbArc
 50
359.5478838496824
 51
0.1107893910143577
  0
ARC
  5
759E
330
1A
100
AcDbEntity
  8
SEIHIN
100
AcDbCircle
 10
252.418103573425
 20
428.2814338492543
 30
0.0
 40
76.07954214793507
100
AcDbArc
 50
359.7941071824408
 51
0.5472195768650671
  0
LINE
  5
75A5
330
1A
100
AcDbEntity
  8
SEIHIN
100
AcDbLine
 10
338.8577902307333
 20
393.0080420268216
 30
0.0
 11
338.8577902307333
 21
427.0080420268217
 31
0.0
  0
LINE
  5
75A8
330
1A
100
AcDbEntity
  8
SEIHIN
100
AcDbLine
 10
338.115290420249
 20
429.0080420268217
 30
0.0
 11
321.4988209531597
 21
429.0080420268218
 31
0.0
  0
LINE
  5
75A9
330
1A
100
AcDbEntity
  8
SEIHIN
100
AcDbLine
 10
338.115290420249
 20
429.0080420268217
 30
0.0
 11
338.115290420249
 21
430.0080420268217
 31
0.0
  0
LINE
  5
75AA
330
1A
100
AcDbEntity
  8
SEIHIN
100
AcDbLine
 10
321.5158611936549
 20
427.0080420268217
 30
0.0
 11
321.4988209531597
 21
427.0080420268217
 31
0.0
  0
LINE
  5
75AC
330
1A
100
AcDbEntity
  8
SEIHIN
100
AcDbLine
 10
321.4988209531597
 20
427.0080420268217
 30
0.0
 11
321.4988209531597
 21
393.0080420268216
 31
0.0
  0
LINE
  5
75AD
330
1A
100
AcDbEntity
  8
SEIHIN
100
AcDbLine
 10
321.5158611936549
 20
427.0080420268217
 30
0.0
 11
353.7588651353203
 21
427.0080420268217
 31
0.0
  0
LINE
  5
75B0
330
1A
100
AcDbEntity
  8
SEIHIN
100
AcDbLine
 10
321.5158611936549
 20
427.0080420268217
 30
0.0
 11
321.5158611936549
 21
393.0080420268216
 31
0.0
  0
LINE
  5
75BD
330
1A
100
AcDbEntity
  8
SEIHIN
100
AcDbLine
 10
321.4988209531597
 20
435.0080420268222
 30
0.0
 11
321.4988209531597
 21
429.0080420268217
 31
0.0
  0
LINE
  5
75D8
330
1A
100
AcDbEntity
  8
SEIHIN
100
AcDbLine
 10
353.7588651353203
 20
393.0080420268216
 30
0.0
 11
353.7588651353203
 21
427.0080420268216
 31
0.0
  0
LINE
  5
75E1
330
1A
100
AcDbEntity
  8
SEIHIN
100
AcDbLine
 10
338.2916036144256
 20
435.0080420268216
 30
0.0
 11
338.2916036144256
 21
431.6354649629869
 31
0.0
  0
LINE
  5
75E3
330
1A
100
AcDbEntity
  8
SEIHIN
100
AcDbLine
 10
321.4988209531597
 20
432.0080420268216
 30
0.0
 11
338.2916036144256
 21
432.0080420268216
 31
0.0
  0
LINE
  5
75EE
330
1A
100
AcDbEntity
  8
SEIHIN
100
AcDbLine
 10
450.7942185222186
 20
435.008042026822
 30
0.0
 11
450.7942185222186
 21
385.0080420268213
 31
0.0
  0
ARC
  5
75F4
330
1A
100
AcDbEntity
  8
SEIHIN
100
AcDbCircle
 10
472.4916036144199
 20
430.0080420268217
 30
0.0
 40
2.0
100
AcDbArc
 50
90.0
 51
180.0
  0
ARC
  5
75F5
330
1A
100
AcDbEntity
  8
SEIHIN
100
AcDbCircle
 10
460.4916036144195
 20
430.0080420268217
 30
0.0
 40
2.000000000000454
100
AcDbArc
 50
0.0
 51
90.0
  0
LINE
  5
7610
330
1A
100
AcDbEntity
  8
SEIHIN
100
AcDbLine
 10
462.49160361442
 20
390.0080420268216
 30
0.0
 11
462.49160361442
 21
430.0080420268217
 31
0.0
  0
LINE
  5
7613
330
1A
100
AcDbEntity
  8
SEIHIN
100
AcDbLine
 10
470.49160361442
 20
430.0080420268217
 30
0.0
 11
470.49160361442
 21
390.0080420268216
 31
0.0
  0
LINE
  5
763D
330
1A
100
AcDbEntity
  8
SEIHIN
100
AcDbLine
 10
453.5682347837082
 20
432.0080420268216
 30
0.0
 11
453.5682347837082
 21
435.0080420268216
 31
0.0
  0
LINE
  5
763F
330
1A
100
AcDbEntity
  8
SEIHIN
100
AcDbLine
 10
450.7942185222186
 20
432.0080420268216
 30
0.0
 11
472.4916036144199
 21
432.0080420268217
 31
0.0
  0
LINE
  5
7640
330
1A
100
AcDbEntity
  8
SEIHIN
100
AcDbLine
 10
470.49160361442
 20
432.0080420268216
 30
0.0
 11
470.49160361442
 21
435.0080420268216
 31
0.0
  0
LINE
  5
7641
330
1A
100
AcDbEntity
  8
SEIHIN
100
AcDbLine
 10
455.5638882875086
 20
435.0080420268216
 30
0.0
 11
455.5638882875086
 21
432.0080420268216
 31
0.0
  0
LINE
  5
7642
330
1A
100
AcDbEntity
  8
SEIHIN
100
AcDbLine
 10
472.4916036144199
 20
435.0080420268216
 30
0.0
 11
472.4916036144199
 21
432.0080420268216
 31
0.0
  0
LINE
  5
76EF
330
1A
100
AcDbEntity
  8
SEIHIN
100
AcDbLine
 10
583.7302360636053
 20
279.0887282469627
 30
0.0
 11
549.7302360636053
 21
279.0887282469627
 31
0.0
  0
LINE
  5
76F2
330
1A
100
AcDbEntity
  8
SEIHIN
100
AcDbLine
 10
546.7302360636044
 20
276.6429382209636
 30
0.0
 11
586.7302360636045
 21
276.6429382209636
 31
0.0
  0
LINE
  5
76F7
330
1A
100
AcDbEntity
  8
SEIHIN
100
AcDbLine
 10
546.7302360636053
 20
145.0818295419125
 30
0.0
 11
586.7302360636045
 21
145.0818295419125
 31
0.0
  0
LINE
  5
76FD
330
1A
100
AcDbEntity
  8
SEIHIN
100
AcDbLine
 10
544.7302360636045
 20
138.0818295419126
 30
0.0
 11
544.7302360636046
 21
279.6429382209636
 31
0.0
  0
LINE
  5
76FE
330
1A
100
AcDbEntity
  8
SEIHIN
100
AcDbLine
 10
541.7302360636044
 20
138.0818295419126
 30
0.0
 11
541.7302360636044
 21
279.6429382209636
 31
0.0
  0
LINE
  5
76FF
330
1A
100
AcDbEntity
  8
SEIHIN
100
AcDbLine
 10
541.7302360636053
 20
151.0417621409446
 30
0.0
 11
541.7302360636053
 21
162.871284911769
 31
0.0
  0
LINE
  5
7700
330
1A
100
AcDbEntity
  8
SEIHIN
100
AcDbLine
 10
541.7302360636044
 20
138.0818295419126
 30
0.0
 11
544.7302360636045
 21
138.0818295419126
 31
0.0
  0
ARC
  5
7702
330
1A
100
AcDbEntity
  8
SEIHIN
100
AcDbCircle
 10
546.7302360636053
 20
143.0818295419125
 30
0.0
 40
2.000000000000909
100
AcDbArc
 50
90.0
 51
180.0
  0
LINE
  5
7704
330
1A
100
AcDbEntity
  8
SEIHIN
100
AcDbLine
 10
541.7302360636053
 20
162.871284911769
 30
0.0
 11
541.7302360636053
 21
163.7818295419129
 31
0.0
  0
LINE
  5
7705
330
1A
100
AcDbEntity
  8
SEIHIN
100
AcDbLine
 10
541.7302360636053
 20
163.7818295419129
 30
0.0
 11
541.7302360636053
 21
164.6789390824414
 31
0.0
  0
ARC
  5
7714
330
1A
100
AcDbEntity
  8
SEIHIN
100
AcDbCircle
 10
546.7302360636044
 20
278.6429382209636
 30
0.0
 40
2.0
100
AcDbArc
 50
180.0
 51
270.0
  0
LINE
  5
771E
330
1A
100
AcDbEntity
  8
SEIHIN
100
AcDbLine
 10
541.7302360636044
 20
279.6429382209636
 30
0.0
 11
544.7302360636045
 21
279.6429382209636
 31
0.0
  0
LINE
  5
771F
330
1A
100
AcDbEntity
  8
SEIHIN
100
AcDbLine
 10
549.7302360636053
 20
276.6429382209636
 30
0.0
 11
549.7302360636053
 21
279.0887282469627
 31
0.0
  0
LINE
  5
7725
330
1A
100
AcDbEntity
  8
SEIHIN
100
AcDbLine
 10
591.7302360636047
 20
279.6429382209636
 30
0.0
 11
591.7302360636042
 21
138.0818295419126
 31
0.0
  0
LINE
  5
7726
330
1A
100
AcDbEntity
  8
SEIHIN
100
AcDbLine
 10
588.7302360636035
 20
279.6429382209636
 30
0.0
 11
588.7302360636035
 21
138.0818295419126
 31
0.0
  0
LINE
  5
7727
330
1A
100
AcDbEntity
  8
SEIHIN
100
AcDbLine
 10
591.7302360636053
 20
151.0417621409446
 30
0.0
 11
591.7302360636053
 21
162.871284911769
 31
0.0
  0
LINE
  5
7728
330
1A
100
AcDbEntity
  8
SEIHIN
100
AcDbLine
 10
588.7302360636044
 20
138.0818295419126
 30
0.0
 11
591.7302360636053
 21
138.0818295419126
 31
0.0
  0
ARC
  5
772A
330
1A
100
AcDbEntity
  8
SEIHIN
100
AcDbCircle
 10
586.7302360636045
 20
143.0818295419125
 30
0.0
 40
2.0
100
AcDbArc
 50
0.0
 51
90.0
  0
LINE
  5
772C
330
1A
100
AcDbEntity
  8
SEIHIN
100
AcDbLine
 10
591.7302360636053
 20
163.7818295419129
 30
0.0
 11
591.7302360636053
 21
162.871284911769
 31
0.0
  0
LINE
  5
772D
330
1A
100
AcDbEntity
  8
SEIHIN
100
AcDbLine
 10
591.7302360636053
 20
164.6789390824414
 30
0.0
 11
591.7302360636053
 21
163.7818295419129
 31
0.0
  0
ARC
  5
773C
330
1A
100
AcDbEntity
  8
SEIHIN
100
AcDbCircle
 10
586.7302360636045
 20
278.6429382209636
 30
0.0
 40
2.000000000000056
100
AcDbArc
 50
270.0
 51
0.0
  0
LINE
  5
7741
330
1A
100
AcDbEntity
  8
SEIHIN
100
AcDbLine
 10
583.7302360636053
 20
279.0887282469627
 30
0.0
 11
583.7302360636053
 21
276.6429382209636
 31
0.0
  0
LINE
  5
7748
330
1A
100
AcDbEntity
  8
SEIHIN
100
AcDbLine
 10
588.7302360636035
 20
279.6429382209636
 30
0.0
 11
591.7302360636044
 21
279.6429382209636
 31
0.0
  0
LINE
  5
774B
330
1A
100
AcDbEntity
  8
CENTER_L
 48
0.5
100
AcDbLine
 10
308.6941457696379
 20
410.0080420268217
 30
0.0
 11
482.1750720086519
 21
410.0080420268217
 31
0.0
  0
LINE
  5
774C
330
1A
100
AcDbEntity
  8
SEIHIN
100
AcDbLine
 10
472.4916036144199
 20
385.0080420268213
 30
0.0
 11
321.5415276546036
 21
385.0080420268212
 31
0.0
  0
LINE
  5
774D
330
1A
100
AcDbEntity
  8
SEIHIN
100
AcDbLine
 10
321.4988209531597
 20
385.0080420268212
 30
0.0
 11
321.4988209531597
 21
391.0080420268217
 31
0.0
  0
LINE
  5
774E
330
1A
100
AcDbEntity
  8
SEIHIN
100
AcDbLine
 10
353.0358585664671
 20
393.0080420268217
 30
0.0
 11
353.0358585664671
 21
385.0080420268213
 31
0.0
  0
LINE
  5
774F
330
1A
100
AcDbEntity
  8
SEIHIN
100
AcDbLine
 10
351.9733845948003
 20
385.0080420268213
 30
0.0
 11
351.9733845948003
 21
393.0080420268217
 31
0.0
  0
LINE
  5
7750
330
1A
100
AcDbEntity
  8
SEIHIN
100
AcDbLine
 10
350.9773937631139
 20
393.0080420268217
 30
0.0
 11
350.9773937631139
 21
385.0080420268213
 31
0.0
  0
LINE
  5
7751
330
1A
100
AcDbEntity
  8
SEIHIN
100
AcDbLine
 10
338.115290420249
 20
391.0080420268217
 30
0.0
 11
338.115290420249
 21
390.0080420268217
 31
0.0
  0
LINE
  5
7752
330
1A
100
AcDbEntity
  8
SEIHIN
100
AcDbLine
 10
338.115290420249
 20
391.0080420268217
 30
0.0
 11
321.4988209531597
 21
391.0080420268216
 31
0.0
  0
LINE
  5
7753
330
1A
100
AcDbEntity
  8
SEIHIN
100
AcDbLine
 10
321.5158611936549
 20
393.0080420268217
 30
0.0
 11
353.7588651353203
 21
393.0080420268217
 31
0.0
  0
ARC
  5
7754
330
1A
100
AcDbEntity
  8
SEIHIN
100
AcDbCircle
 10
226.7107040322853
 20
392.2048605885316
 30
0.0
 40
101.7866407589006
100
AcDbArc
 50
359.8892106089856
 51
0.4521161503176012
  0
ARC
  5
7755
330
1A
100
AcDbEntity
  8
SEIHIN
100
AcDbCircle
 10
252.418103573425
 20
391.7346502043891
 30
0.0
 40
76.07954214793507
100
AcDbArc
 50
359.4527804231349
 51
0.2058928175591806
  0
LINE
  5
7756
330
1A
100
AcDbEntity
  8
SEIHIN
100
AcDbLine
 10
321.5158611936549
 20
393.0080420268217
 30
0.0
 11
321.4988209531597
 21
393.0080420268217
 31
0.0
  0
LINE
  5
7757
330
1A
100
AcDbEntity
  8
SEIHIN
100
AcDbLine
 10
336.7983981853808
 20
393.0080420268217
 30
0.0
 11
336.7983981853808
 21
391.0080420268217
 31
0.0
  0
ARC
  5
7758
330
1A
100
AcDbEntity
  8
SEIHIN
100
AcDbCircle
 10
230.0151557357812
 20
391.8112234841036
 30
0.0
 40
101.4822078165092
100
AcDbArc
 50
359.5465275231807
 51
0.1111217339447851
  0
ARC
  5
7759
330
1A
100
AcDbEntity
  8
SEIHIN
100
AcDbCircle
 10
255.6456610064815
 20
392.2814338241546
 30
0.0
 40
75.85200437863595
100
AcDbArc
 50
359.793489569796
 51
0.5488611730775725
  0
LINE
  5
775A
330
1A
100
AcDbEntity
  8
SEIHIN
100
AcDbLine
 10
337.7930908783018
 20
391.0080420268217
 30
0.0
 11
337.7930908783018
 21
393.0080420268217
 31
0.0
  0
LINE
  5
775B
330
1A
100
AcDbEntity
  8
SEIHIN
100
AcDbLine
 10
321.4988209531597
 20
388.0080420268217
 30
0.0
 11
338.2916036144256
 21
388.0080420268217
 31
0.0
  0
LINE
  5
775C
330
1A
100
AcDbEntity
  8
SEIHIN
100
AcDbLine
 10
338.2916036144256
 20
385.0080420268217
 30
0.0
 11
338.2916036144256
 21
388.3806190906565
 31
0.0
  0
ARC
  5
775D
330
1A
100
AcDbEntity
  8
SEIHIN
100
AcDbCircle
 10
663.7354211738275
 20
424.4621032406473
 30
0.0
 40
327.437859579651
100
AcDbArc
 50
186.0400265366751
 51
186.3264631356147
  0
LINE
  5
775E
330
1A
100
AcDbEntity
  8
SEIHIN
100
AcDbLine
 10
450.7942185222186
 20
388.0080420268218
 30
0.0
 11
472.4916036144199
 21
388.0080420268217
 31
0.0
  0
ARC
  5
7760
330
1A
100
AcDbEntity
  8
SEIHIN
100
AcDbCircle
 10
460.4916036144195
 20
390.0080420268217
 30
0.0
 40
2.000000000000454
100
AcDbArc
 50
270.0
 51
0.0
  0
LINE
  5
7761
330
1A
100
AcDbEntity
  8
SEIHIN
100
AcDbLine
 10
453.5682347837082
 20
388.0080420268217
 30
0.0
 11
453.5682347837082
 21
385.0080420268217
 31
0.0
  0
LINE
  5
7762
330
1A
100
AcDbEntity
  8
SEIHIN
100
AcDbLine
 10
455.5638882875086
 20
385.0080420268217
 30
0.0
 11
455.5638882875086
 21
388.0080420268217
 31
0.0
  0
ARC
  5
7763
330
1A
100
AcDbEntity
  8
SEIHIN
100
AcDbCircle
 10
472.4916036144199
 20
390.0080420268217
 30
0.0
 40
2.0
100
AcDbArc
 50
180.0
 51
270.0
  0
LINE
  5
7764
330
1A
100
AcDbEntity
  8
SEIHIN
100
AcDbLine
 10
470.49160361442
 20
388.0080420268217
 30
0.0
 11
470.49160361442
 21
385.0080420268217
 31
0.0
  0
LINE
  5
7765
330
1A
100
AcDbEntity
  8
SEIHIN
100
AcDbLine
 10
472.4916036144199
 20
385.0080420268217
 30
0.0
 11
472.4916036144199
 21
388.0080420268217
 31
0.0
  0
LINE
  5
7766
330
1A
100
AcDbEntity
  8
CENTER_L
 48
0.5
100
AcDbLine
 10
566.7302360636049
 20
137.1225074881183
 30
0.0
 11
566.7302360636049
 21
288.9740250359768
 31
0.0
  0
LINE
  5
7767
330
1A
100
AcDbEntity
  8
CENTER_L
 48
0.5
100
AcDbLine
 10
217.6897914066557
 20
137.1225074881183
 30
0.0
 11
217.6897914066557
 21
288.9740250359768
 31
0.0
  0
ARC
  5
7768
330
1A
100
AcDbEntity
  8
NOKITOI
100
AcDbCircle
 10
402.6916036144402
 20
1148.259667949674
 30
0.0
 40
999.8000000000002
100
AcDbArc
 50
267.2627870055292
 51
272.6033918042164
  0
ARC
  5
7769
330
1A
100
AcDbEntity
  8
NOKITOI
100
AcDbCircle
 10
402.6916036144402
 20
1148.259667949674
 30
0.0
 40
1000.0
100
AcDbArc
 50
267.2627870055292
 51
272.6033918042164
  0
ARC
  5
776A
330
1A
100
AcDbEntity
  8
NOKITOI
100
AcDbCircle
 10
402.6916036144402
 20
1148.259667949674
 30
0.0
 40
998.3999999999999
100
AcDbArc
 50
267.3431291593075
 51
272.5751779642489
  0
ARC
  5
776B
330
1A
100
AcDbEntity
  8
NOKITOI
100
AcDbCircle
 10
1331.47979384076
 20
268.2596679496734
 30
0.0
 40
998.4000000000001
100
AcDbArc
 50
182.4109906480895
 51
185.2410550612985
  0
ARC
  5
776C
330
1A
100
AcDbEntity
  8
NOKITOI
100
AcDbCircle
 10
1331.47979384076
 20
268.2596679496734
 30
0.0
 40
999.800000000736
100
AcDbArc
 50
180.0795916737998
 51
185.9063572242693
  0
ARC
  5
776D
330
1A
100
AcDbEntity
  8
NOKITOI
100
AcDbCircle
 10
1331.47979384076
 20
268.2596679496734
 30
0.0
 40
1000.000000000736
100
AcDbArc
 50
180.0795916737998
 51
185.9063572242693
  0
LINE
  5
776E
330
1A
100
AcDbEntity
  8
NOKITOI
100
AcDbLine
 10
351.366492979874
 20
173.413344778121
 30
0.0
 11
337.2539040149124
 21
177.059667949674
 31
0.0
  0
LINE
  5
776F
330
1A
100
AcDbEntity
  8
NOKITOI
100
AcDbLine
 10
337.7830795453628
 20
164.6596679496739
 30
0.0
 11
350.9652684131524
 21
164.6596679496739
 31
0.0
  0
LINE
  5
7770
330
1A
100
AcDbEntity
  8
NOKITOI
100
AcDbLine
 10
351.8420107569386
 20
166.059667949674
 30
0.0
 11
338.3243578691301
 21
166.059667949674
 31
0.0
  0
LINE
  5
7771
330
1A
100
AcDbEntity
  8
NOKITOI
100
AcDbLine
 10
337.7830795453628
 20
164.4596679496739
 30
0.0
 11
350.9652684131524
 21
164.4596679496739
 31
0.0
  0
LINE
  5
7772
330
1A
100
AcDbEntity
  8
NOKITOI
100
AcDbLine
 10
337.4007757221475
 20
175.472461200393
 30
0.0
 11
351.3334691430186
 21
171.8726183233137
 31
0.0
  0
ARC
  5
7773
330
1A
100
AcDbEntity
  8
NOKITOI
100
AcDbCircle
 10
1331.47979384076
 20
268.2596679496734
 30
0.0
 40
998.4000000000001
100
AcDbArc
 50
185.3325301949832
 51
185.8753038897116
  0
ARC
  5
7774
330
1A
100
AcDbEntity
  8
NOKITOI
100
AcDbCircle
 10
337.7830795453628
 20
165.4596679496739
 30
0.0
 40
0.8000000000001556
100
AcDbArc
 50
185.9063572242693
 51
270.0
  0
ARC
  5
7775
330
1A
100
AcDbEntity
  8
NOKITOI
100
AcDbCircle
 10
337.7830795453628
 20
165.4596679496739
 30
0.0
 40
1.000000000000155
100
AcDbArc
 50
185.9063572242693
 51
270.0
  0
LINE
  5
7776
330
1A
100
AcDbEntity
  8
NOKITOI
100
AcDbLine
 10
352.1607025087598
 20
163.5642496070492
 30
0.0
 11
353.238753896868
 21
151.2414444564513
 31
0.0
  0
LINE
  5
7777
330
1A
100
AcDbEntity
  8
NOKITOI
100
AcDbLine
 10
351.9614634928252
 20
163.54681933082
 30
0.0
 11
353.0395148809334
 21
151.2240141802221
 31
0.0
  0
LINE
  5
7778
330
1A
100
AcDbEntity
  8
NOKITOI
100
AcDbLine
 10
354.5115625097926
 20
152.7564442270017
 30
0.0
 11
352.8585656252955
 21
171.6512378768189
 31
0.0
  0
ARC
  5
7779
330
1A
100
AcDbEntity
  8
NOKITOI
100
AcDbCircle
 10
355.031905040279
 20
151.3983169425142
 30
0.0
 40
1.800000000000289
100
AcDbArc
 50
184.9997491441009
 51
267.2627870055292
  0
ARC
  5
777A
330
1A
100
AcDbEntity
  8
NOKITOI
100
AcDbCircle
 10
355.031905040279
 20
151.3983169425142
 30
0.0
 40
2.000000000000289
100
AcDbArc
 50
184.9997491441009
 51
267.2627870055292
  0
ARC
  5
777B
330
1A
100
AcDbEntity
  8
NOKITOI
100
AcDbCircle
 10
356.5039526691382
 20
152.9307469892938
 30
0.0
 40
1.999999999999942
100
AcDbArc
 50
184.9997491441009
 51
267.3431291593075
  0
LINE
  5
777C
330
1A
100
AcDbEntity
  8
NOKITOI
100
AcDbLine
 10
351.3334691430186
 20
171.8726183233137
 30
0.0
 11
351.8420107569386
 21
166.059667949674
 31
0.0
  0
ARC
  5
777D
330
1A
100
AcDbEntity
  8
NOKITOI
100
AcDbCircle
 10
350.9652684131524
 20
163.4596679496739
 30
0.0
 40
1.200000000000007
100
AcDbArc
 50
4.999749144100993
 51
90.0
  0
ARC
  5
777E
330
1A
100
AcDbEntity
  8
NOKITOI
100
AcDbCircle
 10
350.9652684131524
 20
163.4596679496739
 30
0.0
 40
1.000000000000007
100
AcDbArc
 50
4.999749144100993
 51
90.0
  0
ARC
  5
777F
330
1A
100
AcDbEntity
  8
NOKITOI
100
AcDbCircle
 10
350.8661754659499
 20
171.476935114527
 30
0.0
 40
2.000000000000012
100
AcDbArc
 50
4.999749144100993
 51
75.51309319945758
  0
LINE
  5
7780
330
1A
100
AcDbEntity
  8
NOKITOI
100
AcDbLine
 10
340.2715866504363
 20
255.7596679496731
 30
0.0
 11
346.0520938481415
 21
255.7596679496731
 31
0.0
  0
LINE
  5
7781
330
1A
100
AcDbEntity
  8
NOKITOI
100
AcDbLine
 10
340.2715866504363
 20
257.2596679496732
 30
0.0
 11
341.4797938400249
 21
257.2596679496732
 31
0.0
  0
LINE
  5
7782
330
1A
100
AcDbEntity
  8
NOKITOI
100
AcDbLine
 10
341.4797938400249
 20
259.7468340142574
 30
0.0
 11
336.6660969612196
 21
260.799830206496
 31
0.0
  0
LINE
  5
7783
330
1A
100
AcDbEntity
  8
NOKITOI
100
AcDbLine
 10
348.9797938400251
 20
238.7596679496731
 30
0.0
 11
340.3022315435419
 21
238.7596679496731
 31
0.0
  0
LINE
  5
7784
330
1A
100
AcDbEntity
  8
NOKITOI
100
AcDbLine
 10
348.879793840025
 20
240.2596679496731
 30
0.0
 11
340.3022315435419
 21
240.2596679496731
 31
0.0
  0
LINE
  5
7785
330
1A
100
AcDbEntity
  8
NOKITOI
100
AcDbLine
 10
351.8644482218749
 20
258.9082955617166
 30
0.0
 11
338.2233575854584
 21
261.8922841384327
 31
0.0
  0
LINE
  5
7786
330
1A
100
AcDbEntity
  8
NOKITOI
100
AcDbLine
 10
351.907187597636
 20
259.1036755651959
 30
0.0
 11
338.2660969612195
 21
262.0876641419119
 31
0.0
  0
LINE
  5
7787
330
1A
100
AcDbEntity
  8
NOKITOI
100
AcDbLine
 10
333.8946566608096
 20
227.9303476273899
 30
0.0
 11
348.9797938400251
 21
236.1505358536932
 31
0.0
  0
LINE
  5
7788
330
1A
100
AcDbEntity
  8
NOKITOI
100
AcDbLine
 10
333.9635984835126
 20
226.2596679496736
 30
0.0
 11
349.6453780417405
 21
234.8049783542511
 31
0.0
  0
ARC
  5
7789
330
1A
100
AcDbEntity
  8
NOKITOI
100
AcDbCircle
 10
1331.47979384076
 20
268.2596679496734
 30
0.0
 40
998.4000000007354
100
AcDbArc
 50
181.127032230844
 51
181.2137395248443
  0
ARC
  5
778A
330
1A
100
AcDbEntity
  8
NOKITOI
100
AcDbCircle
 10
1331.47979384076
 20
268.2596679496734
 30
0.0
 40
998.3999999999999
100
AcDbArc
 50
181.4914279597314
 51
182.3150327430775
  0
ARC
  5
778B
330
1A
100
AcDbEntity
  8
NOKITOI
100
AcDbCircle
 10
340.3022315435419
 20
247.2596679496732
 30
0.0
 40
7.000000000000047
100
AcDbArc
 50
181.2137395248443
 51
270.0
  0
ARC
  5
778C
330
1A
100
AcDbEntity
  8
NOKITOI
100
AcDbCircle
 10
340.3022315435419
 20
247.2596679496732
 30
0.0
 40
8.500000000000021
100
AcDbArc
 50
215.9131497548197
 51
270.0
  0
ARC
  5
778D
330
1A
100
AcDbEntity
  8
NOKITOI
100
AcDbCircle
 10
1331.47979384076
 20
268.2596679496734
 30
0.0
 40
998.3999999999998
100
AcDbArc
 50
180.1673696882618
 51
180.8493437959589
  0
ARC
  5
778E
330
1A
100
AcDbEntity
  8
NOKITOI
100
AcDbCircle
 10
340.2715866504363
 20
248.7596679496732
 30
0.0
 40
7.000000000000182
100
AcDbArc
 50
90.0
 51
181.127032230844
  0
ARC
  5
778F
330
1A
100
AcDbEntity
  8
NOKITOI
100
AcDbCircle
 10
340.2715866504363
 20
248.7596679496732
 30
0.0
 40
8.500000000000023
100
AcDbArc
 50
90.0
 51
146.4276220008688
  0
ARC
  5
7790
330
1A
100
AcDbEntity
  8
NOKITOI
100
AcDbCircle
 10
332.4807577254955
 20
266.8719207677935
 30
0.0
 40
0.8000000000001193
100
AcDbArc
 50
71.56505117707208
 51
180.0795916737998
  0
ARC
  5
7791
330
1A
100
AcDbEntity
  8
NOKITOI
100
AcDbCircle
 10
332.4807577254955
 20
266.8719207677935
 30
0.0
 40
1.000000000000119
100
AcDbArc
 50
71.56505117707208
 51
180.0795916737998
  0
LINE
  5
7792
330
1A
100
AcDbEntity
  8
NOKITOI
100
AcDbLine
 10
337.0746621698301
 20
266.1838933290603
 30
0.0
 11
332.7337399383091
 21
267.630867406234
 31
0.0
  0
LINE
  5
7793
330
1A
100
AcDbEntity
  8
NOKITOI
100
AcDbLine
 10
337.1379077230335
 20
266.3736299886704
 30
0.0
 11
332.7969854915124
 21
267.8206040658441
 31
0.0
  0
ARC
  5
7794
330
1A
100
AcDbEntity
  8
NOKITOI
100
AcDbCircle
 10
336.9797938400249
 20
265.8992883396452
 30
0.0
 40
0.3000000000000076
100
AcDbArc
 50
0.0
 51
71.56505117707208
  0
ARC
  5
7795
330
1A
100
AcDbEntity
  8
NOKITOI
100
AcDbCircle
 10
338.4797938400249
 20
263.0645641593082
 30
0.0
 40
1.20000000000001
100
AcDbArc
 50
180.0
 51
257.6609127216743
  0
ARC
  5
7796
330
1A
100
AcDbEntity
  8
NOKITOI
100
AcDbCircle
 10
336.9797938400249
 20
265.8992883396452
 30
0.0
 40
0.5000000000000077
100
AcDbArc
 50
0.0
 51
71.56505117707208
  0
ARC
  5
7797
330
1A
100
AcDbEntity
  8
NOKITOI
100
AcDbCircle
 10
338.4797938400249
 20
263.0645641593082
 30
0.0
 40
1.00000000000001
100
AcDbArc
 50
180.0
 51
257.6609127216743
  0
LINE
  5
7798
330
1A
100
AcDbEntity
  8
NOKITOI
100
AcDbLine
 10
335.879793840025
 20
261.7767302238923
 30
0.0
 11
335.879793840025
 21
264.7460735875554
 31
0.0
  0
ARC
  5
7799
330
1A
100
AcDbEntity
  8
NOKITOI
100
AcDbCircle
 10
336.879793840025
 20
261.7767302238923
 30
0.0
 40
1.0
100
AcDbArc
 50
180.0
 51
257.6609127216743
  0
LINE
  5
779A
330
1A
100
AcDbEntity
  8
NOKITOI
100
AcDbLine
 10
335.5379077230334
 20
265.2204152365806
 30
0.0
 11
333.7421653258338
 21
265.818996035647
 31
0.0
  0
ARC
  5
779B
330
1A
100
AcDbEntity
  8
NOKITOI
100
AcDbCircle
 10
333.5840514428255
 20
265.3446543866218
 30
0.0
 40
0.5000000000000031
100
AcDbArc
 50
71.56505117707208
 51
180.1673696882651
  0
LINE
  5
779C
330
1A
100
AcDbEntity
  8
NOKITOI
100
AcDbLine
 10
337.2797938400249
 20
263.0645641593082
 30
0.0
 11
337.2797938400249
 21
265.8992883396452
 31
0.0
  0
ARC
  5
779D
330
1A
100
AcDbEntity
  8
NOKITOI
100
AcDbCircle
 10
335.379793840025
 20
264.7460735875554
 30
0.0
 40
0.5
100
AcDbArc
 50
0.0
 51
71.56505117707208
  0
LINE
  5
779E
330
1A
100
AcDbEntity
  8
NOKITOI
100
AcDbLine
 10
337.4797938400249
 20
263.0645641593082
 30
0.0
 11
337.4797938400249
 21
265.8992883396452
 31
0.0
  0
ARC
  5
779F
330
1A
100
AcDbEntity
  8
NOKITOI
100
AcDbCircle
 10
348.879793840025
 20
236.2099270472944
 30
0.0
 40
1.600000000000008
100
AcDbArc
 50
298.5868361218864
 51
0.0
  0
ARC
  5
77A0
330
1A
100
AcDbEntity
  8
NOKITOI
100
AcDbCircle
 10
348.879793840025
 20
238.6596679496732
 30
0.0
 40
1.600000000000008
100
AcDbArc
 50
0.0
 51
90.0
  0
LINE
  5
77A1
330
1A
100
AcDbEntity
  8
NOKITOI
100
AcDbLine
 10
348.9797938400251
 20
236.1505358536932
 30
0.0
 11
348.9797938400251
 21
238.7596679496731
 31
0.0
  0
LINE
  5
77A2
330
1A
100
AcDbEntity
  8
NOKITOI
100
AcDbLine
 10
350.4797938400252
 20
236.2099270472944
 30
0.0
 11
350.4797938400252
 21
238.6596679496732
 31
0.0
  0
ARC
  5
77A3
330
1A
100
AcDbEntity
  8
NOKITOI
100
AcDbCircle
 10
351.4797938400251
 20
257.1498755304034
 30
0.0
 40
2.0
100
AcDbArc
 50
0.0
 51
77.66091272167438
  0
LINE
  5
77A4
330
1A
100
AcDbEntity
  8
NOKITOI
100
AcDbLine
 10
341.4797938400249
 20
259.7468340142574
 30
0.0
 11
341.4797938400249
 21
257.2596679496732
 31
0.0
  0
LINE
  5
77A5
330
1A
100
AcDbEntity
  8
NOKITOI
100
AcDbLine
 10
342.9797938400249
 20
257.2596679496732
 30
0.0
 11
342.9797938400249
 21
259.4187090142574
 31
0.0
  0
LINE
  5
77A6
330
1A
100
AcDbEntity
  8
NOKITOI
100
AcDbLine
 10
351.5866422794279
 20
257.535960918138
 30
0.0
 11
342.9797938400249
 21
259.4187090142574
 31
0.0
  0
ARC
  5
77A7
330
1A
100
AcDbEntity
  8
NOKITOI
100
AcDbCircle
 10
348.4797938400252
 20
255.2596679496732
 30
0.0
 40
4.999999999999985
100
AcDbArc
 50
270.0
 51
0.0
  0
ARC
  5
77A8
330
1A
100
AcDbEntity
  8
NOKITOI
100
AcDbCircle
 10
345.9093238489531
 20
254.6596679496731
 30
0.0
 40
2.600000000000022
100
AcDbArc
 50
340.0168934781013
 51
90.0
  0
ARC
  5
77A9
330
1A
100
AcDbEntity
  8
NOKITOI
100
AcDbCircle
 10
348.4797938400252
 20
255.2596679496732
 30
0.0
 40
3.499999999999985
100
AcDbArc
 50
270.0
 51
0.0
  0
LINE
  5
77AA
330
1A
100
AcDbEntity
  8
NOKITOI
100
AcDbLine
 10
342.9797938400249
 20
257.2596679496732
 30
0.0
 11
345.9093238489531
 21
257.2596679496732
 31
0.0
  0
ARC
  5
77AB
330
1A
100
AcDbEntity
  8
NOKITOI
100
AcDbCircle
 10
346.1936438359669
 20
250.7596679496732
 30
0.0
 40
0.5
100
AcDbArc
 50
160.0168934781013
 51
270.0
  0
LINE
  5
77AC
330
1A
100
AcDbEntity
  8
NOKITOI
100
AcDbLine
 10
346.1936438359669
 20
250.2596679496732
 30
0.0
 11
348.4797938400252
 21
250.2596679496732
 31
0.0
  0
LINE
  5
77AD
330
1A
100
AcDbEntity
  8
NOKITOI
100
AcDbLine
 10
346.9918872716298
 20
254.4179248865864
 30
0.0
 11
345.7237471242226
 21
250.9305394812165
 31
0.0
  0
LINE
  5
77AE
330
1A
100
AcDbEntity
  8
NOKITOI
100
AcDbLine
 10
348.3351938237924
 20
251.7596679496731
 30
0.0
 11
348.4797938400252
 21
251.7596679496731
 31
0.0
  0
LINE
  5
77AF
330
1A
100
AcDbEntity
  8
NOKITOI
100
AcDbLine
 10
348.3527867500231
 20
253.7711359856477
 30
0.0
 11
347.8652971120482
 21
252.4305394812165
 31
0.0
  0
ARC
  5
77B0
330
1A
100
AcDbEntity
  8
NOKITOI
100
AcDbCircle
 10
348.3351938237924
 20
252.2596679496732
 30
0.0
 40
0.5
100
AcDbArc
 50
160.0168934781013
 51
270.0
  0
ARC
  5
77B1
330
1A
100
AcDbEntity
  8
NOKITOI
100
AcDbCircle
 10
346.0520938481415
 20
254.7596679496732
 30
0.0
 40
1.000000000000003
100
AcDbArc
 50
340.0168934781013
 51
90.0
  0
ARC
  5
77B2
330
1A
100
AcDbEntity
  8
NOKITOI
100
AcDbCircle
 10
351.4992219534371
 20
256.9516197803989
 30
0.0
 40
1.990469879287869
100
AcDbArc
 50
5.716280370791107
 51
79.4270390383314
  0
ARC
  5
77B3
330
1A
100
AcDbEntity
  8
NOKITOI
100
AcDbCircle
 10
351.4797938400251
 20
257.0475109094398
 30
0.0
 40
0.5
100
AcDbArc
 50
0.0
 51
77.66091272167438
  0
LINE
  5
77B4
330
1A
100
AcDbEntity
  8
NOKITOI
100
AcDbLine
 10
351.9797938400252
 20
255.2596679496732
 30
0.0
 11
351.9797938400252
 21
257.0475109094398
 31
0.0
  0
LINE
  5
77B5
330
1A
100
AcDbEntity
  8
NOKITOI
100
AcDbLine
 10
353.4797938400251
 20
255.2596679496732
 30
0.0
 11
353.4797938400251
 21
257.1498755304034
 31
0.0
  0
LINE
  5
77B6
330
1A
100
AcDbEntity
  8
NOKITOI
100
AcDbLine
 10
452.6280814523877
 20
153.5392782964812
 30
0.0
 11
461.994041566526
 21
212.9606569249701
 31
0.0
  0
LINE
  5
77B7
330
1A
100
AcDbEntity
  8
NOKITOI
100
AcDbLine
 10
452.8256424192082
 20
153.5081388618524
 30
0.0
 11
462.1916025333462
 21
212.9295174903414
 31
0.0
  0
LINE
  5
77B8
330
1A
100
AcDbEntity
  8
NOKITOI
100
AcDbLine
 10
460.6111147987835
 20
213.178632967371
 30
0.0
 11
451.3214174216487
 21
154.2410954951018
 31
0.0
  0
ARC
  5
77BA
330
1A
100
AcDbEntity
  8
NOKITOI
100
AcDbCircle
 10
447.8866182486986
 20
154.2866247275704
 30
0.0
 40
4.799999999999973
100
AcDbArc
 50
272.6033918042164
 51
351.0427677630336
  0
ARC
  5
77BB
330
1A
100
AcDbEntity
  8
NOKITOI
100
AcDbCircle
 10
447.370198085241
 20
154.8638841876762
 30
0.0
 40
4.000000000000015
100
AcDbArc
 50
272.5751779642489
 51
351.0427677630336
  0
ARC
  5
77BC
330
1A
100
AcDbEntity
  8
NOKITOI
100
AcDbCircle
 10
447.8866182486986
 20
154.2866247275704
 30
0.0
 40
4.999999999999973
100
AcDbArc
 50
272.6033918042164
 51
351.0427677630336
  0
LINE
  5
77BD
330
1A
100
AcDbEntity
  8
NOKITOI
100
AcDbLine
 10
462.2916036144399
 20
216.759667949674
 30
0.0
 11
462.2916036144403
 21
228.259667949674
 31
0.0
  0
LINE
  5
77BE
330
1A
100
AcDbEntity
  8
NOKITOI
100
AcDbLine
 10
455.5208251219717
 20
231.6596679496741
 30
0.0
 11
449.6058251219717
 21
214.7596679496747
 31
0.0
  0
LINE
  5
77BF
330
1A
100
AcDbEntity
  8
NOKITOI
100
AcDbLine
 10
460.8916036144405
 20
218.7979198823127
 30
0.0
 11
460.8916036144405
 21
228.259667949674
 31
0.0
  0
LINE
  5
77C0
330
1A
100
AcDbEntity
  8
NOKITOI
100
AcDbLine
 10
462.49160361444
 20
216.759667949674
 30
0.0
 11
462.4916036144404
 21
228.259667949674
 31
0.0
  0
LINE
  5
77C1
330
1A
100
AcDbEntity
  8
NOKITOI
100
AcDbLine
 10
454.2572262630951
 20
232.5900183744021
 30
0.0
 11
447.4916036144405
 21
213.2596679496747
 31
0.0
  0
LINE
  5
77C2
330
1A
100
AcDbEntity
  8
NOKITOI
100
AcDbLine
 10
447.4916036144405
 20
213.2596679496747
 30
0.0
 11
455.4916036144404
 21
213.2596679496747
 31
0.0
  0
LINE
  5
77C3
330
1A
100
AcDbEntity
  8
NOKITOI
100
AcDbLine
 10
455.3356426264484
 20
217.5352014759508
 30
0.0
 11
460.8916036144405
 21
218.7979198823127
 31
0.0
  0
LINE
  5
77C4
330
1A
100
AcDbEntity
  8
NOKITOI
100
AcDbLine
 10
454.4104647843562
 20
214.7596679496747
 30
0.0
 11
455.3356426264484
 21
217.5352014759508
 31
0.0
  0
LINE
  5
77C5
330
1A
100
AcDbEntity
  8
NOKITOI
100
AcDbLine
 10
449.6058251219717
 20
214.7596679496747
 30
0.0
 11
454.4104647843562
 21
214.7596679496747
 31
0.0
  0
LINE
  5
77C6
330
1A
100
AcDbEntity
  8
NOKITOI
100
AcDbLine
 10
456.4916036144404
 20
216.2596679496747
 30
0.0
 11
460.8916036144405
 21
217.2596679496747
 31
0.0
  0
LINE
  5
77C7
330
1A
100
AcDbEntity
  8
NOKITOI
100
AcDbLine
 10
455.4916036144404
 20
213.2596679496747
 30
0.0
 11
456.4916036144404
 21
216.2596679496747
 31
0.0
  0
ARC
  5
77C8
330
1A
100
AcDbEntity
  8
NOKITOI
100
AcDbCircle
 10
437.8916036144396
 20
216.759667949674
 30
0.0
 40
24.40000000000039
100
AcDbArc
 50
351.0427677630336
 51
0.0
  0
ARC
  5
77C9
330
1A
100
AcDbEntity
  8
NOKITOI
100
AcDbCircle
 10
437.8916036144396
 20
216.759667949674
 30
0.0
 40
24.60000000000039
100
AcDbArc
 50
351.0427677630336
 51
0.0
  0
ARC
  5
77CA
330
1A
100
AcDbEntity
  8
NOKITOI
100
AcDbCircle
 10
437.8916036144396
 20
216.759667949674
 30
0.0
 40
23.00000000000073
100
AcDbArc
 50
351.0427677630336
 51
0.0
  0
LINE
  5
77CB
330
1A
100
AcDbEntity
  8
NOKITOI
100
AcDbLine
 10
460.8916036144405
 20
217.2596679496747
 30
0.0
 11
460.8916036144403
 21
216.759667949674
 31
0.0
  0
LINE
  5
77CC
330
1A
100
AcDbEntity
  8
NOKITOI
100
AcDbLine
 10
457.4916036144404
 20
233.059667949674
 30
0.0
 11
455.2010846194612
 21
233.059667949674
 31
0.0
  0
LINE
  5
77CD
330
1A
100
AcDbEntity
  8
NOKITOI
100
AcDbLine
 10
457.4916036144404
 20
233.259667949674
 30
0.0
 11
455.2010846194612
 21
233.259667949674
 31
0.0
  0
ARC
  5
77CE
330
1A
100
AcDbEntity
  8
NOKITOI
100
AcDbCircle
 10
455.1157967510667
 20
232.0478071539702
 30
0.0
 40
1.015448812288253
100
AcDbArc
 50
85.18203328732573
 51
147.7264463795304
  0
ARC
  5
77CF
330
1A
100
AcDbEntity
  8
NOKITOI
100
AcDbCircle
 10
455.2010846194612
 20
232.259667949674
 30
0.0
 40
1.000000000000013
100
AcDbArc
 50
90.0
 51
160.7099537808137
  0
LINE
  5
77D0
330
1A
100
AcDbEntity
  8
NOKITOI
100
AcDbLine
 10
457.4916036144404
 20
231.6596679496741
 30
0.0
 11
455.5208251219717
 21
231.6596679496741
 31
0.0
  0
ARC
  5
77D1
330
1A
100
AcDbEntity
  8
NOKITOI
100
AcDbCircle
 10
457.4916036144404
 20
228.259667949674
 30
0.0
 40
4.800000000000028
100
AcDbArc
 50
0.0
 51
90.0
  0
ARC
  5
77D2
330
1A
100
AcDbEntity
  8
NOKITOI
100
AcDbCircle
 10
457.4916036144404
 20
228.259667949674
 30
0.0
 40
3.400000000000034
100
AcDbArc
 50
0.0
 51
90.0
  0
ARC
  5
77D3
330
1A
100
AcDbEntity
  8
NOKITOI
100
AcDbCircle
 10
457.4916036144404
 20
228.259667949674
 30
0.0
 40
5.000000000000028
100
AcDbArc
 50
0.0
 51
90.0
  0
LINE
  5
77D6
330
1A
100
AcDbEntity
  8
CENTER_L
 48
0.5
100
AcDbLine
 10
401.5182177757751
 20
127.8550527392134
 30
0.0
 11
401.5182177757751
 21
170.6564203111617
 31
0.0
  0
LINE
  5
77D7
330
1A
100
AcDbEntity
  8
CENTER_L
 48
0.5
100
AcDbLine
 10
401.5182177757751
 20
370.2092155709132
 30
0.0
 11
401.5182177757751
 21
449.8068684827302
 31
0.0
  0
DIMENSION
  5
783C
330
1A
100
AcDbEntity
  8
SUNPOU
100
AcDbDimension
  2
*D2
 10
472.4916036144199
 20
327.8998527629269
 30
0.0
 11
397.0165656345118
 21
332.8998527629269
 31
0.0
 70
    32
  3
STANDARD
100
AcDbAlignedDimension
 13
321.5415276546036
 23
277.6629254028393
 33
0.0
 14
472.4916036144199
 24
277.6429382209636
 34
0.0
100
AcDbRotatedDimension
1001
ACAD
1000
DSTYLE
1002
{
1070
    41
1040
7.0
1070
    42
1040
6.0
1070
    43
1040
14.0
1070
    44
1040
3.0
1070
    73
1070
     0
1070
    74
1070
     0
1070
    77
1070
     3
1070
   140
1040
6.0
1070
   141
1040
150.0
1070
   147
1040
2.0
1070
   172
1070
     1
1070
   173
1070
     1
1070
   176
1070
   256
1070
   177
1070
   256
1070
   178
1070
   256
1070
   271
1070
     0
1070
   272
1070
     0
1070
   341
1005
6D
1070
     6
1000
OPEN
1070
     7
1000
OPEN
1070
   371
1070
    -1
1070
   372
1070
    -1
1002
}
  0
DIMENSION
  5
7849
330
1A
100
AcDbEntity
  8
SUNPOU
100
AcDbDimension
  2
*D3
 10
505.7200900245697
 20
139.6192531799652
 30
0.0
 11
500.7200900245696
 21
209.6310957004645
 31
0.0
 70
    32
  3
STANDARD
100
AcDbAlignedDimension
 13
470.49160361442
 23
279.6429382209636
 33
0.0
 14
458.3982645933875
 24
139.6192531799652
 34
0.0
 50
90.0
100
AcDbRotatedDimension
1001
ACAD
1000
DSTYLE
1002
{
1070
    41
1040
7.0
1070
    42
1040
6.0
1070
    43
1040
14.0
1070
    44
1040
3.0
1070
    73
1070
     0
1070
    74
1070
     0
1070
    77
1070
     3
1070
   140
1040
6.0
1070
   141
1040
150.0
1070
   147
1040
2.0
1070
   172
1070
     1
1070
   173
1070
     1
1070
   176
1070
   256
1070
   177
1070
   256
1070
   178
1070
   256
1070
   271
1070
     0
1070
   272
1070
     0
1070
   341
1005
6D
1070
     6
1000
OPEN
1070
     7
1000
OPEN
1070
   371
1070
    -1
1070
   372
1070
    -1
1002
}
  0
DIMENSION
  5
7856
330
1A
100
AcDbEntity
  8
SUNPOU
100
AcDbDimension
  2
*D4
 10
505.7200900245698
 20
385.0080420268213
 30
0.0
 11
500.7200900245697
 21
410.0080420268217
 31
0.0
 70
    32
  3
STANDARD
100
AcDbAlignedDimension
 13
472.4916036144199
 23
435.0080420268221
 33
0.0
 14
472.4916036144199
 24
385.0080420268213
 34
0.0
 50
90.0
100
AcDbRotatedDimension
1001
ACAD
1000
DSTYLE
1002
{
1070
    41
1040
7.0
1070
    42
1040
6.0
1070
    43
1040
14.0
1070
    44
1040
3.0
1070
    73
1070
     0
1070
    74
1070
     0
1070
    77
1070
     3
1070
   140
1040
6.0
1070
   141
1040
150.0
1070
   147
1040
2.0
1070
   172
1070
     1
1070
   173
1070
     1
1070
   176
1070
   256
1070
   177
1070
   256
1070
   178
1070
   256
1070
   271
1070
     0
1070
   272
1070
     0
1070
   341
1005
6D
1070
     6
1000
OPEN
1070
     7
1000
OPEN
1070
   371
1070
    -1
1070
   372
1070
    -1
1002
}
  0
DIMENSION
  5
7863
330
1A
100
AcDbEntity
  8
SUNPOU
100
AcDbDimension
  2
*D5
 10
591.7302360636047
 20
327.8998527629269
 30
0.0
 11
566.7302360636045
 21
332.8998527629269
 31
0.0
 70
    32
  3
STANDARD
100
AcDbAlignedDimension
 13
541.7302360636044
 23
279.6429382209636
 33
0.0
 14
591.7302360636047
 24
279.6429382209636
 34
0.0
100
AcDbRotatedDimension
1001
ACAD
1000
DSTYLE
1002
{
1070
    41
1040
7.0
1070
    42
1040
6.0
1070
    43
1040
14.0
1070
    44
1040
3.0
1070
    73
1070
     0
1070
    74
1070
     0
1070
    77
1070
     3
1070
   140
1040
6.0
1070
   141
1040
150.0
1070
   147
1040
2.0
1070
   172
1070
     1
1070
   173
1070
     1
1070
   176
1070
   256
1070
   177
1070
   256
1070
   178
1070
   256
1070
   271
1070
     0
1070
   272
1070
     0
1070
   341
1005
6D
1070
     6
1000
OPEN
1070
     7
1000
OPEN
1070
   371
1070
    -1
1070
   372
1070
    -1
1002
}
  0
VIEWPORT
  5
22
330
17
100
AcDbEntity
 67
     1
  8
0
100
AcDbViewport
 10
313.6808219178082
 20
148.5
 30
0.0
 40
627.3616438356165
 41
297.0
 68
     2
 69
     1
1001
ACAD
1000
MVIEW
1002
{
1070
    16
1010
0.0
1020
0.0
1030
0.0
1010
0.0
1020
0.0
1030
1.0
1040
0.0
1040
297.0
1040
313.6808219178082
1040
148.5
1040
50.0
1040
0.0
1040
0.0
1070
     0
1070
   100
1070
     1
1070
     0
1070
     0
1070
     0
1070
     0
1070
     0
1040
0.0
1040
0.0
1040
0.0
1040
1.0
1040
1.0
1040
10.0
1040
10.0
1070
     0
1002
{
1002
}
1002
}
  0
VIEWPORT
  5
64
330
17
100
AcDbEntity
 67
     1
  8
VIEWPORT
100
AcDbViewport
 10
210.0
 20
148.5
 30
0.0
 40
420.0
 41
297.0
 68
     1
 69
     2
1001
ACAD
1000
MVIEW
1002
{
1070
    16
1010
0.0
1020
0.0
1030
0.0
1010
0.0
1020
0.0
1030
1.0
1040
0.0
1040
605.8799999999998
1040
420.0
1040
297.0
1040
50.0
1040
0.0
1040
0.0
1070
     0
1070
   100
1070
     1
1070
     0
1070
     0
1070
     0
1070
     0
1070
     0
1040
0.0
1040
0.0
1040
0.0
1040
10.0
1040
10.0
1040
0.0
1040
0.0
1070
     0
1002
{
1002
}
1002
}
  0
ENDSEC
  0
SECTION
  2
OBJECTS
  0
DICTIONARY
  5
C
330
0
100
AcDbDictionary
  3
ACAD_GROUP
350
D
  3
ACAD_LAYOUT
350
4BC
  3
ACAD_MLINESTYLE
350
E
  3
ACAD_PLOTSETTINGS
350
4BD
1001
ACAD
1000
TREAT_AS_HARD
1070
     0
  0
DICTIONARY
  5
4EB
330
1A
100
AcDbDictionary
  3
ACAD_LAYOUTSELFREF
350
7AC2
1001
ACAD
1000
TREAT_AS_HARD
1070
     1
  0
DICTIONARY
  5
4E9
330
17
100
AcDbDictionary
  3
ACAD_LAYOUTSELFREF
350
7AC1
1001
ACAD
1000
TREAT_AS_HARD
1070
     1
  0
DICTIONARY
  5
D
102
{ACAD_REACTORS
330
C
102
}
330
C
100
AcDbDictionary
  3
*A1
350
464A
  3
*A2
350
77D5
1001
ACAD
1000
TREAT_AS_HARD
1070
     0
  0
DICTIONARY
  5
4BC
102
{ACAD_REACTORS
330
C
102
}
330
C
100
AcDbDictionary
1001
ACAD
1000
TREAT_AS_HARD
1070
     0
  0
DICTIONARY
  5
E
102
{ACAD_REACTORS
330
C
102
}
330
C
100
AcDbDictionary
  3
STANDARD
350
13
1001
ACAD
1000
TREAT_AS_HARD
1070
     0
  0
DICTIONARY
  5
4BD
102
{ACAD_REACTORS
330
C
102
}
330
C
100
AcDbDictionary
1001
ACAD
1000
TREAT_AS_HARD
1070
     0
  0
XRECORD
  5
7AC2
102
{ACAD_REACTORS
330
4EB
102
}
330
4EB
100
AcDbXrecord
340
1A
  0
XRECORD
  5
7AC1
102
{ACAD_REACTORS
330
4E9
102
}
330
4E9
100
AcDbXrecord
340
17
  0
GROUP
  5
464A
102
{ACAD_REACTORS
330
D
102
}
330
D
100
AcDbGroup
300

 70
     1
 71
     1
  0
GROUP
  5
77D5
102
{ACAD_REACTORS
330
D
102
}
330
D
100
AcDbGroup
300

 70
     1
 71
     1
340
776A
340
7769
340
7768
340
77A0
340
778C
340
778B
340
778A
340
776D
340
776C
340
776B
340
777C
340
7778
340
7773
340
7771
340
7770
340
776F
340
7775
340
7774
340
7777
340
7776
340
777B
340
777A
340
7779
340
777E
340
777D
340
7772
340
776E
340
777F
340
7788
340
7787
340
7783
340
77A2
340
77A1
340
779F
340
779E
340
779C
340
7798
340
778D
340
778F
340
778E
340
7786
340
7785
340
7782
340
7789
340
7799
340
7797
340
7795
340
77AD
340
77A9
340
77A7
340
77AC
340
7784
340
77AB
340
77B0
340
77AF
340
77A8
340
77A6
340
77B1
340
77AA
340
77A5
340
77A4
340
7781
340
7780
340
77B5
340
77B4
340
77B3
340
77B2
340
77AE
340
77A3
340
7791
340
7790
340
779D
340
779B
340
779A
340
7796
340
7794
340
7793
340
7792
340
77B8
340
77B7
340
77B6
340
77BC
340
77BB
340
77BA
340
77CF
340
77CE
340
77C4
340
77C2
340
77BE
340
77C1
340
77C5
340
77CB
340
77C6
340
77C0
340
77BD
340
77CA
340
77C9
340
77C8
340
77C7
340
77D3
340
77D2
340
77D1
340
77C3
340
77BF
340
77D0
340
77CD
340
77CC
  0
MLINESTYLE
  5
13
102
{ACAD_REACTORS
330
E
102
}
330
E
100
AcDbMlineStyle
  2
STANDARD
 70
     0
  3

 62
     0
 51
90.0
 52
90.0
 71
     2
 49
0.5
 62
   256
  6
BYLAYER
 49
-0.5
 62
   256
  6
BYLAYER
  0
ENDSEC
  0
EOF
