  0
SECTION
  2
HEADER
  9
$ACADVER
  1
AC1015
  9
$ACADMAINTVER
 70
    20
  9
$DWGCODEPAGE
  3
ANSI_932
  9
$INSBASE
 10
0.0
 20
0.0
 30
0.0
  9
$EXTMIN
 10
28037.31868474623
 20
-4577.773366482037
 30
0.0
  9
$EXTMAX
 10
29632.51868474623
 20
-3474.573366482037
 30
0.0
  9
$LIMMIN
 10
0.0
 20
0.0
  9
$LIMMAX
 10
431.7999999999999
 20
279.4
  9
$ORTHOMODE
 70
     1
  9
$REGENMODE
 70
     1
  9
$FILLMODE
 70
     1
  9
$QTEXTMODE
 70
     0
  9
$MIRRTEXT
 70
     1
  9
$LTSCALE
 40
1.0
  9
$ATTMODE
 70
     1
  9
$TEXTSIZE
 40
3.5
  9
$TRACEWID
 40
1.0
  9
$TEXTSTYLE
  7
MSUI
  9
$CLAYER
  8
CENTER_L
  9
$CELTYPE
  6
ByLayer
  9
$CECOLOR
 62
   256
  9
$CELTSCALE
 40
1.0
  9
$DISPSILH
 70
     0
  9
$DIMSCALE
 40
1.0
  9
$DIMASZ
 40
6.0
  9
$DIMEXO
 40
3.0
  9
$DIMDLI
 40
3.75
  9
$DIMRND
 40
0.0
  9
$DIMDLE
 40
0.0
  9
$DIMEXE
 40
1.0
  9
$DIMTP
 40
0.0
  9
$DIMTM
 40
0.0
  9
$DIMTXT
 40
10.0
  9
$DIMCEN
 40
2.5
  9
$DIMTSZ
 40
0.0
  9
$DIMTOL
 70
     0
  9
$DIMLIM
 70
     0
  9
$DIMTIH
 70
     0
  9
$DIMTOH
 70
     0
  9
$DIMSE1
 70
     0
  9
$DIMSE2
 70
     0
  9
$DIMTAD
 70
     1
  9
$DIMZIN
 70
     9
  9
$DIMBLK
  1

  9
$DIMASO
 70
     1
  9
$DIMSHO
 70
     1
  9
$DIMPOST
  1

  9
$DIMAPOST
  1

  9
$DIMALT
 70
     0
  9
$DIMALTD
 70
     3
  9
$DIMALTF
 40
0.0393700787401575
  9
$DIMLFAC
 40
1.0
  9
$DIMTOFL
 70
     1
  9
$DIMTVP
 40
0.0
  9
$DIMTIX
 70
     0
  9
$DIMSOXD
 70
     0
  9
$DIMSAH
 70
     0
  9
$DIMBLK1
  1

  9
$DIMBLK2
  1

  9
$DIMSTYLE
  2
ISO-25
  9
$DIMCLRD
 70
     5
  9
$DIMCLRE
 70
     5
  9
$DIMCLRT
 70
     5
  9
$DIMTFAC
 40
1.0
  9
$DIMGAP
 40
1.524
  9
$DIMJUST
 70
     0
  9
$DIMSD1
 70
     0
  9
$DIMSD2
 70
     0
  9
$DIMTOLJ
 70
     0
  9
$DIMTZIN
 70
     1
  9
$DIMALTZ
 70
     0
  9
$DIMALTTZ
 70
     0
  9
$DIMUPT
 70
     0
  9
$DIMDEC
 70
     2
  9
$DIMTDEC
 70
     2
  9
$DIMALTU
 70
     2
  9
$DIMALTTD
 70
     3
  9
$DIMTXSTY
  7
MSUI
  9
$DIMAUNIT
 70
     0
  9
$DIMADEC
 70
     2
  9
$DIMALTRND
 40
0.0
  9
$DIMAZIN
 70
     2
  9
$DIMDSEP
 70
    44
  9
$DIMATFIT
 70
     3
  9
$DIMFRAC
 70
     0
  9
$DIMLDRBLK
  1

  9
$DIMLUNIT
 70
     2
  9
$DIMLWD
 70
    -2
  9
$DIMLWE
 70
    -2
  9
$DIMTMOVE
 70
     0
  9
$LUNITS
 70
     2
  9
$LUPREC
 70
     2
  9
$SKETCHINC
 40
1.0
  9
$FILLETRAD
 40
1.0
  9
$AUNITS
 70
     0
  9
$AUPREC
 70
     2
  9
$MENU
  1
.
  9
$ELEVATION
 40
0.0
  9
$PELEVATION
 40
0.0
  9
$THICKNESS
 40
0.0
  9
$LIMCHECK
 70
     0
  9
$CHAMFERA
 40
0.0
  9
$CHAMFERB
 40
0.0
  9
$CHAMFERC
 40
0.0
  9
$CHAMFERD
 40
0.0
  9
$SKPOLY
 70
     0
  9
$TDCREATE
 40
2459977.552915243
  9
$TDUCREATE
 40
2459977.177915243
  9
$TDUPDATE
 40
2460199.717750498
  9
$TDUUPDATE
 40
2460199.342750498
  9
$TDINDWG
 40
11.1384729745
  9
$TDUSRTIMER
 40
11.1384729745
  9
$USRTIMER
 70
     1
  9
$ANGBASE
 50
0.0
  9
$ANGDIR
 70
     0
  9
$PDMODE
 70
     0
  9
$PDSIZE
 40
-1.0
  9
$PLINEWID
 40
0.0
  9
$SPLFRAME
 70
     0
  9
$SPLINETYPE
 70
     6
  9
$SPLINESEGS
 70
  8000
  9
$HANDSEED
  5
3B2E8
  9
$SURFTAB1
 70
     6
  9
$SURFTAB2
 70
     6
  9
$SURFTYPE
 70
     6
  9
$SURFU
 70
     6
  9
$SURFV
 70
     6
  9
$UCSBASE
  2

  9
$UCSNAME
  2

  9
$UCSORG
 10
0.0
 20
0.0
 30
0.0
  9
$UCSXDIR
 10
1.0
 20
0.0
 30
0.0
  9
$UCSYDIR
 10
0.0
 20
1.0
 30
0.0
  9
$UCSORTHOREF
  2

  9
$UCSORTHOVIEW
 70
     0
  9
$UCSORGTOP
 10
0.0
 20
0.0
 30
0.0
  9
$UCSORGBOTTOM
 10
0.0
 20
0.0
 30
0.0
  9
$UCSORGLEFT
 10
0.0
 20
0.0
 30
0.0
  9
$UCSORGRIGHT
 10
0.0
 20
0.0
 30
0.0
  9
$UCSORGFRONT
 10
0.0
 20
0.0
 30
0.0
  9
$UCSORGBACK
 10
0.0
 20
0.0
 30
0.0
  9
$PUCSBASE
  2

  9
$PUCSNAME
  2

  9
$PUCSORG
 10
0.0
 20
0.0
 30
0.0
  9
$PUCSXDIR
 10
1.0
 20
0.0
 30
0.0
  9
$PUCSYDIR
 10
0.0
 20
1.0
 30
0.0
  9
$PUCSORTHOREF
  2

  9
$PUCSORTHOVIEW
 70
     0
  9
$PUCSORGTOP
 10
0.0
 20
0.0
 30
0.0
  9
$PUCSORGBOTTOM
 10
0.0
 20
0.0
 30
0.0
  9
$PUCSORGLEFT
 10
0.0
 20
0.0
 30
0.0
  9
$PUCSORGRIGHT
 10
0.0
 20
0.0
 30
0.0
  9
$PUCSORGFRONT
 10
0.0
 20
0.0
 30
0.0
  9
$PUCSORGBACK
 10
0.0
 20
0.0
 30
0.0
  9
$USERI1
 70
     0
  9
$USERI2
 70
     0
  9
$USERI3
 70
     0
  9
$USERI4
 70
     0
  9
$USERI5
 70
     0
  9
$USERR1
 40
0.0
  9
$USERR2
 40
0.0
  9
$USERR3
 40
0.0
  9
$USERR4
 40
0.0
  9
$USERR5
 40
0.0
  9
$WORLDVIEW
 70
     1
  9
$SHADEDGE
 70
     3
  9
$SHADEDIF
 70
    70
  9
$TILEMODE
 70
     0
  9
$MAXACTVP
 70
    64
  9
$PINSBASE
 10
0.0
 20
0.0
 30
0.0
  9
$PLIMCHECK
 70
     0
  9
$PEXTMIN
 10
-73.83861450660799
 20
-22.64352933958139
 30
0.0
  9
$PEXTMAX
 10
344.4227553844882
 20
272.4048239951644
 30
0.0
  9
$PLIMMIN
 10
-74.68970753027355
 20
-23.6288666236274
  9
$PLIMMAX
 10
345.2569477431639
 20
273.2971282494195
  9
$UNITMODE
 70
     0
  9
$VISRETAIN
 70
     1
  9
$PLINEGEN
 70
     0
  9
$PSLTSCALE
 70
     1
  9
$TREEDEPTH
 70
  3020
  9
$CMLSTYLE
  2
Standard
  9
$CMLJUST
 70
     0
  9
$CMLSCALE
 40
20.0
  9
$PROXYGRAPHICS
 70
     1
  9
$MEASUREMENT
 70
     1
  9
$CELWEIGHT
370
    30
  9
$ENDCAPS
280
     0
  9
$JOINSTYLE
280
     0
  9
$LWDISPLAY
290
     1
  9
$INSUNITS
 70
     4
  9
$HYPERLINKBASE
  1

  9
$STYLESHEET
  1

  9
$XEDIT
290
     1
  9
$CEPSNTYPE
380
     0
  9
$PSTYLEMODE
290
     1
  9
$FINGERPRINTGUID
  2
{f0a142a2-46f0-4585-a537-6b23719e1866}
  9
$VERSIONGUID
  2
{02FE54D7-9A70-4892-A867-0E46A25DDC5C}
  9
$EXTNAMES
290
     1
  9
$PSVPSCALE
 40
0.0
  9
$OLESTARTUP
290
     0
  0
ENDSEC
  0
SECTION
  2
CLASSES
  0
CLASS
  1
ACDBDICTIONARYWDFLT
  2
AcDbDictionaryWithDefault
  3
ObjectDBX Classes
 90
        0
280
     0
281
     0
  0
CLASS
  1
VISUALSTYLE
  2
AcDbVisualStyle
  3
ObjectDBX Classes
 90
    36863
280
     0
281
     0
  0
CLASS
  1
MATERIAL
  2
AcDbMaterial
  3
ObjectDBX Classes
 90
    32768
280
     0
281
     0
  0
CLASS
  1
SCALE
  2
AcDbScale
  3
ObjectDBX Classes
 90
     1153
280
     0
281
     0
  0
CLASS
  1
TABLESTYLE
  2
AcDbTableStyle
  3
ObjectDBX Classes
 90
    36863
280
     0
281
     0
  0
CLASS
  1
MLEADERSTYLE
  2
AcDbMLeaderStyle
  3
ACDB_MLEADERSTYLE_CLASS
 90
    36863
280
     0
281
     0
  0
CLASS
  1
SUN
  2
AcDbSun
  3
SCENEOE
 90
    33921
280
     0
281
     0
  0
CLASS
  1
ACDBPLACEHOLDER
  2
AcDbPlaceHolder
  3
ObjectDBX Classes
 90
        0
280
     0
281
     0
  0
CLASS
  1
LAYOUT
  2
AcDbLayout
  3
ObjectDBX Classes
 90
        0
280
     0
281
     0
  0
CLASS
  1
DICTIONARYVAR
  2
AcDbDictionaryVar
  3
ObjectDBX Classes
 90
        0
280
     0
281
     0
  0
ENDSEC
  0
SECTION
  2
TABLES
  0
TABLE
  2
VPORT
  5
8
330
0
100
AcDbSymbolTable
 70
     2
  0
VPORT
  5
3B2C3
330
8
100
AcDbSymbolTableRecord
100
AcDbViewportTableRecord
  2
*Active
 70
     0
 10
0.0
 20
0.0
 11
1.0
 21
1.0
 12
29038.79632426839
 22
-4076.538739659815
 13
0.0
 23
0.0
 14
10.0
 24
10.0
 15
10.0
 25
10.0
 16
0.0
 26
0.0
 36
1.0
 17
0.0
 27
0.0
 37
0.0
 40
1680.083563288067
 41
2.121839080459769
 42
50.0
 43
0.0
 44
0.0
 50
0.0
 51
0.0
 71
     0
 72
 20000
 73
     1
 74
     2
 75
     0
 76
     0
 77
     0
 78
     0
281
     0
 65
     1
110
0.0
120
0.0
130
0.0
111
1.0
121
0.0
131
0.0
112
0.0
122
1.0
132
0.0
 79
     0
146
0.0
  0
ENDTAB
  0
TABLE
  2
LTYPE
  5
5
330
0
100
AcDbSymbolTable
 70
     2
  0
LTYPE
  5
14
330
5
100
AcDbSymbolTableRecord
100
AcDbLinetypeTableRecord
  2
ByBlock
 70
     0
  3

 72
    65
 73
     0
 40
0.0
  0
LTYPE
  5
15
330
5
100
AcDbSymbolTableRecord
100
AcDbLinetypeTableRecord
  2
ByLayer
 70
     0
  3

 72
    65
 73
     0
 40
0.0
  0
LTYPE
  5
16
330
5
100
AcDbSymbolTableRecord
100
AcDbLinetypeTableRecord
  2
Continuous
 70
     0
  3
Solid line
 72
    65
 73
     0
 40
0.0
  0
LTYPE
  5
70
330
5
100
AcDbSymbolTableRecord
100
AcDbLinetypeTableRecord
  2
CENTER
 70
     0
  3
Center ____ _ ____ _ ____ _ ____ _ ____ _ ____
 72
    65
 73
     4
 40
10.16
 49
6.349999999999999
 74
     0
 49
-1.27
 74
     0
 49
1.27
 74
     0
 49
-1.27
 74
     0
  0
ENDTAB
  0
TABLE
  2
LAYER
  5
2
102
{ACAD_XDICTIONARY
360
1F218
102
}
330
0
100
AcDbSymbolTable
 70
     9
  0
LAYER
  5
10
330
2
100
AcDbSymbolTableRecord
100
AcDbLayerTableRecord
  2
0
 70
     0
 62
     7
  6
Continuous
370
    -3
390
F
  0
LAYER
  5
C68
330
2
100
AcDbSymbolTableRecord
100
AcDbLayerTableRecord
  2
Defpoints
 70
     0
 62
     7
  6
Continuous
290
     0
370
    -3
390
F
  0
LAYER
  5
3949
330
2
100
AcDbSymbolTableRecord
100
AcDbLayerTableRecord
  2
ZUWAKU
 70
     0
 62
     7
  6
Continuous
370
    -3
390
F
  0
LAYER
  5
394A
330
2
100
AcDbSymbolTableRecord
100
AcDbLayerTableRecord
  2
SEIHIN
 70
     0
 62
     3
  6
Continuous
370
    -3
390
F
  0
LAYER
  5
394B
330
2
100
AcDbSymbolTableRecord
100
AcDbLayerTableRecord
  2
SUNPOU
 70
     0
 62
     4
  6
Continuous
370
    -3
390
F
  0
LAYER
  5
394C
330
2
100
AcDbSymbolTableRecord
100
AcDbLayerTableRecord
  2
CENTER L
 70
     0
 62
     1
  6
CENTER
370
    -3
390
F
  0
LAYER
  5
394D
330
2
100
AcDbSymbolTableRecord
100
AcDbLayerTableRecord
  2
moji
 70
     0
 62
     2
  6
Continuous
370
    -3
390
F
  0
LAYER
  5
35EAE
330
2
100
AcDbSymbolTableRecord
100
AcDbLayerTableRecord
  2
寸法
 70
     0
 62
     4
  6
Continuous
370
    -3
390
F
  0
LAYER
  5
3729E
330
2
100
AcDbSymbolTableRecord
100
AcDbLayerTableRecord
  2
CENTER_L
 70
     0
 62
     1
  6
CENTER
370
    -3
390
F
  0
ENDTAB
  0
TABLE
  2
STYLE
  5
3
330
0
100
AcDbSymbolTable
 70
     3
  0
STYLE
  5
11
330
3
100
AcDbSymbolTableRecord
100
AcDbTextStyleTableRecord
  2
Standard
 70
     0
 40
0.0
 41
1.0
 50
0.0
 71
     0
 42
3.5
  3
txt
  4
bigfont
  0
STYLE
  5
C75
330
3
100
AcDbSymbolTableRecord
100
AcDbTextStyleTableRecord
  2
MSUI
 70
     0
 40
0.0
 41
1.0
 50
0.0
 71
     0
 42
3.5
  3
MS UI Gothic.ttf
  4

1001
ACAD
1000
MS UI Gothic
1071
    32818
  0
STYLE
  5
394E
330
3
100
AcDbSymbolTableRecord
100
AcDbTextStyleTableRecord
  2
ｽﾀｲﾙ1
 70
     0
 40
0.0
 41
1.0
 50
0.0
 71
     0
 42
2.5
  3

  4

1001
ACAD
1000
MS PGothic
1071
    32818
  0
ENDTAB
  0
TABLE
  2
VIEW
  5
6
330
0
100
AcDbSymbolTable
 70
     0
  0
ENDTAB
  0
TABLE
  2
UCS
  5
7
330
0
100
AcDbSymbolTable
 70
     0
  0
ENDTAB
  0
TABLE
  2
APPID
  5
9
330
0
100
AcDbSymbolTable
 70
     1
  0
APPID
  5
12
330
9
100
AcDbSymbolTableRecord
100
AcDbRegAppTableRecord
  2
ACAD
 70
     0
  0
ENDTAB
  0
TABLE
  2
DIMSTYLE
  5
A
330
0
100
AcDbSymbolTable
 70
     2
100
AcDbDimStyleTable
 71
     2
340
394F
340
27
  0
DIMSTYLE
105
27
330
A
100
AcDbSymbolTableRecord
100
AcDbDimStyleTableRecord
  2
ISO-25
 70
     0
 41
2.5
 42
0.625
 43
3.75
 44
1.25
 73
     0
 74
     0
 77
     1
 78
     8
140
2.5
141
2.5
143
0.03937007874016
147
0.625
171
     3
172
     1
271
     2
272
     2
274
     3
278
    44
283
     0
284
     8
340
11
  0
DIMSTYLE
105
394F
102
{ACAD_REACTORS
330
39D1B
330
39D1A
330
39D19
330
39D17
330
39D2F
330
39D2E
330
39D46
330
39D44
330
39D43
330
39D42
102
}
330
A
100
AcDbSymbolTableRecord
100
AcDbDimStyleTableRecord
  2
STANDARD
 70
     0
340
11
  0
ENDTAB
  0
TABLE
  2
BLOCK_RECORD
  5
1
330
0
100
AcDbSymbolTable
 70
    16
  0
BLOCK_RECORD
  5
1F
330
1
100
AcDbSymbolTableRecord
100
AcDbBlockTableRecord
  2
*Model_Space
340
22
  0
BLOCK_RECORD
  5
3B0EA
330
1
100
AcDbSymbolTableRecord
100
AcDbBlockTableRecord
  2
*Paper_Space
340
3B0EF
  0
BLOCK_RECORD
  5
3729
330
1
100
AcDbSymbolTableRecord
100
AcDbBlockTableRecord
  2
_OPEN
340
0
102
{BLKREFS
331
39DEA
331
39DEB
331
39DF3
331
39DF4
331
39DFC
331
39DFD
331
39E17
331
39E18
331
39E20
331
39E21
331
39E29
331
39E2A
331
39E41
331
39E42
331
39E4A
331
39E4B
331
39E53
331
39E54
331
39E5C
331
39E5D
102
}
  0
BLOCK_RECORD
  5
1D29B
330
1
100
AcDbSymbolTableRecord
100
AcDbBlockTableRecord
  2
SW_CENTERMARKSYMBOL_0
340
0
  0
BLOCK_RECORD
  5
1D2A6
330
1
100
AcDbSymbolTableRecord
100
AcDbBlockTableRecord
  2
SW_CENTERMARKSYMBOL_1
340
0
  0
BLOCK_RECORD
  5
1D2B1
330
1
100
AcDbSymbolTableRecord
100
AcDbBlockTableRecord
  2
SW_CENTERMARKSYMBOL_2
340
0
  0
BLOCK_RECORD
  5
1FBAA
102
{ACAD_XDICTIONARY
360
1FBAB
102
}
330
1
100
AcDbSymbolTableRecord
100
AcDbBlockTableRecord
  2
_Open30
340
0
  0
BLOCK_RECORD
  5
38516
330
1
100
AcDbSymbolTableRecord
100
AcDbBlockTableRecord
  2
*X5
340
0
102
{BLKREFS
331
38967
102
}
  0
BLOCK_RECORD
  5
39D66
330
1
100
AcDbSymbolTableRecord
100
AcDbBlockTableRecord
  2
*D6
340
0
  0
BLOCK_RECORD
  5
39D72
330
1
100
AcDbSymbolTableRecord
100
AcDbBlockTableRecord
  2
*D7
340
0
  0
BLOCK_RECORD
  5
39D7E
330
1
100
AcDbSymbolTableRecord
100
AcDbBlockTableRecord
  2
*D8
340
0
  0
BLOCK_RECORD
  5
39D8A
330
1
100
AcDbSymbolTableRecord
100
AcDbBlockTableRecord
  2
*D9
340
0
  0
BLOCK_RECORD
  5
39D96
330
1
100
AcDbSymbolTableRecord
100
AcDbBlockTableRecord
  2
*D10
340
0
  0
BLOCK_RECORD
  5
39DA2
330
1
100
AcDbSymbolTableRecord
100
AcDbBlockTableRecord
  2
*D11
340
0
  0
BLOCK_RECORD
  5
39DAE
330
1
100
AcDbSymbolTableRecord
100
AcDbBlockTableRecord
  2
*D12
340
0
  0
BLOCK_RECORD
  5
39DBA
330
1
100
AcDbSymbolTableRecord
100
AcDbBlockTableRecord
  2
*D13
340
0
  0
BLOCK_RECORD
  5
39DC6
330
1
100
AcDbSymbolTableRecord
100
AcDbBlockTableRecord
  2
*D14
340
0
  0
BLOCK_RECORD
  5
39DD2
330
1
100
AcDbSymbolTableRecord
100
AcDbBlockTableRecord
  2
*D15
340
0
  0
ENDTAB
  0
ENDSEC
  0
SECTION
  2
BLOCKS
  0
BLOCK
  5
20
330
1F
100
AcDbEntity
  8
0
100
AcDbBlockBegin
  2
*Model_Space
 70
     0
 10
0.0
 20
0.0
 30
0.0
  3
*Model_Space
  1

  0
ENDBLK
  5
21
330
1F
100
AcDbEntity
  8
0
100
AcDbBlockEnd
  0
BLOCK
  5
3B0EB
330
3B0EA
100
AcDbEntity
 67
     1
  8
0
100
AcDbBlockBegin
  2
*Paper_Space
 70
     0
 10
0.0
 20
0.0
 30
0.0
  3
*Paper_Space
  1

  0
ENDBLK
  5
3B0EE
330
3B0EA
100
AcDbEntity
 67
     1
  8
0
100
AcDbBlockEnd
  0
BLOCK
  5
372A
330
3729
100
AcDbEntity
  8
0
100
AcDbBlockBegin
  2
_OPEN
 70
     0
 10
0.0
 20
0.0
 30
0.0
  3
_OPEN
  1

  0
LINE
  5
372B
330
3729
100
AcDbEntity
  8
0
  6
ByBlock
 62
     0
100
AcDbLine
 10
-1.0
 20
0.1666666666666666
 30
0.0
 11
0.0
 21
0.0
 31
0.0
  0
LINE
  5
372C
330
3729
100
AcDbEntity
  8
0
  6
ByBlock
 62
     0
100
AcDbLine
 10
0.0
 20
0.0
 30
0.0
 11
-1.0
 21
-0.1666666666666666
 31
0.0
  0
LINE
  5
372D
330
3729
100
AcDbEntity
  8
0
  6
ByBlock
 62
     0
100
AcDbLine
 10
0.0
 20
0.0
 30
0.0
 11
-1.0
 21
0.0
 31
0.0
  0
ENDBLK
  5
372E
330
3729
100
AcDbEntity
  8
0
100
AcDbBlockEnd
  0
BLOCK
  5
1D29C
330
1D29B
100
AcDbEntity
  8
0
100
AcDbBlockBegin
  2
SW_CENTERMARKSYMBOL_0
 70
     0
 10
0.0
 20
0.0
 30
0.0
  3
SW_CENTERMARKSYMBOL_0
  1

  0
LINE
  5
1D29D
330
1D29B
100
AcDbEntity
  8
0
  6
Continuous
 62
     0
370
    18
100
AcDbLine
 10
0.0
 20
0.0
 30
0.0
 11
0.0
 21
2.500000000000057
 31
0.0
  0
LINE
  5
1D29E
330
1D29B
100
AcDbEntity
  8
0
  6
Continuous
 62
     0
370
    18
100
AcDbLine
 10
0.0
 20
0.0
 30
0.0
 11
-2.499999999999946
 21
0.0
 31
0.0
  0
LINE
  5
1D29F
330
1D29B
100
AcDbEntity
  8
0
  6
Continuous
 62
     0
370
    18
100
AcDbLine
 10
0.0
 20
0.0
 30
0.0
 11
0.0
 21
-2.500000000000057
 31
0.0
  0
LINE
  5
1D2A0
330
1D29B
100
AcDbEntity
  8
0
  6
Continuous
 62
     0
370
    18
100
AcDbLine
 10
0.0
 20
0.0
 30
0.0
 11
2.499999999999946
 21
0.0
 31
0.0
  0
LINE
  5
1D2A1
330
1D29B
100
AcDbEntity
  8
0
  6
Continuous
 62
     0
370
    18
100
AcDbLine
 10
0.0
 20
2.500000000000057
 30
0.0
 11
0.0
 21
3.750000000000031
 31
0.0
  0
LINE
  5
1D2A2
330
1D29B
100
AcDbEntity
  8
0
  6
Continuous
 62
     0
370
    18
100
AcDbLine
 10
-2.499999999999946
 20
0.0
 30
0.0
 11
-3.750000000000142
 21
0.0
 31
0.0
  0
LINE
  5
1D2A3
330
1D29B
100
AcDbEntity
  8
0
  6
Continuous
 62
     0
370
    18
100
AcDbLine
 10
0.0
 20
-2.500000000000057
 30
0.0
 11
0.0
 21
-3.750000000000031
 31
0.0
  0
LINE
  5
1D2A4
330
1D29B
100
AcDbEntity
  8
0
  6
Continuous
 62
     0
370
    18
100
AcDbLine
 10
2.499999999999946
 20
0.0
 30
0.0
 11
3.74999999999992
 21
0.0
 31
0.0
  0
ENDBLK
  5
1D2A5
330
1D29B
100
AcDbEntity
  8
0
100
AcDbBlockEnd
  0
BLOCK
  5
1D2A7
330
1D2A6
100
AcDbEntity
  8
0
100
AcDbBlockBegin
  2
SW_CENTERMARKSYMBOL_1
 70
     0
 10
0.0
 20
0.0
 30
0.0
  3
SW_CENTERMARKSYMBOL_1
  1

  0
LINE
  5
1D2A8
330
1D2A6
100
AcDbEntity
  8
0
  6
Continuous
 62
     0
370
    18
100
AcDbLine
 10
0.0
 20
0.0
 30
0.0
 11
0.0
 21
2.500000000000057
 31
0.0
  0
LINE
  5
1D2A9
330
1D2A6
100
AcDbEntity
  8
0
  6
Continuous
 62
     0
370
    18
100
AcDbLine
 10
0.0
 20
0.0
 30
0.0
 11
-2.499999999999946
 21
0.0
 31
0.0
  0
LINE
  5
1D2AA
330
1D2A6
100
AcDbEntity
  8
0
  6
Continuous
 62
     0
370
    18
100
AcDbLine
 10
0.0
 20
0.0
 30
0.0
 11
0.0
 21
-2.500000000000057
 31
0.0
  0
LINE
  5
1D2AB
330
1D2A6
100
AcDbEntity
  8
0
  6
Continuous
 62
     0
370
    18
100
AcDbLine
 10
0.0
 20
0.0
 30
0.0
 11
2.499999999999946
 21
0.0
 31
0.0
  0
LINE
  5
1D2AC
330
1D2A6
100
AcDbEntity
  8
0
  6
Continuous
 62
     0
370
    18
100
AcDbLine
 10
0.0
 20
2.500000000000057
 30
0.0
 11
0.0
 21
3.750000000000031
 31
0.0
  0
LINE
  5
1D2AD
330
1D2A6
100
AcDbEntity
  8
0
  6
Continuous
 62
     0
370
    18
100
AcDbLine
 10
-2.499999999999946
 20
0.0
 30
0.0
 11
-3.74999999999992
 21
0.0
 31
0.0
  0
LINE
  5
1D2AE
330
1D2A6
100
AcDbEntity
  8
0
  6
Continuous
 62
     0
370
    18
100
AcDbLine
 10
0.0
 20
-2.500000000000057
 30
0.0
 11
0.0
 21
-3.750000000000031
 31
0.0
  0
LINE
  5
1D2AF
330
1D2A6
100
AcDbEntity
  8
0
  6
Continuous
 62
     0
370
    18
100
AcDbLine
 10
2.499999999999946
 20
0.0
 30
0.0
 11
3.74999999999992
 21
0.0
 31
0.0
  0
ENDBLK
  5
1D2B0
330
1D2A6
100
AcDbEntity
  8
0
100
AcDbBlockEnd
  0
BLOCK
  5
1D2B2
330
1D2B1
100
AcDbEntity
  8
0
100
AcDbBlockBegin
  2
SW_CENTERMARKSYMBOL_2
 70
     0
 10
0.0
 20
0.0
 30
0.0
  3
SW_CENTERMARKSYMBOL_2
  1

  0
LINE
  5
1D2B3
330
1D2B1
100
AcDbEntity
  8
0
  6
Continuous
 62
     0
370
    18
100
AcDbLine
 10
0.0
 20
0.0
 30
0.0
 11
0.0
 21
2.500000000000057
 31
0.0
  0
LINE
  5
1D2B4
330
1D2B1
100
AcDbEntity
  8
0
  6
Continuous
 62
     0
370
    18
100
AcDbLine
 10
0.0
 20
0.0
 30
0.0
 11
-2.499999999999946
 21
0.0
 31
0.0
  0
LINE
  5
1D2B5
330
1D2B1
100
AcDbEntity
  8
0
  6
Continuous
 62
     0
370
    18
100
AcDbLine
 10
0.0
 20
0.0
 30
0.0
 11
0.0
 21
-2.500000000000057
 31
0.0
  0
LINE
  5
1D2B6
330
1D2B1
100
AcDbEntity
  8
0
  6
Continuous
 62
     0
370
    18
100
AcDbLine
 10
0.0
 20
0.0
 30
0.0
 11
2.500000000000168
 21
0.0
 31
0.0
  0
LINE
  5
1D2B7
330
1D2B1
100
AcDbEntity
  8
0
  6
Continuous
 62
     0
370
    18
100
AcDbLine
 10
0.0
 20
2.500000000000057
 30
0.0
 11
0.0
 21
3.750000000000031
 31
0.0
  0
LINE
  5
1D2B8
330
1D2B1
100
AcDbEntity
  8
0
  6
Continuous
 62
     0
370
    18
100
AcDbLine
 10
-2.499999999999946
 20
0.0
 30
0.0
 11
-3.74999999999992
 21
0.0
 31
0.0
  0
LINE
  5
1D2B9
330
1D2B1
100
AcDbEntity
  8
0
  6
Continuous
 62
     0
370
    18
100
AcDbLine
 10
0.0
 20
-2.500000000000057
 30
0.0
 11
0.0
 21
-3.750000000000031
 31
0.0
  0
LINE
  5
1D2BA
330
1D2B1
100
AcDbEntity
  8
0
  6
Continuous
 62
     0
370
    18
100
AcDbLine
 10
2.500000000000168
 20
0.0
 30
0.0
 11
3.750000000000142
 21
0.0
 31
0.0
  0
ENDBLK
  5
1D2BB
330
1D2B1
100
AcDbEntity
  8
0
100
AcDbBlockEnd
  0
BLOCK
  5
1FBAC
330
1FBAA
100
AcDbEntity
  8
0
370
     0
100
AcDbBlockBegin
  2
_Open30
 70
     0
 10
0.0
 20
0.0
 30
0.0
  3
_Open30
  1

  0
LINE
  5
1FBAD
330
1FBAA
100
AcDbEntity
  8
0
  6
ByBlock
 62
     0
370
    -2
100
AcDbLine
 10
-1.0
 20
0.26794919
 30
0.0
 11
0.0
 21
0.0
 31
0.0
  0
LINE
  5
1FBAE
330
1FBAA
100
AcDbEntity
  8
0
  6
ByBlock
 62
     0
370
    -2
100
AcDbLine
 10
0.0
 20
0.0
 30
0.0
 11
-1.0
 21
-0.26794919
 31
0.0
  0
LINE
  5
1FBAF
330
1FBAA
100
AcDbEntity
  8
0
  6
ByBlock
 62
     0
370
    -2
100
AcDbLine
 10
0.0
 20
0.0
 30
0.0
 11
-1.0
 21
0.0
 31
0.0
  0
ENDBLK
  5
1FBB0
330
1FBAA
100
AcDbEntity
  8
0
370
     0
100
AcDbBlockEnd
  0
BLOCK
  5
38517
330
38516
100
AcDbEntity
  8
0
100
AcDbBlockBegin
  2
*X5
 70
     1
 10
0.0
 20
0.0
 30
0.0
  3
*X5
  1

  0
LINE
  5
38518
330
38516
100
AcDbEntity
  8
0
 62
     0
100
AcDbLine
 10
138.0844243231183
 20
45.20833800885884
 30
0.0
 11
136.7927624636885
 21
46.4999998682888
 31
0.0
  0
LINE
  5
38519
330
38516
100
AcDbEntity
  8
0
 62
     0
100
AcDbLine
 10
138.0844243231183
 20
43.41228678464505
 30
0.0
 11
134.9967112394746
 21
46.4999998682888
 31
0.0
  0
LINE
  5
3851A
330
38516
100
AcDbEntity
  8
0
 62
     0
100
AcDbLine
 10
138.0844243231182
 20
41.61623556043116
 30
0.0
 11
133.2421564310883
 21
46.45850345246105
 31
0.0
  0
LINE
  5
3851B
330
38516
100
AcDbEntity
  8
0
 62
     0
100
AcDbLine
 10
138.0844243231183
 20
39.8201843362175
 30
0.0
 11
132.4844243231182
 21
45.42018433621751
 31
0.0
  0
LINE
  5
3851C
330
38516
100
AcDbEntity
  8
0
 62
     0
100
AcDbLine
 10
138.0844243231183
 20
38.0241331120036
 30
0.0
 11
132.4844243231182
 21
43.62413311200373
 31
0.0
  0
LINE
  5
3851D
330
38516
100
AcDbEntity
  8
0
 62
     0
100
AcDbLine
 10
138.0844243231182
 20
36.2280818877897
 30
0.0
 11
132.4844243231181
 21
41.82808188778984
 31
0.0
  0
LINE
  5
3851E
330
38516
100
AcDbEntity
  8
0
 62
     0
100
AcDbLine
 10
128.2844243231181
 20
44.2320306635761
 30
0.0
 11
126.0164551184056
 21
46.4999998682888
 31
0.0
  0
LINE
  5
3851F
330
38516
100
AcDbEntity
  8
0
 62
     0
100
AcDbLine
 10
138.0844243231183
 20
34.43203066357603
 30
0.0
 11
132.4844243231182
 21
40.03203066357616
 31
0.0
  0
LINE
  5
38520
330
38516
100
AcDbEntity
  8
0
 62
     0
100
AcDbLine
 10
128.2844243231181
 20
42.43597943936231
 30
0.0
 11
124.2204038941917
 21
46.49999986828868
 31
0.0
  0
LINE
  5
38521
330
38516
100
AcDbEntity
  8
0
 62
     0
100
AcDbLine
 10
138.0844243231182
 20
32.63597943936213
 30
0.0
 11
132.4844243231182
 21
38.23597943936227
 31
0.0
  0
LINE
  5
38522
330
38516
100
AcDbEntity
  8
0
 62
     0
100
AcDbLine
 10
128.2844243231181
 20
40.63992821514841
 30
0.0
 11
122.873402392844
 21
46.05095014542257
 31
0.0
  0
LINE
  5
38523
330
38516
100
AcDbEntity
  8
0
 62
     0
100
AcDbLine
 10
138.0844243231182
 20
30.83992821514835
 30
0.0
 11
132.4844243231181
 21
36.43992821514837
 31
0.0
  0
LINE
  5
38524
330
38516
100
AcDbEntity
  8
0
 62
     0
100
AcDbLine
 10
128.2844243231184
 20
38.84387699093441
 30
0.0
 11
122.684424323118
 21
44.44387699093465
 31
0.0
  0
LINE
  5
38525
330
38516
100
AcDbEntity
  8
0
 62
     0
100
AcDbLine
 10
138.0844243231183
 20
29.04387699093445
 30
0.0
 11
132.4844243231182
 21
34.64387699093459
 31
0.0
  0
LINE
  5
38526
330
38516
100
AcDbEntity
  8
0
 62
     0
100
AcDbLine
 10
128.2844243231183
 20
37.04782576672062
 30
0.0
 11
122.684424323118
 21
42.64782576672098
 31
0.0
  0
LINE
  5
38527
330
38516
100
AcDbEntity
  8
0
 62
     0
100
AcDbLine
 10
138.0844243231182
 20
27.24782576672067
 30
0.0
 11
132.4844243231181
 21
32.84782576672081
 31
0.0
  0
LINE
  5
38528
330
38516
100
AcDbEntity
  8
0
 62
     0
100
AcDbLine
 10
128.2844243231183
 20
35.25177454250684
 30
0.0
 11
122.684424323118
 21
40.85177454250708
 31
0.0
  0
LINE
  5
38529
330
38516
100
AcDbEntity
  8
0
 62
     0
100
AcDbLine
 10
138.0844243231182
 20
25.45177454250688
 30
0.0
 11
132.4844243231181
 21
31.05177454250702
 31
0.0
  0
LINE
  5
3852A
330
38516
100
AcDbEntity
  8
0
 62
     0
100
AcDbLine
 10
128.2844243231181
 20
33.45572331829294
 30
0.0
 11
122.6844243231179
 21
39.05572331829319
 31
0.0
  0
LINE
  5
3852B
330
38516
100
AcDbEntity
  8
0
 62
     0
100
AcDbLine
 10
138.0844243231181
 20
23.65572331829298
 30
0.0
 11
132.4844243231181
 21
29.25572331829312
 31
0.0
  0
LINE
  5
3852C
330
38516
100
AcDbEntity
  8
0
 62
     0
100
AcDbLine
 10
128.2844243231183
 20
31.65967209407927
 30
0.0
 11
122.684424323118
 21
37.25967209407952
 31
0.0
  0
LINE
  5
3852D
330
38516
100
AcDbEntity
  8
0
 62
     0
100
AcDbLine
 10
115.6844243231181
 20
44.2596720940794
 30
0.0
 11
113.4440965489086
 21
46.4999998682888
 31
0.0
  0
LINE
  5
3852E
330
38516
100
AcDbEntity
  8
0
 62
     0
100
AcDbLine
 10
138.0844243231182
 20
21.85967209407932
 30
0.0
 11
132.4844243231181
 21
27.45967209407934
 31
0.0
  0
LINE
  5
3852F
330
38516
100
AcDbEntity
  8
0
 62
     0
100
AcDbLine
 10
128.2844243231183
 20
29.86362086986537
 30
0.0
 11
122.6844243231179
 21
35.46362086986562
 31
0.0
  0
LINE
  5
38530
330
38516
100
AcDbEntity
  8
0
 62
     0
100
AcDbLine
 10
115.6844243231182
 20
42.46362086986539
 30
0.0
 11
111.6480453246948
 21
46.4999998682888
 31
0.0
  0
LINE
  5
38531
330
38516
100
AcDbEntity
  8
0
 62
     0
100
AcDbLine
 10
138.0844243231182
 20
20.06362086986542
 30
0.0
 11
132.4844243231181
 21
25.66362086986555
 31
0.0
  0
LINE
  5
38532
330
38516
100
AcDbEntity
  8
0
 62
     0
100
AcDbLine
 10
128.2844243231181
 20
28.06756964565159
 30
0.0
 11
122.684424323118
 21
33.66756964565161
 31
0.0
  0
LINE
  5
38533
330
38516
100
AcDbEntity
  8
0
 62
     0
100
AcDbLine
 10
115.6844243231181
 20
40.6675696456515
 30
0.0
 11
110.28489887647
 21
46.06709509229972
 31
0.0
  0
LINE
  5
38534
330
38516
100
AcDbEntity
  8
0
 62
     0
100
AcDbLine
 10
138.0844243231181
 20
18.26756964565163
 30
0.0
 11
132.484424323118
 21
23.86756964565166
 31
0.0
  0
LINE
  5
38535
330
38516
100
AcDbEntity
  8
0
 62
     0
100
AcDbLine
 10
128.2844243231183
 20
26.27151842143769
 30
0.0
 11
122.6844243231181
 21
31.87151842143783
 31
0.0
  0
LINE
  5
38536
330
38516
100
AcDbEntity
  8
0
 62
     0
100
AcDbLine
 10
115.6844243231182
 20
38.87151842143771
 30
0.0
 11
110.0844243231181
 21
44.47151842143784
 31
0.0
  0
LINE
  5
38537
330
38516
100
AcDbEntity
  8
0
 62
     0
100
AcDbLine
 10
138.0844243231182
 20
16.47151842143773
 30
0.0
 11
132.4844243231181
 21
22.07151842143787
 31
0.0
  0
LINE
  5
38538
330
38516
100
AcDbEntity
  8
0
 62
     0
100
AcDbLine
 10
128.2844243231181
 20
24.47546719722391
 30
0.0
 11
122.6844243231181
 21
30.07546719722404
 31
0.0
  0
LINE
  5
38539
330
38516
100
AcDbEntity
  8
0
 62
     0
100
AcDbLine
 10
115.6844243231182
 20
37.07546719722393
 30
0.0
 11
110.0844243231182
 21
42.67546719722395
 31
0.0
  0
LINE
  5
3853A
330
38516
100
AcDbEntity
  8
0
 62
     0
100
AcDbLine
 10
137.9404936133386
 20
14.81939790700358
 30
0.0
 11
132.4844243231181
 21
20.27546719722409
 31
0.0
  0
LINE
  5
3853B
330
38516
100
AcDbEntity
  8
0
 62
     0
100
AcDbLine
 10
128.2844243231183
 20
22.67941597300989
 30
0.0
 11
122.684424323118
 21
28.27941597301015
 31
0.0
  0
LINE
  5
3853C
330
38516
100
AcDbEntity
  8
0
 62
     0
100
AcDbLine
 10
115.6844243231181
 20
35.27941597301015
 30
0.0
 11
110.0844243231182
 21
40.87941597301005
 31
0.0
  0
LINE
  5
3853D
330
38516
100
AcDbEntity
  8
0
 62
     0
100
AcDbLine
 10
136.6638404278396
 20
14.29999986828863
 30
0.0
 11
132.484424323118
 21
18.4794159730103
 31
0.0
  0
LINE
  5
3853E
330
38516
100
AcDbEntity
  8
0
 62
     0
100
AcDbLine
 10
115.6844243231181
 20
33.48336474879625
 30
0.0
 11
110.0844243231181
 21
39.08336474879616
 31
0.0
  0
LINE
  5
3853F
330
38516
100
AcDbEntity
  8
0
 62
     0
100
AcDbLine
 10
128.2844243231183
 20
20.88336474879611
 30
0.0
 11
122.684424323118
 21
26.48336474879636
 31
0.0
  0
LINE
  5
38540
330
38516
100
AcDbEntity
  8
0
 62
     0
100
AcDbLine
 10
104.8344243231181
 20
44.33336474879626
 30
0.0
 11
102.6677892036255
 21
46.4999998682888
 31
0.0
  0
LINE
  5
38541
330
38516
100
AcDbEntity
  8
0
 62
     0
100
AcDbLine
 10
134.8677892036258
 20
14.29999986828841
 30
0.0
 11
132.484424323118
 21
16.6833647487964
 31
0.0
  0
LINE
  5
38542
330
38516
100
AcDbEntity
  8
0
 62
     0
100
AcDbLine
 10
115.6844243231181
 20
31.68731352458247
 30
0.0
 11
110.0844243231182
 21
37.28731352458249
 31
0.0
  0
LINE
  5
38543
330
38516
100
AcDbEntity
  8
0
 62
     0
100
AcDbLine
 10
104.8344243231181
 20
42.53731352458248
 30
0.0
 11
100.8717379794118
 21
46.4999998682889
 31
0.0
  0
LINE
  5
38544
330
38516
100
AcDbEntity
  8
0
 62
     0
100
AcDbLine
 10
128.2325077218271
 20
19.13923012587361
 30
0.0
 11
122.684424323118
 21
24.68731352458258
 31
0.0
  0
LINE
  5
38545
330
38516
100
AcDbEntity
  8
0
 62
     0
100
AcDbLine
 10
115.6844243231182
 20
29.89126230036845
 30
0.0
 11
110.0844243231182
 21
35.49126230036859
 31
0.0
  0
LINE
  5
38546
330
38516
100
AcDbEntity
  8
0
 62
     0
100
AcDbLine
 10
104.4432632308904
 20
41.13242339259636
 30
0.0
 11
99.07568675519815
 21
46.49999986828868
 31
0.0
  0
LINE
  5
38547
330
38516
100
AcDbEntity
  8
0
 62
     0
100
AcDbLine
 10
127.8465371313126
 20
17.72914949217408
 30
0.0
 11
122.684424323118
 21
22.89126230036879
 31
0.0
  0
LINE
  5
38548
330
38516
100
AcDbEntity
  8
0
 62
     0
100
AcDbLine
 10
115.6844243231182
 20
28.09521107615467
 30
0.0
 11
110.0844243231181
 21
33.69521107615481
 31
0.0
  0
LINE
  5
38549
330
38516
100
AcDbEntity
  8
0
 62
     0
100
AcDbLine
 10
102.8796355309841
 20
40.89999986828866
 30
0.0
 11
97.27963553098414
 21
46.4999998682888
 31
0.0
  0
LINE
  5
3854A
330
38516
100
AcDbEntity
  8
0
 62
     0
100
AcDbLine
 10
127.1964733794655
 20
16.58316201980733
 30
0.0
 11
122.541392844799
 21
21.23824255447392
 31
0.0
  0
LINE
  5
3854B
330
38516
100
AcDbEntity
  8
0
 62
     0
100
AcDbLine
 10
115.6844243231184
 20
26.29915985194088
 30
0.0
 11
110.0844243231182
 21
31.89915985194102
 31
0.0
  0
LINE
  5
3854C
330
38516
100
AcDbEntity
  8
0
 62
     0
100
AcDbLine
 10
101.0835843067705
 20
40.89999986828877
 30
0.0
 11
95.60845084841572
 21
46.37513332664354
 31
0.0
  0
LINE
  5
3854D
330
38516
100
AcDbEntity
  8
0
 62
     0
100
AcDbLine
 10
126.3323897848154
 20
15.65119439024374
 30
0.0
 11
121.738221567864
 21
20.24536260719515
 31
0.0
  0
LINE
  5
3854E
330
38516
100
AcDbEntity
  8
0
 62
     0
100
AcDbLine
 10
115.6844243231182
 20
24.5031086277271
 30
0.0
 11
110.0844243231181
 21
30.10310862772712
 31
0.0
  0
LINE
  5
3854F
330
38516
100
AcDbEntity
  8
0
 62
     0
100
AcDbLine
 10
99.28753308255659
 20
40.89999986828877
 30
0.0
 11
94.27916999934893
 21
45.90836295149631
 31
0.0
  0
LINE
  5
38550
330
38516
100
AcDbEntity
  8
0
 62
     0
100
AcDbLine
 10
125.2600650949633
 20
14.92746785588201
 30
0.0
 11
120.2875330825566
 21
19.89999986828866
 31
0.0
  0
LINE
  5
38551
330
38516
100
AcDbEntity
  8
0
 62
     0
100
AcDbLine
 10
115.6844243231182
 20
22.70705740351321
 30
0.0
 11
110.0844243231182
 21
28.30705740351311
 31
0.0
  0
LINE
  5
38552
330
38516
100
AcDbEntity
  8
0
 62
     0
100
AcDbLine
 10
97.53506151437898
 20
40.85642021225237
 30
0.0
 11
93.19396812492858
 21
45.19751360170277
 31
0.0
  0
LINE
  5
38553
330
38516
100
AcDbEntity
  8
0
 62
     0
100
AcDbLine
 10
123.9472399751407
 20
14.44424175149072
 30
0.0
 11
118.4914818583428
 21
19.89999986828866
 31
0.0
  0
LINE
  5
38554
330
38516
100
AcDbEntity
  8
0
 62
     0
100
AcDbLine
 10
96.78442432311829
 20
39.81100617929917
 30
0.0
 11
92.31774400683946
 21
44.27768649557799
 31
0.0
  0
LINE
  5
38555
330
38516
100
AcDbEntity
  8
0
 62
     0
100
AcDbLine
 10
122.295430634129
 20
14.29999986828852
 30
0.0
 11
110.0844243231182
 21
26.51100617929933
 31
0.0
  0
LINE
  5
38556
330
38516
100
AcDbEntity
  8
0
 62
     0
100
AcDbLine
 10
96.7844243231184
 20
38.0149549550855
 30
0.0
 11
91.65420218213341
 21
43.14517709607048
 31
0.0
  0
LINE
  5
38557
330
38516
100
AcDbEntity
  8
0
 62
     0
100
AcDbLine
 10
120.4993794099152
 20
14.29999986828852
 30
0.0
 11
110.0844243231183
 21
24.71495495508555
 31
0.0
  0
LINE
  5
38558
330
38516
100
AcDbEntity
  8
0
 62
     0
100
AcDbLine
 10
97.19751288532586
 20
35.80581516866414
 30
0.0
 11
91.24984514340519
 21
41.75348291058469
 31
0.0
  0
LINE
  5
38559
330
38516
100
AcDbEntity
  8
0
 62
     0
100
AcDbLine
 10
118.7033281857012
 20
14.29999986828863
 30
0.0
 11
110.0844243231182
 21
22.91890373087176
 31
0.0
  0
LINE
  5
3855A
330
38516
100
AcDbEntity
  8
0
 62
     0
100
AcDbLine
 10
105.6316317285009
 20
25.5756451012752
 30
0.0
 11
91.18442432311814
 21
40.02285250665784
 31
0.0
  0
LINE
  5
3855B
330
38516
100
AcDbEntity
  8
0
 62
     0
100
AcDbLine
 10
86.98442432311798
 20
44.222852506658
 30
0.0
 11
84.70727696148742
 21
46.49999986828868
 31
0.0
  0
LINE
  5
3855C
330
38516
100
AcDbEntity
  8
0
 62
     0
100
AcDbLine
 10
116.9072769614874
 20
14.29999986828863
 30
0.0
 11
110.0844243231182
 21
21.12285250665786
 31
0.0
  0
LINE
  5
3855D
330
38516
100
AcDbEntity
  8
0
 62
     0
100
AcDbLine
 10
105.8844243231183
 20
23.52680128244413
 30
0.0
 11
91.18442432311827
 21
38.22680128244417
 31
0.0
  0
LINE
  5
3855E
330
38516
100
AcDbEntity
  8
0
 62
     0
100
AcDbLine
 10
86.98442432311821
 20
42.4268012824441
 30
0.0
 11
82.91122573727353
 21
46.4999998682889
 31
0.0
  0
LINE
  5
3855F
330
38516
100
AcDbEntity
  8
0
 62
     0
100
AcDbLine
 10
115.078329979784
 20
14.3328956257784
 30
0.0
 11
110.117320080608
 21
19.29390552495442
 31
0.0
  0
LINE
  5
38560
330
38516
100
AcDbEntity
  8
0
 62
     0
100
AcDbLine
 10
86.98442432311821
 20
40.63075005823032
 30
0.0
 11
81.56964454756758
 21
46.04552983378084
 31
0.0
  0
LINE
  5
38561
330
38516
100
AcDbEntity
  8
0
 62
     0
100
AcDbLine
 10
105.8844243231182
 20
21.73075005823023
 30
0.0
 11
91.23124565888293
 21
36.38392872246561
 31
0.0
  0
LINE
  5
38562
330
38516
100
AcDbEntity
  8
0
 62
     0
100
AcDbLine
 10
86.98442432311821
 20
38.83469883401642
 30
0.0
 11
81.38442432311819
 21
44.43469883401633
 31
0.0
  0
LINE
  5
38563
330
38516
100
AcDbEntity
  8
0
 62
     0
100
AcDbLine
 10
105.8844243231179
 20
19.93469883401656
 30
0.0
 11
91.86748449456297
 21
33.95163866257167
 31
0.0
  0
LINE
  5
38564
330
38516
100
AcDbEntity
  8
0
 62
     0
100
AcDbLine
 10
86.98442432311821
 20
37.03864760980264
 30
0.0
 11
81.38442432311832
 21
42.63864760980254
 31
0.0
  0
LINE
  5
38565
330
38516
100
AcDbEntity
  8
0
 62
     0
100
AcDbLine
 10
105.66730068794
 20
18.35577124498081
 30
0.0
 11
100.2760311098634
 21
23.74704082305743
 31
0.0
  0
LINE
  5
38566
330
38516
100
AcDbEntity
  8
0
 62
     0
100
AcDbLine
 10
86.98442432311821
 20
35.24259638558886
 30
0.0
 11
81.38442432311819
 21
40.84259638558876
 31
0.0
  0
LINE
  5
38567
330
38516
100
AcDbEntity
  8
0
 62
     0
100
AcDbLine
 10
76.80145052196417
 20
45.42557018674279
 30
0.0
 11
75.72702084041816
 21
46.4999998682889
 31
0.0
  0
LINE
  5
38568
330
38516
100
AcDbEntity
  8
0
 62
     0
100
AcDbLine
 10
105.1315492724169
 20
17.09547143629015
 30
0.0
 11
100.2844243231183
 21
21.94259638558879
 31
0.0
  0
LINE
  5
38569
330
38516
100
AcDbEntity
  8
0
 62
     0
100
AcDbLine
 10
86.98442432311811
 20
33.44654516137496
 30
0.0
 11
81.38442432311819
 21
39.04654516137498
 31
0.0
  0
LINE
  5
3856A
330
38516
100
AcDbEntity
  8
0
 62
     0
100
AcDbLine
 10
76.40359519345896
 20
44.0273742910341
 30
0.0
 11
73.93096961620438
 21
46.4999998682888
 31
0.0
  0
LINE
  5
3856B
330
38516
100
AcDbEntity
  8
0
 62
     0
100
AcDbLine
 10
104.3655756760663
 20
16.06539380842685
 30
0.0
 11
100.0898539573453
 21
20.34111552714785
 31
0.0
  0
LINE
  5
3856C
330
38516
100
AcDbEntity
  8
0
 62
     0
100
AcDbLine
 10
86.98442432311811
 20
31.65049393716117
 30
0.0
 11
81.38442432311819
 21
37.25049393716108
 31
0.0
  0
LINE
  5
3856D
330
38516
100
AcDbEntity
  8
0
 62
     0
100
AcDbLine
 10
75.97254289964758
 20
42.66237536063158
 30
0.0
 11
72.15411177270642
 21
46.48080648757286
 31
0.0
  0
LINE
  5
3856E
330
38516
100
AcDbEntity
  8
0
 62
     0
100
AcDbLine
 10
103.392937745835
 20
15.24198051444409
 30
0.0
 11
98.73491839199061
 21
19.89999986828866
 31
0.0
  0
LINE
  5
3856F
330
38516
100
AcDbEntity
  8
0
 62
     0
100
AcDbLine
 10
86.98442432311834
 20
29.85444271294728
 30
0.0
 11
81.38442432311819
 21
35.4544427129473
 31
0.0
  0
LINE
  5
38570
330
38516
100
AcDbEntity
  8
0
 62
     0
100
AcDbLine
 10
75.54149060583654
 20
41.29737643022906
 30
0.0
 11
71.28549060583646
 21
45.55337643022915
 31
0.0
  0
LINE
  5
38571
330
38516
100
AcDbEntity
  8
0
 62
     0
100
AcDbLine
 10
102.2007698489143
 20
14.63809718715117
 30
0.0
 11
96.93886716777683
 21
19.89999986828877
 31
0.0
  0
LINE
  5
38572
330
38516
100
AcDbEntity
  8
0
 62
     0
100
AcDbLine
 10
86.98442432311834
 20
28.05839148873338
 30
0.0
 11
81.38442432311819
 21
33.65839148873352
 31
0.0
  0
LINE
  5
38573
330
38516
100
AcDbEntity
  8
0
 62
     0
100
AcDbLine
 10
75.11043831202482
 20
39.93237749982688
 30
0.0
 11
70.85443831202486
 21
44.18837749982685
 31
0.0
  0
LINE
  5
38574
330
38516
100
AcDbEntity
  8
0
 62
     0
100
AcDbLine
 10
100.7254245456193
 20
14.31739126623233
 30
0.0
 11
95.14281594356305
 21
19.89999986828866
 31
0.0
  0
LINE
  5
38575
330
38516
100
AcDbEntity
  8
0
 62
     0
100
AcDbLine
 10
86.98442432311821
 20
26.26234026451959
 30
0.0
 11
81.38442432311808
 21
31.86234026451962
 31
0.0
  0
LINE
  5
38576
330
38516
100
AcDbEntity
  8
0
 62
     0
100
AcDbLine
 10
74.67938601821368
 20
38.56737856942414
 30
0.0
 11
70.42338601821348
 21
42.82337856942421
 31
0.0
  0
LINE
  5
38577
330
38516
100
AcDbEntity
  8
0
 62
     0
100
AcDbLine
 10
98.94676471934928
 20
14.29999986828852
 30
0.0
 11
93.34676471934916
 21
19.89999986828866
 31
0.0
  0
LINE
  5
38578
330
38516
100
AcDbEntity
  8
0
 62
     0
100
AcDbLine
 10
86.98442432311834
 20
24.46628904030581
 30
0.0
 11
81.38442432311819
 21
30.06628904030595
 31
0.0
  0
LINE
  5
38579
330
38516
100
AcDbEntity
  8
0
 62
     0
100
AcDbLine
 10
74.24833372440253
 20
37.20237963902162
 30
0.0
 11
69.99233372440222
 21
41.45837963902181
 31
0.0
  0
LINE
  5
3857A
330
38516
100
AcDbEntity
  8
0
 62
     0
100
AcDbLine
 10
97.1507134951355
 20
14.29999986828863
 30
0.0
 11
92.28349010054273
 21
19.16722326288141
 31
0.0
  0
LINE
  5
3857B
330
38516
100
AcDbEntity
  8
0
 62
     0
100
AcDbLine
 10
73.81728143059103
 20
35.83738070861921
 30
0.0
 11
69.56128143059095
 21
40.09338070861929
 31
0.0
  0
LINE
  5
3857C
330
38516
100
AcDbEntity
  8
0
 62
     0
100
AcDbLine
 10
86.98442432311821
 20
22.67023781609191
 30
0.0
 11
81.38442432311819
 21
28.27023781609205
 31
0.0
  0
LINE
  5
3857D
330
38516
100
AcDbEntity
  8
0
 62
     0
100
AcDbLine
 10
65.28442432311817
 20
44.37023781609207
 30
0.0
 11
63.15466227092156
 21
46.49999986828857
 31
0.0
  0
LINE
  5
3857E
330
38516
100
AcDbEntity
  8
0
 62
     0
100
AcDbLine
 10
95.35466227092172
 20
14.29999986828852
 30
0.0
 11
92.23442432311822
 21
17.42023781609202
 31
0.0
  0
LINE
  5
3857F
330
38516
100
AcDbEntity
  8
0
 62
     0
100
AcDbLine
 10
73.38622913677966
 20
34.47238177821669
 30
0.0
 11
69.13022913677969
 21
38.72838177821666
 31
0.0
  0
LINE
  5
38580
330
38516
100
AcDbEntity
  8
0
 62
     0
100
AcDbLine
 10
86.98442432311821
 20
20.87418659187813
 30
0.0
 11
81.38442432311808
 21
26.47418659187827
 31
0.0
  0
LINE
  5
38581
330
38516
100
AcDbEntity
  8
0
 62
     0
100
AcDbLine
 10
65.28442432311817
 20
42.57418659187817
 30
0.0
 11
61.35861104670778
 21
46.49999986828857
 31
0.0
  0
LINE
  5
38582
330
38516
100
AcDbEntity
  8
0
 62
     0
100
AcDbLine
 10
93.5586110467077
 20
14.29999986828863
 30
0.0
 11
92.23442432311811
 21
15.62418659187813
 31
0.0
  0
LINE
  5
38583
330
38516
100
AcDbEntity
  8
0
 62
     0
100
AcDbLine
 10
72.95517684296829
 20
33.10738284781417
 30
0.0
 11
68.6991768429682
 21
37.36338284781425
 31
0.0
  0
LINE
  5
38584
330
38516
100
AcDbEntity
  8
0
 62
     0
100
AcDbLine
 10
65.28442432311805
 20
40.77813536766427
 30
0.0
 11
59.93353446532285
 21
46.1290252254596
 31
0.0
  0
LINE
  5
38585
330
38516
100
AcDbEntity
  8
0
 62
     0
100
AcDbLine
 10
86.98442432311821
 20
19.07813536766423
 30
0.0
 11
81.38442432311808
 21
24.67813536766437
 31
0.0
  0
LINE
  5
38586
330
38516
100
AcDbEntity
  8
0
 62
     0
100
AcDbLine
 10
72.52412454915702
 20
31.74238391741176
 30
0.0
 11
68.26812454915705
 21
35.99838391741173
 31
0.0
  0
LINE
  5
38587
330
38516
100
AcDbEntity
  8
0
 62
     0
100
AcDbLine
 10
65.28442432311817
 20
38.98208414345061
 30
0.0
 11
59.68442432311826
 21
44.58208414345051
 31
0.0
  0
LINE
  5
38588
330
38516
100
AcDbEntity
  8
0
 62
     0
100
AcDbLine
 10
86.98442432311821
 20
17.28208414345056
 30
0.0
 11
81.38442432311808
 21
22.88208414345058
 31
0.0
  0
LINE
  5
38589
330
38516
100
AcDbEntity
  8
0
 62
     0
100
AcDbLine
 10
72.11394753037325
 20
30.35650971198163
 30
0.0
 11
67.83707225534556
 21
34.63338498700932
 31
0.0
  0
LINE
  5
3858A
330
38516
100
AcDbEntity
  8
0
 62
     0
100
AcDbLine
 10
65.28442432311817
 20
37.18603291923671
 30
0.0
 11
59.68442432311815
 21
42.78603291923661
 31
0.0
  0
LINE
  5
3858B
330
38516
100
AcDbEntity
  8
0
 62
     0
100
AcDbLine
 10
86.98442432311834
 20
15.48603291923655
 30
0.0
 11
81.38442432311808
 21
21.0860329192368
 31
0.0
  0
LINE
  5
3858C
330
38516
100
AcDbEntity
  8
0
 62
     0
100
AcDbLine
 10
72.94289424924125
 20
27.73151176889974
 30
0.0
 11
67.25597726397632
 21
33.41842875416467
 31
0.0
  0
LINE
  5
3858D
330
38516
100
AcDbEntity
  8
0
 62
     0
100
AcDbLine
 10
65.28442432311829
 20
35.3899816950227
 30
0.0
 11
59.68442432311815
 21
40.98998169502283
 31
0.0
  0
LINE
  5
3858E
330
38516
100
AcDbEntity
  8
0
 62
     0
100
AcDbLine
 10
86.30633432845332
 20
14.36807168968755
 30
0.0
 11
81.38442432311819
 21
19.28998169502279
 31
0.0
  0
LINE
  5
3858F
330
38516
100
AcDbEntity
  8
0
 62
     0
100
AcDbLine
 10
73.77184096810935
 20
25.10651382581796
 30
0.0
 11
59.68442432311815
 21
39.19393047080905
 31
0.0
  0
LINE
  5
38590
330
38516
100
AcDbEntity
  8
0
 62
     0
100
AcDbLine
 10
54.78442432311829
 20
44.09393047080903
 30
0.0
 11
52.37835492563852
 21
46.49999986828868
 31
0.0
  0
LINE
  5
38591
330
38516
100
AcDbEntity
  8
0
 62
     0
100
AcDbLine
 10
84.57835492563868
 20
14.29999986828863
 30
0.0
 11
81.38442432311832
 21
17.493930470809
 31
0.0
  0
LINE
  5
38592
330
38516
100
AcDbEntity
  8
0
 62
     0
100
AcDbLine
 10
74.60078768697712
 20
22.48151588273618
 30
0.0
 11
59.68442432311815
 21
37.39787924659527
 31
0.0
  0
LINE
  5
38593
330
38516
100
AcDbEntity
  8
0
 62
     0
100
AcDbLine
 10
54.78442432311829
 20
42.29787924659513
 30
0.0
 11
50.58230370142474
 21
46.49999986828868
 31
0.0
  0
LINE
  5
38594
330
38516
100
AcDbEntity
  8
0
 62
     0
100
AcDbLine
 10
82.78230370142466
 20
14.29999986828875
 30
0.0
 11
81.38442432311819
 21
15.69787924659522
 31
0.0
  0
LINE
  5
38595
330
38516
100
AcDbEntity
  8
0
 62
     0
100
AcDbLine
 10
54.25061093233807
 20
41.03564141316144
 30
0.0
 11
48.85016749591523
 21
46.43608484958417
 31
0.0
  0
LINE
  5
38596
330
38516
100
AcDbEntity
  8
0
 62
     0
100
AcDbLine
 10
75.42973440584501
 20
19.85651793965451
 30
0.0
 11
59.68442432311815
 21
35.60182802238137
 31
0.0
  0
LINE
  5
38597
330
38516
100
AcDbEntity
  8
0
 62
     0
100
AcDbLine
 10
65.95944216780139
 20
27.53075895348434
 30
0.0
 11
59.68442432311838
 21
33.80577679816736
 31
0.0
  0
LINE
  5
38598
330
38516
100
AcDbEntity
  8
0
 62
     0
100
AcDbLine
 10
52.59020125299707
 20
40.89999986828866
 30
0.0
 11
47.3740813567407
 21
46.11611976454503
 31
0.0
  0
LINE
  5
38599
330
38516
100
AcDbEntity
  8
0
 62
     0
100
AcDbLine
 10
76.25868112471301
 20
17.23151999657273
 30
0.0
 11
68.07406574009724
 21
25.41613538118838
 31
0.0
  0
LINE
  5
3859A
330
38516
100
AcDbEntity
  8
0
 62
     0
100
AcDbLine
 10
65.28442432311829
 20
26.40972557395367
 30
0.0
 11
59.68442432311826
 21
32.00972557395369
 31
0.0
  0
LINE
  5
3859B
330
38516
100
AcDbEntity
  8
0
 62
     0
100
AcDbLine
 10
50.79415002878318
 20
40.89999986828866
 30
0.0
 11
46.09663852507924
 21
45.59751137199259
 31
0.0
  0
LINE
  5
3859C
330
38516
100
AcDbEntity
  8
0
 62
     0
100
AcDbLine
 10
76.72875884013421
 20
14.96539105693762
 30
0.0
 11
68.90301245896512
 21
22.79113743810683
 31
0.0
  0
LINE
  5
3859D
330
38516
100
AcDbEntity
  8
0
 62
     0
100
AcDbLine
 10
65.28442432311817
 20
24.61367434973988
 30
0.0
 11
59.68442432311826
 21
30.21367434973979
 31
0.0
  0
LINE
  5
3859E
330
38516
100
AcDbEntity
  8
0
 62
     0
100
AcDbLine
 10
49.10792302369611
 20
40.79017564916194
 30
0.0
 11
44.97914057441017
 21
44.91895809844788
 31
0.0
  0
LINE
  5
3859F
330
38516
100
AcDbEntity
  8
0
 62
     0
100
AcDbLine
 10
75.59809880456953
 20
14.29999986828852
 30
0.0
 11
69.731959177833
 21
20.16613949502505
 31
0.0
  0
LINE
  5
385A0
330
38516
100
AcDbEntity
  8
0
 62
     0
100
AcDbLine
 10
65.28442432311817
 20
22.81762312552598
 30
0.0
 11
59.68442432311815
 21
28.41762312552589
 31
0.0
  0
LINE
  5
385A1
330
38516
100
AcDbEntity
  8
0
 62
     0
100
AcDbLine
 10
47.96421063801813
 20
40.13783681062602
 30
0.0
 11
44.00383015718659
 21
44.09821729145756
 31
0.0
  0
LINE
  5
385A2
330
38516
100
AcDbEntity
  8
0
 62
     0
100
AcDbLine
 10
73.80204758035564
 20
14.29999986828852
 30
0.0
 11
70.56090589670112
 21
17.54114155194304
 31
0.0
  0
LINE
  5
385A3
330
38516
100
AcDbEntity
  8
0
 62
     0
100
AcDbLine
 10
55.45528258871366
 20
30.85071363571683
 30
0.0
 11
52.43513809054616
 21
33.87085813388433
 31
0.0
  0
LINE
  5
385A4
330
38516
100
AcDbEntity
  8
0
 62
     0
100
AcDbLine
 10
65.2844243231184
 20
21.02157190131209
 30
0.0
 11
59.68442432311826
 21
26.62157190131222
 31
0.0
  0
LINE
  5
385A5
330
38516
100
AcDbEntity
  8
0
 62
     0
100
AcDbLine
 10
47.25196749776023
 20
39.05402872667025
 30
0.0
 11
43.16509810516413
 21
43.14089811926635
 31
0.0
  0
LINE
  5
385A6
330
38516
100
AcDbEntity
  8
0
 62
     0
100
AcDbLine
 10
71.90533034773261
 20
14.40066587669787
 30
0.0
 11
71.40462200454999
 21
14.90137421988049
 31
0.0
  0
LINE
  5
385A7
330
38516
100
AcDbEntity
  8
0
 62
     0
100
AcDbLine
 10
55.28225526842982
 20
29.22768973178677
 30
0.0
 11
50.81211418661609
 21
33.69783081360049
 31
0.0
  0
LINE
  5
385A8
330
38516
100
AcDbEntity
  8
0
 62
     0
100
AcDbLine
 10
47.08442432311835
 20
37.42552067709823
 30
0.0
 11
42.4672200632408
 21
42.04272493697579
 31
0.0
  0
LINE
  5
385A9
330
38516
100
AcDbEntity
  8
0
 62
     0
100
AcDbLine
 10
65.28442432311829
 20
19.22552067709819
 30
0.0
 11
59.68442432311826
 21
24.82552067709832
 31
0.0
  0
LINE
  5
385AA
330
38516
100
AcDbEntity
  8
0
 62
     0
100
AcDbLine
 10
54.61854414983372
 20
28.09534962616885
 30
0.0
 11
49.67977408099819
 21
33.0341196950044
 31
0.0
  0
LINE
  5
385AB
330
38516
100
AcDbEntity
  8
0
 62
     0
100
AcDbLine
 10
47.08442432311835
 20
35.62946945288434
 30
0.0
 11
41.92606064882045
 21
40.78783312718224
 31
0.0
  0
LINE
  5
385AC
330
38516
100
AcDbEntity
  8
0
 62
     0
100
AcDbLine
 10
65.28442432311829
 20
17.4294694528844
 30
0.0
 11
59.68442432311815
 21
23.02946945288454
 31
0.0
  0
LINE
  5
385AD
330
38516
100
AcDbEntity
  8
0
 62
     0
100
AcDbLine
 10
47.08442432311835
 20
33.83341822867055
 30
0.0
 11
41.57663290296875
 21
39.34120964882027
 31
0.0
  0
LINE
  5
385AE
330
38516
100
AcDbEntity
  8
0
 62
     0
100
AcDbLine
 10
53.61487726556084
 20
27.30296528622819
 30
0.0
 11
48.88738974105752
 21
32.0304528107315
 31
0.0
  0
LINE
  5
385AF
330
38516
100
AcDbEntity
  8
0
 62
     0
100
AcDbLine
 10
36.23442432311822
 20
44.6834182286708
 30
0.0
 11
34.41784268350023
 21
46.4999998682888
 31
0.0
  0
LINE
  5
385B0
330
38516
100
AcDbEntity
  8
0
 62
     0
100
AcDbLine
 10
65.2844243231184
 20
15.63341822867062
 30
0.0
 11
59.68442432311826
 21
21.23341822867076
 31
0.0
  0
LINE
  5
385B1
330
38516
100
AcDbEntity
  8
0
 62
     0
100
AcDbLine
 10
47.08442432311835
 20
32.03736700445677
 30
0.0
 11
41.48442432311822
 21
37.6373670044569
 31
0.0
  0
LINE
  5
385B2
330
38516
100
AcDbEntity
  8
0
 62
     0
100
AcDbLine
 10
52.21423838070598
 20
26.90755294686915
 30
0.0
 11
48.49197740169848
 21
30.62981392587665
 31
0.0
  0
LINE
  5
385B3
330
38516
100
AcDbEntity
  8
0
 62
     0
100
AcDbLine
 10
36.23442432311811
 20
42.8873670044569
 30
0.0
 11
32.62179145928633
 21
46.49999986828868
 31
0.0
  0
LINE
  5
385B4
330
38516
100
AcDbEntity
  8
0
 62
     0
100
AcDbLine
 10
64.70861672057697
 20
14.41317460699815
 30
0.0
 11
59.68442432311815
 21
19.43736700445686
 31
0.0
  0
LINE
  5
385B5
330
38516
100
AcDbEntity
  8
0
 62
     0
100
AcDbLine
 10
47.08442432311835
 20
30.24131578024287
 30
0.0
 11
41.48442432311822
 21
35.84131578024301
 31
0.0
  0
LINE
  5
385B6
330
38516
100
AcDbEntity
  8
0
 62
     0
100
AcDbLine
 10
36.01635638257744
 20
41.30938372078378
 30
0.0
 11
30.82574023507232
 21
46.4999998682888
 31
0.0
  0
LINE
  5
385B7
330
38516
100
AcDbEntity
  8
0
 62
     0
100
AcDbLine
 10
63.02574023507259
 20
14.29999986828863
 30
0.0
 11
59.68442432311815
 21
17.64131578024307
 31
0.0
  0
LINE
  5
385B8
330
38516
100
AcDbEntity
  8
0
 62
     0
100
AcDbLine
 10
47.08442432311824
 20
28.44526455602909
 30
0.0
 11
41.4844243231181
 21
34.04526455602911
 31
0.0
  0
LINE
  5
385B9
330
38516
100
AcDbEntity
  8
0
 62
     0
100
AcDbLine
 10
34.62968901085867
 20
40.89999986828866
 30
0.0
 11
29.02968901085854
 21
46.4999998682888
 31
0.0
  0
LINE
  5
385BA
330
38516
100
AcDbEntity
  8
0
 62
     0
100
AcDbLine
 10
61.22968901085869
 20
14.29999986828852
 30
0.0
 11
59.68442432311815
 21
15.84526455602918
 31
0.0
  0
LINE
  5
385BB
330
38516
100
AcDbEntity
  8
0
 62
     0
100
AcDbLine
 10
47.08442432311847
 20
26.64921333181519
 30
0.0
 11
41.48442432311822
 21
32.24921333181544
 31
0.0
  0
LINE
  5
385BC
330
38516
100
AcDbEntity
  8
0
 62
     0
100
AcDbLine
 10
32.83363778664489
 20
40.89999986828877
 30
0.0
 11
27.3033792424352
 21
46.43025841249846
 31
0.0
  0
LINE
  5
385BD
330
38516
100
AcDbEntity
  8
0
 62
     0
100
AcDbLine
 10
54.77921942544435
 20
18.95441822948919
 30
0.0
 11
53.83884268431893
 21
19.89479497061472
 31
0.0
  0
LINE
  5
385BE
330
38516
100
AcDbEntity
  8
0
 62
     0
100
AcDbLine
 10
47.08442432311847
 20
24.85316210760129
 30
0.0
 11
41.48442432311822
 21
30.45316210760154
 31
0.0
  0
LINE
  5
385BF
330
38516
100
AcDbEntity
  8
0
 62
     0
100
AcDbLine
 10
31.03758656243099
 20
40.89999986828866
 30
0.0
 11
25.91710962547825
 21
46.02047680524151
 31
0.0
  0
LINE
  5
385C0
330
38516
100
AcDbEntity
  8
0
 62
     0
100
AcDbLine
 10
54.7844243231184
 20
17.15316210760136
 30
0.0
 11
52.0375865624311
 21
19.89999986828866
 31
0.0
  0
LINE
  5
385C1
330
38516
100
AcDbEntity
  8
0
 62
     0
100
AcDbLine
 10
47.08442432311835
 20
23.05711088338739
 30
0.0
 11
41.48442432311833
 21
28.65711088338753
 31
0.0
  0
LINE
  5
385C2
330
38516
100
AcDbEntity
  8
0
 62
     0
100
AcDbLine
 10
29.24153533821732
 20
40.89999986828843
 30
0.0
 11
24.78861630578376
 21
45.35291890072199
 31
0.0
  0
LINE
  5
385C3
330
38516
100
AcDbEntity
  8
0
 62
     0
100
AcDbLine
 10
54.78442432311829
 20
15.35711088338746
 30
0.0
 11
50.24153533821709
 21
19.89999986828877
 31
0.0
  0
LINE
  5
385C4
330
38516
100
AcDbEntity
  8
0
 62
     0
100
AcDbLine
 10
28.22094968298813
 20
40.12453429930405
 30
0.0
 11
23.87243068130226
 21
44.47305330098993
 31
0.0
  0
LINE
  5
385C5
330
38516
100
AcDbEntity
  8
0
 62
     0
100
AcDbLine
 10
54.00895875413358
 20
14.33652522815862
 30
0.0
 11
41.48442432311833
 21
26.86105965917386
 31
0.0
  0
LINE
  5
385C6
330
38516
100
AcDbEntity
  8
0
 62
     0
100
AcDbLine
 10
28.18442432311826
 20
38.36500843496003
 30
0.0
 11
23.16546827636409
 21
43.3839644817142
 31
0.0
  0
LINE
  5
385C7
330
38516
100
AcDbEntity
  8
0
 62
     0
100
AcDbLine
 10
52.24943288978977
 20
14.29999986828852
 30
0.0
 11
41.48442432311833
 21
25.06500843495996
 31
0.0
  0
LINE
  5
385C8
330
38516
100
AcDbEntity
  8
0
 62
     0
100
AcDbLine
 10
28.30869573938912
 20
36.44468579447516
 30
0.0
 11
22.70370807177664
 21
42.04967346208775
 31
0.0
  0
LINE
  5
385C9
330
38516
100
AcDbEntity
  8
0
 62
     0
100
AcDbLine
 10
50.45338166557576
 20
14.29999986828863
 30
0.0
 11
41.48442432311822
 21
23.26895721074607
 31
0.0
  0
LINE
  5
385CA
330
38516
100
AcDbEntity
  8
0
 62
     0
100
AcDbLine
 10
36.89317650556359
 20
26.06415380408703
 30
0.0
 11
22.58442432311836
 21
40.37290598653226
 31
0.0
  0
LINE
  5
385CB
330
38516
100
AcDbEntity
  8
0
 62
     0
100
AcDbLine
 10
48.55078626724867
 20
14.40654404240194
 30
0.0
 11
41.59096849723153
 21
21.36636181241909
 31
0.0
  0
LINE
  5
385CC
330
38516
100
AcDbEntity
  8
0
 62
     0
100
AcDbLine
 10
37.27696553373403
 20
23.8843135517028
 30
0.0
 11
22.58442432311813
 21
38.5768547623187
 31
0.0
  0
LINE
  5
385CD
330
38516
100
AcDbEntity
  8
0
 62
     0
100
AcDbLine
 10
45.80317044204548
 20
15.35810864339123
 30
0.0
 11
42.5425330982207
 21
18.61874598721613
 31
0.0
  0
LINE
  5
385CE
330
38516
100
AcDbEntity
  8
0
 62
     0
100
AcDbLine
 10
37.2844243231184
 20
22.08080353810453
 30
0.0
 11
22.59955321796292
 21
36.7656746432599
 31
0.0
  0
LINE
  5
385CF
330
38516
100
AcDbEntity
  8
0
 62
     0
100
AcDbLine
 10
37.28442432311818
 20
20.28475231389086
 30
0.0
 11
23.04613473461063
 21
34.52304190239829
 31
0.0
  0
LINE
  5
385D0
330
38516
100
AcDbEntity
  8
0
 62
     0
100
AcDbLine
 10
37.13938433085434
 20
18.63374108194102
 30
0.0
 11
31.61260104361622
 21
24.16052436917914
 31
0.0
  0
LINE
  5
385D1
330
38516
100
AcDbEntity
  8
0
 62
     0
100
AcDbLine
 10
36.65550845279665
 20
17.32156573578481
 30
0.0
 11
31.68442432311826
 21
22.2926498654632
 31
0.0
  0
LINE
  5
385D2
330
38516
100
AcDbEntity
  8
0
 62
     0
100
AcDbLine
 10
35.93126995803312
 20
16.24975300633446
 30
0.0
 11
31.6126262585168
 21
20.56839670585077
 31
0.0
  0
LINE
  5
385D3
330
38516
100
AcDbEntity
  8
0
 62
     0
100
AcDbLine
 10
34.99881721349936
 20
15.38615452665442
 30
0.0
 11
30.48497187186513
 21
19.89999986828877
 31
0.0
  0
LINE
  5
385D4
330
38516
100
AcDbEntity
  8
0
 62
     0
100
AcDbLine
 10
33.85228831803374
 20
14.73663219790626
 30
0.0
 11
28.68892064765123
 21
19.89999986828866
 31
0.0
  0
LINE
  5
385D5
330
38516
100
AcDbEntity
  8
0
 62
     0
100
AcDbLine
 10
32.44146313986187
 20
14.35140615186424
 30
0.0
 11
26.89286942343745
 21
19.89999986828866
 31
0.0
  0
LINE
  5
385D6
330
38516
100
AcDbEntity
  8
0
 62
     0
100
AcDbLine
 10
30.69681819922357
 20
14.29999986828863
 30
0.0
 11
25.09681819922355
 21
19.89999986828866
 31
0.0
  0
LINE
  5
385D7
330
38516
100
AcDbEntity
  8
0
 62
     0
100
AcDbLine
 10
28.9007669750099
 20
14.29999986828852
 30
0.0
 11
23.79411918537414
 21
19.40664765792439
 31
0.0
  0
LINE
  5
385D8
330
38516
100
AcDbEntity
  8
0
 62
     0
100
AcDbLine
 10
27.10471575079589
 20
14.29999986828863
 30
0.0
 11
23.63442432311831
 21
17.77029129596622
 31
0.0
  0
LINE
  5
385D9
330
38516
100
AcDbEntity
  8
0
 62
     0
100
AcDbLine
 10
25.30866452658222
 20
14.29999986828852
 30
0.0
 11
23.63442432311831
 21
15.97424007175243
 31
0.0
  0
LINE
  5
385DA
330
38516
100
AcDbEntity
  8
0
 62
     0
100
AcDbLine
 10
137.2677988924521
 20
14.32626342252365
 30
0.0
 11
138.0581607688837
 21
15.11662529895523
 31
0.0
  0
LINE
  5
385DB
330
38516
100
AcDbEntity
  8
0
 62
     0
100
AcDbLine
 10
135.4454841140032
 20
14.29999986828841
 30
0.0
 11
138.0844243231186
 21
16.9389400774038
 31
0.0
  0
LINE
  5
385DC
330
38516
100
AcDbEntity
  8
0
 62
     0
100
AcDbLine
 10
133.6494328897894
 20
14.29999986828841
 30
0.0
 11
138.0844243231186
 21
18.73499130161758
 31
0.0
  0
LINE
  5
385DD
330
38516
100
AcDbEntity
  8
0
 62
     0
100
AcDbLine
 10
132.5468194496219
 20
14.99343765233482
 30
0.0
 11
138.0844243231184
 21
20.53104252583148
 31
0.0
  0
LINE
  5
385DE
330
38516
100
AcDbEntity
  8
0
 62
     0
100
AcDbLine
 10
132.4844243231183
 20
16.72709375004513
 30
0.0
 11
138.0844243231184
 21
22.32709375004515
 31
0.0
  0
LINE
  5
385DF
330
38516
100
AcDbEntity
  8
0
 62
     0
100
AcDbLine
 10
132.4844243231184
 20
18.52314497425891
 30
0.0
 11
138.0844243231184
 21
24.12314497425905
 31
0.0
  0
LINE
  5
385E0
330
38516
100
AcDbEntity
  8
0
 62
     0
100
AcDbLine
 10
132.4844243231183
 20
20.31919619847281
 30
0.0
 11
138.0844243231184
 21
25.91919619847295
 31
0.0
  0
LINE
  5
385E1
330
38516
100
AcDbEntity
  8
0
 62
     0
100
AcDbLine
 10
132.4844243231183
 20
22.11524742268659
 30
0.0
 11
138.0844243231184
 21
27.71524742268673
 31
0.0
  0
LINE
  5
385E2
330
38516
100
AcDbEntity
  8
0
 62
     0
100
AcDbLine
 10
125.3375540472489
 20
14.96837714681715
 30
0.0
 11
127.61604704459
 21
17.24687014415838
 31
0.0
  0
LINE
  5
385E3
330
38516
100
AcDbEntity
  8
0
 62
     0
100
AcDbLine
 10
132.4844243231183
 20
23.91129864690038
 30
0.0
 11
138.0844243231184
 21
29.51129864690051
 31
0.0
  0
LINE
  5
385E4
330
38516
100
AcDbEntity
  8
0
 62
     0
100
AcDbLine
 10
122.8764177142033
 20
14.30329203798533
 30
0.0
 11
128.2811321534219
 21
19.70800647720387
 31
0.0
  0
LINE
  5
385E5
330
38516
100
AcDbEntity
  8
0
 62
     0
100
AcDbLine
 10
132.4844243231183
 20
25.70734987111428
 30
0.0
 11
138.0844243231184
 21
31.3073498711143
 31
0.0
  0
LINE
  5
385E6
330
38516
100
AcDbEntity
  8
0
 62
     0
100
AcDbLine
 10
121.0770743202924
 20
14.29999986828841
 30
0.0
 11
128.2844243231185
 21
21.50734987111434
 31
0.0
  0
LINE
  5
385E7
330
38516
100
AcDbEntity
  8
0
 62
     0
100
AcDbLine
 10
132.4844243231183
 20
27.50340109532806
 30
0.0
 11
138.0844243231183
 21
33.1034010953282
 31
0.0
  0
LINE
  5
385E8
330
38516
100
AcDbEntity
  8
0
 62
     0
100
AcDbLine
 10
119.2810230960787
 20
14.29999986828841
 30
0.0
 11
128.2844243231184
 21
23.30340109532824
 31
0.0
  0
LINE
  5
385E9
330
38516
100
AcDbEntity
  8
0
 62
     0
100
AcDbLine
 10
132.4844243231183
 20
29.29945231954184
 30
0.0
 11
138.0844243231184
 21
34.89945231954198
 31
0.0
  0
LINE
  5
385EA
330
38516
100
AcDbEntity
  8
0
 62
     0
100
AcDbLine
 10
117.484971871865
 20
14.29999986828852
 30
0.0
 11
128.2844243231185
 21
25.09945231954203
 31
0.0
  0
LINE
  5
385EB
330
38516
100
AcDbEntity
  8
0
 62
     0
100
AcDbLine
 10
122.4752419189562
 20
21.08632113959368
 30
0.0
 11
128.2844243231185
 21
26.89550354375581
 31
0.0
  0
LINE
  5
385EC
330
38516
100
AcDbEntity
  8
0
 62
     0
100
AcDbLine
 10
132.4844243231183
 20
31.09550354375563
 30
0.0
 11
138.0844243231184
 21
36.69550354375576
 31
0.0
  0
LINE
  5
385ED
330
38516
100
AcDbEntity
  8
0
 62
     0
100
AcDbLine
 10
115.688920647651
 20
14.29999986828841
 30
0.0
 11
121.4981030518132
 21
20.10918227245054
 31
0.0
  0
LINE
  5
385EE
330
38516
100
AcDbEntity
  8
0
 62
     0
100
AcDbLine
 10
122.6844243231182
 20
23.09155476796957
 30
0.0
 11
128.2844243231184
 21
28.69155476796971
 31
0.0
  0
LINE
  5
385EF
330
38516
100
AcDbEntity
  8
0
 62
     0
100
AcDbLine
 10
132.4844243231182
 20
32.89155476796953
 30
0.0
 11
138.0844243231183
 21
38.49155476796966
 31
0.0
  0
LINE
  5
385F0
330
38516
100
AcDbEntity
  8
0
 62
     0
100
AcDbLine
 10
114.1167689261916
 20
14.52389937104283
 30
0.0
 11
119.4928694234373
 21
19.89999986828854
 31
0.0
  0
LINE
  5
385F1
330
38516
100
AcDbEntity
  8
0
 62
     0
100
AcDbLine
 10
122.6844243231184
 20
24.88760599218358
 30
0.0
 11
128.2844243231184
 21
30.48760599218349
 31
0.0
  0
LINE
  5
385F2
330
38516
100
AcDbEntity
  8
0
 62
     0
100
AcDbLine
 10
132.4844243231182
 20
34.68760599218342
 30
0.0
 11
138.0844243231183
 21
40.28760599218344
 31
0.0
  0
LINE
  5
385F3
330
38516
100
AcDbEntity
  8
0
 62
     0
100
AcDbLine
 10
112.8607951917713
 20
15.06397686083653
 30
0.0
 11
117.6985737705122
 21
19.90175543957741
 31
0.0
  0
LINE
  5
385F4
330
38516
100
AcDbEntity
  8
0
 62
     0
100
AcDbLine
 10
122.6844243231185
 20
26.68365721639736
 30
0.0
 11
128.2844243231184
 21
32.28365721639728
 31
0.0
  0
LINE
  5
385F5
330
38516
100
AcDbEntity
  8
0
 62
     0
100
AcDbLine
 10
132.4844243231183
 20
36.48365721639709
 30
0.0
 11
138.0844243231183
 21
42.08365721639722
 31
0.0
  0
LINE
  5
385F6
330
38516
100
AcDbEntity
  8
0
 62
     0
100
AcDbLine
 10
111.8342754290412
 20
15.83350832231997
 30
0.0
 11
116.4116165930868
 21
20.41084948636569
 31
0.0
  0
LINE
  5
385F7
330
38516
100
AcDbEntity
  8
0
 62
     0
100
AcDbLine
 10
122.6844243231185
 20
28.47970844061115
 30
0.0
 11
128.2844243231184
 21
34.07970844061117
 31
0.0
  0
LINE
  5
385F8
330
38516
100
AcDbEntity
  8
0
 62
     0
100
AcDbLine
 10
132.4844243231182
 20
38.27970844061099
 30
0.0
 11
138.0844243231183
 21
43.87970844061112
 31
0.0
  0
LINE
  5
385F9
330
38516
100
AcDbEntity
  8
0
 62
     0
100
AcDbLine
 10
111.0143470785909
 20
16.80963119608361
 30
0.0
 11
115.737140036268
 21
21.53242415376076
 31
0.0
  0
LINE
  5
385FA
330
38516
100
AcDbEntity
  8
0
 62
     0
100
AcDbLine
 10
122.6844243231184
 20
30.27575966482505
 30
0.0
 11
128.2844243231185
 21
35.87575966482518
 31
0.0
  0
LINE
  5
385FB
330
38516
100
AcDbEntity
  8
0
 62
     0
100
AcDbLine
 10
132.4844243231182
 20
40.07575966482477
 30
0.0
 11
138.0641260160174
 21
45.6554613577241
 31
0.0
  0
LINE
  5
385FC
330
38516
100
AcDbEntity
  8
0
 62
     0
100
AcDbLine
 10
110.4144973217229
 20
18.0058326634296
 30
0.0
 11
115.6844243231184
 21
23.27575966482493
 31
0.0
  0
LINE
  5
385FD
330
38516
100
AcDbEntity
  8
0
 62
     0
100
AcDbLine
 10
122.6844243231185
 20
32.07181088903872
 30
0.0
 11
128.2844243231186
 21
37.67181088903885
 31
0.0
  0
LINE
  5
385FE
330
38516
100
AcDbEntity
  8
0
 62
     0
100
AcDbLine
 10
132.4844243231182
 20
41.87181088903855
 30
0.0
 11
137.1098973258584
 21
46.4972838917788
 31
0.0
  0
LINE
  5
385FF
330
38516
100
AcDbEntity
  8
0
 62
     0
100
AcDbLine
 10
110.09967025181
 20
19.48705681773038
 30
0.0
 11
115.6844243231184
 21
25.07181088903872
 31
0.0
  0
LINE
  5
38600
330
38516
100
AcDbEntity
  8
0
 62
     0
100
AcDbLine
 10
122.6844243231184
 20
33.86786211325262
 30
0.0
 11
128.2844243231185
 21
39.46786211325275
 31
0.0
  0
LINE
  5
38601
330
38516
100
AcDbEntity
  8
0
 62
     0
100
AcDbLine
 10
132.4844243231183
 20
43.66786211325257
 30
0.0
 11
135.3165620781543
 21
46.49999986828857
 31
0.0
  0
LINE
  5
38602
330
38516
100
AcDbEntity
  8
0
 62
     0
100
AcDbLine
 10
110.0844243231184
 20
21.26786211325259
 30
0.0
 11
115.6844243231185
 21
26.86786211325273
 31
0.0
  0
LINE
  5
38603
330
38516
100
AcDbEntity
  8
0
 62
     0
100
AcDbLine
 10
122.6844243231184
 20
35.66391333746651
 30
0.0
 11
128.2844243231185
 21
41.26391333746653
 31
0.0
  0
LINE
  5
38604
330
38516
100
AcDbEntity
  8
0
 62
     0
100
AcDbLine
 10
110.0844243231183
 20
23.06391333746649
 30
0.0
 11
115.6844243231185
 21
28.66391333746662
 31
0.0
  0
LINE
  5
38605
330
38516
100
AcDbEntity
  8
0
 62
     0
100
AcDbLine
 10
132.4845177526132
 20
45.46400676696134
 30
0.0
 11
133.5204174244458
 21
46.49990643879379
 31
0.0
  0
LINE
  5
38606
330
38516
100
AcDbEntity
  8
0
 62
     0
100
AcDbLine
 10
101.4413130616943
 20
14.42080207604238
 30
0.0
 11
105.7636221153646
 21
18.74311112971281
 31
0.0
  0
LINE
  5
38607
330
38516
100
AcDbEntity
  8
0
 62
     0
100
AcDbLine
 10
110.0844243231183
 20
24.85996456168027
 30
0.0
 11
115.6844243231185
 21
30.45996456168041
 31
0.0
  0
LINE
  5
38608
330
38516
100
AcDbEntity
  8
0
 62
     0
100
AcDbLine
 10
122.6844243231184
 20
37.45996456168029
 30
0.0
 11
128.2844243231184
 21
43.05996456168043
 31
0.0
  0
LINE
  5
38609
330
38516
100
AcDbEntity
  8
0
 62
     0
100
AcDbLine
 10
99.5244596297266
 20
14.29999986828863
 30
0.0
 11
105.8844243231183
 21
20.65996456168034
 31
0.0
  0
LINE
  5
3860A
330
38516
100
AcDbEntity
  8
0
 62
     0
100
AcDbLine
 10
110.0844243231183
 20
26.65601578589406
 30
0.0
 11
115.6844243231185
 21
32.25601578589419
 31
0.0
  0
LINE
  5
3860B
330
38516
100
AcDbEntity
  8
0
 62
     0
100
AcDbLine
 10
122.6844243231184
 20
39.25601578589408
 30
0.0
 11
128.2844243231185
 21
44.85601578589421
 31
0.0
  0
LINE
  5
3860C
330
38516
100
AcDbEntity
  8
0
 62
     0
100
AcDbLine
 10
97.72840840551282
 20
14.29999986828852
 30
0.0
 11
105.8844243231184
 21
22.45601578589401
 31
0.0
  0
LINE
  5
3860D
330
38516
100
AcDbEntity
  8
0
 62
     0
100
AcDbLine
 10
110.0844243231183
 20
28.45206701010795
 30
0.0
 11
115.6844243231185
 21
34.05206701010798
 31
0.0
  0
LINE
  5
3860E
330
38516
100
AcDbEntity
  8
0
 62
     0
100
AcDbLine
 10
122.6844243231184
 20
41.05206701010786
 30
0.0
 11
127.8969494134502
 21
46.26459210043981
 31
0.0
  0
LINE
  5
3860F
330
38516
100
AcDbEntity
  8
0
 62
     0
100
AcDbLine
 10
95.93235718129903
 20
14.29999986828863
 30
0.0
 11
105.8557871222924
 21
24.22342980928204
 31
0.0
  0
LINE
  5
38610
330
38516
100
AcDbEntity
  8
0
 62
     0
100
AcDbLine
 10
110.0844243231183
 20
30.24811823432174
 30
0.0
 11
115.6844243231184
 21
35.84811823432187
 31
0.0
  0
LINE
  5
38611
330
38516
100
AcDbEntity
  8
0
 62
     0
100
AcDbLine
 10
122.6844243231182
 20
42.84811823432176
 30
0.0
 11
126.3363059570852
 21
46.49999986828868
 31
0.0
  0
LINE
  5
38612
330
38516
100
AcDbEntity
  8
0
 62
     0
100
AcDbLine
 10
94.13630595708514
 20
14.29999986828863
 30
0.0
 11
105.5859623810349
 21
25.74965629223834
 31
0.0
  0
LINE
  5
38613
330
38516
100
AcDbEntity
  8
0
 62
     0
100
AcDbLine
 10
110.0844243231183
 20
32.04416945853552
 30
0.0
 11
115.6844243231185
 21
37.64416945853566
 31
0.0
  0
LINE
  5
38614
330
38516
100
AcDbEntity
  8
0
 62
     0
100
AcDbLine
 10
100.2844243231186
 20
22.24416945853568
 30
0.0
 11
105.1047874671978
 21
27.06453260261492
 31
0.0
  0
LINE
  5
38615
330
38516
100
AcDbEntity
  8
0
 62
     0
100
AcDbLine
 10
122.6844243231184
 20
44.64416945853554
 30
0.0
 11
124.5402547328715
 21
46.49999986828868
 31
0.0
  0
LINE
  5
38616
330
38516
100
AcDbEntity
  8
0
 62
     0
100
AcDbLine
 10
92.59676543913361
 20
14.55651057455077
 30
0.0
 11
97.94025473287138
 21
19.89999986828854
 31
0.0
  0
LINE
  5
38617
330
38516
100
AcDbEntity
  8
0
 62
     0
100
AcDbLine
 10
100.2446831728638
 20
24.00047953249475
 30
0.0
 11
104.4577888574767
 21
28.21358521710772
 31
0.0
  0
LINE
  5
38618
330
38516
100
AcDbEntity
  8
0
 62
     0
100
AcDbLine
 10
110.0844243231183
 20
33.8402206827493
 30
0.0
 11
115.6844243231184
 21
39.44022068274944
 31
0.0
  0
LINE
  5
38619
330
38516
100
AcDbEntity
  8
0
 62
     0
100
AcDbLine
 10
92.23442432311845
 20
15.99022068274939
 30
0.0
 11
96.14420350865749
 21
19.89999986828854
 31
0.0
  0
LINE
  5
3861A
330
38516
100
AcDbEntity
  8
0
 62
     0
100
AcDbLine
 10
99.69591349858603
 20
25.247761082431
 30
0.0
 11
103.6660466216211
 21
29.21789420546611
 31
0.0
  0
LINE
  5
3861B
330
38516
100
AcDbEntity
  8
0
 62
     0
100
AcDbLine
 10
110.0844243231182
 20
35.6362719069632
 30
0.0
 11
115.6844243231184
 21
41.23627190696334
 31
0.0
  0
LINE
  5
3861C
330
38516
100
AcDbEntity
  8
0
 62
     0
100
AcDbLine
 10
92.23442432311832
 20
17.78627190696329
 30
0.0
 11
94.34815228444369
 21
19.89999986828866
 31
0.0
  0
LINE
  5
3861D
330
38516
100
AcDbEntity
  8
0
 62
     0
100
AcDbLine
 10
110.0844243231183
 20
37.43232313117699
 30
0.0
 11
115.6844243231185
 21
43.03232313117701
 31
0.0
  0
LINE
  5
3861E
330
38516
100
AcDbEntity
  8
0
 62
     0
100
AcDbLine
 10
98.81336370435191
 20
26.16126251241042
 30
0.0
 11
102.7731616789965
 21
30.12106048705505
 31
0.0
  0
LINE
  5
3861F
330
38516
100
AcDbEntity
  8
0
 62
     0
100
AcDbLine
 10
97.91533809224496
 20
27.05928812451737
 30
0.0
 11
101.8751360668896
 21
31.019086099162
 31
0.0
  0
LINE
  5
38620
330
38516
100
AcDbEntity
  8
0
 62
     0
100
AcDbLine
 10
110.0844243231182
 20
39.22837435539077
 30
0.0
 11
115.6844243231184
 21
44.8283743553909
 31
0.0
  0
LINE
  5
38621
330
38516
100
AcDbEntity
  8
0
 62
     0
100
AcDbLine
 10
85.15604983601599
 20
14.29999986828852
 30
0.0
 11
86.98442432311834
 21
16.12837435539075
 31
0.0
  0
LINE
  5
38622
330
38516
100
AcDbEntity
  8
0
 62
     0
100
AcDbLine
 10
97.017312480138
 20
27.95731373662432
 30
0.0
 11
100.9771104547826
 21
31.91711171126895
 31
0.0
  0
LINE
  5
38623
330
38516
100
AcDbEntity
  8
0
 62
     0
100
AcDbLine
 10
110.0844243231182
 20
41.02442557960467
 30
0.0
 11
115.312062506921
 21
46.25206376340736
 31
0.0
  0
LINE
  5
38624
330
38516
100
AcDbEntity
  8
0
 62
     0
100
AcDbLine
 10
83.3599986118021
 20
14.29999986828852
 30
0.0
 11
86.98442432311844
 21
17.92442557960476
 31
0.0
  0
LINE
  5
38625
330
38516
100
AcDbEntity
  8
0
 62
     0
100
AcDbLine
 10
96.11928686803105
 20
28.85533934873127
 30
0.0
 11
100.0790848426757
 21
32.8151373233759
 31
0.0
  0
LINE
  5
38626
330
38516
100
AcDbEntity
  8
0
 62
     0
100
AcDbLine
 10
110.0844243231182
 20
42.82047680381845
 30
0.0
 11
113.7639473875885
 21
46.4999998682888
 31
0.0
  0
LINE
  5
38627
330
38516
100
AcDbEntity
  8
0
 62
     0
100
AcDbLine
 10
81.78716966331228
 20
14.52322214401249
 30
0.0
 11
86.98442432311834
 21
19.72047680381865
 31
0.0
  0
LINE
  5
38628
330
38516
100
AcDbEntity
  8
0
 62
     0
100
AcDbLine
 10
95.22126125592421
 20
29.7533649608381
 30
0.0
 11
99.18105923056884
 21
33.71316293548273
 31
0.0
  0
LINE
  5
38629
330
38516
100
AcDbEntity
  8
0
 62
     0
100
AcDbLine
 10
110.0844243231182
 20
44.61652802803223
 30
0.0
 11
111.9678961633748
 21
46.49999986828868
 31
0.0
  0
LINE
  5
3862A
330
38516
100
AcDbEntity
  8
0
 62
     0
100
AcDbLine
 10
81.38442432311842
 20
15.91652802803241
 30
0.0
 11
86.98442432311844
 21
21.51652802803233
 31
0.0
  0
LINE
  5
3862B
330
38516
100
AcDbEntity
  8
0
 62
     0
100
AcDbLine
 10
94.32323564381727
 20
30.65139057294505
 30
0.0
 11
98.2830336184619
 21
34.61118854758968
 31
0.0
  0
LINE
  5
3862C
330
38516
100
AcDbEntity
  8
0
 62
     0
100
AcDbLine
 10
81.38442432311842
 20
17.71257925224631
 30
0.0
 11
86.98442432311834
 21
23.31257925224623
 31
0.0
  0
LINE
  5
3862D
330
38516
100
AcDbEntity
  8
0
 62
     0
100
AcDbLine
 10
93.4292678417346
 20
31.55347399507639
 30
0.0
 11
97.39721490849866
 21
35.52142106184033
 31
0.0
  0
LINE
  5
3862E
330
38516
100
AcDbEntity
  8
0
 62
     0
100
AcDbLine
 10
81.38442432311842
 20
19.50863047646009
 30
0.0
 11
86.98442432311834
 21
25.10863047646012
 31
0.0
  0
LINE
  5
3862F
330
38516
100
AcDbEntity
  8
0
 62
     0
100
AcDbLine
 10
102.7757937149467
 20
40.89999986828854
 30
0.0
 11
104.8344243231184
 21
42.95863047646014
 31
0.0
  0
LINE
  5
38630
330
38516
100
AcDbEntity
  8
0
 62
     0
100
AcDbLine
 10
76.39911187369796
 20
14.52331802703963
 30
0.0
 11
76.578416596608
 21
14.70262274994979
 31
0.0
  0
LINE
  5
38631
330
38516
100
AcDbEntity
  8
0
 62
     0
100
AcDbLine
 10
92.63326348409066
 20
32.55352086164612
 30
0.0
 11
96.83253203892787
 21
36.75278941648333
 31
0.0
  0
LINE
  5
38632
330
38516
100
AcDbEntity
  8
0
 62
     0
100
AcDbLine
 10
81.38442432311842
 20
21.30468170067388
 30
0.0
 11
86.98442432311844
 21
26.90468170067379
 31
0.0
  0
LINE
  5
38633
330
38516
100
AcDbEntity
  8
0
 62
     0
100
AcDbLine
 10
100.9797424907332
 20
40.89999986828866
 30
0.0
 11
104.8344243231184
 21
44.75468170067393
 31
0.0
  0
LINE
  5
38634
330
38516
100
AcDbEntity
  8
0
 62
     0
100
AcDbLine
 10
74.37974249073306
 20
14.29999986828852
 30
0.0
 11
76.51130068334612
 21
16.43155806090158
 31
0.0
  0
LINE
  5
38635
330
38516
100
AcDbEntity
  8
0
 62
     0
100
AcDbLine
 10
91.98159495529727
 20
33.69790355706664
 30
0.0
 11
96.78442432311863
 21
38.50073292488799
 31
0.0
  0
LINE
  5
38636
330
38516
100
AcDbEntity
  8
0
 62
     0
100
AcDbLine
 10
81.38442432311842
 20
23.10073292488767
 30
0.0
 11
86.98442432311834
 21
28.70073292488769
 31
0.0
  0
LINE
  5
38637
330
38516
100
AcDbEntity
  8
0
 62
     0
100
AcDbLine
 10
99.18369126651919
 20
40.89999986828854
 30
0.0
 11
104.5010864595226
 21
46.21739506129199
 31
0.0
  0
LINE
  5
38638
330
38516
100
AcDbEntity
  8
0
 62
     0
100
AcDbLine
 10
72.58369126651905
 20
14.29999986828841
 30
0.0
 11
76.08024838953475
 21
17.7965569913041
 31
0.0
  0
LINE
  5
38639
330
38516
100
AcDbEntity
  8
0
 62
     0
100
AcDbLine
 10
81.38442432311832
 20
24.89678414910156
 30
0.0
 11
86.98442432311834
 21
30.49678414910147
 31
0.0
  0
LINE
  5
3863A
330
38516
100
AcDbEntity
  8
0
 62
     0
100
AcDbLine
 10
91.49483082995709
 20
35.00719065594035
 30
0.0
 11
102.9876400423054
 21
46.49999986828868
 31
0.0
  0
LINE
  5
3863B
330
38516
100
AcDbEntity
  8
0
 62
     0
100
AcDbLine
 10
71.39966264520911
 20
14.91202247119236
 30
0.0
 11
75.64919609572337
 21
19.16155592170662
 31
0.0
  0
LINE
  5
3863C
330
38516
100
AcDbEntity
  8
0
 62
     0
100
AcDbLine
 10
81.38442432311832
 20
26.69283537331546
 30
0.0
 11
86.98442432311821
 21
32.29283537331537
 31
0.0
  0
LINE
  5
3863D
330
38516
100
AcDbEntity
  8
0
 62
     0
100
AcDbLine
 10
91.21741711178572
 20
36.52582816198287
 30
0.0
 11
101.1915888180916
 21
46.49999986828868
 31
0.0
  0
LINE
  5
3863E
330
38516
100
AcDbEntity
  8
0
 62
     0
100
AcDbLine
 10
70.96214380191191
 20
16.27055485210906
 30
0.0
 11
75.21814380191199
 21
20.52655485210914
 31
0.0
  0
LINE
  5
3863F
330
38516
100
AcDbEntity
  8
0
 62
     0
100
AcDbLine
 10
81.38442432311842
 20
28.48888659752913
 30
0.0
 11
86.98442432311834
 21
34.08888659752915
 31
0.0
  0
LINE
  5
38640
330
38516
100
AcDbEntity
  8
0
 62
     0
100
AcDbLine
 10
91.18442432311837
 20
38.28888659752909
 30
0.0
 11
99.39553759387786
 21
46.49999986828868
 31
0.0
  0
LINE
  5
38641
330
38516
100
AcDbEntity
  8
0
 62
     0
100
AcDbLine
 10
70.53109150810064
 20
17.63555378251146
 30
0.0
 11
74.78709150810084
 21
21.89155378251155
 31
0.0
  0
LINE
  5
38642
330
38516
100
AcDbEntity
  8
0
 62
     0
100
AcDbLine
 10
81.38442432311832
 20
30.28493782174303
 30
0.0
 11
86.98442432311834
 21
35.88493782174294
 31
0.0
  0
LINE
  5
38643
330
38516
100
AcDbEntity
  8
0
 62
     0
100
AcDbLine
 10
91.1844243231185
 20
40.08493782174309
 30
0.0
 11
97.59948636966408
 21
46.49999986828868
 31
0.0
  0
LINE
  5
38644
330
38516
100
AcDbEntity
  8
0
 62
     0
100
AcDbLine
 10
70.10003921428915
 20
19.00055271291387
 30
0.0
 11
74.35603921428958
 21
23.2565527129143
 31
0.0
  0
LINE
  5
38645
330
38516
100
AcDbEntity
  8
0
 62
     0
100
AcDbLine
 10
81.38442432311832
 20
32.08098904595682
 30
0.0
 11
86.98442432311844
 21
37.68098904595695
 31
0.0
  0
LINE
  5
38646
330
38516
100
AcDbEntity
  8
0
 62
     0
100
AcDbLine
 10
69.66898692047789
 20
20.36555164331651
 30
0.0
 11
73.92498692047809
 21
24.62155164331659
 31
0.0
  0
LINE
  5
38647
330
38516
100
AcDbEntity
  8
0
 62
     0
100
AcDbLine
 10
91.29105766336079
 20
41.98762238619941
 30
0.0
 11
95.69680180520743
 21
46.39336652804604
 31
0.0
  0
LINE
  5
38648
330
38516
100
AcDbEntity
  8
0
 62
     0
100
AcDbLine
 10
63.6034351454499
 20
14.29999986828852
 30
0.0
 11
65.28442432311829
 21
15.9809890459569
 31
0.0
  0
LINE
  5
38649
330
38516
100
AcDbEntity
  8
0
 62
     0
100
AcDbLine
 10
69.23793462666674
 20
21.73055057371891
 30
0.0
 11
73.49393462666682
 21
25.98655057371912
 31
0.0
  0
LINE
  5
3864A
330
38516
100
AcDbEntity
  8
0
 62
     0
100
AcDbLine
 10
81.38442432311832
 20
33.8770402701706
 30
0.0
 11
86.98442432311844
 21
39.47704027017073
 31
0.0
  0
LINE
  5
3864B
330
38516
100
AcDbEntity
  8
0
 62
     0
100
AcDbLine
 10
61.80738392123624
 20
14.29999986828841
 30
0.0
 11
65.2844243231184
 21
17.77704027017068
 31
0.0
  0
LINE
  5
3864C
330
38516
100
AcDbEntity
  8
0
 62
     0
100
AcDbLine
 10
68.80688233285536
 20
23.09554950412143
 30
0.0
 11
73.06288233285545
 21
27.35154950412164
 31
0.0
  0
LINE
  5
3864D
330
38516
100
AcDbEntity
  8
0
 62
     0
100
AcDbLine
 10
81.38442432311832
 20
35.67309149438449
 30
0.0
 11
86.98442432311844
 21
41.27309149438452
 31
0.0
  0
LINE
  5
3864E
330
38516
100
AcDbEntity
  8
0
 62
     0
100
AcDbLine
 10
60.17363219232493
 20
14.46229936359111
 30
0.0
 11
65.2844243231184
 21
19.57309149438447
 31
0.0
  0
LINE
  5
3864F
330
38516
100
AcDbEntity
  8
0
 62
     0
100
AcDbLine
 10
68.37583003904398
 20
24.46054843452396
 30
0.0
 11
72.63183003904408
 21
28.71654843452416
 31
0.0
  0
LINE
  5
38650
330
38516
100
AcDbEntity
  8
0
 62
     0
100
AcDbLine
 10
81.38442432311832
 20
37.46914271859828
 30
0.0
 11
86.98442432311834
 21
43.06914271859841
 31
0.0
  0
LINE
  5
38651
330
38516
100
AcDbEntity
  8
0
 62
     0
100
AcDbLine
 10
59.68442432311838
 20
15.76914271859834
 30
0.0
 11
65.28442432311852
 21
21.36914271859848
 31
0.0
  0
LINE
  5
38652
330
38516
100
AcDbEntity
  8
0
 62
     0
100
AcDbLine
 10
67.94477774523272
 20
25.82554736492637
 30
0.0
 11
72.20077774523304
 21
30.08154736492668
 31
0.0
  0
LINE
  5
38653
330
38516
100
AcDbEntity
  8
0
 62
     0
100
AcDbLine
 10
81.38442432311832
 20
39.26519394281206
 30
0.0
 11
86.98442432311844
 21
44.86519394281219
 31
0.0
  0
LINE
  5
38654
330
38516
100
AcDbEntity
  8
0
 62
     0
100
AcDbLine
 10
59.68442432311838
 20
17.56519394281213
 30
0.0
 11
65.28442432311852
 21
23.16519394281227
 31
0.0
  0
LINE
  5
38655
330
38516
100
AcDbEntity
  8
0
 62
     0
100
AcDbLine
 10
67.47518017128925
 20
27.1520010151969
 30
0.0
 11
72.73576830715104
 21
32.41258915105869
 31
0.0
  0
LINE
  5
38656
330
38516
100
AcDbEntity
  8
0
 62
     0
100
AcDbLine
 10
81.38442432311842
 20
41.06124516702607
 30
0.0
 11
86.59187347812155
 21
46.26869432202909
 31
0.0
  0
LINE
  5
38657
330
38516
100
AcDbEntity
  8
0
 62
     0
100
AcDbLine
 10
59.68442432311838
 20
19.36124516702603
 30
0.0
 11
65.28442432311852
 21
24.96124516702605
 31
0.0
  0
LINE
  5
38658
330
38516
100
AcDbEntity
  8
0
 62
     0
100
AcDbLine
 10
66.10080943155447
 20
27.57368149967601
 30
0.0
 11
73.56471502601903
 21
35.03758709414058
 31
0.0
  0
LINE
  5
38659
330
38516
100
AcDbEntity
  8
0
 62
     0
100
AcDbLine
 10
59.68442432311838
 20
21.15729639123981
 30
0.0
 11
65.31074269173098
 21
26.78361475985241
 31
0.0
  0
LINE
  5
3865A
330
38516
100
AcDbEntity
  8
0
 62
     0
100
AcDbLine
 10
81.38442432311842
 20
42.85729639123985
 30
0.0
 11
85.02712780016713
 21
46.49999986828868
 31
0.0
  0
LINE
  5
3865B
330
38516
100
AcDbEntity
  8
0
 62
     0
100
AcDbLine
 10
52.82712780016709
 20
14.29999986828852
 30
0.0
 11
54.7844243231184
 21
16.25729639123995
 31
0.0
  0
LINE
  5
3865C
330
38516
100
AcDbEntity
  8
0
 62
     0
100
AcDbLine
 10
59.68442432311826
 20
22.95334761545371
 30
0.0
 11
74.39366174488691
 21
37.66258503722236
 31
0.0
  0
LINE
  5
3865D
330
38516
100
AcDbEntity
  8
0
 62
     0
100
AcDbLine
 10
81.38442432311832
 20
44.65334761545375
 30
0.0
 11
83.23107657595324
 21
46.49999986828868
 31
0.0
  0
LINE
  5
3865E
330
38516
100
AcDbEntity
  8
0
 62
     0
100
AcDbLine
 10
51.0310765759532
 20
14.29999986828863
 30
0.0
 11
54.78442432311851
 21
18.05334761545396
 31
0.0
  0
LINE
  5
3865F
330
38516
100
AcDbEntity
  8
0
 62
     0
100
AcDbLine
 10
59.68442432311838
 20
24.74939883966738
 30
0.0
 11
75.22260846375513
 21
40.28758298030425
 31
0.0
  0
LINE
  5
38660
330
38516
100
AcDbEntity
  8
0
 62
     0
100
AcDbLine
 10
49.25838660043962
 20
14.32336111698873
 30
0.0
 11
54.50175575590606
 21
19.56673027245506
 31
0.0
  0
LINE
  5
38661
330
38516
100
AcDbEntity
  8
0
 62
     0
100
AcDbLine
 10
59.68442432311826
 20
26.54545006388128
 30
0.0
 11
66.3389741275256
 21
33.19999986828861
 31
0.0
  0
LINE
  5
38662
330
38516
100
AcDbEntity
  8
0
 62
     0
100
AcDbLine
 10
67.86693979800702
 20
34.72796553877004
 30
0.0
 11
76.05155518262302
 21
42.91258092338603
 31
0.0
  0
LINE
  5
38663
330
38516
100
AcDbEntity
  8
0
 62
     0
100
AcDbLine
 10
47.72206556554567
 20
14.58309130630857
 30
0.0
 11
53.03897412752553
 21
19.89999986828854
 31
0.0
  0
LINE
  5
38664
330
38516
100
AcDbEntity
  8
0
 62
     0
100
AcDbLine
 10
59.68442432311826
 20
28.34150128809517
 30
0.0
 11
65.32040546453493
 21
33.97748242951172
 31
0.0
  0
LINE
  5
38665
330
38516
100
AcDbEntity
  8
0
 62
     0
100
AcDbLine
 10
68.6958865168749
 20
37.3529634818517
 30
0.0
 11
76.80169808622565
 21
45.45877505120256
 31
0.0
  0
LINE
  5
38666
330
38516
100
AcDbEntity
  8
0
 62
     0
100
AcDbLine
 10
46.39979705189285
 20
15.05687401686975
 30
0.0
 11
51.24292290331175
 21
19.89999986828854
 31
0.0
  0
LINE
  5
38667
330
38516
100
AcDbEntity
  8
0
 62
     0
100
AcDbLine
 10
59.68442432311838
 20
30.13755251230885
 30
0.0
 11
65.2844243231184
 21
35.73755251230898
 31
0.0
  0
LINE
  5
38668
330
38516
100
AcDbEntity
  8
0
 62
     0
100
AcDbLine
 10
69.52483323574313
 20
39.97796142493371
 30
0.0
 11
76.01367434108727
 21
46.46680253027784
 31
0.0
  0
LINE
  5
38669
330
38516
100
AcDbEntity
  8
0
 62
     0
100
AcDbLine
 10
45.24459048356425
 20
15.69771867275472
 30
0.0
 11
49.47671420054996
 21
19.92984238974054
 31
0.0
  0
LINE
  5
3866A
330
38516
100
AcDbEntity
  8
0
 62
     0
100
AcDbLine
 10
59.68442432311826
 20
31.93360373652274
 30
0.0
 11
65.2844243231184
 21
37.53360373652288
 31
0.0
  0
LINE
  5
3866B
330
38516
100
AcDbEntity
  8
0
 62
     0
100
AcDbLine
 10
70.35377995461101
 20
42.60295936801537
 30
0.0
 11
74.25082045488409
 21
46.49999986828857
 31
0.0
  0
LINE
  5
3866C
330
38516
100
AcDbEntity
  8
0
 62
     0
100
AcDbLine
 10
44.23468055080014
 20
16.4838599642045
 30
0.0
 11
48.20808191851336
 21
20.45726133191772
 31
0.0
  0
LINE
  5
3866D
330
38516
100
AcDbEntity
  8
0
 62
     0
100
AcDbLine
 10
59.68442432311826
 20
33.72965496073653
 30
0.0
 11
65.2844243231184
 21
39.32965496073666
 31
0.0
  0
LINE
  5
3866E
330
38516
100
AcDbEntity
  8
0
 62
     0
100
AcDbLine
 10
53.00769258667128
 20
27.05292322428966
 30
0.0
 11
55.33150096711745
 21
29.37673160473583
 31
0.0
  0
LINE
  5
3866F
330
38516
100
AcDbEntity
  8
0
 62
     0
100
AcDbLine
 10
71.18272667347878
 20
45.22795731109716
 30
0.0
 11
72.45476923067042
 21
46.4999998682888
 31
0.0
  0
LINE
  5
38670
330
38516
100
AcDbEntity
  8
0
 62
     0
100
AcDbLine
 10
43.36180640414045
 20
17.40703704175883
 30
0.0
 11
47.38758001596898
 21
21.43281065358735
 31
0.0
  0
LINE
  5
38671
330
38516
100
AcDbEntity
  8
0
 62
     0
100
AcDbLine
 10
51.15774690341163
 20
26.99902876524391
 30
0.0
 11
55.38539542616319
 21
31.22667728799536
 31
0.0
  0
LINE
  5
38672
330
38516
100
AcDbEntity
  8
0
 62
     0
100
AcDbLine
 10
59.68442432311838
 20
35.52570618495054
 30
0.0
 11
65.28442432311852
 21
41.12570618495067
 31
0.0
  0
LINE
  5
38673
330
38516
100
AcDbEntity
  8
0
 62
     0
100
AcDbLine
 10
42.62776795425452
 20
18.46904981608668
 30
0.0
 11
47.08442432311835
 21
22.92570618495063
 31
0.0
  0
LINE
  5
38674
330
38516
100
AcDbEntity
  8
0
 62
     0
100
AcDbLine
 10
49.92945376457123
 20
27.56678685061706
 30
0.0
 11
54.81763734078993
 21
32.45497042683587
 31
0.0
  0
LINE
  5
38675
330
38516
100
AcDbEntity
  8
0
 62
     0
100
AcDbLine
 10
59.68442432311838
 20
37.32175740916432
 30
0.0
 11
65.28442432311852
 21
42.92175740916445
 31
0.0
  0
LINE
  5
38676
330
38516
100
AcDbEntity
  8
0
 62
     0
100
AcDbLine
 10
42.04513293440505
 20
19.68246602045099
 30
0.0
 11
47.08442432311835
 21
24.7217574091643
 31
0.0
  0
LINE
  5
38677
330
38516
100
AcDbEntity
  8
0
 62
     0
100
AcDbLine
 10
49.05353391059179
 20
28.48691822085164
 30
0.0
 11
53.89750597055547
 21
33.3308902808152
 31
0.0
  0
LINE
  5
38678
330
38516
100
AcDbEntity
  8
0
 62
     0
100
AcDbLine
 10
59.68442432311838
 20
39.11780863337822
 30
0.0
 11
65.28442432311852
 21
44.71780863337824
 31
0.0
  0
LINE
  5
38679
330
38516
100
AcDbEntity
  8
0
 62
     0
100
AcDbLine
 10
41.64285820605573
 20
21.07624251631557
 30
0.0
 11
47.08442432311835
 21
26.51780863337819
 31
0.0
  0
LINE
  5
3867A
330
38516
100
AcDbEntity
  8
0
 62
     0
100
AcDbLine
 10
48.54143244577506
 20
29.77086798024868
 30
0.0
 11
52.61355621115831
 21
33.84299174563205
 31
0.0
  0
LINE
  5
3867B
330
38516
100
AcDbEntity
  8
0
 62
     0
100
AcDbLine
 10
41.48442432311822
 20
22.71385985759196
 30
0.0
 11
47.08442432311835
 21
28.31385985759198
 31
0.0
  0
LINE
  5
3867C
330
38516
100
AcDbEntity
  8
0
 62
     0
100
AcDbLine
 10
59.68442432311838
 20
40.913859857592
 30
0.0
 11
64.96992410640814
 21
46.19935964088187
 31
0.0
  0
LINE
  5
3867D
330
38516
100
AcDbEntity
  8
0
 62
     0
100
AcDbLine
 10
33.31243080736704
 20
14.54186634184077
 30
0.0
 11
37.04255784956649
 21
18.27199338404023
 31
0.0
  0
LINE
  5
3867E
330
38516
100
AcDbEntity
  8
0
 62
     0
100
AcDbLine
 10
48.77825861273663
 20
31.80374537142404
 30
0.0
 11
50.58067881998306
 21
33.60616557867047
 31
0.0
  0
LINE
  5
3867F
330
38516
100
AcDbEntity
  8
0
 62
     0
100
AcDbLine
 10
41.48442432311822
 20
24.50991108180563
 30
0.0
 11
47.08442432311835
 21
30.10991108180576
 31
0.0
  0
LINE
  5
38680
330
38516
100
AcDbEntity
  8
0
 62
     0
100
AcDbLine
 10
59.68442432311838
 20
42.70991108180578
 30
0.0
 11
63.47451310960116
 21
46.49999986828857
 31
0.0
  0
LINE
  5
38681
330
38516
100
AcDbEntity
  8
0
 62
     0
100
AcDbLine
 10
31.27451310960112
 20
14.29999986828852
 30
0.0
 11
37.28442432311863
 21
20.30991108180592
 31
0.0
  0
LINE
  5
38682
330
38516
100
AcDbEntity
  8
0
 62
     0
100
AcDbLine
 10
41.48442432311822
 20
26.30596230601952
 30
0.0
 11
47.08442432311835
 21
31.90596230601966
 31
0.0
  0
LINE
  5
38683
330
38516
100
AcDbEntity
  8
0
 62
     0
100
AcDbLine
 10
59.68442432311838
 20
44.50596230601957
 30
0.0
 11
61.67846188538738
 21
46.49999986828868
 31
0.0
  0
LINE
  5
38684
330
38516
100
AcDbEntity
  8
0
 62
     0
100
AcDbLine
 10
29.47846188538711
 20
14.29999986828841
 30
0.0
 11
37.28442432311851
 21
22.10596230601982
 31
0.0
  0
LINE
  5
38685
330
38516
100
AcDbEntity
  8
0
 62
     0
100
AcDbLine
 10
41.48442432311822
 20
28.10201353023331
 30
0.0
 11
47.08442432311824
 21
33.70201353023345
 31
0.0
  0
LINE
  5
38686
330
38516
100
AcDbEntity
  8
0
 62
     0
100
AcDbLine
 10
27.68241066117344
 20
14.29999986828863
 30
0.0
 11
37.27654561799602
 21
23.89413482511122
 31
0.0
  0
LINE
  5
38687
330
38516
100
AcDbEntity
  8
0
 62
     0
100
AcDbLine
 10
41.48442432311822
 20
29.89806475444721
 30
0.0
 11
47.08442432311835
 21
35.49806475444734
 31
0.0
  0
LINE
  5
38688
330
38516
100
AcDbEntity
  8
0
 62
     0
100
AcDbLine
 10
52.48635943695979
 20
40.89999986828877
 30
0.0
 11
54.78442432311863
 21
43.19806475444761
 31
0.0
  0
LINE
  5
38689
330
38516
100
AcDbEntity
  8
0
 62
     0
100
AcDbLine
 10
25.88635943695954
 20
14.29999986828852
 30
0.0
 11
37.05722194535338
 21
25.47086237668236
 31
0.0
  0
LINE
  5
3868A
330
38516
100
AcDbEntity
  8
0
 62
     0
100
AcDbLine
 10
41.48442432311822
 20
31.69411597866099
 30
0.0
 11
47.08442432311835
 21
37.29411597866101
 31
0.0
  0
LINE
  5
3868B
330
38516
100
AcDbEntity
  8
0
 62
     0
100
AcDbLine
 10
31.68442432311838
 20
21.89411597866115
 30
0.0
 11
36.61254445726513
 21
26.8222361128079
 31
0.0
  0
LINE
  5
3868C
330
38516
100
AcDbEntity
  8
0
 62
     0
100
AcDbLine
 10
50.69030821274577
 20
40.89999986828854
 30
0.0
 11
54.78442432311863
 21
44.99411597866128
 31
0.0
  0
LINE
  5
3868D
330
38516
100
AcDbEntity
  8
0
 62
     0
100
AcDbLine
 10
24.20575996326568
 20
14.41545161880845
 30
0.0
 11
29.69030821274578
 21
19.89999986828854
 31
0.0
  0
LINE
  5
3868E
330
38516
100
AcDbEntity
  8
0
 62
     0
100
AcDbLine
 10
41.4844243231181
 20
33.49016720287477
 30
0.0
 11
47.41605373467769
 21
39.42179661443436
 31
0.0
  0
LINE
  5
3868F
330
38516
100
AcDbEntity
  8
0
 62
     0
100
AcDbLine
 10
31.68010613989987
 20
23.68584901965641
 30
0.0
 11
35.99568138792108
 21
28.00142426767775
 31
0.0
  0
LINE
  5
38690
330
38516
100
AcDbEntity
  8
0
 62
     0
100
AcDbLine
 10
48.56262757697277
 20
40.56837045672944
 30
0.0
 11
54.3174894932788
 21
46.32323237303535
 31
0.0
  0
LINE
  5
38691
330
38516
100
AcDbEntity
  8
0
 62
     0
100
AcDbLine
 10
23.63442432311842
 20
15.64016720287497
 30
0.0
 11
27.89425698853199
 21
19.89999986828854
 31
0.0
  0
LINE
  5
38692
330
38516
100
AcDbEntity
  8
0
 62
     0
100
AcDbLine
 10
31.24090010089844
 20
25.04269420486901
 30
0.0
 11
35.23119745824329
 21
29.03299156221385
 31
0.0
  0
LINE
  5
38693
330
38516
100
AcDbEntity
  8
0
 62
     0
100
AcDbLine
 10
41.4844243231181
 20
35.28621842708867
 30
0.0
 11
52.69820576431823
 21
46.4999998682888
 31
0.0
  0
LINE
  5
38694
330
38516
100
AcDbEntity
  8
0
 62
     0
100
AcDbLine
 10
23.63442432311831
 20
17.43621842708887
 30
0.0
 11
26.0982057643181
 21
19.89999986828866
 31
0.0
  0
LINE
  5
38695
330
38516
100
AcDbEntity
  8
0
 62
     0
100
AcDbLine
 10
30.38839044428903
 20
25.98623577247327
 30
0.0
 11
34.34818841893378
 21
29.94603374711801
 31
0.0
  0
LINE
  5
38696
330
38516
100
AcDbEntity
  8
0
 62
     0
100
AcDbLine
 10
41.48442432311822
 20
37.08226965130234
 30
0.0
 11
50.90215454010411
 21
46.49999986828833
 31
0.0
  0
LINE
  5
38697
330
38516
100
AcDbEntity
  8
0
 62
     0
100
AcDbLine
 10
23.77232816715787
 20
19.3701734953421
 30
0.0
 11
24.1642506960651
 21
19.76209602424933
 31
0.0
  0
LINE
  5
38698
330
38516
100
AcDbEntity
  8
0
 62
     0
100
AcDbLine
 10
41.52437455143138
 20
38.9182711038294
 30
0.0
 11
49.06615308757739
 21
46.46004963997552
 31
0.0
  0
LINE
  5
38699
330
38516
100
AcDbEntity
  8
0
 62
     0
100
AcDbLine
 10
29.49036483218208
 20
26.88426138458022
 30
0.0
 11
33.45016280682683
 21
30.84405935922496
 31
0.0
  0
LINE
  5
3869A
330
38516
100
AcDbEntity
  8
0
 62
     0
100
AcDbLine
 10
42.12330141596294
 20
41.31324919257497
 30
0.0
 11
46.67117499883192
 21
45.86112277544396
 31
0.0
  0
LINE
  5
3869B
330
38516
100
AcDbEntity
  8
0
 62
     0
100
AcDbLine
 10
28.59233922007513
 20
27.78228699668716
 30
0.0
 11
32.55213719471988
 21
31.74208497133191
 31
0.0
  0
LINE
  5
3869C
330
38516
100
AcDbEntity
  8
0
 62
     0
100
AcDbLine
 10
27.6943136079683
 20
28.680312608794
 30
0.0
 11
31.65411158261293
 21
32.64011058343851
 31
0.0
  0
LINE
  5
3869D
330
38516
100
AcDbEntity
  8
0
 62
     0
100
AcDbLine
 10
26.79628799586135
 20
29.57833822090094
 30
0.0
 11
30.75608597050598
 21
33.53813619554546
 31
0.0
  0
LINE
  5
3869E
330
38516
100
AcDbEntity
  8
0
 62
     0
100
AcDbLine
 10
25.8982623837544
 20
30.4763638330079
 30
0.0
 11
29.85806035839903
 21
34.43616180765241
 31
0.0
  0
LINE
  5
3869F
330
38516
100
AcDbEntity
  8
0
 62
     0
100
AcDbLine
 10
34.52584719482127
 20
40.89999986828854
 30
0.0
 11
36.23442432311811
 21
42.6085769965855
 31
0.0
  0
LINE
  5
386A0
330
38516
100
AcDbEntity
  8
0
 62
     0
100
AcDbLine
 10
25.00040339970372
 20
31.37455607317111
 30
0.0
 11
28.96053468656862
 21
35.33468736003602
 31
0.0
  0
LINE
  5
386A1
330
38516
100
AcDbEntity
  8
0
 62
     0
100
AcDbLine
 10
32.72979597060749
 20
40.89999986828854
 30
0.0
 11
36.23442432311833
 21
44.40462822079939
 31
0.0
  0
LINE
  5
386A2
330
38516
100
AcDbEntity
  8
0
 62
     0
100
AcDbLine
 10
24.17746755060057
 20
32.34767144828152
 30
0.0
 11
28.30074092399275
 21
36.47094482167381
 31
0.0
  0
LINE
  5
386A3
330
38516
100
AcDbEntity
  8
0
 62
     0
100
AcDbLine
 10
30.93374474639359
 20
40.89999986828854
 30
0.0
 11
36.06130652359605
 21
46.027561645491
 31
0.0
  0
LINE
  5
386A4
330
38516
100
AcDbEntity
  8
0
 62
     0
100
AcDbLine
 10
23.49654633807563
 20
33.46280145997048
 30
0.0
 11
28.18442432311849
 21
38.15067944501334
 31
0.0
  0
LINE
  5
386A5
330
38516
100
AcDbEntity
  8
0
 62
     0
100
AcDbLine
 10
29.13276022383957
 20
40.89506656994831
 30
0.0
 11
34.73769352217994
 21
46.49999986828868
 31
0.0
  0
LINE
  5
386A6
330
38516
100
AcDbEntity
  8
0
 62
     0
100
AcDbLine
 10
22.97515974661144
 20
34.73746609272018
 30
0.0
 11
28.18935762145861
 21
39.95166396756747
 31
0.0
  0
LINE
  5
386A7
330
38516
100
AcDbEntity
  8
0
 62
     0
100
AcDbLine
 10
22.65153582211531
 20
36.20989339243783
 30
0.0
 11
32.94164229796616
 21
46.49999986828868
 31
0.0
  0
LINE
  5
386A8
330
38516
100
AcDbEntity
  8
0
 62
     0
100
AcDbLine
 10
22.58442432311847
 20
37.93883311765489
 30
0.0
 11
31.14559107375226
 21
46.49999986828868
 31
0.0
  0
LINE
  5
386A9
330
38516
100
AcDbEntity
  8
0
 62
     0
100
AcDbLine
 10
22.58442432311847
 20
39.73488434186868
 30
0.0
 11
29.34953984953848
 21
46.49999986828868
 31
0.0
  0
LINE
  5
386AA
330
38516
100
AcDbEntity
  8
0
 62
     0
100
AcDbLine
 10
22.62480834399491
 20
41.57131958695901
 30
0.0
 11
27.51310460444813
 21
46.45961584741224
 31
0.0
  0
ENDBLK
  5
386AB
330
38516
100
AcDbEntity
  8
0
100
AcDbBlockEnd
  0
BLOCK
  5
39D70
330
39D66
100
AcDbEntity
  8
0
370
    30
100
AcDbBlockBegin
  2
*D6
 70
     1
 10
0.0
 20
0.0
 30
0.0
  3
*D6
  1

  0
LINE
  5
39E59
330
39D66
100
AcDbEntity
  8
SUNPOU
  6
Continuous
 62
     4
370
    -2
100
AcDbLine
 10
28607.53868624523
 20
-3897.217836569996
 30
0.0
 11
28636.74365985691
 21
-3897.217836569996
 31
0.0
  0
LINE
  5
39E5A
330
39D66
100
AcDbEntity
  8
SUNPOU
  6
Continuous
 62
     4
370
    -2
100
AcDbLine
 10
28556.05709166514
 20
-4209.93453670547
 30
0.0
 11
28636.74365985691
 21
-4209.93453670547
 31
0.0
  0
LINE
  5
39E5B
330
39D66
100
AcDbEntity
  8
SUNPOU
  6
Continuous
 62
     4
370
    -2
100
AcDbLine
 10
28630.7436598569
 20
-3911.217836569996
 30
0.0
 11
28630.7436598569
 21
-4195.93453670547
 31
0.0
  0
INSERT
  5
39E5C
330
39D66
100
AcDbEntity
  8
SUNPOU
  6
Continuous
 62
     4
370
    -2
100
AcDbBlockReference
  2
_OPEN
 10
28630.7436598569
 20
-3897.217836569996
 30
0.0
 41
14.0
 42
14.0
 43
14.0
 50
90.0
  0
INSERT
  5
39E5D
330
39D66
100
AcDbEntity
  8
SUNPOU
  6
Continuous
 62
     4
370
    -2
100
AcDbBlockReference
  2
_OPEN
 10
28630.7436598569
 20
-4209.93453670547
 30
0.0
 41
14.0
 42
14.0
 43
14.0
 50
270.0
  0
MTEXT
  5
39E5E
330
39D66
100
AcDbEntity
  8
SUNPOU
  6
Continuous
 62
     4
100
AcDbMText
 10
28620.7436598569
 20
-4053.576186637729
 30
0.0
 40
12.0
 41
0.0
 71
     5
 72
     1
  1
\A1;313
 11
0.0000000000000001
 21
1.0
 31
0.0
 73
     1
 44
1.0
1001
ACAD
1000
MTEXTBEGIN
1070
    73
1070
     1
1070
    44
1040
1.0
1070
    74
1070
     0
1000
MTEXTEND
  0
POINT
  5
39E5F
330
39D66
100
AcDbEntity
  8
Defpoints
  6
Continuous
 62
     0
370
    30
100
AcDbPoint
 10
28595.53868624523
 20
-3897.217836569996
 30
0.0
  0
POINT
  5
39E60
330
39D66
100
AcDbEntity
  8
Defpoints
  6
Continuous
 62
     0
370
    30
100
AcDbPoint
 10
28544.05709166514
 20
-4209.93453670547
 30
0.0
  0
POINT
  5
39E61
330
39D66
100
AcDbEntity
  8
Defpoints
  6
Continuous
 62
     0
370
    30
100
AcDbPoint
 10
28630.7436598569
 20
-4209.93453670547
 30
0.0
  0
ENDBLK
  5
39D71
330
39D66
100
AcDbEntity
  8
0
370
    30
100
AcDbBlockEnd
  0
BLOCK
  5
39D7C
330
39D72
100
AcDbEntity
  8
0
370
    30
100
AcDbBlockBegin
  2
*D7
 70
     1
 10
0.0
 20
0.0
 30
0.0
  3
*D7
  1

  0
LINE
  5
39DE7
330
39D72
100
AcDbEntity
  8
SUNPOU
  6
Continuous
 62
     4
370
    -2
100
AcDbLine
 10
28233.47134389966
 20
-4221.93453670547
 30
0.0
 11
28233.47134389966
 21
-4280.801330063405
 31
0.0
  0
LINE
  5
39DE8
330
39D72
100
AcDbEntity
  8
SUNPOU
  6
Continuous
 62
     4
370
    -2
100
AcDbLine
 10
28544.05709166514
 20
-4221.93453670547
 30
0.0
 11
28544.05709166514
 21
-4280.801330063405
 31
0.0
  0
LINE
  5
39DE9
330
39D72
100
AcDbEntity
  8
SUNPOU
  6
Continuous
 62
     4
370
    -2
100
AcDbLine
 10
28247.47134389966
 20
-4274.801330063405
 30
0.0
 11
28530.05709166514
 21
-4274.801330063405
 31
0.0
  0
INSERT
  5
39DEA
330
39D72
100
AcDbEntity
  8
SUNPOU
  6
Continuous
 62
     4
370
    -2
100
AcDbBlockReference
  2
_OPEN
 10
28233.47134389966
 20
-4274.801330063405
 30
0.0
 41
14.0
 42
14.0
 43
14.0
 50
180.0
  0
INSERT
  5
39DEB
330
39D72
100
AcDbEntity
  8
SUNPOU
  6
Continuous
 62
     4
370
    -2
100
AcDbBlockReference
  2
_OPEN
 10
28544.05709166514
 20
-4274.801330063405
 30
0.0
 41
14.0
 42
14.0
 43
14.0
  0
MTEXT
  5
39DEC
330
39D72
100
AcDbEntity
  8
SUNPOU
  6
Continuous
 62
     4
100
AcDbMText
 10
28388.7642177824
 20
-4264.801330063405
 30
0.0
 40
12.0
 41
0.0
 71
     5
 72
     1
  1
\A1;311
 73
     1
 44
1.0
1001
ACAD
1000
MTEXTBEGIN
1070
    73
1070
     1
1070
    44
1040
1.0
1070
    74
1070
     0
1000
MTEXTEND
  0
POINT
  5
39DED
330
39D72
100
AcDbEntity
  8
Defpoints
  6
Continuous
 62
     0
370
    30
100
AcDbPoint
 10
28233.47134389966
 20
-4209.93453670547
 30
0.0
  0
POINT
  5
39DEE
330
39D72
100
AcDbEntity
  8
Defpoints
  6
Continuous
 62
     0
370
    30
100
AcDbPoint
 10
28544.05709166514
 20
-4209.93453670547
 30
0.0
  0
POINT
  5
39DEF
330
39D72
100
AcDbEntity
  8
Defpoints
  6
Continuous
 62
     0
370
    30
100
AcDbPoint
 10
28544.05709166514
 20
-4274.801330063405
 30
0.0
  0
ENDBLK
  5
39D7D
330
39D72
100
AcDbEntity
  8
0
370
    30
100
AcDbBlockEnd
  0
BLOCK
  5
39D88
330
39D7E
100
AcDbEntity
  8
0
370
    30
100
AcDbBlockBegin
  2
*D8
 70
     1
 10
0.0
 20
0.0
 30
0.0
  3
*D8
  1

  0
LINE
  5
39DF0
330
39D7E
100
AcDbEntity
  8
SUNPOU
  6
Continuous
 62
     4
370
    -2
100
AcDbLine
 10
28176.11490371403
 20
-3946.717836569994
 30
0.0
 11
28116.32599480951
 21
-3946.717836569994
 31
0.0
  0
LINE
  5
39DF1
330
39D7E
100
AcDbEntity
  8
SUNPOU
  6
Continuous
 62
     4
370
    -2
100
AcDbLine
 10
28221.47134389966
 20
-4209.93453670547
 30
0.0
 11
28116.32599480951
 21
-4209.93453670547
 31
0.0
  0
LINE
  5
39DF2
330
39D7E
100
AcDbEntity
  8
SUNPOU
  6
Continuous
 62
     4
370
    -2
100
AcDbLine
 10
28122.3259948095
 20
-3960.717836569994
 30
0.0
 11
28122.3259948095
 21
-4195.93453670547
 31
0.0
  0
INSERT
  5
39DF3
330
39D7E
100
AcDbEntity
  8
SUNPOU
  6
Continuous
 62
     4
370
    -2
100
AcDbBlockReference
  2
_OPEN
 10
28122.3259948095
 20
-3946.717836569994
 30
0.0
 41
14.0
 42
14.0
 43
14.0
 50
90.0
  0
INSERT
  5
39DF4
330
39D7E
100
AcDbEntity
  8
SUNPOU
  6
Continuous
 62
     4
370
    -2
100
AcDbBlockReference
  2
_OPEN
 10
28122.3259948095
 20
-4209.93453670547
 30
0.0
 41
14.0
 42
14.0
 43
14.0
 50
270.0
  0
MTEXT
  5
39DF5
330
39D7E
100
AcDbEntity
  8
SUNPOU
  6
Continuous
 62
     4
100
AcDbMText
 10
28112.3259948095
 20
-4078.326186637727
 30
0.0
 40
12.0
 41
0.0
 71
     5
 72
     1
  1
\A1;263
 11
0.0000000000000001
 21
1.0
 31
0.0
 73
     1
 44
1.0
1001
ACAD
1000
MTEXTBEGIN
1070
    73
1070
     1
1070
    44
1040
1.0
1070
    74
1070
     0
1000
MTEXTEND
  0
POINT
  5
39DF6
330
39D7E
100
AcDbEntity
  8
Defpoints
  6
Continuous
 62
     0
370
    30
100
AcDbPoint
 10
28188.11490371403
 20
-3946.717836569994
 30
0.0
  0
POINT
  5
39DF7
330
39D7E
100
AcDbEntity
  8
Defpoints
  6
Continuous
 62
     0
370
    30
100
AcDbPoint
 10
28233.47134389966
 20
-4209.93453670547
 30
0.0
  0
POINT
  5
39DF8
330
39D7E
100
AcDbEntity
  8
Defpoints
  6
Continuous
 62
     0
370
    30
100
AcDbPoint
 10
28122.3259948095
 20
-4209.93453670547
 30
0.0
  0
ENDBLK
  5
39D89
330
39D7E
100
AcDbEntity
  8
0
370
    30
100
AcDbBlockEnd
  0
BLOCK
  5
39D94
330
39D8A
100
AcDbEntity
  8
0
370
    30
100
AcDbBlockBegin
  2
*D9
 70
     1
 10
0.0
 20
0.0
 30
0.0
  3
*D9
  1

  0
LINE
  5
39DF9
330
39D8A
100
AcDbEntity
  8
SUNPOU
  6
Continuous
 62
     4
370
    -2
100
AcDbLine
 10
28188.11490371403
 20
-3934.717836569994
 30
0.0
 11
28188.11490371403
 21
-3844.082477501274
 31
0.0
  0
LINE
  5
39DFA
330
39D8A
100
AcDbEntity
  8
SUNPOU
  6
Continuous
 62
     4
370
    -2
100
AcDbLine
 10
28595.5345748495
 20
-3885.217836569996
 30
0.0
 11
28595.5345748495
 21
-3844.082477501274
 31
0.0
  0
LINE
  5
39DFB
330
39D8A
100
AcDbEntity
  8
SUNPOU
  6
Continuous
 62
     4
370
    -2
100
AcDbLine
 10
28202.11490371403
 20
-3850.082477501274
 30
0.0
 11
28581.5345748495
 21
-3850.082477501274
 31
0.0
  0
INSERT
  5
39DFC
330
39D8A
100
AcDbEntity
  8
SUNPOU
  6
Continuous
 62
     4
370
    -2
100
AcDbBlockReference
  2
_OPEN
 10
28188.11490371403
 20
-3850.082477501274
 30
0.0
 41
14.0
 42
14.0
 43
14.0
 50
180.0
  0
INSERT
  5
39DFD
330
39D8A
100
AcDbEntity
  8
SUNPOU
  6
Continuous
 62
     4
370
    -2
100
AcDbBlockReference
  2
_OPEN
 10
28595.5345748495
 20
-3850.082477501274
 30
0.0
 41
14.0
 42
14.0
 43
14.0
  0
MTEXT
  5
39DFE
330
39D8A
100
AcDbEntity
  8
SUNPOU
  6
Continuous
 62
     4
100
AcDbMText
 10
28391.82473928177
 20
-3840.082477501274
 30
0.0
 40
12.0
 41
0.0
 71
     5
 72
     1
  1
\A1;407
 73
     1
 44
1.0
1001
ACAD
1000
MTEXTBEGIN
1070
    73
1070
     1
1070
    44
1040
1.0
1070
    74
1070
     0
1000
MTEXTEND
  0
POINT
  5
39DFF
330
39D8A
100
AcDbEntity
  8
Defpoints
  6
Continuous
 62
     0
370
    30
100
AcDbPoint
 10
28188.11490371403
 20
-3946.717836569994
 30
0.0
  0
POINT
  5
39E00
330
39D8A
100
AcDbEntity
  8
Defpoints
  6
Continuous
 62
     0
370
    30
100
AcDbPoint
 10
28595.5345748495
 20
-3897.217836569996
 30
0.0
  0
POINT
  5
39E01
330
39D8A
100
AcDbEntity
  8
Defpoints
  6
Continuous
 62
     0
370
    30
100
AcDbPoint
 10
28595.5345748495
 20
-3850.082477501274
 30
0.0
  0
ENDBLK
  5
39D95
330
39D8A
100
AcDbEntity
  8
0
370
    30
100
AcDbBlockEnd
  0
BLOCK
  5
39DA0
330
39D96
100
AcDbEntity
  8
0
370
    30
100
AcDbBlockBegin
  2
*D10
 70
     1
 10
0.0
 20
0.0
 30
0.0
  3
*D10
  1

  0
LINE
  5
39E47
330
39D96
100
AcDbEntity
  8
SUNPOU
  6
Continuous
 62
     4
370
    -2
100
AcDbLine
 10
28979.06519023851
 20
-3885.217836569996
 30
0.0
 11
28979.06519023851
 21
-3847.108205451368
 31
0.0
  0
LINE
  5
39E48
330
39D96
100
AcDbEntity
  8
SUNPOU
  6
Continuous
 62
     4
370
    -2
100
AcDbLine
 10
28934.06519023851
 20
-3888.576186637734
 30
0.0
 11
28934.06519023851
 21
-3847.108205451368
 31
0.0
  0
LINE
  5
39E49
330
39D96
100
AcDbEntity
  8
SUNPOU
  6
Continuous
 62
     4
370
    -2
100
AcDbLine
 10
28965.06519023851
 20
-3853.108205451368
 30
0.0
 11
28948.06519023851
 21
-3853.108205451368
 31
0.0
  0
INSERT
  5
39E4A
330
39D96
100
AcDbEntity
  8
SUNPOU
  6
Continuous
 62
     4
370
    -2
100
AcDbBlockReference
  2
_OPEN
 10
28979.06519023851
 20
-3853.108205451368
 30
0.0
 41
14.0
 42
14.0
 43
14.0
  0
INSERT
  5
39E4B
330
39D96
100
AcDbEntity
  8
SUNPOU
  6
Continuous
 62
     4
370
    -2
100
AcDbBlockReference
  2
_OPEN
 10
28934.06519023851
 20
-3853.108205451368
 30
0.0
 41
14.0
 42
14.0
 43
14.0
 50
180.0
  0
MTEXT
  5
39E4C
330
39D96
100
AcDbEntity
  8
SUNPOU
  6
Continuous
 62
     4
100
AcDbMText
 10
28956.56519023851
 20
-3843.108205451368
 30
0.0
 40
12.0
 41
0.0
 71
     5
 72
     1
  1
\A1;45
 73
     1
 44
1.0
1001
ACAD
1000
MTEXTBEGIN
1070
    73
1070
     1
1070
    44
1040
1.0
1070
    74
1070
     0
1000
MTEXTEND
  0
POINT
  5
39E4D
330
39D96
100
AcDbEntity
  8
Defpoints
  6
Continuous
 62
     0
370
    30
100
AcDbPoint
 10
28979.06519023851
 20
-3897.217836569997
 30
0.0
  0
POINT
  5
39E4E
330
39D96
100
AcDbEntity
  8
Defpoints
  6
Continuous
 62
     0
370
    30
100
AcDbPoint
 10
28934.06519023851
 20
-3900.576186637734
 30
0.0
  0
POINT
  5
39E4F
330
39D96
100
AcDbEntity
  8
Defpoints
  6
Continuous
 62
     0
370
    30
100
AcDbPoint
 10
28934.06519023851
 20
-3853.108205451368
 30
0.0
  0
ENDBLK
  5
39DA1
330
39D96
100
AcDbEntity
  8
0
370
    30
100
AcDbBlockEnd
  0
BLOCK
  5
39DAC
330
39DA2
100
AcDbEntity
  8
0
370
    30
100
AcDbBlockBegin
  2
*D11
 70
     1
 10
0.0
 20
0.0
 30
0.0
  3
*D11
  1

  0
LINE
  5
39E3E
330
39DA2
100
AcDbEntity
  8
SUNPOU
  6
Continuous
 62
     4
370
    -2
100
AcDbLine
 10
28711.14330167728
 20
-3885.217836569996
 30
0.0
 11
28711.14330167728
 21
-3847.108205451368
 31
0.0
  0
LINE
  5
39E3F
330
39DA2
100
AcDbEntity
  8
SUNPOU
  6
Continuous
 62
     4
370
    -2
100
AcDbLine
 10
28756.14330167728
 20
-3888.576186637734
 30
0.0
 11
28756.14330167728
 21
-3847.108205451368
 31
0.0
  0
LINE
  5
39E40
330
39DA2
100
AcDbEntity
  8
SUNPOU
  6
Continuous
 62
     4
370
    -2
100
AcDbLine
 10
28725.14330167728
 20
-3853.108205451368
 30
0.0
 11
28742.14330167728
 21
-3853.108205451368
 31
0.0
  0
INSERT
  5
39E41
330
39DA2
100
AcDbEntity
  8
SUNPOU
  6
Continuous
 62
     4
370
    -2
100
AcDbBlockReference
  2
_OPEN
 10
28711.14330167728
 20
-3853.108205451368
 30
0.0
 41
14.0
 42
14.0
 43
14.0
 50
180.0
  0
INSERT
  5
39E42
330
39DA2
100
AcDbEntity
  8
SUNPOU
  6
Continuous
 62
     4
370
    -2
100
AcDbBlockReference
  2
_OPEN
 10
28756.14330167728
 20
-3853.108205451368
 30
0.0
 41
14.0
 42
14.0
 43
14.0
  0
MTEXT
  5
39E43
330
39DA2
100
AcDbEntity
  8
SUNPOU
  6
Continuous
 62
     4
100
AcDbMText
 10
28733.64330167728
 20
-3843.108205451368
 30
0.0
 40
12.0
 41
0.0
 71
     5
 72
     1
  1
\A1;45
 73
     1
 44
1.0
1001
ACAD
1000
MTEXTBEGIN
1070
    73
1070
     1
1070
    44
1040
1.0
1070
    74
1070
     0
1000
MTEXTEND
  0
POINT
  5
39E44
330
39DA2
100
AcDbEntity
  8
Defpoints
  6
Continuous
 62
     0
370
    30
100
AcDbPoint
 10
28711.14330167728
 20
-3897.217836569997
 30
0.0
  0
POINT
  5
39E45
330
39DA2
100
AcDbEntity
  8
Defpoints
  6
Continuous
 62
     0
370
    30
100
AcDbPoint
 10
28756.14330167728
 20
-3900.576186637734
 30
0.0
  0
POINT
  5
39E46
330
39DA2
100
AcDbEntity
  8
Defpoints
  6
Continuous
 62
     0
370
    30
100
AcDbPoint
 10
28756.14330167728
 20
-3853.108205451368
 30
0.0
  0
ENDBLK
  5
39DAD
330
39DA2
100
AcDbEntity
  8
0
370
    30
100
AcDbBlockEnd
  0
BLOCK
  5
39DB8
330
39DAE
100
AcDbEntity
  8
0
370
    30
100
AcDbBlockBegin
  2
*D12
 70
     1
 10
0.0
 20
0.0
 30
0.0
  3
*D12
  1

  0
LINE
  5
39E14
330
39DAE
100
AcDbEntity
  8
SUNPOU
  6
Continuous
 62
     4
370
    -2
100
AcDbLine
 10
29494.51568824562
 20
-3934.717836569994
 30
0.0
 11
29494.51568824562
 21
-3844.082477501274
 31
0.0
  0
LINE
  5
39E15
330
39DAE
100
AcDbEntity
  8
SUNPOU
  6
Continuous
 62
     4
370
    -2
100
AcDbLine
 10
29087.09601711015
 20
-3885.217836569996
 30
0.0
 11
29087.09601711015
 21
-3844.082477501274
 31
0.0
  0
LINE
  5
39E16
330
39DAE
100
AcDbEntity
  8
SUNPOU
  6
Continuous
 62
     4
370
    -2
100
AcDbLine
 10
29480.51568824562
 20
-3850.082477501274
 30
0.0
 11
29101.09601711015
 21
-3850.082477501274
 31
0.0
  0
INSERT
  5
39E17
330
39DAE
100
AcDbEntity
  8
SUNPOU
  6
Continuous
 62
     4
370
    -2
100
AcDbBlockReference
  2
_OPEN
 10
29494.51568824562
 20
-3850.082477501274
 30
0.0
 41
14.0
 42
14.0
 43
14.0
  0
INSERT
  5
39E18
330
39DAE
100
AcDbEntity
  8
SUNPOU
  6
Continuous
 62
     4
370
    -2
100
AcDbBlockReference
  2
_OPEN
 10
29087.09601711015
 20
-3850.082477501274
 30
0.0
 41
14.0
 42
14.0
 43
14.0
 50
180.0
  0
MTEXT
  5
39E19
330
39DAE
100
AcDbEntity
  8
SUNPOU
  6
Continuous
 62
     4
100
AcDbMText
 10
29290.80585267788
 20
-3840.082477501274
 30
0.0
 40
12.0
 41
0.0
 71
     5
 72
     1
  1
\A1;407
 73
     1
 44
1.0
1001
ACAD
1000
MTEXTBEGIN
1070
    73
1070
     1
1070
    44
1040
1.0
1070
    74
1070
     0
1000
MTEXTEND
  0
POINT
  5
39E1A
330
39DAE
100
AcDbEntity
  8
Defpoints
  6
Continuous
 62
     0
370
    30
100
AcDbPoint
 10
29494.51568824562
 20
-3946.717836569994
 30
0.0
  0
POINT
  5
39E1B
330
39DAE
100
AcDbEntity
  8
Defpoints
  6
Continuous
 62
     0
370
    30
100
AcDbPoint
 10
29087.09601711015
 20
-3897.217836569996
 30
0.0
  0
POINT
  5
39E1C
330
39DAE
100
AcDbEntity
  8
Defpoints
  6
Continuous
 62
     0
370
    30
100
AcDbPoint
 10
29087.09601711015
 20
-3850.082477501274
 30
0.0
  0
ENDBLK
  5
39DB9
330
39DAE
100
AcDbEntity
  8
0
370
    30
100
AcDbBlockEnd
  0
BLOCK
  5
39DC4
330
39DBA
100
AcDbEntity
  8
0
370
    30
100
AcDbBlockBegin
  2
*D13
 70
     1
 10
0.0
 20
0.0
 30
0.0
  3
*D13
  1

  0
LINE
  5
39E1D
330
39DBA
100
AcDbEntity
  8
SUNPOU
  6
Continuous
 62
     4
370
    -2
100
AcDbLine
 10
29506.51568824562
 20
-3946.717836569994
 30
0.0
 11
29566.30459715015
 21
-3946.717836569994
 31
0.0
  0
LINE
  5
39E1E
330
39DBA
100
AcDbEntity
  8
SUNPOU
  6
Continuous
 62
     4
370
    -2
100
AcDbLine
 10
29461.15924805999
 20
-4209.93453670547
 30
0.0
 11
29566.30459715015
 21
-4209.93453670547
 31
0.0
  0
LINE
  5
39E1F
330
39DBA
100
AcDbEntity
  8
SUNPOU
  6
Continuous
 62
     4
370
    -2
100
AcDbLine
 10
29560.30459715015
 20
-3960.717836569994
 30
0.0
 11
29560.30459715015
 21
-4195.93453670547
 31
0.0
  0
INSERT
  5
39E20
330
39DBA
100
AcDbEntity
  8
SUNPOU
  6
Continuous
 62
     4
370
    -2
100
AcDbBlockReference
  2
_OPEN
 10
29560.30459715015
 20
-3946.717836569994
 30
0.0
 41
14.0
 42
14.0
 43
14.0
 50
90.0
  0
INSERT
  5
39E21
330
39DBA
100
AcDbEntity
  8
SUNPOU
  6
Continuous
 62
     4
370
    -2
100
AcDbBlockReference
  2
_OPEN
 10
29560.30459715015
 20
-4209.93453670547
 30
0.0
 41
14.0
 42
14.0
 43
14.0
 50
270.0
  0
MTEXT
  5
39E22
330
39DBA
100
AcDbEntity
  8
SUNPOU
  6
Continuous
 62
     4
100
AcDbMText
 10
29550.30459715015
 20
-4078.326186637727
 30
0.0
 40
12.0
 41
0.0
 71
     5
 72
     1
  1
\A1;263
 11
0.0000000000000001
 21
1.0
 31
0.0
 73
     1
 44
1.0
1001
ACAD
1000
MTEXTBEGIN
1070
    73
1070
     1
1070
    44
1040
1.0
1070
    74
1070
     0
1000
MTEXTEND
  0
POINT
  5
39E23
330
39DBA
100
AcDbEntity
  8
Defpoints
  6
Continuous
 62
     0
370
    30
100
AcDbPoint
 10
29494.51568824562
 20
-3946.717836569994
 30
0.0
  0
POINT
  5
39E24
330
39DBA
100
AcDbEntity
  8
Defpoints
  6
Continuous
 62
     0
370
    30
100
AcDbPoint
 10
29449.15924805999
 20
-4209.93453670547
 30
0.0
  0
POINT
  5
39E25
330
39DBA
100
AcDbEntity
  8
Defpoints
  6
Continuous
 62
     0
370
    30
100
AcDbPoint
 10
29560.30459715015
 20
-4209.93453670547
 30
0.0
  0
ENDBLK
  5
39DC5
330
39DBA
100
AcDbEntity
  8
0
370
    30
100
AcDbBlockEnd
  0
BLOCK
  5
39DD0
330
39DC6
100
AcDbEntity
  8
0
370
    30
100
AcDbBlockBegin
  2
*D14
 70
     1
 10
0.0
 20
0.0
 30
0.0
  3
*D14
  1

  0
LINE
  5
39E26
330
39DC6
100
AcDbEntity
  8
SUNPOU
  6
Continuous
 62
     4
370
    -2
100
AcDbLine
 10
29449.15924805999
 20
-4221.93453670547
 30
0.0
 11
29449.15924805999
 21
-4280.801330063405
 31
0.0
  0
LINE
  5
39E27
330
39DC6
100
AcDbEntity
  8
SUNPOU
  6
Continuous
 62
     4
370
    -2
100
AcDbLine
 10
29138.57350029451
 20
-4221.93453670547
 30
0.0
 11
29138.57350029451
 21
-4280.801330063405
 31
0.0
  0
LINE
  5
39E28
330
39DC6
100
AcDbEntity
  8
SUNPOU
  6
Continuous
 62
     4
370
    -2
100
AcDbLine
 10
29435.15924805999
 20
-4274.801330063405
 30
0.0
 11
29152.57350029451
 21
-4274.801330063405
 31
0.0
  0
INSERT
  5
39E29
330
39DC6
100
AcDbEntity
  8
SUNPOU
  6
Continuous
 62
     4
370
    -2
100
AcDbBlockReference
  2
_OPEN
 10
29449.15924805999
 20
-4274.801330063405
 30
0.0
 41
14.0
 42
14.0
 43
14.0
  0
INSERT
  5
39E2A
330
39DC6
100
AcDbEntity
  8
SUNPOU
  6
Continuous
 62
     4
370
    -2
100
AcDbBlockReference
  2
_OPEN
 10
29138.57350029451
 20
-4274.801330063405
 30
0.0
 41
14.0
 42
14.0
 43
14.0
 50
180.0
  0
MTEXT
  5
39E2B
330
39DC6
100
AcDbEntity
  8
SUNPOU
  6
Continuous
 62
     4
100
AcDbMText
 10
29293.86637417725
 20
-4264.801330063405
 30
0.0
 40
12.0
 41
0.0
 71
     5
 72
     1
  1
\A1;311
 73
     1
 44
1.0
1001
ACAD
1000
MTEXTBEGIN
1070
    73
1070
     1
1070
    44
1040
1.0
1070
    74
1070
     0
1000
MTEXTEND
  0
POINT
  5
39E2C
330
39DC6
100
AcDbEntity
  8
Defpoints
  6
Continuous
 62
     0
370
    30
100
AcDbPoint
 10
29449.15924805999
 20
-4209.93453670547
 30
0.0
  0
POINT
  5
39E2D
330
39DC6
100
AcDbEntity
  8
Defpoints
  6
Continuous
 62
     0
370
    30
100
AcDbPoint
 10
29138.57350029451
 20
-4209.93453670547
 30
0.0
  0
POINT
  5
39E2E
330
39DC6
100
AcDbEntity
  8
Defpoints
  6
Continuous
 62
     0
370
    30
100
AcDbPoint
 10
29138.57350029451
 20
-4274.801330063405
 30
0.0
  0
ENDBLK
  5
39DD1
330
39DC6
100
AcDbEntity
  8
0
370
    30
100
AcDbBlockEnd
  0
BLOCK
  5
39DDC
330
39DD2
100
AcDbEntity
  8
0
370
    30
100
AcDbBlockBegin
  2
*D15
 70
     1
 10
0.0
 20
0.0
 30
0.0
  3
*D15
  1

  0
LINE
  5
39E50
330
39DD2
100
AcDbEntity
  8
SUNPOU
  6
Continuous
 62
     4
370
    -2
100
AcDbLine
 10
29075.09190571442
 20
-3897.217836569996
 30
0.0
 11
29045.88693210274
 21
-3897.217836569996
 31
0.0
  0
LINE
  5
39E51
330
39DD2
100
AcDbEntity
  8
SUNPOU
  6
Continuous
 62
     4
370
    -2
100
AcDbLine
 10
29126.57350029451
 20
-4209.93453670547
 30
0.0
 11
29045.88693210274
 21
-4209.93453670547
 31
0.0
  0
LINE
  5
39E52
330
39DD2
100
AcDbEntity
  8
SUNPOU
  6
Continuous
 62
     4
370
    -2
100
AcDbLine
 10
29051.88693210275
 20
-3911.217836569996
 30
0.0
 11
29051.88693210275
 21
-4195.93453670547
 31
0.0
  0
INSERT
  5
39E53
330
39DD2
100
AcDbEntity
  8
SUNPOU
  6
Continuous
 62
     4
370
    -2
100
AcDbBlockReference
  2
_OPEN
 10
29051.88693210275
 20
-3897.217836569996
 30
0.0
 41
14.0
 42
14.0
 43
14.0
 50
90.0
  0
INSERT
  5
39E54
330
39DD2
100
AcDbEntity
  8
SUNPOU
  6
Continuous
 62
     4
370
    -2
100
AcDbBlockReference
  2
_OPEN
 10
29051.88693210275
 20
-4209.93453670547
 30
0.0
 41
14.0
 42
14.0
 43
14.0
 50
270.0
  0
MTEXT
  5
39E55
330
39DD2
100
AcDbEntity
  8
SUNPOU
  6
Continuous
 62
     4
100
AcDbMText
 10
29041.88693210274
 20
-4053.576186637729
 30
0.0
 40
12.0
 41
0.0
 71
     5
 72
     1
  1
\A1;313
 11
0.0000000000000001
 21
1.0
 31
0.0
 73
     1
 44
1.0
1001
ACAD
1000
MTEXTBEGIN
1070
    73
1070
     1
1070
    44
1040
1.0
1070
    74
1070
     0
1000
MTEXTEND
  0
POINT
  5
39E56
330
39DD2
100
AcDbEntity
  8
Defpoints
  6
Continuous
 62
     0
370
    30
100
AcDbPoint
 10
29087.09190571442
 20
-3897.217836569996
 30
0.0
  0
POINT
  5
39E57
330
39DD2
100
AcDbEntity
  8
Defpoints
  6
Continuous
 62
     0
370
    30
100
AcDbPoint
 10
29138.57350029451
 20
-4209.93453670547
 30
0.0
  0
POINT
  5
39E58
330
39DD2
100
AcDbEntity
  8
Defpoints
  6
Continuous
 62
     0
370
    30
100
AcDbPoint
 10
29051.88693210275
 20
-4209.93453670547
 30
0.0
  0
ENDBLK
  5
39DDD
330
39DD2
100
AcDbEntity
  8
0
370
    30
100
AcDbBlockEnd
  0
ENDSEC
  0
SECTION
  2
ENTITIES
  0
LINE
  5
38959
330
1F
100
AcDbEntity
  8
ZUWAKU
100
AcDbLine
 10
28454.61188732637
 20
-4547.373366482037
 30
0.0
 11
28932.16741268821
 21
-4547.373366482037
 31
0.0
  0
LINE
  5
3895A
330
1F
100
AcDbEntity
  8
ZUWAKU
100
AcDbLine
 10
28454.61188732637
 20
-4546.573366482038
 30
0.0
 11
28932.16741268821
 21
-4546.573366482038
 31
0.0
  0
LINE
  5
3895B
330
1F
100
AcDbEntity
  8
ZUWAKU
100
AcDbLine
 10
28454.61188732637
 20
-4546.973366482037
 30
0.0
 11
28932.16741268821
 21
-4546.973366482037
 31
0.0
  0
LINE
  5
3895C
330
1F
100
AcDbEntity
  8
ZUWAKU
100
AcDbLine
 10
28037.31868474623
 20
-4516.173366482037
 30
0.0
 11
29632.11868474623
 21
-4516.173366482037
 31
0.0
  0
LINE
  5
3895D
330
1F
100
AcDbEntity
  8
ZUWAKU
100
AcDbLine
 10
28037.31868474623
 20
-4516.573366482037
 30
0.0
 11
29632.11868474623
 21
-4516.573366482037
 31
0.0
  0
LINE
  5
3895E
330
1F
100
AcDbEntity
  8
ZUWAKU
100
AcDbLine
 10
28037.31868474623
 20
-4516.973366482037
 30
0.0
 11
29632.11868474623
 21
-4516.973366482037
 31
0.0
  0
LINE
  5
3895F
330
1F
100
AcDbEntity
  8
ZUWAKU
100
AcDbLine
 10
28037.31868474623
 20
-4517.373366482037
 30
0.0
 11
29632.11868474623
 21
-4517.373366482037
 31
0.0
  0
LINE
  5
38960
330
1F
100
AcDbEntity
  8
ZUWAKU
100
AcDbLine
 10
28037.31868474623
 20
-4517.773366482037
 30
0.0
 11
29632.11868474623
 21
-4517.773366482037
 31
0.0
  0
LWPOLYLINE
  5
38961
330
1F
100
AcDbEntity
  8
ZUWAKU
100
AcDbPolyline
 90
        4
 70
     1
 43
0.0
 10
28037.71868474623
 20
-3474.973366482038
 10
28037.71868474623
 20
-4577.373366482038
 10
29632.11868474623
 20
-4577.373366482038
 10
29632.11868474623
 20
-3474.973366482038
  0
LWPOLYLINE
  5
38962
330
1F
100
AcDbEntity
  8
ZUWAKU
100
AcDbPolyline
 90
        4
 70
     1
 43
0.0
 10
28038.51868474623
 20
-3475.773366482038
 10
28038.51868474623
 20
-4576.573366482038
 10
29631.31868474623
 20
-4576.573366482037
 10
29631.31868474623
 20
-3475.773366482038
  0
LWPOLYLINE
  5
38963
330
1F
100
AcDbEntity
  8
ZUWAKU
100
AcDbPolyline
 90
        4
 70
     1
 43
0.0
 10
28037.31868474623
 20
-3474.573366482038
 10
28037.31868474623
 20
-4577.773366482037
 10
29632.51868474623
 20
-4577.773366482037
 10
29632.51868474623
 20
-3474.573366482037
  0
LWPOLYLINE
  5
38964
330
1F
100
AcDbEntity
  8
ZUWAKU
100
AcDbPolyline
 90
        4
 70
     1
 43
0.0
 10
28038.11868474623
 20
-3475.373366482037
 10
28038.11868474623
 20
-4576.973366482038
 10
29631.71868474623
 20
-4576.973366482038
 10
29631.71868474623
 20
-3475.373366482037
  0
LWPOLYLINE
  5
38965
330
1F
100
AcDbEntity
  8
ZUWAKU
100
AcDbPolyline
 90
        4
 70
     1
 43
0.0
 10
28038.91868474623
 20
-3476.173366482038
 10
28038.91868474623
 20
-4576.173366482037
 10
29630.91868474623
 20
-4576.173366482037
 10
29630.91868474623
 20
-3476.173366482038
  0
TEXT
  5
38966
330
1F
100
AcDbEntity
  8
moji
100
AcDbText
 10
28223.23426392257
 20
-4552.291010221488
 30
0.0
 40
12.0
  1
大型のきとい
 41
0.9
  7
ｽﾀｲﾙ1
100
AcDbText
  0
INSERT
  5
38967
330
1F
100
AcDbEntity
  8
ZUWAKU
  6
Continuous
100
AcDbBlockReference
  2
*X5
 10
28037.31868473267
 20
-4577.773366350326
 30
0.0
1001
ACAD
1000
HATCH
1002
{
1070
    19
1000
ANSI37
1040
0.4
1040
0.0
1000
R14_HATCH_DATA
1000
15D7
1011
28038.31868473267
1021
-4577.773366350326
1031
0.0
1011
28037.31868473267
1021
-4576.773366350326
1031
0.0
1011
28037.31868473267
1021
-4577.773366350326
1031
1.0
1040
0.0
1010
0.0
1020
0.0
1030
1.0
1000
ANSI37
1070
     0
1070
     0
1071
        8
1071
        7
1070
     1
1070
     1
1071
       24
1040
29.00452533579573
1040
35.28969683025585
1040
-0.1989123673796348
1040
28.18442432311826
1040
37.26959581757795
1040
0.0
1040
28.18442432311826
1040
39.84999986828871
1040
-0.4142135623730912
1040
29.23442432311822
1040
40.89999986828869
1040
0.0
1040
35.18442432311804
1040
40.89999986828869
1040
0.4142135623731546
1040
36.23442432311822
1040
41.94999986828867
1040
0.0
1040
36.23442432311822
1040
45.44999986828869
1040
0.4142135623731586
1040
35.18442432311804
1040
46.49999986828869
1040
0.0
1040
28.18442432311826
1040
46.49999986828869
1040
0.4142135623730928
1040
22.58442432311836
1040
40.89999986828874
1040
0.0
1040
22.58442432311836
1040
37.26959581757821
1040
0.1989123673796619
1040
25.04472736115122
1040
31.32989885561099
1040
0.0
1040
30.86432331044057
1040
25.51030290632168
1040
-0.1989123673796613
1040
31.68442432311826
1040
23.53040391899931
1040
0.0
1040
31.68442432311826
1040
20.94999986828867
1040
-0.4142135623730911
1040
30.63442432311831
1040
19.89999986828869
1040
0.0
1040
24.68442432311849
1040
19.89999986828869
1040
0.4142135623731526
1040
23.63442432311831
1040
18.84999986828871
1040
0.0
1040
23.63442432311831
1040
15.34999986828867
1040
0.4142135623731526
1040
24.68442432311849
1040
14.29999986828869
1040
0.0
1040
31.68442432311826
1040
14.29999986828869
1040
0.4142135623731044
1040
37.2844243231184
1040
19.89999986828864
1040
0.0
1040
37.2844243231184
1040
23.53040391899919
1040
0.1989123673796604
1040
34.82412128508531
1040
29.47010088096627
1040
0.0
1071
        0
1071
        7
1070
     1
1070
     1
1071
       16
1040
47.08442432311835
1040
38.0999998682887
1040
-0.4142135623730935
1040
49.88442432311831
1040
40.89999986828869
1040
0.0
1040
53.73442432311822
1040
40.89999986828869
1040
0.4142135623731546
1040
54.7844243231184
1040
41.94999986828867
1040
0.0
1040
54.7844243231184
1040
45.44999986828869
1040
0.4142135623730951
1040
53.73442432311844
1040
46.49999986828869
1040
0.0
1040
49.88442432311808
1040
46.49999986828861
1040
0.4142135623730892
1040
41.48442432311822
1040
38.09999986828856
1040
0.0
1040
41.48442432311822
1040
22.69999986828874
1040
0.4142135623730969
1040
49.88442432311831
1040
14.29999986828869
1040
0.0
1040
53.73442432311822
1040
14.29999986828869
1040
0.4142135623731526
1040
54.7844243231184
1040
15.34999986828867
1040
0.0
1040
54.7844243231184
1040
18.84999986828871
1040
0.4142135623730891
1040
53.73442432311844
1040
19.89999986828869
1040
0.0
1040
49.88442432311831
1040
19.89999986828869
1040
-0.4142135623730928
1040
47.08442432311835
1040
22.69999986828866
1040
0.0
1071
        0
1071
        7
1070
     1
1070
     1
1071
        2
1040
48.48442432311822
1040
30.39999986828869
1040
1.0
1040
55.48442432311822
1040
30.39999986828869
1040
1.0
1071
        0
1071
        7
1070
     1
1070
     1
1071
       26
1040
74.62971728747425
1040
38.41009425541555
1040
0.0
1040
76.75299655374988
1040
45.13381193195472
1040
0.5069206636600134
1040
75.75173475535916
1040
46.49999986828869
1040
0.0
1040
72.35395599614071
1040
46.49999986828869
1040
0.3272098845218764
1040
71.35269419774999
1040
45.76618780462263
1040
0.0
1040
67.61615444848644
1040
33.93381193195485
1040
-0.3272098845219541
1040
66.61489265009549
1040
33.19999986828868
1040
0.0
1040
66.33442432311858
1040
33.19999986828868
1040
-0.4142135623731526
1040
65.2844243231184
1040
34.24999986828866
1040
0.0
1040
65.2844243231184
1040
45.44999986828869
1040
0.4142135623730951
1040
64.23442432311844
1040
46.49999986828869
1040
0.0
1040
60.73442432311821
1040
46.49999986828869
1040
0.4142135623730871
1040
59.68442432311826
1040
45.44999986828872
1040
0.0
1040
59.68442432311826
1040
15.34999986828867
1040
0.4142135623730891
1040
60.73442432311821
1040
14.29999986828869
1040
0.0
1040
64.23442432311822
1040
14.29999986828869
1040
0.4142135623731526
1040
65.2844243231184
1040
15.34999986828867
1040
0.0
1040
65.2844243231184
1040
26.54999986828872
1040
-0.4142135623731526
1040
66.33442432311858
1040
27.59999986828869
1040
0.0
1040
66.61489265009572
1040
27.59999986828869
1040
-0.3272098845218915
1040
67.61615444848644
1040
26.86618780462254
1040
0.0
1040
71.35269419774999
1040
15.03381193195483
1040
0.3272098845218902
1040
72.35395599614071
1040
14.29999986828869
1040
0.0
1040
75.75173475535916
1040
14.29999986828869
1040
0.5069206636600335
1040
76.75299655374988
1040
15.66618780462271
1040
0.0
1040
72.10021379680256
1040
30.39999986828897
1040
0.0
1071
        0
1071
        7
1070
     1
1070
     1
1071
        8
1040
86.98442432311821
1040
45.44999986828871
1040
0.4142135623731546
1040
85.93442432311803
1040
46.49999986828869
1040
0.0
1040
82.4344243231185
1040
46.49999986828869
1040
0.4142135623731507
1040
81.38442432311832
1040
45.44999986828872
1040
0.0
1040
81.38442432311832
1040
15.34999986828867
1040
0.4142135623731526
1040
82.4344243231185
1040
14.29999986828869
1040
0.0
1040
85.93442432311803
1040
14.29999986828869
1040
0.4142135623731526
1040
86.98442432311821
1040
15.34999986828867
1040
0.0
1071
        0
1071
        7
1070
     1
1070
     1
1071
       24
1040
96.7844243231184
1040
39.84999986828871
1040
-0.4142135623731546
1040
97.83442432311858
1040
40.89999986828869
1040
0.0
1040
103.7844243231184
1040
40.89999986828869
1040
0.4142135623730911
1040
104.8344243231183
1040
41.94999986828867
1040
0.0
1040
104.8344243231183
1040
45.44999986828869
1040
0.4142135623730952
1040
103.7844243231184
1040
46.49999986828869
1040
0.0
1040
96.7844243231184
1040
46.49999986828869
1040
0.4142135623731048
1040
91.18442432311827
1040
40.89999986828874
1040
0.0
1040
91.18442432311827
1040
37.26959581757821
1040
0.1989123673796613
1040
93.64472736115136
1040
31.32989885561111
1040
0.0
1040
99.46432331044071
1040
25.51030290632177
1040
-0.1989123673796402
1040
100.2844243231184
1040
23.53040391899963
1040
0.0
1040
100.2844243231184
1040
20.94999986828867
1040
-0.4142135623730911
1040
99.23442432311844
1040
19.89999986828869
1040
0.0
1040
93.2844243231184
1040
19.89999986828869
1040
0.4142135623731526
1040
92.23442432311822
1040
18.84999986828871
1040
0.0
1040
92.23442432311822
1040
15.34999986828867
1040
0.4142135623730891
1040
93.28442432311817
1040
14.29999986828869
1040
0.0
1040
100.2844243231184
1040
14.29999986828869
1040
0.4142135623730925
1040
105.8844243231183
1040
19.89999986828864
1040
0.0
1040
105.8844243231183
1040
23.53040391899919
1040
0.1989123673796675
1040
103.4241212850852
1040
29.4701008809665
1040
0.0
1040
97.60452533579609
1040
35.28969683025553
1040
-0.1989123673796652
1040
96.7844243231184
1040
37.26959581757787
1040
0.0
1071
        0
1071
        7
1070
     1
1070
     1
1071
       16
1040
115.6844243231182
1040
45.44999986828867
1040
0.414213562373103
1040
114.6344243231183
1040
46.49999986828869
1040
0.0
1040
111.1344243231183
1040
46.49999986828869
1040
0.4142135623730871
1040
110.0844243231183
1040
45.44999986828872
1040
0.0
1040
110.0844243231183
1040
19.89999986828864
1040
0.4142135623730926
1040
115.6844243231182
1040
14.29999986828869
1040
0.0
1040
122.6844243231182
1040
14.29999986828869
1040
0.4142135623731044
1040
128.2844243231184
1040
19.89999986828864
1040
0.0
1040
128.2844243231184
1040
45.44999986828869
1040
0.4142135623730951
1040
127.2344243231184
1040
46.49999986828869
1040
0.0
1040
123.7344243231182
1040
46.49999986828869
1040
0.4142135623730871
1040
122.6844243231182
1040
45.44999986828872
1040
0.0
1040
122.6844243231182
1040
21.99999986828864
1040
-0.414213562373088
1040
120.5844243231183
1040
19.89999986828869
1040
0.0
1040
117.7844243231184
1040
19.89999986828869
1040
-0.4142135623731197
1040
115.6844243231182
1040
21.99999986828864
1040
0.0
1071
        0
1071
        7
1070
     1
1070
     1
1071
        8
1040
138.0844243231183
1040
45.44999986828872
1040
0.4142135623730871
1040
137.0344243231184
1040
46.49999986828869
1040
0.0
1040
133.5344243231184
1040
46.49999986828869
1040
0.4142135623731507
1040
132.4844243231182
1040
45.44999986828872
1040
0.0
1040
132.4844243231182
1040
15.34999986828867
1040
0.4142135623730891
1040
133.5344243231181
1040
14.29999986828869
1040
0.0
1040
137.0344243231184
1040
14.29999986828869
1040
0.4142135623730891
1040
138.0844243231183
1040
15.34999986828867
1040
0.0
1071
        0
1070
     0
1070
     1
1040
0.0
1040
0.4
1070
     0
1070
     2
1040
0.7853981633974483
1040
-1801.884608655802
1040
-26.40000013171118
1040
-0.8980256121069151
1040
0.8980256121069153
1070
     0
1040
2.356194490192344
1040
-1801.884608655802
1040
-26.40000013171118
1040
-0.8980256121069153
1040
-0.8980256121069151
1070
     0
1040
0.057451373970553
1071
        8
1040
32.15970993960264
1040
30.3343471600598
1040
0.0
1040
44.80903002643436
1040
37.68812423319071
1040
0.0
1040
50.32873578487533
1040
31.02376316043012
1040
0.0
1040
61.82811997683029
1040
32.40259516117169
1040
0.0
1040
83.67694405146949
1040
33.32181969625492
1040
0.0
1040
93.79640180381512
1040
38.83715250110311
1040
0.0
1040
113.1153719583567
1040
37.45831569847871
1040
0.0
1040
135.6541592528015
1040
38.37754023356195
1040
0.0
1002
}
  0
LINE
  5
38968
330
1F
100
AcDbEntity
  8
ZUWAKU
100
AcDbLine
 10
28087.20310905579
 20
-4531.273366482038
 30
0.0
 11
28091.05310905579
 21
-4531.273366482037
 31
0.0
  0
LINE
  5
38969
330
1F
100
AcDbEntity
  8
ZUWAKU
100
AcDbLine
 10
28091.05310905579
 20
-4536.873366482037
 30
0.0
 11
28087.20310905579
 21
-4536.873366482037
 31
0.0
  0
LINE
  5
3896A
330
1F
100
AcDbEntity
  8
ZUWAKU
100
AcDbLine
 10
28087.20310905579
 20
-4557.873366482037
 30
0.0
 11
28091.05310905579
 21
-4557.873366482037
 31
0.0
  0
LINE
  5
3896B
330
1F
100
AcDbEntity
  8
ZUWAKU
100
AcDbLine
 10
28091.05310905579
 20
-4563.473366482038
 30
0.0
 11
28087.20310905579
 21
-4563.473366482038
 31
0.0
  0
CIRCLE
  5
3896C
330
1F
100
AcDbEntity
  8
ZUWAKU
100
AcDbCircle
 10
28089.30310905579
 20
-4547.373366482037
 30
0.0
 40
3.5
  0
ARC
  5
3896D
330
1F
100
AcDbEntity
  8
ZUWAKU
100
AcDbCircle
 10
28068.30310905579
 20
-4540.503770532748
 30
0.0
 40
2.799999999999999
100
AcDbArc
 50
180.0
 51
225.0000000001106
  0
LINE
  5
3896E
330
1F
100
AcDbEntity
  8
ZUWAKU
100
AcDbLine
 10
28084.40310905579
 20
-4539.673366482037
 30
0.0
 11
28084.40310905579
 21
-4555.073366482038
 31
0.0
  0
LINE
  5
3896F
330
1F
100
AcDbEntity
  8
ZUWAKU
100
AcDbLine
 10
28078.80310905579
 20
-4555.073366482038
 30
0.0
 11
28078.80310905579
 21
-4539.673366482037
 31
0.0
  0
ARC
  5
38970
330
1F
100
AcDbEntity
  8
ZUWAKU
100
AcDbCircle
 10
28068.30310905579
 20
-4540.503770532748
 30
0.0
 40
8.399999999999998
100
AcDbArc
 50
180.0
 51
225.0000000001106
  0
ARC
  5
38971
330
1F
100
AcDbEntity
  8
ZUWAKU
100
AcDbCircle
 10
28069.00310905579
 20
-4557.873366482037
 30
0.0
 40
5.599999999999999
100
AcDbArc
 50
270.0
 51
0.0
  0
ARC
  5
38972
330
1F
100
AcDbEntity
  8
ZUWAKU
100
AcDbCircle
 10
28087.20310905579
 20
-4555.073366482038
 30
0.0
 40
8.399999999999998
100
AcDbArc
 50
180.0
 51
270.0
  0
ARC
  5
38973
330
1F
100
AcDbEntity
  8
ZUWAKU
100
AcDbCircle
 10
28066.20310905579
 20
-4554.242962431326
 30
0.0
 40
8.399999999999998
100
AcDbArc
 50
0.0
 51
45.00000000011055
  0
LINE
  5
38974
330
1F
100
AcDbEntity
  8
ZUWAKU
100
AcDbLine
 10
28072.14280601776
 20
-4548.30326546936
 30
0.0
 11
28066.32321006847
 21
-4542.48366952007
 31
0.0
  0
LINE
  5
38975
330
1F
100
AcDbEntity
  8
ZUWAKU
100
AcDbLine
 10
28069.00310905579
 20
-4556.823366482038
 30
0.0
 11
28069.00310905579
 21
-4554.242962431326
 31
0.0
  0
ARC
  5
38976
330
1F
100
AcDbEntity
  8
ZUWAKU
100
AcDbCircle
 10
28067.95310905579
 20
-4556.823366482038
 30
0.0
 40
1.049999999999999
100
AcDbArc
 50
270.0
 51
0.0
  0
ARC
  5
38977
330
1F
100
AcDbEntity
  8
ZUWAKU
100
AcDbCircle
 10
28066.20310905579
 20
-4554.242962431326
 30
0.0
 40
2.799999999999999
100
AcDbArc
 50
0.0
 51
45.00000000011055
  0
LINE
  5
38978
330
1F
100
AcDbEntity
  8
ZUWAKU
100
AcDbLine
 10
28060.95310905579
 20
-4562.423366482038
 30
0.0
 11
28060.95310905579
 21
-4558.923366482037
 31
0.0
  0
ARC
  5
38979
330
1F
100
AcDbEntity
  8
ZUWAKU
100
AcDbCircle
 10
28062.00310905579
 20
-4562.423366482038
 30
0.0
 40
1.049999999999999
100
AcDbArc
 50
180.0
 51
270.0
  0
ARC
  5
3897A
330
1F
100
AcDbEntity
  8
ZUWAKU
100
AcDbCircle
 10
28062.00310905579
 20
-4558.923366482037
 30
0.0
 40
1.049999999999999
100
AcDbArc
 50
90.0
 51
180.0
  0
LINE
  5
3897B
330
1F
100
AcDbEntity
  8
ZUWAKU
100
AcDbLine
 10
28062.00310905579
 20
-4563.473366482038
 30
0.0
 11
28069.00310905579
 21
-4563.473366482038
 31
0.0
  0
LINE
  5
3897C
330
1F
100
AcDbEntity
  8
ZUWAKU
100
AcDbLine
 10
28062.00310905579
 20
-4557.873366482037
 30
0.0
 11
28067.95310905579
 21
-4557.873366482037
 31
0.0
  0
LINE
  5
3897D
330
1F
100
AcDbEntity
  8
ZUWAKU
100
AcDbLine
 10
28062.36341209382
 20
-4546.443467494714
 30
0.0
 11
28068.18300804311
 21
-4552.263063444004
 31
0.0
  0
LINE
  5
3897E
330
1F
100
AcDbEntity
  8
ZUWAKU
100
AcDbLine
 10
28074.60310905579
 20
-4557.873366482037
 30
0.0
 11
28074.60310905579
 21
-4554.242962431326
 31
0.0
  0
ARC
  5
3897F
330
1F
100
AcDbEntity
  8
ZUWAKU
100
AcDbCircle
 10
28087.20310905579
 20
-4555.073366482038
 30
0.0
 40
2.799999999999999
100
AcDbArc
 50
180.0
 51
270.0
  0
ARC
  5
38980
330
1F
100
AcDbEntity
  8
ZUWAKU
100
AcDbCircle
 10
28072.50310905579
 20
-4532.323366482038
 30
0.0
 40
1.049999999999999
100
AcDbArc
 50
0.0
 51
90.0
  0
ARC
  5
38981
330
1F
100
AcDbEntity
  8
ZUWAKU
100
AcDbCircle
 10
28072.50310905579
 20
-4535.823366482038
 30
0.0
 40
1.049999999999999
100
AcDbArc
 50
270.0
 51
0.0
  0
LINE
  5
38982
330
1F
100
AcDbEntity
  8
ZUWAKU
100
AcDbLine
 10
28065.50310905579
 20
-4531.273366482037
 30
0.0
 11
28072.50310905579
 21
-4531.273366482037
 31
0.0
  0
ARC
  5
38983
330
1F
100
AcDbEntity
  8
ZUWAKU
100
AcDbCircle
 10
28066.55310905579
 20
-4537.923366482037
 30
0.0
 40
1.049999999999999
100
AcDbArc
 50
90.0
 51
180.0
  0
LINE
  5
38984
330
1F
100
AcDbEntity
  8
ZUWAKU
100
AcDbLine
 10
28065.50310905579
 20
-4537.923366482037
 30
0.0
 11
28065.50310905579
 21
-4540.503770532748
 31
0.0
  0
LINE
  5
38985
330
1F
100
AcDbEntity
  8
ZUWAKU
100
AcDbLine
 10
28072.50310905579
 20
-4536.873366482037
 30
0.0
 11
28066.55310905579
 21
-4536.873366482037
 31
0.0
  0
LINE
  5
38986
330
1F
100
AcDbEntity
  8
ZUWAKU
100
AcDbLine
 10
28059.90310905579
 20
-4536.873366482037
 30
0.0
 11
28059.90310905579
 21
-4540.503770532748
 31
0.0
  0
ARC
  5
38987
330
1F
100
AcDbEntity
  8
ZUWAKU
100
AcDbCircle
 10
28065.50310905579
 20
-4536.873366482037
 30
0.0
 40
5.599999999999999
100
AcDbArc
 50
90.0
 51
180.0
  0
LINE
  5
38988
330
1F
100
AcDbEntity
  8
ZUWAKU
100
AcDbLine
 10
28073.55310905579
 20
-4532.323366482038
 30
0.0
 11
28073.55310905579
 21
-4535.823366482038
 31
0.0
  0
ARC
  5
38989
330
1F
100
AcDbEntity
  8
ZUWAKU
100
AcDbCircle
 10
28087.20310905579
 20
-4539.673366482037
 30
0.0
 40
2.799999999999999
100
AcDbArc
 50
90.0
 51
180.0
  0
ARC
  5
3898A
330
1F
100
AcDbEntity
  8
ZUWAKU
100
AcDbCircle
 10
28087.20310905579
 20
-4539.673366482037
 30
0.0
 40
8.399999999999998
100
AcDbArc
 50
90.0
 51
180.0
  0
LINE
  5
3898B
330
1F
100
AcDbEntity
  8
ZUWAKU
100
AcDbLine
 10
28195.9719438422
 20
-4517.773366482037
 30
0.0
 11
28195.9719438422
 21
-4576.173366482037
 31
0.0
  0
LINE
  5
3898C
330
1F
100
AcDbEntity
  8
ZUWAKU
100
AcDbLine
 10
28196.3719438422
 20
-4517.773366482037
 30
0.0
 11
28196.3719438422
 21
-4576.173366482037
 31
0.0
  0
LINE
  5
3898D
330
1F
100
AcDbEntity
  8
ZUWAKU
100
AcDbLine
 10
28195.57194384221
 20
-4517.773366482037
 30
0.0
 11
28195.57194384221
 21
-4576.173366482037
 31
0.0
  0
LINE
  5
3898E
330
1F
100
AcDbEntity
  8
ZUWAKU
100
AcDbLine
 10
28165.60310905579
 20
-4557.873366482037
 30
0.0
 11
28165.60310905579
 21
-4532.323366482038
 31
0.0
  0
LINE
  5
3898F
330
1F
100
AcDbEntity
  8
ZUWAKU
100
AcDbLine
 10
28160.00310905579
 20
-4532.323366482038
 30
0.0
 11
28160.00310905579
 21
-4555.773366482037
 31
0.0
  0
LINE
  5
38990
330
1F
100
AcDbEntity
  8
ZUWAKU
100
AcDbLine
 10
28175.40310905579
 20
-4562.423366482038
 30
0.0
 11
28175.40310905579
 21
-4532.323366482038
 31
0.0
  0
LINE
  5
38991
330
1F
100
AcDbEntity
  8
ZUWAKU
100
AcDbLine
 10
28169.80310905579
 20
-4532.323366482038
 30
0.0
 11
28169.80310905579
 21
-4562.423366482038
 31
0.0
  0
ARC
  5
38992
330
1F
100
AcDbEntity
  8
ZUWAKU
100
AcDbCircle
 10
28136.90310905579
 20
-4540.503770532748
 30
0.0
 40
2.799999999999999
100
AcDbArc
 50
180.0
 51
225.0000000001106
  0
ARC
  5
38993
330
1F
100
AcDbEntity
  8
ZUWAKU
100
AcDbCircle
 10
28136.90310905579
 20
-4540.503770532748
 30
0.0
 40
8.399999999999998
100
AcDbArc
 50
180.0
 51
225.0000000001106
  0
LINE
  5
38994
330
1F
100
AcDbEntity
  8
ZUWAKU
100
AcDbLine
 10
28111.94840202015
 20
-4539.36327209491
 30
0.0
 11
28109.41889852947
 21
-4547.373366482037
 31
0.0
  0
LINE
  5
38995
330
1F
100
AcDbEntity
  8
ZUWAKU
100
AcDbLine
 10
28118.70310905579
 20
-4532.323366482038
 30
0.0
 11
28118.70310905579
 21
-4562.423366482038
 31
0.0
  0
LINE
  5
38996
330
1F
100
AcDbEntity
  8
ZUWAKU
100
AcDbLine
 10
28124.30310905579
 20
-4562.423366482038
 30
0.0
 11
28124.30310905579
 21
-4532.323366482038
 31
0.0
  0
LINE
  5
38997
330
1F
100
AcDbEntity
  8
ZUWAKU
100
AcDbLine
 10
28147.40310905579
 20
-4532.323366482038
 30
0.0
 11
28147.40310905579
 21
-4557.873366482037
 31
0.0
  0
LINE
  5
38998
330
1F
100
AcDbEntity
  8
ZUWAKU
100
AcDbLine
 10
28153.00310905579
 20
-4555.773366482037
 30
0.0
 11
28153.00310905579
 21
-4532.323366482038
 31
0.0
  0
LINE
  5
38999
330
1F
100
AcDbEntity
  8
ZUWAKU
100
AcDbLine
 10
28102.60310905579
 20
-4543.523366482037
 30
0.0
 11
28102.60310905579
 21
-4532.323366482038
 31
0.0
  0
LINE
  5
3899A
330
1F
100
AcDbEntity
  8
ZUWAKU
100
AcDbLine
 10
28097.00310905579
 20
-4532.323366482038
 30
0.0
 11
28097.00310905579
 21
-4562.423366482038
 31
0.0
  0
LINE
  5
3899B
330
1F
100
AcDbEntity
  8
ZUWAKU
100
AcDbLine
 10
28108.67137893042
 20
-4532.007178545703
 30
0.0
 11
28104.93483918116
 21
-4543.839554418371
 31
0.0
  0
LINE
  5
3899C
330
1F
100
AcDbEntity
  8
ZUWAKU
100
AcDbLine
 10
28157.90310905579
 20
-4557.873366482037
 30
0.0
 11
28155.10310905579
 21
-4557.873366482037
 31
0.0
  0
LINE
  5
3899D
330
1F
100
AcDbEntity
  8
ZUWAKU
100
AcDbLine
 10
28153.00310905579
 20
-4563.473366482038
 30
0.0
 11
28160.00310905579
 21
-4563.473366482038
 31
0.0
  0
LINE
  5
3899E
330
1F
100
AcDbEntity
  8
ZUWAKU
100
AcDbLine
 10
28119.75310905579
 20
-4563.473366482038
 30
0.0
 11
28123.25310905579
 21
-4563.473366482038
 31
0.0
  0
LINE
  5
3899F
330
1F
100
AcDbEntity
  8
ZUWAKU
100
AcDbLine
 10
28108.67137893042
 20
-4562.739554418372
 30
0.0
 11
28104.93483918116
 21
-4550.907178545704
 31
0.0
  0
ARC
  5
389A0
330
1F
100
AcDbEntity
  8
ZUWAKU
100
AcDbCircle
 10
28103.93357738277
 20
-4543.523366482037
 30
0.0
 40
1.049999999999999
100
AcDbArc
 50
270.0
 51
342.474431626264
  0
LINE
  5
389A1
330
1F
100
AcDbEntity
  8
ZUWAKU
100
AcDbLine
 10
28103.93357738277
 20
-4544.573366482038
 30
0.0
 11
28103.65310905579
 21
-4544.573366482038
 31
0.0
  0
LINE
  5
389A2
330
1F
100
AcDbEntity
  8
ZUWAKU
100
AcDbLine
 10
28103.65310905579
 20
-4550.173366482037
 30
0.0
 11
28103.93357738277
 21
-4550.173366482037
 31
0.0
  0
ARC
  5
389A3
330
1F
100
AcDbEntity
  8
ZUWAKU
100
AcDbCircle
 10
28103.65310905579
 20
-4543.523366482037
 30
0.0
 40
1.049999999999999
100
AcDbArc
 50
180.0
 51
270.0
  0
LINE
  5
389A4
330
1F
100
AcDbEntity
  8
ZUWAKU
100
AcDbLine
 10
28098.05310905579
 20
-4563.473366482038
 30
0.0
 11
28101.55310905579
 21
-4563.473366482038
 31
0.0
  0
ARC
  5
389A5
330
1F
100
AcDbEntity
  8
ZUWAKU
100
AcDbCircle
 10
28101.55310905579
 20
-4562.423366482038
 30
0.0
 40
1.049999999999999
100
AcDbArc
 50
270.0
 51
0.0
  0
LINE
  5
389A6
330
1F
100
AcDbEntity
  8
ZUWAKU
100
AcDbLine
 10
28102.60310905579
 20
-4562.423366482038
 30
0.0
 11
28102.60310905579
 21
-4551.223366482037
 31
0.0
  0
LINE
  5
389A7
330
1F
100
AcDbEntity
  8
ZUWAKU
100
AcDbLine
 10
28092.10310905579
 20
-4558.923366482037
 30
0.0
 11
28092.10310905579
 21
-4562.423366482038
 31
0.0
  0
ARC
  5
389A8
330
1F
100
AcDbEntity
  8
ZUWAKU
100
AcDbCircle
 10
28091.05310905579
 20
-4562.423366482038
 30
0.0
 40
1.049999999999999
100
AcDbArc
 50
270.0
 51
0.0
  0
ARC
  5
389A9
330
1F
100
AcDbEntity
  8
ZUWAKU
100
AcDbCircle
 10
28091.05310905579
 20
-4558.923366482037
 30
0.0
 40
1.049999999999999
100
AcDbArc
 50
0.0
 51
90.0
  0
ARC
  5
389AA
330
1F
100
AcDbEntity
  8
ZUWAKU
100
AcDbCircle
 10
28098.05310905579
 20
-4562.423366482038
 30
0.0
 40
1.049999999999999
100
AcDbArc
 50
180.0
 51
270.0
  0
ARC
  5
389AB
330
1F
100
AcDbEntity
  8
ZUWAKU
100
AcDbCircle
 10
28103.93357738277
 20
-4551.223366482037
 30
0.0
 40
1.049999999999999
100
AcDbArc
 50
17.52556837373594
 51
90.0
  0
ARC
  5
389AC
330
1F
100
AcDbEntity
  8
ZUWAKU
100
AcDbCircle
 10
28103.65310905579
 20
-4551.223366482037
 30
0.0
 40
1.049999999999999
100
AcDbArc
 50
90.0
 51
180.0
  0
ARC
  5
389AD
330
1F
100
AcDbEntity
  8
ZUWAKU
100
AcDbCircle
 10
28119.75310905579
 20
-4562.423366482038
 30
0.0
 40
1.049999999999999
100
AcDbArc
 50
180.0
 51
270.0
  0
LINE
  5
389AE
330
1F
100
AcDbEntity
  8
ZUWAKU
100
AcDbLine
 10
28109.67264072882
 20
-4563.473366482038
 30
0.0
 11
28113.07041948803
 21
-4563.473366482038
 31
0.0
  0
ARC
  5
389AF
330
1F
100
AcDbEntity
  8
ZUWAKU
100
AcDbCircle
 10
28113.07041948803
 20
-4562.423366482038
 30
0.0
 40
1.049999999999999
100
AcDbArc
 50
270.0
 51
17.52556837373594
  0
LINE
  5
389B0
330
1F
100
AcDbEntity
  8
ZUWAKU
100
AcDbLine
 10
28114.07168128642
 20
-4562.107178545704
 30
0.0
 11
28109.41889852947
 21
-4547.373366482037
 31
0.0
  0
ARC
  5
389B1
330
1F
100
AcDbEntity
  8
ZUWAKU
100
AcDbCircle
 10
28109.67264072882
 20
-4562.423366482038
 30
0.0
 40
1.049999999999999
100
AcDbArc
 50
197.5255683737359
 51
270.0
  0
ARC
  5
389B2
330
1F
100
AcDbEntity
  8
ZUWAKU
100
AcDbCircle
 10
28153.00310905579
 20
-4557.873366482037
 30
0.0
 40
5.599999999999999
100
AcDbArc
 50
180.0
 51
270.0
  0
ARC
  5
389B3
330
1F
100
AcDbEntity
  8
ZUWAKU
100
AcDbCircle
 10
28137.60310905579
 20
-4557.873366482037
 30
0.0
 40
5.599999999999999
100
AcDbArc
 50
270.0
 51
0.0
  0
LINE
  5
389B4
330
1F
100
AcDbEntity
  8
ZUWAKU
100
AcDbLine
 10
28140.74280601776
 20
-4548.30326546936
 30
0.0
 11
28134.92321006847
 21
-4542.48366952007
 31
0.0
  0
LINE
  5
389B5
330
1F
100
AcDbEntity
  8
ZUWAKU
100
AcDbLine
 10
28137.60310905579
 20
-4556.823366482038
 30
0.0
 11
28137.60310905579
 21
-4554.242962431326
 31
0.0
  0
ARC
  5
389B6
330
1F
100
AcDbEntity
  8
ZUWAKU
100
AcDbCircle
 10
28134.80310905579
 20
-4554.242962431326
 30
0.0
 40
2.799999999999999
100
AcDbArc
 50
0.0
 51
45.00000000011055
  0
ARC
  5
389B7
330
1F
100
AcDbEntity
  8
ZUWAKU
100
AcDbCircle
 10
28136.55310905579
 20
-4556.823366482038
 30
0.0
 40
1.049999999999999
100
AcDbArc
 50
270.0
 51
0.0
  0
LINE
  5
389B8
330
1F
100
AcDbEntity
  8
ZUWAKU
100
AcDbLine
 10
28129.5531090558
 20
-4562.423366482038
 30
0.0
 11
28129.5531090558
 21
-4558.923366482037
 31
0.0
  0
ARC
  5
389B9
330
1F
100
AcDbEntity
  8
ZUWAKU
100
AcDbCircle
 10
28130.60310905579
 20
-4562.423366482038
 30
0.0
 40
1.049999999999999
100
AcDbArc
 50
180.0
 51
270.0
  0
ARC
  5
389BA
330
1F
100
AcDbEntity
  8
ZUWAKU
100
AcDbCircle
 10
28123.25310905579
 20
-4562.423366482038
 30
0.0
 40
1.049999999999999
100
AcDbArc
 50
270.0
 51
0.0
  0
ARC
  5
389BB
330
1F
100
AcDbEntity
  8
ZUWAKU
100
AcDbCircle
 10
28130.60310905579
 20
-4558.923366482037
 30
0.0
 40
1.049999999999999
100
AcDbArc
 50
90.0
 51
180.0
  0
LINE
  5
389BC
330
1F
100
AcDbEntity
  8
ZUWAKU
100
AcDbLine
 10
28130.60310905579
 20
-4557.873366482037
 30
0.0
 11
28136.55310905579
 21
-4557.873366482037
 31
0.0
  0
LINE
  5
389BD
330
1F
100
AcDbEntity
  8
ZUWAKU
100
AcDbLine
 10
28130.60310905579
 20
-4563.473366482038
 30
0.0
 11
28137.60310905579
 21
-4563.473366482038
 31
0.0
  0
LINE
  5
389BE
330
1F
100
AcDbEntity
  8
ZUWAKU
100
AcDbLine
 10
28130.96341209383
 20
-4546.443467494714
 30
0.0
 11
28136.78300804311
 21
-4552.263063444004
 31
0.0
  0
LINE
  5
389BF
330
1F
100
AcDbEntity
  8
ZUWAKU
100
AcDbLine
 10
28143.20310905579
 20
-4557.873366482037
 30
0.0
 11
28143.20310905579
 21
-4554.242962431326
 31
0.0
  0
ARC
  5
389C0
330
1F
100
AcDbEntity
  8
ZUWAKU
100
AcDbCircle
 10
28134.80310905579
 20
-4554.242962431326
 30
0.0
 40
8.399999999999998
100
AcDbArc
 50
0.0
 51
45.00000000011055
  0
ARC
  5
389C1
330
1F
100
AcDbEntity
  8
ZUWAKU
100
AcDbCircle
 10
28155.10310905579
 20
-4555.773366482037
 30
0.0
 40
2.099999999999999
100
AcDbArc
 50
180.0
 51
270.0
  0
ARC
  5
389C2
330
1F
100
AcDbEntity
  8
ZUWAKU
100
AcDbCircle
 10
28160.00310905579
 20
-4557.873366482037
 30
0.0
 40
5.599999999999999
100
AcDbArc
 50
270.0
 51
0.0
  0
LINE
  5
389C3
330
1F
100
AcDbEntity
  8
ZUWAKU
100
AcDbLine
 10
28170.85310905579
 20
-4563.473366482038
 30
0.0
 11
28174.35310905579
 21
-4563.473366482038
 31
0.0
  0
ARC
  5
389C4
330
1F
100
AcDbEntity
  8
ZUWAKU
100
AcDbCircle
 10
28170.85310905579
 20
-4562.423366482038
 30
0.0
 40
1.049999999999999
100
AcDbArc
 50
180.0
 51
270.0
  0
ARC
  5
389C5
330
1F
100
AcDbEntity
  8
ZUWAKU
100
AcDbCircle
 10
28157.90310905579
 20
-4555.773366482037
 30
0.0
 40
2.099999999999999
100
AcDbArc
 50
270.0
 51
0.0
  0
ARC
  5
389C6
330
1F
100
AcDbEntity
  8
ZUWAKU
100
AcDbCircle
 10
28174.35310905579
 20
-4562.423366482038
 30
0.0
 40
1.049999999999999
100
AcDbArc
 50
270.0
 51
0.0
  0
LINE
  5
389C7
330
1F
100
AcDbEntity
  8
ZUWAKU
100
AcDbLine
 10
28123.25310905579
 20
-4531.273366482037
 30
0.0
 11
28119.75310905579
 21
-4531.273366482037
 31
0.0
  0
ARC
  5
389C8
330
1F
100
AcDbEntity
  8
ZUWAKU
100
AcDbCircle
 10
28101.55310905579
 20
-4532.323366482038
 30
0.0
 40
1.049999999999999
100
AcDbArc
 50
0.0
 51
90.0
  0
LINE
  5
389C9
330
1F
100
AcDbEntity
  8
ZUWAKU
100
AcDbLine
 10
28101.55310905579
 20
-4531.273366482037
 30
0.0
 11
28098.05310905579
 21
-4531.273366482037
 31
0.0
  0
ARC
  5
389CA
330
1F
100
AcDbEntity
  8
ZUWAKU
100
AcDbCircle
 10
28091.05310905579
 20
-4532.323366482038
 30
0.0
 40
1.049999999999999
100
AcDbArc
 50
0.0
 51
90.0
  0
ARC
  5
389CB
330
1F
100
AcDbEntity
  8
ZUWAKU
100
AcDbCircle
 10
28098.05310905579
 20
-4532.323366482038
 30
0.0
 40
1.049999999999999
100
AcDbArc
 50
90.0
 51
180.0
  0
ARC
  5
389CC
330
1F
100
AcDbEntity
  8
ZUWAKU
100
AcDbCircle
 10
28091.05310905579
 20
-4535.823366482038
 30
0.0
 40
1.049999999999999
100
AcDbArc
 50
270.0
 51
0.0
  0
LINE
  5
389CD
330
1F
100
AcDbEntity
  8
ZUWAKU
100
AcDbLine
 10
28092.10310905579
 20
-4532.323366482038
 30
0.0
 11
28092.10310905579
 21
-4535.823366482038
 31
0.0
  0
ARC
  5
389CE
330
1F
100
AcDbEntity
  8
ZUWAKU
100
AcDbCircle
 10
28119.75310905579
 20
-4532.323366482038
 30
0.0
 40
1.049999999999999
100
AcDbArc
 50
90.0
 51
180.0
  0
LINE
  5
389CF
330
1F
100
AcDbEntity
  8
ZUWAKU
100
AcDbLine
 10
28109.67264072882
 20
-4531.273366482037
 30
0.0
 11
28113.07041948803
 21
-4531.273366482037
 31
0.0
  0
ARC
  5
389D0
330
1F
100
AcDbEntity
  8
ZUWAKU
100
AcDbCircle
 10
28113.07041948803
 20
-4532.323366482038
 30
0.0
 40
1.049999999999999
100
AcDbArc
 50
342.474431626264
 51
90.0
  0
LINE
  5
389D1
330
1F
100
AcDbEntity
  8
ZUWAKU
100
AcDbLine
 10
28114.07168128642
 20
-4532.639554418372
 30
0.0
 11
28111.94840202015
 21
-4539.36327209491
 31
0.0
  0
ARC
  5
389D2
330
1F
100
AcDbEntity
  8
ZUWAKU
100
AcDbCircle
 10
28109.67264072882
 20
-4532.323366482038
 30
0.0
 40
1.049999999999999
100
AcDbArc
 50
90.0
 51
162.474431626264
  0
LINE
  5
389D3
330
1F
100
AcDbEntity
  8
ZUWAKU
100
AcDbLine
 10
28134.10310905579
 20
-4531.273366482037
 30
0.0
 11
28141.10310905579
 21
-4531.273366482037
 31
0.0
  0
LINE
  5
389D4
330
1F
100
AcDbEntity
  8
ZUWAKU
100
AcDbLine
 10
28141.10310905579
 20
-4536.873366482037
 30
0.0
 11
28135.15310905579
 21
-4536.873366482037
 31
0.0
  0
ARC
  5
389D5
330
1F
100
AcDbEntity
  8
ZUWAKU
100
AcDbCircle
 10
28135.15310905579
 20
-4537.923366482037
 30
0.0
 40
1.049999999999999
100
AcDbArc
 50
90.0
 51
180.0
  0
LINE
  5
389D6
330
1F
100
AcDbEntity
  8
ZUWAKU
100
AcDbLine
 10
28134.10310905579
 20
-4537.923366482037
 30
0.0
 11
28134.10310905579
 21
-4540.503770532748
 31
0.0
  0
ARC
  5
389D7
330
1F
100
AcDbEntity
  8
ZUWAKU
100
AcDbCircle
 10
28123.25310905579
 20
-4532.323366482038
 30
0.0
 40
1.049999999999999
100
AcDbArc
 50
0.0
 51
90.0
  0
LINE
  5
389D8
330
1F
100
AcDbEntity
  8
ZUWAKU
100
AcDbLine
 10
28128.50310905579
 20
-4536.873366482037
 30
0.0
 11
28128.50310905579
 21
-4540.503770532748
 31
0.0
  0
ARC
  5
389D9
330
1F
100
AcDbEntity
  8
ZUWAKU
100
AcDbCircle
 10
28134.10310905579
 20
-4536.873366482037
 30
0.0
 40
5.599999999999999
100
AcDbArc
 50
90.0
 51
180.0
  0
ARC
  5
389DA
330
1F
100
AcDbEntity
  8
ZUWAKU
100
AcDbCircle
 10
28151.95310905579
 20
-4532.323366482038
 30
0.0
 40
1.049999999999999
100
AcDbArc
 50
0.0
 51
90.0
  0
ARC
  5
389DB
330
1F
100
AcDbEntity
  8
ZUWAKU
100
AcDbCircle
 10
28148.45310905579
 20
-4532.323366482038
 30
0.0
 40
1.049999999999999
100
AcDbArc
 50
90.0
 51
180.0
  0
LINE
  5
389DC
330
1F
100
AcDbEntity
  8
ZUWAKU
100
AcDbLine
 10
28151.95310905579
 20
-4531.273366482037
 30
0.0
 11
28148.45310905579
 21
-4531.273366482037
 31
0.0
  0
ARC
  5
389DD
330
1F
100
AcDbEntity
  8
ZUWAKU
100
AcDbCircle
 10
28141.10310905579
 20
-4532.323366482038
 30
0.0
 40
1.049999999999999
100
AcDbArc
 50
0.0
 51
90.0
  0
ARC
  5
389DE
330
1F
100
AcDbEntity
  8
ZUWAKU
100
AcDbCircle
 10
28141.10310905579
 20
-4535.823366482038
 30
0.0
 40
1.049999999999999
100
AcDbArc
 50
270.0
 51
0.0
  0
LINE
  5
389DF
330
1F
100
AcDbEntity
  8
ZUWAKU
100
AcDbLine
 10
28142.15310905579
 20
-4532.323366482038
 30
0.0
 11
28142.15310905579
 21
-4535.823366482038
 31
0.0
  0
LINE
  5
389E0
330
1F
100
AcDbEntity
  8
ZUWAKU
100
AcDbLine
 10
28174.35310905579
 20
-4531.273366482037
 30
0.0
 11
28170.85310905579
 21
-4531.273366482037
 31
0.0
  0
ARC
  5
389E1
330
1F
100
AcDbEntity
  8
ZUWAKU
100
AcDbCircle
 10
28170.85310905579
 20
-4532.323366482038
 30
0.0
 40
1.049999999999999
100
AcDbArc
 50
90.0
 51
180.0
  0
ARC
  5
389E2
330
1F
100
AcDbEntity
  8
ZUWAKU
100
AcDbCircle
 10
28164.55310905579
 20
-4532.323366482038
 30
0.0
 40
1.049999999999999
100
AcDbArc
 50
0.0
 51
90.0
  0
LINE
  5
389E3
330
1F
100
AcDbEntity
  8
ZUWAKU
100
AcDbLine
 10
28164.55310905579
 20
-4531.273366482037
 30
0.0
 11
28161.05310905579
 21
-4531.273366482037
 31
0.0
  0
ARC
  5
389E4
330
1F
100
AcDbEntity
  8
ZUWAKU
100
AcDbCircle
 10
28161.05310905579
 20
-4532.323366482038
 30
0.0
 40
1.049999999999999
100
AcDbArc
 50
90.0
 51
180.0
  0
ARC
  5
389E5
330
1F
100
AcDbEntity
  8
ZUWAKU
100
AcDbCircle
 10
28174.35310905579
 20
-4532.323366482038
 30
0.0
 40
1.049999999999999
100
AcDbArc
 50
0.0
 51
90.0
  0
TEXT
  5
389E6
330
1F
100
AcDbEntity
  8
moji
100
AcDbText
 10
28516.97309010793
 20
-4571.363524367224
 30
0.0
 40
11.2
  1
Ｖ-ＭAX
 41
0.9
  7
ｽﾀｲﾙ1
100
AcDbText
  0
LINE
  5
389E7
330
1F
100
AcDbEntity
  8
ZUWAKU
100
AcDbLine
 10
28453.81188732636
 20
-4517.773366482037
 30
0.0
 11
28453.81188732636
 21
-4576.173366482037
 31
0.0
  0
LINE
  5
389E8
330
1F
100
AcDbEntity
  8
ZUWAKU
100
AcDbLine
 10
28454.61188732636
 20
-4517.773366482037
 30
0.0
 11
28454.61188732637
 21
-4576.173366482037
 31
0.0
  0
LINE
  5
389E9
330
1F
100
AcDbEntity
  8
ZUWAKU
100
AcDbLine
 10
28454.21188732636
 20
-4517.773366482037
 30
0.0
 11
28454.21188732636
 21
-4576.173366482037
 31
0.0
  0
TEXT
  5
389EA
330
1F
100
AcDbEntity
  8
ZUWAKU
100
AcDbText
 10
28456.76677737078
 20
-4558.462653405266
 30
0.0
 40
8.0
  1
サイズ
 41
0.9
  7
ｽﾀｲﾙ1
100
AcDbText
  0
TEXT
  5
389EB
330
1F
100
AcDbEntity
  8
ZUWAKU
100
AcDbText
 10
28456.76677737078
 20
-4529.662653405266
 30
0.0
 40
8.0
  1
品名
 41
0.9
  7
ｽﾀｲﾙ1
100
AcDbText
  0
LINE
  5
389EC
330
1F
100
AcDbEntity
  8
ZUWAKU
100
AcDbLine
 10
29334.95308976664
 20
-4547.373366482037
 30
0.0
 11
29431.81670584331
 21
-4547.373366482037
 31
0.0
  0
LINE
  5
389ED
330
1F
100
AcDbEntity
  8
ZUWAKU
100
AcDbLine
 10
29334.95308976664
 20
-4546.973366482037
 30
0.0
 11
29431.81670584331
 21
-4546.973366482037
 31
0.0
  0
LINE
  5
389EE
330
1F
100
AcDbEntity
  8
ZUWAKU
100
AcDbLine
 10
29334.95308976664
 20
-4546.573366482038
 30
0.0
 11
29431.81670584331
 21
-4546.573366482038
 31
0.0
  0
TEXT
  5
389EF
330
1F
100
AcDbEntity
  8
ZUWAKU
100
AcDbText
 10
29353.72656012083
 20
-4541.763524367222
 30
0.0
 40
11.2
  1
　　．　　．　　
 41
0.9
  7
ｽﾀｲﾙ1
100
AcDbText
  0
LINE
  5
389F0
330
1F
100
AcDbEntity
  8
ZUWAKU
100
AcDbLine
 10
29047.71704374251
 20
-4547.373366482037
 30
0.0
 11
29142.37259627845
 21
-4547.373366482037
 31
0.0
  0
LINE
  5
389F1
330
1F
100
AcDbEntity
  8
ZUWAKU
100
AcDbLine
 10
29047.71704374251
 20
-4546.973366482037
 30
0.0
 11
29142.37259627845
 21
-4546.973366482037
 31
0.0
  0
LINE
  5
389F2
330
1F
100
AcDbEntity
  8
ZUWAKU
100
AcDbLine
 10
29047.71704374251
 20
-4546.573366482038
 30
0.0
 11
29142.37259627845
 21
-4546.573366482038
 31
0.0
  0
LINE
  5
389F3
330
1F
100
AcDbEntity
  8
ZUWAKU
100
AcDbLine
 10
28932.56741268821
 20
-4517.773366482037
 30
0.0
 11
28932.56741268821
 21
-4576.173366482037
 31
0.0
  0
LINE
  5
389F4
330
1F
100
AcDbEntity
  8
ZUWAKU
100
AcDbLine
 10
28932.96741268821
 20
-4517.773366482037
 30
0.0
 11
28932.96741268821
 21
-4576.173366482037
 31
0.0
  0
LINE
  5
389F5
330
1F
100
AcDbEntity
  8
ZUWAKU
100
AcDbLine
 10
28932.16741268821
 20
-4517.773366482037
 30
0.0
 11
28932.16741268821
 21
-4576.173366482037
 31
0.0
  0
TEXT
  5
389F6
330
1F
100
AcDbEntity
  8
moji
100
AcDbText
 10
29093.40050069086
 20
-4541.763524367222
 30
0.0
 40
11.2
  1
Ａ３
 41
0.9
  7
ｽﾀｲﾙ1
100
AcDbText
  0
LINE
  5
389F7
330
1F
100
AcDbEntity
  8
ZUWAKU
100
AcDbLine
 10
29047.31704374251
 20
-4517.773366482037
 30
0.0
 11
29047.31704374251
 21
-4576.173366482037
 31
0.0
  0
LINE
  5
389F8
330
1F
100
AcDbEntity
  8
ZUWAKU
100
AcDbLine
 10
29047.71704374251
 20
-4517.773366482037
 30
0.0
 11
29047.71704374251
 21
-4576.173366482037
 31
0.0
  0
LINE
  5
389F9
330
1F
100
AcDbEntity
  8
ZUWAKU
100
AcDbLine
 10
29046.91704374251
 20
-4517.773366482037
 30
0.0
 11
29046.91704374251
 21
-4576.173366482037
 31
0.0
  0
TEXT
  5
389FA
330
1F
100
AcDbEntity
  8
ZUWAKU
100
AcDbText
 10
29050.67193378693
 20
-4558.462653405266
 30
0.0
 40
8.0
  1
縮尺
 41
0.9
  7
ｽﾀｲﾙ1
100
AcDbText
  0
TEXT
  5
389FB
330
1F
100
AcDbEntity
  8
moji
100
AcDbText
 10
29093.40050069086
 20
-4571.363524367224
 30
0.0
 40
11.2
  1
１/４
 41
0.9
  7
ｽﾀｲﾙ1
100
AcDbText
  0
TEXT
  5
389FC
330
1F
100
AcDbEntity
  8
ZUWAKU
100
AcDbText
 10
28935.92230273263
 20
-4529.662653405266
 30
0.0
 40
8.0
  1
品番
 41
0.9
  7
ｽﾀｲﾙ1
100
AcDbText
  0
TEXT
  5
389FD
330
1F
100
AcDbEntity
  8
ZUWAKU
100
AcDbText
 10
29050.67193378693
 20
-4529.662653405266
 30
0.0
 40
8.0
  1
用紙
 41
0.9
  7
ｽﾀｲﾙ1
100
AcDbText
  0
LINE
  5
389FE
330
1F
100
AcDbEntity
  8
ZUWAKU
100
AcDbLine
 10
29334.55308976664
 20
-4517.773366482037
 30
0.0
 11
29334.55308976664
 21
-4576.173366482037
 31
0.0
  0
LINE
  5
389FF
330
1F
100
AcDbEntity
  8
ZUWAKU
100
AcDbLine
 10
29334.95308976664
 20
-4517.773366482037
 30
0.0
 11
29334.95308976664
 21
-4576.173366482037
 31
0.0
  0
LINE
  5
38A00
330
1F
100
AcDbEntity
  8
ZUWAKU
100
AcDbLine
 10
29334.15308976664
 20
-4517.773366482037
 30
0.0
 11
29334.15308976664
 21
-4576.173366482037
 31
0.0
  0
LINE
  5
38A01
330
1F
100
AcDbEntity
  8
ZUWAKU
100
AcDbLine
 10
29142.77259627846
 20
-4517.773366482037
 30
0.0
 11
29142.77259627846
 21
-4576.173366482037
 31
0.0
  0
LINE
  5
38A02
330
1F
100
AcDbEntity
  8
ZUWAKU
100
AcDbLine
 10
29143.17259627845
 20
-4517.773366482037
 30
0.0
 11
29143.17259627845
 21
-4576.173366482037
 31
0.0
  0
LINE
  5
38A03
330
1F
100
AcDbEntity
  8
ZUWAKU
100
AcDbLine
 10
29142.37259627845
 20
-4517.773366482037
 30
0.0
 11
29142.37259627845
 21
-4576.173366482037
 31
0.0
  0
TEXT
  5
38A04
330
1F
100
AcDbEntity
  8
ZUWAKU
100
AcDbText
 10
29337.90797981106
 20
-4529.662653405266
 30
0.0
 40
8.0
  1
DATE
 41
0.9
  7
ｽﾀｲﾙ1
100
AcDbText
  0
LINE
  5
38A05
330
1F
100
AcDbEntity
  8
ZUWAKU
100
AcDbLine
 10
29431.81670584331
 20
-4517.773366482037
 30
0.0
 11
29431.81670584331
 21
-4576.173366482037
 31
0.0
  0
LINE
  5
38A06
330
1F
100
AcDbEntity
  8
ZUWAKU
100
AcDbLine
 10
29432.21670584332
 20
-4517.773366482037
 30
0.0
 11
29432.21670584332
 21
-4576.173366482037
 31
0.0
  0
LINE
  5
38A07
330
1F
100
AcDbEntity
  8
ZUWAKU
100
AcDbLine
 10
29432.61670584331
 20
-4517.773366482037
 30
0.0
 11
29432.61670584331
 21
-4576.173366482037
 31
0.0
  0
LINE
  5
38A08
330
1F
100
AcDbEntity
  8
ZUWAKU
100
AcDbLine
 10
29433.01670584331
 20
-4517.773366482037
 30
0.0
 11
29433.01670584331
 21
-4576.173366482037
 31
0.0
  0
TEXT
  5
38A09
330
1F
100
AcDbEntity
  8
ZUWAKU
100
AcDbText
 10
29451.42211534347
 20
-4552.307003502317
 30
0.0
 40
12.0
  1
積水化学工業株式会社
 41
0.9
  7
ｽﾀｲﾙ1
100
AcDbText
  0
TEXT
  5
38A3E
330
1F
100
AcDbEntity
  8
moji
100
AcDbText
 10
28517.57309048166
 20
-4542.451113794267
 30
0.0
 40
11.2
  1
止り（右・左）
 41
0.9
  7
ｽﾀｲﾙ1
100
AcDbText
  0
TEXT
  5
38A98
330
1F
100
AcDbEntity
  8
moji
100
AcDbText
 10
28964.37851144789
 20
-4553.887023378174
 30
0.0
 40
11.2
  1
ＧＸ７１□
 41
0.9
  7
ｽﾀｲﾙ1
100
AcDbText
  0
LINE
  5
39C90
102
{ACAD_REACTORS
330
39E38
102
}
330
1F
100
AcDbEntity
  8
SEIHIN
  6
Continuous
 62
     3
100
AcDbLine
 10
29441.63154686765
 20
-3968.794008116937
 30
0.0
 11
29136.56908661312
 21
-3918.898768424528
 31
0.0
  0
SPLINE
  5
39C91
102
{ACAD_REACTORS
330
39E38
102
}
330
1F
100
AcDbEntity
  8
SEIHIN
  6
Continuous
 62
     3
100
AcDbSpline
210
0.0
220
0.0
230
1.0
 70
     8
 71
     3
 72
     8
 73
     4
 74
     0
 42
0.0000000001
 43
0.0000000001
 40
0.0
 40
0.0
 40
0.0
 40
0.0
 40
1.0
 40
1.0
 40
1.0
 40
1.0
 10
29441.95286634885
 20
-3968.833289778814
 30
0.0
 10
29442.06044495199
 20
-3968.842029357635
 30
0.0
 10
29442.16837795672
 20
-3968.846400279138
 30
0.0
 10
29442.27631292477
 20
-3968.846388270733
 30
0.0
  0
SPLINE
  5
39C92
102
{ACAD_REACTORS
330
39E38
102
}
330
1F
100
AcDbEntity
  8
SEIHIN
  6
Continuous
 62
     3
100
AcDbSpline
210
0.0
220
0.0
230
1.0
 70
     8
 71
     3
 72
     8
 73
     4
 74
     0
 42
0.0000000001
 43
0.0000000001
 40
0.0
 40
0.0
 40
0.0
 40
0.0
 40
1.0
 40
1.0
 40
1.0
 40
1.0
 10
29441.95286634885
 20
-3968.833289778814
 30
0.0
 10
29441.84528935108
 20
-3968.824532189041
 30
0.0
 10
29441.73806586757
 20
-3968.811424019498
 30
0.0
 10
29441.63154686765
 20
-3968.794008116937
 30
0.0
  0
SPLINE
  5
39C93
102
{ACAD_REACTORS
330
39E38
102
}
330
1F
100
AcDbEntity
  8
SEIHIN
  6
Continuous
 62
     3
100
AcDbSpline
210
0.0
220
0.0
230
1.0
 70
     8
 71
     3
 72
     8
 73
     4
 74
     0
 42
0.0000000001
 43
0.0000000001
 40
0.0
 40
0.0
 40
0.0
 40
0.0
 40
1.0
 40
1.0
 40
1.0
 40
1.0
 10
29136.24776420367
 20
-3918.859522807505
 30
0.0
 10
29136.35534280614
 20
-3918.868262386272
 30
0.0
 10
29136.46256698541
 20
-3918.881358513251
 30
0.0
 10
29136.56908661312
 20
-3918.898768424528
 30
0.0
  0
SPLINE
  5
39C94
102
{ACAD_REACTORS
330
39E38
102
}
330
1F
100
AcDbEntity
  8
SEIHIN
  6
Continuous
 62
     3
100
AcDbSpline
210
0.0
220
0.0
230
1.0
 70
     8
 71
     3
 72
     8
 73
     4
 74
     0
 42
0.0000000001
 43
0.0000000001
 40
0.0
 40
0.0
 40
0.0
 40
0.0
 40
1.0
 40
1.0
 40
1.0
 40
1.0
 10
29136.24776420367
 20
-3918.859522807505
 30
0.0
 10
29136.14018525374
 20
-3918.850789247633
 30
0.0
 10
29136.03225294348
 20
-3918.846406280037
 30
0.0
 10
29135.92432055601
 20
-3918.846388270733
 30
0.0
  0
LINE
  5
39C95
102
{ACAD_REACTORS
330
39E38
102
}
330
1F
100
AcDbEntity
  8
SEIHIN
  6
Continuous
 62
     3
100
AcDbLine
 10
29425.21369354481
 20
-4196.655985004564
 30
0.0
 11
29425.21369354481
 21
-4185.553244074074
 31
0.0
  0
LINE
  5
39C96
102
{ACAD_REACTORS
330
39E38
102
}
330
1F
100
AcDbEntity
  8
SEIHIN
  6
Continuous
 62
     3
100
AcDbLine
 10
29162.50086881098
 20
-4185.553244074074
 30
0.0
 11
29162.50086881098
 21
-4196.655985004564
 31
0.0
  0
LINE
  5
39C97
102
{ACAD_REACTORS
330
39E38
102
}
330
1F
100
AcDbEntity
  8
SEIHIN
  6
Continuous
 62
     3
100
AcDbLine
 10
29135.92432055601
 20
-3918.846388270733
 30
0.0
 11
29115.31363710772
 21
-3918.846388270733
 31
0.0
  0
LINE
  5
39C98
102
{ACAD_REACTORS
330
39E38
102
}
330
1F
100
AcDbEntity
  8
SEIHIN
  6
Continuous
 62
     3
100
AcDbLine
 10
29466.27145224814
 20
-3968.846388270733
 30
0.0
 11
29442.27631292477
 21
-3968.846388270733
 31
0.0
  0
LINE
  5
39C99
102
{ACAD_REACTORS
330
39E38
102
}
330
1F
100
AcDbEntity
  8
SEIHIN
  6
Continuous
 62
     3
100
AcDbLine
 10
29440.12377514774
 20
-4181.802130584528
 30
0.0
 11
29466.27145224814
 21
-3968.846388270733
 31
0.0
  0
LINE
  5
39C9A
102
{ACAD_REACTORS
330
39E38
102
}
330
1F
100
AcDbEntity
  8
SEIHIN
  6
Continuous
 62
     3
100
AcDbLine
 10
29149.58291401146
 20
-4183.555985004565
 30
0.0
 11
29160.50360974146
 21
-4183.555985004565
 31
0.0
  0
LINE
  5
39C9B
102
{ACAD_REACTORS
330
39E38
102
}
330
1F
100
AcDbEntity
  8
SEIHIN
  6
Continuous
 62
     3
100
AcDbLine
 10
29427.21095261431
 20
-4183.555985004565
 30
0.0
 11
29438.14140334423
 21
-4183.555985004565
 31
0.0
  0
LINE
  5
39C9C
102
{ACAD_REACTORS
330
39E38
102
}
330
1F
100
AcDbEntity
  8
SEIHIN
  6
Continuous
 62
     3
100
AcDbLine
 10
29115.31363710772
 20
-3918.846388270733
 30
0.0
 11
29147.60054220795
 21
-4181.802130584561
 31
0.0
  0
SPLINE
  5
39C9D
102
{ACAD_REACTORS
330
39E38
102
}
330
1F
100
AcDbEntity
  8
SEIHIN
  6
Continuous
 62
     3
100
AcDbSpline
210
0.0
220
0.0
230
1.0
 70
     8
 71
     3
 72
    14
 73
    10
 74
     0
 42
0.0000000001
 43
0.0000000001
 40
0.0
 40
0.0
 40
0.0
 40
0.0
 40
0.25
 40
0.25
 40
0.5
 40
0.5
 40
0.75
 40
0.75
 40
1.0
 40
1.0
 40
1.0
 40
1.0
 10
29438.14140334423
 20
-4183.555985004565
 30
0.0
 10
29438.36173792643
 20
-4183.555451065837
 30
0.0
 10
29438.59675911731
 20
-4183.517445662448
 30
0.0
 10
29439.05369019553
 20
-4183.34993763372
 30
0.0
 10
29439.27458742818
 20
-4183.220040422734
 30
0.0
 10
29439.65223424667
 20
-4182.885926740999
 30
0.0
 10
29439.80808382405
 20
-4182.682506530485
 30
0.0
 10
29440.03002916339
 20
-4182.249395440496
 30
0.0
 10
29440.09639315826
 20
-4182.020757755428
 30
0.0
 10
29440.12377514774
 20
-4181.802130584528
 30
0.0
  0
SPLINE
  5
39C9E
102
{ACAD_REACTORS
330
39E38
102
}
330
1F
100
AcDbEntity
  8
SEIHIN
  6
Continuous
 62
     3
100
AcDbSpline
210
0.0
220
0.0
230
1.0
 70
     8
 71
     3
 72
    14
 73
    10
 74
     0
 42
0.0000000001
 43
0.0000000001
 40
0.0
 40
0.0
 40
0.0
 40
0.0
 40
0.25
 40
0.25
 40
0.5
 40
0.5
 40
0.75
 40
0.75
 40
1.0
 40
1.0
 40
1.0
 40
1.0
 10
29147.60054220795
 20
-4181.802130584561
 30
0.0
 10
29147.62792419744
 20
-4182.020757755458
 30
0.0
 10
29147.6942881923
 20
-4182.249395440524
 30
0.0
 10
29147.91623353165
 20
-4182.682506530503
 30
0.0
 10
29148.07208310903
 20
-4182.885926741014
 30
0.0
 10
29148.44972992753
 20
-4183.220040422741
 30
0.0
 10
29148.67062716017
 20
-4183.349937633724
 30
0.0
 10
29149.12755823838
 20
-4183.51744566245
 30
0.0
 10
29149.36257942926
 20
-4183.555451065837
 30
0.0
 10
29149.58291401146
 20
-4183.555985004565
 30
0.0
  0
SPLINE
  5
39C9F
102
{ACAD_REACTORS
330
39E38
102
}
330
1F
100
AcDbEntity
  8
SEIHIN
  6
Continuous
 62
     3
100
AcDbSpline
210
0.0
220
0.0
230
1.0
 70
     8
 71
     3
 72
    10
 73
     6
 74
     0
 42
0.0000000001
 43
0.0000000001
 40
0.0
 40
0.0
 40
0.0
 40
0.0
 40
0.5
 40
0.5
 40
1.0
 40
1.0
 40
1.0
 40
1.0
 10
29425.79608413349
 20
-4184.138375593248
 30
0.0
 10
29425.61125372553
 20
-4184.323206001214
 30
0.0
 10
29425.46354159131
 20
-4184.544877929298
 30
0.0
 10
29425.26434861776
 20
-4185.028800343834
 30
0.0
 10
29425.21297855617
 20
-4185.29077905596
 30
0.0
 10
29425.21369354481
 20
-4185.553244074074
 30
0.0
  0
SPLINE
  5
39CA0
102
{ACAD_REACTORS
330
39E38
102
}
330
1F
100
AcDbEntity
  8
SEIHIN
  6
Continuous
 62
     3
100
AcDbSpline
210
0.0
220
0.0
230
1.0
 70
     8
 71
     3
 72
    16
 73
    12
 74
     0
 42
0.0000000001
 43
0.0000000001
 40
0.0
 40
0.0
 40
0.0
 40
0.0
 40
0.0782471858920669
 40
0.1578080176956174
 40
0.2385228321170569
 40
0.3202181574229093
 40
0.4027087340113523
 40
0.4857999129275138
 40
0.6487386405921349
 40
0.8210860958214258
 40
1.0
 40
1.0
 40
1.0
 40
1.0
 10
29425.79608413349
 20
-4184.138375593248
 30
0.0
 10
29425.82557124073
 20
-4184.109927379988
 30
0.0
 10
29425.88504049689
 20
-4184.052553353168
 30
0.0
 10
29425.9815604231
 20
-4183.973155068304
 30
0.0
 10
29426.08399985961
 20
-4183.898558473826
 30
0.0
 10
29426.19240885651
 20
-4183.829982816193
 30
0.0
 10
29426.30609674882
 20
-4183.767970892027
 30
0.0
 10
29426.46216747834
 20
-4183.695569919347
 30
0.0
 10
29426.66936404025
 20
-4183.623461994209
 30
0.0
 10
29426.93349551317
 20
-4183.566420570963
 30
0.0
 10
29427.11732143871
 20
-4183.559506609692
 30
0.0
 10
29427.21095261431
 20
-4183.555985004565
 30
0.0
  0
SPLINE
  5
39CA1
102
{ACAD_REACTORS
330
39E38
102
}
330
1F
100
AcDbEntity
  8
SEIHIN
  6
Continuous
 62
     3
100
AcDbSpline
210
0.0
220
0.0
230
1.0
 70
     8
 71
     3
 72
    10
 73
     6
 74
     0
 42
0.0000000001
 43
0.0000000001
 40
0.0
 40
0.0
 40
0.0
 40
0.0
 40
0.5
 40
0.5
 40
1.0
 40
1.0
 40
1.0
 40
1.0
 10
29161.91847822229
 20
-4184.138375593248
 30
0.0
 10
29161.73364781432
 20
-4183.953545185285
 30
0.0
 10
29161.51197588624
 20
-4183.805833051073
 30
0.0
 10
29161.0280534717
 20
-4183.60664007752
 30
0.0
 10
29160.76607475958
 20
-4183.555270015933
 30
0.0
 10
29160.50360974146
 20
-4183.555985004565
 30
0.0
  0
SPLINE
  5
39CA2
102
{ACAD_REACTORS
330
39E38
102
}
330
1F
100
AcDbEntity
  8
SEIHIN
  6
Continuous
 62
     3
100
AcDbSpline
210
0.0
220
0.0
230
1.0
 70
     8
 71
     3
 72
    16
 73
    12
 74
     0
 42
0.0000000001
 43
0.0000000001
 40
0.0
 40
0.0
 40
0.0
 40
0.0
 40
0.0782471857801028
 40
0.1578080175170143
 40
0.2385228319171346
 40
0.3202181572464531
 40
0.402708733902075
 40
0.4857999129274176
 40
0.6487386403580573
 40
0.8210860955964799
 40
0.9999999999999998
 40
0.9999999999999998
 40
0.9999999999999998
 40
0.9999999999999998
 10
29161.91847822229
 20
-4184.138375593248
 30
0.0
 10
29161.94692643551
 20
-4184.16786270045
 30
0.0
 10
29162.00430046226
 20
-4184.227331956537
 30
0.0
 10
29162.08369874708
 20
-4184.323851882656
 30
0.0
 10
29162.15829534155
 20
-4184.42629131913
 30
0.0
 10
29162.22687099922
 20
-4184.534700316053
 30
0.0
 10
29162.28888292344
 20
-4184.648388208443
 30
0.0
 10
29162.36128389612
 20
-4184.804458937933
 30
0.0
 10
29162.43339182126
 20
-4185.01165549978
 30
0.0
 10
29162.49043324455
 20
-4185.275786972693
 30
0.0
 10
29162.49734720583
 20
-4185.45961289835
 30
0.0
 10
29162.50086881098
 20
-4185.553244074074
 30
0.0
  0
SPLINE
  5
39CA3
102
{ACAD_REACTORS
330
39E38
102
}
330
1F
100
AcDbEntity
  8
SEIHIN
  6
Continuous
 62
     3
100
AcDbSpline
210
0.0
220
0.0
230
1.0
 70
     8
 71
     3
 72
     8
 73
     4
 74
     0
 42
0.0000000001
 43
0.0000000001
 40
0.0
 40
0.0
 40
0.0
 40
0.0
 40
1.0
 40
1.0
 40
1.0
 40
1.0
 10
29125.5190468672
 20
-3897.217836569914
 30
0.0
 10
29125.59390551921
 20
-3897.217851983615
 30
0.0
 10
29125.66897303755
 20
-3897.223495069653
 30
0.0
 10
29125.74299268809
 20
-3897.23467135496
 30
0.0
  0
LINE
  5
39CA4
102
{ACAD_REACTORS
330
39E38
102
}
330
1F
100
AcDbEntity
  8
SEIHIN
  6
Continuous
 62
     3
100
AcDbLine
 10
29449.48226743294
 20
-4207.30375508602
 30
0.0
 11
29477.81338568703
 21
-3976.565318324751
 31
0.0
  0
LINE
  5
39CA5
102
{ACAD_REACTORS
330
39E38
102
}
330
1F
100
AcDbEntity
  8
SEIHIN
  6
Continuous
 62
     3
100
AcDbLine
 10
29425.21369354481
 20
-4196.655985004564
 30
0.0
 11
29423.27091985803
 21
-4196.655985004564
 31
0.0
  0
LINE
  5
39CA6
102
{ACAD_REACTORS
330
39E38
102
}
330
1F
100
AcDbEntity
  8
SEIHIN
  6
Continuous
 62
     3
100
AcDbLine
 10
29422.45131528443
 20
-4196.831900577183
 30
0.0
 11
29421.23316227384
 21
-4197.380069431947
 31
0.0
  0
LINE
  5
39CA7
102
{ACAD_REACTORS
330
39E38
102
}
330
1F
100
AcDbEntity
  8
SEIHIN
  6
Continuous
 62
     3
100
AcDbLine
 10
29167.30100465553
 20
-4197.555985004565
 30
0.0
 11
29420.41355770024
 21
-4197.555985004565
 31
0.0
  0
LINE
  5
39CA8
102
{ACAD_REACTORS
330
39E38
102
}
330
1F
100
AcDbEntity
  8
SEIHIN
  6
Continuous
 62
     3
100
AcDbLine
 10
29165.26324707135
 20
-4196.831900577183
 30
0.0
 11
29166.48140008194
 21
-4197.380069431947
 31
0.0
  0
LINE
  5
39CA9
102
{ACAD_REACTORS
330
39E38
102
}
330
1F
100
AcDbEntity
  8
SEIHIN
  6
Continuous
 62
     3
100
AcDbLine
 10
29164.44364249775
 20
-4196.655985004564
 30
0.0
 11
29162.50086881098
 21
-4196.655985004564
 31
0.0
  0
LINE
  5
39CAA
102
{ACAD_REACTORS
330
39E38
102
}
330
1F
100
AcDbEntity
  8
SEIHIN
  6
Continuous
 62
     3
100
AcDbLine
 10
29141.22403862715
 20
-4209.934536705385
 30
0.0
 11
29446.50870972898
 21
-4209.934536705385
 31
0.0
  0
LINE
  5
39CAB
102
{ACAD_REACTORS
330
39E38
102
}
330
1F
100
AcDbEntity
  8
SEIHIN
  6
Continuous
 62
     3
100
AcDbLine
 10
29103.78013466605
 20
-3926.565318326574
 30
0.0
 11
29138.25048092297
 21
-4207.303755084196
 31
0.0
  0
LINE
  5
39CAC
102
{ACAD_REACTORS
330
39E38
102
}
330
1F
100
AcDbEntity
  8
SEIHIN
  6
Continuous
 62
     3
100
AcDbLine
 10
29090.09190571442
 20
-3923.934536705385
 30
0.0
 11
29100.80657696187
 21
-3923.934536705385
 31
0.0
  0
LINE
  5
39CAD
102
{ACAD_REACTORS
330
39E38
102
}
330
1F
100
AcDbEntity
  8
SEIHIN
  6
Continuous
 62
     3
100
AcDbLine
 10
29480.78694339098
 20
-3973.934536705385
 30
0.0
 11
29491.51979964137
 21
-3973.934536705385
 31
0.0
  0
LINE
  5
39CAE
102
{ACAD_REACTORS
330
39E38
102
}
330
1F
100
AcDbEntity
  8
SEIHIN
  6
Continuous
 62
     3
100
AcDbLine
 10
29494.51568824563
 20
-3970.938648101123
 30
0.0
 11
29494.51568824563
 21
-3949.713725174176
 31
0.0
  0
LINE
  5
39CAF
102
{ACAD_REACTORS
330
39E38
102
}
330
1F
100
AcDbEntity
  8
SEIHIN
  6
Continuous
 62
     3
100
AcDbLine
 10
29087.09601711015
 20
-3900.213725174176
 30
0.0
 11
29087.09601711015
 21
-3920.938648101123
 31
0.0
  0
LINE
  5
39CB0
102
{ACAD_REACTORS
330
39E38
102
}
330
1F
100
AcDbEntity
  8
SEIHIN
  6
Continuous
 62
     3
100
AcDbLine
 10
29125.5190468672
 20
-3897.217836569914
 30
0.0
 11
29090.09190571442
 21
-3897.217836569914
 31
0.0
  0
SPLINE
  5
39CB1
102
{ACAD_REACTORS
330
39E38
102
}
330
1F
100
AcDbEntity
  8
SEIHIN
  6
Continuous
 62
     3
100
AcDbSpline
210
0.0
220
0.0
230
1.0
 70
     8
 71
     3
 72
    13
 73
     9
 74
     0
 42
0.0000000001
 43
0.0000000001
 40
0.0
 40
0.0
 40
0.0
 40
0.0
 40
0.1659838082500452
 40
0.3327858144128126
 40
0.499999999999714
 40
0.6672141855867733
 40
0.8340161917496455
 40
1.0
 40
1.0
 40
1.0
 40
1.0
 10
29421.23316227384
 20
-4197.380069431947
 30
0.0
 10
29421.19015547943
 20
-4197.398357089465
 30
0.0
 10
29421.10392989361
 20
-4197.435022551387
 30
0.0
 10
29420.96988206109
 20
-4197.478418860926
 30
0.0
 10
29420.83302842859
 20
-4197.513073252552
 30
0.0
 10
29420.69400771982
 20
-4197.537631064318
 30
0.0
 10
29420.55395830606
 20
-4197.553065531945
 30
0.0
 10
29420.46028112961
 20
-4197.555013443425
 30
0.0
 10
29420.41355770024
 20
-4197.555985004565
 30
0.0
  0
SPLINE
  5
39CB2
102
{ACAD_REACTORS
330
39E38
102
}
330
1F
100
AcDbEntity
  8
SEIHIN
  6
Continuous
 62
     3
100
AcDbSpline
210
0.0
220
0.0
230
1.0
 70
     8
 71
     3
 72
     8
 73
     4
 74
     0
 42
0.0000000001
 43
0.0000000001
 40
0.0
 40
0.0
 40
0.0
 40
0.0
 40
1.0
 40
1.0
 40
1.0
 40
1.0
 10
29166.48140008194
 20
-4197.380069431947
 30
0.0
 10
29166.73626380613
 20
-4197.494577980977
 30
0.0
 10
29167.02159868078
 20
-4197.555820743009
 30
0.0
 10
29167.30100465553
 20
-4197.555985004565
 30
0.0
  0
SPLINE
  5
39CB3
102
{ACAD_REACTORS
330
39E38
102
}
330
1F
100
AcDbEntity
  8
SEIHIN
  6
Continuous
 62
     3
100
AcDbSpline
210
0.0
220
0.0
230
1.0
 70
     8
 71
     3
 72
     8
 73
     4
 74
     0
 42
0.0000000001
 43
0.0000000001
 40
0.0
 40
0.0
 40
0.0
 40
0.0
 40
1.0
 40
1.0
 40
1.0
 40
1.0
 10
29422.85175741779
 20
-4196.70033309532
 30
0.0
 10
29422.71412855011
 20
-4196.729873024511
 30
0.0
 10
29422.57967074591
 20
-4196.774049878221
 30
0.0
 10
29422.45131528443
 20
-4196.831900577183
 30
0.0
  0
SPLINE
  5
39CB4
102
{ACAD_REACTORS
330
39E38
102
}
330
1F
100
AcDbEntity
  8
SEIHIN
  6
Continuous
 62
     3
100
AcDbSpline
210
0.0
220
0.0
230
1.0
 70
     8
 71
     3
 72
     8
 73
     4
 74
     0
 42
0.0000000001
 43
0.0000000001
 40
0.0
 40
0.0
 40
0.0
 40
0.0
 40
1.0
 40
1.0
 40
1.0
 40
1.0
 10
29423.27091985803
 20
-4196.655985004564
 30
0.0
 10
29423.13012986898
 20
-4196.655902255627
 30
0.0
 10
29422.98938628548
 20
-4196.670793166131
 30
0.0
 10
29422.85175741779
 20
-4196.70033309532
 30
0.0
  0
SPLINE
  5
39CB5
102
{ACAD_REACTORS
330
39E38
102
}
330
1F
100
AcDbEntity
  8
SEIHIN
  6
Continuous
 62
     3
100
AcDbSpline
210
0.0
220
0.0
230
1.0
 70
     8
 71
     3
 72
     8
 73
     4
 74
     0
 42
0.0000000001
 43
0.0000000001
 40
0.0
 40
0.0
 40
0.0
 40
0.0
 40
1.0
 40
1.0
 40
1.0
 40
1.0
 10
29164.86280493798
 20
-4196.70033309532
 30
0.0
 10
29164.72517607029
 20
-4196.670793166131
 30
0.0
 10
29164.58443248679
 20
-4196.655902255627
 30
0.0
 10
29164.44364249775
 20
-4196.655985004564
 30
0.0
  0
SPLINE
  5
39CB6
102
{ACAD_REACTORS
330
39E38
102
}
330
1F
100
AcDbEntity
  8
SEIHIN
  6
Continuous
 62
     3
100
AcDbSpline
210
0.0
220
0.0
230
1.0
 70
     8
 71
     3
 72
     8
 73
     4
 74
     0
 42
0.0000000001
 43
0.0000000001
 40
0.0
 40
0.0
 40
0.0
 40
0.0
 40
1.0
 40
1.0
 40
1.0
 40
1.0
 10
29165.26324707135
 20
-4196.831900577183
 30
0.0
 10
29165.13489160987
 20
-4196.774049878221
 30
0.0
 10
29165.00043380567
 20
-4196.729873024511
 30
0.0
 10
29164.86280493798
 20
-4196.70033309532
 30
0.0
  0
SPLINE
  5
39CB7
102
{ACAD_REACTORS
330
39E38
102
}
330
1F
100
AcDbEntity
  8
SEIHIN
  6
Continuous
 62
     3
100
AcDbSpline
210
0.0
220
0.0
230
1.0
 70
     8
 71
     3
 72
    20
 73
    16
 74
     0
 42
0.0000000001
 43
0.0000000001
 40
0.0
 40
0.0
 40
0.0
 40
0.0
 40
0.0405138494084713
 40
0.0807593199287654
 40
0.1208736062351933
 40
0.1609952487653632
 40
0.2012627120295167
 40
0.2418129667896312
 40
0.3708251611130773
 40
0.5000490957799633
 40
0.6290300819113427
 40
0.7582852185320822
 40
0.8389636052697417
 40
0.919164841219545
 40
1.0
 40
1.0
 40
1.0
 40
1.0
 10
29477.81338568703
 20
-3976.565318324751
 30
0.0
 10
29477.82147862273
 20
-3976.507300254193
 30
0.0
 10
29477.83761088349
 20
-3976.39164844647
 30
0.0
 10
29477.87440250241
 20
-3976.220688497259
 30
0.0
 10
29477.92031696748
 20
-3976.052609334471
 30
0.0
 10
29477.97624166841
 20
-3975.887529615555
 30
0.0
 10
29478.04195621427
 20
-3975.725413729227
 30
0.0
 10
29478.17201469459
 20
-3975.451302173718
 30
0.0
 10
29478.40406662922
 20
-3975.083613774744
 30
0.0
 10
29478.78990512303
 20
-3974.673715672855
 30
0.0
 10
29479.2440155704
 20
-3974.340449944199
 30
0.0
 10
29479.68990014308
 20
-3974.129833940918
 30
0.0
 10
29480.09218194642
 20
-3974.009109797646
 30
0.0
 10
29480.4371090343
 20
-3973.945995163457
 30
0.0
 10
29480.67002631099
 20
-3973.938366201927
 30
0.0
 10
29480.78694339098
 20
-3973.934536705385
 30
0.0
  0
SPLINE
  5
39CB8
102
{ACAD_REACTORS
330
39E38
102
}
330
1F
100
AcDbEntity
  8
SEIHIN
  6
Continuous
 62
     3
100
AcDbSpline
210
0.0
220
0.0
230
1.0
 70
     8
 71
     3
 72
    20
 73
    16
 74
     0
 42
0.0000000001
 43
0.0000000001
 40
0.0
 40
0.0
 40
0.0
 40
0.0
 40
0.0405138494131014
 40
0.0807593199361675
 40
0.1208736062434859
 40
0.1609952487727275
 40
0.2012627120341754
 40
0.2418129667898361
 40
0.370825161102304
 40
0.5000490957790131
 40
0.6290300818788621
 40
0.7582852185313525
 40
0.8389636052580314
 40
0.9191648412079217
 40
1.0
 40
1.0
 40
1.0
 40
1.0
 10
29446.50870972898
 20
-4209.934536705385
 30
0.0
 10
29446.56728162241
 20
-4209.933574717521
 30
0.0
 10
29446.68403740714
 20
-4209.931657114359
 30
0.0
 10
29446.85820681731
 20
-4209.915974511806
 30
0.0
 10
29447.03062870928
 20
-4209.890885983861
 30
0.0
 10
29447.20129345568
 20
-4209.855496294568
 30
0.0
 10
29447.37020954343
 20
-4209.810028532029
 30
0.0
 10
29447.6581280548
 20
-4209.714345283942
 30
0.0
 10
29448.05135577758
 20
-4209.528832974011
 30
0.0
 10
29448.50522044593
 20
-4209.195824475619
 30
0.0
 10
29448.89134420554
 20
-4208.785713775202
 30
0.0
 10
29449.15472997025
 20
-4208.368820393242
 30
0.0
 10
29449.32358007435
 20
-4207.984249709958
 30
0.0
 10
29449.42826030022
 20
-4207.64958539558
 30
0.0
 10
29449.4642178728
 20
-4207.419333985565
 30
0.0
 10
29449.48226743294
 20
-4207.30375508602
 30
0.0
  0
SPLINE
  5
39CB9
102
{ACAD_REACTORS
330
39E38
102
}
330
1F
100
AcDbEntity
  8
SEIHIN
  6
Continuous
 62
     3
100
AcDbSpline
210
0.0
220
0.0
230
1.0
 70
     8
 71
     3
 72
    20
 73
    16
 74
     0
 42
0.0000000001
 43
0.0000000001
 40
0.0
 40
0.0
 40
0.0
 40
0.0
 40
0.0405138494179294
 40
0.0807593199432321
 40
0.1208736062503514
 40
0.1609952487770392
 40
0.2012627120337652
 40
0.2418129667827544
 40
0.3708251611171567
 40
0.5000490957791067
 40
0.6290300819054714
 40
0.7582852185388359
 40
0.8389636052760064
 40
0.9191648412232954
 40
1.0
 40
1.0
 40
1.0
 40
1.0
 10
29100.80657696187
 20
-3923.934536705385
 30
0.0
 10
29100.86514885533
 20
-3923.935498693251
 30
0.0
 10
29100.98190464012
 20
-3923.937416296415
 30
0.0
 10
29101.15607405037
 20
-3923.95309889898
 30
0.0
 10
29101.32849594242
 20
-3923.978187426943
 30
0.0
 10
29101.49916068887
 20
-3924.013577116265
 30
0.0
 10
29101.66807677668
 20
-3924.059044878838
 30
0.0
 10
29101.95599528816
 20
-3924.154728127022
 30
0.0
 10
29102.34922301107
 20
-3924.340240437101
 30
0.0
 10
29102.80308767957
 20
-3924.673248935793
 30
0.0
 10
29103.18921143919
 20
-3925.083359636511
 30
0.0
 10
29103.45259720384
 20
-3925.500253018793
 30
0.0
 10
29103.62144730778
 20
-3925.88482370232
 30
0.0
 10
29103.72612753352
 20
-3926.219488016883
 30
0.0
 10
29103.76208510598
 20
-3926.449739426993
 30
0.0
 10
29103.78013466605
 20
-3926.565318326574
 30
0.0
  0
SPLINE
  5
39CBA
102
{ACAD_REACTORS
330
39E38
102
}
330
1F
100
AcDbEntity
  8
SEIHIN
  6
Continuous
 62
     3
100
AcDbSpline
210
0.0
220
0.0
230
1.0
 70
     8
 71
     3
 72
    20
 73
    16
 74
     0
 42
0.0000000001
 43
0.0000000001
 40
0.0
 40
0.0
 40
0.0
 40
0.0
 40
0.0405138494234228
 40
0.0807593199520277
 40
0.1208736062602805
 40
0.1609952487859612
 40
0.2012627120395982
 40
0.2418129667834826
 40
0.3708251611259874
 40
0.500049095779584
 40
0.6290300819105649
 40
0.7582852185396562
 40
0.8389636052816822
 40
0.9191648412287701
 40
1.0
 40
1.0
 40
1.0
 40
1.0
 10
29138.25048092297
 20
-4207.303755084196
 30
0.0
 10
29138.25857385864
 20
-4207.361773154805
 30
0.0
 10
29138.27470611934
 20
-4207.477424962621
 30
0.0
 10
29138.31149773818
 20
-4207.648384911963
 30
0.0
 10
29138.35741220316
 20
-4207.816464074856
 30
0.0
 10
29138.41333690403
 20
-4207.981543793851
 30
0.0
 10
29138.47905144983
 20
-4208.143659680239
 30
0.0
 10
29138.6091099301
 20
-4208.417771235898
 30
0.0
 10
29138.8411618647
 20
-4208.785459635097
 30
0.0
 10
29139.2270003585
 20
-4209.195357737331
 30
0.0
 10
29139.68111080596
 20
-4209.528623466264
 30
0.0
 10
29140.12699537882
 20
-4209.739239469704
 30
0.0
 10
29140.52927718234
 20
-4209.859963613062
 30
0.0
 10
29140.87420427035
 20
-4209.923078247304
 30
0.0
 10
29141.10712154712
 20
-4209.930707208841
 30
0.0
 10
29141.22403862715
 20
-4209.934536705385
 30
0.0
  0
SPLINE
  5
39CBB
102
{ACAD_REACTORS
330
39E38
102
}
330
1F
100
AcDbEntity
  8
SEIHIN
  6
Continuous
 62
     3
100
AcDbSpline
210
0.0
220
0.0
230
1.0
 70
     8
 71
     3
 72
    22
 73
    18
 74
     0
 42
0.0000000001
 43
0.0000000001
 40
0.0
 40
0.0
 40
0.0
 40
0.0
 40
0.0345706864705795
 40
0.0688947596491363
 40
0.1030715121483368
 40
0.1372015223816039
 40
0.1713857813461828
 40
0.2057248014064127
 40
0.2403177459434406
 40
0.370078179830855
 40
0.5000273210959886
 40
0.6297525282529876
 40
0.7597370720860982
 40
0.8200082830538951
 40
0.8797819179035874
 40
0.9395991548187975
 40
1.0
 40
1.0
 40
1.0
 40
1.0
 10
29491.51979964137
 20
-3973.934536705385
 30
0.0
 10
29491.57399192466
 20
-3973.933718055891
 30
0.0
 10
29491.68198990543
 20
-3973.932086596818
 30
0.0
 10
29491.84310841726
 20
-3973.918742331324
 30
0.0
 10
29492.00261057626
 20
-3973.897395165365
 30
0.0
 10
29492.16049361959
 20
-3973.867278162667
 30
0.0
 10
29492.31674934448
 20
-3973.828601165761
 30
0.0
 10
29492.47138883617
 20
-3973.781292685595
 30
0.0
 10
29492.76397605709
 20
-3973.674457601223
 30
0.0
 10
29493.17738752648
 20
-3973.46155396211
 30
0.0
 10
29493.65276051817
 20
-3973.072127972518
 30
0.0
 10
29494.04257906785
 20
-3972.596519756346
 30
0.0
 10
29494.2738748734
 20
-3972.147145699479
 30
0.0
 10
29494.40156649171
 20
-3971.776156886548
 30
0.0
 10
29494.46724670987
 20
-3971.501620198464
 30
0.0
 10
29494.50822672854
 20
-3971.221859489605
 30
0.0
 10
29494.51319303681
 20
-3971.033356930852
 30
0.0
 10
29494.51568824563
 20
-3970.938648101123
 30
0.0
  0
SPLINE
  5
39CBC
102
{ACAD_REACTORS
330
39E38
102
}
330
1F
100
AcDbEntity
  8
SEIHIN
  6
Continuous
 62
     3
100
AcDbSpline
210
0.0
220
0.0
230
1.0
 70
     8
 71
     3
 72
    22
 73
    18
 74
     0
 42
0.0000000001
 43
0.0000000001
 40
0.0
 40
0.0
 40
0.0
 40
0.0
 40
0.0345706864737209
 40
0.0688947596543628
 40
0.1030715121546085
 40
0.1372015223878209
 40
0.1713857813513506
 40
0.2057248014095314
 40
0.2403177459435513
 40
0.3700781798554073
 40
0.5000273210966821
 40
0.6297525282768063
 40
0.759737072086324
 40
0.8200082830581632
 40
0.8797819179092511
 40
0.9395991548230625
 40
1.0
 40
1.0
 40
1.0
 40
1.0
 10
29087.09601711015
 20
-3920.938648101123
 30
0.0
 10
29087.09683575965
 20
-3920.992840384425
 30
0.0
 10
29087.09846721872
 20
-3921.1008383652
 30
0.0
 10
29087.11181148421
 20
-3921.261956877041
 30
0.0
 10
29087.13315865017
 20
-3921.421459036049
 30
0.0
 10
29087.16327565287
 20
-3921.57934207938
 30
0.0
 10
29087.20195264978
 20
-3921.735597804266
 30
0.0
 10
29087.24926112994
 20
-3921.890237295943
 30
0.0
 10
29087.35609621434
 20
-3922.182824516888
 30
0.0
 10
29087.56899985343
 20
-3922.596235986285
 30
0.0
 10
29087.95842584308
 20
-3923.071608977984
 30
0.0
 10
29088.43403405924
 20
-3923.461427527613
 30
0.0
 10
29088.8834081161
 20
-3923.692723333181
 30
0.0
 10
29089.25439692901
 20
-3923.820414951463
 30
0.0
 10
29089.5289336171
 20
-3923.886095169624
 30
0.0
 10
29089.80869432595
 20
-3923.927075188296
 30
0.0
 10
29089.9971968847
 20
-3923.932041496576
 30
0.0
 10
29090.09190571442
 20
-3923.934536705385
 30
0.0
  0
SPLINE
  5
39CBD
102
{ACAD_REACTORS
330
39E38
102
}
330
1F
100
AcDbEntity
  8
SEIHIN
  6
Continuous
 62
     3
100
AcDbSpline
210
0.0
220
0.0
230
1.0
 70
     8
 71
     3
 72
    22
 73
    18
 74
     0
 42
0.0000000001
 43
0.0000000001
 40
0.0
 40
0.0
 40
0.0
 40
0.0
 40
0.0345706864687676
 40
0.0688947596461061
 40
0.1030715121447302
 40
0.1372015223779934
 40
0.1713857813431765
 40
0.2057248014045834
 40
0.2403177459433348
 40
0.3700781798214544
 40
0.5000273210959876
 40
0.6297525282672363
 40
0.7597370720872402
 40
0.8200082830690213
 40
0.8797819179234579
 40
0.9395991548337059
 40
1.0
 40
1.0
 40
1.0
 40
1.0
 10
29494.51568824563
 20
-3949.713725174176
 30
0.0
 10
29494.51486959613
 20
-3949.659532890883
 30
0.0
 10
29494.51323813706
 20
-3949.551534910119
 30
0.0
 10
29494.49989387156
 20
-3949.390416398294
 30
0.0
 10
29494.4785467056
 20
-3949.230914239294
 30
0.0
 10
29494.4484297029
 20
-3949.073031195962
 30
0.0
 10
29494.409752706
 20
-3948.916775471069
 30
0.0
 10
29494.36244422583
 20
-3948.762135979377
 30
0.0
 10
29494.25560914147
 20
-3948.469548758462
 30
0.0
 10
29494.04270550235
 20
-3948.056137289071
 30
0.0
 10
29493.65327951275
 20
-3947.580764297366
 30
0.0
 10
29493.17767129659
 20
-3947.190945747646
 30
0.0
 10
29492.72829723968
 20
-3946.959649942112
 30
0.0
 10
29492.35730842673
 20
-3946.831958323841
 30
0.0
 10
29492.08277173863
 20
-3946.766278105677
 30
0.0
 10
29491.80301102979
 20
-3946.725298087002
 30
0.0
 10
29491.61450847107
 20
-3946.720331778723
 30
0.0
 10
29491.51979964137
 20
-3946.717836569911
 30
0.0
  0
SPLINE
  5
39CBE
102
{ACAD_REACTORS
330
39E38
102
}
330
1F
100
AcDbEntity
  8
SEIHIN
  6
Continuous
 62
     3
100
AcDbSpline
210
0.0
220
0.0
230
1.0
 70
     8
 71
     3
 72
    22
 73
    18
 74
     0
 42
0.0000000001
 43
0.0000000001
 40
0.0
 40
0.0
 40
0.0
 40
0.0
 40
0.0345706864817916
 40
0.0688947596678181
 40
0.1030715121707685
 40
0.1372015224040679
 40
0.1713857813650839
 40
0.2057248014182461
 40
0.240317745944836
 40
0.370078179866151
 40
0.5000273210970052
 40
0.6297525282808401
 40
0.7597370720872113
 40
0.8200082830657125
 40
0.8797819179190071
 40
0.9395991548303413
 40
1.0
 40
1.0
 40
1.0
 40
1.0
 10
29090.09190571442
 20
-3897.217836569914
 30
0.0
 10
29090.0377134311
 20
-3897.218655219406
 30
0.0
 10
29089.92971545031
 20
-3897.220286678481
 30
0.0
 10
29089.76859693844
 20
-3897.233630943973
 30
0.0
 10
29089.60909477942
 20
-3897.254978109932
 30
0.0
 10
29089.45121173609
 20
-3897.28509511263
 30
0.0
 10
29089.29495601121
 20
-3897.323772109536
 30
0.0
 10
29089.14031651956
 20
-3897.371080589699
 30
0.0
 10
29088.84772929863
 20
-3897.477915674123
 30
0.0
 10
29088.43431782925
 20
-3897.690819313228
 30
0.0
 10
29087.95894483754
 20
-3898.08024530285
 30
0.0
 10
29087.56912628791
 20
-3898.555853518991
 30
0.0
 10
29087.33783048234
 20
-3899.005227575874
 30
0.0
 10
29087.21013886408
 20
-3899.376216388794
 30
0.0
 10
29087.14445864592
 20
-3899.650753076894
 30
0.0
 10
29087.10347862724
 20
-3899.930513785736
 30
0.0
 10
29087.09851231896
 20
-3900.119016344465
 30
0.0
 10
29087.09601711015
 20
-3900.213725174176
 30
0.0
  0
SPLINE
  5
39CBF
102
{ACAD_REACTORS
330
39E38
102
}
330
1F
100
AcDbEntity
  8
SEIHIN
  6
Continuous
 62
     3
100
AcDbSpline
210
0.0
220
0.0
230
1.0
 70
     8
 71
     3
 72
    11
 73
     7
 74
     0
 42
0.0000000001
 43
0.0000000001
 40
0.0
 40
0.0
 40
0.0
 40
0.0
 40
0.2656499870563123
 40
0.5278087923612769
 40
0.7754772033015817
 40
0.9999999999999998
 40
0.9999999999999998
 40
0.9999999999999998
 40
0.9999999999999998
 10
29453.60861409785
 20
-3946.808409744269
 30
0.0
 10
29453.62131348641
 20
-3946.80939097976
 30
0.0
 10
29453.6465453677
 20
-3946.811340555311
 30
0.0
 10
29453.68291070981
 20
-3946.802240712265
 30
0.0
 10
29453.71466934953
 20
-3946.786582634994
 30
0.0
 10
29453.73129388859
 20
-3946.771265547165
 30
0.0
 10
29453.73919871177
 20
-3946.763982405632
 30
0.0
  0
LINE
  5
39CC0
102
{ACAD_REACTORS
330
39E38
102
}
330
1F
100
AcDbEntity
  8
SEIHIN
  6
Continuous
 62
     3
100
AcDbLine
 10
29453.84742227589
 20
-3946.717836569937
 30
0.0
 11
29491.51979964137
 21
-3946.717836569913
 31
0.0
  0
LINE
  5
39CC1
102
{ACAD_REACTORS
330
39E38
102
}
330
1F
100
AcDbEntity
  8
SEIHIN
  6
Continuous
 62
     3
100
AcDbLine
 10
29453.60861409785
 20
-3946.808409744269
 30
0.0
 11
29125.74299268809
 21
-3897.23467135496
 31
0.0
  0
SPLINE
  5
39CC2
102
{ACAD_REACTORS
330
39E38
102
}
330
1F
100
AcDbEntity
  8
SEIHIN
  6
Continuous
 62
     3
100
AcDbSpline
210
0.0
220
0.0
230
1.0
 70
     8
 71
     3
 72
    10
 73
     6
 74
     0
 42
0.0000000001
 43
0.0000000001
 40
0.0
 40
0.0
 40
0.0
 40
0.0
 40
0.337854553633112
 40
0.6625928579346049
 40
1.0
 40
1.0
 40
1.0
 40
1.0
 10
29453.84742227589
 20
-3946.717836569937
 30
0.0
 10
29453.83379238581
 20
-3946.718776657416
 30
0.0
 10
29453.80706174765
 20
-3946.720620336126
 30
0.0
 10
29453.76911145412
 20
-3946.736794833315
 30
0.0
 10
29453.74929600105
 20
-3946.754805017269
 30
0.0
 10
29453.73919870985
 20
-3946.763982403791
 30
0.0
  0
SPLINE
  5
39CC3
102
{ACAD_REACTORS
330
39E39
102
}
330
1F
100
AcDbEntity
  8
SEIHIN
  6
Continuous
 62
     3
100
AcDbSpline
210
0.0
220
0.0
230
1.0
 70
     8
 71
     3
 72
    10
 73
     6
 74
     0
 42
0.0000000001
 43
0.0000000001
 40
0.0
 40
0.0
 40
0.0
 40
0.0
 40
0.337854553633112
 40
0.6625928579346049
 40
1.0
 40
1.0
 40
1.0
 40
1.0
 10
28228.78316968376
 20
-3946.717836569937
 30
0.0
 10
28228.79679957384
 20
-3946.718776657416
 30
0.0
 10
28228.823530212
 20
-3946.720620336126
 30
0.0
 10
28228.86148050553
 20
-3946.736794833315
 30
0.0
 10
28228.8812959586
 20
-3946.754805017269
 30
0.0
 10
28228.8913932498
 20
-3946.763982403791
 30
0.0
  0
LINE
  5
39CC4
102
{ACAD_REACTORS
330
39E39
102
}
330
1F
100
AcDbEntity
  8
SEIHIN
  6
Continuous
 62
     3
100
AcDbLine
 10
28240.999045092
 20
-3968.794008116937
 30
0.0
 11
28546.06150534653
 21
-3918.898768424528
 31
0.0
  0
SPLINE
  5
39CC5
102
{ACAD_REACTORS
330
39E39
102
}
330
1F
100
AcDbEntity
  8
SEIHIN
  6
Continuous
 62
     3
100
AcDbSpline
210
0.0
220
0.0
230
1.0
 70
     8
 71
     3
 72
     8
 73
     4
 74
     0
 42
0.0000000001
 43
0.0000000001
 40
0.0
 40
0.0
 40
0.0
 40
0.0
 40
1.0
 40
1.0
 40
1.0
 40
1.0
 10
28240.6777256108
 20
-3968.833289778814
 30
0.0
 10
28240.57014700766
 20
-3968.842029357635
 30
0.0
 10
28240.46221400293
 20
-3968.846400279138
 30
0.0
 10
28240.35427903488
 20
-3968.846388270733
 30
0.0
  0
SPLINE
  5
39CC6
102
{ACAD_REACTORS
330
39E39
102
}
330
1F
100
AcDbEntity
  8
SEIHIN
  6
Continuous
 62
     3
100
AcDbSpline
210
0.0
220
0.0
230
1.0
 70
     8
 71
     3
 72
     8
 73
     4
 74
     0
 42
0.0000000001
 43
0.0000000001
 40
0.0
 40
0.0
 40
0.0
 40
0.0
 40
1.0
 40
1.0
 40
1.0
 40
1.0
 10
28240.6777256108
 20
-3968.833289778814
 30
0.0
 10
28240.78530260857
 20
-3968.824532189041
 30
0.0
 10
28240.89252609208
 20
-3968.811424019498
 30
0.0
 10
28240.999045092
 20
-3968.794008116937
 30
0.0
  0
SPLINE
  5
39CC7
102
{ACAD_REACTORS
330
39E39
102
}
330
1F
100
AcDbEntity
  8
SEIHIN
  6
Continuous
 62
     3
100
AcDbSpline
210
0.0
220
0.0
230
1.0
 70
     8
 71
     3
 72
     8
 73
     4
 74
     0
 42
0.0000000001
 43
0.0000000001
 40
0.0
 40
0.0
 40
0.0
 40
0.0
 40
1.0
 40
1.0
 40
1.0
 40
1.0
 10
28546.38282775598
 20
-3918.859522807505
 30
0.0
 10
28546.27524915351
 20
-3918.868262386272
 30
0.0
 10
28546.16802497424
 20
-3918.881358513251
 30
0.0
 10
28546.06150534653
 20
-3918.898768424528
 30
0.0
  0
SPLINE
  5
39CC8
102
{ACAD_REACTORS
330
39E39
102
}
330
1F
100
AcDbEntity
  8
SEIHIN
  6
Continuous
 62
     3
100
AcDbSpline
210
0.0
220
0.0
230
1.0
 70
     8
 71
     3
 72
     8
 73
     4
 74
     0
 42
0.0000000001
 43
0.0000000001
 40
0.0
 40
0.0
 40
0.0
 40
0.0
 40
1.0
 40
1.0
 40
1.0
 40
1.0
 10
28546.38282775598
 20
-3918.859522807505
 30
0.0
 10
28546.49040670592
 20
-3918.850789247633
 30
0.0
 10
28546.59833901617
 20
-3918.846406280037
 30
0.0
 10
28546.70627140365
 20
-3918.846388270733
 30
0.0
  0
LINE
  5
39CC9
102
{ACAD_REACTORS
330
39E39
102
}
330
1F
100
AcDbEntity
  8
SEIHIN
  6
Continuous
 62
     3
100
AcDbLine
 10
28257.41689841484
 20
-4196.655985004564
 30
0.0
 11
28257.41689841484
 21
-4185.553244074074
 31
0.0
  0
LINE
  5
39CCA
102
{ACAD_REACTORS
330
39E39
102
}
330
1F
100
AcDbEntity
  8
SEIHIN
  6
Continuous
 62
     3
100
AcDbLine
 10
28520.12972314867
 20
-4185.553244074074
 30
0.0
 11
28520.12972314867
 21
-4196.655985004564
 31
0.0
  0
LINE
  5
39CCB
102
{ACAD_REACTORS
330
39E39
102
}
330
1F
100
AcDbEntity
  8
SEIHIN
  6
Continuous
 62
     3
100
AcDbLine
 10
28546.70627140365
 20
-3918.846388270733
 30
0.0
 11
28567.31695485193
 21
-3918.846388270733
 31
0.0
  0
LINE
  5
39CCC
102
{ACAD_REACTORS
330
39E39
102
}
330
1F
100
AcDbEntity
  8
SEIHIN
  6
Continuous
 62
     3
100
AcDbLine
 10
28216.35913971151
 20
-3968.846388270733
 30
0.0
 11
28240.35427903488
 21
-3968.846388270733
 31
0.0
  0
LINE
  5
39CCD
102
{ACAD_REACTORS
330
39E39
102
}
330
1F
100
AcDbEntity
  8
SEIHIN
  6
Continuous
 62
     3
100
AcDbLine
 10
28242.50681681191
 20
-4181.802130584528
 30
0.0
 11
28216.35913971151
 21
-3968.846388270733
 31
0.0
  0
LINE
  5
39CCE
102
{ACAD_REACTORS
330
39E39
102
}
330
1F
100
AcDbEntity
  8
SEIHIN
  6
Continuous
 62
     3
100
AcDbLine
 10
28533.04767794819
 20
-4183.555985004565
 30
0.0
 11
28522.12698221819
 21
-4183.555985004565
 31
0.0
  0
LINE
  5
39CCF
102
{ACAD_REACTORS
330
39E39
102
}
330
1F
100
AcDbEntity
  8
SEIHIN
  6
Continuous
 62
     3
100
AcDbLine
 10
28255.41963934534
 20
-4183.555985004565
 30
0.0
 11
28244.48918861542
 21
-4183.555985004565
 31
0.0
  0
LINE
  5
39CD0
102
{ACAD_REACTORS
330
39E39
102
}
330
1F
100
AcDbEntity
  8
SEIHIN
  6
Continuous
 62
     3
100
AcDbLine
 10
28567.31695485193
 20
-3918.846388270733
 30
0.0
 11
28535.0300497517
 21
-4181.802130584561
 31
0.0
  0
SPLINE
  5
39CD1
102
{ACAD_REACTORS
330
39E39
102
}
330
1F
100
AcDbEntity
  8
SEIHIN
  6
Continuous
 62
     3
100
AcDbSpline
210
0.0
220
0.0
230
1.0
 70
     8
 71
     3
 72
    14
 73
    10
 74
     0
 42
0.0000000001
 43
0.0000000001
 40
0.0
 40
0.0
 40
0.0
 40
0.0
 40
0.25
 40
0.25
 40
0.5
 40
0.5
 40
0.75
 40
0.75
 40
1.0
 40
1.0
 40
1.0
 40
1.0
 10
28244.48918861542
 20
-4183.555985004565
 30
0.0
 10
28244.26885403322
 20
-4183.555451065837
 30
0.0
 10
28244.03383284234
 20
-4183.517445662448
 30
0.0
 10
28243.57690176412
 20
-4183.34993763372
 30
0.0
 10
28243.35600453148
 20
-4183.220040422734
 30
0.0
 10
28242.97835771298
 20
-4182.885926740999
 30
0.0
 10
28242.8225081356
 20
-4182.682506530485
 30
0.0
 10
28242.60056279626
 20
-4182.249395440496
 30
0.0
 10
28242.53419880139
 20
-4182.020757755428
 30
0.0
 10
28242.50681681191
 20
-4181.802130584528
 30
0.0
  0
SPLINE
  5
39CD2
102
{ACAD_REACTORS
330
39E39
102
}
330
1F
100
AcDbEntity
  8
SEIHIN
  6
Continuous
 62
     3
100
AcDbSpline
210
0.0
220
0.0
230
1.0
 70
     8
 71
     3
 72
    14
 73
    10
 74
     0
 42
0.0000000001
 43
0.0000000001
 40
0.0
 40
0.0
 40
0.0
 40
0.0
 40
0.25
 40
0.25
 40
0.5
 40
0.5
 40
0.75
 40
0.75
 40
1.0
 40
1.0
 40
1.0
 40
1.0
 10
28535.0300497517
 20
-4181.802130584561
 30
0.0
 10
28535.00266776221
 20
-4182.020757755458
 30
0.0
 10
28534.93630376735
 20
-4182.249395440524
 30
0.0
 10
28534.714358428
 20
-4182.682506530503
 30
0.0
 10
28534.55850885062
 20
-4182.885926741014
 30
0.0
 10
28534.18086203213
 20
-4183.220040422741
 30
0.0
 10
28533.95996479948
 20
-4183.349937633724
 30
0.0
 10
28533.50303372127
 20
-4183.51744566245
 30
0.0
 10
28533.26801253039
 20
-4183.555451065837
 30
0.0
 10
28533.04767794819
 20
-4183.555985004565
 30
0.0
  0
SPLINE
  5
39CD3
102
{ACAD_REACTORS
330
39E39
102
}
330
1F
100
AcDbEntity
  8
SEIHIN
  6
Continuous
 62
     3
100
AcDbSpline
210
0.0
220
0.0
230
1.0
 70
     8
 71
     3
 72
    10
 73
     6
 74
     0
 42
0.0000000001
 43
0.0000000001
 40
0.0
 40
0.0
 40
0.0
 40
0.0
 40
0.5
 40
0.5
 40
1.0
 40
1.0
 40
1.0
 40
1.0
 10
28256.83450782616
 20
-4184.138375593248
 30
0.0
 10
28257.01933823412
 20
-4184.323206001214
 30
0.0
 10
28257.16705036834
 20
-4184.544877929298
 30
0.0
 10
28257.36624334189
 20
-4185.028800343834
 30
0.0
 10
28257.41761340348
 20
-4185.29077905596
 30
0.0
 10
28257.41689841484
 20
-4185.553244074074
 30
0.0
  0
SPLINE
  5
39CD4
102
{ACAD_REACTORS
330
39E39
102
}
330
1F
100
AcDbEntity
  8
SEIHIN
  6
Continuous
 62
     3
100
AcDbSpline
210
0.0
220
0.0
230
1.0
 70
     8
 71
     3
 72
    16
 73
    12
 74
     0
 42
0.0000000001
 43
0.0000000001
 40
0.0
 40
0.0
 40
0.0
 40
0.0
 40
0.0782471858920669
 40
0.1578080176956174
 40
0.2385228321170569
 40
0.3202181574229093
 40
0.4027087340113523
 40
0.4857999129275138
 40
0.6487386405921349
 40
0.8210860958214258
 40
1.0
 40
1.0
 40
1.0
 40
1.0
 10
28256.83450782616
 20
-4184.138375593248
 30
0.0
 10
28256.80502071892
 20
-4184.109927379988
 30
0.0
 10
28256.74555146276
 20
-4184.052553353168
 30
0.0
 10
28256.64903153655
 20
-4183.973155068304
 30
0.0
 10
28256.54659210004
 20
-4183.898558473826
 30
0.0
 10
28256.43818310314
 20
-4183.829982816193
 30
0.0
 10
28256.32449521083
 20
-4183.767970892027
 30
0.0
 10
28256.16842448131
 20
-4183.695569919347
 30
0.0
 10
28255.9612279194
 20
-4183.623461994209
 30
0.0
 10
28255.69709644648
 20
-4183.566420570963
 30
0.0
 10
28255.51327052094
 20
-4183.559506609692
 30
0.0
 10
28255.41963934534
 20
-4183.555985004565
 30
0.0
  0
SPLINE
  5
39CD5
102
{ACAD_REACTORS
330
39E39
102
}
330
1F
100
AcDbEntity
  8
SEIHIN
  6
Continuous
 62
     3
100
AcDbSpline
210
0.0
220
0.0
230
1.0
 70
     8
 71
     3
 72
    10
 73
     6
 74
     0
 42
0.0000000001
 43
0.0000000001
 40
0.0
 40
0.0
 40
0.0
 40
0.0
 40
0.5
 40
0.5
 40
1.0
 40
1.0
 40
1.0
 40
1.0
 10
28520.71211373736
 20
-4184.138375593248
 30
0.0
 10
28520.89694414533
 20
-4183.953545185285
 30
0.0
 10
28521.11861607341
 20
-4183.805833051073
 30
0.0
 10
28521.60253848795
 20
-4183.60664007752
 30
0.0
 10
28521.86451720007
 20
-4183.555270015933
 30
0.0
 10
28522.12698221819
 20
-4183.555985004565
 30
0.0
  0
SPLINE
  5
39CD6
102
{ACAD_REACTORS
330
39E39
102
}
330
1F
100
AcDbEntity
  8
SEIHIN
  6
Continuous
 62
     3
100
AcDbSpline
210
0.0
220
0.0
230
1.0
 70
     8
 71
     3
 72
    16
 73
    12
 74
     0
 42
0.0000000001
 43
0.0000000001
 40
0.0
 40
0.0
 40
0.0
 40
0.0
 40
0.0782471857801028
 40
0.1578080175170143
 40
0.2385228319171346
 40
0.3202181572464531
 40
0.402708733902075
 40
0.4857999129274176
 40
0.6487386403580573
 40
0.8210860955964799
 40
0.9999999999999998
 40
0.9999999999999998
 40
0.9999999999999998
 40
0.9999999999999998
 10
28520.71211373736
 20
-4184.138375593248
 30
0.0
 10
28520.68366552414
 20
-4184.16786270045
 30
0.0
 10
28520.62629149738
 20
-4184.227331956537
 30
0.0
 10
28520.54689321257
 20
-4184.323851882656
 30
0.0
 10
28520.4722966181
 20
-4184.42629131913
 30
0.0
 10
28520.40372096043
 20
-4184.534700316053
 30
0.0
 10
28520.34170903621
 20
-4184.648388208443
 30
0.0
 10
28520.26930806353
 20
-4184.804458937933
 30
0.0
 10
28520.19720013839
 20
-4185.01165549978
 30
0.0
 10
28520.1401587151
 20
-4185.275786972693
 30
0.0
 10
28520.13324475382
 20
-4185.45961289835
 30
0.0
 10
28520.12972314867
 20
-4185.553244074074
 30
0.0
  0
SPLINE
  5
39CD7
102
{ACAD_REACTORS
330
39E39
102
}
330
1F
100
AcDbEntity
  8
SEIHIN
  6
Continuous
 62
     3
100
AcDbSpline
210
0.0
220
0.0
230
1.0
 70
     8
 71
     3
 72
     8
 73
     4
 74
     0
 42
0.0000000001
 43
0.0000000001
 40
0.0
 40
0.0
 40
0.0
 40
0.0
 40
1.0
 40
1.0
 40
1.0
 40
1.0
 10
28557.11154509245
 20
-3897.217836569914
 30
0.0
 10
28557.03668644044
 20
-3897.217851983615
 30
0.0
 10
28556.9616189221
 20
-3897.223495069653
 30
0.0
 10
28556.88759927156
 20
-3897.23467135496
 30
0.0
  0
LINE
  5
39CD8
102
{ACAD_REACTORS
330
39E39
102
}
330
1F
100
AcDbEntity
  8
SEIHIN
  6
Continuous
 62
     3
100
AcDbLine
 10
28233.14832452672
 20
-4207.30375508602
 30
0.0
 11
28204.81720627262
 21
-3976.565318324751
 31
0.0
  0
LINE
  5
39CD9
102
{ACAD_REACTORS
330
39E39
102
}
330
1F
100
AcDbEntity
  8
SEIHIN
  6
Continuous
 62
     3
100
AcDbLine
 10
28257.41689841484
 20
-4196.655985004564
 30
0.0
 11
28259.35967210162
 21
-4196.655985004564
 31
0.0
  0
LINE
  5
39CDA
102
{ACAD_REACTORS
330
39E39
102
}
330
1F
100
AcDbEntity
  8
SEIHIN
  6
Continuous
 62
     3
100
AcDbLine
 10
28260.17927667522
 20
-4196.831900577183
 30
0.0
 11
28261.39742968581
 21
-4197.380069431947
 31
0.0
  0
LINE
  5
39CDB
102
{ACAD_REACTORS
330
39E39
102
}
330
1F
100
AcDbEntity
  8
SEIHIN
  6
Continuous
 62
     3
100
AcDbLine
 10
28515.32958730412
 20
-4197.555985004565
 30
0.0
 11
28262.21703425941
 21
-4197.555985004565
 31
0.0
  0
LINE
  5
39CDC
102
{ACAD_REACTORS
330
39E39
102
}
330
1F
100
AcDbEntity
  8
SEIHIN
  6
Continuous
 62
     3
100
AcDbLine
 10
28517.3673448883
 20
-4196.831900577183
 30
0.0
 11
28516.14919187771
 21
-4197.380069431947
 31
0.0
  0
LINE
  5
39CDD
102
{ACAD_REACTORS
330
39E39
102
}
330
1F
100
AcDbEntity
  8
SEIHIN
  6
Continuous
 62
     3
100
AcDbLine
 10
28518.18694946191
 20
-4196.655985004564
 30
0.0
 11
28520.12972314867
 21
-4196.655985004564
 31
0.0
  0
LINE
  5
39CDE
102
{ACAD_REACTORS
330
39E39
102
}
330
1F
100
AcDbEntity
  8
SEIHIN
  6
Continuous
 62
     3
100
AcDbLine
 10
28541.4065533325
 20
-4209.934536705385
 30
0.0
 11
28236.12188223067
 21
-4209.934536705385
 31
0.0
  0
LINE
  5
39CDF
102
{ACAD_REACTORS
330
39E39
102
}
330
1F
100
AcDbEntity
  8
SEIHIN
  6
Continuous
 62
     3
100
AcDbLine
 10
28578.8504572936
 20
-3926.565318326574
 30
0.0
 11
28544.38011103669
 21
-4207.303755084196
 31
0.0
  0
LINE
  5
39CE0
102
{ACAD_REACTORS
330
39E39
102
}
330
1F
100
AcDbEntity
  8
SEIHIN
  6
Continuous
 62
     3
100
AcDbLine
 10
28592.53868624524
 20
-3923.934536705385
 30
0.0
 11
28581.82401499778
 21
-3923.934536705385
 31
0.0
  0
LINE
  5
39CE1
102
{ACAD_REACTORS
330
39E39
102
}
330
1F
100
AcDbEntity
  8
SEIHIN
  6
Continuous
 62
     3
100
AcDbLine
 10
28201.84364856867
 20
-3973.934536705385
 30
0.0
 11
28191.11079231829
 21
-3973.934536705385
 31
0.0
  0
LINE
  5
39CE2
102
{ACAD_REACTORS
330
39E39
102
}
330
1F
100
AcDbEntity
  8
SEIHIN
  6
Continuous
 62
     3
100
AcDbLine
 10
28188.11490371402
 20
-3970.938648101123
 30
0.0
 11
28188.11490371402
 21
-3949.713725174176
 31
0.0
  0
LINE
  5
39CE3
102
{ACAD_REACTORS
330
39E39
102
}
330
1F
100
AcDbEntity
  8
SEIHIN
  6
Continuous
 62
     3
100
AcDbLine
 10
28595.5345748495
 20
-3900.213725174176
 30
0.0
 11
28595.5345748495
 21
-3920.938648101123
 31
0.0
  0
LINE
  5
39CE4
102
{ACAD_REACTORS
330
39E39
102
}
330
1F
100
AcDbEntity
  8
SEIHIN
  6
Continuous
 62
     3
100
AcDbLine
 10
28557.11154509245
 20
-3897.217836569914
 30
0.0
 11
28592.53868624524
 21
-3897.217836569914
 31
0.0
  0
LINE
  5
39CE5
102
{ACAD_REACTORS
330
39E39
102
}
330
1F
100
AcDbEntity
  8
SEIHIN
  6
Continuous
 62
     3
100
AcDbLine
 10
28229.0219778618
 20
-3946.808409744269
 30
0.0
 11
28556.88759927156
 21
-3897.23467135496
 31
0.0
  0
SPLINE
  5
39CE6
102
{ACAD_REACTORS
330
39E39
102
}
330
1F
100
AcDbEntity
  8
SEIHIN
  6
Continuous
 62
     3
100
AcDbSpline
210
0.0
220
0.0
230
1.0
 70
     8
 71
     3
 72
    13
 73
     9
 74
     0
 42
0.0000000001
 43
0.0000000001
 40
0.0
 40
0.0
 40
0.0
 40
0.0
 40
0.1659838082500452
 40
0.3327858144128126
 40
0.499999999999714
 40
0.6672141855867733
 40
0.8340161917496455
 40
1.0
 40
1.0
 40
1.0
 40
1.0
 10
28261.39742968581
 20
-4197.380069431947
 30
0.0
 10
28261.44043648022
 20
-4197.398357089465
 30
0.0
 10
28261.52666206604
 20
-4197.435022551387
 30
0.0
 10
28261.66070989856
 20
-4197.478418860926
 30
0.0
 10
28261.79756353106
 20
-4197.513073252552
 30
0.0
 10
28261.93658423983
 20
-4197.537631064318
 30
0.0
 10
28262.07663365359
 20
-4197.553065531945
 30
0.0
 10
28262.17031083004
 20
-4197.555013443425
 30
0.0
 10
28262.21703425941
 20
-4197.555985004565
 30
0.0
  0
SPLINE
  5
39CE7
102
{ACAD_REACTORS
330
39E39
102
}
330
1F
100
AcDbEntity
  8
SEIHIN
  6
Continuous
 62
     3
100
AcDbSpline
210
0.0
220
0.0
230
1.0
 70
     8
 71
     3
 72
     8
 73
     4
 74
     0
 42
0.0000000001
 43
0.0000000001
 40
0.0
 40
0.0
 40
0.0
 40
0.0
 40
1.0
 40
1.0
 40
1.0
 40
1.0
 10
28516.14919187771
 20
-4197.380069431947
 30
0.0
 10
28515.89432815352
 20
-4197.494577980977
 30
0.0
 10
28515.60899327887
 20
-4197.555820743009
 30
0.0
 10
28515.32958730412
 20
-4197.555985004565
 30
0.0
  0
LINE
  5
39CE8
102
{ACAD_REACTORS
330
39E39
102
}
330
1F
100
AcDbEntity
  8
SEIHIN
  6
Continuous
 62
     3
100
AcDbLine
 10
28228.78316968376
 20
-3946.717836569937
 30
0.0
 11
28191.11079231829
 21
-3946.717836569913
 31
0.0
  0
SPLINE
  5
39CE9
102
{ACAD_REACTORS
330
39E39
102
}
330
1F
100
AcDbEntity
  8
SEIHIN
  6
Continuous
 62
     3
100
AcDbSpline
210
0.0
220
0.0
230
1.0
 70
     8
 71
     3
 72
     8
 73
     4
 74
     0
 42
0.0000000001
 43
0.0000000001
 40
0.0
 40
0.0
 40
0.0
 40
0.0
 40
1.0
 40
1.0
 40
1.0
 40
1.0
 10
28259.77883454186
 20
-4196.70033309532
 30
0.0
 10
28259.91646340955
 20
-4196.729873024511
 30
0.0
 10
28260.05092121374
 20
-4196.774049878221
 30
0.0
 10
28260.17927667522
 20
-4196.831900577183
 30
0.0
  0
SPLINE
  5
39CEA
102
{ACAD_REACTORS
330
39E39
102
}
330
1F
100
AcDbEntity
  8
SEIHIN
  6
Continuous
 62
     3
100
AcDbSpline
210
0.0
220
0.0
230
1.0
 70
     8
 71
     3
 72
     8
 73
     4
 74
     0
 42
0.0000000001
 43
0.0000000001
 40
0.0
 40
0.0
 40
0.0
 40
0.0
 40
1.0
 40
1.0
 40
1.0
 40
1.0
 10
28259.35967210162
 20
-4196.655985004564
 30
0.0
 10
28259.50046209067
 20
-4196.655902255627
 30
0.0
 10
28259.64120567417
 20
-4196.670793166131
 30
0.0
 10
28259.77883454186
 20
-4196.70033309532
 30
0.0
  0
SPLINE
  5
39CEB
102
{ACAD_REACTORS
330
39E39
102
}
330
1F
100
AcDbEntity
  8
SEIHIN
  6
Continuous
 62
     3
100
AcDbSpline
210
0.0
220
0.0
230
1.0
 70
     8
 71
     3
 72
     8
 73
     4
 74
     0
 42
0.0000000001
 43
0.0000000001
 40
0.0
 40
0.0
 40
0.0
 40
0.0
 40
1.0
 40
1.0
 40
1.0
 40
1.0
 10
28517.76778702167
 20
-4196.70033309532
 30
0.0
 10
28517.90541588936
 20
-4196.670793166131
 30
0.0
 10
28518.04615947285
 20
-4196.655902255627
 30
0.0
 10
28518.18694946191
 20
-4196.655985004564
 30
0.0
  0
SPLINE
  5
39CEC
102
{ACAD_REACTORS
330
39E39
102
}
330
1F
100
AcDbEntity
  8
SEIHIN
  6
Continuous
 62
     3
100
AcDbSpline
210
0.0
220
0.0
230
1.0
 70
     8
 71
     3
 72
     8
 73
     4
 74
     0
 42
0.0000000001
 43
0.0000000001
 40
0.0
 40
0.0
 40
0.0
 40
0.0
 40
1.0
 40
1.0
 40
1.0
 40
1.0
 10
28517.3673448883
 20
-4196.831900577183
 30
0.0
 10
28517.49570034979
 20
-4196.774049878221
 30
0.0
 10
28517.63015815398
 20
-4196.729873024511
 30
0.0
 10
28517.76778702167
 20
-4196.70033309532
 30
0.0
  0
SPLINE
  5
39CED
102
{ACAD_REACTORS
330
39E39
102
}
330
1F
100
AcDbEntity
  8
SEIHIN
  6
Continuous
 62
     3
100
AcDbSpline
210
0.0
220
0.0
230
1.0
 70
     8
 71
     3
 72
    20
 73
    16
 74
     0
 42
0.0000000001
 43
0.0000000001
 40
0.0
 40
0.0
 40
0.0
 40
0.0
 40
0.0405138494084713
 40
0.0807593199287654
 40
0.1208736062351933
 40
0.1609952487653632
 40
0.2012627120295167
 40
0.2418129667896312
 40
0.3708251611130773
 40
0.5000490957799633
 40
0.6290300819113427
 40
0.7582852185320822
 40
0.8389636052697417
 40
0.919164841219545
 40
1.0
 40
1.0
 40
1.0
 40
1.0
 10
28204.81720627262
 20
-3976.565318324751
 30
0.0
 10
28204.80911333692
 20
-3976.507300254193
 30
0.0
 10
28204.79298107616
 20
-3976.39164844647
 30
0.0
 10
28204.75618945724
 20
-3976.220688497259
 30
0.0
 10
28204.71027499218
 20
-3976.052609334471
 30
0.0
 10
28204.65435029124
 20
-3975.887529615555
 30
0.0
 10
28204.58863574538
 20
-3975.725413729227
 30
0.0
 10
28204.45857726506
 20
-3975.451302173718
 30
0.0
 10
28204.22652533043
 20
-3975.083613774744
 30
0.0
 10
28203.84068683662
 20
-3974.673715672855
 30
0.0
 10
28203.38657638925
 20
-3974.340449944199
 30
0.0
 10
28202.94069181657
 20
-3974.129833940918
 30
0.0
 10
28202.53841001323
 20
-3974.009109797646
 30
0.0
 10
28202.19348292535
 20
-3973.945995163457
 30
0.0
 10
28201.96056564866
 20
-3973.938366201927
 30
0.0
 10
28201.84364856867
 20
-3973.934536705385
 30
0.0
  0
SPLINE
  5
39CEE
102
{ACAD_REACTORS
330
39E39
102
}
330
1F
100
AcDbEntity
  8
SEIHIN
  6
Continuous
 62
     3
100
AcDbSpline
210
0.0
220
0.0
230
1.0
 70
     8
 71
     3
 72
    20
 73
    16
 74
     0
 42
0.0000000001
 43
0.0000000001
 40
0.0
 40
0.0
 40
0.0
 40
0.0
 40
0.0405138494131014
 40
0.0807593199361675
 40
0.1208736062434859
 40
0.1609952487727275
 40
0.2012627120341754
 40
0.2418129667898361
 40
0.370825161102304
 40
0.5000490957790131
 40
0.6290300818788621
 40
0.7582852185313525
 40
0.8389636052580314
 40
0.9191648412079217
 40
1.0
 40
1.0
 40
1.0
 40
1.0
 10
28236.12188223067
 20
-4209.934536705385
 30
0.0
 10
28236.06331033724
 20
-4209.933574717521
 30
0.0
 10
28235.94655455251
 20
-4209.931657114359
 30
0.0
 10
28235.77238514234
 20
-4209.915974511806
 30
0.0
 10
28235.59996325037
 20
-4209.890885983861
 30
0.0
 10
28235.42929850397
 20
-4209.855496294568
 30
0.0
 10
28235.26038241622
 20
-4209.810028532029
 30
0.0
 10
28234.97246390485
 20
-4209.714345283942
 30
0.0
 10
28234.57923618207
 20
-4209.528832974011
 30
0.0
 10
28234.12537151371
 20
-4209.195824475619
 30
0.0
 10
28233.73924775411
 20
-4208.785713775202
 30
0.0
 10
28233.4758619894
 20
-4208.368820393242
 30
0.0
 10
28233.3070118853
 20
-4207.984249709958
 30
0.0
 10
28233.20233165943
 20
-4207.64958539558
 30
0.0
 10
28233.16637408685
 20
-4207.419333985565
 30
0.0
 10
28233.14832452672
 20
-4207.30375508602
 30
0.0
  0
SPLINE
  5
39CEF
102
{ACAD_REACTORS
330
39E39
102
}
330
1F
100
AcDbEntity
  8
SEIHIN
  6
Continuous
 62
     3
100
AcDbSpline
210
0.0
220
0.0
230
1.0
 70
     8
 71
     3
 72
    20
 73
    16
 74
     0
 42
0.0000000001
 43
0.0000000001
 40
0.0
 40
0.0
 40
0.0
 40
0.0
 40
0.0405138494179294
 40
0.0807593199432321
 40
0.1208736062503514
 40
0.1609952487770392
 40
0.2012627120337652
 40
0.2418129667827544
 40
0.3708251611171567
 40
0.5000490957791067
 40
0.6290300819054714
 40
0.7582852185388359
 40
0.8389636052760064
 40
0.9191648412232954
 40
1.0
 40
1.0
 40
1.0
 40
1.0
 10
28581.82401499778
 20
-3923.934536705385
 30
0.0
 10
28581.76544310432
 20
-3923.935498693251
 30
0.0
 10
28581.64868731953
 20
-3923.937416296415
 30
0.0
 10
28581.47451790928
 20
-3923.95309889898
 30
0.0
 10
28581.30209601723
 20
-3923.978187426943
 30
0.0
 10
28581.13143127078
 20
-3924.013577116265
 30
0.0
 10
28580.96251518297
 20
-3924.059044878838
 30
0.0
 10
28580.67459667149
 20
-3924.154728127022
 30
0.0
 10
28580.28136894858
 20
-3924.340240437101
 30
0.0
 10
28579.82750428008
 20
-3924.673248935793
 30
0.0
 10
28579.44138052046
 20
-3925.083359636511
 30
0.0
 10
28579.17799475581
 20
-3925.500253018793
 30
0.0
 10
28579.00914465187
 20
-3925.88482370232
 30
0.0
 10
28578.90446442613
 20
-3926.219488016883
 30
0.0
 10
28578.86850685367
 20
-3926.449739426993
 30
0.0
 10
28578.8504572936
 20
-3926.565318326574
 30
0.0
  0
SPLINE
  5
39CF0
102
{ACAD_REACTORS
330
39E39
102
}
330
1F
100
AcDbEntity
  8
SEIHIN
  6
Continuous
 62
     3
100
AcDbSpline
210
0.0
220
0.0
230
1.0
 70
     8
 71
     3
 72
    20
 73
    16
 74
     0
 42
0.0000000001
 43
0.0000000001
 40
0.0
 40
0.0
 40
0.0
 40
0.0
 40
0.0405138494234228
 40
0.0807593199520277
 40
0.1208736062602805
 40
0.1609952487859612
 40
0.2012627120395982
 40
0.2418129667834826
 40
0.3708251611259874
 40
0.500049095779584
 40
0.6290300819105649
 40
0.7582852185396562
 40
0.8389636052816822
 40
0.9191648412287701
 40
1.0
 40
1.0
 40
1.0
 40
1.0
 10
28544.38011103669
 20
-4207.303755084196
 30
0.0
 10
28544.37201810101
 20
-4207.361773154805
 30
0.0
 10
28544.35588584031
 20
-4207.477424962621
 30
0.0
 10
28544.31909422147
 20
-4207.648384911963
 30
0.0
 10
28544.27317975649
 20
-4207.816464074856
 30
0.0
 10
28544.21725505562
 20
-4207.981543793851
 30
0.0
 10
28544.15154050982
 20
-4208.143659680239
 30
0.0
 10
28544.02148202955
 20
-4208.417771235898
 30
0.0
 10
28543.78943009495
 20
-4208.785459635097
 30
0.0
 10
28543.40359160115
 20
-4209.195357737331
 30
0.0
 10
28542.94948115369
 20
-4209.528623466264
 30
0.0
 10
28542.50359658083
 20
-4209.739239469704
 30
0.0
 10
28542.10131477731
 20
-4209.859963613062
 30
0.0
 10
28541.7563876893
 20
-4209.923078247304
 30
0.0
 10
28541.52347041253
 20
-4209.930707208841
 30
0.0
 10
28541.4065533325
 20
-4209.934536705385
 30
0.0
  0
SPLINE
  5
39CF1
102
{ACAD_REACTORS
330
39E39
102
}
330
1F
100
AcDbEntity
  8
SEIHIN
  6
Continuous
 62
     3
100
AcDbSpline
210
0.0
220
0.0
230
1.0
 70
     8
 71
     3
 72
    22
 73
    18
 74
     0
 42
0.0000000001
 43
0.0000000001
 40
0.0
 40
0.0
 40
0.0
 40
0.0
 40
0.0345706864705795
 40
0.0688947596491363
 40
0.1030715121483368
 40
0.1372015223816039
 40
0.1713857813461828
 40
0.2057248014064127
 40
0.2403177459434406
 40
0.370078179830855
 40
0.5000273210959886
 40
0.6297525282529876
 40
0.7597370720860982
 40
0.8200082830538951
 40
0.8797819179035874
 40
0.9395991548187975
 40
1.0
 40
1.0
 40
1.0
 40
1.0
 10
28191.11079231829
 20
-3973.934536705385
 30
0.0
 10
28191.05660003499
 20
-3973.933718055891
 30
0.0
 10
28190.94860205423
 20
-3973.932086596818
 30
0.0
 10
28190.7874835424
 20
-3973.918742331324
 30
0.0
 10
28190.62798138339
 20
-3973.897395165365
 30
0.0
 10
28190.47009834006
 20
-3973.867278162667
 30
0.0
 10
28190.31384261517
 20
-3973.828601165761
 30
0.0
 10
28190.15920312348
 20
-3973.781292685595
 30
0.0
 10
28189.86661590256
 20
-3973.674457601223
 30
0.0
 10
28189.45320443317
 20
-3973.46155396211
 30
0.0
 10
28188.97783144148
 20
-3973.072127972518
 30
0.0
 10
28188.5880128918
 20
-3972.596519756346
 30
0.0
 10
28188.35671708625
 20
-3972.147145699479
 30
0.0
 10
28188.22902546795
 20
-3971.776156886548
 30
0.0
 10
28188.16334524978
 20
-3971.501620198464
 30
0.0
 10
28188.12236523111
 20
-3971.221859489605
 30
0.0
 10
28188.11739892284
 20
-3971.033356930852
 30
0.0
 10
28188.11490371402
 20
-3970.938648101123
 30
0.0
  0
SPLINE
  5
39CF2
102
{ACAD_REACTORS
330
39E39
102
}
330
1F
100
AcDbEntity
  8
SEIHIN
  6
Continuous
 62
     3
100
AcDbSpline
210
0.0
220
0.0
230
1.0
 70
     8
 71
     3
 72
    22
 73
    18
 74
     0
 42
0.0000000001
 43
0.0000000001
 40
0.0
 40
0.0
 40
0.0
 40
0.0
 40
0.0345706864737209
 40
0.0688947596543628
 40
0.1030715121546085
 40
0.1372015223878209
 40
0.1713857813513506
 40
0.2057248014095314
 40
0.2403177459435513
 40
0.3700781798554073
 40
0.5000273210966821
 40
0.6297525282768063
 40
0.759737072086324
 40
0.8200082830581632
 40
0.8797819179092511
 40
0.9395991548230625
 40
1.0
 40
1.0
 40
1.0
 40
1.0
 10
28595.5345748495
 20
-3920.938648101123
 30
0.0
 10
28595.5337562
 20
-3920.992840384425
 30
0.0
 10
28595.53212474093
 20
-3921.1008383652
 30
0.0
 10
28595.51878047544
 20
-3921.261956877041
 30
0.0
 10
28595.49743330948
 20
-3921.421459036049
 30
0.0
 10
28595.46731630678
 20
-3921.57934207938
 30
0.0
 10
28595.42863930987
 20
-3921.735597804266
 30
0.0
 10
28595.38133082971
 20
-3921.890237295943
 30
0.0
 10
28595.27449574531
 20
-3922.182824516888
 30
0.0
 10
28595.06159210622
 20
-3922.596235986285
 30
0.0
 10
28594.67216611658
 20
-3923.071608977984
 30
0.0
 10
28594.19655790041
 20
-3923.461427527613
 30
0.0
 10
28593.74718384355
 20
-3923.692723333181
 30
0.0
 10
28593.37619503064
 20
-3923.820414951463
 30
0.0
 10
28593.10165834255
 20
-3923.886095169624
 30
0.0
 10
28592.8218976337
 20
-3923.927075188296
 30
0.0
 10
28592.63339507495
 20
-3923.932041496576
 30
0.0
 10
28592.53868624524
 20
-3923.934536705385
 30
0.0
  0
SPLINE
  5
39CF3
102
{ACAD_REACTORS
330
39E39
102
}
330
1F
100
AcDbEntity
  8
SEIHIN
  6
Continuous
 62
     3
100
AcDbSpline
210
0.0
220
0.0
230
1.0
 70
     8
 71
     3
 72
    22
 73
    18
 74
     0
 42
0.0000000001
 43
0.0000000001
 40
0.0
 40
0.0
 40
0.0
 40
0.0
 40
0.0345706864687676
 40
0.0688947596461061
 40
0.1030715121447302
 40
0.1372015223779934
 40
0.1713857813431765
 40
0.2057248014045834
 40
0.2403177459433348
 40
0.3700781798214544
 40
0.5000273210959876
 40
0.6297525282672363
 40
0.7597370720872402
 40
0.8200082830690213
 40
0.8797819179234579
 40
0.9395991548337059
 40
1.0
 40
1.0
 40
1.0
 40
1.0
 10
28188.11490371402
 20
-3949.713725174176
 30
0.0
 10
28188.11572236352
 20
-3949.659532890883
 30
0.0
 10
28188.11735382259
 20
-3949.551534910119
 30
0.0
 10
28188.13069808809
 20
-3949.390416398294
 30
0.0
 10
28188.15204525405
 20
-3949.230914239294
 30
0.0
 10
28188.18216225674
 20
-3949.073031195962
 30
0.0
 10
28188.22083925365
 20
-3948.916775471069
 30
0.0
 10
28188.26814773382
 20
-3948.762135979377
 30
0.0
 10
28188.37498281818
 20
-3948.469548758462
 30
0.0
 10
28188.5878864573
 20
-3948.056137289071
 30
0.0
 10
28188.9773124469
 20
-3947.580764297366
 30
0.0
 10
28189.45292066306
 20
-3947.190945747646
 30
0.0
 10
28189.90229471997
 20
-3946.959649942112
 30
0.0
 10
28190.27328353292
 20
-3946.831958323841
 30
0.0
 10
28190.54782022102
 20
-3946.766278105677
 30
0.0
 10
28190.82758092986
 20
-3946.725298087002
 30
0.0
 10
28191.01608348858
 20
-3946.720331778723
 30
0.0
 10
28191.11079231829
 20
-3946.717836569911
 30
0.0
  0
SPLINE
  5
39CF4
102
{ACAD_REACTORS
330
39E39
102
}
330
1F
100
AcDbEntity
  8
SEIHIN
  6
Continuous
 62
     3
100
AcDbSpline
210
0.0
220
0.0
230
1.0
 70
     8
 71
     3
 72
    22
 73
    18
 74
     0
 42
0.0000000001
 43
0.0000000001
 40
0.0
 40
0.0
 40
0.0
 40
0.0
 40
0.0345706864817916
 40
0.0688947596678181
 40
0.1030715121707685
 40
0.1372015224040679
 40
0.1713857813650839
 40
0.2057248014182461
 40
0.240317745944836
 40
0.370078179866151
 40
0.5000273210970052
 40
0.6297525282808401
 40
0.7597370720872113
 40
0.8200082830657125
 40
0.8797819179190071
 40
0.9395991548303413
 40
1.0
 40
1.0
 40
1.0
 40
1.0
 10
28592.53868624524
 20
-3897.217836569914
 30
0.0
 10
28592.59287852855
 20
-3897.218655219406
 30
0.0
 10
28592.70087650934
 20
-3897.220286678481
 30
0.0
 10
28592.86199502122
 20
-3897.233630943973
 30
0.0
 10
28593.02149718023
 20
-3897.254978109932
 30
0.0
 10
28593.17938022357
 20
-3897.28509511263
 30
0.0
 10
28593.33563594844
 20
-3897.323772109536
 30
0.0
 10
28593.49027544009
 20
-3897.371080589699
 30
0.0
 10
28593.78286266102
 20
-3897.477915674123
 30
0.0
 10
28594.1962741304
 20
-3897.690819313228
 30
0.0
 10
28594.67164712211
 20
-3898.08024530285
 30
0.0
 10
28595.06146567174
 20
-3898.555853518991
 30
0.0
 10
28595.29276147731
 20
-3899.005227575874
 30
0.0
 10
28595.42045309557
 20
-3899.376216388794
 30
0.0
 10
28595.48613331373
 20
-3899.650753076894
 30
0.0
 10
28595.52711333241
 20
-3899.930513785736
 30
0.0
 10
28595.53207964069
 20
-3900.119016344465
 30
0.0
 10
28595.5345748495
 20
-3900.213725174176
 30
0.0
  0
SPLINE
  5
39CF5
102
{ACAD_REACTORS
330
39E39
102
}
330
1F
100
AcDbEntity
  8
SEIHIN
  6
Continuous
 62
     3
100
AcDbSpline
210
0.0
220
0.0
230
1.0
 70
     8
 71
     3
 72
    11
 73
     7
 74
     0
 42
0.0000000001
 43
0.0000000001
 40
0.0
 40
0.0
 40
0.0
 40
0.0
 40
0.2656499870563123
 40
0.5278087923612769
 40
0.7754772033015817
 40
0.9999999999999998
 40
0.9999999999999998
 40
0.9999999999999998
 40
0.9999999999999998
 10
28229.0219778618
 20
-3946.808409744269
 30
0.0
 10
28229.00927847324
 20
-3946.80939097976
 30
0.0
 10
28228.98404659195
 20
-3946.811340555311
 30
0.0
 10
28228.94768124984
 20
-3946.802240712265
 30
0.0
 10
28228.91592261012
 20
-3946.786582634994
 30
0.0
 10
28228.89929807106
 20
-3946.771265547165
 30
0.0
 10
28228.89139324788
 20
-3946.763982405632
 30
0.0
  0
TEXT
  5
39CF6
330
1F
100
AcDbEntity
  8
ZUWAKU
  6
Continuous
 62
     4
100
AcDbText
 10
29288.84117943224
 20
-4380.22257582977
 30
0.0
 40
16.0
  1
右
100
AcDbText
  0
TEXT
  5
39CF7
330
1F
100
AcDbEntity
  8
ZUWAKU
  6
Continuous
 62
     4
100
AcDbText
 10
28383.03537690853
 20
-4380.22257582977
 30
0.0
 40
16.0
  1
左
100
AcDbText
  0
SPLINE
  5
39CF8
330
1F
100
AcDbEntity
  8
SEIHIN
  6
Continuous
 62
     3
100
AcDbSpline
210
0.0
220
0.0
230
1.0
 70
     8
 71
     3
 72
    11
 73
     7
 74
     0
 42
0.0000000001
 43
0.0000000001
 40
0.0
 40
0.0
 40
0.0
 40
0.0
 40
0.2913216641411484
 40
0.6024090590351282
 40
0.817264948738912
 40
1.0
 40
1.0
 40
1.0
 40
1.0
 10
28227.62894988754
 20
-3747.777543155334
 30
0.0
 10
28227.74818375435
 20
-3750.040749819733
 30
0.0
 10
28227.99474132404
 20
-3754.720718270147
 30
0.0
 10
28228.33719742638
 20
-3761.069427184729
 30
0.0
 10
28228.63851427159
 20
-3766.574373149632
 30
0.0
 10
28228.81176584441
 20
-3769.662589173659
 30
0.0
 10
28228.8913932498
 20
-3771.081950772006
 30
0.0
  0
SPLINE
  5
39CF9
330
1F
100
AcDbEntity
  8
SEIHIN
  6
Continuous
 62
     3
100
AcDbSpline
210
0.0
220
0.0
230
1.0
 70
    24
 71
     3
 72
    10
 73
     6
 74
     0
 42
0.0000000001
 43
0.0000000001
 40
0.0
 40
0.0
 40
0.0
 40
0.0
 40
0.5
 40
0.5
 40
1.0
 40
1.0
 40
1.0
 40
1.0
 10
28192.0068705536
 20
-3726.081950772219
 30
0.0
 10
28191.81980353542
 20
-3726.081950772219
 30
0.0
 10
28191.6754274838
 20
-3726.081950772219
 30
0.0
 10
28191.47286017554
 20
-3726.081950772219
 30
0.0
 10
28191.42221834848
 20
-3726.081950772219
 30
0.0
 10
28191.42221834848
 20
-3726.081950772219
 30
0.0
  0
SPLINE
  5
39CFA
330
1F
100
AcDbEntity
  8
SEIHIN
  6
Continuous
 62
     3
100
AcDbSpline
210
0.0
220
0.0
230
1.0
 70
     8
 71
     3
 72
    14
 73
    10
 74
     0
 42
0.0000000001
 43
0.0000000001
 40
0.0
 40
0.0
 40
0.0
 40
0.0
 40
0.25
 40
0.25
 40
0.5
 40
0.5
 40
0.75
 40
0.75
 40
1.0
 40
1.0
 40
1.0
 40
1.0
 10
28190.42358881372
 20
-3727.029614815976
 30
0.0
 10
28190.42959309621
 20
-3726.915046281032
 30
0.0
 10
28190.45633656287
 20
-3726.793108130423
 30
0.0
 10
28190.56012240009
 20
-3726.559314884379
 30
0.0
 10
28190.63739876288
 20
-3726.448118277537
 30
0.0
 10
28190.83032878269
 20
-3726.265034524878
 30
0.0
 10
28190.94541733079
 20
-3726.193683647415
 30
0.0
 10
28191.18432190235
 20
-3726.102275838174
 30
0.0
 10
28191.30749258586
 20
-3726.081950772219
 30
0.0
 10
28191.42221834848
 20
-3726.081950772219
 30
0.0
  0
SPLINE
  5
39CFB
330
1F
100
AcDbEntity
  8
SEIHIN
  6
Continuous
 62
     3
100
AcDbSpline
210
0.0
220
0.0
230
1.0
 70
    24
 71
     3
 72
     8
 73
     4
 74
     0
 42
0.0000000001
 43
0.0000000001
 40
0.0
 40
0.0
 40
0.0
 40
0.0
 40
1.0
 40
1.0
 40
1.0
 40
1.0
 10
28225.94170669364
 20
-3726.081950772219
 30
0.0
 10
28226.19325379447
 20
-3726.081950772219
 30
0.0
 10
28226.53423264349
 20
-3726.081950772219
 30
0.0
 10
28226.86258997602
 20
-3726.081950772219
 30
0.0
  0
SPLINE
  5
39CFC
330
1F
100
AcDbEntity
  8
SEIHIN
  6
Continuous
 62
     3
100
AcDbSpline
210
0.0
220
0.0
230
1.0
 70
    24
 71
     3
 72
     8
 73
     4
 74
     0
 42
0.0000000001
 43
0.0000000001
 40
0.0
 40
0.0
 40
0.0
 40
0.0
 40
1.0
 40
1.0
 40
1.0
 40
1.0
 10
28225.76558573294
 20
-3726.081950772219
 30
0.0
 10
28225.81663823006
 20
-3726.081950772219
 30
0.0
 10
28225.87561192413
 20
-3726.081950772219
 30
0.0
 10
28225.94170669364
 20
-3726.081950772219
 30
0.0
  0
SPLINE
  5
39CFD
330
1F
100
AcDbEntity
  8
SEIHIN
  6
Continuous
 62
     3
100
AcDbSpline
210
0.0
220
0.0
230
1.0
 70
     8
 71
     3
 72
    19
 73
    15
 74
     0
 42
0.0000000001
 43
0.0000000001
 40
0.0
 40
0.0
 40
0.0
 40
0.0
 40
0.0990096961492502
 40
0.1987865918830265
 40
0.2991188537451234
 40
0.3996528865990346
 40
0.4998953665024948
 40
0.6226005034445413
 40
0.7454943805120333
 40
0.872483393020726
 40
0.936415907099181
 40
0.9684203179650047
 40
0.9844244216687577
 40
0.9999999999999998
 40
0.9999999999999998
 40
0.9999999999999998
 40
0.9999999999999998
 10
28226.34347377474
 20
-3726.483285836409
 30
0.0
 10
28226.32443665872
 20
-3726.458760350146
 30
0.0
 10
28226.28621491317
 20
-3726.409519336205
 30
0.0
 10
28226.22627934523
 20
-3726.34346091599
 30
0.0
 10
28226.16563644983
 20
-3726.283562717295
 30
0.0
 10
28226.10503692903
 20
-3726.230945370989
 30
0.0
 10
28226.04053406552
 20
-3726.182391555598
 30
0.0
 10
28225.97278596106
 20
-3726.140350627474
 30
0.0
 10
28225.90204042384
 20
-3726.10724703611
 30
0.0
 10
28225.84424671663
 20
-3726.090114363498
 30
0.0
 10
28225.8044902707
 20
-3726.083984091844
 30
0.0
 10
28225.7849512021
 20
-3726.082458213645
 30
0.0
 10
28225.77386454938
 20
-3726.08201140235
 30
0.0
 10
28225.76857512948
 20
-3726.081970798603
 30
0.0
 10
28225.76596630733
 20
-3726.081950772219
 30
0.0
  0
SPLINE
  5
39CFE
330
1F
100
AcDbEntity
  8
SEIHIN
  6
Continuous
 62
     3
100
AcDbSpline
210
0.0
220
0.0
230
1.0
 70
    24
 71
     3
 72
    10
 73
     6
 74
     0
 42
0.0000000001
 43
0.0000000001
 40
0.0
 40
0.0
 40
0.0
 40
0.0
 40
0.5
 40
0.5
 40
1.0
 40
1.0
 40
1.0
 40
1.0
 10
28193.41947741799
 20
-3726.081950772219
 30
0.0
 10
28193.15456263971
 20
-3726.081950772219
 30
0.0
 10
28192.8993291719
 20
-3726.081950772219
 30
0.0
 10
28192.41016363198
 20
-3726.081950772219
 30
0.0
 10
28192.19420501587
 20
-3726.081950772219
 30
0.0
 10
28192.0068705536
 20
-3726.081950772219
 30
0.0
  0
SPLINE
  5
39CFF
330
1F
100
AcDbEntity
  8
SEIHIN
  6
Continuous
 62
     3
100
AcDbSpline
210
0.0
220
0.0
230
1.0
 70
     8
 71
     3
 72
     8
 73
     4
 74
     0
 42
0.0000000001
 43
0.0000000001
 40
0.0
 40
0.0
 40
0.0
 40
0.0
 40
1.0
 40
1.0
 40
1.0
 40
1.0
 10
28226.34347377474
 20
-3726.48328583641
 30
0.0
 10
28226.46148108414
 20
-3726.641176832208
 30
0.0
 10
28226.53079109275
 20
-3726.832837597126
 30
0.0
 10
28226.5411037498
 20
-3727.029614815976
 30
0.0
  0
LINE
  5
39D00
330
1F
100
AcDbEntity
  8
SEIHIN
  6
Continuous
 62
     3
100
AcDbLine
 10
28193.41947741799
 20
-3726.081950772219
 30
0.0
 11
28225.76558573294
 21
-3726.081950772219
 31
0.0
  0
LINE
  5
39D01
330
1F
100
AcDbEntity
  8
SEIHIN
  6
Continuous
 62
     3
100
AcDbLine
 10
28226.5411037498
 20
-3727.029614815976
 30
0.0
 11
28227.57442987846
 21
-3746.746651919956
 31
0.0
  0
SPLINE
  5
39D02
330
1F
100
AcDbEntity
  8
SEIHIN
  6
Continuous
 62
     3
100
AcDbSpline
210
0.0
220
0.0
230
1.0
 70
     8
 71
     3
 72
    11
 73
     7
 74
     0
 42
0.0000000001
 43
0.0000000001
 40
0.0
 40
0.0
 40
0.0
 40
0.0
 40
0.2656499870563123
 40
0.5278087923612769
 40
0.7754772033015817
 40
0.9999999999999998
 40
0.9999999999999998
 40
0.9999999999999998
 40
0.9999999999999998
 10
28229.0219778618
 20
-3771.081950772219
 30
0.0
 10
28229.00927847324
 20
-3771.081969349545
 30
0.0
 10
28228.98404659195
 20
-3771.08200626005
 30
0.0
 10
28228.94768124984
 20
-3771.082077165711
 30
0.0
 10
28228.91592261012
 20
-3771.08200438807
 30
0.0
 10
28228.89929807106
 20
-3771.081968050442
 30
0.0
 10
28228.89139324788
 20
-3771.081950772219
 30
0.0
  0
SPLINE
  5
39D03
330
1F
100
AcDbEntity
  8
SEIHIN
  6
Continuous
 62
     3
100
AcDbSpline
210
0.0
220
0.0
230
1.0
 70
    24
 71
     3
 72
    10
 73
     6
 74
     0
 42
0.0000000001
 43
0.0000000001
 40
0.0
 40
0.0
 40
0.0
 40
0.0
 40
0.337854553633112
 40
0.6625928579346049
 40
1.0
 40
1.0
 40
1.0
 40
1.0
 10
28228.78316968376
 20
-3771.081950772219
 30
0.0
 10
28228.79679957384
 20
-3771.081950772219
 30
0.0
 10
28228.82353021199
 20
-3771.081950772219
 30
0.0
 10
28228.86148050553
 20
-3771.081950772219
 30
0.0
 10
28228.8812959586
 20
-3771.081950772219
 30
0.0
 10
28228.8913932498
 20
-3771.081950772219
 30
0.0
  0
LINE
  5
39D04
330
1F
100
AcDbEntity
  8
SEIHIN
  6
Continuous
 62
     3
100
AcDbLine
 10
28227.57442987846
 20
-3746.746651919956
 30
0.0
 11
28227.62894988754
 21
-3747.777543155334
 31
0.0
  0
LINE
  5
39D05
330
1F
100
AcDbEntity
  8
SEIHIN
  6
Continuous
 62
     3
100
AcDbLine
 10
28228.78316968376
 20
-3771.081950771741
 30
0.0
 11
28191.11079231829
 21
-3771.081950772219
 31
0.0
  0
SPLINE
  5
39D06
330
1F
100
AcDbEntity
  8
SEIHIN
  6
Continuous
 62
     3
100
AcDbSpline
210
0.0
220
0.0
230
1.0
 70
    24
 71
     3
 72
    22
 73
    18
 74
     0
 42
0.0000000001
 43
0.0000000001
 40
0.0
 40
0.0
 40
0.0
 40
0.0
 40
0.0345706864687676
 40
0.0688947596461061
 40
0.1030715121447302
 40
0.1372015223779934
 40
0.1713857813431765
 40
0.2057248014045834
 40
0.2403177459433348
 40
0.3700781798214544
 40
0.5000273210959876
 40
0.6297525282672363
 40
0.7597370720872402
 40
0.8200082830690213
 40
0.8797819179234579
 40
0.9395991548337059
 40
1.0
 40
1.0
 40
1.0
 40
1.0
 10
28188.11490371402
 20
-3771.081950772219
 30
0.0
 10
28188.11572236352
 20
-3771.081950772219
 30
0.0
 10
28188.11735382259
 20
-3771.081950772219
 30
0.0
 10
28188.13069808809
 20
-3771.081950772219
 30
0.0
 10
28188.15204525405
 20
-3771.081950772219
 30
0.0
 10
28188.18216225674
 20
-3771.081950772219
 30
0.0
 10
28188.22083925365
 20
-3771.081950772219
 30
0.0
 10
28188.26814773382
 20
-3771.081950772219
 30
0.0
 10
28188.37498281818
 20
-3771.081950772219
 30
0.0
 10
28188.5878864573
 20
-3771.081950772219
 30
0.0
 10
28188.9773124469
 20
-3771.081950772219
 30
0.0
 10
28189.45292066306
 20
-3771.081950772219
 30
0.0
 10
28189.90229471997
 20
-3771.081950772219
 30
0.0
 10
28190.27328353292
 20
-3771.081950772219
 30
0.0
 10
28190.54782022103
 20
-3771.081950772219
 30
0.0
 10
28190.82758092986
 20
-3771.081950772219
 30
0.0
 10
28191.01608348858
 20
-3771.081950772219
 30
0.0
 10
28191.11079231829
 20
-3771.081950772219
 30
0.0
  0
LINE
  5
39D07
330
1F
100
AcDbEntity
  8
SEIHIN
  6
Continuous
 62
     3
100
AcDbLine
 10
28188.11490371402
 20
-3771.081950772219
 30
0.0
 11
28190.42358881372
 21
-3727.029614815976
 31
0.0
  0
SPLINE
  5
39D08
330
1F
100
AcDbEntity
  8
SEIHIN
  6
Continuous
 62
     3
100
AcDbSpline
210
0.0
220
0.0
230
1.0
 70
    24
 71
     3
 72
    10
 73
     6
 74
     0
 42
0.0000000001
 43
0.0000000001
 40
0.0
 40
0.0
 40
0.0
 40
0.0
 40
0.5
 40
0.5
 40
1.0
 40
1.0
 40
1.0
 40
1.0
 10
28592.22726021505
 20
-3726.081950772219
 30
0.0
 10
28592.22726021505
 20
-3726.081950772219
 30
0.0
 10
28592.1764847542
 20
-3726.081950772219
 30
0.0
 10
28591.97418471351
 20
-3726.081950772219
 30
0.0
 10
28591.8299424722
 20
-3726.081950772219
 30
0.0
 10
28591.64260800993
 20
-3726.081950772219
 30
0.0
  0
SPLINE
  5
39D09
330
1F
100
AcDbEntity
  8
SEIHIN
  6
Continuous
 62
     3
100
AcDbSpline
210
0.0
220
0.0
230
1.0
 70
     8
 71
     3
 72
    14
 73
    10
 74
     0
 42
0.0000000001
 43
0.0000000001
 40
0.0
 40
0.0
 40
0.0
 40
0.0
 40
0.25
 40
0.25
 40
0.5
 40
0.5
 40
0.75
 40
0.75
 40
1.0
 40
1.0
 40
1.0
 40
1.0
 10
28593.2258897498
 20
-3727.029614815976
 30
0.0
 10
28593.21988546731
 20
-3726.915046281032
 30
0.0
 10
28593.19314200065
 20
-3726.793108130423
 30
0.0
 10
28593.08935616343
 20
-3726.559314884379
 30
0.0
 10
28593.01207980065
 20
-3726.448118277537
 30
0.0
 10
28592.81914978083
 20
-3726.265034524878
 30
0.0
 10
28592.70406123274
 20
-3726.193683647415
 30
0.0
 10
28592.46515666118
 20
-3726.102275838174
 30
0.0
 10
28592.34198597766
 20
-3726.081950772219
 30
0.0
 10
28592.22726021505
 20
-3726.081950772219
 30
0.0
  0
LINE
  5
39D0A
330
1F
100
AcDbEntity
  8
SEIHIN
  6
Continuous
 62
     3
100
AcDbLine
 10
28557.21044836175
 20
-3726.081950772219
 30
0.0
 11
28226.86258997602
 21
-3726.081950772219
 31
0.0
  0
LINE
  5
39D0B
330
1F
100
AcDbEntity
  8
SEIHIN
  6
Continuous
 62
     3
100
AcDbLine
 10
28557.24766735262
 20
-3726.081950772219
 30
0.0
 11
28557.21044836175
 21
-3726.081950772219
 31
0.0
  0
LINE
  5
39D0C
330
1F
100
AcDbEntity
  8
SEIHIN
  6
Continuous
 62
     3
100
AcDbLine
 10
28557.28509696871
 20
-3726.081950772219
 30
0.0
 11
28557.24766735262
 21
-3726.081950772219
 31
0.0
  0
SPLINE
  5
39D0D
330
1F
100
AcDbEntity
  8
SEIHIN
  6
Continuous
 62
     3
100
AcDbSpline
210
0.0
220
0.0
230
1.0
 70
    24
 71
     3
 72
    10
 73
     6
 74
     0
 42
0.0000000001
 43
0.0000000001
 40
0.0
 40
0.0
 40
0.0
 40
0.0
 40
0.5
 40
0.5
 40
1.0
 40
1.0
 40
1.0
 40
1.0
 10
28591.64260800993
 20
-3726.081950772219
 30
0.0
 10
28591.45554099172
 20
-3726.081950772219
 30
0.0
 10
28591.23925932002
 20
-3726.081950772219
 30
0.0
 10
28590.75020500315
 20
-3726.081950772219
 30
0.0
 10
28590.49529466447
 20
-3726.081950772219
 30
0.0
 10
28590.23000114554
 20
-3726.081950772219
 30
0.0
  0
SPLINE
  5
39D0E
330
1F
100
AcDbEntity
  8
SEIHIN
  6
Continuous
 62
     3
100
AcDbSpline
210
0.0
220
0.0
230
1.0
 70
    24
 71
     3
 72
    14
 73
    10
 74
     0
 42
0.0000000001
 43
0.0000000001
 40
0.0
 40
0.0
 40
0.0
 40
0.0
 40
0.25
 40
0.25
 40
0.5
 40
0.5
 40
0.75
 40
0.75
 40
1.0
 40
1.0
 40
1.0
 40
1.0
 10
28557.28509696871
 20
-3727.029614815976
 30
0.0
 10
28557.28509696871
 20
-3726.915046281032
 30
0.0
 10
28557.28509696871
 20
-3726.793108130423
 30
0.0
 10
28557.28509696871
 20
-3726.559314884379
 30
0.0
 10
28557.28509696871
 20
-3726.448118277537
 30
0.0
 10
28557.28509696871
 20
-3726.265034524878
 30
0.0
 10
28557.28509696871
 20
-3726.193683647415
 30
0.0
 10
28557.28509696871
 20
-3726.102275838174
 30
0.0
 10
28557.28509696871
 20
-3726.081950772219
 30
0.0
 10
28557.28509696871
 20
-3726.081950772219
 30
0.0
  0
LINE
  5
39D0F
330
1F
100
AcDbEntity
  8
SEIHIN
  6
Continuous
 62
     3
100
AcDbLine
 10
28590.23000114554
 20
-3726.081950772219
 30
0.0
 11
28557.28509696871
 21
-3726.081950772219
 31
0.0
  0
LINE
  5
39D10
330
1F
100
AcDbEntity
  8
SEIHIN
  6
Continuous
 62
     3
100
AcDbLine
 10
28229.0219778618
 20
-3771.081950772219
 30
0.0
 11
28556.88759927156
 21
-3771.081950772219
 31
0.0
  0
SPLINE
  5
39D11
330
1F
100
AcDbEntity
  8
SEIHIN
  6
Continuous
 62
     3
100
AcDbSpline
210
0.0
220
0.0
230
1.0
 70
     8
 71
     3
 72
     8
 73
     4
 74
     0
 42
0.0000000001
 43
0.0000000001
 40
0.0
 40
0.0
 40
0.0
 40
0.0
 40
1.0
 40
1.0
 40
1.0
 40
1.0
 10
28557.11154509245
 20
-3771.081950772219
 30
0.0
 10
28557.03668644044
 20
-3771.081656661275
 30
0.0
 10
28556.9616189221
 20
-3771.081656661275
 30
0.0
 10
28556.88759927156
 20
-3771.081950772219
 30
0.0
  0
LINE
  5
39D12
330
1F
100
AcDbEntity
  8
SEIHIN
  6
Continuous
 62
     3
100
AcDbLine
 10
28557.11154509245
 20
-3771.081950772219
 30
0.0
 11
28592.53868624523
 21
-3771.081950772219
 31
0.0
  0
LINE
  5
39D13
330
1F
100
AcDbEntity
  8
SEIHIN
  6
Continuous
 62
     3
100
AcDbLine
 10
28557.11154509245
 20
-3771.081950772219
 30
0.0
 11
28557.28509696871
 21
-3727.029614815976
 31
0.0
  0
LINE
  5
39D14
330
1F
100
AcDbEntity
  8
SEIHIN
  6
Continuous
 62
     3
100
AcDbLine
 10
28595.5345748495
 20
-3771.081950772219
 30
0.0
 11
28593.2258897498
 21
-3727.029614815976
 31
0.0
  0
SPLINE
  5
39D15
330
1F
100
AcDbEntity
  8
SEIHIN
  6
Continuous
 62
     3
100
AcDbSpline
210
0.0
220
0.0
230
1.0
 70
    24
 71
     3
 72
    22
 73
    18
 74
     0
 42
0.0000000001
 43
0.0000000001
 40
0.0
 40
0.0
 40
0.0
 40
0.0
 40
0.0345706864817916
 40
0.0688947596678181
 40
0.1030715121707685
 40
0.1372015224040679
 40
0.1713857813650839
 40
0.2057248014182461
 40
0.240317745944836
 40
0.370078179866151
 40
0.5000273210970052
 40
0.6297525282808401
 40
0.7597370720872113
 40
0.8200082830657125
 40
0.8797819179190071
 40
0.9395991548303413
 40
1.0
 40
1.0
 40
1.0
 40
1.0
 10
28592.53868624523
 20
-3771.081950772219
 30
0.0
 10
28592.59287852855
 20
-3771.081950772219
 30
0.0
 10
28592.70087650934
 20
-3771.081950772219
 30
0.0
 10
28592.86199502122
 20
-3771.081950772219
 30
0.0
 10
28593.02149718023
 20
-3771.081950772219
 30
0.0
 10
28593.17938022357
 20
-3771.081950772219
 30
0.0
 10
28593.33563594844
 20
-3771.081950772219
 30
0.0
 10
28593.4902754401
 20
-3771.081950772219
 30
0.0
 10
28593.78286266102
 20
-3771.081950772219
 30
0.0
 10
28594.1962741304
 20
-3771.081950772219
 30
0.0
 10
28594.67164712211
 20
-3771.081950772219
 30
0.0
 10
28595.06146567175
 20
-3771.081950772219
 30
0.0
 10
28595.29276147731
 20
-3771.081950772219
 30
0.0
 10
28595.42045309557
 20
-3771.081950772219
 30
0.0
 10
28595.48613331373
 20
-3771.081950772219
 30
0.0
 10
28595.52711333241
 20
-3771.081950772219
 30
0.0
 10
28595.53207964069
 20
-3771.081950772219
 30
0.0
 10
28595.5345748495
 20
-3771.081950772219
 30
0.0
  0
SPLINE
  5
39D16
330
1F
100
AcDbEntity
  8
SEIHIN
  6
Continuous
 62
     3
100
AcDbSpline
210
0.0
220
0.0
230
1.0
 70
     8
 71
     3
 72
    11
 73
     7
 74
     0
 42
0.0000000001
 43
0.0000000001
 40
0.0
 40
0.0
 40
0.0
 40
0.0
 40
0.254059692272744
 40
0.5122713753112153
 40
0.7639148322741996
 40
0.9999999999999998
 40
0.9999999999999998
 40
0.9999999999999998
 40
0.9999999999999998
 10
28592.58459525545
 20
-3726.147974504371
 30
0.0
 10
28592.67299106463
 20
-3726.190793878674
 30
0.0
 10
28592.85122729856
 20
-3726.277132406315
 30
0.0
 10
28593.05043087468
 20
-3726.496330277598
 30
0.0
 10
28593.18125691179
 20
-3726.751964852512
 30
0.0
 10
28593.20137828083
 20
-3726.935783273915
 30
0.0
 10
28593.21111803475
 20
-3727.024760628638
 30
0.0
  0
DIMENSION
  5
39D17
330
1F
100
AcDbEntity
  8
SUNPOU
  6
Continuous
100
AcDbDimension
  2
*D9
 10
28595.5345748495
 20
-3850.082477501274
 30
0.0
 11
28391.82473928177
 21
-3840.082477501274
 31
0.0
 70
    32
 71
     5
 42
407.4196711354707
  3
STANDARD
100
AcDbAlignedDimension
 13
28188.11490371403
 23
-3946.717836569994
 33
0.0
 14
28595.5345748495
 24
-3897.217836569996
 34
0.0
 50
180.0
100
AcDbRotatedDimension
1001
ACAD
1000
DSTYLE
1002
{
1070
    41
1040
14.0
1070
    42
1040
12.0
1070
    43
1040
28.0
1070
    44
1040
6.0
1070
    73
1070
     0
1070
    74
1070
     0
1070
    77
1070
     3
1070
   140
1040
12.0
1070
   141
1040
150.0
1070
   143
1040
0.03937
1070
   147
1040
4.0
1070
   172
1070
     1
1070
   173
1070
     1
1070
   176
1070
     4
1070
   177
1070
     4
1070
   178
1070
     4
1070
   271
1070
     0
1070
   272
1070
     2
1070
   343
1005
3729
1070
   344
1005
3729
1002
}
  0
LINE
  5
39D18
330
1F
100
AcDbEntity
  8
CENTER L
  6
CENTER
 62
     1
 48
5.0
100
AcDbLine
 10
28388.77331078176
 20
-4231.940310921447
 30
0.0
 11
28388.77331078176
 21
-3896.316952963029
 31
0.0
  0
DIMENSION
  5
39D19
330
1F
100
AcDbEntity
  8
SUNPOU
  6
Continuous
100
AcDbDimension
  2
*D8
 10
28122.3259948095
 20
-4209.93453670547
 30
0.0
 11
28112.3259948095
 21
-4078.326186637727
 31
0.0
 70
    32
 71
     5
 42
263.2167001354765
  3
STANDARD
100
AcDbAlignedDimension
 13
28188.11490371403
 23
-3946.717836569994
 33
0.0
 14
28233.47134389966
 24
-4209.93453670547
 34
0.0
 50
90.0
100
AcDbRotatedDimension
1001
ACAD
1000
DSTYLE
1002
{
1070
    41
1040
14.0
1070
    42
1040
12.0
1070
    43
1040
28.0
1070
    44
1040
6.0
1070
    73
1070
     0
1070
    74
1070
     0
1070
    77
1070
     3
1070
   140
1040
12.0
1070
   141
1040
150.0
1070
   143
1040
0.03937
1070
   147
1040
4.0
1070
   172
1070
     1
1070
   173
1070
     1
1070
   176
1070
     4
1070
   177
1070
     4
1070
   178
1070
     4
1070
   271
1070
     0
1070
   272
1070
     2
1070
   343
1005
3729
1070
   344
1005
3729
1002
}
  0
DIMENSION
  5
39D1A
330
1F
100
AcDbEntity
  8
SUNPOU
  6
Continuous
100
AcDbDimension
  2
*D7
 10
28544.05709166514
 20
-4274.801330063405
 30
0.0
 11
28388.7642177824
 21
-4264.801330063405
 31
0.0
 70
    32
 71
     5
 42
310.585747765479
  3
STANDARD
100
AcDbAlignedDimension
 13
28233.47134389966
 23
-4209.93453670547
 33
0.0
 14
28544.05709166514
 24
-4209.93453670547
 34
0.0
 50
180.0
100
AcDbRotatedDimension
1001
ACAD
1000
DSTYLE
1002
{
1070
    41
1040
14.0
1070
    42
1040
12.0
1070
    43
1040
28.0
1070
    44
1040
6.0
1070
    73
1070
     0
1070
    74
1070
     0
1070
    77
1070
     3
1070
   140
1040
12.0
1070
   141
1040
150.0
1070
   143
1040
0.03937
1070
   147
1040
4.0
1070
   172
1070
     1
1070
   173
1070
     1
1070
   176
1070
     4
1070
   177
1070
     4
1070
   178
1070
     4
1070
   271
1070
     0
1070
   272
1070
     2
1070
   343
1005
3729
1070
   344
1005
3729
1002
}
  0
DIMENSION
  5
39D1B
330
1F
100
AcDbEntity
  8
SUNPOU
  6
Continuous
100
AcDbDimension
  2
*D6
 10
28630.7436598569
 20
-4209.93453670547
 30
0.0
 11
28620.7436598569
 21
-4053.576186637729
 31
0.0
 70
    32
 71
     5
 42
312.7167001354742
  3
STANDARD
100
AcDbAlignedDimension
 13
28595.53868624523
 23
-3897.217836569996
 33
0.0
 14
28544.05709166514
 24
-4209.93453670547
 34
0.0
 50
90.0
100
AcDbRotatedDimension
1001
ACAD
1000
DSTYLE
1002
{
1070
    41
1040
14.0
1070
    42
1040
12.0
1070
    43
1040
28.0
1070
    44
1040
6.0
1070
    73
1070
     0
1070
    74
1070
     0
1070
    77
1070
     3
1070
   140
1040
12.0
1070
   141
1040
150.0
1070
   143
1040
0.03937
1070
   147
1040
4.0
1070
   172
1070
     1
1070
   173
1070
     1
1070
   176
1070
     4
1070
   177
1070
     4
1070
   178
1070
     4
1070
   271
1070
     0
1070
   272
1070
     2
1070
   343
1005
3729
1070
   344
1005
3729
1002
}
  0
LINE
  5
39D1C
330
1F
100
AcDbEntity
  8
SEIHIN
  6
Continuous
 62
     3
100
AcDbLine
 10
28755.19563763352
 20
-3897.217836569997
 30
0.0
 11
28755.19563763352
 21
-3902.576186637734
 31
0.0
  0
LINE
  5
39D1D
330
1F
100
AcDbEntity
  8
SEIHIN
  6
Continuous
 62
     3
100
AcDbLine
 10
28755.19563763352
 20
-3918.576186637834
 30
0.0
 11
28755.19563763352
 21
-3902.576186637734
 31
0.0
  0
LINE
  5
39D1E
330
1F
100
AcDbEntity
  8
SEIHIN
  6
Continuous
 62
     3
100
AcDbLine
 10
28755.19563763352
 20
-3918.576186637834
 30
0.0
 11
28755.19563763352
 21
-3921.576186637834
 31
0.0
  0
ARC
  5
39D1F
330
1F
100
AcDbEntity
  8
SEIHIN
  6
Continuous
 62
     3
100
AcDbCircle
 10
28711.19563763352
 20
-3900.576186637734
 30
0.0
 40
1.000000000000057
100
AcDbArc
 50
90.0
 51
180.0
  0
LINE
  5
39D20
330
1F
100
AcDbEntity
  8
SEIHIN
  6
Continuous
 62
     3
100
AcDbLine
 10
28710.19563763352
 20
-3902.576186637734
 30
0.0
 11
28710.19563763352
 21
-3900.576186637734
 31
0.0
  0
LINE
  5
39D21
330
1F
100
AcDbEntity
  8
SEIHIN
  6
Continuous
 62
     3
100
AcDbLine
 10
28710.19563763352
 20
-3920.576186637833
 30
0.0
 11
28710.19563763352
 21
-3918.576186637834
 31
0.0
  0
ARC
  5
39D22
330
1F
100
AcDbEntity
  8
SEIHIN
  6
Continuous
 62
     3
100
AcDbCircle
 10
28711.19563763352
 20
-3920.576186637833
 30
0.0
 40
1.0
100
AcDbArc
 50
180.0
 51
270.0
  0
LINE
  5
39D23
330
1F
100
AcDbEntity
  8
SEIHIN
  6
Continuous
 62
     3
100
AcDbLine
 10
28710.19563763352
 20
-3918.576186637834
 30
0.0
 11
28710.19563763352
 21
-3902.576186637734
 31
0.0
  0
LINE
  5
39D24
330
1F
100
AcDbEntity
  8
SEIHIN
  6
Continuous
 62
     3
100
AcDbLine
 10
28755.19563763352
 20
-3921.576186637834
 30
0.0
 11
28755.19563763352
 21
-3924.210578607534
 31
0.0
  0
LINE
  5
39D25
330
1F
100
AcDbEntity
  8
SEIHIN
  6
Continuous
 62
     3
100
AcDbLine
 10
28710.19563763352
 20
-3924.088709264134
 30
0.0
 11
28710.19563763352
 21
-3920.576186637833
 31
0.0
  0
LINE
  5
39D26
330
1F
100
AcDbEntity
  8
SEIHIN
  6
Continuous
 62
     3
100
AcDbLine
 10
28755.19563763352
 20
-4209.93453670547
 30
0.0
 11
28755.19563763352
 21
-3924.210578607534
 31
0.0
  0
LINE
  5
39D27
330
1F
100
AcDbEntity
  8
SEIHIN
  6
Continuous
 62
     3
100
AcDbLine
 10
28710.19563763352
 20
-4204.819925324533
 30
0.0
 11
28710.19563763352
 21
-3924.088709264134
 31
0.0
  0
ARC
  5
39D28
330
1F
100
AcDbEntity
  8
SEIHIN
  6
Continuous
 62
     3
100
AcDbCircle
 10
28711.2911735605
 20
-4206.53661436108
 30
0.0
 40
1.096250396753765
100
AcDbArc
 50
182.0687035931164
 51
264.8567308459446
  0
LINE
  5
39D29
330
1F
100
AcDbEntity
  8
SEIHIN
  6
Continuous
 62
     3
100
AcDbLine
 10
28710.19563763352
 20
-4206.576186637733
 30
0.0
 11
28710.19563763352
 21
-4204.819925324533
 31
0.0
  0
LINE
  5
39D2A
330
1F
100
AcDbEntity
  8
SEIHIN
  6
Continuous
 62
     3
100
AcDbLine
 10
28711.1928985812
 20
-4207.628450869367
 30
0.0
 11
28755.19563763352
 21
-4209.93453670547
 31
0.0
  0
LINE
  5
39D2B
330
1F
100
AcDbEntity
  8
SEIHIN
  6
Continuous
 62
     3
100
AcDbLine
 10
28755.19563763352
 20
-3897.217836569997
 30
0.0
 11
28711.14330167728
 21
-3899.526521669694
 31
0.0
  0
LINE
  5
39D2C
330
1F
100
AcDbEntity
  8
SEIHIN
  6
Continuous
 62
     3
100
AcDbLine
 10
28755.19563763352
 20
-3923.93453670547
 30
0.0
 11
28711.14214803633
 21
-3921.5747550446
 31
0.0
  0
LINE
  5
39D2D
330
1F
100
AcDbEntity
  8
CENTER L
  6
CENTER
 62
     1
 48
5.0
100
AcDbLine
 10
28388.77331078176
 20
-3786.408507784436
 30
0.0
 11
28388.77331078176
 21
-3711.834684994304
 31
0.0
  0
DIMENSION
  5
39D2E
330
1F
100
AcDbEntity
  8
SUNPOU
  6
Continuous
100
AcDbDimension
  2
*D11
 10
28756.14330167728
 20
-3853.108205451368
 30
0.0
 11
28733.64330167728
 21
-3843.108205451368
 31
0.0
 70
    32
 71
     5
 42
45.00000000000364
  3
STANDARD
100
AcDbAlignedDimension
 13
28711.14330167728
 23
-3897.217836569997
 33
0.0
 14
28756.14330167728
 24
-3900.576186637734
 34
0.0
 50
180.0
100
AcDbRotatedDimension
1001
ACAD
1000
DSTYLE
1002
{
1070
    41
1040
14.0
1070
    42
1040
12.0
1070
    43
1040
28.0
1070
    44
1040
6.0
1070
    73
1070
     0
1070
    74
1070
     0
1070
    77
1070
     3
1070
   140
1040
12.0
1070
   141
1040
150.0
1070
   143
1040
0.03937
1070
   147
1040
4.0
1070
   172
1070
     1
1070
   173
1070
     1
1070
   176
1070
     4
1070
   177
1070
     4
1070
   178
1070
     4
1070
   271
1070
     0
1070
   272
1070
     2
1070
   343
1005
3729
1070
   344
1005
3729
1002
}
  0
DIMENSION
  5
39D2F
330
1F
100
AcDbEntity
  8
SUNPOU
  6
Continuous
100
AcDbDimension
  2
*D10
 10
28934.06519023851
 20
-3853.108205451368
 30
0.0
 11
28956.56519023851
 21
-3843.108205451368
 31
0.0
 70
    32
 71
     5
 42
45.00000000000364
  3
STANDARD
100
AcDbAlignedDimension
 13
28979.06519023851
 23
-3897.217836569997
 33
0.0
 14
28934.06519023851
 24
-3900.576186637734
 34
0.0
100
AcDbRotatedDimension
1001
ACAD
1000
DSTYLE
1002
{
1070
    41
1040
14.0
1070
    42
1040
12.0
1070
    43
1040
28.0
1070
    44
1040
6.0
1070
    73
1070
     0
1070
    74
1070
     0
1070
    77
1070
     3
1070
   140
1040
12.0
1070
   141
1040
150.0
1070
   143
1040
0.03937
1070
   147
1040
4.0
1070
   172
1070
     1
1070
   173
1070
     1
1070
   176
1070
     4
1070
   177
1070
     4
1070
   178
1070
     4
1070
   271
1070
     0
1070
   272
1070
     2
1070
   343
1005
3729
1070
   344
1005
3729
1002
}
  0
LINE
  5
39D30
330
1F
100
AcDbEntity
  8
CENTER L
  6
CENTER
 62
     1
 48
5.0
100
AcDbLine
 10
29293.85728117789
 20
-3786.408507784436
 30
0.0
 11
29293.85728117789
 21
-3711.834684994304
 31
0.0
  0
LINE
  5
39D31
330
1F
100
AcDbEntity
  8
SEIHIN
  6
Continuous
 62
     3
100
AcDbLine
 10
28935.01285428227
 20
-3923.93453670547
 30
0.0
 11
28979.06634387947
 21
-3921.5747550446
 31
0.0
  0
LINE
  5
39D32
330
1F
100
AcDbEntity
  8
SEIHIN
  6
Continuous
 62
     3
100
AcDbLine
 10
28935.01285428227
 20
-3897.217836569997
 30
0.0
 11
28979.06519023851
 21
-3899.526521669694
 31
0.0
  0
LINE
  5
39D33
330
1F
100
AcDbEntity
  8
SEIHIN
  6
Continuous
 62
     3
100
AcDbLine
 10
28979.01559333459
 20
-4207.628450869367
 30
0.0
 11
28935.01285428227
 21
-4209.93453670547
 31
0.0
  0
LINE
  5
39D34
330
1F
100
AcDbEntity
  8
SEIHIN
  6
Continuous
 62
     3
100
AcDbLine
 10
28980.01285428227
 20
-4206.576186637733
 30
0.0
 11
28980.01285428227
 21
-4204.819925324533
 31
0.0
  0
ARC
  5
39D35
330
1F
100
AcDbEntity
  8
SEIHIN
  6
Continuous
 62
     3
100
AcDbCircle
 10
28978.9173183553
 20
-4206.53661436108
 30
0.0
 40
1.096250396753765
100
AcDbArc
 50
275.1432691540554
 51
357.9312964068837
  0
LINE
  5
39D36
330
1F
100
AcDbEntity
  8
SEIHIN
  6
Continuous
 62
     3
100
AcDbLine
 10
28980.01285428227
 20
-4204.819925324533
 30
0.0
 11
28980.01285428227
 21
-3924.088709264134
 31
0.0
  0
LINE
  5
39D37
330
1F
100
AcDbEntity
  8
SEIHIN
  6
Continuous
 62
     3
100
AcDbLine
 10
28935.01285428227
 20
-4209.93453670547
 30
0.0
 11
28935.01285428227
 21
-3924.210578607534
 31
0.0
  0
LINE
  5
39D38
330
1F
100
AcDbEntity
  8
SEIHIN
  6
Continuous
 62
     3
100
AcDbLine
 10
28980.01285428227
 20
-3924.088709264134
 30
0.0
 11
28980.01285428227
 21
-3920.576186637833
 31
0.0
  0
LINE
  5
39D39
330
1F
100
AcDbEntity
  8
SEIHIN
  6
Continuous
 62
     3
100
AcDbLine
 10
28935.01285428227
 20
-3921.576186637834
 30
0.0
 11
28935.01285428227
 21
-3924.210578607534
 31
0.0
  0
LINE
  5
39D3A
330
1F
100
AcDbEntity
  8
SEIHIN
  6
Continuous
 62
     3
100
AcDbLine
 10
28980.01285428227
 20
-3918.576186637834
 30
0.0
 11
28980.01285428227
 21
-3902.576186637734
 31
0.0
  0
ARC
  5
39D3B
330
1F
100
AcDbEntity
  8
SEIHIN
  6
Continuous
 62
     3
100
AcDbCircle
 10
28979.01285428227
 20
-3920.576186637833
 30
0.0
 40
1.0
100
AcDbArc
 50
270.0
 51
0.000000000000007
  0
LINE
  5
39D3C
330
1F
100
AcDbEntity
  8
SEIHIN
  6
Continuous
 62
     3
100
AcDbLine
 10
28980.01285428227
 20
-3920.576186637833
 30
0.0
 11
28980.01285428227
 21
-3918.576186637834
 31
0.0
  0
LINE
  5
39D3D
330
1F
100
AcDbEntity
  8
SEIHIN
  6
Continuous
 62
     3
100
AcDbLine
 10
28980.01285428227
 20
-3902.576186637734
 30
0.0
 11
28980.01285428227
 21
-3900.576186637734
 31
0.0
  0
ARC
  5
39D3E
330
1F
100
AcDbEntity
  8
SEIHIN
  6
Continuous
 62
     3
100
AcDbCircle
 10
28979.01285428227
 20
-3900.576186637734
 30
0.0
 40
1.000000000000057
100
AcDbArc
 50
0.000000000000007
 51
90.0
  0
LINE
  5
39D3F
330
1F
100
AcDbEntity
  8
SEIHIN
  6
Continuous
 62
     3
100
AcDbLine
 10
28935.01285428227
 20
-3918.576186637834
 30
0.0
 11
28935.01285428227
 21
-3921.576186637834
 31
0.0
  0
LINE
  5
39D40
330
1F
100
AcDbEntity
  8
SEIHIN
  6
Continuous
 62
     3
100
AcDbLine
 10
28935.01285428227
 20
-3918.576186637834
 30
0.0
 11
28935.01285428227
 21
-3902.576186637734
 31
0.0
  0
LINE
  5
39D41
330
1F
100
AcDbEntity
  8
SEIHIN
  6
Continuous
 62
     3
100
AcDbLine
 10
28935.01285428227
 20
-3897.217836569997
 30
0.0
 11
28935.01285428227
 21
-3902.576186637734
 31
0.0
  0
DIMENSION
  5
39D42
330
1F
100
AcDbEntity
  8
SUNPOU
  6
Continuous
100
AcDbDimension
  2
*D15
 10
29051.88693210275
 20
-4209.93453670547
 30
0.0
 11
29041.88693210274
 21
-4053.576186637729
 31
0.0
 70
    32
 71
     5
 42
312.7167001354742
  3
STANDARD
100
AcDbAlignedDimension
 13
29087.09190571442
 23
-3897.217836569996
 33
0.0
 14
29138.57350029451
 24
-4209.93453670547
 34
0.0
 50
90.0
100
AcDbRotatedDimension
1001
ACAD
1000
DSTYLE
1002
{
1070
    41
1040
14.0
1070
    42
1040
12.0
1070
    43
1040
28.0
1070
    44
1040
6.0
1070
    73
1070
     0
1070
    74
1070
     0
1070
    77
1070
     3
1070
   140
1040
12.0
1070
   141
1040
150.0
1070
   143
1040
0.03937
1070
   147
1040
4.0
1070
   172
1070
     1
1070
   173
1070
     1
1070
   176
1070
     4
1070
   177
1070
     4
1070
   178
1070
     4
1070
   271
1070
     0
1070
   272
1070
     2
1070
   343
1005
3729
1070
   344
1005
3729
1002
}
  0
DIMENSION
  5
39D43
330
1F
100
AcDbEntity
  8
SUNPOU
  6
Continuous
100
AcDbDimension
  2
*D14
 10
29138.57350029451
 20
-4274.801330063405
 30
0.0
 11
29293.86637417725
 21
-4264.801330063405
 31
0.0
 70
    32
 71
     5
 42
310.585747765479
  3
STANDARD
100
AcDbAlignedDimension
 13
29449.15924805999
 23
-4209.93453670547
 33
0.0
 14
29138.57350029451
 24
-4209.93453670547
 34
0.0
100
AcDbRotatedDimension
1001
ACAD
1000
DSTYLE
1002
{
1070
    41
1040
14.0
1070
    42
1040
12.0
1070
    43
1040
28.0
1070
    44
1040
6.0
1070
    73
1070
     0
1070
    74
1070
     0
1070
    77
1070
     3
1070
   140
1040
12.0
1070
   141
1040
150.0
1070
   143
1040
0.03937
1070
   147
1040
4.0
1070
   172
1070
     1
1070
   173
1070
     1
1070
   176
1070
     4
1070
   177
1070
     4
1070
   178
1070
     4
1070
   271
1070
     0
1070
   272
1070
     2
1070
   343
1005
3729
1070
   344
1005
3729
1002
}
  0
DIMENSION
  5
39D44
330
1F
100
AcDbEntity
  8
SUNPOU
  6
Continuous
100
AcDbDimension
  2
*D13
 10
29560.30459715015
 20
-4209.93453670547
 30
0.0
 11
29550.30459715015
 21
-4078.326186637727
 31
0.0
 70
    32
 71
     5
 42
263.2167001354765
  3
STANDARD
100
AcDbAlignedDimension
 13
29494.51568824562
 23
-3946.717836569994
 33
0.0
 14
29449.15924805999
 24
-4209.93453670547
 34
0.0
 50
90.0
100
AcDbRotatedDimension
1001
ACAD
1000
DSTYLE
1002
{
1070
    41
1040
14.0
1070
    42
1040
12.0
1070
    43
1040
28.0
1070
    44
1040
6.0
1070
    73
1070
     0
1070
    74
1070
     0
1070
    77
1070
     3
1070
   140
1040
12.0
1070
   141
1040
150.0
1070
   143
1040
0.03937
1070
   147
1040
4.0
1070
   172
1070
     1
1070
   173
1070
     1
1070
   176
1070
     4
1070
   177
1070
     4
1070
   178
1070
     4
1070
   271
1070
     0
1070
   272
1070
     2
1070
   343
1005
3729
1070
   344
1005
3729
1002
}
  0
LINE
  5
39D45
330
1F
100
AcDbEntity
  8
CENTER L
  6
CENTER
 62
     1
 48
5.0
100
AcDbLine
 10
29293.85728117789
 20
-4231.940310921447
 30
0.0
 11
29293.85728117789
 21
-3896.316952963029
 31
0.0
  0
DIMENSION
  5
39D46
330
1F
100
AcDbEntity
  8
SUNPOU
  6
Continuous
100
AcDbDimension
  2
*D12
 10
29087.09601711015
 20
-3850.082477501274
 30
0.0
 11
29290.80585267788
 21
-3840.082477501274
 31
0.0
 70
    32
 71
     5
 42
407.4196711354707
  3
STANDARD
100
AcDbAlignedDimension
 13
29494.51568824562
 23
-3946.717836569994
 33
0.0
 14
29087.09601711015
 24
-3897.217836569996
 34
0.0
100
AcDbRotatedDimension
1001
ACAD
1000
DSTYLE
1002
{
1070
    41
1040
14.0
1070
    42
1040
12.0
1070
    43
1040
28.0
1070
    44
1040
6.0
1070
    73
1070
     0
1070
    74
1070
     0
1070
    77
1070
     3
1070
   140
1040
12.0
1070
   141
1040
150.0
1070
   143
1040
0.03937
1070
   147
1040
4.0
1070
   172
1070
     1
1070
   173
1070
     1
1070
   176
1070
     4
1070
   177
1070
     4
1070
   178
1070
     4
1070
   271
1070
     0
1070
   272
1070
     2
1070
   343
1005
3729
1070
   344
1005
3729
1002
}
  0
SPLINE
  5
39D47
330
1F
100
AcDbEntity
  8
SEIHIN
  6
Continuous
 62
     3
100
AcDbSpline
210
0.0
220
0.0
230
1.0
 70
     8
 71
     3
 72
    11
 73
     7
 74
     0
 42
0.0000000001
 43
0.0000000001
 40
0.0
 40
0.0
 40
0.0
 40
0.0
 40
0.254059692272744
 40
0.5122713753112153
 40
0.7639148322741996
 40
0.9999999999999998
 40
0.9999999999999998
 40
0.9999999999999998
 40
0.9999999999999998
 10
29090.0459967042
 20
-3726.147974504371
 30
0.0
 10
29089.95760089502
 20
-3726.190793878674
 30
0.0
 10
29089.77936466109
 20
-3726.277132406315
 30
0.0
 10
29089.58016108497
 20
-3726.496330277598
 30
0.0
 10
29089.44933504786
 20
-3726.751964852512
 30
0.0
 10
29089.42921367882
 20
-3726.935783273915
 30
0.0
 10
29089.4194739249
 20
-3727.024760628638
 30
0.0
  0
SPLINE
  5
39D48
330
1F
100
AcDbEntity
  8
SEIHIN
  6
Continuous
 62
     3
100
AcDbSpline
210
0.0
220
0.0
230
1.0
 70
    24
 71
     3
 72
    22
 73
    18
 74
     0
 42
0.0000000001
 43
0.0000000001
 40
0.0
 40
0.0
 40
0.0
 40
0.0
 40
0.0345706864817916
 40
0.0688947596678181
 40
0.1030715121707685
 40
0.1372015224040679
 40
0.1713857813650839
 40
0.2057248014182461
 40
0.240317745944836
 40
0.370078179866151
 40
0.5000273210970052
 40
0.6297525282808401
 40
0.7597370720872113
 40
0.8200082830657125
 40
0.8797819179190071
 40
0.9395991548303413
 40
1.0
 40
1.0
 40
1.0
 40
1.0
 10
29090.09190571442
 20
-3771.081950772219
 30
0.0
 10
29090.0377134311
 20
-3771.081950772219
 30
0.0
 10
29089.92971545031
 20
-3771.081950772219
 30
0.0
 10
29089.76859693844
 20
-3771.081950772219
 30
0.0
 10
29089.60909477942
 20
-3771.081950772219
 30
0.0
 10
29089.45121173609
 20
-3771.081950772219
 30
0.0
 10
29089.29495601121
 20
-3771.081950772219
 30
0.0
 10
29089.14031651955
 20
-3771.081950772219
 30
0.0
 10
29088.84772929863
 20
-3771.081950772219
 30
0.0
 10
29088.43431782925
 20
-3771.081950772219
 30
0.0
 10
29087.95894483754
 20
-3771.081950772219
 30
0.0
 10
29087.5691262879
 20
-3771.081950772219
 30
0.0
 10
29087.33783048234
 20
-3771.081950772219
 30
0.0
 10
29087.21013886408
 20
-3771.081950772219
 30
0.0
 10
29087.14445864592
 20
-3771.081950772219
 30
0.0
 10
29087.10347862724
 20
-3771.081950772219
 30
0.0
 10
29087.09851231896
 20
-3771.081950772219
 30
0.0
 10
29087.09601711015
 20
-3771.081950772219
 30
0.0
  0
LINE
  5
39D49
330
1F
100
AcDbEntity
  8
SEIHIN
  6
Continuous
 62
     3
100
AcDbLine
 10
29087.09601711015
 20
-3771.081950772219
 30
0.0
 11
29089.40470220985
 21
-3727.029614815976
 31
0.0
  0
LINE
  5
39D4A
330
1F
100
AcDbEntity
  8
SEIHIN
  6
Continuous
 62
     3
100
AcDbLine
 10
29125.5190468672
 20
-3771.081950772219
 30
0.0
 11
29125.34549499094
 21
-3727.029614815976
 31
0.0
  0
LINE
  5
39D4B
330
1F
100
AcDbEntity
  8
SEIHIN
  6
Continuous
 62
     3
100
AcDbLine
 10
29125.5190468672
 20
-3771.081950772219
 30
0.0
 11
29090.09190571442
 21
-3771.081950772219
 31
0.0
  0
SPLINE
  5
39D4C
330
1F
100
AcDbEntity
  8
SEIHIN
  6
Continuous
 62
     3
100
AcDbSpline
210
0.0
220
0.0
230
1.0
 70
     8
 71
     3
 72
     8
 73
     4
 74
     0
 42
0.0000000001
 43
0.0000000001
 40
0.0
 40
0.0
 40
0.0
 40
0.0
 40
1.0
 40
1.0
 40
1.0
 40
1.0
 10
29125.5190468672
 20
-3771.081950772219
 30
0.0
 10
29125.59390551921
 20
-3771.081656661275
 30
0.0
 10
29125.66897303755
 20
-3771.081656661275
 30
0.0
 10
29125.74299268809
 20
-3771.081950772219
 30
0.0
  0
LINE
  5
39D4D
330
1F
100
AcDbEntity
  8
SEIHIN
  6
Continuous
 62
     3
100
AcDbLine
 10
29453.60861409785
 20
-3771.081950772219
 30
0.0
 11
29125.74299268809
 21
-3771.081950772219
 31
0.0
  0
LINE
  5
39D4E
330
1F
100
AcDbEntity
  8
SEIHIN
  6
Continuous
 62
     3
100
AcDbLine
 10
29092.40059081411
 20
-3726.081950772219
 30
0.0
 11
29125.34549499094
 21
-3726.081950772219
 31
0.0
  0
SPLINE
  5
39D4F
330
1F
100
AcDbEntity
  8
SEIHIN
  6
Continuous
 62
     3
100
AcDbSpline
210
0.0
220
0.0
230
1.0
 70
    24
 71
     3
 72
    14
 73
    10
 74
     0
 42
0.0000000001
 43
0.0000000001
 40
0.0
 40
0.0
 40
0.0
 40
0.0
 40
0.25
 40
0.25
 40
0.5
 40
0.5
 40
0.75
 40
0.75
 40
1.0
 40
1.0
 40
1.0
 40
1.0
 10
29125.34549499094
 20
-3727.029614815976
 30
0.0
 10
29125.34549499094
 20
-3726.915046281032
 30
0.0
 10
29125.34549499094
 20
-3726.793108130423
 30
0.0
 10
29125.34549499094
 20
-3726.559314884379
 30
0.0
 10
29125.34549499094
 20
-3726.448118277537
 30
0.0
 10
29125.34549499094
 20
-3726.265034524878
 30
0.0
 10
29125.34549499094
 20
-3726.193683647415
 30
0.0
 10
29125.34549499094
 20
-3726.102275838174
 30
0.0
 10
29125.34549499094
 20
-3726.081950772219
 30
0.0
 10
29125.34549499094
 20
-3726.081950772219
 30
0.0
  0
SPLINE
  5
39D50
330
1F
100
AcDbEntity
  8
SEIHIN
  6
Continuous
 62
     3
100
AcDbSpline
210
0.0
220
0.0
230
1.0
 70
    24
 71
     3
 72
    10
 73
     6
 74
     0
 42
0.0000000001
 43
0.0000000001
 40
0.0
 40
0.0
 40
0.0
 40
0.0
 40
0.5
 40
0.5
 40
1.0
 40
1.0
 40
1.0
 40
1.0
 10
29090.98798394973
 20
-3726.081950772219
 30
0.0
 10
29091.17505096793
 20
-3726.081950772219
 30
0.0
 10
29091.39133263963
 20
-3726.081950772219
 30
0.0
 10
29091.8803869565
 20
-3726.081950772219
 30
0.0
 10
29092.13529729518
 20
-3726.081950772219
 30
0.0
 10
29092.40059081411
 20
-3726.081950772219
 30
0.0
  0
LINE
  5
39D51
330
1F
100
AcDbEntity
  8
SEIHIN
  6
Continuous
 62
     3
100
AcDbLine
 10
29125.34549499094
 20
-3726.081950772219
 30
0.0
 11
29125.38292460703
 21
-3726.081950772219
 31
0.0
  0
LINE
  5
39D52
330
1F
100
AcDbEntity
  8
SEIHIN
  6
Continuous
 62
     3
100
AcDbLine
 10
29125.38292460703
 20
-3726.081950772219
 30
0.0
 11
29125.4201435979
 21
-3726.081950772219
 31
0.0
  0
LINE
  5
39D53
330
1F
100
AcDbEntity
  8
SEIHIN
  6
Continuous
 62
     3
100
AcDbLine
 10
29125.4201435979
 20
-3726.081950772219
 30
0.0
 11
29455.76800198363
 21
-3726.081950772219
 31
0.0
  0
SPLINE
  5
39D54
330
1F
100
AcDbEntity
  8
SEIHIN
  6
Continuous
 62
     3
100
AcDbSpline
210
0.0
220
0.0
230
1.0
 70
     8
 71
     3
 72
    14
 73
    10
 74
     0
 42
0.0000000001
 43
0.0000000001
 40
0.0
 40
0.0
 40
0.0
 40
0.0
 40
0.25
 40
0.25
 40
0.5
 40
0.5
 40
0.75
 40
0.75
 40
1.0
 40
1.0
 40
1.0
 40
1.0
 10
29089.40470220985
 20
-3727.029614815976
 30
0.0
 10
29089.41070649234
 20
-3726.915046281032
 30
0.0
 10
29089.437449959
 20
-3726.793108130423
 30
0.0
 10
29089.54123579622
 20
-3726.559314884379
 30
0.0
 10
29089.61851215901
 20
-3726.448118277537
 30
0.0
 10
29089.81144217882
 20
-3726.265034524878
 30
0.0
 10
29089.92653072692
 20
-3726.193683647415
 30
0.0
 10
29090.16543529848
 20
-3726.102275838174
 30
0.0
 10
29090.28860598199
 20
-3726.081950772219
 30
0.0
 10
29090.40333174461
 20
-3726.081950772219
 30
0.0
  0
SPLINE
  5
39D55
330
1F
100
AcDbEntity
  8
SEIHIN
  6
Continuous
 62
     3
100
AcDbSpline
210
0.0
220
0.0
230
1.0
 70
    24
 71
     3
 72
    10
 73
     6
 74
     0
 42
0.0000000001
 43
0.0000000001
 40
0.0
 40
0.0
 40
0.0
 40
0.0
 40
0.5
 40
0.5
 40
1.0
 40
1.0
 40
1.0
 40
1.0
 10
29090.40333174461
 20
-3726.081950772219
 30
0.0
 10
29090.40333174461
 20
-3726.081950772219
 30
0.0
 10
29090.45410720545
 20
-3726.081950772219
 30
0.0
 10
29090.65640724614
 20
-3726.081950772219
 30
0.0
 10
29090.80064948745
 20
-3726.081950772219
 30
0.0
 10
29090.98798394973
 20
-3726.081950772219
 30
0.0
  0
LINE
  5
39D56
330
1F
100
AcDbEntity
  8
SEIHIN
  6
Continuous
 62
     3
100
AcDbLine
 10
29494.51568824563
 20
-3771.081950772219
 30
0.0
 11
29492.20700314593
 21
-3727.029614815976
 31
0.0
  0
SPLINE
  5
39D57
330
1F
100
AcDbEntity
  8
SEIHIN
  6
Continuous
 62
     3
100
AcDbSpline
210
0.0
220
0.0
230
1.0
 70
    24
 71
     3
 72
    22
 73
    18
 74
     0
 42
0.0000000001
 43
0.0000000001
 40
0.0
 40
0.0
 40
0.0
 40
0.0
 40
0.0345706864687676
 40
0.0688947596461061
 40
0.1030715121447302
 40
0.1372015223779934
 40
0.1713857813431765
 40
0.2057248014045834
 40
0.2403177459433348
 40
0.3700781798214544
 40
0.5000273210959876
 40
0.6297525282672363
 40
0.7597370720872402
 40
0.8200082830690213
 40
0.8797819179234579
 40
0.9395991548337059
 40
1.0
 40
1.0
 40
1.0
 40
1.0
 10
29494.51568824563
 20
-3771.081950772219
 30
0.0
 10
29494.51486959613
 20
-3771.081950772219
 30
0.0
 10
29494.51323813706
 20
-3771.081950772219
 30
0.0
 10
29494.49989387156
 20
-3771.081950772219
 30
0.0
 10
29494.4785467056
 20
-3771.081950772219
 30
0.0
 10
29494.4484297029
 20
-3771.081950772219
 30
0.0
 10
29494.409752706
 20
-3771.081950772219
 30
0.0
 10
29494.36244422583
 20
-3771.081950772219
 30
0.0
 10
29494.25560914147
 20
-3771.081950772219
 30
0.0
 10
29494.04270550235
 20
-3771.081950772219
 30
0.0
 10
29493.65327951275
 20
-3771.081950772219
 30
0.0
 10
29493.17767129659
 20
-3771.081950772219
 30
0.0
 10
29492.72829723968
 20
-3771.081950772219
 30
0.0
 10
29492.35730842673
 20
-3771.081950772219
 30
0.0
 10
29492.08277173863
 20
-3771.081950772219
 30
0.0
 10
29491.80301102979
 20
-3771.081950772219
 30
0.0
 10
29491.61450847107
 20
-3771.081950772219
 30
0.0
 10
29491.51979964137
 20
-3771.081950772219
 30
0.0
  0
LINE
  5
39D58
330
1F
100
AcDbEntity
  8
SEIHIN
  6
Continuous
 62
     3
100
AcDbLine
 10
29453.84742227589
 20
-3771.081950771741
 30
0.0
 11
29491.51979964137
 21
-3771.081950772219
 31
0.0
  0
LINE
  5
39D59
330
1F
100
AcDbEntity
  8
SEIHIN
  6
Continuous
 62
     3
100
AcDbLine
 10
29455.05616208119
 20
-3746.746651919956
 30
0.0
 11
29455.00164207211
 21
-3747.777543155334
 31
0.0
  0
SPLINE
  5
39D5A
330
1F
100
AcDbEntity
  8
SEIHIN
  6
Continuous
 62
     3
100
AcDbSpline
210
0.0
220
0.0
230
1.0
 70
    24
 71
     3
 72
    10
 73
     6
 74
     0
 42
0.0000000001
 43
0.0000000001
 40
0.0
 40
0.0
 40
0.0
 40
0.0
 40
0.337854553633112
 40
0.6625928579346049
 40
1.0
 40
1.0
 40
1.0
 40
1.0
 10
29453.84742227589
 20
-3771.081950772219
 30
0.0
 10
29453.83379238581
 20
-3771.081950772219
 30
0.0
 10
29453.80706174766
 20
-3771.081950772219
 30
0.0
 10
29453.76911145412
 20
-3771.081950772219
 30
0.0
 10
29453.74929600105
 20
-3771.081950772219
 30
0.0
 10
29453.73919870985
 20
-3771.081950772219
 30
0.0
  0
SPLINE
  5
39D5B
330
1F
100
AcDbEntity
  8
SEIHIN
  6
Continuous
 62
     3
100
AcDbSpline
210
0.0
220
0.0
230
1.0
 70
     8
 71
     3
 72
    11
 73
     7
 74
     0
 42
0.0000000001
 43
0.0000000001
 40
0.0
 40
0.0
 40
0.0
 40
0.0
 40
0.2656499870563123
 40
0.5278087923612769
 40
0.7754772033015817
 40
0.9999999999999998
 40
0.9999999999999998
 40
0.9999999999999998
 40
0.9999999999999998
 10
29453.60861409785
 20
-3771.081950772219
 30
0.0
 10
29453.62131348641
 20
-3771.081969349545
 30
0.0
 10
29453.6465453677
 20
-3771.08200626005
 30
0.0
 10
29453.68291070981
 20
-3771.082077165711
 30
0.0
 10
29453.71466934954
 20
-3771.08200438807
 30
0.0
 10
29453.73129388859
 20
-3771.081968050442
 30
0.0
 10
29453.73919871177
 20
-3771.081950772219
 30
0.0
  0
LINE
  5
39D5C
330
1F
100
AcDbEntity
  8
SEIHIN
  6
Continuous
 62
     3
100
AcDbLine
 10
29456.08948820985
 20
-3727.029614815976
 30
0.0
 11
29455.05616208119
 21
-3746.746651919956
 31
0.0
  0
LINE
  5
39D5D
330
1F
100
AcDbEntity
  8
SEIHIN
  6
Continuous
 62
     3
100
AcDbLine
 10
29489.21111454167
 20
-3726.081950772219
 30
0.0
 11
29456.86500622672
 21
-3726.081950772219
 31
0.0
  0
SPLINE
  5
39D5E
330
1F
100
AcDbEntity
  8
SEIHIN
  6
Continuous
 62
     3
100
AcDbSpline
210
0.0
220
0.0
230
1.0
 70
     8
 71
     3
 72
     8
 73
     4
 74
     0
 42
0.0000000001
 43
0.0000000001
 40
0.0
 40
0.0
 40
0.0
 40
0.0
 40
1.0
 40
1.0
 40
1.0
 40
1.0
 10
29456.28711818491
 20
-3726.48328583641
 30
0.0
 10
29456.16911087551
 20
-3726.641176832208
 30
0.0
 10
29456.0998008669
 20
-3726.832837597126
 30
0.0
 10
29456.08948820985
 20
-3727.029614815976
 30
0.0
  0
SPLINE
  5
39D5F
330
1F
100
AcDbEntity
  8
SEIHIN
  6
Continuous
 62
     3
100
AcDbSpline
210
0.0
220
0.0
230
1.0
 70
    24
 71
     3
 72
    10
 73
     6
 74
     0
 42
0.0000000001
 43
0.0000000001
 40
0.0
 40
0.0
 40
0.0
 40
0.0
 40
0.5
 40
0.5
 40
1.0
 40
1.0
 40
1.0
 40
1.0
 10
29489.21111454167
 20
-3726.081950772219
 30
0.0
 10
29489.47602931994
 20
-3726.081950772219
 30
0.0
 10
29489.73126278776
 20
-3726.081950772219
 30
0.0
 10
29490.22042832767
 20
-3726.081950772219
 30
0.0
 10
29490.43638694378
 20
-3726.081950772219
 30
0.0
 10
29490.62372140605
 20
-3726.081950772219
 30
0.0
  0
SPLINE
  5
39D60
330
1F
100
AcDbEntity
  8
SEIHIN
  6
Continuous
 62
     3
100
AcDbSpline
210
0.0
220
0.0
230
1.0
 70
     8
 71
     3
 72
    19
 73
    15
 74
     0
 42
0.0000000001
 43
0.0000000001
 40
0.0
 40
0.0
 40
0.0
 40
0.0
 40
0.0990096961492502
 40
0.1987865918830265
 40
0.2991188537451234
 40
0.3996528865990346
 40
0.4998953665024948
 40
0.6226005034445413
 40
0.7454943805120333
 40
0.872483393020726
 40
0.936415907099181
 40
0.9684203179650047
 40
0.9844244216687577
 40
0.9999999999999998
 40
0.9999999999999998
 40
0.9999999999999998
 40
0.9999999999999998
 10
29456.28711818491
 20
-3726.483285836409
 30
0.0
 10
29456.30615530093
 20
-3726.458760350146
 30
0.0
 10
29456.34437704648
 20
-3726.409519336205
 30
0.0
 10
29456.40431261442
 20
-3726.34346091599
 30
0.0
 10
29456.46495550982
 20
-3726.283562717295
 30
0.0
 10
29456.52555503062
 20
-3726.230945370989
 30
0.0
 10
29456.59005789413
 20
-3726.182391555598
 30
0.0
 10
29456.65780599859
 20
-3726.140350627474
 30
0.0
 10
29456.72855153581
 20
-3726.10724703611
 30
0.0
 10
29456.78634524302
 20
-3726.090114363498
 30
0.0
 10
29456.82610168895
 20
-3726.083984091844
 30
0.0
 10
29456.84564075755
 20
-3726.082458213645
 30
0.0
 10
29456.85672741027
 20
-3726.08201140235
 30
0.0
 10
29456.86201683017
 20
-3726.081970798603
 30
0.0
 10
29456.86462565232
 20
-3726.081950772219
 30
0.0
  0
SPLINE
  5
39D61
330
1F
100
AcDbEntity
  8
SEIHIN
  6
Continuous
 62
     3
100
AcDbSpline
210
0.0
220
0.0
230
1.0
 70
    24
 71
     3
 72
     8
 73
     4
 74
     0
 42
0.0000000001
 43
0.0000000001
 40
0.0
 40
0.0
 40
0.0
 40
0.0
 40
1.0
 40
1.0
 40
1.0
 40
1.0
 10
29456.86500622672
 20
-3726.081950772219
 30
0.0
 10
29456.81395372959
 20
-3726.081950772219
 30
0.0
 10
29456.75498003552
 20
-3726.081950772219
 30
0.0
 10
29456.68888526601
 20
-3726.081950772219
 30
0.0
  0
SPLINE
  5
39D62
330
1F
100
AcDbEntity
  8
SEIHIN
  6
Continuous
 62
     3
100
AcDbSpline
210
0.0
220
0.0
230
1.0
 70
    24
 71
     3
 72
     8
 73
     4
 74
     0
 42
0.0000000001
 43
0.0000000001
 40
0.0
 40
0.0
 40
0.0
 40
0.0
 40
1.0
 40
1.0
 40
1.0
 40
1.0
 10
29456.68888526601
 20
-3726.081950772219
 30
0.0
 10
29456.43733816519
 20
-3726.081950772219
 30
0.0
 10
29456.09635931616
 20
-3726.081950772219
 30
0.0
 10
29455.76800198363
 20
-3726.081950772219
 30
0.0
  0
SPLINE
  5
39D63
330
1F
100
AcDbEntity
  8
SEIHIN
  6
Continuous
 62
     3
100
AcDbSpline
210
0.0
220
0.0
230
1.0
 70
     8
 71
     3
 72
    14
 73
    10
 74
     0
 42
0.0000000001
 43
0.0000000001
 40
0.0
 40
0.0
 40
0.0
 40
0.0
 40
0.25
 40
0.25
 40
0.5
 40
0.5
 40
0.75
 40
0.75
 40
1.0
 40
1.0
 40
1.0
 40
1.0
 10
29492.20700314593
 20
-3727.029614815976
 30
0.0
 10
29492.20099886344
 20
-3726.915046281032
 30
0.0
 10
29492.17425539678
 20
-3726.793108130423
 30
0.0
 10
29492.07046955956
 20
-3726.559314884379
 30
0.0
 10
29491.99319319678
 20
-3726.448118277537
 30
0.0
 10
29491.80026317696
 20
-3726.265034524878
 30
0.0
 10
29491.68517462886
 20
-3726.193683647415
 30
0.0
 10
29491.4462700573
 20
-3726.102275838174
 30
0.0
 10
29491.32309937379
 20
-3726.081950772219
 30
0.0
 10
29491.20837361117
 20
-3726.081950772219
 30
0.0
  0
SPLINE
  5
39D64
330
1F
100
AcDbEntity
  8
SEIHIN
  6
Continuous
 62
     3
100
AcDbSpline
210
0.0
220
0.0
230
1.0
 70
    24
 71
     3
 72
    10
 73
     6
 74
     0
 42
0.0000000001
 43
0.0000000001
 40
0.0
 40
0.0
 40
0.0
 40
0.0
 40
0.5
 40
0.5
 40
1.0
 40
1.0
 40
1.0
 40
1.0
 10
29490.62372140605
 20
-3726.081950772219
 30
0.0
 10
29490.81078842423
 20
-3726.081950772219
 30
0.0
 10
29490.95516447585
 20
-3726.081950772219
 30
0.0
 10
29491.15773178411
 20
-3726.081950772219
 30
0.0
 10
29491.20837361117
 20
-3726.081950772219
 30
0.0
 10
29491.20837361117
 20
-3726.081950772219
 30
0.0
  0
SPLINE
  5
39D65
330
1F
100
AcDbEntity
  8
SEIHIN
  6
Continuous
 62
     3
100
AcDbSpline
210
0.0
220
0.0
230
1.0
 70
     8
 71
     3
 72
    11
 73
     7
 74
     0
 42
0.0000000001
 43
0.0000000001
 40
0.0
 40
0.0
 40
0.0
 40
0.0
 40
0.2913216641411484
 40
0.6024090590351282
 40
0.817264948738912
 40
1.0
 40
1.0
 40
1.0
 40
1.0
 10
29455.00164207211
 20
-3747.777543155334
 30
0.0
 10
29454.8824082053
 20
-3750.040749819733
 30
0.0
 10
29454.63585063561
 20
-3754.720718270147
 30
0.0
 10
29454.29339453327
 20
-3761.069427184729
 30
0.0
 10
29453.99207768806
 20
-3766.574373149632
 30
0.0
 10
29453.81882611524
 20
-3769.662589173659
 30
0.0
 10
29453.73919870985
 20
-3771.081950772006
 30
0.0
  0
VIEWPORT
  5
3B0EC
102
{ACAD_XDICTIONARY
360
3B2E2
102
}
330
3B0EA
100
AcDbEntity
 67
     1
  8
0
100
AcDbViewport
 10
133.1519824992946
 20
119.4125883964345
 30
0.0
 40
702.2941397127873
 41
330.9836953142605
 68
     1
 69
     1
 12
133.1519824992946
 22
119.4125883964345
 13
0.0
 23
0.0
 14
10.0
 24
10.0
 15
10.0
 25
10.0
 16
0.0
 26
0.0
 36
1.0
 17
0.0
 27
0.0
 37
0.0
 42
50.0
 43
0.0
 44
0.0
 45
330.9836953142605
 50
0.0
 51
0.0
 72
  2000
 90
    32800
  1

281
     0
 71
     1
 74
     0
110
0.0
120
0.0
130
0.0
111
1.0
121
0.0
131
0.0
112
0.0
122
1.0
132
0.0
 79
     0
146
0.0
  0
VIEWPORT
  5
3B0ED
102
{ACAD_XDICTIONARY
360
3B2E4
102
}
330
3B0EA
100
AcDbEntity
 67
     1
  8
0
100
AcDbViewport
 10
135.2920704389401
 20
124.8806473277914
 30
0.0
 40
418.2613698910962
 41
295.0483533347457
 68
     2
 69
     2
 12
28840.59754430972
 22
-4028.031027828436
 13
0.0
 23
0.0
 14
10.0
 24
10.0
 15
10.0
 25
10.0
 16
0.0
 26
0.0
 36
1.0
 17
0.0
 27
0.0
 37
0.0
 42
50.0
 43
0.0
 44
0.0
 45
1180.193406153353
 50
0.0
 51
0.0
 72
  2000
 90
    32832
  1

281
     0
 71
     1
 74
     0
110
0.0
120
0.0
130
0.0
111
1.0
121
0.0
131
0.0
112
0.0
122
1.0
132
0.0
 79
     0
146
0.0
  0
ENDSEC
  0
SECTION
  2
OBJECTS
  0
DICTIONARY
  5
C
330
0
100
AcDbDictionary
281
     1
  3
ACAD_COLOR
350
C5F
  3
ACAD_GROUP
350
D
  3
ACAD_LAYOUT
350
1A
  3
ACAD_MATERIAL
350
C5E
  3
ACAD_MLINESTYLE
350
17
  3
ACAD_PLOTSETTINGS
350
19
  3
ACAD_PLOTSTYLENAME
350
E
  3
ACAD_SCALELIST
350
47
  3
ACDBHEADERROUNDTRIPXREC
350
3B2DD
  3
AcDbVariableDictionary
350
3AFDA
  3
DWGPROPS
350
3B2DC
  0
DICTIONARY
  5
1F218
330
2
100
AcDbDictionary
280
     1
281
     1
  3
ACAD_LAYERFILTERS
360
3A1CA
  3
ACAD_LAYERSTATES
360
1F219
  0
DICTIONARY
  5
1FBAB
330
1FBAA
100
AcDbDictionary
280
     1
281
     1
  0
DICTIONARY
  5
3B2E2
330
3B0EC
100
AcDbDictionary
280
     1
281
     1
  3
ACAD_XREC_ROUNDTRIP
360
3B2E3
  0
DICTIONARY
  5
3B2E4
330
3B0ED
100
AcDbDictionary
280
     1
281
     1
  3
ACAD_XREC_ROUNDTRIP
360
3B2E5
  0
DICTIONARY
  5
C5F
102
{ACAD_REACTORS
330
C
102
}
330
C
100
AcDbDictionary
281
     1
  0
DICTIONARY
  5
D
102
{ACAD_REACTORS
330
C
102
}
330
C
100
AcDbDictionary
281
     1
  3
*A1
350
36CF
  3
*A10
350
2F6A0
  3
*A100
350
1AB36
  3
*A101
350
16E23
  3
*A102
350
36D5
  3
*A103
350
15424
  3
*A104
350
1AAA2
  3
*A105
350
81BB
  3
*A106
350
11D39
  3
*A107
350
876D
  3
*A108
350
2B930
  3
*A109
350
1B17E
  3
*A11
350
300DE
  3
*A110
350
2E71A
  3
*A111
350
2E9E8
  3
*A112
350
2F6BB
  3
*A113
350
1A7D3
  3
*A114
350
2F6A1
  3
*A115
350
30BB4
  3
*A116
350
16EE2
  3
*A117
350
732C
  3
*A118
350
300E1
  3
*A119
350
E332
  3
*A12
350
2E646
  3
*A120
350
16B77
  3
*A121
350
2FC97
  3
*A122
350
3304A
  3
*A123
350
3304B
  3
*A124
350
76F0
  3
*A125
350
12663
  3
*A126
350
1D242
  3
*A127
350
876C
  3
*A128
350
2F6D8
  3
*A129
350
2E818
  3
*A13
350
98F4
  3
*A130
350
16E25
  3
*A131
350
E3CE
  3
*A132
350
E2E5
  3
*A133
350
1AAF9
  3
*A134
350
1B162
  3
*A135
350
1AB54
  3
*A136
350
2F6BC
  3
*A137
350
2E819
  3
*A138
350
2E719
  3
*A139
350
16CC8
  3
*A14
350
2E9EA
  3
*A140
350
1A381
  3
*A141
350
1A33E
  3
*A142
350
7B00
  3
*A143
350
2B9D6
  3
*A144
350
322E4
  3
*A145
350
7B01
  3
*A146
350
2CDA9
  3
*A147
350
2E334
  3
*A148
350
32210
  3
*A149
350
16BFD
  3
*A15
350
2B9CA
  3
*A150
350
1AAA1
  3
*A151
350
16E24
  3
*A152
350
2D527
  3
*A153
350
2B9D7
  3
*A154
350
16B76
  3
*A155
350
2BA2E
  3
*A156
350
2EB85
  3
*A157
350
1A72F
  3
*A158
350
99FD
  3
*A159
350
1A0E1
  3
*A16
350
2FC1E
  3
*A160
350
12142
  3
*A161
350
1EF06
  3
*A162
350
2B9CE
  3
*A163
350
36403
  3
*A164
350
36404
  3
*A165
350
2C757
  3
*A166
350
1A781
  3
*A167
350
2E9E9
  3
*A168
350
32629
  3
*A169
350
38F76
  3
*A17
350
3089D
  3
*A170
350
39315
  3
*A171
350
3934C
  3
*A172
350
39E38
  3
*A173
350
2CCD2
  3
*A174
350
2BB07
  3
*A175
350
876E
  3
*A176
350
39E39
  3
*A177
350
2C758
  3
*A178
350
D0B3
  3
*A179
350
2D52D
  3
*A18
350
3262B
  3
*A180
350
16EE1
  3
*A181
350
2D52A
  3
*A182
350
1A7AA
  3
*A183
350
2CCEC
  3
*A184
350
7AD8
  3
*A185
350
149D3
  3
*A186
350
2D52E
  3
*A187
350
1FA2F
  3
*A188
350
8802
  3
*A189
350
996B
  3
*A19
350
2F72B
  3
*A190
350
2F6D9
  3
*A191
350
2D915
  3
*A192
350
2E338
  3
*A193
350
2D52F
  3
*A194
350
2CDAA
  3
*A195
350
2FC95
  3
*A196
350
19E53
  3
*A197
350
19A57
  3
*A198
350
81AA
  3
*A199
350
1D241
  3
*A2
350
1A5A1
  3
*A20
350
3262C
  3
*A200
350
2D529
  3
*A201
350
2F72C
  3
*A202
350
1EC4E
  3
*A203
350
7AD9
  3
*A204
350
2C759
  3
*A205
350
16CCA
  3
*A206
350
2D530
  3
*A207
350
8813
  3
*A208
350
16E28
  3
*A209
350
2D531
  3
*A21
350
2E337
  3
*A210
350
1AAF8
  3
*A211
350
2CDA8
  3
*A212
350
1B197
  3
*A213
350
19E52
  3
*A214
350
1A5F5
  3
*A215
350
2F727
  3
*A216
350
2B7FE
  3
*A217
350
9527
  3
*A218
350
2CC76
  3
*A219
350
1EC28
  3
*A22
350
2F752
  3
*A220
350
2BA33
  3
*A221
350
E40A
  3
*A222
350
2D52B
  3
*A223
350
1A7FC
  3
*A224
350
33818
  3
*A225
350
33819
  3
*A226
350
33D7A
  3
*A227
350
33D7B
  3
*A228
350
1ABC9
  3
*A229
350
1AAC1
  3
*A23
350
2E642
  3
*A230
350
2E336
  3
*A231
350
11D38
  3
*A232
350
D2B7
  3
*A233
350
2F725
  3
*A234
350
81AB
  3
*A235
350
3108C
  3
*A236
350
3108D
  3
*A237
350
2F75A
  3
*A238
350
3089E
  3
*A239
350
16BFC
  3
*A24
350
2D52C
  3
*A240
350
16EE3
  3
*A241
350
19E51
  3
*A242
350
3109F
  3
*A243
350
1D274
  3
*A244
350
1006C
  3
*A245
350
2E645
  3
*A246
350
312E7
  3
*A247
350
2FA6A
  3
*A248
350
16A8C
  3
*A249
350
3262A
  3
*A25
350
2AF6D
  3
*A250
350
312E8
  3
*A251
350
312E9
  3
*A252
350
3022C
  3
*A253
350
31B42
  3
*A254
350
1A193
  3
*A255
350
17B62
  3
*A256
350
2B8FE
  3
*A257
350
2F6D6
  3
*A258
350
2FA6B
  3
*A259
350
2FAFF
  3
*A26
350
9529
  3
*A260
350
2EB83
  3
*A261
350
31B43
  3
*A262
350
3B235
  3
*A263
350
2F72A
  3
*A264
350
2FD83
  3
*A265
350
2B7FD
  3
*A27
350
2AF6E
  3
*A28
350
8178
  3
*A29
350
301FC
  3
*A3
350
2B917
  3
*A30
350
1EEB7
  3
*A31
350
2FC1C
  3
*A32
350
E3CD
  3
*A33
350
300DF
  3
*A34
350
1A4E1
  3
*A35
350
1A825
  3
*A36
350
1A2FB
  3
*A37
350
149D2
  3
*A38
350
9528
  3
*A39
350
32204
  3
*A4
350
2BB08
  3
*A40
350
16CC9
  3
*A41
350
12770
  3
*A42
350
2AF6F
  3
*A43
350
12141
  3
*A44
350
2FC1D
  3
*A45
350
1A68B
  3
*A46
350
1252B
  3
*A47
350
2F726
  3
*A48
350
2E814
  3
*A49
350
13067
  3
*A5
350
12771
  3
*A50
350
1A68A
  3
*A51
350
1AB72
  3
*A52
350
16B4C
  3
*A53
350
16E26
  3
*A54
350
2AF83
  3
*A55
350
2BB06
  3
*A56
350
98F3
  3
*A57
350
2F729
  3
*A58
350
1D240
  3
*A59
350
2F762
  3
*A6
350
2FDE3
  3
*A60
350
2B6E6
  3
*A61
350
2EB84
  3
*A62
350
1EC64
  3
*A63
350
15425
  3
*A64
350
1EEB8
  3
*A65
350
2FC96
  3
*A66
350
1B149
  3
*A67
350
301FB
  3
*A68
350
817B
  3
*A69
350
3491D
  3
*A7
350
2FDE4
  3
*A70
350
76F1
  3
*A71
350
2F6D7
  3
*A72
350
1D243
  3
*A73
350
1AB18
  3
*A74
350
16A60
  3
*A75
350
3220A
  3
*A76
350
2F728
  3
*A77
350
16BFE
  3
*A78
350
30B80
  3
*A79
350
2CDAB
  3
*A8
350
300DD
  3
*A80
350
2B7FC
  3
*A81
350
1A61E
  3
*A82
350
1252C
  3
*A83
350
30B81
  3
*A84
350
300E0
  3
*A85
350
2E335
  3
*A86
350
2B8E0
  3
*A87
350
1D244
  3
*A88
350
E31A
  3
*A89
350
2E644
  3
*A9
350
8179
  3
*A90
350
2B972
  3
*A91
350
7B15
  3
*A92
350
DED9
  3
*A93
350
1AAA3
  3
*A94
350
1A758
  3
*A95
350
16E27
  3
*A96
350
2E643
  3
*A97
350
2D528
  3
*A98
350
732B
  3
*A99
350
2CCB9
  0
DICTIONARY
  5
1A
102
{ACAD_REACTORS
330
C
102
}
330
C
100
AcDbDictionary
281
     1
  3
Model
350
22
  3
止り
350
3B0EF
  0
DICTIONARY
  5
C5E
102
{ACAD_REACTORS
330
C
102
}
330
C
100
AcDbDictionary
281
     1
  0
DICTIONARY
  5
17
102
{ACAD_REACTORS
330
C
102
}
330
C
100
AcDbDictionary
281
     1
  3
Standard
350
18
  0
DICTIONARY
  5
19
102
{ACAD_REACTORS
330
C
102
}
330
C
100
AcDbDictionary
281
     1
  0
ACDBDICTIONARYWDFLT
  5
E
102
{ACAD_REACTORS
330
C
102
}
330
C
100
AcDbDictionary
281
     1
  3
Normal
350
F
100
AcDbDictionaryWithDefault
340
F
  0
DICTIONARY
  5
47
102
{ACAD_REACTORS
330
C
102
}
330
C
100
AcDbDictionary
281
     1
  3
A0
350
48
  3
A1
350
49
  3
A2
350
4A
  3
A3
350
4B
  3
A4
350
4C
  3
A5
350
4D
  3
A6
350
4E
  3
A7
350
4F
  3
A8
350
50
  3
A9
350
51
  3
B0
350
52
  3
B1
350
53
  3
B2
350
54
  3
B3
350
55
  3
B4
350
56
  3
B5
350
57
  3
B6
350
58
  3
B7
350
59
  3
B8
350
5A
  3
B9
350
5B
  3
C0
350
5C
  3
C1
350
5D
  3
C2
350
5E
  3
C3
350
5F
  3
C4
350
60
  3
C5
350
61
  3
C6
350
62
  3
C7
350
63
  3
C8
350
64
  3
C9
350
65
  3
D0
350
66
  3
D1
350
67
  3
D2
350
68
  0
DICTIONARY
  5
3B2DD
102
{ACAD_REACTORS
330
C
102
}
330
C
100
AcDbDictionary
281
     1
  3
COLORDICT
350
3B2DF
  3
MATERIALDICT
350
3B2DE
  0
DICTIONARY
  5
3AFDA
102
{ACAD_REACTORS
330
C
102
}
330
C
100
AcDbDictionary
281
     1
  3
DIMASSOC
350
3AFDB
  3
PROJECTNAME
350
3AFDC
  0
XRECORD
  5
3B2DC
102
{ACAD_REACTORS
330
C
102
}
330
C
100
AcDbXrecord
280
     1
  1
DWGPROPS COOKIE
  2

  3

  4

  6

  7

  8
CAD1
  9

300
=
301
=
302
=
303
=
304
=
305
=
306
=
307
=
308
=
309
=
 40
11.13847288194444
 41
2459977.552915243
 42
2460199.717750498
  1

 90
        0
  0
DICTIONARY
  5
3A1CA
102
{ACAD_REACTORS
330
1F218
102
}
330
1F218
100
AcDbDictionary
281
     1
  0
DICTIONARY
  5
1F219
102
{ACAD_REACTORS
330
1F218
102
}
330
1F218
100
AcDbDictionary
281
     1
  0
XRECORD
  5
3B2E3
102
{ACAD_REACTORS
330
3B2E2
102
}
330
3B2E2
100
AcDbXrecord
280
     1
102
SHADEPLOT
 70
     0
  0
XRECORD
  5
3B2E5
102
{ACAD_REACTORS
330
3B2E4
102
}
330
3B2E4
100
AcDbXrecord
280
     1
102
SHADEPLOT
 70
     0
  0
GROUP
  5
36CF
102
{ACAD_REACTORS
330
D
102
}
330
D
100
AcDbGroup
300

 70
     1
 71
     1
  0
GROUP
  5
2F6A0
102
{ACAD_REACTORS
330
D
102
}
330
D
100
AcDbGroup
300

 70
     1
 71
     1
  0
GROUP
  5
1AB36
102
{ACAD_REACTORS
330
D
102
}
330
D
100
AcDbGroup
300

 70
     1
 71
     1
  0
GROUP
  5
16E23
102
{ACAD_REACTORS
330
D
102
}
330
D
100
AcDbGroup
300

 70
     1
 71
     1
  0
GROUP
  5
36D5
102
{ACAD_REACTORS
330
D
102
}
330
D
100
AcDbGroup
300

 70
     1
 71
     1
  0
GROUP
  5
15424
102
{ACAD_REACTORS
330
D
102
}
330
D
100
AcDbGroup
300

 70
     1
 71
     1
  0
GROUP
  5
1AAA2
102
{ACAD_REACTORS
330
D
102
}
330
D
100
AcDbGroup
300

 70
     1
 71
     1
  0
GROUP
  5
81BB
102
{ACAD_REACTORS
330
D
102
}
330
D
100
AcDbGroup
300

 70
     1
 71
     1
  0
GROUP
  5
11D39
102
{ACAD_REACTORS
330
D
102
}
330
D
100
AcDbGroup
300

 70
     1
 71
     1
  0
GROUP
  5
876D
102
{ACAD_REACTORS
330
D
102
}
330
D
100
AcDbGroup
300

 70
     1
 71
     1
  0
GROUP
  5
2B930
102
{ACAD_REACTORS
330
D
102
}
330
D
100
AcDbGroup
300

 70
     1
 71
     1
  0
GROUP
  5
1B17E
102
{ACAD_REACTORS
330
D
102
}
330
D
100
AcDbGroup
300

 70
     1
 71
     1
  0
GROUP
  5
300DE
102
{ACAD_REACTORS
330
D
102
}
330
D
100
AcDbGroup
300

 70
     1
 71
     1
  0
GROUP
  5
2E71A
102
{ACAD_REACTORS
330
D
102
}
330
D
100
AcDbGroup
300

 70
     1
 71
     1
  0
GROUP
  5
2E9E8
102
{ACAD_REACTORS
330
D
102
}
330
D
100
AcDbGroup
300

 70
     1
 71
     1
  0
GROUP
  5
2F6BB
102
{ACAD_REACTORS
330
D
102
}
330
D
100
AcDbGroup
300

 70
     1
 71
     1
  0
GROUP
  5
1A7D3
102
{ACAD_REACTORS
330
D
102
}
330
D
100
AcDbGroup
300

 70
     1
 71
     1
  0
GROUP
  5
2F6A1
102
{ACAD_REACTORS
330
D
102
}
330
D
100
AcDbGroup
300

 70
     1
 71
     1
  0
GROUP
  5
30BB4
102
{ACAD_REACTORS
330
D
102
}
330
D
100
AcDbGroup
300

 70
     1
 71
     1
  0
GROUP
  5
16EE2
102
{ACAD_REACTORS
330
D
102
}
330
D
100
AcDbGroup
300

 70
     1
 71
     1
  0
GROUP
  5
732C
102
{ACAD_REACTORS
330
D
102
}
330
D
100
AcDbGroup
300

 70
     1
 71
     1
  0
GROUP
  5
300E1
102
{ACAD_REACTORS
330
D
102
}
330
D
100
AcDbGroup
300

 70
     1
 71
     1
  0
GROUP
  5
E332
102
{ACAD_REACTORS
330
D
102
}
330
D
100
AcDbGroup
300

 70
     1
 71
     1
  0
GROUP
  5
2E646
102
{ACAD_REACTORS
330
D
102
}
330
D
100
AcDbGroup
300

 70
     1
 71
     1
  0
GROUP
  5
16B77
102
{ACAD_REACTORS
330
D
102
}
330
D
100
AcDbGroup
300

 70
     1
 71
     1
  0
GROUP
  5
2FC97
102
{ACAD_REACTORS
330
D
102
}
330
D
100
AcDbGroup
300

 70
     1
 71
     1
  0
GROUP
  5
3304A
102
{ACAD_REACTORS
330
D
102
}
330
D
100
AcDbGroup
300

 70
     1
 71
     1
  0
GROUP
  5
3304B
102
{ACAD_REACTORS
330
D
102
}
330
D
100
AcDbGroup
300

 70
     1
 71
     1
  0
GROUP
  5
76F0
102
{ACAD_REACTORS
330
D
102
}
330
D
100
AcDbGroup
300

 70
     1
 71
     1
  0
GROUP
  5
12663
102
{ACAD_REACTORS
330
D
102
}
330
D
100
AcDbGroup
300

 70
     1
 71
     1
  0
GROUP
  5
1D242
102
{ACAD_REACTORS
330
D
102
}
330
D
100
AcDbGroup
300

 70
     1
 71
     1
  0
GROUP
  5
876C
102
{ACAD_REACTORS
330
D
102
}
330
D
100
AcDbGroup
300

 70
     1
 71
     1
  0
GROUP
  5
2F6D8
102
{ACAD_REACTORS
330
D
102
}
330
D
100
AcDbGroup
300

 70
     1
 71
     1
  0
GROUP
  5
2E818
102
{ACAD_REACTORS
330
D
102
}
330
D
100
AcDbGroup
300

 70
     1
 71
     1
  0
GROUP
  5
98F4
102
{ACAD_REACTORS
330
D
102
}
330
D
100
AcDbGroup
300

 70
     1
 71
     1
  0
GROUP
  5
16E25
102
{ACAD_REACTORS
330
D
102
}
330
D
100
AcDbGroup
300

 70
     1
 71
     1
  0
GROUP
  5
E3CE
102
{ACAD_REACTORS
330
D
102
}
330
D
100
AcDbGroup
300

 70
     1
 71
     1
  0
GROUP
  5
E2E5
102
{ACAD_REACTORS
330
D
102
}
330
D
100
AcDbGroup
300

 70
     1
 71
     1
  0
GROUP
  5
1AAF9
102
{ACAD_REACTORS
330
D
102
}
330
D
100
AcDbGroup
300

 70
     1
 71
     1
  0
GROUP
  5
1B162
102
{ACAD_REACTORS
330
D
102
}
330
D
100
AcDbGroup
300

 70
     1
 71
     1
  0
GROUP
  5
1AB54
102
{ACAD_REACTORS
330
D
102
}
330
D
100
AcDbGroup
300

 70
     1
 71
     1
  0
GROUP
  5
2F6BC
102
{ACAD_REACTORS
330
D
102
}
330
D
100
AcDbGroup
300

 70
     1
 71
     1
  0
GROUP
  5
2E819
102
{ACAD_REACTORS
330
D
102
}
330
D
100
AcDbGroup
300

 70
     1
 71
     1
  0
GROUP
  5
2E719
102
{ACAD_REACTORS
330
D
102
}
330
D
100
AcDbGroup
300

 70
     1
 71
     1
  0
GROUP
  5
16CC8
102
{ACAD_REACTORS
330
D
102
}
330
D
100
AcDbGroup
300

 70
     1
 71
     1
  0
GROUP
  5
2E9EA
102
{ACAD_REACTORS
330
D
102
}
330
D
100
AcDbGroup
300

 70
     1
 71
     1
  0
GROUP
  5
1A381
102
{ACAD_REACTORS
330
D
102
}
330
D
100
AcDbGroup
300

 70
     1
 71
     1
  0
GROUP
  5
1A33E
102
{ACAD_REACTORS
330
D
102
}
330
D
100
AcDbGroup
300

 70
     1
 71
     1
  0
GROUP
  5
7B00
102
{ACAD_REACTORS
330
D
102
}
330
D
100
AcDbGroup
300

 70
     1
 71
     1
  0
GROUP
  5
2B9D6
102
{ACAD_REACTORS
330
D
102
}
330
D
100
AcDbGroup
300

 70
     1
 71
     1
  0
GROUP
  5
322E4
102
{ACAD_REACTORS
330
D
102
}
330
D
100
AcDbGroup
300

 70
     1
 71
     1
  0
GROUP
  5
7B01
102
{ACAD_REACTORS
330
D
102
}
330
D
100
AcDbGroup
300

 70
     1
 71
     1
  0
GROUP
  5
2CDA9
102
{ACAD_REACTORS
330
D
102
}
330
D
100
AcDbGroup
300

 70
     1
 71
     1
  0
GROUP
  5
2E334
102
{ACAD_REACTORS
330
D
102
}
330
D
100
AcDbGroup
300

 70
     1
 71
     1
  0
GROUP
  5
32210
102
{ACAD_REACTORS
330
D
102
}
330
D
100
AcDbGroup
300

 70
     1
 71
     1
  0
GROUP
  5
16BFD
102
{ACAD_REACTORS
330
D
102
}
330
D
100
AcDbGroup
300

 70
     1
 71
     1
  0
GROUP
  5
2B9CA
102
{ACAD_REACTORS
330
D
102
}
330
D
100
AcDbGroup
300

 70
     1
 71
     1
  0
GROUP
  5
1AAA1
102
{ACAD_REACTORS
330
D
102
}
330
D
100
AcDbGroup
300

 70
     1
 71
     1
  0
GROUP
  5
16E24
102
{ACAD_REACTORS
330
D
102
}
330
D
100
AcDbGroup
300

 70
     1
 71
     1
  0
GROUP
  5
2D527
102
{ACAD_REACTORS
330
D
102
}
330
D
100
AcDbGroup
300

 70
     1
 71
     1
  0
GROUP
  5
2B9D7
102
{ACAD_REACTORS
330
D
102
}
330
D
100
AcDbGroup
300

 70
     1
 71
     1
  0
GROUP
  5
16B76
102
{ACAD_REACTORS
330
D
102
}
330
D
100
AcDbGroup
300

 70
     1
 71
     1
  0
GROUP
  5
2BA2E
102
{ACAD_REACTORS
330
D
102
}
330
D
100
AcDbGroup
300

 70
     1
 71
     1
  0
GROUP
  5
2EB85
102
{ACAD_REACTORS
330
D
102
}
330
D
100
AcDbGroup
300

 70
     1
 71
     1
  0
GROUP
  5
1A72F
102
{ACAD_REACTORS
330
D
102
}
330
D
100
AcDbGroup
300

 70
     1
 71
     1
  0
GROUP
  5
99FD
102
{ACAD_REACTORS
330
D
102
}
330
D
100
AcDbGroup
300

 70
     1
 71
     1
  0
GROUP
  5
1A0E1
102
{ACAD_REACTORS
330
D
102
}
330
D
100
AcDbGroup
300

 70
     1
 71
     1
  0
GROUP
  5
2FC1E
102
{ACAD_REACTORS
330
D
102
}
330
D
100
AcDbGroup
300

 70
     1
 71
     1
  0
GROUP
  5
12142
102
{ACAD_REACTORS
330
D
102
}
330
D
100
AcDbGroup
300

 70
     1
 71
     1
  0
GROUP
  5
1EF06
102
{ACAD_REACTORS
330
D
102
}
330
D
100
AcDbGroup
300

 70
     1
 71
     1
  0
GROUP
  5
2B9CE
102
{ACAD_REACTORS
330
D
102
}
330
D
100
AcDbGroup
300

 70
     1
 71
     1
  0
GROUP
  5
36403
102
{ACAD_REACTORS
330
D
102
}
330
D
100
AcDbGroup
300

 70
     1
 71
     1
  0
GROUP
  5
36404
102
{ACAD_REACTORS
330
D
102
}
330
D
100
AcDbGroup
300

 70
     1
 71
     1
  0
GROUP
  5
2C757
102
{ACAD_REACTORS
330
D
102
}
330
D
100
AcDbGroup
300

 70
     1
 71
     1
  0
GROUP
  5
1A781
102
{ACAD_REACTORS
330
D
102
}
330
D
100
AcDbGroup
300

 70
     1
 71
     1
  0
GROUP
  5
2E9E9
102
{ACAD_REACTORS
330
D
102
}
330
D
100
AcDbGroup
300

 70
     1
 71
     1
  0
GROUP
  5
32629
102
{ACAD_REACTORS
330
D
102
}
330
D
100
AcDbGroup
300

 70
     1
 71
     1
  0
GROUP
  5
38F76
102
{ACAD_REACTORS
330
D
102
}
330
D
100
AcDbGroup
300

 70
     1
 71
     1
  0
GROUP
  5
3089D
102
{ACAD_REACTORS
330
D
102
}
330
D
100
AcDbGroup
300

 70
     1
 71
     1
  0
GROUP
  5
39315
102
{ACAD_REACTORS
330
D
102
}
330
D
100
AcDbGroup
300

 70
     1
 71
     1
  0
GROUP
  5
3934C
102
{ACAD_REACTORS
330
D
102
}
330
D
100
AcDbGroup
300

 70
     1
 71
     1
  0
GROUP
  5
39E38
102
{ACAD_REACTORS
330
D
102
}
330
D
100
AcDbGroup
300

 70
     1
 71
     1
340
39CBF
340
39CBE
340
39CBD
340
39CBC
340
39CBB
340
39CBA
340
39CB9
340
39CB8
340
39CB7
340
39CB6
340
39CB5
340
39CB4
340
39CB3
340
39CC0
340
39CB2
340
39CB1
340
39CC1
340
39CB0
340
39CAF
340
39CAE
340
39CAD
340
39CAC
340
39CAB
340
39CAA
340
39CA9
340
39CA8
340
39CA7
340
39CA6
340
39CA5
340
39CA4
340
39CA3
340
39CA2
340
39CA1
340
39CA0
340
39C9F
340
39C9E
340
39C9D
340
39C9C
340
39C9B
340
39C9A
340
39C99
340
39C98
340
39C97
340
39C96
340
39C95
340
39C94
340
39C93
340
39C92
340
39C91
340
39C90
340
39CC2
  0
GROUP
  5
2CCD2
102
{ACAD_REACTORS
330
D
102
}
330
D
100
AcDbGroup
300

 70
     1
 71
     1
  0
GROUP
  5
2BB07
102
{ACAD_REACTORS
330
D
102
}
330
D
100
AcDbGroup
300

 70
     1
 71
     1
  0
GROUP
  5
876E
102
{ACAD_REACTORS
330
D
102
}
330
D
100
AcDbGroup
300

 70
     1
 71
     1
  0
GROUP
  5
39E39
102
{ACAD_REACTORS
330
D
102
}
330
D
100
AcDbGroup
300

 70
     1
 71
     1
340
39CF5
340
39CF4
340
39CF3
340
39CF2
340
39CF1
340
39CF0
340
39CEF
340
39CEE
340
39CED
340
39CEC
340
39CEB
340
39CEA
340
39CE9
340
39CE8
340
39CE7
340
39CE6
340
39CE5
340
39CE4
340
39CE3
340
39CE2
340
39CE1
340
39CE0
340
39CDF
340
39CDE
340
39CDD
340
39CDC
340
39CDB
340
39CDA
340
39CD9
340
39CD8
340
39CD7
340
39CD6
340
39CD5
340
39CD4
340
39CD3
340
39CD2
340
39CD1
340
39CD0
340
39CCF
340
39CCE
340
39CCD
340
39CCC
340
39CCB
340
39CCA
340
39CC9
340
39CC8
340
39CC7
340
39CC6
340
39CC5
340
39CC4
340
39CC3
  0
GROUP
  5
2C758
102
{ACAD_REACTORS
330
D
102
}
330
D
100
AcDbGroup
300

 70
     1
 71
     1
  0
GROUP
  5
D0B3
102
{ACAD_REACTORS
330
D
102
}
330
D
100
AcDbGroup
300

 70
     1
 71
     1
  0
GROUP
  5
2D52D
102
{ACAD_REACTORS
330
D
102
}
330
D
100
AcDbGroup
300

 70
     1
 71
     1
  0
GROUP
  5
3262B
102
{ACAD_REACTORS
330
D
102
}
330
D
100
AcDbGroup
300

 70
     1
 71
     1
  0
GROUP
  5
16EE1
102
{ACAD_REACTORS
330
D
102
}
330
D
100
AcDbGroup
300

 70
     1
 71
     1
  0
GROUP
  5
2D52A
102
{ACAD_REACTORS
330
D
102
}
330
D
100
AcDbGroup
300

 70
     1
 71
     1
  0
GROUP
  5
1A7AA
102
{ACAD_REACTORS
330
D
102
}
330
D
100
AcDbGroup
300

 70
     1
 71
     1
  0
GROUP
  5
2CCEC
102
{ACAD_REACTORS
330
D
102
}
330
D
100
AcDbGroup
300

 70
     1
 71
     1
  0
GROUP
  5
7AD8
102
{ACAD_REACTORS
330
D
102
}
330
D
100
AcDbGroup
300

 70
     1
 71
     1
  0
GROUP
  5
149D3
102
{ACAD_REACTORS
330
D
102
}
330
D
100
AcDbGroup
300

 70
     1
 71
     1
  0
GROUP
  5
2D52E
102
{ACAD_REACTORS
330
D
102
}
330
D
100
AcDbGroup
300

 70
     1
 71
     1
  0
GROUP
  5
1FA2F
102
{ACAD_REACTORS
330
D
102
}
330
D
100
AcDbGroup
300

 70
     1
 71
     1
  0
GROUP
  5
8802
102
{ACAD_REACTORS
330
D
102
}
330
D
100
AcDbGroup
300

 70
     1
 71
     1
  0
GROUP
  5
996B
102
{ACAD_REACTORS
330
D
102
}
330
D
100
AcDbGroup
300

 70
     1
 71
     1
  0
GROUP
  5
2F72B
102
{ACAD_REACTORS
330
D
102
}
330
D
100
AcDbGroup
300

 70
     1
 71
     1
  0
GROUP
  5
2F6D9
102
{ACAD_REACTORS
330
D
102
}
330
D
100
AcDbGroup
300

 70
     1
 71
     1
  0
GROUP
  5
2D915
102
{ACAD_REACTORS
330
D
102
}
330
D
100
AcDbGroup
300

 70
     1
 71
     1
  0
GROUP
  5
2E338
102
{ACAD_REACTORS
330
D
102
}
330
D
100
AcDbGroup
300

 70
     1
 71
     1
  0
GROUP
  5
2D52F
102
{ACAD_REACTORS
330
D
102
}
330
D
100
AcDbGroup
300

 70
     1
 71
     1
  0
GROUP
  5
2CDAA
102
{ACAD_REACTORS
330
D
102
}
330
D
100
AcDbGroup
300

 70
     1
 71
     1
  0
GROUP
  5
2FC95
102
{ACAD_REACTORS
330
D
102
}
330
D
100
AcDbGroup
300

 70
     1
 71
     1
  0
GROUP
  5
19E53
102
{ACAD_REACTORS
330
D
102
}
330
D
100
AcDbGroup
300

 70
     1
 71
     1
  0
GROUP
  5
19A57
102
{ACAD_REACTORS
330
D
102
}
330
D
100
AcDbGroup
300

 70
     1
 71
     1
  0
GROUP
  5
81AA
102
{ACAD_REACTORS
330
D
102
}
330
D
100
AcDbGroup
300

 70
     1
 71
     1
  0
GROUP
  5
1D241
102
{ACAD_REACTORS
330
D
102
}
330
D
100
AcDbGroup
300

 70
     1
 71
     1
  0
GROUP
  5
1A5A1
102
{ACAD_REACTORS
330
D
102
}
330
D
100
AcDbGroup
300

 70
     1
 71
     1
  0
GROUP
  5
3262C
102
{ACAD_REACTORS
330
D
102
}
330
D
100
AcDbGroup
300

 70
     1
 71
     1
  0
GROUP
  5
2D529
102
{ACAD_REACTORS
330
D
102
}
330
D
100
AcDbGroup
300

 70
     1
 71
     1
  0
GROUP
  5
2F72C
102
{ACAD_REACTORS
330
D
102
}
330
D
100
AcDbGroup
300

 70
     1
 71
     1
  0
GROUP
  5
1EC4E
102
{ACAD_REACTORS
330
D
102
}
330
D
100
AcDbGroup
300

 70
     1
 71
     1
  0
GROUP
  5
7AD9
102
{ACAD_REACTORS
330
D
102
}
330
D
100
AcDbGroup
300

 70
     1
 71
     1
  0
GROUP
  5
2C759
102
{ACAD_REACTORS
330
D
102
}
330
D
100
AcDbGroup
300

 70
     1
 71
     1
  0
GROUP
  5
16CCA
102
{ACAD_REACTORS
330
D
102
}
330
D
100
AcDbGroup
300

 70
     1
 71
     1
  0
GROUP
  5
2D530
102
{ACAD_REACTORS
330
D
102
}
330
D
100
AcDbGroup
300

 70
     1
 71
     1
  0
GROUP
  5
8813
102
{ACAD_REACTORS
330
D
102
}
330
D
100
AcDbGroup
300

 70
     1
 71
     1
  0
GROUP
  5
16E28
102
{ACAD_REACTORS
330
D
102
}
330
D
100
AcDbGroup
300

 70
     1
 71
     1
  0
GROUP
  5
2D531
102
{ACAD_REACTORS
330
D
102
}
330
D
100
AcDbGroup
300

 70
     1
 71
     1
  0
GROUP
  5
2E337
102
{ACAD_REACTORS
330
D
102
}
330
D
100
AcDbGroup
300

 70
     1
 71
     1
  0
GROUP
  5
1AAF8
102
{ACAD_REACTORS
330
D
102
}
330
D
100
AcDbGroup
300

 70
     1
 71
     1
  0
GROUP
  5
2CDA8
102
{ACAD_REACTORS
330
D
102
}
330
D
100
AcDbGroup
300

 70
     1
 71
     1
  0
GROUP
  5
1B197
102
{ACAD_REACTORS
330
D
102
}
330
D
100
AcDbGroup
300

 70
     1
 71
     1
  0
GROUP
  5
19E52
102
{ACAD_REACTORS
330
D
102
}
330
D
100
AcDbGroup
300

 70
     1
 71
     1
  0
GROUP
  5
1A5F5
102
{ACAD_REACTORS
330
D
102
}
330
D
100
AcDbGroup
300

 70
     1
 71
     1
  0
GROUP
  5
2F727
102
{ACAD_REACTORS
330
D
102
}
330
D
100
AcDbGroup
300

 70
     1
 71
     1
  0
GROUP
  5
2B7FE
102
{ACAD_REACTORS
330
D
102
}
330
D
100
AcDbGroup
300

 70
     1
 71
     1
  0
GROUP
  5
9527
102
{ACAD_REACTORS
330
D
102
}
330
D
100
AcDbGroup
300

 70
     1
 71
     1
  0
GROUP
  5
2CC76
102
{ACAD_REACTORS
330
D
102
}
330
D
100
AcDbGroup
300

 70
     1
 71
     1
  0
GROUP
  5
1EC28
102
{ACAD_REACTORS
330
D
102
}
330
D
100
AcDbGroup
300

 70
     1
 71
     1
  0
GROUP
  5
2F752
102
{ACAD_REACTORS
330
D
102
}
330
D
100
AcDbGroup
300

 70
     1
 71
     1
  0
GROUP
  5
2BA33
102
{ACAD_REACTORS
330
D
102
}
330
D
100
AcDbGroup
300

 70
     1
 71
     1
  0
GROUP
  5
E40A
102
{ACAD_REACTORS
330
D
102
}
330
D
100
AcDbGroup
300

 70
     1
 71
     1
  0
GROUP
  5
2D52B
102
{ACAD_REACTORS
330
D
102
}
330
D
100
AcDbGroup
300

 70
     1
 71
     1
  0
GROUP
  5
1A7FC
102
{ACAD_REACTORS
330
D
102
}
330
D
100
AcDbGroup
300

 70
     1
 71
     1
  0
GROUP
  5
33818
102
{ACAD_REACTORS
330
D
102
}
330
D
100
AcDbGroup
300

 70
     1
 71
     1
  0
GROUP
  5
33819
102
{ACAD_REACTORS
330
D
102
}
330
D
100
AcDbGroup
300

 70
     1
 71
     1
  0
GROUP
  5
33D7A
102
{ACAD_REACTORS
330
D
102
}
330
D
100
AcDbGroup
300

 70
     1
 71
     1
  0
GROUP
  5
33D7B
102
{ACAD_REACTORS
330
D
102
}
330
D
100
AcDbGroup
300

 70
     1
 71
     1
  0
GROUP
  5
1ABC9
102
{ACAD_REACTORS
330
D
102
}
330
D
100
AcDbGroup
300

 70
     1
 71
     1
  0
GROUP
  5
1AAC1
102
{ACAD_REACTORS
330
D
102
}
330
D
100
AcDbGroup
300

 70
     1
 71
     1
  0
GROUP
  5
2E642
102
{ACAD_REACTORS
330
D
102
}
330
D
100
AcDbGroup
300

 70
     1
 71
     1
  0
GROUP
  5
2E336
102
{ACAD_REACTORS
330
D
102
}
330
D
100
AcDbGroup
300

 70
     1
 71
     1
  0
GROUP
  5
11D38
102
{ACAD_REACTORS
330
D
102
}
330
D
100
AcDbGroup
300

 70
     1
 71
     1
  0
GROUP
  5
D2B7
102
{ACAD_REACTORS
330
D
102
}
330
D
100
AcDbGroup
300

 70
     1
 71
     1
  0
GROUP
  5
2F725
102
{ACAD_REACTORS
330
D
102
}
330
D
100
AcDbGroup
300

 70
     1
 71
     1
  0
GROUP
  5
81AB
102
{ACAD_REACTORS
330
D
102
}
330
D
100
AcDbGroup
300

 70
     1
 71
     1
  0
GROUP
  5
3108C
102
{ACAD_REACTORS
330
D
102
}
330
D
100
AcDbGroup
300

 70
     1
 71
     1
  0
GROUP
  5
3108D
102
{ACAD_REACTORS
330
D
102
}
330
D
100
AcDbGroup
300

 70
     1
 71
     1
  0
GROUP
  5
2F75A
102
{ACAD_REACTORS
330
D
102
}
330
D
100
AcDbGroup
300

 70
     1
 71
     1
  0
GROUP
  5
3089E
102
{ACAD_REACTORS
330
D
102
}
330
D
100
AcDbGroup
300

 70
     1
 71
     1
  0
GROUP
  5
16BFC
102
{ACAD_REACTORS
330
D
102
}
330
D
100
AcDbGroup
300

 70
     1
 71
     1
  0
GROUP
  5
2D52C
102
{ACAD_REACTORS
330
D
102
}
330
D
100
AcDbGroup
300

 70
     1
 71
     1
  0
GROUP
  5
16EE3
102
{ACAD_REACTORS
330
D
102
}
330
D
100
AcDbGroup
300

 70
     1
 71
     1
  0
GROUP
  5
19E51
102
{ACAD_REACTORS
330
D
102
}
330
D
100
AcDbGroup
300

 70
     1
 71
     1
  0
GROUP
  5
3109F
102
{ACAD_REACTORS
330
D
102
}
330
D
100
AcDbGroup
300

 70
     1
 71
     1
  0
GROUP
  5
1D274
102
{ACAD_REACTORS
330
D
102
}
330
D
100
AcDbGroup
300

 70
     1
 71
     1
  0
GROUP
  5
1006C
102
{ACAD_REACTORS
330
D
102
}
330
D
100
AcDbGroup
300

 70
     1
 71
     1
  0
GROUP
  5
2E645
102
{ACAD_REACTORS
330
D
102
}
330
D
100
AcDbGroup
300

 70
     1
 71
     1
  0
GROUP
  5
312E7
102
{ACAD_REACTORS
330
D
102
}
330
D
100
AcDbGroup
300

 70
     1
 71
     1
  0
GROUP
  5
2FA6A
102
{ACAD_REACTORS
330
D
102
}
330
D
100
AcDbGroup
300

 70
     1
 71
     1
  0
GROUP
  5
16A8C
102
{ACAD_REACTORS
330
D
102
}
330
D
100
AcDbGroup
300

 70
     1
 71
     1
  0
GROUP
  5
3262A
102
{ACAD_REACTORS
330
D
102
}
330
D
100
AcDbGroup
300

 70
     1
 71
     1
  0
GROUP
  5
2AF6D
102
{ACAD_REACTORS
330
D
102
}
330
D
100
AcDbGroup
300

 70
     1
 71
     1
  0
GROUP
  5
312E8
102
{ACAD_REACTORS
330
D
102
}
330
D
100
AcDbGroup
300

 70
     1
 71
     1
  0
GROUP
  5
312E9
102
{ACAD_REACTORS
330
D
102
}
330
D
100
AcDbGroup
300

 70
     1
 71
     1
  0
GROUP
  5
3022C
102
{ACAD_REACTORS
330
D
102
}
330
D
100
AcDbGroup
300

 70
     1
 71
     1
  0
GROUP
  5
31B42
102
{ACAD_REACTORS
330
D
102
}
330
D
100
AcDbGroup
300

 70
     1
 71
     1
  0
GROUP
  5
1A193
102
{ACAD_REACTORS
330
D
102
}
330
D
100
AcDbGroup
300

 70
     1
 71
     1
  0
GROUP
  5
17B62
102
{ACAD_REACTORS
330
D
102
}
330
D
100
AcDbGroup
300

 70
     1
 71
     1
  0
GROUP
  5
2B8FE
102
{ACAD_REACTORS
330
D
102
}
330
D
100
AcDbGroup
300

 70
     1
 71
     1
  0
GROUP
  5
2F6D6
102
{ACAD_REACTORS
330
D
102
}
330
D
100
AcDbGroup
300

 70
     1
 71
     1
  0
GROUP
  5
2FA6B
102
{ACAD_REACTORS
330
D
102
}
330
D
100
AcDbGroup
300

 70
     1
 71
     1
  0
GROUP
  5
2FAFF
102
{ACAD_REACTORS
330
D
102
}
330
D
100
AcDbGroup
300

 70
     1
 71
     1
  0
GROUP
  5
9529
102
{ACAD_REACTORS
330
D
102
}
330
D
100
AcDbGroup
300

 70
     1
 71
     1
  0
GROUP
  5
2EB83
102
{ACAD_REACTORS
330
D
102
}
330
D
100
AcDbGroup
300

 70
     1
 71
     1
  0
GROUP
  5
31B43
102
{ACAD_REACTORS
330
D
102
}
330
D
100
AcDbGroup
300

 70
     1
 71
     1
  0
GROUP
  5
3B235
102
{ACAD_REACTORS
330
D
102
}
330
D
100
AcDbGroup
300

 70
     1
 71
     1
  0
GROUP
  5
2F72A
102
{ACAD_REACTORS
330
D
102
}
330
D
100
AcDbGroup
300

 70
     1
 71
     1
  0
GROUP
  5
2FD83
102
{ACAD_REACTORS
330
D
102
}
330
D
100
AcDbGroup
300

 70
     1
 71
     1
  0
GROUP
  5
2B7FD
102
{ACAD_REACTORS
330
D
102
}
330
D
100
AcDbGroup
300

 70
     1
 71
     1
  0
GROUP
  5
2AF6E
102
{ACAD_REACTORS
330
D
102
}
330
D
100
AcDbGroup
300

 70
     1
 71
     1
  0
GROUP
  5
8178
102
{ACAD_REACTORS
330
D
102
}
330
D
100
AcDbGroup
300

 70
     1
 71
     1
  0
GROUP
  5
301FC
102
{ACAD_REACTORS
330
D
102
}
330
D
100
AcDbGroup
300

 70
     1
 71
     1
  0
GROUP
  5
2B917
102
{ACAD_REACTORS
330
D
102
}
330
D
100
AcDbGroup
300

 70
     1
 71
     1
  0
GROUP
  5
1EEB7
102
{ACAD_REACTORS
330
D
102
}
330
D
100
AcDbGroup
300

 70
     1
 71
     1
  0
GROUP
  5
2FC1C
102
{ACAD_REACTORS
330
D
102
}
330
D
100
AcDbGroup
300

 70
     1
 71
     1
  0
GROUP
  5
E3CD
102
{ACAD_REACTORS
330
D
102
}
330
D
100
AcDbGroup
300

 70
     1
 71
     1
  0
GROUP
  5
300DF
102
{ACAD_REACTORS
330
D
102
}
330
D
100
AcDbGroup
300

 70
     1
 71
     1
  0
GROUP
  5
1A4E1
102
{ACAD_REACTORS
330
D
102
}
330
D
100
AcDbGroup
300

 70
     1
 71
     1
  0
GROUP
  5
1A825
102
{ACAD_REACTORS
330
D
102
}
330
D
100
AcDbGroup
300

 70
     1
 71
     1
  0
GROUP
  5
1A2FB
102
{ACAD_REACTORS
330
D
102
}
330
D
100
AcDbGroup
300

 70
     1
 71
     1
  0
GROUP
  5
149D2
102
{ACAD_REACTORS
330
D
102
}
330
D
100
AcDbGroup
300

 70
     1
 71
     1
  0
GROUP
  5
9528
102
{ACAD_REACTORS
330
D
102
}
330
D
100
AcDbGroup
300

 70
     1
 71
     1
  0
GROUP
  5
32204
102
{ACAD_REACTORS
330
D
102
}
330
D
100
AcDbGroup
300

 70
     1
 71
     1
  0
GROUP
  5
2BB08
102
{ACAD_REACTORS
330
D
102
}
330
D
100
AcDbGroup
300

 70
     1
 71
     1
  0
GROUP
  5
16CC9
102
{ACAD_REACTORS
330
D
102
}
330
D
100
AcDbGroup
300

 70
     1
 71
     1
  0
GROUP
  5
12770
102
{ACAD_REACTORS
330
D
102
}
330
D
100
AcDbGroup
300

 70
     1
 71
     1
  0
GROUP
  5
2AF6F
102
{ACAD_REACTORS
330
D
102
}
330
D
100
AcDbGroup
300

 70
     1
 71
     1
  0
GROUP
  5
12141
102
{ACAD_REACTORS
330
D
102
}
330
D
100
AcDbGroup
300

 70
     1
 71
     1
  0
GROUP
  5
2FC1D
102
{ACAD_REACTORS
330
D
102
}
330
D
100
AcDbGroup
300

 70
     1
 71
     1
  0
GROUP
  5
1A68B
102
{ACAD_REACTORS
330
D
102
}
330
D
100
AcDbGroup
300

 70
     1
 71
     1
  0
GROUP
  5
1252B
102
{ACAD_REACTORS
330
D
102
}
330
D
100
AcDbGroup
300

 70
     1
 71
     1
  0
GROUP
  5
2F726
102
{ACAD_REACTORS
330
D
102
}
330
D
100
AcDbGroup
300

 70
     1
 71
     1
  0
GROUP
  5
2E814
102
{ACAD_REACTORS
330
D
102
}
330
D
100
AcDbGroup
300

 70
     1
 71
     1
  0
GROUP
  5
13067
102
{ACAD_REACTORS
330
D
102
}
330
D
100
AcDbGroup
300

 70
     1
 71
     1
  0
GROUP
  5
12771
102
{ACAD_REACTORS
330
D
102
}
330
D
100
AcDbGroup
300

 70
     1
 71
     1
  0
GROUP
  5
1A68A
102
{ACAD_REACTORS
330
D
102
}
330
D
100
AcDbGroup
300

 70
     1
 71
     1
  0
GROUP
  5
1AB72
102
{ACAD_REACTORS
330
D
102
}
330
D
100
AcDbGroup
300

 70
     1
 71
     1
  0
GROUP
  5
16B4C
102
{ACAD_REACTORS
330
D
102
}
330
D
100
AcDbGroup
300

 70
     1
 71
     1
  0
GROUP
  5
16E26
102
{ACAD_REACTORS
330
D
102
}
330
D
100
AcDbGroup
300

 70
     1
 71
     1
  0
GROUP
  5
2AF83
102
{ACAD_REACTORS
330
D
102
}
330
D
100
AcDbGroup
300

 70
     1
 71
     1
  0
GROUP
  5
2BB06
102
{ACAD_REACTORS
330
D
102
}
330
D
100
AcDbGroup
300

 70
     1
 71
     1
  0
GROUP
  5
98F3
102
{ACAD_REACTORS
330
D
102
}
330
D
100
AcDbGroup
300

 70
     1
 71
     1
  0
GROUP
  5
2F729
102
{ACAD_REACTORS
330
D
102
}
330
D
100
AcDbGroup
300

 70
     1
 71
     1
  0
GROUP
  5
1D240
102
{ACAD_REACTORS
330
D
102
}
330
D
100
AcDbGroup
300

 70
     1
 71
     1
  0
GROUP
  5
2F762
102
{ACAD_REACTORS
330
D
102
}
330
D
100
AcDbGroup
300

 70
     1
 71
     1
  0
GROUP
  5
2FDE3
102
{ACAD_REACTORS
330
D
102
}
330
D
100
AcDbGroup
300

 70
     1
 71
     1
  0
GROUP
  5
2B6E6
102
{ACAD_REACTORS
330
D
102
}
330
D
100
AcDbGroup
300

 70
     1
 71
     1
  0
GROUP
  5
2EB84
102
{ACAD_REACTORS
330
D
102
}
330
D
100
AcDbGroup
300

 70
     1
 71
     1
  0
GROUP
  5
1EC64
102
{ACAD_REACTORS
330
D
102
}
330
D
100
AcDbGroup
300

 70
     1
 71
     1
  0
GROUP
  5
15425
102
{ACAD_REACTORS
330
D
102
}
330
D
100
AcDbGroup
300

 70
     1
 71
     1
  0
GROUP
  5
1EEB8
102
{ACAD_REACTORS
330
D
102
}
330
D
100
AcDbGroup
300

 70
     1
 71
     1
  0
GROUP
  5
2FC96
102
{ACAD_REACTORS
330
D
102
}
330
D
100
AcDbGroup
300

 70
     1
 71
     1
  0
GROUP
  5
1B149
102
{ACAD_REACTORS
330
D
102
}
330
D
100
AcDbGroup
300

 70
     1
 71
     1
  0
GROUP
  5
301FB
102
{ACAD_REACTORS
330
D
102
}
330
D
100
AcDbGroup
300

 70
     1
 71
     1
  0
GROUP
  5
817B
102
{ACAD_REACTORS
330
D
102
}
330
D
100
AcDbGroup
300

 70
     1
 71
     1
  0
GROUP
  5
3491D
102
{ACAD_REACTORS
330
D
102
}
330
D
100
AcDbGroup
300

 70
     1
 71
     1
  0
GROUP
  5
2FDE4
102
{ACAD_REACTORS
330
D
102
}
330
D
100
AcDbGroup
300

 70
     1
 71
     1
  0
GROUP
  5
76F1
102
{ACAD_REACTORS
330
D
102
}
330
D
100
AcDbGroup
300

 70
     1
 71
     1
  0
GROUP
  5
2F6D7
102
{ACAD_REACTORS
330
D
102
}
330
D
100
AcDbGroup
300

 70
     1
 71
     1
  0
GROUP
  5
1D243
102
{ACAD_REACTORS
330
D
102
}
330
D
100
AcDbGroup
300

 70
     1
 71
     1
  0
GROUP
  5
1AB18
102
{ACAD_REACTORS
330
D
102
}
330
D
100
AcDbGroup
300

 70
     1
 71
     1
  0
GROUP
  5
16A60
102
{ACAD_REACTORS
330
D
102
}
330
D
100
AcDbGroup
300

 70
     1
 71
     1
  0
GROUP
  5
3220A
102
{ACAD_REACTORS
330
D
102
}
330
D
100
AcDbGroup
300

 70
     1
 71
     1
  0
GROUP
  5
2F728
102
{ACAD_REACTORS
330
D
102
}
330
D
100
AcDbGroup
300

 70
     1
 71
     1
  0
GROUP
  5
16BFE
102
{ACAD_REACTORS
330
D
102
}
330
D
100
AcDbGroup
300

 70
     1
 71
     1
  0
GROUP
  5
30B80
102
{ACAD_REACTORS
330
D
102
}
330
D
100
AcDbGroup
300

 70
     1
 71
     1
  0
GROUP
  5
2CDAB
102
{ACAD_REACTORS
330
D
102
}
330
D
100
AcDbGroup
300

 70
     1
 71
     1
  0
GROUP
  5
300DD
102
{ACAD_REACTORS
330
D
102
}
330
D
100
AcDbGroup
300

 70
     1
 71
     1
  0
GROUP
  5
2B7FC
102
{ACAD_REACTORS
330
D
102
}
330
D
100
AcDbGroup
300

 70
     1
 71
     1
  0
GROUP
  5
1A61E
102
{ACAD_REACTORS
330
D
102
}
330
D
100
AcDbGroup
300

 70
     1
 71
     1
  0
GROUP
  5
1252C
102
{ACAD_REACTORS
330
D
102
}
330
D
100
AcDbGroup
300

 70
     1
 71
     1
  0
GROUP
  5
30B81
102
{ACAD_REACTORS
330
D
102
}
330
D
100
AcDbGroup
300

 70
     1
 71
     1
  0
GROUP
  5
300E0
102
{ACAD_REACTORS
330
D
102
}
330
D
100
AcDbGroup
300

 70
     1
 71
     1
  0
GROUP
  5
2E335
102
{ACAD_REACTORS
330
D
102
}
330
D
100
AcDbGroup
300

 70
     1
 71
     1
  0
GROUP
  5
2B8E0
102
{ACAD_REACTORS
330
D
102
}
330
D
100
AcDbGroup
300

 70
     1
 71
     1
  0
GROUP
  5
1D244
102
{ACAD_REACTORS
330
D
102
}
330
D
100
AcDbGroup
300

 70
     1
 71
     1
  0
GROUP
  5
E31A
102
{ACAD_REACTORS
330
D
102
}
330
D
100
AcDbGroup
300

 70
     1
 71
     1
  0
GROUP
  5
2E644
102
{ACAD_REACTORS
330
D
102
}
330
D
100
AcDbGroup
300

 70
     1
 71
     1
  0
GROUP
  5
8179
102
{ACAD_REACTORS
330
D
102
}
330
D
100
AcDbGroup
300

 70
     1
 71
     1
  0
GROUP
  5
2B972
102
{ACAD_REACTORS
330
D
102
}
330
D
100
AcDbGroup
300

 70
     1
 71
     1
  0
GROUP
  5
7B15
102
{ACAD_REACTORS
330
D
102
}
330
D
100
AcDbGroup
300

 70
     1
 71
     1
  0
GROUP
  5
DED9
102
{ACAD_REACTORS
330
D
102
}
330
D
100
AcDbGroup
300

 70
     1
 71
     1
  0
GROUP
  5
1AAA3
102
{ACAD_REACTORS
330
D
102
}
330
D
100
AcDbGroup
300

 70
     1
 71
     1
  0
GROUP
  5
1A758
102
{ACAD_REACTORS
330
D
102
}
330
D
100
AcDbGroup
300

 70
     1
 71
     1
  0
GROUP
  5
16E27
102
{ACAD_REACTORS
330
D
102
}
330
D
100
AcDbGroup
300

 70
     1
 71
     1
  0
GROUP
  5
2E643
102
{ACAD_REACTORS
330
D
102
}
330
D
100
AcDbGroup
300

 70
     1
 71
     1
  0
GROUP
  5
2D528
102
{ACAD_REACTORS
330
D
102
}
330
D
100
AcDbGroup
300

 70
     1
 71
     1
  0
GROUP
  5
732B
102
{ACAD_REACTORS
330
D
102
}
330
D
100
AcDbGroup
300

 70
     1
 71
     1
  0
GROUP
  5
2CCB9
102
{ACAD_REACTORS
330
D
102
}
330
D
100
AcDbGroup
300

 70
     1
 71
     1
  0
LAYOUT
  5
22
102
{ACAD_XDICTIONARY
360
3B2E0
102
}
102
{ACAD_REACTORS
330
1A
102
}
330
1A
100
AcDbPlotSettings
  1

  2
none_device
  4
Letter_(8.50_x_11.00_Inches)
  6

 40
6.349999999999999
 41
6.349999999999999
 42
6.350005079999999
 43
6.350005079999999
 44
215.9
 45
279.4
 46
0.0
 47
0.0
 48
0.0
 49
0.0
140
0.0
141
0.0
142
1.0
143
1.0
 70
  1712
 72
     1
 73
     0
 74
     0
  7

 75
     0
147
1.0
148
0.0
149
0.0
100
AcDbLayout
  1
Model
 70
     1
 71
     0
 10
0.0
 20
0.0
 11
431.7999999999999
 21
279.4
 12
0.0
 22
0.0
 32
0.0
 14
0.0
 24
0.0
 34
0.0
 15
431.7999999999999
 25
279.4
 35
0.0
146
0.0
 13
0.0
 23
0.0
 33
0.0
 16
1.0
 26
0.0
 36
0.0
 17
0.0
 27
1.0
 37
0.0
 76
     0
330
1F
  0
LAYOUT
  5
3B0EF
102
{ACAD_XDICTIONARY
360
3B2E6
102
}
102
{ACAD_REACTORS
330
1A
102
}
330
1A
100
AcDbPlotSettings
  1

  2
RICOH SP C840 JPN RPCS
  4
A3
  6

 40
5.873749732971191
 41
5.873747825622558
 42
5.873748779296875
 43
5.873748779296875
 44
296.9259948730469
 45
419.9466552734374
 46
0.0
 47
0.0
 48
0.0
 49
0.0
140
0.0
141
0.0
142
1.0
143
1.0
 70
   688
 72
     1
 73
     1
 74
     5
  7
monochrome.ctb
 75
    16
147
1.0
148
68.81595875097668
149
17.75511689065621
100
AcDbLayout
  1
止り
 70
     1
 71
     1
 10
-74.68970753027355
 20
-23.6288666236274
 11
345.2569477431639
 21
273.2971282494195
 12
0.0
 22
0.0
 32
0.0
 14
-73.83861450660799
 24
-22.64352933958139
 34
0.0
 15
344.4227553844882
 25
272.4048239951644
 35
0.0
146
0.0
 13
0.0
 23
0.0
 33
0.0
 16
1.0
 26
0.0
 36
0.0
 17
0.0
 27
1.0
 37
0.0
 76
     0
330
3B0EA
331
3B0EC
  0
MLINESTYLE
  5
18
102
{ACAD_REACTORS
330
17
102
}
330
17
100
AcDbMlineStyle
  2
STANDARD
 70
     0
  3

 62
   256
 51
90.0
 52
90.0
 71
     2
 49
0.5
 62
   256
  6
BYLAYER
 49
-0.5
 62
   256
  6
BYLAYER
  0
ACDBPLACEHOLDER
  5
F
102
{ACAD_REACTORS
330
E
102
}
330
E
  0
ACAD_PROXY_OBJECT
  5
48
102
{ACAD_REACTORS
330
47
102
}
330
47
100
AcDbProxyObject
 90
      499
 91
      503
 95
   983063
 70
     0
 93
       41
310
903313A31580
 94
        0
1001
ACAD
1000
AcRTDxfName
1000
SCALE
1000
AcRTDxfName
1000
SCALE
  0
ACAD_PROXY_OBJECT
  5
49
102
{ACAD_REACTORS
330
47
102
}
330
47
100
AcDbProxyObject
 90
      499
 91
      503
 95
   983063
 70
     0
 93
      105
310
903313A324000000000000004040
 94
        0
1001
ACAD
1000
AcRTDxfName
1000
SCALE
1000
AcRTDxfName
1000
SCALE
  0
ACAD_PROXY_OBJECT
  5
4A
102
{ACAD_REACTORS
330
47
102
}
330
47
100
AcDbProxyObject
 90
      499
 91
      503
 95
   983063
 70
     0
 93
      105
310
903313A344000000000000104040
 94
        0
1001
ACAD
1000
AcRTDxfName
1000
SCALE
1000
AcRTDxfName
1000
SCALE
  0
ACAD_PROXY_OBJECT
  5
4B
102
{ACAD_REACTORS
330
47
102
}
330
47
100
AcDbProxyObject
 90
      499
 91
      503
 95
   983063
 70
     0
 93
      105
310
903313A354000000000000144040
 94
        0
1001
ACAD
1000
AcRTDxfName
1000
SCALE
1000
AcRTDxfName
1000
SCALE
  0
ACAD_PROXY_OBJECT
  5
4C
102
{ACAD_REACTORS
330
47
102
}
330
47
100
AcDbProxyObject
 90
      499
 91
      503
 95
   983063
 70
     0
 93
      105
310
903313A384000000000000204040
 94
        0
1001
ACAD
1000
AcRTDxfName
1000
SCALE
1000
AcRTDxfName
1000
SCALE
  0
ACAD_PROXY_OBJECT
  5
4D
102
{ACAD_REACTORS
330
47
102
}
330
47
100
AcDbProxyObject
 90
      499
 91
      503
 95
   983063
 70
     0
 93
      113
310
904313A31304000000000000244040
 94
        0
1001
ACAD
1000
AcRTDxfName
1000
SCALE
1000
AcRTDxfName
1000
SCALE
  0
ACAD_PROXY_OBJECT
  5
4E
102
{ACAD_REACTORS
330
47
102
}
330
47
100
AcDbProxyObject
 90
      499
 91
      503
 95
   983063
 70
     0
 93
      113
310
904313A31364000000000000304001
 94
        0
1001
ACAD
1000
AcRTDxfName
1000
SCALE
1000
AcRTDxfName
1000
SCALE
  0
ACAD_PROXY_OBJECT
  5
4F
102
{ACAD_REACTORS
330
47
102
}
330
47
100
AcDbProxyObject
 90
      499
 91
      503
 95
   983063
 70
     0
 93
      113
310
904313A32304000000000000344040
 94
        0
1001
ACAD
1000
AcRTDxfName
1000
SCALE
1000
AcRTDxfName
1000
SCALE
  0
ACAD_PROXY_OBJECT
  5
50
102
{ACAD_REACTORS
330
47
102
}
330
47
100
AcDbProxyObject
 90
      499
 91
      503
 95
   983063
 70
     0
 93
      113
310
904313A333040000000000003E4001
 94
        0
1001
ACAD
1000
AcRTDxfName
1000
SCALE
1000
AcRTDxfName
1000
SCALE
  0
ACAD_PROXY_OBJECT
  5
51
102
{ACAD_REACTORS
330
47
102
}
330
47
100
AcDbProxyObject
 90
      499
 91
      503
 95
   983063
 70
     0
 93
      113
310
904313A34304000000000000444040
 94
        0
1001
ACAD
1000
AcRTDxfName
1000
SCALE
1000
AcRTDxfName
1000
SCALE
  0
ACAD_PROXY_OBJECT
  5
52
102
{ACAD_REACTORS
330
47
102
}
330
47
100
AcDbProxyObject
 90
      499
 91
      503
 95
   983063
 70
     0
 93
      113
310
904313A35304000000000000494001
 94
        0
1001
ACAD
1000
AcRTDxfName
1000
SCALE
1000
AcRTDxfName
1000
SCALE
  0
ACAD_PROXY_OBJECT
  5
53
102
{ACAD_REACTORS
330
47
102
}
330
47
100
AcDbProxyObject
 90
      499
 91
      503
 95
   983063
 70
     0
 93
      121
310
905313A3130304000000000000594020
 94
        0
1001
ACAD
1000
AcRTDxfName
1000
SCALE
1000
AcRTDxfName
1000
SCALE
  0
ACAD_PROXY_OBJECT
  5
54
102
{ACAD_REACTORS
330
47
102
}
330
47
100
AcDbProxyObject
 90
      499
 91
      503
 95
   983063
 70
     0
 93
      105
310
903323A310000000000000010165
 94
        0
1001
ACAD
1000
AcRTDxfName
1000
SCALE
1000
AcRTDxfName
1000
SCALE
  0
ACAD_PROXY_OBJECT
  5
55
102
{ACAD_REACTORS
330
47
102
}
330
47
100
AcDbProxyObject
 90
      499
 91
      503
 95
   983063
 70
     0
 93
      105
310
903343A310000000000000410101
 94
        0
1001
ACAD
1000
AcRTDxfName
1000
SCALE
1000
AcRTDxfName
1000
SCALE
  0
ACAD_PROXY_OBJECT
  5
56
102
{ACAD_REACTORS
330
47
102
}
330
47
100
AcDbProxyObject
 90
      499
 91
      503
 95
   983063
 70
     0
 93
      105
310
903383A310000000000000810165
 94
        0
1001
ACAD
1000
AcRTDxfName
1000
SCALE
1000
AcRTDxfName
1000
SCALE
  0
ACAD_PROXY_OBJECT
  5
57
102
{ACAD_REACTORS
330
47
102
}
330
47
100
AcDbProxyObject
 90
      499
 91
      503
 95
   983063
 70
     0
 93
      113
310
90431303A310000000000000910102
 94
        0
1001
ACAD
1000
AcRTDxfName
1000
SCALE
1000
AcRTDxfName
1000
SCALE
  0
ACAD_PROXY_OBJECT
  5
58
102
{ACAD_REACTORS
330
47
102
}
330
47
100
AcDbProxyObject
 90
      499
 91
      503
 95
   983063
 70
     0
 93
      121
310
9053130303A310000000000001650100
 94
        0
1001
ACAD
1000
AcRTDxfName
1000
SCALE
1000
AcRTDxfName
1000
SCALE
  0
ACAD_PROXY_OBJECT
  5
59
102
{ACAD_REACTORS
330
47
102
}
330
47
100
AcDbProxyObject
 90
      499
 91
      503
 95
   983063
 70
     0
 93
      257
310
90E312F31323822203D2031272D3022000000000000200FC000000000000284000
 94
        0
1001
ACAD
1000
AcRTDxfName
1000
SCALE
1000
AcRTDxfName
1000
SCALE
  0
ACAD_PROXY_OBJECT
  5
5A
102
{ACAD_REACTORS
330
47
102
}
330
47
100
AcDbProxyObject
 90
      499
 91
      503
 95
   983063
 70
     0
 93
      249
310
90D312F363422203D2031272D3022000000000000240FC00000000000028400C
 94
        0
1001
ACAD
1000
AcRTDxfName
1000
SCALE
1000
AcRTDxfName
1000
SCALE
  0
ACAD_PROXY_OBJECT
  5
5B
102
{ACAD_REACTORS
330
47
102
}
330
47
100
AcDbProxyObject
 90
      499
 91
      503
 95
   983063
 70
     0
 93
      249
310
90D312F333222203D2031272D3022000000000000280FC000000000000284040
 94
        0
1001
ACAD
1000
AcRTDxfName
1000
SCALE
1000
AcRTDxfName
1000
SCALE
  0
ACAD_PROXY_OBJECT
  5
5C
102
{ACAD_REACTORS
330
47
102
}
330
47
100
AcDbProxyObject
 90
      499
 91
      503
 95
   983063
 70
     0
 93
      249
310
90D312F313622203D2031272D30220000000000002C0FC00000000000028400C
 94
        0
1001
ACAD
1000
AcRTDxfName
1000
SCALE
1000
AcRTDxfName
1000
SCALE
  0
ACAD_PROXY_OBJECT
  5
5D
102
{ACAD_REACTORS
330
47
102
}
330
47
100
AcDbProxyObject
 90
      499
 91
      503
 95
   983063
 70
     0
 93
      249
310
90D332F333222203D2031272D30220000000000002E0FC000000000000284040
 94
        0
1001
ACAD
1000
AcRTDxfName
1000
SCALE
1000
AcRTDxfName
1000
SCALE
  0
ACAD_PROXY_OBJECT
  5
5E
102
{ACAD_REACTORS
330
47
102
}
330
47
100
AcDbProxyObject
 90
      499
 91
      503
 95
   983063
 70
     0
 93
      241
310
90C312F3822203D2031272D3022000000000000300FC000000000000284040
 94
        0
1001
ACAD
1000
AcRTDxfName
1000
SCALE
1000
AcRTDxfName
1000
SCALE
  0
ACAD_PROXY_OBJECT
  5
5F
102
{ACAD_REACTORS
330
47
102
}
330
47
100
AcDbProxyObject
 90
      499
 91
      503
 95
   983063
 70
     0
 93
      249
310
90D332F313622203D2031272D3022000000000000320FC000000000000284040
 94
        0
1001
ACAD
1000
AcRTDxfName
1000
SCALE
1000
AcRTDxfName
1000
SCALE
  0
ACAD_PROXY_OBJECT
  5
60
102
{ACAD_REACTORS
330
47
102
}
330
47
100
AcDbProxyObject
 90
      499
 91
      503
 95
   983063
 70
     0
 93
      241
310
90C312F3422203D2031272D3022000000000000340FC000000000000284040
 94
        0
1001
ACAD
1000
AcRTDxfName
1000
SCALE
1000
AcRTDxfName
1000
SCALE
  0
ACAD_PROXY_OBJECT
  5
61
102
{ACAD_REACTORS
330
47
102
}
330
47
100
AcDbProxyObject
 90
      499
 91
      503
 95
   983063
 70
     0
 93
      241
310
90C332F3822203D2031272D3022000000000000360FC000000000000284028
 94
        0
1001
ACAD
1000
AcRTDxfName
1000
SCALE
1000
AcRTDxfName
1000
SCALE
  0
ACAD_PROXY_OBJECT
  5
62
102
{ACAD_REACTORS
330
47
102
}
330
47
100
AcDbProxyObject
 90
      499
 91
      503
 95
   983063
 70
     0
 93
      241
310
90C312F3222203D2031272D3022000000000000380FC000000000000284040
 94
        0
1001
ACAD
1000
AcRTDxfName
1000
SCALE
1000
AcRTDxfName
1000
SCALE
  0
ACAD_PROXY_OBJECT
  5
63
102
{ACAD_REACTORS
330
47
102
}
330
47
100
AcDbProxyObject
 90
      499
 91
      503
 95
   983063
 70
     0
 93
      241
310
90C332F3422203D2031272D30220000000000003A0FC000000000000284028
 94
        0
1001
ACAD
1000
AcRTDxfName
1000
SCALE
1000
AcRTDxfName
1000
SCALE
  0
ACAD_PROXY_OBJECT
  5
64
102
{ACAD_REACTORS
330
47
102
}
330
47
100
AcDbProxyObject
 90
      499
 91
      503
 95
   983063
 70
     0
 93
      161
310
90A3122203D2031272D30224000000000000284000
 94
        0
1001
ACAD
1000
AcRTDxfName
1000
SCALE
1000
AcRTDxfName
1000
SCALE
  0
ACAD_PROXY_OBJECT
  5
65
102
{ACAD_REACTORS
330
47
102
}
330
47
100
AcDbProxyObject
 90
      499
 91
      503
 95
   983063
 70
     0
 93
      257
310
90E312D312F3222203D2031272D30220000000000003E0FC000000000000284000
 94
        0
1001
ACAD
1000
AcRTDxfName
1000
SCALE
1000
AcRTDxfName
1000
SCALE
  0
ACAD_PROXY_OBJECT
  5
66
102
{ACAD_REACTORS
330
47
102
}
330
47
100
AcDbProxyObject
 90
      499
 91
      503
 95
   983063
 70
     0
 93
      225
310
90A3322203D2031272D302200000000000002100000000000000284000
 94
        0
1001
ACAD
1000
AcRTDxfName
1000
SCALE
1000
AcRTDxfName
1000
SCALE
  0
ACAD_PROXY_OBJECT
  5
67
102
{ACAD_REACTORS
330
47
102
}
330
47
100
AcDbProxyObject
 90
      499
 91
      503
 95
   983063
 70
     0
 93
      225
310
90A3622203D2031272D302200000000000006100000000000000284000
 94
        0
1001
ACAD
1000
AcRTDxfName
1000
SCALE
1000
AcRTDxfName
1000
SCALE
  0
ACAD_PROXY_OBJECT
  5
68
102
{ACAD_REACTORS
330
47
102
}
330
47
100
AcDbProxyObject
 90
      499
 91
      503
 95
   983063
 70
     0
 93
      249
310
90D31272D3022203D2031272D30220000000000000A10000000000000028400C
 94
        0
1001
ACAD
1000
AcRTDxfName
1000
SCALE
1000
AcRTDxfName
1000
SCALE
  0
XRECORD
  5
3B2DF
102
{ACAD_REACTORS
330
3B2DD
102
}
330
3B2DD
100
AcDbXrecord
280
     1
340
C5F
  0
XRECORD
  5
3B2DE
102
{ACAD_REACTORS
330
3B2DD
102
}
330
3B2DD
100
AcDbXrecord
280
     1
340
C5E
  0
DICTIONARYVAR
  5
3AFDB
102
{ACAD_REACTORS
330
3AFDA
102
}
330
3AFDA
100
DictionaryVariables
280
     0
  1
1
  0
DICTIONARYVAR
  5
3AFDC
102
{ACAD_REACTORS
330
3AFDA
102
}
330
3AFDA
100
DictionaryVariables
280
     0
  1

  0
DICTIONARY
  5
3B2E0
330
22
100
AcDbDictionary
280
     1
281
     1
  3
ACAD_XREC_ROUNDTRIP
360
3B2E1
  0
DICTIONARY
  5
3B2E6
330
3B0EF
100
AcDbDictionary
280
     1
281
     1
  3
ACAD_XREC_ROUNDTRIP
360
3B2E7
  0
XRECORD
  5
3B2E1
102
{ACAD_REACTORS
330
3B2E0
102
}
330
3B2E0
100
AcDbXrecord
280
     1
102
SHADEPLOT
 70
     0
102
SHADEPLOTRESLEVEL
 70
     2
102
SHADEPLOTCUSTOMDPI
 70
   300
  0
XRECORD
  5
3B2E7
102
{ACAD_REACTORS
330
3B2E6
102
}
330
3B2E6
100
AcDbXrecord
280
     1
102
SHADEPLOT
 70
     1
102
SHADEPLOTRESLEVEL
 70
     2
102
SHADEPLOTCUSTOMDPI
 70
   300
  0
ENDSEC
  0
EOF
