  0
SECTION
  2
HEADER
  9
$ACADVER
  1
AC1015
  9
$ACADMAINTVER
 70
    20
  9
$DWGCODEPAGE
  3
ANSI_932
  9
$INSBASE
 10
0.0
 20
0.0
 30
0.0
  9
$EXTMIN
 10
29910.75384455093
 20
-4593.632069631199
 30
0.0
  9
$EXTMAX
 10
31107.15384455093
 20
-3766.232069631206
 30
0.0
  9
$LIMMIN
 10
0.0
 20
0.0
  9
$LIMMAX
 10
431.7999999999999
 20
279.4
  9
$ORTHOMODE
 70
     1
  9
$REGENMODE
 70
     1
  9
$FILLMODE
 70
     1
  9
$QTEXTMODE
 70
     0
  9
$MIRRTEXT
 70
     1
  9
$LTSCALE
 40
1.0
  9
$ATTMODE
 70
     1
  9
$TEXTSIZE
 40
3.5
  9
$TRACEWID
 40
1.0
  9
$TEXTSTYLE
  7
MSUI
  9
$CLAYER
  8
CENTER_L
  9
$CELTYPE
  6
ByLayer
  9
$CECOLOR
 62
     5
  9
$CELTSCALE
 40
1.0
  9
$DISPSILH
 70
     0
  9
$DIMSCALE
 40
1.0
  9
$DIMASZ
 40
6.0
  9
$DIMEXO
 40
3.0
  9
$DIMDLI
 40
3.75
  9
$DIMRND
 40
0.0
  9
$DIMDLE
 40
0.0
  9
$DIMEXE
 40
1.0
  9
$DIMTP
 40
0.0
  9
$DIMTM
 40
0.0
  9
$DIMTXT
 40
10.0
  9
$DIMCEN
 40
2.5
  9
$DIMTSZ
 40
0.0
  9
$DIMTOL
 70
     0
  9
$DIMLIM
 70
     0
  9
$DIMTIH
 70
     0
  9
$DIMTOH
 70
     0
  9
$DIMSE1
 70
     0
  9
$DIMSE2
 70
     0
  9
$DIMTAD
 70
     1
  9
$DIMZIN
 70
     9
  9
$DIMBLK
  1

  9
$DIMASO
 70
     1
  9
$DIMSHO
 70
     1
  9
$DIMPOST
  1

  9
$DIMAPOST
  1

  9
$DIMALT
 70
     0
  9
$DIMALTD
 70
     3
  9
$DIMALTF
 40
0.0393700787401575
  9
$DIMLFAC
 40
1.0
  9
$DIMTOFL
 70
     1
  9
$DIMTVP
 40
0.0
  9
$DIMTIX
 70
     0
  9
$DIMSOXD
 70
     0
  9
$DIMSAH
 70
     0
  9
$DIMBLK1
  1

  9
$DIMBLK2
  1

  9
$DIMSTYLE
  2
ISO-25
  9
$DIMCLRD
 70
     5
  9
$DIMCLRE
 70
     5
  9
$DIMCLRT
 70
     5
  9
$DIMTFAC
 40
1.0
  9
$DIMGAP
 40
1.524
  9
$DIMJUST
 70
     0
  9
$DIMSD1
 70
     0
  9
$DIMSD2
 70
     0
  9
$DIMTOLJ
 70
     0
  9
$DIMTZIN
 70
     1
  9
$DIMALTZ
 70
     0
  9
$DIMALTTZ
 70
     0
  9
$DIMUPT
 70
     0
  9
$DIMDEC
 70
     2
  9
$DIMTDEC
 70
     2
  9
$DIMALTU
 70
     2
  9
$DIMALTTD
 70
     3
  9
$DIMTXSTY
  7
MSUI
  9
$DIMAUNIT
 70
     0
  9
$DIMADEC
 70
     2
  9
$DIMALTRND
 40
0.0
  9
$DIMAZIN
 70
     2
  9
$DIMDSEP
 70
    44
  9
$DIMATFIT
 70
     3
  9
$DIMFRAC
 70
     0
  9
$DIMLDRBLK
  1

  9
$DIMLUNIT
 70
     2
  9
$DIMLWD
 70
    -2
  9
$DIMLWE
 70
    -2
  9
$DIMTMOVE
 70
     0
  9
$LUNITS
 70
     2
  9
$LUPREC
 70
     2
  9
$SKETCHINC
 40
1.0
  9
$FILLETRAD
 40
1.0
  9
$AUNITS
 70
     0
  9
$AUPREC
 70
     2
  9
$MENU
  1
.
  9
$ELEVATION
 40
0.0
  9
$PELEVATION
 40
0.0
  9
$THICKNESS
 40
0.0
  9
$LIMCHECK
 70
     0
  9
$CHAMFERA
 40
0.0
  9
$CHAMFERB
 40
0.0
  9
$CHAMFERC
 40
0.0
  9
$CHAMFERD
 40
0.0
  9
$SKPOLY
 70
     0
  9
$TDCREATE
 40
2459977.552915243
  9
$TDUCREATE
 40
2459977.177915243
  9
$TDUPDATE
 40
2460199.720214977
  9
$TDUUPDATE
 40
2460199.345214977
  9
$TDINDWG
 40
11.1497876042
  9
$TDUSRTIMER
 40
11.1497876042
  9
$USRTIMER
 70
     1
  9
$ANGBASE
 50
0.0
  9
$ANGDIR
 70
     0
  9
$PDMODE
 70
     0
  9
$PDSIZE
 40
-1.0
  9
$PLINEWID
 40
0.0
  9
$SPLFRAME
 70
     0
  9
$SPLINETYPE
 70
     6
  9
$SPLINESEGS
 70
  8000
  9
$HANDSEED
  5
3B626
  9
$SURFTAB1
 70
     6
  9
$SURFTAB2
 70
     6
  9
$SURFTYPE
 70
     6
  9
$SURFU
 70
     6
  9
$SURFV
 70
     6
  9
$UCSBASE
  2

  9
$UCSNAME
  2

  9
$UCSORG
 10
0.0
 20
0.0
 30
0.0
  9
$UCSXDIR
 10
1.0
 20
0.0
 30
0.0
  9
$UCSYDIR
 10
0.0
 20
1.0
 30
0.0
  9
$UCSORTHOREF
  2

  9
$UCSORTHOVIEW
 70
     0
  9
$UCSORGTOP
 10
0.0
 20
0.0
 30
0.0
  9
$UCSORGBOTTOM
 10
0.0
 20
0.0
 30
0.0
  9
$UCSORGLEFT
 10
0.0
 20
0.0
 30
0.0
  9
$UCSORGRIGHT
 10
0.0
 20
0.0
 30
0.0
  9
$UCSORGFRONT
 10
0.0
 20
0.0
 30
0.0
  9
$UCSORGBACK
 10
0.0
 20
0.0
 30
0.0
  9
$PUCSBASE
  2

  9
$PUCSNAME
  2

  9
$PUCSORG
 10
0.0
 20
0.0
 30
0.0
  9
$PUCSXDIR
 10
1.0
 20
0.0
 30
0.0
  9
$PUCSYDIR
 10
0.0
 20
1.0
 30
0.0
  9
$PUCSORTHOREF
  2

  9
$PUCSORTHOVIEW
 70
     0
  9
$PUCSORGTOP
 10
0.0
 20
0.0
 30
0.0
  9
$PUCSORGBOTTOM
 10
0.0
 20
0.0
 30
0.0
  9
$PUCSORGLEFT
 10
0.0
 20
0.0
 30
0.0
  9
$PUCSORGRIGHT
 10
0.0
 20
0.0
 30
0.0
  9
$PUCSORGFRONT
 10
0.0
 20
0.0
 30
0.0
  9
$PUCSORGBACK
 10
0.0
 20
0.0
 30
0.0
  9
$USERI1
 70
     0
  9
$USERI2
 70
     0
  9
$USERI3
 70
     0
  9
$USERI4
 70
     0
  9
$USERI5
 70
     0
  9
$USERR1
 40
0.0
  9
$USERR2
 40
0.0
  9
$USERR3
 40
0.0
  9
$USERR4
 40
0.0
  9
$USERR5
 40
0.0
  9
$WORLDVIEW
 70
     1
  9
$SHADEDGE
 70
     3
  9
$SHADEDIF
 70
    70
  9
$TILEMODE
 70
     0
  9
$MAXACTVP
 70
    64
  9
$PINSBASE
 10
0.0
 20
0.0
 30
0.0
  9
$PLIMCHECK
 70
     0
  9
$PEXTMIN
 10
-73.83861450660799
 20
-22.64352933958139
 30
0.0
  9
$PEXTMAX
 10
344.4227553844882
 20
272.4048239951644
 30
0.0
  9
$PLIMMIN
 10
-74.68970753027355
 20
-23.6288666236274
  9
$PLIMMAX
 10
345.2569477431639
 20
273.2971282494195
  9
$UNITMODE
 70
     0
  9
$VISRETAIN
 70
     1
  9
$PLINEGEN
 70
     0
  9
$PSLTSCALE
 70
     1
  9
$TREEDEPTH
 70
  3020
  9
$CMLSTYLE
  2
Standard
  9
$CMLJUST
 70
     0
  9
$CMLSCALE
 40
20.0
  9
$PROXYGRAPHICS
 70
     1
  9
$MEASUREMENT
 70
     1
  9
$CELWEIGHT
370
    -1
  9
$ENDCAPS
280
     0
  9
$JOINSTYLE
280
     0
  9
$LWDISPLAY
290
     1
  9
$INSUNITS
 70
     4
  9
$HYPERLINKBASE
  1

  9
$STYLESHEET
  1

  9
$XEDIT
290
     1
  9
$CEPSNTYPE
380
     0
  9
$PSTYLEMODE
290
     1
  9
$FINGERPRINTGUID
  2
{f0a142a2-46f0-4585-a537-6b23719e1866}
  9
$VERSIONGUID
  2
{FC8E189B-FA9D-45B2-A501-961C2A859C9B}
  9
$EXTNAMES
290
     1
  9
$PSVPSCALE
 40
0.0
  9
$OLESTARTUP
290
     0
  0
ENDSEC
  0
SECTION
  2
CLASSES
  0
CLASS
  1
ACDBDICTIONARYWDFLT
  2
AcDbDictionaryWithDefault
  3
ObjectDBX Classes
 90
        0
280
     0
281
     0
  0
CLASS
  1
VISUALSTYLE
  2
AcDbVisualStyle
  3
ObjectDBX Classes
 90
    36863
280
     0
281
     0
  0
CLASS
  1
MATERIAL
  2
AcDbMaterial
  3
ObjectDBX Classes
 90
    32768
280
     0
281
     0
  0
CLASS
  1
SCALE
  2
AcDbScale
  3
ObjectDBX Classes
 90
     1153
280
     0
281
     0
  0
CLASS
  1
TABLESTYLE
  2
AcDbTableStyle
  3
ObjectDBX Classes
 90
    36863
280
     0
281
     0
  0
CLASS
  1
MLEADERSTYLE
  2
AcDbMLeaderStyle
  3
ACDB_MLEADERSTYLE_CLASS
 90
    36863
280
     0
281
     0
  0
CLASS
  1
SUN
  2
AcDbSun
  3
SCENEOE
 90
    33921
280
     0
281
     0
  0
CLASS
  1
ACDBPLACEHOLDER
  2
AcDbPlaceHolder
  3
ObjectDBX Classes
 90
        0
280
     0
281
     0
  0
CLASS
  1
LAYOUT
  2
AcDbLayout
  3
ObjectDBX Classes
 90
        0
280
     0
281
     0
  0
CLASS
  1
DICTIONARYVAR
  2
AcDbDictionaryVar
  3
ObjectDBX Classes
 90
        0
280
     0
281
     0
  0
ENDSEC
  0
SECTION
  2
TABLES
  0
TABLE
  2
VPORT
  5
8
330
0
100
AcDbSymbolTable
 70
     2
  0
VPORT
  5
3B619
330
8
100
AcDbSymbolTableRecord
100
AcDbViewportTableRecord
  2
*Active
 70
     0
 10
0.0
 20
0.0
 11
1.0
 21
1.0
 12
30462.71033205869
 22
-4175.372908484813
 13
0.0
 23
0.0
 14
10.0
 24
10.0
 15
10.0
 25
10.0
 16
0.0
 26
0.0
 36
1.0
 17
0.0
 27
0.0
 37
0.0
 40
958.5365918594112
 41
2.121839080459769
 42
50.0
 43
0.0
 44
0.0
 50
0.0
 51
0.0
 71
     0
 72
 20000
 73
     1
 74
     2
 75
     0
 76
     0
 77
     0
 78
     0
281
     0
 65
     1
110
0.0
120
0.0
130
0.0
111
1.0
121
0.0
131
0.0
112
0.0
122
1.0
132
0.0
 79
     0
146
0.0
  0
ENDTAB
  0
TABLE
  2
LTYPE
  5
5
330
0
100
AcDbSymbolTable
 70
     2
  0
LTYPE
  5
14
330
5
100
AcDbSymbolTableRecord
100
AcDbLinetypeTableRecord
  2
ByBlock
 70
     0
  3

 72
    65
 73
     0
 40
0.0
  0
LTYPE
  5
15
330
5
100
AcDbSymbolTableRecord
100
AcDbLinetypeTableRecord
  2
ByLayer
 70
     0
  3

 72
    65
 73
     0
 40
0.0
  0
LTYPE
  5
16
330
5
100
AcDbSymbolTableRecord
100
AcDbLinetypeTableRecord
  2
Continuous
 70
     0
  3
Solid line
 72
    65
 73
     0
 40
0.0
  0
LTYPE
  5
70
330
5
100
AcDbSymbolTableRecord
100
AcDbLinetypeTableRecord
  2
CENTER
 70
     0
  3
Center ____ _ ____ _ ____ _ ____ _ ____ _ ____
 72
    65
 73
     4
 40
10.16
 49
6.349999999999999
 74
     0
 49
-1.27
 74
     0
 49
1.27
 74
     0
 49
-1.27
 74
     0
  0
ENDTAB
  0
TABLE
  2
LAYER
  5
2
102
{ACAD_XDICTIONARY
360
1F218
102
}
330
0
100
AcDbSymbolTable
 70
     9
  0
LAYER
  5
10
330
2
100
AcDbSymbolTableRecord
100
AcDbLayerTableRecord
  2
0
 70
     0
 62
     7
  6
Continuous
370
    -3
390
F
  0
LAYER
  5
C68
330
2
100
AcDbSymbolTableRecord
100
AcDbLayerTableRecord
  2
Defpoints
 70
     0
 62
     7
  6
Continuous
290
     0
370
    -3
390
F
  0
LAYER
  5
3949
330
2
100
AcDbSymbolTableRecord
100
AcDbLayerTableRecord
  2
ZUWAKU
 70
     0
 62
     7
  6
Continuous
370
    -3
390
F
  0
LAYER
  5
394A
330
2
100
AcDbSymbolTableRecord
100
AcDbLayerTableRecord
  2
SEIHIN
 70
     0
 62
     3
  6
Continuous
370
    -3
390
F
  0
LAYER
  5
394B
330
2
100
AcDbSymbolTableRecord
100
AcDbLayerTableRecord
  2
SUNPOU
 70
     0
 62
     4
  6
Continuous
370
    -3
390
F
  0
LAYER
  5
394C
330
2
100
AcDbSymbolTableRecord
100
AcDbLayerTableRecord
  2
CENTER L
 70
     0
 62
     1
  6
CENTER
370
    -3
390
F
  0
LAYER
  5
394D
330
2
100
AcDbSymbolTableRecord
100
AcDbLayerTableRecord
  2
moji
 70
     0
 62
     2
  6
Continuous
370
    -3
390
F
  0
LAYER
  5
35EAE
330
2
100
AcDbSymbolTableRecord
100
AcDbLayerTableRecord
  2
寸法
 70
     0
 62
     4
  6
Continuous
370
    -3
390
F
  0
LAYER
  5
3729E
330
2
100
AcDbSymbolTableRecord
100
AcDbLayerTableRecord
  2
CENTER_L
 70
     0
 62
     1
  6
CENTER
370
    -3
390
F
  0
ENDTAB
  0
TABLE
  2
STYLE
  5
3
330
0
100
AcDbSymbolTable
 70
     3
  0
STYLE
  5
11
330
3
100
AcDbSymbolTableRecord
100
AcDbTextStyleTableRecord
  2
Standard
 70
     0
 40
0.0
 41
1.0
 50
0.0
 71
     0
 42
3.5
  3
txt
  4
bigfont
  0
STYLE
  5
C75
330
3
100
AcDbSymbolTableRecord
100
AcDbTextStyleTableRecord
  2
MSUI
 70
     0
 40
0.0
 41
1.0
 50
0.0
 71
     0
 42
3.5
  3
MS UI Gothic.ttf
  4

1001
ACAD
1000
MS UI Gothic
1071
    32818
  0
STYLE
  5
394E
330
3
100
AcDbSymbolTableRecord
100
AcDbTextStyleTableRecord
  2
ｽﾀｲﾙ1
 70
     0
 40
0.0
 41
1.0
 50
0.0
 71
     0
 42
2.5
  3

  4

1001
ACAD
1000
MS PGothic
1071
    32818
  0
ENDTAB
  0
TABLE
  2
VIEW
  5
6
330
0
100
AcDbSymbolTable
 70
     0
  0
ENDTAB
  0
TABLE
  2
UCS
  5
7
330
0
100
AcDbSymbolTable
 70
     0
  0
ENDTAB
  0
TABLE
  2
APPID
  5
9
330
0
100
AcDbSymbolTable
 70
     1
  0
APPID
  5
12
330
9
100
AcDbSymbolTableRecord
100
AcDbRegAppTableRecord
  2
ACAD
 70
     0
  0
ENDTAB
  0
TABLE
  2
DIMSTYLE
  5
A
330
0
100
AcDbSymbolTable
 70
     2
100
AcDbDimStyleTable
 71
     2
340
27
340
394F
  0
DIMSTYLE
105
27
330
A
100
AcDbSymbolTableRecord
100
AcDbDimStyleTableRecord
  2
ISO-25
 70
     0
 41
2.5
 42
0.625
 43
3.75
 44
1.25
 73
     0
 74
     0
 77
     1
 78
     8
140
2.5
141
2.5
143
0.03937007874016
147
0.625
171
     3
172
     1
271
     2
272
     2
274
     3
278
    44
283
     0
284
     8
340
11
  0
DIMSTYLE
105
394F
102
{ACAD_REACTORS
330
39AD2
330
39AD1
330
39A36
330
39ACF
330
39A3A
330
39AD4
330
39AD3
102
}
330
A
100
AcDbSymbolTableRecord
100
AcDbDimStyleTableRecord
  2
STANDARD
 70
     0
340
11
  0
ENDTAB
  0
TABLE
  2
BLOCK_RECORD
  5
1
330
0
100
AcDbSymbolTable
 70
    35
  0
BLOCK_RECORD
  5
1F
330
1
100
AcDbSymbolTableRecord
100
AcDbBlockTableRecord
  2
*Model_Space
340
22
  0
BLOCK_RECORD
  5
3B0FE
330
1
100
AcDbSymbolTableRecord
100
AcDbBlockTableRecord
  2
*Paper_Space
340
3B103
  0
BLOCK_RECORD
  5
3729
330
1
100
AcDbSymbolTableRecord
100
AcDbBlockTableRecord
  2
_OPEN
340
0
102
{BLKREFS
331
3B233
331
3B234
331
3B259
331
3B25A
331
3B288
331
3B289
331
3B2F9
331
3B2FA
331
3B32C
331
3B32D
331
3B2D3
331
3B2D4
331
3B2DF
331
3B2E0
331
3B2ED
331
3B2EE
331
3B2C7
331
3B2C8
331
3B3B3
331
3B3B4
331
3B381
331
3B382
331
3B38D
331
3B38E
331
3B399
331
3B39A
331
3B3A7
331
3B3A8
331
3B373
331
3B374
331
3B367
331
3B368
331
3B56B
331
3B56C
331
3B574
331
3B575
331
3B57F
331
3B580
331
3B588
331
3B589
331
3B591
331
3B592
331
3B59C
331
3B59D
331
3B5A5
331
3B5A6
331
3B5BF
331
3B5C0
331
3B5C8
331
3B5C9
331
3B5DC
331
3B5DD
331
3B5E7
331
3B5E8
331
3B5F0
331
3B5F1
102
}
  0
BLOCK_RECORD
  5
1D29B
330
1
100
AcDbSymbolTableRecord
100
AcDbBlockTableRecord
  2
SW_CENTERMARKSYMBOL_0
340
0
102
{BLKREFS
331
39A6C
331
3B337
102
}
  0
BLOCK_RECORD
  5
1D2A6
330
1
100
AcDbSymbolTableRecord
100
AcDbBlockTableRecord
  2
SW_CENTERMARKSYMBOL_1
340
0
102
{BLKREFS
331
39A6D
331
3B336
102
}
  0
BLOCK_RECORD
  5
1D2B1
330
1
100
AcDbSymbolTableRecord
100
AcDbBlockTableRecord
  2
SW_CENTERMARKSYMBOL_2
340
0
102
{BLKREFS
331
39A6E
331
3B335
102
}
  0
BLOCK_RECORD
  5
1FBAA
102
{ACAD_XDICTIONARY
360
1FBAB
102
}
330
1
100
AcDbSymbolTableRecord
100
AcDbBlockTableRecord
  2
_Open30
340
0
  0
BLOCK_RECORD
  5
38213
330
1
100
AcDbSymbolTableRecord
100
AcDbBlockTableRecord
  2
*X5
340
0
102
{BLKREFS
331
398C0
102
}
  0
BLOCK_RECORD
  5
39AD5
330
1
100
AcDbSymbolTableRecord
100
AcDbBlockTableRecord
  2
*D6
340
0
  0
BLOCK_RECORD
  5
39AE1
330
1
100
AcDbSymbolTableRecord
100
AcDbBlockTableRecord
  2
*D7
340
0
  0
BLOCK_RECORD
  5
39AED
330
1
100
AcDbSymbolTableRecord
100
AcDbBlockTableRecord
  2
*D8
340
0
  0
BLOCK_RECORD
  5
39AF9
330
1
100
AcDbSymbolTableRecord
100
AcDbBlockTableRecord
  2
*D9
340
0
  0
BLOCK_RECORD
  5
39B05
330
1
100
AcDbSymbolTableRecord
100
AcDbBlockTableRecord
  2
*D10
340
0
  0
BLOCK_RECORD
  5
39B11
330
1
100
AcDbSymbolTableRecord
100
AcDbBlockTableRecord
  2
*D11
340
0
  0
BLOCK_RECORD
  5
39B2A
330
1
100
AcDbSymbolTableRecord
100
AcDbBlockTableRecord
  2
*D12
340
0
  0
BLOCK_RECORD
  5
3B2C2
330
1
100
AcDbSymbolTableRecord
100
AcDbBlockTableRecord
  2
*D14
340
0
  0
BLOCK_RECORD
  5
3B2CE
330
1
100
AcDbSymbolTableRecord
100
AcDbBlockTableRecord
  2
*D15
340
0
  0
BLOCK_RECORD
  5
3B2DA
330
1
100
AcDbSymbolTableRecord
100
AcDbBlockTableRecord
  2
*D16
340
0
  0
BLOCK_RECORD
  5
3B2E6
330
1
100
AcDbSymbolTableRecord
100
AcDbBlockTableRecord
  2
*D17
340
0
  0
BLOCK_RECORD
  5
3B2F4
330
1
100
AcDbSymbolTableRecord
100
AcDbBlockTableRecord
  2
*D18
340
0
  0
BLOCK_RECORD
  5
3B300
330
1
100
AcDbSymbolTableRecord
100
AcDbBlockTableRecord
  2
A$C28DD2CC1
340
0
  0
ENDTAB
  0
ENDSEC
  0
SECTION
  2
BLOCKS
  0
BLOCK
  5
20
330
1F
100
AcDbEntity
  8
0
100
AcDbBlockBegin
  2
*Model_Space
 70
     0
 10
0.0
 20
0.0
 30
0.0
  3
*Model_Space
  1

  0
ENDBLK
  5
21
330
1F
100
AcDbEntity
  8
0
100
AcDbBlockEnd
  0
BLOCK
  5
3B0FF
330
3B0FE
100
AcDbEntity
 67
     1
  8
0
100
AcDbBlockBegin
  2
*Paper_Space
 70
     0
 10
0.0
 20
0.0
 30
0.0
  3
*Paper_Space
  1

  0
ENDBLK
  5
3B102
330
3B0FE
100
AcDbEntity
 67
     1
  8
0
100
AcDbBlockEnd
  0
BLOCK
  5
372A
330
3729
100
AcDbEntity
  8
0
100
AcDbBlockBegin
  2
_OPEN
 70
     0
 10
0.0
 20
0.0
 30
0.0
  3
_OPEN
  1

  0
LINE
  5
372B
330
3729
100
AcDbEntity
  8
0
  6
ByBlock
 62
     0
100
AcDbLine
 10
-1.0
 20
0.1666666666666666
 30
0.0
 11
0.0
 21
0.0
 31
0.0
  0
LINE
  5
372C
330
3729
100
AcDbEntity
  8
0
  6
ByBlock
 62
     0
100
AcDbLine
 10
0.0
 20
0.0
 30
0.0
 11
-1.0
 21
-0.1666666666666666
 31
0.0
  0
LINE
  5
372D
330
3729
100
AcDbEntity
  8
0
  6
ByBlock
 62
     0
100
AcDbLine
 10
0.0
 20
0.0
 30
0.0
 11
-1.0
 21
0.0
 31
0.0
  0
ENDBLK
  5
372E
330
3729
100
AcDbEntity
  8
0
100
AcDbBlockEnd
  0
BLOCK
  5
1D29C
330
1D29B
100
AcDbEntity
  8
0
100
AcDbBlockBegin
  2
SW_CENTERMARKSYMBOL_0
 70
     0
 10
0.0
 20
0.0
 30
0.0
  3
SW_CENTERMARKSYMBOL_0
  1

  0
LINE
  5
1D29D
330
1D29B
100
AcDbEntity
  8
0
  6
Continuous
 62
     0
370
    18
100
AcDbLine
 10
0.0
 20
0.0
 30
0.0
 11
0.0
 21
2.500000000000057
 31
0.0
  0
LINE
  5
1D29E
330
1D29B
100
AcDbEntity
  8
0
  6
Continuous
 62
     0
370
    18
100
AcDbLine
 10
0.0
 20
0.0
 30
0.0
 11
-2.499999999999946
 21
0.0
 31
0.0
  0
LINE
  5
1D29F
330
1D29B
100
AcDbEntity
  8
0
  6
Continuous
 62
     0
370
    18
100
AcDbLine
 10
0.0
 20
0.0
 30
0.0
 11
0.0
 21
-2.500000000000057
 31
0.0
  0
LINE
  5
1D2A0
330
1D29B
100
AcDbEntity
  8
0
  6
Continuous
 62
     0
370
    18
100
AcDbLine
 10
0.0
 20
0.0
 30
0.0
 11
2.499999999999946
 21
0.0
 31
0.0
  0
LINE
  5
1D2A1
330
1D29B
100
AcDbEntity
  8
0
  6
Continuous
 62
     0
370
    18
100
AcDbLine
 10
0.0
 20
2.500000000000057
 30
0.0
 11
0.0
 21
3.750000000000031
 31
0.0
  0
LINE
  5
1D2A2
330
1D29B
100
AcDbEntity
  8
0
  6
Continuous
 62
     0
370
    18
100
AcDbLine
 10
-2.499999999999946
 20
0.0
 30
0.0
 11
-3.750000000000142
 21
0.0
 31
0.0
  0
LINE
  5
1D2A3
330
1D29B
100
AcDbEntity
  8
0
  6
Continuous
 62
     0
370
    18
100
AcDbLine
 10
0.0
 20
-2.500000000000057
 30
0.0
 11
0.0
 21
-3.750000000000031
 31
0.0
  0
LINE
  5
1D2A4
330
1D29B
100
AcDbEntity
  8
0
  6
Continuous
 62
     0
370
    18
100
AcDbLine
 10
2.499999999999946
 20
0.0
 30
0.0
 11
3.74999999999992
 21
0.0
 31
0.0
  0
ENDBLK
  5
1D2A5
330
1D29B
100
AcDbEntity
  8
0
100
AcDbBlockEnd
  0
BLOCK
  5
1D2A7
330
1D2A6
100
AcDbEntity
  8
0
100
AcDbBlockBegin
  2
SW_CENTERMARKSYMBOL_1
 70
     0
 10
0.0
 20
0.0
 30
0.0
  3
SW_CENTERMARKSYMBOL_1
  1

  0
LINE
  5
1D2A8
330
1D2A6
100
AcDbEntity
  8
0
  6
Continuous
 62
     0
370
    18
100
AcDbLine
 10
0.0
 20
0.0
 30
0.0
 11
0.0
 21
2.500000000000057
 31
0.0
  0
LINE
  5
1D2A9
330
1D2A6
100
AcDbEntity
  8
0
  6
Continuous
 62
     0
370
    18
100
AcDbLine
 10
0.0
 20
0.0
 30
0.0
 11
-2.499999999999946
 21
0.0
 31
0.0
  0
LINE
  5
1D2AA
330
1D2A6
100
AcDbEntity
  8
0
  6
Continuous
 62
     0
370
    18
100
AcDbLine
 10
0.0
 20
0.0
 30
0.0
 11
0.0
 21
-2.500000000000057
 31
0.0
  0
LINE
  5
1D2AB
330
1D2A6
100
AcDbEntity
  8
0
  6
Continuous
 62
     0
370
    18
100
AcDbLine
 10
0.0
 20
0.0
 30
0.0
 11
2.499999999999946
 21
0.0
 31
0.0
  0
LINE
  5
1D2AC
330
1D2A6
100
AcDbEntity
  8
0
  6
Continuous
 62
     0
370
    18
100
AcDbLine
 10
0.0
 20
2.500000000000057
 30
0.0
 11
0.0
 21
3.750000000000031
 31
0.0
  0
LINE
  5
1D2AD
330
1D2A6
100
AcDbEntity
  8
0
  6
Continuous
 62
     0
370
    18
100
AcDbLine
 10
-2.499999999999946
 20
0.0
 30
0.0
 11
-3.74999999999992
 21
0.0
 31
0.0
  0
LINE
  5
1D2AE
330
1D2A6
100
AcDbEntity
  8
0
  6
Continuous
 62
     0
370
    18
100
AcDbLine
 10
0.0
 20
-2.500000000000057
 30
0.0
 11
0.0
 21
-3.750000000000031
 31
0.0
  0
LINE
  5
1D2AF
330
1D2A6
100
AcDbEntity
  8
0
  6
Continuous
 62
     0
370
    18
100
AcDbLine
 10
2.499999999999946
 20
0.0
 30
0.0
 11
3.74999999999992
 21
0.0
 31
0.0
  0
ENDBLK
  5
1D2B0
330
1D2A6
100
AcDbEntity
  8
0
100
AcDbBlockEnd
  0
BLOCK
  5
1D2B2
330
1D2B1
100
AcDbEntity
  8
0
100
AcDbBlockBegin
  2
SW_CENTERMARKSYMBOL_2
 70
     0
 10
0.0
 20
0.0
 30
0.0
  3
SW_CENTERMARKSYMBOL_2
  1

  0
LINE
  5
1D2B3
330
1D2B1
100
AcDbEntity
  8
0
  6
Continuous
 62
     0
370
    18
100
AcDbLine
 10
0.0
 20
0.0
 30
0.0
 11
0.0
 21
2.500000000000057
 31
0.0
  0
LINE
  5
1D2B4
330
1D2B1
100
AcDbEntity
  8
0
  6
Continuous
 62
     0
370
    18
100
AcDbLine
 10
0.0
 20
0.0
 30
0.0
 11
-2.499999999999946
 21
0.0
 31
0.0
  0
LINE
  5
1D2B5
330
1D2B1
100
AcDbEntity
  8
0
  6
Continuous
 62
     0
370
    18
100
AcDbLine
 10
0.0
 20
0.0
 30
0.0
 11
0.0
 21
-2.500000000000057
 31
0.0
  0
LINE
  5
1D2B6
330
1D2B1
100
AcDbEntity
  8
0
  6
Continuous
 62
     0
370
    18
100
AcDbLine
 10
0.0
 20
0.0
 30
0.0
 11
2.500000000000168
 21
0.0
 31
0.0
  0
LINE
  5
1D2B7
330
1D2B1
100
AcDbEntity
  8
0
  6
Continuous
 62
     0
370
    18
100
AcDbLine
 10
0.0
 20
2.500000000000057
 30
0.0
 11
0.0
 21
3.750000000000031
 31
0.0
  0
LINE
  5
1D2B8
330
1D2B1
100
AcDbEntity
  8
0
  6
Continuous
 62
     0
370
    18
100
AcDbLine
 10
-2.499999999999946
 20
0.0
 30
0.0
 11
-3.74999999999992
 21
0.0
 31
0.0
  0
LINE
  5
1D2B9
330
1D2B1
100
AcDbEntity
  8
0
  6
Continuous
 62
     0
370
    18
100
AcDbLine
 10
0.0
 20
-2.500000000000057
 30
0.0
 11
0.0
 21
-3.750000000000031
 31
0.0
  0
LINE
  5
1D2BA
330
1D2B1
100
AcDbEntity
  8
0
  6
Continuous
 62
     0
370
    18
100
AcDbLine
 10
2.500000000000168
 20
0.0
 30
0.0
 11
3.750000000000142
 21
0.0
 31
0.0
  0
ENDBLK
  5
1D2BB
330
1D2B1
100
AcDbEntity
  8
0
100
AcDbBlockEnd
  0
BLOCK
  5
1FBAC
330
1FBAA
100
AcDbEntity
  8
0
370
     0
100
AcDbBlockBegin
  2
_Open30
 70
     0
 10
0.0
 20
0.0
 30
0.0
  3
_Open30
  1

  0
LINE
  5
1FBAD
330
1FBAA
100
AcDbEntity
  8
0
  6
ByBlock
 62
     0
370
    -2
100
AcDbLine
 10
-1.0
 20
0.26794919
 30
0.0
 11
0.0
 21
0.0
 31
0.0
  0
LINE
  5
1FBAE
330
1FBAA
100
AcDbEntity
  8
0
  6
ByBlock
 62
     0
370
    -2
100
AcDbLine
 10
0.0
 20
0.0
 30
0.0
 11
-1.0
 21
-0.26794919
 31
0.0
  0
LINE
  5
1FBAF
330
1FBAA
100
AcDbEntity
  8
0
  6
ByBlock
 62
     0
370
    -2
100
AcDbLine
 10
0.0
 20
0.0
 30
0.0
 11
-1.0
 21
0.0
 31
0.0
  0
ENDBLK
  5
1FBB0
330
1FBAA
100
AcDbEntity
  8
0
370
     0
100
AcDbBlockEnd
  0
BLOCK
  5
38214
330
38213
100
AcDbEntity
  8
0
100
AcDbBlockBegin
  2
*X5
 70
     1
 10
0.0
 20
0.0
 30
0.0
  3
*X5
  1

1001
ACAD
1000
RTMaterial
1005
0
  0
LINE
  5
38215
330
38213
100
AcDbEntity
  8
0
 62
     0
100
AcDbLine
 10
79.04221215478115
 20
32.60416907028508
 30
0.0
 11
78.39638122506625
 21
33.25000000000006
 31
0.0
1001
ACAD
1000
RTMaterial
1005
0
  0
LINE
  5
38216
330
38213
100
AcDbEntity
  8
0
 62
     0
100
AcDbLine
 10
79.04221215478115
 20
31.70614345817819
 30
0.0
 11
77.4983556129593
 21
33.25000000000006
 31
0.0
1001
ACAD
1000
RTMaterial
1005
0
  0
LINE
  5
38217
330
38213
100
AcDbEntity
  8
0
 62
     0
100
AcDbLine
 10
79.04221215478111
 20
30.80811784607124
 30
0.0
 11
76.62107820876618
 21
33.22925179208619
 31
0.0
1001
ACAD
1000
RTMaterial
1005
0
  0
LINE
  5
38218
330
38213
100
AcDbEntity
  8
0
 62
     0
100
AcDbLine
 10
79.04221215478115
 20
29.91009223396441
 30
0.0
 11
76.2422121547811
 21
32.71009223396442
 31
0.0
1001
ACAD
1000
RTMaterial
1005
0
  0
LINE
  5
38219
330
38213
100
AcDbEntity
  8
0
 62
     0
100
AcDbLine
 10
79.04221215478115
 20
29.01206662185746
 30
0.0
 11
76.2422121547811
 21
31.81206662185753
 31
0.0
1001
ACAD
1000
RTMaterial
1005
0
  0
LINE
  5
3821A
330
38213
100
AcDbEntity
  8
0
 62
     0
100
AcDbLine
 10
79.04221215478111
 20
28.11404100975052
 30
0.0
 11
76.24221215478105
 21
30.91404100975058
 31
0.0
1001
ACAD
1000
RTMaterial
1005
0
  0
LINE
  5
3821B
330
38213
100
AcDbEntity
  8
0
 62
     0
100
AcDbLine
 10
74.14221215478106
 20
32.11601539764371
 30
0.0
 11
73.00822755242484
 21
33.24999999999994
 31
0.0
1001
ACAD
1000
RTMaterial
1005
0
  0
LINE
  5
3821C
330
38213
100
AcDbEntity
  8
0
 62
     0
100
AcDbLine
 10
79.04221215478115
 20
27.21601539764368
 30
0.0
 11
76.2422121547811
 21
30.01601539764374
 31
0.0
1001
ACAD
1000
RTMaterial
1005
0
  0
LINE
  5
3821D
330
38213
100
AcDbEntity
  8
0
 62
     0
100
AcDbLine
 10
74.14221215478106
 20
31.21798978553682
 30
0.0
 11
72.11020194031795
 21
33.24999999999994
 31
0.0
1001
ACAD
1000
RTMaterial
1005
0
  0
LINE
  5
3821E
330
38213
100
AcDbEntity
  8
0
 62
     0
100
AcDbLine
 10
79.04221215478111
 20
26.31798978553673
 30
0.0
 11
76.2422121547811
 21
29.11798978553679
 31
0.0
1001
ACAD
1000
RTMaterial
1005
0
  0
LINE
  5
3821F
330
38213
100
AcDbEntity
  8
0
 62
     0
100
AcDbLine
 10
74.14221215478106
 20
30.31996417342987
 30
0.0
 11
71.436701189644
 21
33.02547513856695
 31
0.0
1001
ACAD
1000
RTMaterial
1005
0
  0
LINE
  5
38220
330
38213
100
AcDbEntity
  8
0
 62
     0
100
AcDbLine
 10
79.04221215478111
 20
25.41996417342983
 30
0.0
 11
76.24221215478105
 21
28.21996417342985
 31
0.0
1001
ACAD
1000
RTMaterial
1005
0
  0
LINE
  5
38221
330
38213
100
AcDbEntity
  8
0
 62
     0
100
AcDbLine
 10
74.14221215478106
 20
29.42193856132292
 30
0.0
 11
71.34221215478103
 21
32.22193856132299
 31
0.0
1001
ACAD
1000
RTMaterial
1005
0
  0
LINE
  5
38222
330
38213
100
AcDbEntity
  8
0
 62
     0
100
AcDbLine
 10
79.04221215478115
 20
24.52193856132288
 30
0.0
 11
76.2422121547811
 21
27.32193856132295
 31
0.0
1001
ACAD
1000
RTMaterial
1005
0
  0
LINE
  5
38223
330
38213
100
AcDbEntity
  8
0
 62
     0
100
AcDbLine
 10
74.14221215478106
 20
28.52391294921608
 30
0.0
 11
71.34221215478103
 21
31.32391294921615
 31
0.0
1001
ACAD
1000
RTMaterial
1005
0
  0
LINE
  5
38224
330
38213
100
AcDbEntity
  8
0
 62
     0
100
AcDbLine
 10
79.04221215478111
 20
23.62391294921599
 30
0.0
 11
76.24221215478105
 21
26.42391294921606
 31
0.0
1001
ACAD
1000
RTMaterial
1005
0
  0
LINE
  5
38225
330
38213
100
AcDbEntity
  8
0
 62
     0
100
AcDbLine
 10
74.14221215478102
 20
27.62588733710913
 30
0.0
 11
71.34221215478103
 21
30.4258873371092
 31
0.0
1001
ACAD
1000
RTMaterial
1005
0
  0
LINE
  5
38226
330
38213
100
AcDbEntity
  8
0
 62
     0
100
AcDbLine
 10
79.04221215478111
 20
22.7258873371091
 30
0.0
 11
76.24221215478105
 21
25.52588733710917
 31
0.0
1001
ACAD
1000
RTMaterial
1005
0
  0
LINE
  5
38227
330
38213
100
AcDbEntity
  8
0
 62
     0
100
AcDbLine
 10
74.14221215478102
 20
26.72786172500224
 30
0.0
 11
71.34221215478095
 21
29.52786172500225
 31
0.0
1001
ACAD
1000
RTMaterial
1005
0
  0
LINE
  5
38228
330
38213
100
AcDbEntity
  8
0
 62
     0
100
AcDbLine
 10
79.04221215478107
 20
21.82786172500215
 30
0.0
 11
76.24221215478105
 21
24.62786172500222
 31
0.0
1001
ACAD
1000
RTMaterial
1005
0
  0
LINE
  5
38229
330
38213
100
AcDbEntity
  8
0
 62
     0
100
AcDbLine
 10
74.14221215478106
 20
25.82983611289535
 30
0.0
 11
71.34221215478103
 21
28.62983611289542
 31
0.0
1001
ACAD
1000
RTMaterial
1005
0
  0
LINE
  5
3822A
330
38213
100
AcDbEntity
  8
0
 62
     0
100
AcDbLine
 10
67.84221215478106
 20
32.12983611289536
 30
0.0
 11
66.72204826767643
 21
33.25
 31
0.0
1001
ACAD
1000
RTMaterial
1005
0
  0
LINE
  5
3822B
330
38213
100
AcDbEntity
  8
0
 62
     0
100
AcDbLine
 10
79.04221215478111
 20
20.92983611289532
 30
0.0
 11
76.24221215478105
 21
23.72983611289533
 31
0.0
1001
ACAD
1000
RTMaterial
1005
0
  0
LINE
  5
3822C
330
38213
100
AcDbEntity
  8
0
 62
     0
100
AcDbLine
 10
74.14221215478102
 20
24.93181050078846
 30
0.0
 11
71.34221215478095
 21
27.73181050078847
 31
0.0
1001
ACAD
1000
RTMaterial
1005
0
  0
LINE
  5
3822D
330
38213
100
AcDbEntity
  8
0
 62
     0
100
AcDbLine
 10
67.84221215478101
 20
31.23181050078841
 30
0.0
 11
65.82402265556948
 21
33.25
 31
0.0
1001
ACAD
1000
RTMaterial
1005
0
  0
LINE
  5
3822E
330
38213
100
AcDbEntity
  8
0
 62
     0
100
AcDbLine
 10
79.04221215478111
 20
20.03181050078837
 30
0.0
 11
76.24221215478105
 21
22.83181050078844
 31
0.0
1001
ACAD
1000
RTMaterial
1005
0
  0
LINE
  5
3822F
330
38213
100
AcDbEntity
  8
0
 62
     0
100
AcDbLine
 10
74.14221215478102
 20
24.03378488868151
 30
0.0
 11
71.34221215478103
 21
26.83378488868147
 31
0.0
1001
ACAD
1000
RTMaterial
1005
0
  0
LINE
  5
38230
330
38213
100
AcDbEntity
  8
0
 62
     0
100
AcDbLine
 10
67.84221215478101
 20
30.33378488868152
 30
0.0
 11
65.14244943145701
 21
33.03354761200552
 31
0.0
1001
ACAD
1000
RTMaterial
1005
0
  0
LINE
  5
38231
330
38213
100
AcDbEntity
  8
0
 62
     0
100
AcDbLine
 10
79.04221215478107
 20
19.13378488868147
 30
0.0
 11
76.24221215478098
 21
21.93378488868149
 31
0.0
1001
ACAD
1000
RTMaterial
1005
0
  0
LINE
  5
38232
330
38213
100
AcDbEntity
  8
0
 62
     0
100
AcDbLine
 10
74.14221215478102
 20
23.13575927657456
 30
0.0
 11
71.34221215478106
 21
25.93575927657457
 31
0.0
1001
ACAD
1000
RTMaterial
1005
0
  0
LINE
  5
38233
330
38213
100
AcDbEntity
  8
0
 62
     0
100
AcDbLine
 10
67.84221215478106
 20
29.43575927657457
 30
0.0
 11
65.04221215478104
 21
32.23575927657459
 31
0.0
1001
ACAD
1000
RTMaterial
1005
0
  0
LINE
  5
38234
330
38213
100
AcDbEntity
  8
0
 62
     0
100
AcDbLine
 10
79.04221215478111
 20
18.23575927657453
 30
0.0
 11
76.24221215478105
 21
21.03575927657459
 31
0.0
1001
ACAD
1000
RTMaterial
1005
0
  0
LINE
  5
38235
330
38213
100
AcDbEntity
  8
0
 62
     0
100
AcDbLine
 10
74.14221215478102
 20
22.23773366446772
 30
0.0
 11
71.34221215478106
 21
25.03773366446768
 31
0.0
1001
ACAD
1000
RTMaterial
1005
0
  0
LINE
  5
38236
330
38213
100
AcDbEntity
  8
0
 62
     0
100
AcDbLine
 10
67.84221215478111
 20
28.53773366446763
 30
0.0
 11
65.04221215478104
 21
31.33773366446769
 31
0.0
1001
ACAD
1000
RTMaterial
1005
0
  0
LINE
  5
38237
330
38213
100
AcDbEntity
  8
0
 62
     0
100
AcDbLine
 10
78.97024679989129
 20
17.40969901935744
 30
0.0
 11
76.24221215478105
 21
20.1377336644677
 31
0.0
1001
ACAD
1000
RTMaterial
1005
0
  0
LINE
  5
38238
330
38213
100
AcDbEntity
  8
0
 62
     0
100
AcDbLine
 10
74.14221215478102
 20
21.33970805236078
 30
0.0
 11
71.34221215478103
 21
24.13970805236073
 31
0.0
1001
ACAD
1000
RTMaterial
1005
0
  0
LINE
  5
38239
330
38213
100
AcDbEntity
  8
0
 62
     0
100
AcDbLine
 10
67.84221215478106
 20
27.63970805236073
 30
0.0
 11
65.042212154781
 21
30.43970805236074
 31
0.0
1001
ACAD
1000
RTMaterial
1005
0
  0
LINE
  5
3823A
330
38213
100
AcDbEntity
  8
0
 62
     0
100
AcDbLine
 10
78.33192020714193
 20
17.14999999999981
 30
0.0
 11
76.24221215478098
 21
19.23970805236081
 31
0.0
1001
ACAD
1000
RTMaterial
1005
0
  0
LINE
  5
3823B
330
38213
100
AcDbEntity
  8
0
 62
     0
100
AcDbLine
 10
67.84221215478106
 20
26.74168244025378
 30
0.0
 11
65.042212154781
 21
29.54168244025386
 31
0.0
1001
ACAD
1000
RTMaterial
1005
0
  0
LINE
  5
3823C
330
38213
100
AcDbEntity
  8
0
 62
     0
100
AcDbLine
 10
74.14221215478097
 20
20.44168244025389
 30
0.0
 11
71.34221215478103
 21
23.24168244025384
 31
0.0
1001
ACAD
1000
RTMaterial
1005
0
  0
LINE
  5
3823D
330
38213
100
AcDbEntity
  8
0
 62
     0
100
AcDbLine
 10
62.41721215478104
 20
32.1666824402538
 30
0.0
 11
61.33389459503489
 21
33.24999999999989
 31
0.0
1001
ACAD
1000
RTMaterial
1005
0
  0
LINE
  5
3823E
330
38213
100
AcDbEntity
  8
0
 62
     0
100
AcDbLine
 10
77.43389459503493
 20
17.14999999999986
 30
0.0
 11
76.24221215478098
 21
18.34168244025386
 31
0.0
1001
ACAD
1000
RTMaterial
1005
0
  0
LINE
  5
3823F
330
38213
100
AcDbEntity
  8
0
 62
     0
100
AcDbLine
 10
67.84221215478106
 20
25.84365682814689
 30
0.0
 11
65.04221215478111
 21
28.64365682814689
 31
0.0
1001
ACAD
1000
RTMaterial
1005
0
  0
LINE
  5
38240
330
38213
100
AcDbEntity
  8
0
 62
     0
100
AcDbLine
 10
62.41721215478104
 20
31.26865682814691
 30
0.0
 11
60.43586898292806
 21
33.24999999999994
 31
0.0
1001
ACAD
1000
RTMaterial
1005
0
  0
LINE
  5
38241
330
38213
100
AcDbEntity
  8
0
 62
     0
100
AcDbLine
 10
74.11625385413555
 20
19.56961512879246
 30
0.0
 11
71.34221215478103
 21
22.34365682814695
 31
0.0
1001
ACAD
1000
RTMaterial
1005
0
  0
LINE
  5
38242
330
38213
100
AcDbEntity
  8
0
 62
     0
100
AcDbLine
 10
67.84221215478106
 20
24.94563121604
 30
0.0
 11
65.04221215478111
 21
27.74563121603995
 31
0.0
1001
ACAD
1000
RTMaterial
1005
0
  0
LINE
  5
38243
330
38213
100
AcDbEntity
  8
0
 62
     0
100
AcDbLine
 10
62.22163160866722
 20
30.56621176215384
 30
0.0
 11
59.53784337082106
 21
33.25
 31
0.0
1001
ACAD
1000
RTMaterial
1005
0
  0
LINE
  5
38244
330
38213
100
AcDbEntity
  8
0
 62
     0
100
AcDbLine
 10
73.92326855887829
 20
18.8645748119427
 30
0.0
 11
71.34221215478103
 21
21.44563121604006
 31
0.0
1001
ACAD
1000
RTMaterial
1005
0
  0
LINE
  5
38245
330
38213
100
AcDbEntity
  8
0
 62
     0
100
AcDbLine
 10
67.84221215478106
 20
24.04760560393305
 30
0.0
 11
65.04221215478104
 21
26.84760560393306
 31
0.0
1001
ACAD
1000
RTMaterial
1005
0
  0
LINE
  5
38246
330
38213
100
AcDbEntity
  8
0
 62
     0
100
AcDbLine
 10
61.43981775871406
 20
30.44999999999999
 30
0.0
 11
58.63981775871417
 21
33.24999999999989
 31
0.0
1001
ACAD
1000
RTMaterial
1005
0
  0
LINE
  5
38247
330
38213
100
AcDbEntity
  8
0
 62
     0
100
AcDbLine
 10
73.59823668295473
 20
18.29158107575932
 30
0.0
 11
71.2706964156215
 21
20.61912134309261
 31
0.0
1001
ACAD
1000
RTMaterial
1005
0
  0
LINE
  5
38248
330
38213
100
AcDbEntity
  8
0
 62
     0
100
AcDbLine
 10
67.84221215478106
 20
23.14957999182622
 30
0.0
 11
65.04221215478111
 21
25.94957999182617
 31
0.0
1001
ACAD
1000
RTMaterial
1005
0
  0
LINE
  5
38249
330
38213
100
AcDbEntity
  8
0
 62
     0
100
AcDbLine
 10
60.54179214660728
 20
30.44999999999993
 30
0.0
 11
57.80422541742985
 21
33.18756672917743
 31
0.0
1001
ACAD
1000
RTMaterial
1005
0
  0
LINE
  5
3824A
330
38213
100
AcDbEntity
  8
0
 62
     0
100
AcDbLine
 10
73.16619488562969
 20
17.82559726097753
 30
0.0
 11
70.86911077715399
 21
20.12268136945323
 31
0.0
1001
ACAD
1000
RTMaterial
1005
0
  0
LINE
  5
3824B
330
38213
100
AcDbEntity
  8
0
 62
     0
100
AcDbLine
 10
67.84221215478106
 20
22.25155437971928
 30
0.0
 11
65.04221215478104
 21
25.05155437971922
 31
0.0
1001
ACAD
1000
RTMaterial
1005
0
  0
LINE
  5
3824C
330
38213
100
AcDbEntity
  8
0
 62
     0
100
AcDbLine
 10
59.6437665345004
 20
30.44999999999993
 30
0.0
 11
57.13958499289645
 21
32.95418154160382
 31
0.0
1001
ACAD
1000
RTMaterial
1005
0
  0
LINE
  5
3824D
330
38213
100
AcDbEntity
  8
0
 62
     0
100
AcDbLine
 10
72.63003254070365
 20
17.46373399379666
 30
0.0
 11
70.1437665345004
 21
19.94999999999993
 31
0.0
1001
ACAD
1000
RTMaterial
1005
0
  0
LINE
  5
3824E
330
38213
100
AcDbEntity
  8
0
 62
     0
100
AcDbLine
 10
67.84221215478101
 20
21.35352876761232
 30
0.0
 11
65.04221215478104
 21
24.15352876761233
 31
0.0
1001
ACAD
1000
RTMaterial
1005
0
  0
LINE
  5
3824F
330
38213
100
AcDbEntity
  8
0
 62
     0
100
AcDbLine
 10
58.76753075041147
 20
30.42821017198185
 30
0.0
 11
56.59698405568629
 21
32.59875686670705
 31
0.0
1001
ACAD
1000
RTMaterial
1005
0
  0
LINE
  5
38250
330
38213
100
AcDbEntity
  8
0
 62
     0
100
AcDbLine
 10
71.97361998079236
 20
17.22212094160102
 30
0.0
 11
69.24574092239339
 21
19.94999999999999
 31
0.0
1001
ACAD
1000
RTMaterial
1005
0
  0
LINE
  5
38251
330
38213
100
AcDbEntity
  8
0
 62
     0
100
AcDbLine
 10
58.39221215478108
 20
29.90550315550536
 30
0.0
 11
56.15887199664172
 21
32.13884331364467
 31
0.0
1001
ACAD
1000
RTMaterial
1005
0
  0
LINE
  5
38252
330
38213
100
AcDbEntity
  8
0
 62
     0
100
AcDbLine
 10
71.14771531028655
 20
17.14999999999981
 30
0.0
 11
65.04221215478104
 21
23.25550315550538
 31
0.0
1001
ACAD
1000
RTMaterial
1005
0
  0
LINE
  5
38253
330
38213
100
AcDbEntity
  8
0
 62
     0
100
AcDbLine
 10
58.39221215478113
 20
29.00747754339846
 30
0.0
 11
55.82710108428869
 21
31.5725886138909
 31
0.0
1001
ACAD
1000
RTMaterial
1005
0
  0
LINE
  5
38254
330
38213
100
AcDbEntity
  8
0
 62
     0
100
AcDbLine
 10
70.24968969817962
 20
17.14999999999992
 30
0.0
 11
65.04221215478104
 21
22.35747754339854
 31
0.0
1001
ACAD
1000
RTMaterial
1005
0
  0
LINE
  5
38255
330
38213
100
AcDbEntity
  8
0
 62
     0
100
AcDbLine
 10
58.59875643588492
 20
27.90290765018773
 30
0.0
 11
55.62492256492459
 21
30.87674152114801
 31
0.0
1001
ACAD
1000
RTMaterial
1005
0
  0
LINE
  5
38256
330
38213
100
AcDbEntity
  8
0
 62
     0
100
AcDbLine
 10
69.35166408607273
 20
17.14999999999992
 30
0.0
 11
65.04221215478104
 21
21.45945193129159
 31
0.0
1001
ACAD
1000
RTMaterial
1005
0
  0
LINE
  5
38257
330
38213
100
AcDbEntity
  8
0
 62
     0
100
AcDbLine
 10
62.81581585747243
 20
22.78782261649326
 30
0.0
 11
55.59221215478101
 21
30.01142631918469
 31
0.0
1001
ACAD
1000
RTMaterial
1005
0
  0
LINE
  5
38258
330
38213
100
AcDbEntity
  8
0
 62
     0
100
AcDbLine
 10
53.49221215478099
 20
32.11142631918466
 30
0.0
 11
52.35363847396576
 21
33.24999999999994
 31
0.0
1001
ACAD
1000
RTMaterial
1005
0
  0
LINE
  5
38259
330
38213
100
AcDbEntity
  8
0
 62
     0
100
AcDbLine
 10
68.45363847396578
 20
17.14999999999992
 30
0.0
 11
65.042212154781
 21
20.56142631918465
 31
0.0
1001
ACAD
1000
RTMaterial
1005
0
  0
LINE
  5
3825A
330
38213
100
AcDbEntity
  8
0
 62
     0
100
AcDbLine
 10
62.94221215478096
 20
21.76340070707789
 30
0.0
 11
55.59221215478107
 21
29.1134007070778
 31
0.0
1001
ACAD
1000
RTMaterial
1005
0
  0
LINE
  5
3825B
330
38213
100
AcDbEntity
  8
0
 62
     0
100
AcDbLine
 10
53.4922121547811
 20
31.21340070707772
 30
0.0
 11
51.45561286185887
 21
33.24999999999994
 31
0.0
1001
ACAD
1000
RTMaterial
1005
0
  0
LINE
  5
3825C
330
38213
100
AcDbEntity
  8
0
 62
     0
100
AcDbLine
 10
67.53916498311401
 20
17.16644787874486
 30
0.0
 11
65.058660033526
 21
19.64695282833287
 31
0.0
1001
ACAD
1000
RTMaterial
1005
0
  0
LINE
  5
3825D
330
38213
100
AcDbEntity
  8
0
 62
     0
100
AcDbLine
 10
53.4922121547811
 20
30.31537509497082
 30
0.0
 11
50.78482226700578
 21
33.02276498274608
 31
0.0
1001
ACAD
1000
RTMaterial
1005
0
  0
LINE
  5
3825E
330
38213
100
AcDbEntity
  8
0
 62
     0
100
AcDbLine
 10
62.94221215478103
 20
20.86537509497089
 30
0.0
 11
55.61562282266344
 21
28.19196442708847
 31
0.0
1001
ACAD
1000
RTMaterial
1005
0
  0
LINE
  5
3825F
330
38213
100
AcDbEntity
  8
0
 62
     0
100
AcDbLine
 10
53.4922121547811
 20
29.41734948286387
 30
0.0
 11
50.69221215478102
 21
32.21734948286394
 31
0.0
1001
ACAD
1000
RTMaterial
1005
0
  0
LINE
  5
38260
330
38213
100
AcDbEntity
  8
0
 62
     0
100
AcDbLine
 10
62.94221215478096
 20
19.96734948286394
 30
0.0
 11
55.93374224050347
 21
26.9758193971415
 31
0.0
1001
ACAD
1000
RTMaterial
1005
0
  0
LINE
  5
38261
330
38213
100
AcDbEntity
  8
0
 62
     0
100
AcDbLine
 10
53.4922121547811
 20
28.51932387075698
 30
0.0
 11
50.69221215478102
 21
31.31932387075699
 31
0.0
1001
ACAD
1000
RTMaterial
1005
0
  0
LINE
  5
38262
330
38213
100
AcDbEntity
  8
0
 62
     0
100
AcDbLine
 10
62.83365033719201
 20
19.17788568834606
 30
0.0
 11
60.1380155481537
 21
21.87352047738437
 31
0.0
1001
ACAD
1000
RTMaterial
1005
0
  0
LINE
  5
38263
330
38213
100
AcDbEntity
  8
0
 62
     0
100
AcDbLine
 10
53.4922121547811
 20
27.62129825865009
 30
0.0
 11
50.69221215478102
 21
30.42129825865016
 31
0.0
1001
ACAD
1000
RTMaterial
1005
0
  0
LINE
  5
38264
330
38213
100
AcDbEntity
  8
0
 62
     0
100
AcDbLine
 10
48.40072525420407
 20
32.71278515922706
 30
0.0
 11
47.86351041343118
 21
33.25
 31
0.0
1001
ACAD
1000
RTMaterial
1005
0
  0
LINE
  5
38265
330
38213
100
AcDbEntity
  8
0
 62
     0
100
AcDbLine
 10
62.56577462943045
 20
18.54773578400073
 30
0.0
 11
60.14221215478113
 21
20.97129825865005
 31
0.0
1001
ACAD
1000
RTMaterial
1005
0
  0
LINE
  5
38266
330
38213
100
AcDbEntity
  8
0
 62
     0
100
AcDbLine
 10
53.49221215478103
 20
26.72327264654314
 30
0.0
 11
50.69221215478102
 21
29.52327264654321
 31
0.0
1001
ACAD
1000
RTMaterial
1005
0
  0
LINE
  5
38267
330
38213
100
AcDbEntity
  8
0
 62
     0
100
AcDbLine
 10
48.20179758995147
 20
32.01368721137271
 30
0.0
 11
46.96548480132422
 21
33.25
 31
0.0
1001
ACAD
1000
RTMaterial
1005
0
  0
LINE
  5
38268
330
38213
100
AcDbEntity
  8
0
 62
     0
100
AcDbLine
 10
62.18278783125516
 20
18.03269697006907
 30
0.0
 11
60.04492697189466
 21
20.17055782942958
 31
0.0
1001
ACAD
1000
RTMaterial
1005
0
  0
LINE
  5
38269
330
38213
100
AcDbEntity
  8
0
 62
     0
100
AcDbLine
 10
53.49221215478103
 20
25.82524703443624
 30
0.0
 11
50.69221215478098
 21
28.62524703443625
 31
0.0
1001
ACAD
1000
RTMaterial
1005
0
  0
LINE
  5
3826A
330
38213
100
AcDbEntity
  8
0
 62
     0
100
AcDbLine
 10
47.98627144304576
 20
31.33118774617145
 30
0.0
 11
46.07705587957521
 21
33.24040330964209
 31
0.0
1001
ACAD
1000
RTMaterial
1005
0
  0
LINE
  5
3826B
330
38213
100
AcDbEntity
  8
0
 62
     0
100
AcDbLine
 10
61.69646886613953
 20
17.6209903230777
 30
0.0
 11
59.36745918921747
 21
19.94999999999982
 31
0.0
1001
ACAD
1000
RTMaterial
1005
0
  0
LINE
  5
3826C
330
38213
100
AcDbEntity
  8
0
 62
     0
100
AcDbLine
 10
53.4922121547811
 20
24.92722142232935
 30
0.0
 11
50.69221215478102
 21
27.72722142232942
 31
0.0
1001
ACAD
1000
RTMaterial
1005
0
  0
LINE
  5
3826D
330
38213
100
AcDbEntity
  8
0
 62
     0
100
AcDbLine
 10
47.77074529614026
 20
30.64868828097019
 30
0.0
 11
45.64274529614022
 21
32.77668828097024
 31
0.0
1001
ACAD
1000
RTMaterial
1005
0
  0
LINE
  5
3826E
330
38213
100
AcDbEntity
  8
0
 62
     0
100
AcDbLine
 10
61.10038491767915
 20
17.31904865943124
 30
0.0
 11
58.46943357711052
 21
19.94999999999993
 31
0.0
1001
ACAD
1000
RTMaterial
1005
0
  0
LINE
  5
3826F
330
38213
100
AcDbEntity
  8
0
 62
     0
100
AcDbLine
 10
53.49221215478103
 20
24.02919581022246
 30
0.0
 11
50.69221215478098
 21
26.82919581022247
 31
0.0
1001
ACAD
1000
RTMaterial
1005
0
  0
LINE
  5
38270
330
38213
100
AcDbEntity
  8
0
 62
     0
100
AcDbLine
 10
47.5552191492344
 20
29.9661888157691
 30
0.0
 11
45.42721914923442
 21
32.0941888157691
 31
0.0
1001
ACAD
1000
RTMaterial
1005
0
  0
LINE
  5
38271
330
38213
100
AcDbEntity
  8
0
 62
     0
100
AcDbLine
 10
60.36271226603168
 20
17.15869569897182
 30
0.0
 11
57.57140796500351
 21
19.94999999999999
 31
0.0
1001
ACAD
1000
RTMaterial
1005
0
  0
LINE
  5
38272
330
38213
100
AcDbEntity
  8
0
 62
     0
100
AcDbLine
 10
53.49221215478103
 20
23.13117019811551
 30
0.0
 11
50.69221215478102
 21
25.93117019811547
 31
0.0
1001
ACAD
1000
RTMaterial
1005
0
  0
LINE
  5
38273
330
38213
100
AcDbEntity
  8
0
 62
     0
100
AcDbLine
 10
47.33969300232882
 20
29.28368935056773
 30
0.0
 11
45.21169300232872
 21
31.41168935056777
 31
0.0
1001
ACAD
1000
RTMaterial
1005
0
  0
LINE
  5
38274
330
38213
100
AcDbEntity
  8
0
 62
     0
100
AcDbLine
 10
59.47338235289663
 20
17.14999999999992
 30
0.0
 11
56.67338235289657
 21
19.94999999999999
 31
0.0
1001
ACAD
1000
RTMaterial
1005
0
  0
LINE
  5
38275
330
38213
100
AcDbEntity
  8
0
 62
     0
100
AcDbLine
 10
53.49221215478103
 20
22.23314458600862
 30
0.0
 11
50.69221215478108
 21
25.03314458600863
 31
0.0
1001
ACAD
1000
RTMaterial
1005
0
  0
LINE
  5
38276
330
38213
100
AcDbEntity
  8
0
 62
     0
100
AcDbLine
 10
47.12416685542318
 20
28.60118988536653
 30
0.0
 11
44.99616685542309
 21
30.72918988536657
 31
0.0
1001
ACAD
1000
RTMaterial
1005
0
  0
LINE
  5
38277
330
38213
100
AcDbEntity
  8
0
 62
     0
100
AcDbLine
 10
58.57535674078974
 20
17.14999999999998
 30
0.0
 11
56.14174504349334
 21
19.58361169729636
 31
0.0
1001
ACAD
1000
RTMaterial
1005
0
  0
LINE
  5
38278
330
38213
100
AcDbEntity
  8
0
 62
     0
100
AcDbLine
 10
46.90864070851755
 20
27.91869042016515
 30
0.0
 11
44.78064070851746
 21
30.0466904201653
 31
0.0
1001
ACAD
1000
RTMaterial
1005
0
  0
LINE
  5
38279
330
38213
100
AcDbEntity
  8
0
 62
     0
100
AcDbLine
 10
53.49221215478103
 20
21.33511897390173
 30
0.0
 11
50.69221215478108
 21
24.13511897390169
 31
0.0
1001
ACAD
1000
RTMaterial
1005
0
  0
LINE
  5
3827A
330
38213
100
AcDbEntity
  8
0
 62
     0
100
AcDbLine
 10
42.64221215478108
 20
32.1851189739017
 30
0.0
 11
41.57733112868277
 21
33.24999999999994
 31
0.0
1001
ACAD
1000
RTMaterial
1005
0
  0
LINE
  5
3827B
330
38213
100
AcDbEntity
  8
0
 62
     0
100
AcDbLine
 10
57.67733112868285
 20
17.14999999999992
 30
0.0
 11
56.1172121547811
 21
18.71011897390167
 31
0.0
1001
ACAD
1000
RTMaterial
1005
0
  0
LINE
  5
3827C
330
38213
100
AcDbEntity
  8
0
 62
     0
100
AcDbLine
 10
46.69311456161175
 20
27.23619095496407
 30
0.0
 11
44.56511456161182
 21
29.36419095496399
 31
0.0
1001
ACAD
1000
RTMaterial
1005
0
  0
LINE
  5
3827D
330
38213
100
AcDbEntity
  8
0
 62
     0
100
AcDbLine
 10
53.49221215478103
 20
20.43709336179478
 30
0.0
 11
50.69221215478102
 21
23.23709336179479
 31
0.0
1001
ACAD
1000
RTMaterial
1005
0
  0
LINE
  5
3827E
330
38213
100
AcDbEntity
  8
0
 62
     0
100
AcDbLine
 10
42.64221215478108
 20
31.28709336179475
 30
0.0
 11
40.67930551657588
 21
33.24999999999994
 31
0.0
1001
ACAD
1000
RTMaterial
1005
0
  0
LINE
  5
3827F
330
38213
100
AcDbEntity
  8
0
 62
     0
100
AcDbLine
 10
56.77930551657585
 20
17.14999999999998
 30
0.0
 11
56.11721215478103
 21
17.81209336179472
 31
0.0
1001
ACAD
1000
RTMaterial
1005
0
  0
LINE
  5
38280
330
38213
100
AcDbEntity
  8
0
 62
     0
100
AcDbLine
 10
46.47758841470613
 20
26.55369148976274
 30
0.0
 11
44.34958841470609
 21
28.68169148976278
 31
0.0
1001
ACAD
1000
RTMaterial
1005
0
  0
LINE
  5
38281
330
38213
100
AcDbEntity
  8
0
 62
     0
100
AcDbLine
 10
42.64221215478102
 20
30.3890677496878
 30
0.0
 11
39.96676722588342
 21
33.06451267858547
 31
0.0
1001
ACAD
1000
RTMaterial
1005
0
  0
LINE
  5
38282
330
38213
100
AcDbEntity
  8
0
 62
     0
100
AcDbLine
 10
53.49221215478099
 20
19.53906774968789
 30
0.0
 11
50.69221215478102
 21
22.33906774968784
 31
0.0
1001
ACAD
1000
RTMaterial
1005
0
  0
LINE
  5
38283
330
38213
100
AcDbEntity
  8
0
 62
     0
100
AcDbLine
 10
46.2620622678005
 20
25.87119202456154
 30
0.0
 11
44.1340622678005
 21
27.99919202456152
 31
0.0
1001
ACAD
1000
RTMaterial
1005
0
  0
LINE
  5
38284
330
38213
100
AcDbEntity
  8
0
 62
     0
100
AcDbLine
 10
42.64221215478108
 20
29.49104213758096
 30
0.0
 11
39.84221215478101
 21
32.29104213758097
 31
0.0
1001
ACAD
1000
RTMaterial
1005
0
  0
LINE
  5
38285
330
38213
100
AcDbEntity
  8
0
 62
     0
100
AcDbLine
 10
53.49221215478103
 20
18.64104213758099
 30
0.0
 11
50.69221215478102
 21
21.44104213758095
 31
0.0
1001
ACAD
1000
RTMaterial
1005
0
  0
LINE
  5
38286
330
38213
100
AcDbEntity
  8
0
 62
     0
100
AcDbLine
 10
46.05697375840843
 20
25.17825492184665
 30
0.0
 11
43.91853612089477
 21
27.31669255936032
 31
0.0
1001
ACAD
1000
RTMaterial
1005
0
  0
LINE
  5
38287
330
38213
100
AcDbEntity
  8
0
 62
     0
100
AcDbLine
 10
42.64221215478108
 20
28.59301652547401
 30
0.0
 11
39.84221215478101
 21
31.39301652547408
 31
0.0
1001
ACAD
1000
RTMaterial
1005
0
  0
LINE
  5
38288
330
38213
100
AcDbEntity
  8
0
 62
     0
100
AcDbLine
 10
53.49221215478099
 20
17.74301652547405
 30
0.0
 11
50.69221215478102
 21
20.54301652547406
 31
0.0
1001
ACAD
1000
RTMaterial
1005
0
  0
LINE
  5
38289
330
38213
100
AcDbEntity
  8
0
 62
     0
100
AcDbLine
 10
46.47144711784243
 20
23.8657559503057
 30
0.0
 11
43.62798862521015
 21
26.70921444293799
 31
0.0
1001
ACAD
1000
RTMaterial
1005
0
  0
LINE
  5
3828A
330
38213
100
AcDbEntity
  8
0
 62
     0
100
AcDbLine
 10
42.64221215478113
 20
27.69499091336701
 30
0.0
 11
39.84221215478095
 21
30.49499091336713
 31
0.0
1001
ACAD
1000
RTMaterial
1005
0
  0
LINE
  5
3828B
330
38213
100
AcDbEntity
  8
0
 62
     0
100
AcDbLine
 10
53.15316715744864
 20
17.18403591069943
 30
0.0
 11
50.69221215478102
 21
19.64499091336711
 31
0.0
1001
ACAD
1000
RTMaterial
1005
0
  0
LINE
  5
3828C
330
38213
100
AcDbEntity
  8
0
 62
     0
100
AcDbLine
 10
46.88592047727644
 20
22.55325697876486
 30
0.0
 11
39.84221215478101
 21
29.5969653012603
 31
0.0
1001
ACAD
1000
RTMaterial
1005
0
  0
LINE
  5
3828D
330
38213
100
AcDbEntity
  8
0
 62
     0
100
AcDbLine
 10
37.39221215478114
 20
32.04696530126017
 30
0.0
 11
36.18917745604136
 21
33.24999999999994
 31
0.0
1001
ACAD
1000
RTMaterial
1005
0
  0
LINE
  5
3828E
330
38213
100
AcDbEntity
  8
0
 62
     0
100
AcDbLine
 10
52.28917745604139
 20
17.14999999999992
 30
0.0
 11
50.69221215478115
 21
18.74696530126016
 31
0.0
1001
ACAD
1000
RTMaterial
1005
0
  0
LINE
  5
3828F
330
38213
100
AcDbEntity
  8
0
 62
     0
100
AcDbLine
 10
47.3003938367105
 20
21.24075800722386
 30
0.0
 11
39.84221215478101
 21
28.69893968915335
 31
0.0
1001
ACAD
1000
RTMaterial
1005
0
  0
LINE
  5
38290
330
38213
100
AcDbEntity
  8
0
 62
     0
100
AcDbLine
 10
37.39221215478114
 20
31.14893968915322
 30
0.0
 11
35.29115184393436
 21
33.25
 31
0.0
1001
ACAD
1000
RTMaterial
1005
0
  0
LINE
  5
38291
330
38213
100
AcDbEntity
  8
0
 62
     0
100
AcDbLine
 10
51.39115184393443
 20
17.14999999999986
 30
0.0
 11
50.69221215478108
 21
17.84893968915327
 31
0.0
1001
ACAD
1000
RTMaterial
1005
0
  0
LINE
  5
38292
330
38213
100
AcDbEntity
  8
0
 62
     0
100
AcDbLine
 10
37.12530545939103
 20
30.51782077243638
 30
0.0
 11
34.42508374117962
 21
33.21804249064775
 31
0.0
1001
ACAD
1000
RTMaterial
1005
0
  0
LINE
  5
38293
330
38213
100
AcDbEntity
  8
0
 62
     0
100
AcDbLine
 10
47.71486719614443
 20
19.92825903568297
 30
0.0
 11
39.84221215478095
 21
27.80091407704646
 31
0.0
1001
ACAD
1000
RTMaterial
1005
0
  0
LINE
  5
38294
330
38213
100
AcDbEntity
  8
0
 62
     0
100
AcDbLine
 10
42.97972107712269
 20
23.76537954259783
 30
0.0
 11
39.84221215478101
 21
26.90288846493951
 31
0.0
1001
ACAD
1000
RTMaterial
1005
0
  0
LINE
  5
38295
330
38213
100
AcDbEntity
  8
0
 62
     0
100
AcDbLine
 10
36.29510061972059
 20
30.44999999999987
 30
0.0
 11
33.68704067159234
 21
33.05805994812818
 31
0.0
1001
ACAD
1000
RTMaterial
1005
0
  0
LINE
  5
38296
330
38213
100
AcDbEntity
  8
0
 62
     0
100
AcDbLine
 10
48.1293405555785
 20
18.61576006414202
 30
0.0
 11
44.03703286327037
 21
22.70806775645013
 31
0.0
1001
ACAD
1000
RTMaterial
1005
0
  0
LINE
  5
38297
330
38213
100
AcDbEntity
  8
0
 62
     0
100
AcDbLine
 10
42.64221215478113
 20
23.20486285283249
 30
0.0
 11
39.84221215478095
 21
26.00486285283262
 31
0.0
1001
ACAD
1000
RTMaterial
1005
0
  0
LINE
  5
38298
330
38213
100
AcDbEntity
  8
0
 62
     0
100
AcDbLine
 10
35.39707500761358
 20
30.44999999999999
 30
0.0
 11
33.04831925576163
 21
32.79875575185196
 31
0.0
1001
ACAD
1000
RTMaterial
1005
0
  0
LINE
  5
38299
330
38213
100
AcDbEntity
  8
0
 62
     0
100
AcDbLine
 10
48.3643794132891
 20
17.48269559432447
 30
0.0
 11
44.45150622270432
 21
21.3955687849093
 31
0.0
1001
ACAD
1000
RTMaterial
1005
0
  0
LINE
  5
3829A
330
38213
100
AcDbEntity
  8
0
 62
     0
100
AcDbLine
 10
42.64221215478108
 20
22.3068372407256
 30
0.0
 11
39.84221215478095
 21
25.10683724072573
 31
0.0
1001
ACAD
1000
RTMaterial
1005
0
  0
LINE
  5
3829B
330
38213
100
AcDbEntity
  8
0
 62
     0
100
AcDbLine
 10
34.55396150507005
 20
30.39508789043663
 30
0.0
 11
32.48957028042708
 21
32.4594791150796
 31
0.0
1001
ACAD
1000
RTMaterial
1005
0
  0
LINE
  5
3829C
330
38213
100
AcDbEntity
  8
0
 62
     0
100
AcDbLine
 10
47.79904939550675
 20
17.14999999999992
 30
0.0
 11
44.86597958213836
 21
20.08306981336824
 31
0.0
1001
ACAD
1000
RTMaterial
1005
0
  0
LINE
  5
3829D
330
38213
100
AcDbEntity
  8
0
 62
     0
100
AcDbLine
 10
42.64221215478108
 20
21.40881162861865
 30
0.0
 11
39.84221215478095
 21
24.20881162861878
 31
0.0
1001
ACAD
1000
RTMaterial
1005
0
  0
LINE
  5
3829E
330
38213
100
AcDbEntity
  8
0
 62
     0
100
AcDbLine
 10
33.98210531223106
 20
30.06891847116867
 30
0.0
 11
32.00191507181529
 21
32.04910871158444
 31
0.0
1001
ACAD
1000
RTMaterial
1005
0
  0
LINE
  5
3829F
330
38213
100
AcDbEntity
  8
0
 62
     0
100
AcDbLine
 10
46.90102378339981
 20
17.14999999999992
 30
0.0
 11
45.28045294157232
 21
18.77057084182741
 31
0.0
1001
ACAD
1000
RTMaterial
1005
0
  0
LINE
  5
382A0
330
38213
100
AcDbEntity
  8
0
 62
     0
100
AcDbLine
 10
37.72764128757882
 20
25.42535688371407
 30
0.0
 11
36.21756903849507
 21
26.93542913279782
 31
0.0
1001
ACAD
1000
RTMaterial
1005
0
  0
LINE
  5
382A1
330
38213
100
AcDbEntity
  8
0
 62
     0
100
AcDbLine
 10
42.64221215478108
 20
20.51078601651176
 30
0.0
 11
39.84221215478095
 21
23.31078601651194
 31
0.0
1001
ACAD
1000
RTMaterial
1005
0
  0
LINE
  5
382A2
330
38213
100
AcDbEntity
  8
0
 62
     0
100
AcDbLine
 10
33.62598374210211
 20
29.52701442919078
 30
0.0
 11
31.58254904580406
 21
31.57044912548883
 31
0.0
1001
ACAD
1000
RTMaterial
1005
0
  0
LINE
  5
382A3
330
38213
100
AcDbEntity
  8
0
 62
     0
100
AcDbLine
 10
45.9526651670883
 20
17.20033300420459
 30
0.0
 11
45.70231099549697
 21
17.4506871757959
 31
0.0
1001
ACAD
1000
RTMaterial
1005
0
  0
LINE
  5
382A4
330
38213
100
AcDbEntity
  8
0
 62
     0
100
AcDbLine
 10
37.6411276274369
 20
24.61384493174904
 30
0.0
 11
35.40605708653004
 21
26.8489154726559
 31
0.0
1001
ACAD
1000
RTMaterial
1005
0
  0
LINE
  5
382A5
330
38213
100
AcDbEntity
  8
0
 62
     0
100
AcDbLine
 10
33.54221215478117
 20
28.71276040440477
 30
0.0
 11
31.23361002484239
 21
31.02136253434355
 31
0.0
1001
ACAD
1000
RTMaterial
1005
0
  0
LINE
  5
382A6
330
38213
100
AcDbEntity
  8
0
 62
     0
100
AcDbLine
 10
42.64221215478108
 20
19.61276040440487
 30
0.0
 11
39.84221215478095
 21
22.41276040440499
 31
0.0
1001
ACAD
1000
RTMaterial
1005
0
  0
LINE
  5
382A7
330
38213
100
AcDbEntity
  8
0
 62
     0
100
AcDbLine
 10
37.30927206813885
 20
24.04767487894009
 30
0.0
 11
34.83988703372109
 21
26.51705991335786
 31
0.0
1001
ACAD
1000
RTMaterial
1005
0
  0
LINE
  5
382A8
330
38213
100
AcDbEntity
  8
0
 62
     0
100
AcDbLine
 10
33.54221215478117
 20
27.81473479229783
 30
0.0
 11
30.96303031763222
 21
30.39391662944678
 31
0.0
1001
ACAD
1000
RTMaterial
1005
0
  0
LINE
  5
382A9
330
38213
100
AcDbEntity
  8
0
 62
     0
100
AcDbLine
 10
42.64221215478108
 20
18.71473479229791
 30
0.0
 11
39.84221215478101
 21
21.51473479229799
 31
0.0
1001
ACAD
1000
RTMaterial
1005
0
  0
LINE
  5
382AA
330
38213
100
AcDbEntity
  8
0
 62
     0
100
AcDbLine
 10
33.54221215478117
 20
26.91670918019094
 30
0.0
 11
30.78831644470638
 21
29.67060489026579
 31
0.0
1001
ACAD
1000
RTMaterial
1005
0
  0
LINE
  5
382AB
330
38213
100
AcDbEntity
  8
0
 62
     0
100
AcDbLine
 10
36.80743862600241
 20
23.65148270896975
 30
0.0
 11
34.44369486375075
 21
26.01522647122141
 31
0.0
1001
ACAD
1000
RTMaterial
1005
0
  0
LINE
  5
382AC
330
38213
100
AcDbEntity
  8
0
 62
     0
100
AcDbLine
 10
28.11721215478099
 20
32.34170918019112
 30
0.0
 11
27.20892133497211
 21
33.25000000000006
 31
0.0
1001
ACAD
1000
RTMaterial
1005
0
  0
LINE
  5
382AD
330
38213
100
AcDbEntity
  8
0
 62
     0
100
AcDbLine
 10
42.64221215478108
 20
17.81670918019108
 30
0.0
 11
39.84221215478101
 21
20.61670918019109
 31
0.0
1001
ACAD
1000
RTMaterial
1005
0
  0
LINE
  5
382AE
330
38213
100
AcDbEntity
  8
0
 62
     0
100
AcDbLine
 10
33.54221215478117
 20
26.01868356808405
 30
0.0
 11
30.74221215478104
 21
28.81868356808417
 31
0.0
1001
ACAD
1000
RTMaterial
1005
0
  0
LINE
  5
382AF
330
38213
100
AcDbEntity
  8
0
 62
     0
100
AcDbLine
 10
36.10711918357498
 20
23.45377653929023
 30
0.0
 11
34.24598869407123
 21
25.31490702879398
 31
0.0
1001
ACAD
1000
RTMaterial
1005
0
  0
LINE
  5
382B0
330
38213
100
AcDbEntity
  8
0
 62
     0
100
AcDbLine
 10
28.11721215478099
 20
31.44368356808423
 30
0.0
 11
26.31089572286516
 21
33.25
 31
0.0
1001
ACAD
1000
RTMaterial
1005
0
  0
LINE
  5
382B1
330
38213
100
AcDbEntity
  8
0
 62
     0
100
AcDbLine
 10
42.35430835351047
 20
17.20658736935473
 30
0.0
 11
39.84221215478101
 21
19.7186835680842
 31
0.0
1001
ACAD
1000
RTMaterial
1005
0
  0
LINE
  5
382B2
330
38213
100
AcDbEntity
  8
0
 62
     0
100
AcDbLine
 10
33.54221215478117
 20
25.1206579559771
 30
0.0
 11
30.74221215478099
 21
27.92065795597722
 31
0.0
1001
ACAD
1000
RTMaterial
1005
0
  0
LINE
  5
382B3
330
38213
100
AcDbEntity
  8
0
 62
     0
100
AcDbLine
 10
28.00817818451071
 20
30.65469192624755
 30
0.0
 11
25.41287011075826
 21
33.25
 31
0.0
1001
ACAD
1000
RTMaterial
1005
0
  0
LINE
  5
382B4
330
38213
100
AcDbEntity
  8
0
 62
     0
100
AcDbLine
 10
41.51287011075834
 20
17.14999999999986
 30
0.0
 11
39.84221215478101
 21
18.82065795597725
 31
0.0
1001
ACAD
1000
RTMaterial
1005
0
  0
LINE
  5
382B5
330
38213
100
AcDbEntity
  8
0
 62
     0
100
AcDbLine
 10
33.54221215478111
 20
24.2226323438702
 30
0.0
 11
30.74221215478099
 21
27.02263234387033
 31
0.0
1001
ACAD
1000
RTMaterial
1005
0
  0
LINE
  5
382B6
330
38213
100
AcDbEntity
  8
0
 62
     0
100
AcDbLine
 10
27.31484449865138
 20
30.44999999999993
 30
0.0
 11
24.51484449865143
 21
33.24999999999989
 31
0.0
1001
ACAD
1000
RTMaterial
1005
0
  0
LINE
  5
382B7
330
38213
100
AcDbEntity
  8
0
 62
     0
100
AcDbLine
 10
40.61484449865145
 20
17.14999999999986
 30
0.0
 11
39.84221215478095
 21
17.92263234387036
 31
0.0
1001
ACAD
1000
RTMaterial
1005
0
  0
LINE
  5
382B8
330
38213
100
AcDbEntity
  8
0
 62
     0
100
AcDbLine
 10
33.54221215478117
 20
23.32460673176331
 30
0.0
 11
30.74221215478104
 21
26.12460673176344
 31
0.0
1001
ACAD
1000
RTMaterial
1005
0
  0
LINE
  5
382B9
330
38213
100
AcDbEntity
  8
0
 62
     0
100
AcDbLine
 10
26.41681888654449
 20
30.44999999999993
 30
0.0
 11
23.65168961443959
 21
33.2151292721049
 31
0.0
1001
ACAD
1000
RTMaterial
1005
0
  0
LINE
  5
382BA
330
38213
100
AcDbEntity
  8
0
 62
     0
100
AcDbLine
 10
37.38960970594418
 20
19.47720918060025
 30
0.0
 11
36.91942133538146
 21
19.94739755116302
 31
0.0
1001
ACAD
1000
RTMaterial
1005
0
  0
LINE
  5
382BB
330
38213
100
AcDbEntity
  8
0
 62
     0
100
AcDbLine
 10
33.54221215478111
 20
22.42658111965636
 30
0.0
 11
30.74221215478099
 21
25.22658111965654
 31
0.0
1001
ACAD
1000
RTMaterial
1005
0
  0
LINE
  5
382BC
330
38213
100
AcDbEntity
  8
0
 62
     0
100
AcDbLine
 10
25.5187932744376
 20
30.44999999999993
 30
0.0
 11
22.95855480596111
 21
33.01023846847642
 31
0.0
1001
ACAD
1000
RTMaterial
1005
0
  0
LINE
  5
382BD
330
38213
100
AcDbEntity
  8
0
 62
     0
100
AcDbLine
 10
37.39221215478108
 20
18.57658111965639
 30
0.0
 11
36.01879327443754
 21
19.94999999999999
 31
0.0
1001
ACAD
1000
RTMaterial
1005
0
  0
LINE
  5
382BE
330
38213
100
AcDbEntity
  8
0
 62
     0
100
AcDbLine
 10
33.54221215478111
 20
21.52855550754947
 30
0.0
 11
30.74221215478099
 21
24.3285555075496
 31
0.0
1001
ACAD
1000
RTMaterial
1005
0
  0
LINE
  5
382BF
330
38213
100
AcDbEntity
  8
0
 62
     0
100
AcDbLine
 10
24.62076766233065
 20
30.44999999999987
 30
0.0
 11
22.39430814611387
 21
32.67645951621665
 31
0.0
1001
ACAD
1000
RTMaterial
1005
0
  0
LINE
  5
382C0
330
38213
100
AcDbEntity
  8
0
 62
     0
100
AcDbLine
 10
37.39221215478108
 20
17.6785555075495
 30
0.0
 11
35.12076766233065
 21
19.94999999999987
 31
0.0
1001
ACAD
1000
RTMaterial
1005
0
  0
LINE
  5
382C1
330
38213
100
AcDbEntity
  8
0
 62
     0
100
AcDbLine
 10
24.11047483471606
 20
30.06226721550769
 30
0.0
 11
21.93621533387312
 21
32.23652671635063
 31
0.0
1001
ACAD
1000
RTMaterial
1005
0
  0
LINE
  5
382C2
330
38213
100
AcDbEntity
  8
0
 62
     0
100
AcDbLine
 10
37.00447937028878
 20
17.16826267993497
 30
0.0
 11
30.74221215478099
 21
23.4305298954427
 31
0.0
1001
ACAD
1000
RTMaterial
1005
0
  0
LINE
  5
382C3
330
38213
100
AcDbEntity
  8
0
 62
     0
100
AcDbLine
 10
24.09221215478112
 20
29.18250428333568
 30
0.0
 11
21.58273413140404
 21
31.69198230671276
 31
0.0
1001
ACAD
1000
RTMaterial
1005
0
  0
LINE
  5
382C4
330
38213
100
AcDbEntity
  8
0
 62
     0
100
AcDbLine
 10
36.12471643811689
 20
17.14999999999992
 30
0.0
 11
30.74221215478099
 21
22.53250428333581
 31
0.0
1001
ACAD
1000
RTMaterial
1005
0
  0
LINE
  5
382C5
330
38213
100
AcDbEntity
  8
0
 62
     0
100
AcDbLine
 10
24.15434786291655
 20
28.22234296309324
 30
0.0
 11
21.35185402911031
 21
31.02483679689953
 31
0.0
1001
ACAD
1000
RTMaterial
1005
0
  0
LINE
  5
382C6
330
38213
100
AcDbEntity
  8
0
 62
     0
100
AcDbLine
 10
35.22669082600986
 20
17.14999999999998
 30
0.0
 11
30.74221215478099
 21
21.63447867122886
 31
0.0
1001
ACAD
1000
RTMaterial
1005
0
  0
LINE
  5
382C7
330
38213
100
AcDbEntity
  8
0
 62
     0
100
AcDbLine
 10
28.44658824600378
 20
23.03207696789917
 30
0.0
 11
21.29221215478117
 21
30.18645305912179
 31
0.0
1001
ACAD
1000
RTMaterial
1005
0
  0
LINE
  5
382C8
330
38213
100
AcDbEntity
  8
0
 62
     0
100
AcDbLine
 10
34.27539312684633
 20
17.20327208705663
 30
0.0
 11
30.79548424183776
 21
20.6831809720652
 31
0.0
1001
ACAD
1000
RTMaterial
1005
0
  0
LINE
  5
382C9
330
38213
100
AcDbEntity
  8
0
 62
     0
100
AcDbLine
 10
28.63848276008901
 20
21.94215684170706
 30
0.0
 11
21.29221215478105
 21
29.28842744701502
 31
0.0
1001
ACAD
1000
RTMaterial
1005
0
  0
LINE
  5
382CA
330
38213
100
AcDbEntity
  8
0
 62
     0
100
AcDbLine
 10
32.90158521424473
 20
17.67905438755127
 30
0.0
 11
31.27126654233234
 21
19.30937305946372
 31
0.0
1001
ACAD
1000
RTMaterial
1005
0
  0
LINE
  5
382CB
330
38213
100
AcDbEntity
  8
0
 62
     0
100
AcDbLine
 10
28.64221215478114
 20
21.04040183490798
 30
0.0
 11
21.29977660220345
 21
28.38283738748561
 31
0.0
1001
ACAD
1000
RTMaterial
1005
0
  0
LINE
  5
382CC
330
38213
100
AcDbEntity
  8
0
 62
     0
100
AcDbLine
 10
28.64221215478108
 20
20.14237622280109
 30
0.0
 11
21.52306736052731
 21
27.2615210170548
 31
0.0
1001
ACAD
1000
RTMaterial
1005
0
  0
LINE
  5
382CD
330
38213
100
AcDbEntity
  8
0
 62
     0
100
AcDbLine
 10
28.56969215864916
 20
19.31687060682617
 30
0.0
 11
25.8063005150301
 21
22.08026225044523
 31
0.0
1001
ACAD
1000
RTMaterial
1005
0
  0
LINE
  5
382CE
330
38213
100
AcDbEntity
  8
0
 62
     0
100
AcDbLine
 10
28.32775421962032
 20
18.66078293374807
 30
0.0
 11
25.84221215478107
 21
21.14632499858732
 31
0.0
1001
ACAD
1000
RTMaterial
1005
0
  0
LINE
  5
382CF
330
38213
100
AcDbEntity
  8
0
 62
     0
100
AcDbLine
 10
27.96563497223855
 20
18.12487656902289
 30
0.0
 11
25.80631312248039
 21
20.28419841878104
 31
0.0
1001
ACAD
1000
RTMaterial
1005
0
  0
LINE
  5
382D0
330
38213
100
AcDbEntity
  8
0
 62
     0
100
AcDbLine
 10
27.49940859997167
 20
17.69307732918287
 30
0.0
 11
25.24248592915455
 21
19.95000000000004
 31
0.0
1001
ACAD
1000
RTMaterial
1005
0
  0
LINE
  5
382D1
330
38213
100
AcDbEntity
  8
0
 62
     0
100
AcDbLine
 10
26.92614415223886
 20
17.36831616480879
 30
0.0
 11
24.34446031704761
 21
19.94999999999999
 31
0.0
1001
ACAD
1000
RTMaterial
1005
0
  0
LINE
  5
382D2
330
38213
100
AcDbEntity
  8
0
 62
     0
100
AcDbLine
 10
26.22073156315293
 20
17.17570314178778
 30
0.0
 11
23.44643470494077
 21
19.94999999999993
 31
0.0
1001
ACAD
1000
RTMaterial
1005
0
  0
LINE
  5
382D3
330
38213
100
AcDbEntity
  8
0
 62
     0
100
AcDbLine
 10
25.34840909283389
 20
17.14999999999981
 30
0.0
 11
22.54840909283387
 21
19.94999999999987
 31
0.0
1001
ACAD
1000
RTMaterial
1005
0
  0
LINE
  5
382D4
330
38213
100
AcDbEntity
  8
0
 62
     0
100
AcDbLine
 10
24.45038348072694
 20
17.14999999999992
 30
0.0
 11
21.89705958590906
 21
19.70332389481785
 31
0.0
1001
ACAD
1000
RTMaterial
1005
0
  0
LINE
  5
382D5
330
38213
100
AcDbEntity
  8
0
 62
     0
100
AcDbLine
 10
23.55235786862005
 20
17.14999999999992
 30
0.0
 11
21.81721215478109
 21
18.88514571383888
 31
0.0
1001
ACAD
1000
RTMaterial
1005
0
  0
LINE
  5
382D6
330
38213
100
AcDbEntity
  8
0
 62
     0
100
AcDbLine
 10
22.6543322565131
 20
17.14999999999992
 30
0.0
 11
21.81721215478109
 21
17.98712010173193
 31
0.0
1001
ACAD
1000
RTMaterial
1005
0
  0
LINE
  5
382D7
330
38213
100
AcDbEntity
  8
0
 62
     0
100
AcDbLine
 10
78.63389943944806
 20
17.16313177711748
 30
0.0
 11
79.02908037766383
 21
17.55831271533327
 31
0.0
1001
ACAD
1000
RTMaterial
1005
0
  0
LINE
  5
382D8
330
38213
100
AcDbEntity
  8
0
 62
     0
100
AcDbLine
 10
77.7227420502237
 20
17.14999999999992
 30
0.0
 11
79.04221215478128
 21
18.46947010455756
 31
0.0
1001
ACAD
1000
RTMaterial
1005
0
  0
LINE
  5
382D9
330
38213
100
AcDbEntity
  8
0
 62
     0
100
AcDbLine
 10
76.82471643811675
 20
17.14999999999998
 30
0.0
 11
79.04221215478128
 21
19.36749571666445
 31
0.0
1001
ACAD
1000
RTMaterial
1005
0
  0
LINE
  5
382DA
330
38213
100
AcDbEntity
  8
0
 62
     0
100
AcDbLine
 10
76.27340971803295
 20
17.49671889202307
 30
0.0
 11
79.04221215478123
 21
20.2655213287714
 31
0.0
1001
ACAD
1000
RTMaterial
1005
0
  0
LINE
  5
382DB
330
38213
100
AcDbEntity
  8
0
 62
     0
100
AcDbLine
 10
76.24221215478115
 20
18.36354694087822
 30
0.0
 11
79.04221215478123
 21
21.16354694087823
 31
0.0
1001
ACAD
1000
RTMaterial
1005
0
  0
LINE
  5
382DC
330
38213
100
AcDbEntity
  8
0
 62
     0
100
AcDbLine
 10
76.2422121547812
 20
19.26157255298511
 30
0.0
 11
79.04221215478123
 21
22.06157255298518
 31
0.0
1001
ACAD
1000
RTMaterial
1005
0
  0
LINE
  5
382DD
330
38213
100
AcDbEntity
  8
0
 62
     0
100
AcDbLine
 10
76.24221215478115
 20
20.15959816509206
 30
0.0
 11
79.04221215478123
 21
22.95959816509213
 31
0.0
1001
ACAD
1000
RTMaterial
1005
0
  0
LINE
  5
382DE
330
38213
100
AcDbEntity
  8
0
 62
     0
100
AcDbLine
 10
76.24221215478115
 20
21.05762377719896
 30
0.0
 11
79.04221215478123
 21
23.85762377719903
 31
0.0
1001
ACAD
1000
RTMaterial
1005
0
  0
LINE
  5
382DF
330
38213
100
AcDbEntity
  8
0
 62
     0
100
AcDbLine
 10
72.66877701684643
 20
17.48418863926423
 30
0.0
 11
73.80802351551699
 21
18.62343513793485
 31
0.0
1001
ACAD
1000
RTMaterial
1005
0
  0
LINE
  5
382E0
330
38213
100
AcDbEntity
  8
0
 62
     0
100
AcDbLine
 10
76.24221215478115
 20
21.95564938930585
 30
0.0
 11
79.04221215478123
 21
24.75564938930592
 31
0.0
1001
ACAD
1000
RTMaterial
1005
0
  0
LINE
  5
382E1
330
38213
100
AcDbEntity
  8
0
 62
     0
100
AcDbLine
 10
71.43820885032363
 20
17.15164608484832
 30
0.0
 11
74.14056606993296
 21
19.85400330445759
 31
0.0
1001
ACAD
1000
RTMaterial
1005
0
  0
LINE
  5
382E2
330
38213
100
AcDbEntity
  8
0
 62
     0
100
AcDbLine
 10
76.24221215478115
 20
22.8536750014128
 30
0.0
 11
79.04221215478123
 21
25.65367500141281
 31
0.0
1001
ACAD
1000
RTMaterial
1005
0
  0
LINE
  5
382E3
330
38213
100
AcDbEntity
  8
0
 62
     0
100
AcDbLine
 10
70.53853715336821
 20
17.14999999999986
 30
0.0
 11
74.14221215478125
 21
20.75367500141283
 31
0.0
1001
ACAD
1000
RTMaterial
1005
0
  0
LINE
  5
382E4
330
38213
100
AcDbEntity
  8
0
 62
     0
100
AcDbLine
 10
76.24221215478115
 20
23.75170061351969
 30
0.0
 11
79.04221215478115
 21
26.55170061351976
 31
0.0
1001
ACAD
1000
RTMaterial
1005
0
  0
LINE
  5
382E5
330
38213
100
AcDbEntity
  8
0
 62
     0
100
AcDbLine
 10
69.64051154126133
 20
17.14999999999986
 30
0.0
 11
74.14221215478119
 21
21.65170061351978
 31
0.0
1001
ACAD
1000
RTMaterial
1005
0
  0
LINE
  5
382E6
330
38213
100
AcDbEntity
  8
0
 62
     0
100
AcDbLine
 10
76.24221215478115
 20
24.64972622562658
 30
0.0
 11
79.04221215478123
 21
27.44972622562665
 31
0.0
1001
ACAD
1000
RTMaterial
1005
0
  0
LINE
  5
382E7
330
38213
100
AcDbEntity
  8
0
 62
     0
100
AcDbLine
 10
68.74248592915449
 20
17.14999999999992
 30
0.0
 11
74.14221215478125
 21
22.54972622562668
 31
0.0
1001
ACAD
1000
RTMaterial
1005
0
  0
LINE
  5
382E8
330
38213
100
AcDbEntity
  8
0
 62
     0
100
AcDbLine
 10
71.23762095270013
 20
20.5431606356525
 30
0.0
 11
74.14221215478125
 21
23.44775183773356
 31
0.0
1001
ACAD
1000
RTMaterial
1005
0
  0
LINE
  5
382E9
330
38213
100
AcDbEntity
  8
0
 62
     0
100
AcDbLine
 10
76.24221215478115
 20
25.54775183773347
 30
0.0
 11
79.04221215478123
 21
28.34775183773354
 31
0.0
1001
ACAD
1000
RTMaterial
1005
0
  0
LINE
  5
382EA
330
38213
100
AcDbEntity
  8
0
 62
     0
100
AcDbLine
 10
67.84446031704749
 20
17.14999999999986
 30
0.0
 11
70.74905151912862
 21
20.05459120208093
 31
0.0
1001
ACAD
1000
RTMaterial
1005
0
  0
LINE
  5
382EB
330
38213
100
AcDbEntity
  8
0
 62
     0
100
AcDbLine
 10
71.34221215478112
 20
21.54577744984044
 30
0.0
 11
74.14221215478119
 21
24.34577744984051
 31
0.0
1001
ACAD
1000
RTMaterial
1005
0
  0
LINE
  5
382EC
330
38213
100
AcDbEntity
  8
0
 62
     0
100
AcDbLine
 10
76.2422121547811
 20
26.44577744984042
 30
0.0
 11
79.04221215478115
 21
29.24577744984049
 31
0.0
1001
ACAD
1000
RTMaterial
1005
0
  0
LINE
  5
382ED
330
38213
100
AcDbEntity
  8
0
 62
     0
100
AcDbLine
 10
67.05838445631781
 20
17.26194975137707
 30
0.0
 11
69.74643470494067
 21
19.94999999999993
 31
0.0
1001
ACAD
1000
RTMaterial
1005
0
  0
LINE
  5
382EE
330
38213
100
AcDbEntity
  8
0
 62
     0
100
AcDbLine
 10
71.34221215478119
 20
22.44380306194745
 30
0.0
 11
74.14221215478119
 21
25.2438030619474
 31
0.0
1001
ACAD
1000
RTMaterial
1005
0
  0
LINE
  5
382EF
330
38213
100
AcDbEntity
  8
0
 62
     0
100
AcDbLine
 10
76.2422121547811
 20
27.34380306194737
 30
0.0
 11
79.04221215478115
 21
30.14380306194738
 31
0.0
1001
ACAD
1000
RTMaterial
1005
0
  0
LINE
  5
382F0
330
38213
100
AcDbEntity
  8
0
 62
     0
100
AcDbLine
 10
66.43039758910766
 20
17.53198849627392
 30
0.0
 11
68.8492868784781
 21
19.95087778564436
 31
0.0
1001
ACAD
1000
RTMaterial
1005
0
  0
LINE
  5
382F1
330
38213
100
AcDbEntity
  8
0
 62
     0
100
AcDbLine
 10
71.34221215478124
 20
23.34182867405434
 30
0.0
 11
74.14221215478119
 21
26.1418286740543
 31
0.0
1001
ACAD
1000
RTMaterial
1005
0
  0
LINE
  5
382F2
330
38213
100
AcDbEntity
  8
0
 62
     0
100
AcDbLine
 10
76.24221215478115
 20
28.24182867405421
 30
0.0
 11
79.04221215478115
 21
31.04182867405427
 31
0.0
1001
ACAD
1000
RTMaterial
1005
0
  0
LINE
  5
382F3
330
38213
100
AcDbEntity
  8
0
 62
     0
100
AcDbLine
 10
65.91713770774248
 20
17.91675422701558
 30
0.0
 11
68.2058082897654
 21
20.2054248090385
 31
0.0
1001
ACAD
1000
RTMaterial
1005
0
  0
LINE
  5
382F4
330
38213
100
AcDbEntity
  8
0
 62
     0
100
AcDbLine
 10
71.34221215478124
 20
24.23985428616123
 30
0.0
 11
74.14221215478119
 21
27.03985428616125
 31
0.0
1001
ACAD
1000
RTMaterial
1005
0
  0
LINE
  5
382F5
330
38213
100
AcDbEntity
  8
0
 62
     0
100
AcDbLine
 10
76.2422121547811
 20
29.13985428616115
 30
0.0
 11
79.04221215478115
 21
31.93985428616122
 31
0.0
1001
ACAD
1000
RTMaterial
1005
0
  0
LINE
  5
382F6
330
38213
100
AcDbEntity
  8
0
 62
     0
100
AcDbLine
 10
65.50717353251747
 20
18.40481566389746
 30
0.0
 11
67.86857001135597
 21
20.76621214273604
 31
0.0
1001
ACAD
1000
RTMaterial
1005
0
  0
LINE
  5
382F7
330
38213
100
AcDbEntity
  8
0
 62
     0
100
AcDbLine
 10
71.34221215478119
 20
25.13787989826818
 30
0.0
 11
74.14221215478125
 21
27.93787989826825
 31
0.0
1001
ACAD
1000
RTMaterial
1005
0
  0
LINE
  5
382F8
330
38213
100
AcDbEntity
  8
0
 62
     0
100
AcDbLine
 10
76.2422121547811
 20
30.03787989826804
 30
0.0
 11
79.03206300123071
 21
32.82773074471772
 31
0.0
1001
ACAD
1000
RTMaterial
1005
0
  0
LINE
  5
382F9
330
38213
100
AcDbEntity
  8
0
 62
     0
100
AcDbLine
 10
65.20724865408346
 20
19.00291639757046
 30
0.0
 11
67.84221215478118
 21
21.63787989826813
 31
0.0
1001
ACAD
1000
RTMaterial
1005
0
  0
LINE
  5
382FA
330
38213
100
AcDbEntity
  8
0
 62
     0
100
AcDbLine
 10
71.34221215478124
 20
26.03590551037502
 30
0.0
 11
74.14221215478129
 21
28.83590551037509
 31
0.0
1001
ACAD
1000
RTMaterial
1005
0
  0
LINE
  5
382FB
330
38213
100
AcDbEntity
  8
0
 62
     0
100
AcDbLine
 10
76.2422121547811
 20
30.93590551037494
 30
0.0
 11
78.55494865615122
 21
33.24864201174506
 31
0.0
1001
ACAD
1000
RTMaterial
1005
0
  0
LINE
  5
382FC
330
38213
100
AcDbEntity
  8
0
 62
     0
100
AcDbLine
 10
65.04983511912701
 20
19.74352847472085
 30
0.0
 11
67.84221215478118
 21
22.53590551037502
 31
0.0
1001
ACAD
1000
RTMaterial
1005
0
  0
LINE
  5
382FD
330
38213
100
AcDbEntity
  8
0
 62
     0
100
AcDbLine
 10
71.34221215478119
 20
26.93393112248197
 30
0.0
 11
74.14221215478125
 21
29.73393112248203
 31
0.0
1001
ACAD
1000
RTMaterial
1005
0
  0
LINE
  5
382FE
330
38213
100
AcDbEntity
  8
0
 62
     0
100
AcDbLine
 10
76.24221215478115
 20
31.83393112248194
 30
0.0
 11
77.65828103229916
 21
33.24999999999994
 31
0.0
1001
ACAD
1000
RTMaterial
1005
0
  0
LINE
  5
382FF
330
38213
100
AcDbEntity
  8
0
 62
     0
100
AcDbLine
 10
65.04221215478121
 20
20.63393112248196
 30
0.0
 11
67.84221215478122
 21
23.43393112248202
 31
0.0
1001
ACAD
1000
RTMaterial
1005
0
  0
LINE
  5
38300
330
38213
100
AcDbEntity
  8
0
 62
     0
100
AcDbLine
 10
71.34221215478119
 20
27.83195673458891
 30
0.0
 11
74.14221215478125
 21
30.63195673458892
 31
0.0
1001
ACAD
1000
RTMaterial
1005
0
  0
LINE
  5
38301
330
38213
100
AcDbEntity
  8
0
 62
     0
100
AcDbLine
 10
65.04221215478117
 20
21.5319567345889
 30
0.0
 11
67.84221215478122
 21
24.33195673458897
 31
0.0
1001
ACAD
1000
RTMaterial
1005
0
  0
LINE
  5
38302
330
38213
100
AcDbEntity
  8
0
 62
     0
100
AcDbLine
 10
76.24225886952858
 20
32.73200344933633
 30
0.0
 11
76.76020870544488
 21
33.24995328525256
 31
0.0
1001
ACAD
1000
RTMaterial
1005
0
  0
LINE
  5
38303
330
38213
100
AcDbEntity
  8
0
 62
     0
100
AcDbLine
 10
60.72065652406918
 20
17.21040110387685
 30
0.0
 11
62.88181105090433
 21
19.37155563071206
 31
0.0
1001
ACAD
1000
RTMaterial
1005
0
  0
LINE
  5
38304
330
38213
100
AcDbEntity
  8
0
 62
     0
100
AcDbLine
 10
65.04221215478117
 20
22.42998234669579
 30
0.0
 11
67.84221215478122
 21
25.22998234669586
 31
0.0
1001
ACAD
1000
RTMaterial
1005
0
  0
LINE
  5
38305
330
38213
100
AcDbEntity
  8
0
 62
     0
100
AcDbLine
 10
71.34221215478119
 20
28.7299823466958
 30
0.0
 11
74.14221215478119
 21
31.52998234669587
 31
0.0
1001
ACAD
1000
RTMaterial
1005
0
  0
LINE
  5
38306
330
38213
100
AcDbEntity
  8
0
 62
     0
100
AcDbLine
 10
59.76222980808529
 20
17.14999999999998
 30
0.0
 11
62.9422121547811
 21
20.32998234669571
 31
0.0
1001
ACAD
1000
RTMaterial
1005
0
  0
LINE
  5
38307
330
38213
100
AcDbEntity
  8
0
 62
     0
100
AcDbLine
 10
65.04221215478117
 20
23.32800795880269
 30
0.0
 11
67.84221215478122
 21
26.12800795880275
 31
0.0
1001
ACAD
1000
RTMaterial
1005
0
  0
LINE
  5
38308
330
38213
100
AcDbEntity
  8
0
 62
     0
100
AcDbLine
 10
71.34221215478119
 20
29.6280079588027
 30
0.0
 11
74.14221215478125
 21
32.42800795880278
 31
0.0
1001
ACAD
1000
RTMaterial
1005
0
  0
LINE
  5
38309
330
38213
100
AcDbEntity
  8
0
 62
     0
100
AcDbLine
 10
58.8642041959784
 20
17.14999999999992
 30
0.0
 11
62.9422121547812
 21
21.22800795880266
 31
0.0
1001
ACAD
1000
RTMaterial
1005
0
  0
LINE
  5
3830A
330
38213
100
AcDbEntity
  8
0
 62
     0
100
AcDbLine
 10
65.04221215478117
 20
24.22603357090963
 30
0.0
 11
67.84221215478122
 21
27.02603357090965
 31
0.0
1001
ACAD
1000
RTMaterial
1005
0
  0
LINE
  5
3830B
330
38213
100
AcDbEntity
  8
0
 62
     0
100
AcDbLine
 10
71.34221215478119
 20
30.52603357090959
 30
0.0
 11
73.94847469994708
 21
33.13229611607557
 31
0.0
1001
ACAD
1000
RTMaterial
1005
0
  0
LINE
  5
3830C
330
38213
100
AcDbEntity
  8
0
 62
     0
100
AcDbLine
 10
57.96617858387151
 20
17.14999999999998
 30
0.0
 11
62.92789355436821
 21
22.11171497049668
 31
0.0
1001
ACAD
1000
RTMaterial
1005
0
  0
LINE
  5
3830D
330
38213
100
AcDbEntity
  8
0
 62
     0
100
AcDbLine
 10
65.04221215478117
 20
25.12405918301653
 30
0.0
 11
67.84221215478118
 21
27.9240591830166
 31
0.0
1001
ACAD
1000
RTMaterial
1005
0
  0
LINE
  5
3830E
330
38213
100
AcDbEntity
  8
0
 62
     0
100
AcDbLine
 10
71.34221215478112
 20
31.42405918301654
 30
0.0
 11
73.16815297176457
 21
33.25
 31
0.0
1001
ACAD
1000
RTMaterial
1005
0
  0
LINE
  5
3830F
330
38213
100
AcDbEntity
  8
0
 62
     0
100
AcDbLine
 10
57.06815297176456
 20
17.14999999999998
 30
0.0
 11
62.79298118373947
 21
22.87482821197483
 31
0.0
1001
ACAD
1000
RTMaterial
1005
0
  0
LINE
  5
38310
330
38213
100
AcDbEntity
  8
0
 62
     0
100
AcDbLine
 10
65.04221215478117
 20
26.02208479512342
 30
0.0
 11
67.84221215478122
 21
28.82208479512349
 31
0.0
1001
ACAD
1000
RTMaterial
1005
0
  0
LINE
  5
38311
330
38213
100
AcDbEntity
  8
0
 62
     0
100
AcDbLine
 10
60.14221215478119
 20
21.12208479512344
 30
0.0
 11
62.55239372682091
 21
23.53226636716312
 31
0.0
1001
ACAD
1000
RTMaterial
1005
0
  0
LINE
  5
38312
330
38213
100
AcDbEntity
  8
0
 62
     0
100
AcDbLine
 10
71.34221215478119
 20
32.32208479512343
 30
0.0
 11
72.27012735965775
 21
33.25
 31
0.0
1001
ACAD
1000
RTMaterial
1005
0
  0
LINE
  5
38313
330
38213
100
AcDbEntity
  8
0
 62
     0
100
AcDbLine
 10
56.29838271278879
 20
17.27825535313104
 30
0.0
 11
58.97012735965768
 21
19.94999999999993
 31
0.0
1001
ACAD
1000
RTMaterial
1005
0
  0
LINE
  5
38314
330
38213
100
AcDbEntity
  8
0
 62
     0
100
AcDbLine
 10
60.12234157965389
 20
22.00023983210304
 30
0.0
 11
62.22889442196038
 21
24.10679267440952
 31
0.0
1001
ACAD
1000
RTMaterial
1005
0
  0
LINE
  5
38315
330
38213
100
AcDbEntity
  8
0
 62
     0
100
AcDbLine
 10
65.04221215478117
 20
26.92011040723031
 30
0.0
 11
67.84221215478118
 21
29.72011040723037
 31
0.0
1001
ACAD
1000
RTMaterial
1005
0
  0
LINE
  5
38316
330
38213
100
AcDbEntity
  8
0
 62
     0
100
AcDbLine
 10
56.1172121547812
 20
17.99511040723035
 30
0.0
 11
58.07210174755073
 21
19.94999999999993
 31
0.0
1001
ACAD
1000
RTMaterial
1005
0
  0
LINE
  5
38317
330
38213
100
AcDbEntity
  8
0
 62
     0
100
AcDbLine
 10
59.847956742515
 20
22.62388060707116
 30
0.0
 11
61.83302330403257
 21
24.60894716858871
 31
0.0
1001
ACAD
1000
RTMaterial
1005
0
  0
LINE
  5
38318
330
38213
100
AcDbEntity
  8
0
 62
     0
100
AcDbLine
 10
65.04221215478111
 20
27.81813601933726
 30
0.0
 11
67.84221215478118
 21
30.61813601933733
 31
0.0
1001
ACAD
1000
RTMaterial
1005
0
  0
LINE
  5
38319
330
38213
100
AcDbEntity
  8
0
 62
     0
100
AcDbLine
 10
56.1172121547811
 20
18.89313601933719
 30
0.0
 11
57.17407613544384
 21
19.94999999999999
 31
0.0
1001
ACAD
1000
RTMaterial
1005
0
  0
LINE
  5
3831A
330
38213
100
AcDbEntity
  8
0
 62
     0
100
AcDbLine
 10
65.04221215478117
 20
28.71616163144415
 30
0.0
 11
67.84221215478122
 21
31.51616163144416
 31
0.0
1001
ACAD
1000
RTMaterial
1005
0
  0
LINE
  5
3831B
330
38213
100
AcDbEntity
  8
0
 62
     0
100
AcDbLine
 10
59.40668184539794
 20
23.08063132206087
 30
0.0
 11
61.3865808327203
 21
25.06053030938331
 31
0.0
1001
ACAD
1000
RTMaterial
1005
0
  0
LINE
  5
3831C
330
38213
100
AcDbEntity
  8
0
 62
     0
100
AcDbLine
 10
58.95766903934447
 20
23.52964412811434
 30
0.0
 11
60.93756802666678
 21
25.50954311543666
 31
0.0
1001
ACAD
1000
RTMaterial
1005
0
  0
LINE
  5
3831D
330
38213
100
AcDbEntity
  8
0
 62
     0
100
AcDbLine
 10
65.04221215478111
 20
29.61418724355104
 30
0.0
 11
67.84221215478118
 21
32.41418724355111
 31
0.0
1001
ACAD
1000
RTMaterial
1005
0
  0
LINE
  5
3831E
330
38213
100
AcDbEntity
  8
0
 62
     0
100
AcDbLine
 10
52.57802491122999
 20
17.14999999999992
 30
0.0
 11
53.49221215478116
 21
18.06418724355103
 31
0.0
1001
ACAD
1000
RTMaterial
1005
0
  0
LINE
  5
3831F
330
38213
100
AcDbEntity
  8
0
 62
     0
100
AcDbLine
 10
58.508656233291
 20
23.97865693416782
 30
0.0
 11
60.4885552206133
 21
25.95855592149013
 31
0.0
1001
ACAD
1000
RTMaterial
1005
0
  0
LINE
  5
38320
330
38213
100
AcDbEntity
  8
0
 62
     0
100
AcDbLine
 10
65.04221215478111
 20
30.51221285565799
 30
0.0
 11
67.65603124668252
 21
33.12603194755934
 31
0.0
1001
ACAD
1000
RTMaterial
1005
0
  0
LINE
  5
38321
330
38213
100
AcDbEntity
  8
0
 62
     0
100
AcDbLine
 10
51.67999929912304
 20
17.14999999999992
 30
0.0
 11
53.4922121547812
 21
18.96221285565804
 31
0.0
1001
ACAD
1000
RTMaterial
1005
0
  0
LINE
  5
38322
330
38213
100
AcDbEntity
  8
0
 62
     0
100
AcDbLine
 10
58.05964342723751
 20
24.42766974022129
 30
0.0
 11
60.03954241455983
 21
26.40756872754361
 31
0.0
1001
ACAD
1000
RTMaterial
1005
0
  0
LINE
  5
38323
330
38213
100
AcDbEntity
  8
0
 62
     0
100
AcDbLine
 10
65.04221215478111
 20
31.41023846776489
 30
0.0
 11
66.88197368701617
 21
33.25
 31
0.0
1001
ACAD
1000
RTMaterial
1005
0
  0
LINE
  5
38324
330
38213
100
AcDbEntity
  8
0
 62
     0
100
AcDbLine
 10
50.89358482487813
 20
17.2616111378619
 30
0.0
 11
53.49221215478116
 21
19.86023846776499
 31
0.0
1001
ACAD
1000
RTMaterial
1005
0
  0
LINE
  5
38325
330
38213
100
AcDbEntity
  8
0
 62
     0
100
AcDbLine
 10
57.6106306211841
 20
24.87668254627471
 30
0.0
 11
59.5905296085064
 21
26.85658153359702
 31
0.0
1001
ACAD
1000
RTMaterial
1005
0
  0
LINE
  5
38326
330
38213
100
AcDbEntity
  8
0
 62
     0
100
AcDbLine
 10
65.04221215478111
 20
32.30826407987179
 30
0.0
 11
65.98394807490939
 21
33.25
 31
0.0
1001
ACAD
1000
RTMaterial
1005
0
  0
LINE
  5
38327
330
38213
100
AcDbEntity
  8
0
 62
     0
100
AcDbLine
 10
50.69221215478119
 20
17.95826407987187
 30
0.0
 11
53.4922121547812
 21
20.75826407987182
 31
0.0
1001
ACAD
1000
RTMaterial
1005
0
  0
LINE
  5
38328
330
38213
100
AcDbEntity
  8
0
 62
     0
100
AcDbLine
 10
57.16161781513061
 20
25.32569535232819
 30
0.0
 11
59.14151680245293
 21
27.3055943396505
 31
0.0
1001
ACAD
1000
RTMaterial
1005
0
  0
LINE
  5
38329
330
38213
100
AcDbEntity
  8
0
 62
     0
100
AcDbLine
 10
50.69221215478119
 20
18.85628969197881
 30
0.0
 11
53.49221215478116
 21
21.65628969197877
 31
0.0
1001
ACAD
1000
RTMaterial
1005
0
  0
LINE
  5
3832A
330
38213
100
AcDbEntity
  8
0
 62
     0
100
AcDbLine
 10
56.71463391408929
 20
25.77673706339385
 30
0.0
 11
58.69860744747132
 21
27.76071059677582
 31
0.0
1001
ACAD
1000
RTMaterial
1005
0
  0
LINE
  5
3832B
330
38213
100
AcDbEntity
  8
0
 62
     0
100
AcDbLine
 10
50.69221215478119
 20
19.7543153040857
 30
0.0
 11
53.49221215478116
 21
22.55431530408571
 31
0.0
1001
ACAD
1000
RTMaterial
1005
0
  0
LINE
  5
3832C
330
38213
100
AcDbEntity
  8
0
 62
     0
100
AcDbLine
 10
61.38789685069547
 20
30.44999999999999
 30
0.0
 11
62.41721215478122
 21
31.47931530408573
 31
0.0
1001
ACAD
1000
RTMaterial
1005
0
  0
LINE
  5
3832D
330
38213
100
AcDbEntity
  8
0
 62
     0
100
AcDbLine
 10
48.19955593007097
 20
17.26165907937548
 30
0.0
 11
48.289208291526
 21
17.35131144083055
 31
0.0
1001
ACAD
1000
RTMaterial
1005
0
  0
LINE
  5
3832E
330
38213
100
AcDbEntity
  8
0
 62
     0
100
AcDbLine
 10
56.31663173526732
 20
26.27676049667872
 30
0.0
 11
58.41626601268592
 21
28.37639477409732
 31
0.0
1001
ACAD
1000
RTMaterial
1005
0
  0
LINE
  5
3832F
330
38213
100
AcDbEntity
  8
0
 62
     0
100
AcDbLine
 10
50.69221215478119
 20
20.6523409161926
 30
0.0
 11
53.4922121547812
 21
23.45234091619255
 31
0.0
1001
ACAD
1000
RTMaterial
1005
0
  0
LINE
  5
38330
330
38213
100
AcDbEntity
  8
0
 62
     0
100
AcDbLine
 10
60.48987123858859
 20
30.44999999999999
 30
0.0
 11
62.41721215478122
 21
32.37734091619262
 31
0.0
1001
ACAD
1000
RTMaterial
1005
0
  0
LINE
  5
38331
330
38213
100
AcDbEntity
  8
0
 62
     0
100
AcDbLine
 10
47.18987123858852
 20
17.14999999999992
 30
0.0
 11
48.25565033489505
 21
18.21577909630645
 31
0.0
1001
ACAD
1000
RTMaterial
1005
0
  0
LINE
  5
38332
330
38213
100
AcDbEntity
  8
0
 62
     0
100
AcDbLine
 10
55.99079747087063
 20
26.84895184438898
 30
0.0
 11
58.39221215478125
 21
29.25036652829954
 31
0.0
1001
ACAD
1000
RTMaterial
1005
0
  0
LINE
  5
38333
330
38213
100
AcDbEntity
  8
0
 62
     0
100
AcDbLine
 10
50.69221215478119
 20
21.55036652829949
 30
0.0
 11
53.49221215478116
 21
24.3503665282995
 31
0.0
1001
ACAD
1000
RTMaterial
1005
0
  0
LINE
  5
38334
330
38213
100
AcDbEntity
  8
0
 62
     0
100
AcDbLine
 10
59.59184562648171
 20
30.44999999999999
 30
0.0
 11
62.25054322298331
 21
33.10869759650167
 31
0.0
1001
ACAD
1000
RTMaterial
1005
0
  0
LINE
  5
38335
330
38213
100
AcDbEntity
  8
0
 62
     0
100
AcDbLine
 10
46.29184562648163
 20
17.14999999999992
 30
0.0
 11
48.04012418798937
 21
18.89827856150771
 31
0.0
1001
ACAD
1000
RTMaterial
1005
0
  0
LINE
  5
38336
330
38213
100
AcDbEntity
  8
0
 62
     0
100
AcDbLine
 10
50.69221215478115
 20
22.44839214040644
 30
0.0
 11
53.49221215478116
 21
25.24839214040639
 31
0.0
1001
ACAD
1000
RTMaterial
1005
0
  0
LINE
  5
38337
330
38213
100
AcDbEntity
  8
0
 62
     0
100
AcDbLine
 10
55.74741540820054
 20
27.50359539382583
 30
0.0
 11
61.4938200143747
 21
33.25
 31
0.0
1001
ACAD
1000
RTMaterial
1005
0
  0
LINE
  5
38338
330
38213
100
AcDbEntity
  8
0
 62
     0
100
AcDbLine
 10
45.69983131582654
 20
17.45601130145184
 30
0.0
 11
47.82459804108366
 21
19.58077802670896
 31
0.0
1001
ACAD
1000
RTMaterial
1005
0
  0
LINE
  5
38339
330
38213
100
AcDbEntity
  8
0
 62
     0
100
AcDbLine
 10
50.69221215478115
 20
23.34641775251339
 30
0.0
 11
53.4922121547811
 21
26.14641775251334
 31
0.0
1001
ACAD
1000
RTMaterial
1005
0
  0
LINE
  5
3833A
330
38213
100
AcDbEntity
  8
0
 62
     0
100
AcDbLine
 10
55.60870854911485
 20
28.2629141468471
 30
0.0
 11
60.5957944022678
 21
33.25
 31
0.0
1001
ACAD
1000
RTMaterial
1005
0
  0
LINE
  5
3833B
330
38213
100
AcDbEntity
  8
0
 62
     0
100
AcDbLine
 10
45.48107189417793
 20
18.13527749191019
 30
0.0
 11
47.60907189417793
 21
20.26327749191017
 31
0.0
1001
ACAD
1000
RTMaterial
1005
0
  0
LINE
  5
3833C
330
38213
100
AcDbEntity
  8
0
 62
     0
100
AcDbLine
 10
50.69221215478119
 20
24.24444336462022
 30
0.0
 11
53.49221215478116
 21
27.04444336462024
 31
0.0
1001
ACAD
1000
RTMaterial
1005
0
  0
LINE
  5
3833D
330
38213
100
AcDbEntity
  8
0
 62
     0
100
AcDbLine
 10
55.59221215478117
 20
29.1444433646202
 30
0.0
 11
59.69776879016092
 21
33.25
 31
0.0
1001
ACAD
1000
RTMaterial
1005
0
  0
LINE
  5
3833E
330
38213
100
AcDbEntity
  8
0
 62
     0
100
AcDbLine
 10
45.26554574727231
 20
18.81777695711139
 30
0.0
 11
47.3935457472724
 21
20.94577695711143
 31
0.0
1001
ACAD
1000
RTMaterial
1005
0
  0
LINE
  5
3833F
330
38213
100
AcDbEntity
  8
0
 62
     0
100
AcDbLine
 10
50.69221215478115
 20
25.14246897672717
 30
0.0
 11
53.49221215478116
 21
27.94246897672713
 31
0.0
1001
ACAD
1000
RTMaterial
1005
0
  0
LINE
  5
38340
330
38213
100
AcDbEntity
  8
0
 62
     0
100
AcDbLine
 10
55.59221215478125
 20
30.04246897672721
 30
0.0
 11
58.79974317805403
 21
33.25
 31
0.0
1001
ACAD
1000
RTMaterial
1005
0
  0
LINE
  5
38341
330
38213
100
AcDbEntity
  8
0
 62
     0
100
AcDbLine
 10
45.05001960036657
 20
19.50027642231258
 30
0.0
 11
47.17801960036672
 21
21.62827642231269
 31
0.0
1001
ACAD
1000
RTMaterial
1005
0
  0
LINE
  5
38342
330
38213
100
AcDbEntity
  8
0
 62
     0
100
AcDbLine
 10
50.69221215478115
 20
26.04049458883407
 30
0.0
 11
53.4922121547812
 21
28.84049458883414
 31
0.0
1001
ACAD
1000
RTMaterial
1005
0
  0
LINE
  5
38343
330
38213
100
AcDbEntity
  8
0
 62
     0
100
AcDbLine
 10
44.83449345346094
 20
20.18277588751391
 30
0.0
 11
46.96249345346102
 21
22.31077588751396
 31
0.0
1001
ACAD
1000
RTMaterial
1005
0
  0
LINE
  5
38344
330
38213
100
AcDbEntity
  8
0
 62
     0
100
AcDbLine
 10
55.64552882490239
 20
30.99381125895536
 30
0.0
 11
57.84840089582569
 21
33.19668332987868
 31
0.0
1001
ACAD
1000
RTMaterial
1005
0
  0
LINE
  5
38345
330
38213
100
AcDbEntity
  8
0
 62
     0
100
AcDbLine
 10
41.80171756594694
 20
17.14999999999992
 30
0.0
 11
42.64221215478113
 21
17.99049458883411
 31
0.0
1001
ACAD
1000
RTMaterial
1005
0
  0
LINE
  5
38346
330
38213
100
AcDbEntity
  8
0
 62
     0
100
AcDbLine
 10
44.61896730655535
 20
20.86527535271512
 30
0.0
 11
46.74696730655528
 21
22.9932753527151
 31
0.0
1001
ACAD
1000
RTMaterial
1005
0
  0
LINE
  5
38347
330
38213
100
AcDbEntity
  8
0
 62
     0
100
AcDbLine
 10
50.69221215478115
 20
26.93852020094096
 30
0.0
 11
53.4922121547812
 21
29.73852020094103
 31
0.0
1001
ACAD
1000
RTMaterial
1005
0
  0
LINE
  5
38348
330
38213
100
AcDbEntity
  8
0
 62
     0
100
AcDbLine
 10
40.90369195384011
 20
17.14999999999986
 30
0.0
 11
42.64221215478118
 21
18.888520200941
 31
0.0
1001
ACAD
1000
RTMaterial
1005
0
  0
LINE
  5
38349
330
38213
100
AcDbEntity
  8
0
 62
     0
100
AcDbLine
 10
44.40344115964967
 20
21.54777481791638
 30
0.0
 11
46.53144115964972
 21
23.67577481791648
 31
0.0
1001
ACAD
1000
RTMaterial
1005
0
  0
LINE
  5
3834A
330
38213
100
AcDbEntity
  8
0
 62
     0
100
AcDbLine
 10
50.69221215478115
 20
27.83654581304791
 30
0.0
 11
53.4922121547812
 21
30.63654581304792
 31
0.0
1001
ACAD
1000
RTMaterial
1005
0
  0
LINE
  5
3834B
330
38213
100
AcDbEntity
  8
0
 62
     0
100
AcDbLine
 10
40.08681608938444
 20
17.23114974765121
 30
0.0
 11
42.64221215478118
 21
19.78654581304789
 31
0.0
1001
ACAD
1000
RTMaterial
1005
0
  0
LINE
  5
3834C
330
38213
100
AcDbEntity
  8
0
 62
     0
100
AcDbLine
 10
44.18791501274397
 20
22.23027428311764
 30
0.0
 11
46.31591501274407
 21
24.3582742831178
 31
0.0
1001
ACAD
1000
RTMaterial
1005
0
  0
LINE
  5
3834D
330
38213
100
AcDbEntity
  8
0
 62
     0
100
AcDbLine
 10
50.69221215478115
 20
28.7345714251548
 30
0.0
 11
53.49221215478116
 21
31.53457142515487
 31
0.0
1001
ACAD
1000
RTMaterial
1005
0
  0
LINE
  5
3834E
330
38213
100
AcDbEntity
  8
0
 62
     0
100
AcDbLine
 10
39.84221215478118
 20
17.88457142515483
 30
0.0
 11
42.64221215478125
 21
20.6845714251549
 31
0.0
1001
ACAD
1000
RTMaterial
1005
0
  0
LINE
  5
3834F
330
38213
100
AcDbEntity
  8
0
 62
     0
100
AcDbLine
 10
43.97238886583835
 20
22.91277374831884
 30
0.0
 11
46.10038886583839
 21
25.04077374831894
 31
0.0
1001
ACAD
1000
RTMaterial
1005
0
  0
LINE
  5
38350
330
38213
100
AcDbEntity
  8
0
 62
     0
100
AcDbLine
 10
50.69221215478115
 20
29.63259703726169
 30
0.0
 11
53.4922121547812
 21
32.43259703726177
 31
0.0
1001
ACAD
1000
RTMaterial
1005
0
  0
LINE
  5
38351
330
38213
100
AcDbEntity
  8
0
 62
     0
100
AcDbLine
 10
39.84221215478118
 20
18.78259703726172
 30
0.0
 11
42.64221215478125
 21
21.58259703726179
 31
0.0
1001
ACAD
1000
RTMaterial
1005
0
  0
LINE
  5
38352
330
38213
100
AcDbEntity
  8
0
 62
     0
100
AcDbLine
 10
43.7375900788666
 20
23.57600057345411
 30
0.0
 11
46.36788414679751
 21
26.20629464138501
 31
0.0
1001
ACAD
1000
RTMaterial
1005
0
  0
LINE
  5
38353
330
38213
100
AcDbEntity
  8
0
 62
     0
100
AcDbLine
 10
50.69221215478119
 20
30.53062264936869
 30
0.0
 11
53.29593673228277
 21
33.1343472268702
 31
0.0
1001
ACAD
1000
RTMaterial
1005
0
  0
LINE
  5
38354
330
38213
100
AcDbEntity
  8
0
 62
     0
100
AcDbLine
 10
39.84221215478118
 20
19.68062264936867
 30
0.0
 11
42.64221215478125
 21
22.48062264936868
 31
0.0
1001
ACAD
1000
RTMaterial
1005
0
  0
LINE
  5
38355
330
38213
100
AcDbEntity
  8
0
 62
     0
100
AcDbLine
 10
43.05040470899921
 20
23.78684081569367
 30
0.0
 11
46.78235750623144
 21
27.51879361292589
 31
0.0
1001
ACAD
1000
RTMaterial
1005
0
  0
LINE
  5
38356
330
38213
100
AcDbEntity
  8
0
 62
     0
100
AcDbLine
 10
39.84221215478118
 20
20.57864826147556
 30
0.0
 11
42.65537133908747
 21
23.39180744578186
 31
0.0
1001
ACAD
1000
RTMaterial
1005
0
  0
LINE
  5
38357
330
38213
100
AcDbEntity
  8
0
 62
     0
100
AcDbLine
 10
50.69221215478119
 20
31.42864826147559
 30
0.0
 11
52.51356389330556
 21
33.25
 31
0.0
1001
ACAD
1000
RTMaterial
1005
0
  0
LINE
  5
38358
330
38213
100
AcDbEntity
  8
0
 62
     0
100
AcDbLine
 10
36.41356389330554
 20
17.14999999999992
 30
0.0
 11
37.39221215478119
 21
18.12864826147563
 31
0.0
1001
ACAD
1000
RTMaterial
1005
0
  0
LINE
  5
38359
330
38213
100
AcDbEntity
  8
0
 62
     0
100
AcDbLine
 10
39.84221215478113
 20
21.47667387358251
 30
0.0
 11
47.19683086566539
 21
28.83129258446672
 31
0.0
1001
ACAD
1000
RTMaterial
1005
0
  0
LINE
  5
3835A
330
38213
100
AcDbEntity
  8
0
 62
     0
100
AcDbLine
 10
50.69221215478115
 20
32.32667387358254
 30
0.0
 11
51.6155382811986
 21
33.25
 31
0.0
1001
ACAD
1000
RTMaterial
1005
0
  0
LINE
  5
3835B
330
38213
100
AcDbEntity
  8
0
 62
     0
100
AcDbLine
 10
35.51553828119859
 20
17.14999999999998
 30
0.0
 11
37.39221215478119
 21
19.02667387358258
 31
0.0
1001
ACAD
1000
RTMaterial
1005
0
  0
LINE
  5
3835C
330
38213
100
AcDbEntity
  8
0
 62
     0
100
AcDbLine
 10
39.84221215478118
 20
22.37469948568936
 30
0.0
 11
47.61130422509944
 21
30.14379155600761
 31
0.0
1001
ACAD
1000
RTMaterial
1005
0
  0
LINE
  5
3835D
330
38213
100
AcDbEntity
  8
0
 62
     0
100
AcDbLine
 10
34.6291932934418
 20
17.16168062435002
 30
0.0
 11
37.25087787117502
 21
19.78336520208319
 31
0.0
1001
ACAD
1000
RTMaterial
1005
0
  0
LINE
  5
3835E
330
38213
100
AcDbEntity
  8
0
 62
     0
100
AcDbLine
 10
39.84221215478113
 20
23.2727250977963
 30
0.0
 11
43.16948705698478
 21
26.59999999999997
 31
0.0
1001
ACAD
1000
RTMaterial
1005
0
  0
LINE
  5
3835F
330
38213
100
AcDbEntity
  8
0
 62
     0
100
AcDbLine
 10
43.9334698922255
 20
27.36398283524068
 30
0.0
 11
48.02577758453344
 21
31.45629052754856
 31
0.0
1001
ACAD
1000
RTMaterial
1005
0
  0
LINE
  5
38360
330
38213
100
AcDbEntity
  8
0
 62
     0
100
AcDbLine
 10
33.86103277599483
 20
17.29154571900994
 30
0.0
 11
36.51948705698476
 21
19.94999999999993
 31
0.0
1001
ACAD
1000
RTMaterial
1005
0
  0
LINE
  5
38361
330
38213
100
AcDbEntity
  8
0
 62
     0
100
AcDbLine
 10
39.84221215478113
 20
24.17075070990325
 30
0.0
 11
42.66020272548945
 21
26.98874128061152
 31
0.0
1001
ACAD
1000
RTMaterial
1005
0
  0
LINE
  5
38362
330
38213
100
AcDbEntity
  8
0
 62
     0
100
AcDbLine
 10
44.34794325165944
 20
28.67648180678151
 30
0.0
 11
48.40084903633481
 21
32.72938759145694
 31
0.0
1001
ACAD
1000
RTMaterial
1005
0
  0
LINE
  5
38363
330
38213
100
AcDbEntity
  8
0
 62
     0
100
AcDbLine
 10
33.19989851916842
 20
17.52843707429053
 30
0.0
 11
35.62146144487787
 21
19.94999999999993
 31
0.0
1001
ACAD
1000
RTMaterial
1005
0
  0
LINE
  5
38364
330
38213
100
AcDbEntity
  8
0
 62
     0
100
AcDbLine
 10
39.84221215478118
 20
25.06877632201008
 30
0.0
 11
42.64221215478118
 21
27.86877632201015
 31
0.0
1001
ACAD
1000
RTMaterial
1005
0
  0
LINE
  5
38365
330
38213
100
AcDbEntity
  8
0
 62
     0
100
AcDbLine
 10
44.76241661109354
 20
29.98898077832251
 30
0.0
 11
48.00683716376562
 21
33.23340133099458
 31
0.0
1001
ACAD
1000
RTMaterial
1005
0
  0
LINE
  5
38366
330
38213
100
AcDbEntity
  8
0
 62
     0
100
AcDbLine
 10
32.62229523500412
 20
17.84885940223302
 30
0.0
 11
34.73835709349697
 21
19.96492126072593
 31
0.0
1001
ACAD
1000
RTMaterial
1005
0
  0
LINE
  5
38367
330
38213
100
AcDbEntity
  8
0
 62
     0
100
AcDbLine
 10
39.84221215478113
 20
25.96680193411704
 30
0.0
 11
42.64221215478118
 21
28.7668019341171
 31
0.0
1001
ACAD
1000
RTMaterial
1005
0
  0
LINE
  5
38368
330
38213
100
AcDbEntity
  8
0
 62
     0
100
AcDbLine
 10
45.1768899705275
 20
31.30147974986336
 30
0.0
 11
47.12541022066403
 21
33.24999999999994
 31
0.0
1001
ACAD
1000
RTMaterial
1005
0
  0
LINE
  5
38369
330
38213
100
AcDbEntity
  8
0
 62
     0
100
AcDbLine
 10
32.11734026862206
 20
18.24193004795791
 30
0.0
 11
34.10404095247867
 21
20.22863073181452
 31
0.0
1001
ACAD
1000
RTMaterial
1005
0
  0
LINE
  5
3836A
330
38213
100
AcDbEntity
  8
0
 62
     0
100
AcDbLine
 10
39.84221215478113
 20
26.86482754622392
 30
0.0
 11
42.64221215478118
 21
29.66482754622399
 31
0.0
1001
ACAD
1000
RTMaterial
1005
0
  0
LINE
  5
3836B
330
38213
100
AcDbEntity
  8
0
 62
     0
100
AcDbLine
 10
36.50384628655763
 20
23.52646167800049
 30
0.0
 11
37.66575047678073
 21
24.68836586822357
 31
0.0
1001
ACAD
1000
RTMaterial
1005
0
  0
LINE
  5
3836C
330
38213
100
AcDbEntity
  8
0
 62
     0
100
AcDbLine
 10
45.59136332996138
 20
32.61397872140424
 30
0.0
 11
46.2273846085572
 21
33.25000000000006
 31
0.0
1001
ACAD
1000
RTMaterial
1005
0
  0
LINE
  5
3836D
330
38213
100
AcDbEntity
  8
0
 62
     0
100
AcDbLine
 10
31.68090319529222
 20
18.70351858673507
 30
0.0
 11
33.69379000120648
 21
20.71640539264933
 31
0.0
1001
ACAD
1000
RTMaterial
1005
0
  0
LINE
  5
3836E
330
38213
100
AcDbEntity
  8
0
 62
     0
100
AcDbLine
 10
35.57887344492781
 20
23.49951444847761
 30
0.0
 11
37.69269770630359
 21
25.61333870985334
 31
0.0
1001
ACAD
1000
RTMaterial
1005
0
  0
LINE
  5
3836F
330
38213
100
AcDbEntity
  8
0
 62
     0
100
AcDbLine
 10
39.84221215478108
 20
27.76285315833087
 30
0.0
 11
42.64221215478113
 21
30.56285315833094
 31
0.0
1001
ACAD
1000
RTMaterial
1005
0
  0
LINE
  5
38370
330
38213
100
AcDbEntity
  8
0
 62
     0
100
AcDbLine
 10
31.31388397034925
 20
19.234524973899
 30
0.0
 11
33.54221215478117
 21
21.46285315833097
 31
0.0
1001
ACAD
1000
RTMaterial
1005
0
  0
LINE
  5
38371
330
38213
100
AcDbEntity
  8
0
 62
     0
100
AcDbLine
 10
34.96472687550761
 20
23.78339349116419
 30
0.0
 11
37.40881866361696
 21
26.2274852792736
 31
0.0
1001
ACAD
1000
RTMaterial
1005
0
  0
LINE
  5
38372
330
38213
100
AcDbEntity
  8
0
 62
     0
100
AcDbLine
 10
39.84221215478113
 20
28.66087877043776
 30
0.0
 11
42.64221215478118
 21
31.46087877043778
 31
0.0
1001
ACAD
1000
RTMaterial
1005
0
  0
LINE
  5
38373
330
38213
100
AcDbEntity
  8
0
 62
     0
100
AcDbLine
 10
31.02256646042452
 20
19.84123307608115
 30
0.0
 11
33.54221215478117
 21
22.36087877043781
 31
0.0
1001
ACAD
1000
RTMaterial
1005
0
  0
LINE
  5
38374
330
38213
100
AcDbEntity
  8
0
 62
     0
100
AcDbLine
 10
34.52676694851789
 20
24.24345917628148
 30
0.0
 11
36.94875297849973
 21
26.66544520626326
 31
0.0
1001
ACAD
1000
RTMaterial
1005
0
  0
LINE
  5
38375
330
38213
100
AcDbEntity
  8
0
 62
     0
100
AcDbLine
 10
39.84221215478113
 20
29.55890438254466
 30
0.0
 11
42.64221215478113
 21
32.35890438254472
 31
0.0
1001
ACAD
1000
RTMaterial
1005
0
  0
LINE
  5
38376
330
38213
100
AcDbEntity
  8
0
 62
     0
100
AcDbLine
 10
30.82142909624986
 20
20.53812132401345
 30
0.0
 11
33.54221215478117
 21
23.25890438254476
 31
0.0
1001
ACAD
1000
RTMaterial
1005
0
  0
LINE
  5
38377
330
38213
100
AcDbEntity
  8
0
 62
     0
100
AcDbLine
 10
34.27071621610952
 20
24.88543405598
 30
0.0
 11
36.30677809880115
 21
26.92149593867168
 31
0.0
1001
ACAD
1000
RTMaterial
1005
0
  0
LINE
  5
38378
330
38213
100
AcDbEntity
  8
0
 62
     0
100
AcDbLine
 10
30.74221215478111
 20
21.35692999465164
 30
0.0
 11
33.54221215478117
 21
24.15692999465165
 31
0.0
1001
ACAD
1000
RTMaterial
1005
0
  0
LINE
  5
38379
330
38213
100
AcDbEntity
  8
0
 62
     0
100
AcDbLine
 10
39.84221215478108
 20
30.4569299946516
 30
0.0
 11
42.48496204642606
 21
33.0996798862966
 31
0.0
1001
ACAD
1000
RTMaterial
1005
0
  0
LINE
  5
3837A
330
38213
100
AcDbEntity
  8
0
 62
     0
100
AcDbLine
 10
26.65621539690552
 20
17.27093323677603
 30
0.0
 11
28.52127891800524
 21
19.13599675787577
 31
0.0
1001
ACAD
1000
RTMaterial
1005
0
  0
LINE
  5
3837B
330
38213
100
AcDbEntity
  8
0
 62
     0
100
AcDbLine
 10
34.38912929959031
 20
25.90187275156768
 30
0.0
 11
35.29033940321352
 21
26.80308285519089
 31
0.0
1001
ACAD
1000
RTMaterial
1005
0
  0
LINE
  5
3837C
330
38213
100
AcDbEntity
  8
0
 62
     0
100
AcDbLine
 10
30.74221215478111
 20
22.25495560675847
 30
0.0
 11
33.54221215478117
 21
25.05495560675854
 31
0.0
1001
ACAD
1000
RTMaterial
1005
0
  0
LINE
  5
3837D
330
38213
100
AcDbEntity
  8
0
 62
     0
100
AcDbLine
 10
39.84221215478113
 20
31.35495560675844
 30
0.0
 11
41.73725654802267
 21
33.25000000000006
 31
0.0
1001
ACAD
1000
RTMaterial
1005
0
  0
LINE
  5
3837E
330
38213
100
AcDbEntity
  8
0
 62
     0
100
AcDbLine
 10
25.63725654802255
 20
17.14999999999992
 30
0.0
 11
28.64221215478119
 21
20.15495560675856
 31
0.0
1001
ACAD
1000
RTMaterial
1005
0
  0
LINE
  5
3837F
330
38213
100
AcDbEntity
  8
0
 62
     0
100
AcDbLine
 10
30.74221215478111
 20
23.15298121886542
 30
0.0
 11
33.54221215478117
 21
25.95298121886549
 31
0.0
1001
ACAD
1000
RTMaterial
1005
0
  0
LINE
  5
38380
330
38213
100
AcDbEntity
  8
0
 62
     0
100
AcDbLine
 10
39.84221215478108
 20
32.25298121886539
 30
0.0
 11
40.83923093591567
 21
33.25
 31
0.0
1001
ACAD
1000
RTMaterial
1005
0
  0
LINE
  5
38381
330
38213
100
AcDbEntity
  8
0
 62
     0
100
AcDbLine
 10
24.73923093591566
 20
17.14999999999992
 30
0.0
 11
28.64221215478119
 21
21.05298121886551
 31
0.0
1001
ACAD
1000
RTMaterial
1005
0
  0
LINE
  5
38382
330
38213
100
AcDbEntity
  8
0
 62
     0
100
AcDbLine
 10
30.74221215478111
 20
24.05100683097231
 30
0.0
 11
33.54221215478111
 21
26.85100683097238
 31
0.0
1001
ACAD
1000
RTMaterial
1005
0
  0
LINE
  5
38383
330
38213
100
AcDbEntity
  8
0
 62
     0
100
AcDbLine
 10
23.84120532380871
 20
17.14999999999998
 30
0.0
 11
28.63827280222
 21
21.94706747841127
 31
0.0
1001
ACAD
1000
RTMaterial
1005
0
  0
LINE
  5
38384
330
38213
100
AcDbEntity
  8
0
 62
     0
100
AcDbLine
 10
30.74221215478111
 20
24.94903244307926
 30
0.0
 11
33.54221215478117
 21
27.74903244307933
 31
0.0
1001
ACAD
1000
RTMaterial
1005
0
  0
LINE
  5
38385
330
38213
100
AcDbEntity
  8
0
 62
     0
100
AcDbLine
 10
36.24317971170189
 20
30.45000000000005
 30
0.0
 11
37.39221215478125
 21
31.59903244307936
 31
0.0
1001
ACAD
1000
RTMaterial
1005
0
  0
LINE
  5
38386
330
38213
100
AcDbEntity
  8
0
 62
     0
100
AcDbLine
 10
22.94317971170176
 20
17.14999999999992
 30
0.0
 11
28.52861096589868
 21
22.73543125419684
 31
0.0
1001
ACAD
1000
RTMaterial
1005
0
  0
LINE
  5
38387
330
38213
100
AcDbEntity
  8
0
 62
     0
100
AcDbLine
 10
30.74221215478111
 20
25.84705805518615
 30
0.0
 11
33.54221215478117
 21
28.64705805518616
 31
0.0
1001
ACAD
1000
RTMaterial
1005
0
  0
LINE
  5
38388
330
38213
100
AcDbEntity
  8
0
 62
     0
100
AcDbLine
 10
25.84221215478118
 20
20.94705805518623
 30
0.0
 11
28.30627222185455
 21
23.41111812225961
 31
0.0
1001
ACAD
1000
RTMaterial
1005
0
  0
LINE
  5
38389
330
38213
100
AcDbEntity
  8
0
 62
     0
100
AcDbLine
 10
35.34515409959489
 20
30.44999999999993
 30
0.0
 11
37.39221215478119
 21
32.49705805518625
 31
0.0
1001
ACAD
1000
RTMaterial
1005
0
  0
LINE
  5
3838A
330
38213
100
AcDbEntity
  8
0
 62
     0
100
AcDbLine
 10
22.10287997485483
 20
17.20772587525988
 30
0.0
 11
24.84515409959488
 21
19.94999999999993
 31
0.0
1001
ACAD
1000
RTMaterial
1005
0
  0
LINE
  5
3838B
330
38213
100
AcDbEntity
  8
0
 62
     0
100
AcDbLine
 10
30.74221215478104
 20
26.74508366729305
 30
0.0
 11
33.70802686056084
 21
29.71089837307284
 31
0.0
1001
ACAD
1000
RTMaterial
1005
0
  0
LINE
  5
3838C
330
38213
100
AcDbEntity
  8
0
 62
     0
100
AcDbLine
 10
25.84005306317192
 20
21.84292457568387
 30
0.0
 11
27.99784068718253
 21
24.00071219969453
 31
0.0
1001
ACAD
1000
RTMaterial
1005
0
  0
LINE
  5
3838D
330
38213
100
AcDbEntity
  8
0
 62
     0
100
AcDbLine
 10
34.28131378170838
 20
30.28418529422038
 30
0.0
 11
37.15874473986139
 21
33.16161625237334
 31
0.0
1001
ACAD
1000
RTMaterial
1005
0
  0
LINE
  5
3838E
330
38213
100
AcDbEntity
  8
0
 62
     0
100
AcDbLine
 10
21.81721215478109
 20
17.82008366729309
 30
0.0
 11
23.94712848748804
 21
19.95000000000004
 31
0.0
1001
ACAD
1000
RTMaterial
1005
0
  0
LINE
  5
3838F
330
38213
100
AcDbEntity
  8
0
 62
     0
100
AcDbLine
 10
25.62045004367121
 20
22.52134716829016
 30
0.0
 11
27.61559872234363
 21
24.51649584696259
 31
0.0
1001
ACAD
1000
RTMaterial
1005
0
  0
LINE
  5
38390
330
38213
100
AcDbEntity
  8
0
 62
     0
100
AcDbLine
 10
30.74221215478104
 20
27.64310927939999
 30
0.0
 11
36.34910287538111
 21
33.25000000000006
 31
0.0
1001
ACAD
1000
RTMaterial
1005
0
  0
LINE
  5
38391
330
38213
100
AcDbEntity
  8
0
 62
     0
100
AcDbLine
 10
21.81721215478109
 20
18.71810927940004
 30
0.0
 11
23.04910287538104
 21
19.94999999999999
 31
0.0
1001
ACAD
1000
RTMaterial
1005
0
  0
LINE
  5
38392
330
38213
100
AcDbEntity
  8
0
 62
     0
100
AcDbLine
 10
25.19419521536651
 20
22.99311795209229
 30
0.0
 11
27.17409420268888
 21
24.97301693941466
 31
0.0
1001
ACAD
1000
RTMaterial
1005
0
  0
LINE
  5
38393
330
38213
100
AcDbEntity
  8
0
 62
     0
100
AcDbLine
 10
30.74221215478111
 20
28.54113489150683
 30
0.0
 11
35.45107726327416
 21
33.24999999999994
 31
0.0
1001
ACAD
1000
RTMaterial
1005
0
  0
LINE
  5
38394
330
38213
100
AcDbEntity
  8
0
 62
     0
100
AcDbLine
 10
21.88616407680092
 20
19.68508681352671
 30
0.0
 11
22.08212534125454
 21
19.88104807798032
 31
0.0
1001
ACAD
1000
RTMaterial
1005
0
  0
LINE
  5
38395
330
38213
100
AcDbEntity
  8
0
 62
     0
100
AcDbLine
 10
30.76218726893768
 20
29.45913561777036
 30
0.0
 11
34.53307653701069
 21
33.23002488584342
 31
0.0
1001
ACAD
1000
RTMaterial
1005
0
  0
LINE
  5
38396
330
38213
100
AcDbEntity
  8
0
 62
     0
100
AcDbLine
 10
24.74518240931303
 20
23.44213075814577
 30
0.0
 11
26.7250813966354
 21
25.42202974546814
 31
0.0
1001
ACAD
1000
RTMaterial
1005
0
  0
LINE
  5
38397
330
38213
100
AcDbEntity
  8
0
 62
     0
100
AcDbLine
 10
31.06165070120346
 20
30.65662466214315
 30
0.0
 11
33.33558749263796
 21
32.93056145357765
 31
0.0
1001
ACAD
1000
RTMaterial
1005
0
  0
LINE
  5
38398
330
38213
100
AcDbEntity
  8
0
 62
     0
100
AcDbLine
 10
24.29616960325956
 20
23.89114356419923
 30
0.0
 11
26.27606859058194
 21
25.87104255152161
 31
0.0
1001
ACAD
1000
RTMaterial
1005
0
  0
LINE
  5
38399
330
38213
100
AcDbEntity
  8
0
 62
     0
100
AcDbLine
 10
23.84715679720614
 20
24.34015637025266
 30
0.0
 11
25.82705578452845
 21
26.32005535757492
 31
0.0
1001
ACAD
1000
RTMaterial
1005
0
  0
LINE
  5
3839A
330
38213
100
AcDbEntity
  8
0
 62
     0
100
AcDbLine
 10
23.39814399115267
 20
24.78916917630613
 30
0.0
 11
25.37804297847498
 21
26.76906816362839
 31
0.0
1001
ACAD
1000
RTMaterial
1005
0
  0
LINE
  5
3839B
330
38213
100
AcDbEntity
  8
0
 62
     0
100
AcDbLine
 10
22.94913118509919
 20
25.23818198235961
 30
0.0
 11
24.92903017242151
 21
27.21808096968187
 31
0.0
1001
ACAD
1000
RTMaterial
1005
0
  0
LINE
  5
3839C
330
38213
100
AcDbEntity
  8
0
 62
     0
100
AcDbLine
 10
27.26292359063268
 20
30.45000000000005
 30
0.0
 11
28.11721215478105
 21
31.30428856414841
 31
0.0
1001
ACAD
1000
RTMaterial
1005
0
  0
LINE
  5
3839D
330
38213
100
AcDbEntity
  8
0
 62
     0
100
AcDbLine
 10
22.50020169307385
 20
25.68727810244122
 30
0.0
 11
24.4802673365063
 21
27.66734374587367
 31
0.0
1001
ACAD
1000
RTMaterial
1005
0
  0
LINE
  5
3839E
330
38213
100
AcDbEntity
  8
0
 62
     0
100
AcDbLine
 10
26.36489797852573
 20
30.44999999999993
 30
0.0
 11
28.11721215478116
 21
32.20231417625536
 31
0.0
1001
ACAD
1000
RTMaterial
1005
0
  0
LINE
  5
3839F
330
38213
100
AcDbEntity
  8
0
 62
     0
100
AcDbLine
 10
22.08873376852228
 20
26.17383578999643
 30
0.0
 11
24.15037045521837
 21
28.23547247669257
 31
0.0
1001
ACAD
1000
RTMaterial
1005
0
  0
LINE
  5
383A0
330
38213
100
AcDbEntity
  8
0
 62
     0
100
AcDbLine
 10
25.46687236641878
 20
30.44999999999993
 30
0.0
 11
28.03065325502002
 21
33.01378088860116
 31
0.0
1001
ACAD
1000
RTMaterial
1005
0
  0
LINE
  5
383A1
330
38213
100
AcDbEntity
  8
0
 62
     0
100
AcDbLine
 10
21.74827316225981
 20
26.7314007958409
 30
0.0
 11
24.09221215478112
 21
29.07533978836227
 31
0.0
1001
ACAD
1000
RTMaterial
1005
0
  0
LINE
  5
383A2
330
38213
100
AcDbEntity
  8
0
 62
     0
100
AcDbLine
 10
24.56638010514178
 20
30.44753335082982
 30
0.0
 11
27.36884675431197
 21
33.25
 31
0.0
1001
ACAD
1000
RTMaterial
1005
0
  0
LINE
  5
383A3
330
38213
100
AcDbEntity
  8
0
 62
     0
100
AcDbLine
 10
21.48757986652771
 20
27.36873311221575
 30
0.0
 11
24.0946788039513
 21
29.9758320496394
 31
0.0
1001
ACAD
1000
RTMaterial
1005
0
  0
LINE
  5
383A4
330
38213
100
AcDbEntity
  8
0
 62
     0
100
AcDbLine
 10
21.32576790427965
 20
28.10494676207458
 30
0.0
 11
26.47082114220507
 21
33.25
 31
0.0
1001
ACAD
1000
RTMaterial
1005
0
  0
LINE
  5
383A5
330
38213
100
AcDbEntity
  8
0
 62
     0
100
AcDbLine
 10
21.29221215478117
 20
28.96941662468299
 30
0.0
 11
25.57279553009812
 21
33.25
 31
0.0
1001
ACAD
1000
RTMaterial
1005
0
  0
LINE
  5
383A6
330
38213
100
AcDbEntity
  8
0
 62
     0
100
AcDbLine
 10
21.29221215478111
 20
29.86744223678994
 30
0.0
 11
24.67476991799123
 21
33.25
 31
0.0
1001
ACAD
1000
RTMaterial
1005
0
  0
LINE
  5
383A7
330
38213
100
AcDbEntity
  8
0
 62
     0
100
AcDbLine
 10
21.31240416521945
 20
30.78565985933517
 30
0.0
 11
23.75655229544606
 21
33.22980798956179
 31
0.0
1001
ACAD
1000
RTMaterial
1005
0
  0
ENDBLK
  5
383A8
330
38213
100
AcDbEntity
  8
0
100
AcDbBlockEnd
1001
ACAD
1000
RTMaterial
1005
0
  0
BLOCK
  5
39ADF
330
39AD5
100
AcDbEntity
  8
0
370
    30
100
AcDbBlockBegin
  2
*D6
 70
     1
 10
0.0
 20
0.0
 30
0.0
  3
*D6
  1

  0
LINE
  5
3B5D9
330
39AD5
100
AcDbEntity
  8
SUNPOU
  6
Continuous
 62
     4
370
    -2
100
AcDbLine
 10
30515.56083044387
 20
-3922.046434985706
 30
0.0
 11
30556.98681440307
 21
-3922.046434985706
 31
0.0
  0
LINE
  5
3B5DA
330
39AD5
100
AcDbEntity
  8
SUNPOU
  6
Continuous
 62
     4
370
    -2
100
AcDbLine
 10
30515.56083044387
 20
-4154.046434985704
 30
0.0
 11
30556.98681440307
 21
-4154.046434985704
 31
0.0
  0
LINE
  5
3B5DB
330
39AD5
100
AcDbEntity
  8
SUNPOU
  6
Continuous
 62
     4
370
    -2
100
AcDbLine
 10
30550.98681440307
 20
-3936.046434985705
 30
0.0
 11
30550.98681440307
 21
-4140.046434985705
 31
0.0
  0
INSERT
  5
3B5DC
330
39AD5
100
AcDbEntity
  8
SUNPOU
  6
Continuous
 62
     4
370
    -2
100
AcDbBlockReference
  2
_OPEN
 10
30550.98681440307
 20
-3922.046434985706
 30
0.0
 41
14.0
 42
14.0
 43
14.0
 50
90.0
  0
INSERT
  5
3B5DD
330
39AD5
100
AcDbEntity
  8
SUNPOU
  6
Continuous
 62
     4
370
    -2
100
AcDbBlockReference
  2
_OPEN
 10
30550.98681440307
 20
-4154.046434985704
 30
0.0
 41
14.0
 42
14.0
 43
14.0
 50
270.0
  0
MTEXT
  5
3B5DE
330
39AD5
100
AcDbEntity
  8
SUNPOU
  6
Continuous
 62
     4
100
AcDbMText
 10
30540.98681440307
 20
-4038.0464349857
 30
0.0
 40
12.0
 41
0.0
 71
     5
 72
     1
  1
\A1;232
 11
0.0000000000000001
 21
1.0
 31
0.0
 73
     1
 44
1.0
1001
ACAD
1000
MTEXTBEGIN
1070
    73
1070
     1
1070
    44
1040
1.0
1070
    74
1070
     0
1000
MTEXTEND
  0
POINT
  5
3B5DF
330
39AD5
100
AcDbEntity
  8
Defpoints
  6
Continuous
 62
     0
100
AcDbPoint
 10
30503.56083044387
 20
-3922.046434985706
 30
0.0
  0
POINT
  5
3B5E0
330
39AD5
100
AcDbEntity
  8
Defpoints
  6
Continuous
 62
     0
100
AcDbPoint
 10
30503.56083044387
 20
-4154.046434985704
 30
0.0
  0
POINT
  5
3B5E1
330
39AD5
100
AcDbEntity
  8
Defpoints
  6
Continuous
 62
     0
100
AcDbPoint
 10
30550.98681440307
 20
-4154.046434985704
 30
0.0
  0
ENDBLK
  5
39AE0
330
39AD5
100
AcDbEntity
  8
0
370
    30
100
AcDbBlockEnd
  0
BLOCK
  5
39AEB
330
39AE1
100
AcDbEntity
  8
0
370
    30
100
AcDbBlockBegin
  2
*D7
 70
     1
 10
0.0
 20
0.0
 30
0.0
  3
*D7
  1

  0
LINE
  5
3B285
330
39AE1
100
AcDbEntity
  8
SUNPOU
  6
Continuous
 62
     4
370
    -2
100
AcDbLine
 10
30190.09080865719
 20
-4401.250384052366
 30
0.0
 11
30190.09080865719
 21
-4427.968550601433
 31
0.0
  0
LINE
  5
3B286
330
39AE1
100
AcDbEntity
  8
SUNPOU
  6
Continuous
 62
     4
370
    -2
100
AcDbLine
 10
30503.09080865719
 20
-4401.250384052366
 30
0.0
 11
30503.09080865719
 21
-4427.968550601433
 31
0.0
  0
LINE
  5
3B287
330
39AE1
100
AcDbEntity
  8
SUNPOU
  6
Continuous
 62
     4
370
    -2
100
AcDbLine
 10
30204.09080865719
 20
-4421.968550601433
 30
0.0
 11
30489.09080865719
 21
-4421.968550601433
 31
0.0
  0
INSERT
  5
3B288
330
39AE1
100
AcDbEntity
  8
SUNPOU
  6
Continuous
 62
     4
370
    -2
100
AcDbBlockReference
  2
_OPEN
 10
30190.09080865719
 20
-4421.968550601433
 30
0.0
 41
14.0
 42
14.0
 43
14.0
 50
180.0
  0
INSERT
  5
3B289
330
39AE1
100
AcDbEntity
  8
SUNPOU
  6
Continuous
 62
     4
370
    -2
100
AcDbBlockReference
  2
_OPEN
 10
30503.09080865719
 20
-4421.968550601433
 30
0.0
 41
14.0
 42
14.0
 43
14.0
  0
MTEXT
  5
3B28A
330
39AE1
100
AcDbEntity
  8
SUNPOU
  6
Continuous
 62
     4
100
AcDbMText
 10
30346.59080865719
 20
-4411.968550601432
 30
0.0
 40
12.0
 41
0.0
 71
     5
 72
     1
  1
\A1;313
 73
     1
 44
1.0
1001
ACAD
1000
MTEXTBEGIN
1070
    73
1070
     1
1070
    44
1040
1.0
1070
    74
1070
     0
1000
MTEXTEND
  0
POINT
  5
3B28B
330
39AE1
100
AcDbEntity
  8
Defpoints
  6
Continuous
 62
     0
370
    30
100
AcDbPoint
 10
30190.09080865719
 20
-4389.250384052366
 30
0.0
  0
POINT
  5
3B28C
330
39AE1
100
AcDbEntity
  8
Defpoints
  6
Continuous
 62
     0
370
    30
100
AcDbPoint
 10
30503.09080865719
 20
-4389.250384052366
 30
0.0
  0
POINT
  5
3B28D
330
39AE1
100
AcDbEntity
  8
Defpoints
  6
Continuous
 62
     0
370
    30
100
AcDbPoint
 10
30503.09080865719
 20
-4421.968550601433
 30
0.0
  0
ENDBLK
  5
39AEC
330
39AE1
100
AcDbEntity
  8
0
370
    30
100
AcDbBlockEnd
  0
BLOCK
  5
39AF7
330
39AED
100
AcDbEntity
  8
0
370
    30
100
AcDbBlockBegin
  2
*D8
 70
     1
 10
0.0
 20
0.0
 30
0.0
  3
*D8
  1

  0
LINE
  5
3B254
330
39AED
100
AcDbEntity
  8
SUNPOU
  6
Continuous
 62
     4
370
    -2
100
AcDbLine
 10
30515.01123698822
 20
-4364.250384052366
 30
0.0
 11
30548.09668933263
 21
-4364.250384052366
 31
0.0
  0
LINE
  5
3B255
330
39AED
100
AcDbEntity
  8
SUNPOU
  6
Continuous
 62
     4
370
    -2
100
AcDbLine
 10
30515.0908086572
 20
-4389.250384052366
 30
0.0
 11
30548.09668933263
 21
-4389.250384052366
 31
0.0
  0
LINE
  5
3B256
330
39AED
100
AcDbEntity
  8
SUNPOU
  6
Continuous
 62
     4
370
    -2
100
AcDbLine
 10
30542.09668933264
 20
-4350.250384052366
 30
0.0
 11
30542.09668933264
 21
-4336.250384052367
 31
0.0
  0
LINE
  5
3B257
330
39AED
100
AcDbEntity
  8
SUNPOU
  6
Continuous
 62
     4
370
    -2
100
AcDbLine
 10
30542.09668933264
 20
-4403.250384052366
 30
0.0
 11
30542.09668933264
 21
-4417.250384052366
 31
0.0
  0
LINE
  5
3B258
330
39AED
100
AcDbEntity
  8
SUNPOU
  6
Continuous
 62
     4
370
    -2
100
AcDbLine
 10
30542.09668933264
 20
-4364.250384052366
 30
0.0
 11
30542.09668933264
 21
-4389.250384052366
 31
0.0
  0
INSERT
  5
3B259
330
39AED
100
AcDbEntity
  8
SUNPOU
  6
Continuous
 62
     4
370
    -2
100
AcDbBlockReference
  2
_OPEN
 10
30542.09668933264
 20
-4364.250384052366
 30
0.0
 41
14.0
 42
14.0
 43
14.0
 50
270.0
  0
INSERT
  5
3B25A
330
39AED
100
AcDbEntity
  8
SUNPOU
  6
Continuous
 62
     4
370
    -2
100
AcDbBlockReference
  2
_OPEN
 10
30542.09668933264
 20
-4389.250384052366
 30
0.0
 41
14.0
 42
14.0
 43
14.0
 50
90.0
  0
MTEXT
  5
3B25B
330
39AED
100
AcDbEntity
  8
SUNPOU
  6
Continuous
 62
     4
100
AcDbMText
 10
30532.09668933263
 20
-4376.750384052362
 30
0.0
 40
12.0
 41
0.0
 71
     5
 72
     1
  1
\A1;25
 11
0.0000000000000001
 21
1.0
 31
0.0
 73
     1
 44
1.0
1001
ACAD
1000
MTEXTBEGIN
1070
    73
1070
     1
1070
    44
1040
1.0
1070
    74
1070
     0
1000
MTEXTEND
  0
POINT
  5
3B25C
330
39AED
100
AcDbEntity
  8
Defpoints
  6
Continuous
 62
     0
370
    30
100
AcDbPoint
 10
30503.01123698822
 20
-4364.250384052366
 30
0.0
  0
POINT
  5
3B25D
330
39AED
100
AcDbEntity
  8
Defpoints
  6
Continuous
 62
     0
370
    30
100
AcDbPoint
 10
30503.09080865719
 20
-4389.250384052366
 30
0.0
  0
POINT
  5
3B25E
330
39AED
100
AcDbEntity
  8
Defpoints
  6
Continuous
 62
     0
370
    30
100
AcDbPoint
 10
30542.09668933264
 20
-4389.250384052366
 30
0.0
  0
ENDBLK
  5
39AF8
330
39AED
100
AcDbEntity
  8
0
370
    30
100
AcDbBlockEnd
  0
BLOCK
  5
39B03
330
39AF9
100
AcDbEntity
  8
0
370
    30
100
AcDbBlockBegin
  2
*D9
 70
     1
 10
0.0
 20
0.0
 30
0.0
  3
*D9
  1

  0
LINE
  5
3B5BC
330
39AF9
100
AcDbEntity
  8
SUNPOU
  6
Continuous
 62
     4
370
    -2
100
AcDbLine
 10
30346.59080865723
 20
-4113.796434985705
 30
0.0
 11
30346.59080865723
 21
-4181.502582762978
 31
0.0
  0
LINE
  5
3B5BD
330
39AF9
100
AcDbEntity
  8
SUNPOU
  6
Continuous
 62
     4
370
    -2
100
AcDbLine
 10
30426.59080865723
 20
-4113.796434985706
 30
0.0
 11
30426.59080865723
 21
-4181.502582762978
 31
0.0
  0
LINE
  5
3B5BE
330
39AF9
100
AcDbEntity
  8
SUNPOU
  6
Continuous
 62
     4
370
    -2
100
AcDbLine
 10
30360.59080865722
 20
-4175.502582762978
 30
0.0
 11
30412.59080865723
 21
-4175.502582762978
 31
0.0
  0
INSERT
  5
3B5BF
330
39AF9
100
AcDbEntity
  8
SUNPOU
  6
Continuous
 62
     4
370
    -2
100
AcDbBlockReference
  2
_OPEN
 10
30346.59080865723
 20
-4175.502582762978
 30
0.0
 41
14.0
 42
14.0
 43
14.0
 50
180.0
  0
INSERT
  5
3B5C0
330
39AF9
100
AcDbEntity
  8
SUNPOU
  6
Continuous
 62
     4
370
    -2
100
AcDbBlockReference
  2
_OPEN
 10
30426.59080865723
 20
-4175.502582762978
 30
0.0
 41
14.0
 42
14.0
 43
14.0
  0
MTEXT
  5
3B5C1
330
39AF9
100
AcDbEntity
  8
SUNPOU
  6
Continuous
 62
     4
100
AcDbMText
 10
30386.59080865723
 20
-4165.502582762978
 30
0.0
 40
12.0
 41
0.0
 71
     5
 72
     1
  1
\A1;80
 73
     1
 44
1.0
1001
ACAD
1000
MTEXTBEGIN
1070
    73
1070
     1
1070
    44
1040
1.0
1070
    74
1070
     0
1000
MTEXTEND
  0
POINT
  5
3B5C2
330
39AF9
100
AcDbEntity
  8
Defpoints
  6
Continuous
 62
     0
100
AcDbPoint
 10
30346.59080865723
 20
-4101.796434985706
 30
0.0
  0
POINT
  5
3B5C3
330
39AF9
100
AcDbEntity
  8
Defpoints
  6
Continuous
 62
     0
100
AcDbPoint
 10
30426.59080865723
 20
-4101.796434985707
 30
0.0
  0
POINT
  5
3B5C4
330
39AF9
100
AcDbEntity
  8
Defpoints
  6
Continuous
 62
     0
100
AcDbPoint
 10
30426.59080865723
 20
-4175.502582762978
 30
0.0
  0
ENDBLK
  5
39B04
330
39AF9
100
AcDbEntity
  8
0
370
    30
100
AcDbBlockEnd
  0
BLOCK
  5
39B0F
330
39B05
100
AcDbEntity
  8
0
370
    30
100
AcDbBlockBegin
  2
*D10
 70
     1
 10
0.0
 20
0.0
 30
0.0
  3
*D10
  1

  0
LINE
  5
3B5C5
330
39B05
100
AcDbEntity
  8
SUNPOU
  6
Continuous
 62
     4
370
    -2
100
AcDbLine
 10
30266.59080865722
 20
-4113.796434985705
 30
0.0
 11
30266.59080865722
 21
-4181.502582762978
 31
0.0
  0
LINE
  5
3B5C6
330
39B05
100
AcDbEntity
  8
SUNPOU
  6
Continuous
 62
     4
370
    -2
100
AcDbLine
 10
30346.59080865723
 20
-4113.796434985705
 30
0.0
 11
30346.59080865723
 21
-4181.502582762978
 31
0.0
  0
LINE
  5
3B5C7
330
39B05
100
AcDbEntity
  8
SUNPOU
  6
Continuous
 62
     4
370
    -2
100
AcDbLine
 10
30280.59080865722
 20
-4175.502582762978
 30
0.0
 11
30332.59080865723
 21
-4175.502582762978
 31
0.0
  0
INSERT
  5
3B5C8
330
39B05
100
AcDbEntity
  8
SUNPOU
  6
Continuous
 62
     4
370
    -2
100
AcDbBlockReference
  2
_OPEN
 10
30266.59080865722
 20
-4175.502582762978
 30
0.0
 41
14.0
 42
14.0
 43
14.0
 50
180.0
  0
INSERT
  5
3B5C9
330
39B05
100
AcDbEntity
  8
SUNPOU
  6
Continuous
 62
     4
370
    -2
100
AcDbBlockReference
  2
_OPEN
 10
30346.59080865723
 20
-4175.502582762978
 30
0.0
 41
14.0
 42
14.0
 43
14.0
  0
MTEXT
  5
3B5CA
330
39B05
100
AcDbEntity
  8
SUNPOU
  6
Continuous
 62
     4
100
AcDbMText
 10
30306.59080865722
 20
-4165.502582762978
 30
0.0
 40
12.0
 41
0.0
 71
     5
 72
     1
  1
\A1;80
 73
     1
 44
1.0
1001
ACAD
1000
MTEXTBEGIN
1070
    73
1070
     1
1070
    44
1040
1.0
1070
    74
1070
     0
1000
MTEXTEND
  0
POINT
  5
3B5CB
330
39B05
100
AcDbEntity
  8
Defpoints
  6
Continuous
 62
     0
100
AcDbPoint
 10
30266.59080865722
 20
-4101.796434985706
 30
0.0
  0
POINT
  5
3B5CC
330
39B05
100
AcDbEntity
  8
Defpoints
  6
Continuous
 62
     0
100
AcDbPoint
 10
30346.59080865723
 20
-4101.796434985706
 30
0.0
  0
POINT
  5
3B5CD
330
39B05
100
AcDbEntity
  8
Defpoints
  6
Continuous
 62
     0
100
AcDbPoint
 10
30346.59080865723
 20
-4175.502582762978
 30
0.0
  0
ENDBLK
  5
39B10
330
39B05
100
AcDbEntity
  8
0
370
    30
100
AcDbBlockEnd
  0
BLOCK
  5
39B1D
330
39B11
100
AcDbEntity
  8
0
370
    30
100
AcDbBlockBegin
  2
*D11
 70
     1
 10
0.0
 20
0.0
 30
0.0
  3
*D11
  1

  0
LINE
  5
3B5E2
330
39B11
100
AcDbEntity
  8
SUNPOU
  6
Continuous
 62
     4
370
    -2
100
AcDbLine
 10
30250.84080865723
 20
-4098.046434985706
 30
0.0
 11
30221.76772379089
 21
-4098.046434985706
 31
0.0
  0
LINE
  5
3B5E3
330
39B11
100
AcDbEntity
  8
SUNPOU
  6
Continuous
 62
     4
370
    -2
100
AcDbLine
 10
30250.84080865723
 20
-4113.046434985705
 30
0.0
 11
30221.76772379089
 21
-4113.046434985705
 31
0.0
  0
LINE
  5
3B5E4
330
39B11
100
AcDbEntity
  8
SUNPOU
  6
Continuous
 62
     4
370
    -2
100
AcDbLine
 10
30227.76772379089
 20
-4084.046434985706
 30
0.0
 11
30227.76772379089
 21
-4070.046434985706
 31
0.0
  0
LINE
  5
3B5E5
330
39B11
100
AcDbEntity
  8
SUNPOU
  6
Continuous
 62
     4
370
    -2
100
AcDbLine
 10
30227.76772379089
 20
-4127.046434985706
 30
0.0
 11
30227.76772379089
 21
-4165.046434985706
 31
0.0
  0
LINE
  5
3B5E6
330
39B11
100
AcDbEntity
  8
SUNPOU
  6
Continuous
 62
     4
370
    -2
100
AcDbLine
 10
30227.76772379089
 20
-4098.046434985706
 30
0.0
 11
30227.76772379089
 21
-4113.046434985705
 31
0.0
  0
INSERT
  5
3B5E7
330
39B11
100
AcDbEntity
  8
SUNPOU
  6
Continuous
 62
     4
370
    -2
100
AcDbBlockReference
  2
_OPEN
 10
30227.76772379089
 20
-4098.046434985706
 30
0.0
 41
14.0
 42
14.0
 43
14.0
 50
270.0
  0
INSERT
  5
3B5E8
330
39B11
100
AcDbEntity
  8
SUNPOU
  6
Continuous
 62
     4
370
    -2
100
AcDbBlockReference
  2
_OPEN
 10
30227.76772379089
 20
-4113.046434985705
 30
0.0
 41
14.0
 42
14.0
 43
14.0
 50
90.0
  0
MTEXT
  5
3B5E9
330
39B11
100
AcDbEntity
  8
SUNPOU
  6
Continuous
 62
     4
100
AcDbMText
 10
30217.7677237909
 20
-4153.046434985701
 30
0.0
 40
12.0
 41
0.0
 71
     5
 72
     1
  1
\A1;15
 11
0.0000000000000001
 21
1.0
 31
0.0
 73
     1
 44
1.0
1001
ACAD
1000
MTEXTBEGIN
1070
    73
1070
     1
1070
    44
1040
1.0
1070
    74
1070
     0
1000
MTEXTEND
  0
POINT
  5
3B5EA
330
39B11
100
AcDbEntity
  8
Defpoints
  6
Continuous
 62
     0
100
AcDbPoint
 10
30262.84080865722
 20
-4098.046434985706
 30
0.0
  0
POINT
  5
3B5EB
330
39B11
100
AcDbEntity
  8
Defpoints
  6
Continuous
 62
     0
100
AcDbPoint
 10
30262.84080865722
 20
-4113.046434985705
 30
0.0
  0
POINT
  5
3B5EC
330
39B11
100
AcDbEntity
  8
Defpoints
  6
Continuous
 62
     0
100
AcDbPoint
 10
30227.76772379089
 20
-4113.046434985705
 30
0.0
  0
ENDBLK
  5
39B1E
330
39B11
100
AcDbEntity
  8
0
370
    30
100
AcDbBlockEnd
  0
BLOCK
  5
39B34
330
39B2A
100
AcDbEntity
  8
0
370
    30
100
AcDbBlockBegin
  2
*D12
 70
     1
 10
0.0
 20
0.0
 30
0.0
  3
*D12
  1

  0
LINE
  5
3B5ED
330
39B2A
100
AcDbEntity
  8
SUNPOU
  6
Continuous
 62
     4
370
    -2
100
AcDbLine
 10
30810.15577725165
 20
-4111.746434985706
 30
0.0
 11
30842.25463846069
 21
-4111.746434985706
 31
0.0
  0
LINE
  5
3B5EE
330
39B2A
100
AcDbEntity
  8
SUNPOU
  6
Continuous
 62
     4
370
    -2
100
AcDbLine
 10
30809.85577725165
 20
-3961.746434985706
 30
0.0
 11
30842.25463846069
 21
-3961.746434985706
 31
0.0
  0
LINE
  5
3B5EF
330
39B2A
100
AcDbEntity
  8
SUNPOU
  6
Continuous
 62
     4
370
    -2
100
AcDbLine
 10
30836.25463846069
 20
-4097.746434985706
 30
0.0
 11
30836.25463846069
 21
-3975.746434985705
 31
0.0
  0
INSERT
  5
3B5F0
330
39B2A
100
AcDbEntity
  8
SUNPOU
  6
Continuous
 62
     4
370
    -2
100
AcDbBlockReference
  2
_OPEN
 10
30836.25463846069
 20
-4111.746434985706
 30
0.0
 41
14.0
 42
14.0
 43
14.0
 50
270.0
  0
INSERT
  5
3B5F1
330
39B2A
100
AcDbEntity
  8
SUNPOU
  6
Continuous
 62
     4
370
    -2
100
AcDbBlockReference
  2
_OPEN
 10
30836.25463846069
 20
-3961.746434985706
 30
0.0
 41
14.0
 42
14.0
 43
14.0
 50
90.0
  0
MTEXT
  5
3B5F2
330
39B2A
100
AcDbEntity
  8
SUNPOU
  6
Continuous
 62
     4
100
AcDbMText
 10
30826.25463846069
 20
-4036.7464349857
 30
0.0
 40
12.0
 41
0.0
 71
     5
 72
     1
  1
\A1;150
 11
0.0000000000000001
 21
1.0
 31
0.0
 73
     1
 44
1.0
1001
ACAD
1000
MTEXTBEGIN
1070
    73
1070
     1
1070
    44
1040
1.0
1070
    74
1070
     0
1000
MTEXTEND
  0
POINT
  5
3B5F3
330
39B2A
100
AcDbEntity
  8
Defpoints
  6
Continuous
 62
     0
100
AcDbPoint
 10
30798.15577725165
 20
-4111.746434985706
 30
0.0
  0
POINT
  5
3B5F4
330
39B2A
100
AcDbEntity
  8
Defpoints
  6
Continuous
 62
     0
100
AcDbPoint
 10
30797.85577725165
 20
-3961.746434985706
 30
0.0
  0
POINT
  5
3B5F5
330
39B2A
100
AcDbEntity
  8
Defpoints
  6
Continuous
 62
     0
100
AcDbPoint
 10
30836.25463846069
 20
-3961.746434985706
 30
0.0
  0
ENDBLK
  5
39B35
330
39B2A
100
AcDbEntity
  8
0
370
    30
100
AcDbBlockEnd
  0
BLOCK
  5
3B2C3
330
3B2C2
100
AcDbEntity
  8
0
370
    30
100
AcDbBlockBegin
  2
*D14
 70
     1
 10
0.0
 20
0.0
 30
0.0
  3
*D14
  1

  0
LINE
  5
3B2C4
330
3B2C2
100
AcDbEntity
  8
SUNPOU
  6
Continuous
 62
     4
370
    -2
100
AcDbLine
 10
30515.56083044387
 20
-3922.046434985706
 30
0.0
 11
30556.98681440308
 21
-3922.046434985706
 31
0.0
  0
LINE
  5
3B2C5
330
3B2C2
100
AcDbEntity
  8
SUNPOU
  6
Continuous
 62
     4
370
    -2
100
AcDbLine
 10
30515.56083044387
 20
-4154.046434985706
 30
0.0
 11
30556.98681440308
 21
-4154.046434985706
 31
0.0
  0
LINE
  5
3B2C6
330
3B2C2
100
AcDbEntity
  8
SUNPOU
  6
Continuous
 62
     4
370
    -2
100
AcDbLine
 10
30550.98681440308
 20
-3936.046434985706
 30
0.0
 11
30550.98681440308
 21
-4140.046434985706
 31
0.0
  0
INSERT
  5
3B2C7
330
3B2C2
100
AcDbEntity
  8
SUNPOU
  6
Continuous
 62
     4
370
    -2
100
AcDbBlockReference
  2
_OPEN
 10
30550.98681440308
 20
-3922.046434985706
 30
0.0
 41
14.0
 42
14.0
 43
14.0
 50
90.0
  0
INSERT
  5
3B2C8
330
3B2C2
100
AcDbEntity
  8
SUNPOU
  6
Continuous
 62
     4
370
    -2
100
AcDbBlockReference
  2
_OPEN
 10
30550.98681440308
 20
-4154.046434985706
 30
0.0
 41
14.0
 42
14.0
 43
14.0
 50
270.0
  0
MTEXT
  5
3B2C9
330
3B2C2
100
AcDbEntity
  8
SUNPOU
  6
Continuous
 62
     4
100
AcDbMText
 10
30540.98681440308
 20
-4038.046434985701
 30
0.0
 40
12.0
 41
0.0
 71
     5
 72
     1
  1
\A1;232
 11
0.0000000000000001
 21
1.0
 31
0.0
 73
     1
 44
1.0
1001
ACAD
1000
MTEXTBEGIN
1070
    73
1070
     1
1070
    44
1040
1.0
1070
    74
1070
     0
1000
MTEXTEND
  0
POINT
  5
3B2CA
330
3B2C2
100
AcDbEntity
  8
Defpoints
  6
Continuous
 62
     0
370
    30
100
AcDbPoint
 10
30503.56083044387
 20
-3922.046434985706
 30
0.0
  0
POINT
  5
3B2CB
330
3B2C2
100
AcDbEntity
  8
Defpoints
  6
Continuous
 62
     0
370
    30
100
AcDbPoint
 10
30503.56083044387
 20
-4154.046434985706
 30
0.0
  0
POINT
  5
3B2CC
330
3B2C2
100
AcDbEntity
  8
Defpoints
  6
Continuous
 62
     0
370
    30
100
AcDbPoint
 10
30550.98681440308
 20
-4154.046434985706
 30
0.0
  0
ENDBLK
  5
3B2CD
330
3B2C2
100
AcDbEntity
  8
0
370
    30
100
AcDbBlockEnd
  0
BLOCK
  5
3B2CF
330
3B2CE
100
AcDbEntity
  8
0
370
    30
100
AcDbBlockBegin
  2
*D15
 70
     1
 10
0.0
 20
0.0
 30
0.0
  3
*D15
  1

  0
LINE
  5
3B2D0
330
3B2CE
100
AcDbEntity
  8
SUNPOU
  6
Continuous
 62
     4
370
    -2
100
AcDbLine
 10
30346.59080865723
 20
-4112.496434985704
 30
0.0
 11
30346.59080865723
 21
-4180.202582762977
 31
0.0
  0
LINE
  5
3B2D1
330
3B2CE
100
AcDbEntity
  8
SUNPOU
  6
Continuous
 62
     4
370
    -2
100
AcDbLine
 10
30426.59080865723
 20
-4112.496434985706
 30
0.0
 11
30426.59080865723
 21
-4180.202582762977
 31
0.0
  0
LINE
  5
3B2D2
330
3B2CE
100
AcDbEntity
  8
SUNPOU
  6
Continuous
 62
     4
370
    -2
100
AcDbLine
 10
30360.59080865722
 20
-4174.202582762978
 30
0.0
 11
30412.59080865723
 21
-4174.202582762978
 31
0.0
  0
INSERT
  5
3B2D3
330
3B2CE
100
AcDbEntity
  8
SUNPOU
  6
Continuous
 62
     4
370
    -2
100
AcDbBlockReference
  2
_OPEN
 10
30346.59080865723
 20
-4174.202582762978
 30
0.0
 41
14.0
 42
14.0
 43
14.0
 50
180.0
  0
INSERT
  5
3B2D4
330
3B2CE
100
AcDbEntity
  8
SUNPOU
  6
Continuous
 62
     4
370
    -2
100
AcDbBlockReference
  2
_OPEN
 10
30426.59080865723
 20
-4174.202582762978
 30
0.0
 41
14.0
 42
14.0
 43
14.0
  0
MTEXT
  5
3B2D5
330
3B2CE
100
AcDbEntity
  8
SUNPOU
  6
Continuous
 62
     4
100
AcDbMText
 10
30386.59080865723
 20
-4164.202582762977
 30
0.0
 40
12.0
 41
0.0
 71
     5
 72
     1
  1
\A1;80
 73
     1
 44
1.0
1001
ACAD
1000
MTEXTBEGIN
1070
    73
1070
     1
1070
    44
1040
1.0
1070
    74
1070
     0
1000
MTEXTEND
  0
POINT
  5
3B2D6
330
3B2CE
100
AcDbEntity
  8
Defpoints
  6
Continuous
 62
     0
370
    30
100
AcDbPoint
 10
30346.59080865723
 20
-4100.496434985704
 30
0.0
  0
POINT
  5
3B2D7
330
3B2CE
100
AcDbEntity
  8
Defpoints
  6
Continuous
 62
     0
370
    30
100
AcDbPoint
 10
30426.59080865723
 20
-4100.496434985705
 30
0.0
  0
POINT
  5
3B2D8
330
3B2CE
100
AcDbEntity
  8
Defpoints
  6
Continuous
 62
     0
370
    30
100
AcDbPoint
 10
30426.59080865723
 20
-4174.202582762978
 30
0.0
  0
ENDBLK
  5
3B2D9
330
3B2CE
100
AcDbEntity
  8
0
370
    30
100
AcDbBlockEnd
  0
BLOCK
  5
3B2DB
330
3B2DA
100
AcDbEntity
  8
0
370
    30
100
AcDbBlockBegin
  2
*D16
 70
     1
 10
0.0
 20
0.0
 30
0.0
  3
*D16
  1

  0
LINE
  5
3B2DC
330
3B2DA
100
AcDbEntity
  8
SUNPOU
  6
Continuous
 62
     4
370
    -2
100
AcDbLine
 10
30266.59080865722
 20
-4112.496434985704
 30
0.0
 11
30266.59080865722
 21
-4180.202582762977
 31
0.0
  0
LINE
  5
3B2DD
330
3B2DA
100
AcDbEntity
  8
SUNPOU
  6
Continuous
 62
     4
370
    -2
100
AcDbLine
 10
30346.59080865723
 20
-4112.496434985704
 30
0.0
 11
30346.59080865723
 21
-4180.202582762977
 31
0.0
  0
LINE
  5
3B2DE
330
3B2DA
100
AcDbEntity
  8
SUNPOU
  6
Continuous
 62
     4
370
    -2
100
AcDbLine
 10
30280.59080865722
 20
-4174.202582762978
 30
0.0
 11
30332.59080865723
 21
-4174.202582762978
 31
0.0
  0
INSERT
  5
3B2DF
330
3B2DA
100
AcDbEntity
  8
SUNPOU
  6
Continuous
 62
     4
370
    -2
100
AcDbBlockReference
  2
_OPEN
 10
30266.59080865722
 20
-4174.202582762978
 30
0.0
 41
14.0
 42
14.0
 43
14.0
 50
180.0
  0
INSERT
  5
3B2E0
330
3B2DA
100
AcDbEntity
  8
SUNPOU
  6
Continuous
 62
     4
370
    -2
100
AcDbBlockReference
  2
_OPEN
 10
30346.59080865723
 20
-4174.202582762978
 30
0.0
 41
14.0
 42
14.0
 43
14.0
  0
MTEXT
  5
3B2E1
330
3B2DA
100
AcDbEntity
  8
SUNPOU
  6
Continuous
 62
     4
100
AcDbMText
 10
30306.59080865722
 20
-4164.202582762977
 30
0.0
 40
12.0
 41
0.0
 71
     5
 72
     1
  1
\A1;80
 73
     1
 44
1.0
1001
ACAD
1000
MTEXTBEGIN
1070
    73
1070
     1
1070
    44
1040
1.0
1070
    74
1070
     0
1000
MTEXTEND
  0
POINT
  5
3B2E2
330
3B2DA
100
AcDbEntity
  8
Defpoints
  6
Continuous
 62
     0
370
    30
100
AcDbPoint
 10
30266.59080865722
 20
-4100.496434985704
 30
0.0
  0
POINT
  5
3B2E3
330
3B2DA
100
AcDbEntity
  8
Defpoints
  6
Continuous
 62
     0
370
    30
100
AcDbPoint
 10
30346.59080865723
 20
-4100.496434985704
 30
0.0
  0
POINT
  5
3B2E4
330
3B2DA
100
AcDbEntity
  8
Defpoints
  6
Continuous
 62
     0
370
    30
100
AcDbPoint
 10
30346.59080865723
 20
-4174.202582762978
 30
0.0
  0
ENDBLK
  5
3B2E5
330
3B2DA
100
AcDbEntity
  8
0
370
    30
100
AcDbBlockEnd
  0
BLOCK
  5
3B2E7
330
3B2E6
100
AcDbEntity
  8
0
370
    30
100
AcDbBlockBegin
  2
*D17
 70
     1
 10
0.0
 20
0.0
 30
0.0
  3
*D17
  1

  0
LINE
  5
3B2E8
330
3B2E6
100
AcDbEntity
  8
SUNPOU
  6
Continuous
 62
     4
370
    -2
100
AcDbLine
 10
30250.84080865723
 20
-4096.746434985704
 30
0.0
 11
30216.11028973712
 21
-4096.746434985704
 31
0.0
  0
LINE
  5
3B2E9
330
3B2E6
100
AcDbEntity
  8
SUNPOU
  6
Continuous
 62
     4
370
    -2
100
AcDbLine
 10
30250.84080865723
 20
-4111.746434985704
 30
0.0
 11
30216.11028973712
 21
-4111.746434985704
 31
0.0
  0
LINE
  5
3B2EA
330
3B2E6
100
AcDbEntity
  8
SUNPOU
  6
Continuous
 62
     4
370
    -2
100
AcDbLine
 10
30222.11028973713
 20
-4082.746434985705
 30
0.0
 11
30222.11028973713
 21
-4068.746434985705
 31
0.0
  0
LINE
  5
3B2EB
330
3B2E6
100
AcDbEntity
  8
SUNPOU
  6
Continuous
 62
     4
370
    -2
100
AcDbLine
 10
30222.11028973713
 20
-4125.746434985704
 30
0.0
 11
30222.11028973713
 21
-4163.746434985704
 31
0.0
  0
LINE
  5
3B2EC
330
3B2E6
100
AcDbEntity
  8
SUNPOU
  6
Continuous
 62
     4
370
    -2
100
AcDbLine
 10
30222.11028973713
 20
-4096.746434985704
 30
0.0
 11
30222.11028973713
 21
-4111.746434985704
 31
0.0
  0
INSERT
  5
3B2ED
330
3B2E6
100
AcDbEntity
  8
SUNPOU
  6
Continuous
 62
     4
370
    -2
100
AcDbBlockReference
  2
_OPEN
 10
30222.11028973713
 20
-4096.746434985704
 30
0.0
 41
14.0
 42
14.0
 43
14.0
 50
270.0
  0
INSERT
  5
3B2EE
330
3B2E6
100
AcDbEntity
  8
SUNPOU
  6
Continuous
 62
     4
370
    -2
100
AcDbBlockReference
  2
_OPEN
 10
30222.11028973713
 20
-4111.746434985704
 30
0.0
 41
14.0
 42
14.0
 43
14.0
 50
90.0
  0
MTEXT
  5
3B2EF
330
3B2E6
100
AcDbEntity
  8
SUNPOU
  6
Continuous
 62
     4
100
AcDbMText
 10
30212.11028973712
 20
-4151.7464349857
 30
0.0
 40
12.0
 41
0.0
 71
     5
 72
     1
  1
\A1;15
 11
0.0000000000000001
 21
1.0
 31
0.0
 73
     1
 44
1.0
1001
ACAD
1000
MTEXTBEGIN
1070
    73
1070
     1
1070
    44
1040
1.0
1070
    74
1070
     0
1000
MTEXTEND
  0
POINT
  5
3B2F0
330
3B2E6
100
AcDbEntity
  8
Defpoints
  6
Continuous
 62
     0
370
    30
100
AcDbPoint
 10
30262.84080865722
 20
-4096.746434985704
 30
0.0
  0
POINT
  5
3B2F1
330
3B2E6
100
AcDbEntity
  8
Defpoints
  6
Continuous
 62
     0
370
    30
100
AcDbPoint
 10
30262.84080865722
 20
-4111.746434985704
 30
0.0
  0
POINT
  5
3B2F2
330
3B2E6
100
AcDbEntity
  8
Defpoints
  6
Continuous
 62
     0
370
    30
100
AcDbPoint
 10
30222.11028973713
 20
-4111.746434985704
 30
0.0
  0
ENDBLK
  5
3B2F3
330
3B2E6
100
AcDbEntity
  8
0
370
    30
100
AcDbBlockEnd
  0
BLOCK
  5
3B2F5
330
3B2F4
100
AcDbEntity
  8
0
370
    30
100
AcDbBlockBegin
  2
*D18
 70
     1
 10
0.0
 20
0.0
 30
0.0
  3
*D18
  1

  0
LINE
  5
3B2F6
330
3B2F4
100
AcDbEntity
  8
SUNPOU
  6
Continuous
 62
     4
370
    -2
100
AcDbLine
 10
30810.15577725165
 20
-4111.746434985706
 30
0.0
 11
30842.25463846069
 21
-4111.746434985706
 31
0.0
  0
LINE
  5
3B2F7
330
3B2F4
100
AcDbEntity
  8
SUNPOU
  6
Continuous
 62
     4
370
    -2
100
AcDbLine
 10
30809.85577725165
 20
-3961.746434985706
 30
0.0
 11
30842.25463846069
 21
-3961.746434985706
 31
0.0
  0
LINE
  5
3B2F8
330
3B2F4
100
AcDbEntity
  8
SUNPOU
  6
Continuous
 62
     4
370
    -2
100
AcDbLine
 10
30836.25463846069
 20
-4097.746434985706
 30
0.0
 11
30836.25463846069
 21
-3975.746434985705
 31
0.0
  0
INSERT
  5
3B2F9
330
3B2F4
100
AcDbEntity
  8
SUNPOU
  6
Continuous
 62
     4
370
    -2
100
AcDbBlockReference
  2
_OPEN
 10
30836.25463846069
 20
-4111.746434985706
 30
0.0
 41
14.0
 42
14.0
 43
14.0
 50
270.0
  0
INSERT
  5
3B2FA
330
3B2F4
100
AcDbEntity
  8
SUNPOU
  6
Continuous
 62
     4
370
    -2
100
AcDbBlockReference
  2
_OPEN
 10
30836.25463846069
 20
-3961.746434985706
 30
0.0
 41
14.0
 42
14.0
 43
14.0
 50
90.0
  0
MTEXT
  5
3B2FB
330
3B2F4
100
AcDbEntity
  8
SUNPOU
  6
Continuous
 62
     4
100
AcDbMText
 10
30826.25463846069
 20
-4036.7464349857
 30
0.0
 40
12.0
 41
0.0
 71
     5
 72
     1
  1
\A1;150
 11
0.0000000000000001
 21
1.0
 31
0.0
 73
     1
 44
1.0
1001
ACAD
1000
MTEXTBEGIN
1070
    73
1070
     1
1070
    44
1040
1.0
1070
    74
1070
     0
1000
MTEXTEND
  0
POINT
  5
3B2FC
330
3B2F4
100
AcDbEntity
  8
Defpoints
  6
Continuous
 62
     0
370
    30
100
AcDbPoint
 10
30798.15577725165
 20
-4111.746434985706
 30
0.0
  0
POINT
  5
3B2FD
330
3B2F4
100
AcDbEntity
  8
Defpoints
  6
Continuous
 62
     0
370
    30
100
AcDbPoint
 10
30797.85577725165
 20
-3961.746434985706
 30
0.0
  0
POINT
  5
3B2FE
330
3B2F4
100
AcDbEntity
  8
Defpoints
  6
Continuous
 62
     0
370
    30
100
AcDbPoint
 10
30836.25463846069
 20
-3961.746434985706
 30
0.0
  0
ENDBLK
  5
3B2FF
330
3B2F4
100
AcDbEntity
  8
0
370
    30
100
AcDbBlockEnd
  0
BLOCK
  5
3B360
330
3B300
100
AcDbEntity
  8
0
370
    30
100
AcDbBlockBegin
  2
A$C28DD2CC1
 70
     0
 10
0.0
 20
0.0
 30
0.0
  3
A$C28DD2CC1
  1

  0
LINE
  5
3B301
330
3B300
100
AcDbEntity
  8
CENTER L
  6
CENTER
 62
     1
 48
5.0
100
AcDbLine
 10
611.2310649050741
 20
143.4561515821242
 30
0.0
 11
559.8651789760842
 21
143.4561515821278
 31
0.0
  0
ARC
  5
3B302
330
3B300
100
AcDbEntity
  8
SEIHIN
  6
Continuous
 62
     3
100
AcDbCircle
 10
571.969142003596
 20
28.96865158212313
 30
0.0
 40
2.820821024098846
100
AcDbArc
 50
176.1887389505595
 51
265.5980503478425
  0
LINE
  5
3B303
330
3B300
100
AcDbEntity
  8
SEIHIN
  6
Continuous
 62
     3
100
AcDbLine
 10
569.1545594413037
 20
255.1561515821286
 30
0.0
 11
569.1545594412964
 21
29.15615158212859
 31
0.0
  0
ARC
  5
3B304
330
3B300
100
AcDbEntity
  8
SEIHIN
  6
Continuous
 62
     3
100
AcDbCircle
 10
571.969142003607
 20
255.3436515821231
 30
0.0
 40
2.820821024099398
100
AcDbArc
 50
94.4019496521575
 51
183.8112610494404
  0
LINE
  5
3B305
330
3B300
100
AcDbEntity
  8
SEIHIN
  6
Continuous
 62
     3
100
AcDbLine
 10
598.0798079277665
 20
258.1561515821249
 30
0.0
 11
571.7526356526577
 21
258.1561515821286
 31
0.0
  0
LINE
  5
3B306
330
3B300
100
AcDbEntity
  8
SEIHIN
  6
Continuous
 62
     3
100
AcDbLine
 10
600.877884139114
 20
69.75615158212349
 30
0.0
 11
600.877884139114
 21
217.1561515821213
 31
0.0
  0
LINE
  5
3B307
330
3B300
100
AcDbEntity
  8
SEIHIN
  6
Continuous
 62
     3
100
AcDbLine
 10
598.0798079277592
 20
26.15615158212495
 30
0.0
 11
571.7526356526504
 21
26.15615158212859
 31
0.0
  0
ARC
  5
3B308
330
3B300
100
AcDbEntity
  8
SEIHIN
  6
Continuous
 62
     3
100
AcDbCircle
 10
626.8278841391147
 20
69.95615158211876
 30
0.0
 40
1.500000000000227
100
AcDbArc
 50
270.0
 51
0.0
  0
LINE
  5
3B309
330
3B300
100
AcDbEntity
  8
SEIHIN
  6
Continuous
 62
     3
100
AcDbLine
 10
604.826711356538
 20
68.45615158212422
 30
0.0
 11
626.8278841391147
 21
68.45615158212422
 31
0.0
  0
SPLINE
  5
3B30A
330
3B300
100
AcDbEntity
  8
SEIHIN
  6
Continuous
 62
     3
100
AcDbSpline
210
0.0
220
0.0
230
1.0
 70
     8
 71
     3
 72
    14
 73
    10
 74
     0
 42
0.0000000001
 43
0.0000000001
 40
0.0
 40
0.0
 40
0.0
 40
0.0
 40
0.25
 40
0.25
 40
0.5
 40
0.5
 40
0.75
 40
0.75
 40
1.0
 40
1.0
 40
1.0
 40
1.0
 10
603.3386653852285
 20
69.75615158212349
 30
0.0
 10
603.3629099779573
 20
69.57632860243575
 30
0.0
 10
603.4180184653087
 20
69.40662165201683
 30
0.0
 10
603.5896183554796
 20
69.08732677300759
 30
0.0
 10
603.7019641251572
 20
68.94644638129284
 30
0.0
 10
603.974452291779
 20
68.70824747446568
 30
0.0
 10
604.1297608358618
 20
68.61550958619591
 30
0.0
 10
604.4675159945182
 20
68.48863402235474
 30
0.0
 10
604.645267174852
 20
68.45615158212422
 30
0.0
 10
604.826711356538
 20
68.45615158212422
 30
0.0
  0
LINE
  5
3B30B
330
3B300
100
AcDbEntity
  8
SEIHIN
  6
Continuous
 62
     3
100
AcDbLine
 10
604.6266174881311
 20
69.75615158212349
 30
0.0
 11
604.6266174881311
 21
70.2561515821235
 31
0.0
  0
SPLINE
  5
3B30C
330
3B300
100
AcDbEntity
  8
SEIHIN
  6
Continuous
 62
     3
100
AcDbSpline
210
0.0
220
0.0
230
1.0
 70
     8
 71
     3
 72
    10
 73
     6
 74
     0
 42
0.0000000001
 43
0.0000000001
 40
0.0
 40
0.0
 40
0.0
 40
0.0
 40
0.4999999999999999
 40
0.4999999999999999
 40
1.0
 40
1.0
 40
1.0
 40
1.0
 10
605.126828678367
 20
69.75615158212349
 30
0.0
 10
604.9947474403161
 20
69.75615158212349
 30
0.0
 10
604.8655847811751
 20
69.81027264069599
 30
0.0
 10
604.6810026706298
 20
69.99460502436886
 30
0.0
 10
604.6266174881311
 20
70.12406885968994
 30
0.0
 10
604.6266174881311
 20
70.2561515821235
 30
0.0
  0
LINE
  5
3B30D
330
3B300
100
AcDbEntity
  8
SEIHIN
  6
Continuous
 62
     3
100
AcDbLine
 10
626.5278841391155
 20
69.75615158212349
 30
0.0
 11
605.126828678367
 21
69.75615158212349
 31
0.0
  0
ARC
  5
3B30E
330
3B300
100
AcDbEntity
  8
SEIHIN
  6
Continuous
 62
     3
100
AcDbCircle
 10
626.5278841391191
 20
70.25615158211803
 30
0.0
 40
0.5
100
AcDbArc
 50
270.0
 51
0.0
  0
LINE
  5
3B30F
330
3B300
100
AcDbEntity
  8
SEIHIN
  6
Continuous
 62
     3
100
AcDbLine
 10
627.0278841391155
 20
86.7561515821235
 30
0.0
 11
627.0278841391155
 21
70.2561515821235
 31
0.0
  0
LINE
  5
3B310
330
3B300
100
AcDbEntity
  8
SEIHIN
  6
Continuous
 62
     3
100
AcDbLine
 10
628.3278841391148
 20
69.95615158212422
 30
0.0
 11
628.3278841391148
 21
86.7561515821235
 31
0.0
  0
ARC
  5
3B311
330
3B300
100
AcDbEntity
  8
SEIHIN
  6
Continuous
 62
     3
100
AcDbCircle
 10
626.5278841391155
 20
216.6561515821158
 30
0.0
 40
0.5
100
AcDbArc
 50
0.0
 51
90.0
  0
LINE
  5
3B312
330
3B300
100
AcDbEntity
  8
SEIHIN
  6
Continuous
 62
     3
100
AcDbLine
 10
605.126828678367
 20
217.1561515821213
 30
0.0
 11
626.5278841391155
 21
217.1561515821213
 31
0.0
  0
SPLINE
  5
3B313
330
3B300
100
AcDbEntity
  8
SEIHIN
  6
Continuous
 62
     3
100
AcDbSpline
210
0.0
220
0.0
230
1.0
 70
     8
 71
     3
 72
    10
 73
     6
 74
     0
 42
0.0000000001
 43
0.0000000001
 40
0.0
 40
0.0
 40
0.0
 40
0.0
 40
0.4999999999999999
 40
0.4999999999999999
 40
1.0
 40
1.0
 40
1.0
 40
1.0
 10
604.6266174881311
 20
216.6561515821213
 30
0.0
 10
604.6266174881311
 20
216.7882333413927
 30
0.0
 10
604.6808189943185
 20
216.917382875612
 30
0.0
 10
604.8652630956712
 20
217.1018407491265
 30
0.0
 10
604.9947484862786
 20
217.1561515821213
 30
0.0
 10
605.126828678367
 20
217.1561515821213
 30
0.0
  0
LINE
  5
3B314
330
3B300
100
AcDbEntity
  8
SEIHIN
  6
Continuous
 62
     3
100
AcDbLine
 10
604.6266174881311
 20
216.6561515821213
 30
0.0
 11
604.6266174881311
 21
217.1561515821213
 31
0.0
  0
SPLINE
  5
3B315
330
3B300
100
AcDbEntity
  8
SEIHIN
  6
Continuous
 62
     3
100
AcDbSpline
210
0.0
220
0.0
230
1.0
 70
     8
 71
     3
 72
    12
 73
     8
 74
     0
 42
0.0000000001
 43
0.0000000001
 40
0.0
 40
0.0
 40
0.0
 40
0.0
 40
0.2499999999999937
 40
0.2499999999999937
 40
0.4999999999999874
 40
0.4999999999999874
 40
1.0
 40
1.0
 40
1.0
 40
1.0
 10
604.826711356538
 20
218.4561515821242
 30
0.0
 10
604.6453671477575
 20
218.4561515821242
 30
0.0
 10
604.4683059642193
 20
218.4239015476869
 30
0.0
 10
604.1299069220731
 20
218.2969126179287
 30
0.0
 10
603.974555604007
 20
218.2040142347741
 30
0.0
 10
603.5673776645999
 20
217.8484689912639
 30
0.0
 10
603.3871274496123
 20
217.5155963835696
 30
0.0
 10
603.3386653852285
 20
217.1561515821213
 30
0.0
  0
LINE
  5
3B316
330
3B300
100
AcDbEntity
  8
SEIHIN
  6
Continuous
 62
     3
100
AcDbLine
 10
626.8278841391147
 20
218.4561515821242
 30
0.0
 11
604.826711356538
 21
218.4561515821242
 31
0.0
  0
ARC
  5
3B317
330
3B300
100
AcDbEntity
  8
SEIHIN
  6
Continuous
 62
     3
100
AcDbCircle
 10
626.8278841391147
 20
216.9561515821188
 30
0.0
 40
1.5
100
AcDbArc
 50
0.0
 51
90.0
  0
LINE
  5
3B318
330
3B300
100
AcDbEntity
  8
SEIHIN
  6
Continuous
 62
     3
100
AcDbLine
 10
628.3278841391148
 20
200.1561515821213
 30
0.0
 11
628.3278841391148
 21
216.9561515821242
 31
0.0
  0
LINE
  5
3B319
330
3B300
100
AcDbEntity
  8
SEIHIN
  6
Continuous
 62
     3
100
AcDbLine
 10
627.0278841391155
 20
216.6561515821213
 30
0.0
 11
627.0278841391155
 21
200.1561515821213
 31
0.0
  0
LINE
  5
3B31A
330
3B300
100
AcDbEntity
  8
SEIHIN
  6
Continuous
 62
     3
100
AcDbLine
 10
604.6266174881311
 20
70.2561515821235
 30
0.0
 11
604.627884139114
 21
70.2561515821235
 31
0.0
  0
LINE
  5
3B31B
330
3B300
100
AcDbEntity
  8
SEIHIN
  6
Continuous
 62
     3
100
AcDbLine
 10
604.627884139114
 20
216.6561515821213
 30
0.0
 11
604.6266174881311
 21
216.6561515821213
 31
0.0
  0
LINE
  5
3B31C
330
3B300
100
AcDbEntity
  8
SEIHIN
  6
Continuous
 62
     3
100
AcDbLine
 10
604.627884139114
 20
216.6561515821213
 30
0.0
 11
604.627884139114
 21
70.2561515821235
 31
0.0
  0
LINE
  5
3B31D
330
3B300
100
AcDbEntity
  8
SEIHIN
  6
Continuous
 62
     3
100
AcDbLine
 10
604.6266174881311
 20
217.1561515821213
 30
0.0
 11
600.877884139114
 21
217.1561515821213
 31
0.0
  0
LINE
  5
3B31E
330
3B300
100
AcDbEntity
  8
SEIHIN
  6
Continuous
 62
     3
100
AcDbLine
 10
600.877884139114
 20
69.75615158212349
 30
0.0
 11
604.6266174881311
 21
69.75615158212349
 31
0.0
  0
LINE
  5
3B31F
330
3B300
100
AcDbEntity
  8
SEIHIN
  6
Continuous
 62
     3
100
AcDbLine
 10
598.7298079277571
 20
26.15615158212495
 30
0.0
 11
598.0798079277592
 21
26.15615158212495
 31
0.0
  0
ARC
  5
3B320
330
3B300
100
AcDbEntity
  8
SEIHIN
  6
Continuous
 62
     3
100
AcDbCircle
 10
598.5133015768151
 20
28.96865158211949
 30
0.0
 40
2.820821024098732
100
AcDbArc
 50
274.4019496521575
 51
3.811261049440462
  0
LINE
  5
3B321
330
3B300
100
AcDbEntity
  8
SEIHIN
  6
Continuous
 62
     3
100
AcDbLine
 10
598.0798079277665
 20
258.1561515821249
 30
0.0
 11
598.7298079277643
 21
258.1561515821249
 31
0.0
  0
ARC
  5
3B322
330
3B300
100
AcDbEntity
  8
SEIHIN
  6
Continuous
 62
     3
100
AcDbCircle
 10
598.5133015768187
 20
255.3436515821195
 30
0.0
 40
2.820821024099171
100
AcDbArc
 50
356.1887389505595
 51
85.5980503478425
  0
LINE
  5
3B323
330
3B300
100
AcDbEntity
  8
SEIHIN
  6
Continuous
 62
     3
100
AcDbLine
 10
601.3278841391111
 20
29.15615158212495
 30
0.0
 11
601.3278841391147
 21
69.75615158212349
 31
0.0
  0
LINE
  5
3B324
330
3B300
100
AcDbEntity
  8
SEIHIN
  6
Continuous
 62
     3
100
AcDbLine
 10
601.3278841391183
 20
255.156151582125
 30
0.0
 11
601.3278841391147
 21
217.1561515821213
 31
0.0
  0
LINE
  5
3B325
330
3B300
100
AcDbEntity
  8
SEIHIN
  6
Continuous
 62
     3
100
AcDbLine
 10
627.0278841391155
 20
86.7561515821235
 30
0.0
 11
627.0278841391155
 21
89.75615158212349
 31
0.0
  0
LINE
  5
3B326
330
3B300
100
AcDbEntity
  8
SEIHIN
  6
Continuous
 62
     3
100
AcDbLine
 10
627.0278841391155
 20
89.75615158212349
 30
0.0
 11
628.3278841391148
 21
89.75615158212349
 31
0.0
  0
LINE
  5
3B327
330
3B300
100
AcDbEntity
  8
SEIHIN
  6
Continuous
 62
     3
100
AcDbLine
 10
628.3278841391148
 20
89.75615158212349
 30
0.0
 11
628.3278841391148
 21
86.7561515821235
 31
0.0
  0
LINE
  5
3B328
330
3B300
100
AcDbEntity
  8
SEIHIN
  6
Continuous
 62
     3
100
AcDbLine
 10
628.3278841391148
 20
200.1561515821213
 30
0.0
 11
628.3278841391148
 21
197.1561515821213
 31
0.0
  0
LINE
  5
3B329
330
3B300
100
AcDbEntity
  8
SEIHIN
  6
Continuous
 62
     3
100
AcDbLine
 10
628.3278841391148
 20
197.1561515821213
 30
0.0
 11
627.0278841391155
 21
197.1561515821213
 31
0.0
  0
LINE
  5
3B32A
330
3B300
100
AcDbEntity
  8
SEIHIN
  6
Continuous
 62
     3
100
AcDbLine
 10
627.0278841391155
 20
197.1561515821213
 30
0.0
 11
627.0278841391155
 21
200.1561515821213
 31
0.0
  0
DIMENSION
  5
3B32B
330
3B300
100
AcDbEntity
  8
SUNPOU
  6
Continuous
100
AcDbDimension
  2
*D18
 10
664.9267453481552
 20
218.4561515821242
 30
0.0
 11
654.9267453481552
 21
143.4561515821297
 31
0.0
 12
-30171.32789311254
 22
4180.202586567829
 32
0.0
 71
     5
 42
149.9999999999995
  3
STANDARD
100
AcDbAlignedDimension
 13
626.8278841391147
 23
68.45615158212422
 33
0.0
 14
626.5278841391155
 24
218.4561515821242
 34
0.0
 50
90.0
100
AcDbRotatedDimension
1001
ACAD
1000
DSTYLE
1002
{
1070
    41
1040
14.0
1070
    42
1040
12.0
1070
    43
1040
28.0
1070
    44
1040
6.0
1070
    73
1070
     0
1070
    74
1070
     0
1070
    77
1070
     3
1070
   140
1040
12.0
1070
   141
1040
150.0
1070
   143
1040
0.03937
1070
   147
1040
4.0
1070
   172
1070
     1
1070
   173
1070
     1
1070
   176
1070
     4
1070
   177
1070
     4
1070
   178
1070
     4
1070
   271
1070
     0
1070
   272
1070
     2
1070
   343
1005
3729
1070
   344
1005
3729
1002
}
  0
INSERT
  5
3B32C
330
3B300
100
AcDbEntity
  8
SUNPOU
  6
Continuous
 62
     4
100
AcDbBlockReference
  2
_OPEN
 10
96.34329216640981
 20
84.08486960732625
 30
0.0
 41
13.99999999999897
 42
14.0
 43
14.0
 50
210.1969819382977
  0
INSERT
  5
3B32D
330
3B300
100
AcDbEntity
  8
SUNPOU
  6
Continuous
 62
     4
100
AcDbBlockReference
  2
_OPEN
 10
94.1825389229416
 20
82.82743355693128
 30
0.0
 41
13.99999999999897
 42
14.0
 43
14.0
 50
30.19698193829767
  0
LINE
  5
3B32E
330
3B300
100
AcDbEntity
  8
SUNPOU
  6
Continuous
 62
     4
100
AcDbLine
 10
94.10097091306306
 20
82.99529946586607
 30
0.0
 11
96.42486017629199
 21
83.91700369838963
 31
0.0
  0
LINE
  5
3B32F
330
3B300
100
AcDbEntity
  8
SUNPOU
  6
Continuous
 62
     4
100
AcDbLine
 10
82.08232075951674
 20
75.78579167470707
 30
0.0
 11
69.98210259608822
 21
68.74414979248104
 31
0.0
  0
LINE
  5
3B330
330
3B300
100
AcDbEntity
  8
SUNPOU
  6
Continuous
 62
     4
100
AcDbLine
 10
167.2843692319766
 20
125.3685599249829
 30
0.0
 11
108.4435103298383
 21
91.12651148955228
 31
0.0
  0
MTEXT
  5
3B331
330
3B300
100
AcDbEntity
  8
SUNPOU
  6
Continuous
 62
     4
100
AcDbMText
 10
129.8719900091564
 20
114.9190608369363
 30
0.0
 40
12.0
 41
0.0
 71
     5
 72
     1
  1
\A1;\U+22052.5 x 3
 11
0.8643012973879201
 21
0.50297442015828
 31
0.0
 73
     1
 44
1.0
1001
ACAD
1000
MTEXTBEGIN
1070
    73
1070
     1
1070
    44
1040
1.0
1070
    74
1070
     0
1000
MTEXTEND
  0
DIMENSION
  5
3B332
330
3B300
100
AcDbEntity
  8
SUNPOU
  6
Continuous
100
AcDbDimension
  2
*D15
 10
255.2629155446884
 20
6.000003804851985
 30
0.0
 11
215.2629155446884
 21
16.00000380485198
 31
0.0
 12
-30171.32789311254
 22
4180.202586567829
 32
0.0
 71
     5
 42
80.0
  3
STANDARD
100
AcDbAlignedDimension
 13
175.2629155446884
 23
79.70615158212513
 33
0.0
 14
255.2629155446884
 24
79.70615158212422
 34
0.0
100
AcDbRotatedDimension
1001
ACAD
1000
DSTYLE
1002
{
1070
    41
1040
14.0
1070
    42
1040
12.0
1070
    43
1040
28.0
1070
    44
1040
6.0
1070
    73
1070
     0
1070
    74
1070
     0
1070
    77
1070
     3
1070
   140
1040
12.0
1070
   141
1040
150.0
1070
   143
1040
0.03937
1070
   147
1040
4.0
1070
   172
1070
     1
1070
   173
1070
     1
1070
   176
1070
     4
1070
   177
1070
     4
1070
   178
1070
     4
1070
   271
1070
     0
1070
   272
1070
     2
1070
   343
1005
3729
1070
   344
1005
3729
1002
}
  0
DIMENSION
  5
3B333
330
3B300
100
AcDbEntity
  8
SUNPOU
  6
Continuous
100
AcDbDimension
  2
*D16
 10
175.2629155446884
 20
6.000003804851985
 30
0.0
 11
135.2629155446884
 21
16.00000380485198
 31
0.0
 12
-30171.32789311254
 22
4180.202586567829
 32
0.0
 71
     5
 42
80.0
  3
STANDARD
100
AcDbAlignedDimension
 13
95.26291554468844
 23
79.70615158212513
 33
0.0
 14
175.2629155446884
 24
79.70615158212513
 34
0.0
100
AcDbRotatedDimension
1001
ACAD
1000
DSTYLE
1002
{
1070
    41
1040
14.0
1070
    42
1040
12.0
1070
    43
1040
28.0
1070
    44
1040
6.0
1070
    73
1070
     0
1070
    74
1070
     0
1070
    77
1070
     3
1070
   140
1040
12.0
1070
   141
1040
150.0
1070
   143
1040
0.03937
1070
   147
1040
4.0
1070
   172
1070
     1
1070
   173
1070
     1
1070
   176
1070
     4
1070
   177
1070
     4
1070
   178
1070
     4
1070
   271
1070
     0
1070
   272
1070
     2
1070
   343
1005
3729
1070
   344
1005
3729
1002
}
  0
DIMENSION
  5
3B334
330
3B300
100
AcDbEntity
  8
SUNPOU
  6
Continuous
100
AcDbDimension
  2
*D17
 10
50.78239662458873
 20
68.45615158212513
 30
0.0
 11
50.78239662458873
 21
28.45615158212968
 31
0.0
 12
-30171.32789311254
 22
4180.202586567829
 32
0.0
 70
   128
 71
     5
 42
15.0
  3
STANDARD
100
AcDbAlignedDimension
 13
91.51291554468844
 23
83.45615158212513
 33
0.0
 14
91.51291554468844
 24
68.45615158212513
 34
0.0
 50
90.0
100
AcDbRotatedDimension
1001
ACAD
1000
DSTYLE
1002
{
1070
    41
1040
14.0
1070
    42
1040
12.0
1070
    43
1040
28.0
1070
    44
1040
6.0
1070
    73
1070
     0
1070
    74
1070
     0
1070
    77
1070
     3
1070
   140
1040
12.0
1070
   141
1040
150.0
1070
   143
1040
0.03937
1070
   147
1040
4.0
1070
   172
1070
     1
1070
   173
1070
     1
1070
   176
1070
     4
1070
   177
1070
     4
1070
   178
1070
     4
1070
   271
1070
     0
1070
   272
1070
     2
1070
   343
1005
3729
1070
   344
1005
3729
1002
}
  0
INSERT
  5
3B335
330
3B300
100
AcDbEntity
  8
SEIHIN
  6
Continuous
 62
     3
100
AcDbBlockReference
  2
SW_CENTERMARKSYMBOL_2
 10
95.26291554468844
 20
83.45615158212513
 30
0.0
  0
INSERT
  5
3B336
330
3B300
100
AcDbEntity
  8
SEIHIN
  6
Continuous
 62
     3
100
AcDbBlockReference
  2
SW_CENTERMARKSYMBOL_1
 10
175.2629155446884
 20
83.45615158212513
 30
0.0
  0
INSERT
  5
3B337
330
3B300
100
AcDbEntity
  8
SEIHIN
  6
Continuous
 62
     3
100
AcDbBlockReference
  2
SW_CENTERMARKSYMBOL_0
 10
255.2629155446884
 20
83.45615158212513
 30
0.0
  0
LINE
  5
3B338
330
3B300
100
AcDbEntity
  8
SEIHIN
  6
Continuous
 62
     3
100
AcDbLine
 10
333.8484073852123
 20
68.45615158212422
 30
0.0
 11
334.1833438757531
 21
68.45615158212422
 31
0.0
  0
LINE
  5
3B339
330
3B300
100
AcDbEntity
  8
SEIHIN
  6
Continuous
 62
     3
100
AcDbLine
 10
334.1833438757531
 20
218.4561515821242
 30
0.0
 11
333.8484073852123
 21
218.4561515821242
 31
0.0
  0
LINE
  5
3B33A
330
3B300
100
AcDbEntity
  8
SEIHIN
  6
Continuous
 62
     3
100
AcDbLine
 10
16.34248721362746
 20
68.45615158212422
 30
0.0
 11
16.67742370416817
 21
68.45615158212422
 31
0.0
  0
LINE
  5
3B33B
330
3B300
100
AcDbEntity
  8
SEIHIN
  6
Continuous
 62
     3
100
AcDbLine
 10
16.67742370416817
 20
218.4561515821242
 30
0.0
 11
16.34248721362746
 21
218.4561515821242
 31
0.0
  0
LINE
  5
3B33C
330
3B300
100
AcDbEntity
  8
SEIHIN
  6
Continuous
 62
     3
100
AcDbLine
 10
18.29289375800726
 20
258.1561515821241
 30
0.0
 11
33.49289375801527
 21
258.1561515821241
 31
0.0
  0
LWPOLYLINE
  5
3B33D
330
3B300
100
AcDbEntity
  8
SEIHIN
  6
Continuous
 62
     3
100
AcDbPolyline
 90
        9
 70
   128
 43
0.0
 10
18.29289375800726
 20
258.1561515821241
 10
18.00025827498393
 20
258.0985074233331
 10
17.7188686094596
 20
257.9277901796577
 10
17.45953840847869
 20
257.6505604190316
 10
17.23223358622635
 20
257.2774719256831
 10
17.04568933955306
 20
256.822862281183
 10
16.90707445923908
 20
256.3042018792194
 10
16.8217158373991
 20
255.7414225481725
 10
16.79289375800727
 20
255.156151582124
  0
LINE
  5
3B33E
330
3B300
100
AcDbEntity
  8
SEIHIN
  6
Continuous
 62
     3
100
AcDbLine
 10
16.79289375800727
 20
255.156151582124
 30
0.0
 11
16.79289375800727
 21
218.4561515821242
 31
0.0
  0
LINE
  5
3B33F
330
3B300
100
AcDbEntity
  8
SEIHIN
  6
Continuous
 62
     3
100
AcDbLine
 10
16.67742370416817
 20
218.4561515821242
 30
0.0
 11
16.79289375800727
 21
218.4561515821242
 31
0.0
  0
LINE
  5
3B340
330
3B300
100
AcDbEntity
  8
SEIHIN
  6
Continuous
 62
     3
100
AcDbLine
 10
16.79289375800727
 20
68.45615158212422
 30
0.0
 11
16.67742370416817
 21
68.45615158212422
 31
0.0
  0
LINE
  5
3B341
330
3B300
100
AcDbEntity
  8
SEIHIN
  6
Continuous
 62
     3
100
AcDbLine
 10
16.79289375800727
 20
68.45615158212422
 30
0.0
 11
16.79289375800727
 21
29.15615158212404
 31
0.0
  0
LWPOLYLINE
  5
3B342
330
3B300
100
AcDbEntity
  8
SEIHIN
  6
Continuous
 62
     3
100
AcDbPolyline
 90
        9
 70
   128
 43
0.0
 10
16.79289375800727
 20
29.15615158212404
 10
16.8217158373991
 20
28.57088061607555
 10
16.90707445923908
 20
28.00810128502872
 10
17.04568933955306
 20
27.48944088306507
 10
17.23223358622635
 20
27.03483123856404
 10
17.45953840847869
 20
26.66174274521655
 10
17.7188686094596
 20
26.3845129845904
 10
18.00025827498393
 20
26.21379574091406
 10
18.29289375800726
 20
26.15615158212404
  0
LINE
  5
3B343
330
3B300
100
AcDbEntity
  8
SEIHIN
  6
Continuous
 62
     3
100
AcDbLine
 10
18.29289375800726
 20
26.15615158212404
 30
0.0
 11
33.49289375801527
 21
26.15615158212404
 31
0.0
  0
LINE
  5
3B344
330
3B300
100
AcDbEntity
  8
SEIHIN
  6
Continuous
 62
     3
100
AcDbLine
 10
314.4071043063086
 20
255.156151582124
 30
0.0
 11
314.4071043063086
 21
29.15615158212404
 31
0.0
  0
LINE
  5
3B345
330
3B300
100
AcDbEntity
  8
SEIHIN
  6
Continuous
 62
     3
100
AcDbLine
 10
36.1187267829373
 20
29.15615158212404
 30
0.0
 11
36.1187267829373
 21
255.156151582124
 31
0.0
  0
LWPOLYLINE
  5
3B346
330
3B300
100
AcDbEntity
  8
SEIHIN
  6
Continuous
 62
     3
100
AcDbPolyline
 90
        9
 70
   128
 43
0.0
 10
34.6187267829373
 20
258.1561515821241
 10
34.91136226596064
 20
258.0985074233331
 10
35.19275193148497
 20
257.9277901796577
 10
35.45208213246588
 20
257.6505604190316
 10
35.67938695471458
 20
257.2774719256831
 10
35.86593120139151
 20
256.822862281183
 10
36.00454608170185
 20
256.3042018792194
 10
36.08990470354183
 20
255.7414225481725
 10
36.1187267829373
 20
255.156151582124
  0
LINE
  5
3B347
330
3B300
100
AcDbEntity
  8
SEIHIN
  6
Continuous
 62
     3
100
AcDbLine
 10
33.49289375801527
 20
258.1561515821241
 30
0.0
 11
34.6187267829373
 21
258.1561515821241
 31
0.0
  0
LINE
  5
3B348
330
3B300
100
AcDbEntity
  8
SEIHIN
  6
Continuous
 62
     3
100
AcDbLine
 10
34.6187267829373
 20
26.15615158212404
 30
0.0
 11
33.49289375801527
 21
26.15615158212404
 31
0.0
  0
LWPOLYLINE
  5
3B349
330
3B300
100
AcDbEntity
  8
SEIHIN
  6
Continuous
 62
     3
100
AcDbPolyline
 90
        9
 70
   128
 43
0.0
 10
36.1187267829373
 20
29.15615158212404
 10
36.08990470354183
 20
28.57088061607555
 10
36.00454608170185
 20
28.00810128502872
 10
35.86593120139151
 20
27.48944088306507
 10
35.67938695471458
 20
27.03483123856404
 10
35.45208213246588
 20
26.66174274521655
 10
35.19275193148497
 20
26.3845129845904
 10
34.91136226596064
 20
26.21379574091406
 10
34.6187267829373
 20
26.15615158212404
  0
LWPOLYLINE
  5
3B34A
330
3B300
100
AcDbEntity
  8
SEIHIN
  6
Continuous
 62
     3
100
AcDbPolyline
 90
        9
 70
   128
 43
0.0
 10
315.9071043063122
 20
26.15615158212404
 10
315.6144688232889
 20
26.21379574091406
 10
315.333079157761
 20
26.3845129845904
 10
315.07374895678
 20
26.66174274521655
 10
314.8464441345277
 20
27.03483123856404
 10
314.6598998878544
 20
27.48944088306507
 10
314.5212850075404
 20
28.00810128502872
 10
314.4359263857041
 20
28.57088061607555
 10
314.4071043063086
 20
29.15615158212404
  0
LINE
  5
3B34B
330
3B300
100
AcDbEntity
  8
SEIHIN
  6
Continuous
 62
     3
100
AcDbLine
 10
317.0329373312307
 20
26.15615158212404
 30
0.0
 11
315.9071043063122
 21
26.15615158212404
 31
0.0
  0
LWPOLYLINE
  5
3B34C
330
3B300
100
AcDbEntity
  8
SEIHIN
  6
Continuous
 62
     3
100
AcDbPolyline
 90
        9
 70
   128
 43
0.0
 10
314.4071043063086
 20
255.156151582124
 10
314.4359263857041
 20
255.7414225481725
 10
314.5212850075404
 20
256.3042018792194
 10
314.6598998878544
 20
256.822862281183
 10
314.8464441345277
 20
257.2774719256841
 10
315.07374895678
 20
257.6505604190316
 10
315.333079157761
 20
257.9277901796577
 10
315.6144688232889
 20
258.0985074233331
 10
315.9071043063122
 20
258.1561515821241
  0
LINE
  5
3B34D
330
3B300
100
AcDbEntity
  8
SEIHIN
  6
Continuous
 62
     3
100
AcDbLine
 10
315.9071043063122
 20
258.1561515821241
 30
0.0
 11
317.0329373312307
 21
258.1561515821241
 31
0.0
  0
LINE
  5
3B34E
330
3B300
100
AcDbEntity
  8
SEIHIN
  6
Continuous
 62
     3
100
AcDbLine
 10
332.2329373313333
 20
26.15615158212404
 30
0.0
 11
317.0329373312307
 21
26.15615158212404
 31
0.0
  0
LWPOLYLINE
  5
3B34F
330
3B300
100
AcDbEntity
  8
SEIHIN
  6
Continuous
 62
     3
100
AcDbPolyline
 90
        9
 70
   128
 43
0.0
 10
332.2329373313333
 20
26.15615158212404
 10
332.5255728143566
 20
26.21379574091406
 10
332.8069624798845
 20
26.3845129845904
 10
333.0662926808654
 20
26.66174274521655
 10
333.2935975031178
 20
27.03483123856404
 10
333.4801417497911
 20
27.48944088306507
 10
333.6187566301051
 20
28.00810128502872
 10
333.7041152519414
 20
28.57088061607555
 10
333.7329373313369
 20
29.15615158212404
  0
LINE
  5
3B350
330
3B300
100
AcDbEntity
  8
SEIHIN
  6
Continuous
 62
     3
100
AcDbLine
 10
333.7329373313369
 20
29.15615158212404
 30
0.0
 11
333.7329373313369
 21
68.45615158212422
 31
0.0
  0
LINE
  5
3B351
330
3B300
100
AcDbEntity
  8
SEIHIN
  6
Continuous
 62
     3
100
AcDbLine
 10
333.8484073852123
 20
68.45615158212422
 30
0.0
 11
333.7329373313369
 21
68.45615158212422
 31
0.0
  0
LINE
  5
3B352
330
3B300
100
AcDbEntity
  8
SEIHIN
  6
Continuous
 62
     3
100
AcDbLine
 10
333.7329373313369
 20
218.4561515821242
 30
0.0
 11
333.8484073852123
 21
218.4561515821242
 31
0.0
  0
LINE
  5
3B353
330
3B300
100
AcDbEntity
  8
SEIHIN
  6
Continuous
 62
     3
100
AcDbLine
 10
333.7329373313369
 20
218.4561515821242
 30
0.0
 11
333.7329373313369
 21
255.156151582124
 31
0.0
  0
LWPOLYLINE
  5
3B354
330
3B300
100
AcDbEntity
  8
SEIHIN
  6
Continuous
 62
     3
100
AcDbPolyline
 90
        9
 70
   128
 43
0.0
 10
333.7329373313369
 20
255.156151582124
 10
333.7041152519414
 20
255.7414225481725
 10
333.6187566301051
 20
256.3042018792194
 10
333.4801417497911
 20
256.822862281183
 10
333.2935975031178
 20
257.2774719256831
 10
333.0662926808654
 20
257.6505604190316
 10
332.8069624798845
 20
257.9277901796577
 10
332.5255728143566
 20
258.0985074233331
 10
332.2329373313333
 20
258.1561515821241
  0
LINE
  5
3B355
330
3B300
100
AcDbEntity
  8
SEIHIN
  6
Continuous
 62
     3
100
AcDbLine
 10
332.2329373313333
 20
258.1561515821241
 30
0.0
 11
317.0329373312307
 21
258.1561515821241
 31
0.0
  0
LINE
  5
3B356
330
3B300
100
AcDbEntity
  8
SEIHIN
  6
Continuous
 62
     3
100
AcDbLine
 10
36.1187267829373
 20
218.4561515821242
 30
0.0
 11
314.4071043063086
 21
218.4561515821242
 31
0.0
  0
CIRCLE
  5
3B357
330
3B300
100
AcDbEntity
  8
SEIHIN
  6
Continuous
 62
     3
100
AcDbCircle
 10
95.26291554468844
 20
83.45615158212513
 30
0.0
 40
1.25
  0
CIRCLE
  5
3B358
330
3B300
100
AcDbEntity
  8
SEIHIN
  6
Continuous
 62
     3
100
AcDbCircle
 10
175.2629155446884
 20
83.45615158212513
 30
0.0
 40
1.249999999999772
  0
CIRCLE
  5
3B359
330
3B300
100
AcDbEntity
  8
SEIHIN
  6
Continuous
 62
     3
100
AcDbCircle
 10
255.2629155446884
 20
83.45615158212513
 30
0.0
 40
1.25
  0
LINE
  5
3B35A
330
3B300
100
AcDbEntity
  8
SEIHIN
  6
Continuous
 62
     3
100
AcDbLine
 10
314.4071043063086
 20
68.45615158212513
 30
0.0
 11
36.1187267829373
 21
68.45615158212513
 31
0.0
  0
LINE
  5
3B35B
330
3B300
100
AcDbEntity
  8
SEIHIN
  6
Continuous
 62
     3
100
AcDbLine
 10
334.1833438757531
 20
68.45615158212422
 30
0.0
 11
334.1833438757531
 21
218.4561515821242
 31
0.0
  0
LINE
  5
3B35C
330
3B300
100
AcDbEntity
  8
SEIHIN
  6
Continuous
 62
     3
100
AcDbLine
 10
16.34248721362746
 20
218.4561515821242
 30
0.0
 11
16.34248721362746
 21
68.45615158212422
 31
0.0
  0
LINE
  5
3B35D
330
3B300
100
AcDbEntity
  8
CENTER L
  6
CENTER
 62
     1
 48
5.0
100
AcDbLine
 10
350.5258290696038
 20
143.4561515821242
 30
0.0
 11
0.0000020196857804
 21
143.4561515821242
 31
0.0
  0
LINE
  5
3B35E
330
3B300
100
AcDbEntity
  8
CENTER L
  6
CENTER
 62
     1
 48
5.0
100
AcDbLine
 10
175.2629155446921
 20
55.6641274821568
 30
0.0
 11
175.2629155445975
 21
231.2481756820907
 31
0.0
  0
DIMENSION
  5
3B35F
330
3B300
100
AcDbEntity
  8
SUNPOU
  6
Continuous
100
AcDbDimension
  2
*D14
 10
379.6589212905419
 20
26.15615158212404
 30
0.0
 11
369.6589212905419
 21
142.1561515821286
 31
0.0
 12
-30171.32789311254
 22
4180.202586567829
 32
0.0
 71
     5
 42
232.0000000000005
  3
STANDARD
100
AcDbAlignedDimension
 13
332.2329373313333
 23
258.1561515821241
 33
0.0
 14
332.2329373313333
 24
26.15615158212404
 34
0.0
 50
90.0
100
AcDbRotatedDimension
1001
ACAD
1000
DSTYLE
1002
{
1070
    41
1040
14.0
1070
    42
1040
12.0
1070
    43
1040
28.0
1070
    44
1040
6.0
1070
    73
1070
     0
1070
    74
1070
     0
1070
    77
1070
     3
1070
   140
1040
12.0
1070
   141
1040
150.0
1070
   143
1040
0.03937
1070
   147
1040
4.0
1070
   172
1070
     1
1070
   173
1070
     1
1070
   176
1070
     4
1070
   177
1070
     4
1070
   178
1070
     4
1070
   271
1070
     0
1070
   272
1070
     2
1070
   343
1005
3729
1070
   344
1005
3729
1002
}
  0
ENDBLK
  5
3B361
330
3B300
100
AcDbEntity
  8
0
370
    30
100
AcDbBlockEnd
  0
ENDSEC
  0
SECTION
  2
ENTITIES
  0
LINE
  5
398BC
330
1F
100
AcDbEntity
  8
ZUWAKU
100
AcDbLine
 10
30223.72374648603
 20
-4570.832069631204
 30
0.0
 11
30581.89039050742
 21
-4570.832069631204
 31
0.0
1001
ACAD
1000
RTMaterial
1005
0
  0
LINE
  5
398BD
330
1F
100
AcDbEntity
  8
ZUWAKU
100
AcDbLine
 10
30223.72374648603
 20
-4570.232069631205
 30
0.0
 11
30581.89039050742
 21
-4570.232069631205
 31
0.0
1001
ACAD
1000
RTMaterial
1005
0
  0
LINE
  5
398BE
330
1F
100
AcDbEntity
  8
ZUWAKU
100
AcDbLine
 10
30223.72374648603
 20
-4570.532069631201
 30
0.0
 11
30581.89039050742
 21
-4570.532069631201
 31
0.0
1001
ACAD
1000
RTMaterial
1005
0
  0
TEXT
  5
398BF
330
1F
100
AcDbEntity
  8
moji
100
AcDbText
 10
30050.19052893318
 20
-4574.520302435787
 30
0.0
 40
9.0
  1
大型のきとい
 41
0.9
  7
ｽﾀｲﾙ1
100
AcDbText
1001
ACAD
1000
RTMaterial
1005
0
  0
INSERT
  5
398C0
330
1F
100
AcDbEntity
  8
ZUWAKU
  6
Continuous
100
AcDbBlockReference
  2
*X5
 10
29895.75384455093
 20
-4608.632069631199
 30
0.0
 41
1.5
 42
1.5
 43
1.5
1001
ACAD
1000
HATCH
1002
{
1070
    19
1000
ANSI37
1040
0.2
1040
0.0
1000
R14_HATCH_DATA
1000
B0E
1011
29897.25384455093
1021
-4608.632069631199
1031
0.0
1011
29895.75384455093
1021
-4607.132069631199
1031
0.0
1011
29895.75384455093
1021
-4608.632069631199
1031
1.5
1040
0.0
1010
0.0
1020
0.0
1030
1.0
1000
ANSI37
1070
     0
1070
     0
1071
        8
1071
        7
1070
     1
1070
     1
1071
       24
1040
24.50226266111986
1040
27.64484848098359
1040
-0.1989123673796348
1040
24.09221215478112
1040
28.63479797464464
1040
0.0
1040
24.09221215478112
1040
29.92500000000001
1040
-0.4142135623730912
1040
24.61721215478111
1040
30.45
1040
0.0
1040
27.59221215478101
1040
30.45
1040
0.4142135623731546
1040
28.1172121547811
1040
30.975
1040
0.0
1040
28.1172121547811
1040
32.72500000000001
1040
0.4142135623731586
1040
27.59221215478101
1040
33.25000000000001
1040
0.0
1040
24.09221215478112
1040
33.25000000000001
1040
0.4142135623730928
1040
21.29221215478117
1040
30.45000000000003
1040
0.0
1040
21.29221215478117
1040
28.63479797464476
1040
0.1989123673796619
1040
22.5223636737976
1040
25.66494949366115
1040
0.0
1040
25.43216164844228
1040
22.7551515190165
1040
-0.1989123673796613
1040
25.84221215478113
1040
21.76520202535531
1040
0.0
1040
25.84221215478113
1040
20.47499999999999
1040
-0.4142135623730911
1040
25.31721215478115
1040
19.95
1040
0.0
1040
22.34221215478124
1040
19.95
1040
0.4142135623731526
1040
21.81721215478114
1040
19.42500000000001
1040
0.0
1040
21.81721215478114
1040
17.67499999999999
1040
0.4142135623731526
1040
22.34221215478124
1040
17.15
1040
0.0
1040
25.84221215478113
1040
17.15
1040
0.4142135623731045
1040
28.64221215478119
1040
19.94999999999998
1040
0.0
1040
28.64221215478119
1040
21.76520202535526
1040
0.1989123673796604
1040
27.41206063576465
1040
24.7350505063388
1040
0.0
1071
        0
1071
        7
1070
     1
1070
     1
1071
       16
1040
33.54221215478117
1040
29.05000000000001
1040
-0.4142135623730935
1040
34.94221215478115
1040
30.45
1040
0.0
1040
36.8672121547811
1040
30.45
1040
0.4142135623731546
1040
37.39221215478119
1040
30.975
1040
0.0
1040
37.39221215478119
1040
32.72500000000001
1040
0.4142135623730951
1040
36.86721215478121
1040
33.25000000000001
1040
0.0
1040
34.94221215478103
1040
33.24999999999997
1040
0.4142135623730893
1040
30.74221215478111
1040
29.04999999999994
1040
0.0
1040
30.74221215478111
1040
21.35000000000003
1040
0.4142135623730969
1040
34.94221215478115
1040
17.15
1040
0.0
1040
36.8672121547811
1040
17.15
1040
0.4142135623731526
1040
37.39221215478119
1040
17.67499999999999
1040
0.0
1040
37.39221215478119
1040
19.42500000000001
1040
0.4142135623730891
1040
36.86721215478121
1040
19.95
1040
0.0
1040
34.94221215478115
1040
19.95
1040
-0.4142135623730928
1040
33.54221215478117
1040
21.34999999999999
1040
0.0
1071
        0
1071
        7
1070
     1
1070
     1
1071
        2
1040
34.2422121547811
1040
25.2
1040
1.0
1040
37.7422121547811
1040
25.2
1040
1.0
1071
        0
1071
        7
1070
     1
1070
     1
1071
       26
1040
47.31485863695911
1040
29.20504719356343
1040
0.0
1040
48.37649827009693
1040
32.56690603183302
1040
0.5069206636600134
1040
47.87586737090157
1040
33.25000000000001
1040
0.0
1040
46.17697799129234
1040
33.25000000000001
1040
0.3272098845218764
1040
45.67634709209698
1040
32.88309396816698
1040
0.0
1040
43.80807721746521
1040
26.96690603183308
1040
-0.3272098845219541
1040
43.30744631826974
1040
26.6
1040
0.0
1040
43.16721215478128
1040
26.6
1040
-0.4142135623731526
1040
42.64221215478118
1040
27.12499999999999
1040
0.0
1040
42.64221215478118
1040
32.72500000000001
1040
0.4142135623730951
1040
42.11721215478121
1040
33.25000000000001
1040
0.0
1040
40.3672121547811
1040
33.25000000000001
1040
0.4142135623730871
1040
39.84221215478113
1040
32.72500000000003
1040
0.0
1040
39.84221215478113
1040
17.67499999999999
1040
0.4142135623730891
1040
40.3672121547811
1040
17.15
1040
0.0
1040
42.11721215478109
1040
17.15
1040
0.4142135623731526
1040
42.64221215478118
1040
17.67499999999999
1040
0.0
1040
42.64221215478118
1040
23.27500000000002
1040
-0.4142135623731526
1040
43.16721215478128
1040
23.8
1040
0.0
1040
43.30744631826985
1040
23.8
1040
-0.3272098845218915
1040
43.80807721746521
1040
23.43309396816693
1040
0.0
1040
45.67634709209698
1040
17.51690603183307
1040
0.3272098845218902
1040
46.17697799129234
1040
17.15
1040
0.0
1040
47.87586737090157
1040
17.15
1040
0.5069206636600336
1040
48.37649827009693
1040
17.83309396816701
1040
0.0
1040
46.05010689162328
1040
25.20000000000014
1040
0.0
1071
        0
1071
        7
1070
     1
1070
     1
1071
        8
1040
53.4922121547811
1040
32.72500000000002
1040
0.4142135623731546
1040
52.967212154781
1040
33.25000000000001
1040
0.0
1040
51.21721215478125
1040
33.25000000000001
1040
0.4142135623731507
1040
50.69221215478115
1040
32.72500000000003
1040
0.0
1040
50.69221215478115
1040
17.67499999999999
1040
0.4142135623731526
1040
51.21721215478125
1040
17.15
1040
0.0
1040
52.967212154781
1040
17.15
1040
0.4142135623731526
1040
53.4922121547811
1040
17.67499999999999
1040
0.0
1071
        0
1071
        7
1070
     1
1070
     1
1071
       24
1040
58.39221215478119
1040
29.92500000000001
1040
-0.4142135623731546
1040
58.91721215478128
1040
30.45
1040
0.0
1040
61.89221215478119
1040
30.45
1040
0.4142135623730911
1040
62.41721215478117
1040
30.975
1040
0.0
1040
62.41721215478117
1040
32.72500000000001
1040
0.4142135623730952
1040
61.89221215478119
1040
33.25000000000001
1040
0.0
1040
58.39221215478119
1040
33.25000000000001
1040
0.4142135623731048
1040
55.59221215478111
1040
30.45000000000003
1040
0.0
1040
55.59221215478111
1040
28.63479797464476
1040
0.1989123673796613
1040
56.82236367379768
1040
25.66494949366121
1040
0.0
1040
59.73216164844235
1040
22.75515151901654
1040
-0.1989123673796402
1040
60.14221215478119
1040
21.76520202535547
1040
0.0
1040
60.14221215478119
1040
20.47499999999999
1040
-0.4142135623730911
1040
59.61721215478121
1040
19.95
1040
0.0
1040
56.64221215478119
1040
19.95
1040
0.4142135623731526
1040
56.1172121547811
1040
19.42500000000001
1040
0.0
1040
56.1172121547811
1040
17.67499999999999
1040
0.4142135623730891
1040
56.64221215478107
1040
17.15
1040
0.0
1040
60.14221215478119
1040
17.15
1040
0.4142135623730925
1040
62.94221215478113
1040
19.94999999999998
1040
0.0
1040
62.94221215478113
1040
21.76520202535526
1040
0.1989123673796675
1040
61.7120606357646
1040
24.73505050633891
1040
0.0
1040
58.80226266112003
1040
27.64484848098343
1040
-0.1989123673796652
1040
58.39221215478119
1040
28.63479797464459
1040
0.0
1071
        0
1071
        7
1070
     1
1070
     1
1071
       16
1040
67.84221215478111
1040
32.72499999999999
1040
0.414213562373103
1040
67.31721215478114
1040
33.25000000000001
1040
0.0
1040
65.56721215478114
1040
33.25000000000001
1040
0.4142135623730871
1040
65.04221215478117
1040
32.72500000000003
1040
0.0
1040
65.04221215478117
1040
19.94999999999998
1040
0.4142135623730927
1040
67.84221215478111
1040
17.15
1040
0.0
1040
71.34221215478112
1040
17.15
1040
0.4142135623731045
1040
74.14221215478119
1040
19.94999999999998
1040
0.0
1040
74.14221215478119
1040
32.72500000000001
1040
0.4142135623730951
1040
73.61721215478119
1040
33.25000000000001
1040
0.0
1040
71.8672121547811
1040
33.25000000000001
1040
0.4142135623730871
1040
71.34221215478112
1040
32.72500000000003
1040
0.0
1040
71.34221215478112
1040
20.99999999999998
1040
-0.4142135623730879
1040
70.29221215478115
1040
19.95
1040
0.0
1040
68.89221215478119
1040
19.95
1040
-0.4142135623731197
1040
67.84221215478111
1040
20.99999999999998
1040
0.0
1071
        0
1071
        7
1070
     1
1070
     1
1071
        8
1040
79.04221215478115
1040
32.72500000000003
1040
0.4142135623730871
1040
78.51721215478119
1040
33.25000000000001
1040
0.0
1040
76.76721215478119
1040
33.25000000000001
1040
0.4142135623731507
1040
76.2422121547811
1040
32.72500000000003
1040
0.0
1040
76.2422121547811
1040
17.67499999999999
1040
0.4142135623730891
1040
76.76721215478107
1040
17.15
1040
0.0
1040
78.51721215478119
1040
17.15
1040
0.4142135623730891
1040
79.04221215478115
1040
17.67499999999999
1040
0.0
1071
        0
1070
     0
1070
     1
1040
0.0
1040
0.2
1070
     0
1070
     2
1040
0.7853981633974483
1040
-890.9423043346789
1040
-3.19999999999993
1040
-0.4490128060534576
1040
0.4490128060534577
1070
     0
1040
2.356194490192344
1040
-890.9423043346789
1040
-3.19999999999993
1040
-0.4490128060534577
1040
-0.4490128060534576
1070
     0
1040
0.057451373970553
1071
        8
1040
26.07985496302331
1040
25.16717364588556
1040
0.0
1040
32.40451500643917
1040
28.84406218245101
1040
0.0
1040
35.16436788565966
1040
25.51188164607072
1040
0.0
1040
40.91405998163714
1040
26.20129764644151
1040
0.0
1040
51.83847201895673
1040
26.66090991398312
1040
0.0
1040
56.89820089512955
1040
29.41857631640722
1040
0.0
1040
66.55768597240035
1040
28.72915791509502
1040
0.0
1040
77.82707961962273
1040
29.18877018263663
1040
0.0
1002
}
1000
RTMaterial
1005
0
  0
LINE
  5
398C1
330
1F
100
AcDbEntity
  8
ZUWAKU
100
AcDbLine
 10
29948.1671627831
 20
-4558.7570696312
 30
0.0
 11
29951.0546627831
 21
-4558.7570696312
 31
0.0
1001
ACAD
1000
RTMaterial
1005
0
  0
LINE
  5
398C2
330
1F
100
AcDbEntity
  8
ZUWAKU
100
AcDbLine
 10
29951.0546627831
 20
-4562.957069631203
 30
0.0
 11
29948.1671627831
 21
-4562.957069631203
 31
0.0
1001
ACAD
1000
RTMaterial
1005
0
  0
LINE
  5
398C3
330
1F
100
AcDbEntity
  8
ZUWAKU
100
AcDbLine
 10
29948.1671627831
 20
-4578.707069631204
 30
0.0
 11
29951.0546627831
 21
-4578.707069631204
 31
0.0
1001
ACAD
1000
RTMaterial
1005
0
  0
LINE
  5
398C4
330
1F
100
AcDbEntity
  8
ZUWAKU
100
AcDbLine
 10
29951.0546627831
 20
-4582.9070696312
 30
0.0
 11
29948.1671627831
 21
-4582.9070696312
 31
0.0
1001
ACAD
1000
RTMaterial
1005
0
  0
CIRCLE
  5
398C5
330
1F
100
AcDbEntity
  8
ZUWAKU
100
AcDbCircle
 10
29949.7421627831
 20
-4570.832069631204
 30
0.0
 40
2.625
1001
ACAD
1000
RTMaterial
1005
0
  0
ARC
  5
398C6
330
1F
100
AcDbEntity
  8
ZUWAKU
100
AcDbCircle
 10
29933.9921627831
 20
-4565.679872669239
 30
0.0
 40
2.099999999999999
100
AcDbArc
 50
180.0
 51
224.9999999998526
1001
ACAD
1000
RTMaterial
1005
0
  0
LINE
  5
398C7
330
1F
100
AcDbEntity
  8
ZUWAKU
100
AcDbLine
 10
29946.0671627831
 20
-4565.057069631202
 30
0.0
 11
29946.0671627831
 21
-4576.607069631205
 31
0.0
1001
ACAD
1000
RTMaterial
1005
0
  0
LINE
  5
398C8
330
1F
100
AcDbEntity
  8
ZUWAKU
100
AcDbLine
 10
29941.8671627831
 20
-4576.607069631205
 30
0.0
 11
29941.8671627831
 21
-4565.057069631202
 31
0.0
1001
ACAD
1000
RTMaterial
1005
0
  0
ARC
  5
398C9
330
1F
100
AcDbEntity
  8
ZUWAKU
100
AcDbCircle
 10
29933.9921627831
 20
-4565.679872669239
 30
0.0
 40
6.299999999999998
100
AcDbArc
 50
180.0
 51
224.9999999998526
1001
ACAD
1000
RTMaterial
1005
0
  0
ARC
  5
398CA
330
1F
100
AcDbEntity
  8
ZUWAKU
100
AcDbCircle
 10
29934.5171627831
 20
-4578.707069631204
 30
0.0
 40
4.199999999999998
100
AcDbArc
 50
270.0
 51
0.0
1001
ACAD
1000
RTMaterial
1005
0
  0
ARC
  5
398CB
330
1F
100
AcDbEntity
  8
ZUWAKU
100
AcDbCircle
 10
29948.1671627831
 20
-4576.607069631205
 30
0.0
 40
6.299999999999998
100
AcDbArc
 50
180.0
 51
270.0
1001
ACAD
1000
RTMaterial
1005
0
  0
ARC
  5
398CC
330
1F
100
AcDbEntity
  8
ZUWAKU
100
AcDbCircle
 10
29932.4171627831
 20
-4575.984266593168
 30
0.0
 40
6.299999999999998
100
AcDbArc
 50
0.0
 51
44.99999999985261
1001
ACAD
1000
RTMaterial
1005
0
  0
LINE
  5
398CD
330
1F
100
AcDbEntity
  8
ZUWAKU
100
AcDbLine
 10
29936.87193550458
 20
-4571.529493871694
 30
0.0
 11
29932.50723854261
 21
-4567.164796909728
 31
0.0
1001
ACAD
1000
RTMaterial
1005
0
  0
LINE
  5
398CE
330
1F
100
AcDbEntity
  8
ZUWAKU
100
AcDbLine
 10
29934.5171627831
 20
-4577.919569631204
 30
0.0
 11
29934.5171627831
 21
-4575.984266593168
 31
0.0
1001
ACAD
1000
RTMaterial
1005
0
  0
ARC
  5
398CF
330
1F
100
AcDbEntity
  8
ZUWAKU
100
AcDbCircle
 10
29933.72966278311
 20
-4577.919569631204
 30
0.0
 40
0.7874999999999999
100
AcDbArc
 50
270.0
 51
0.0
1001
ACAD
1000
RTMaterial
1005
0
  0
ARC
  5
398D0
330
1F
100
AcDbEntity
  8
ZUWAKU
100
AcDbCircle
 10
29932.4171627831
 20
-4575.984266593168
 30
0.0
 40
2.099999999999999
100
AcDbArc
 50
0.0
 51
44.99999999985261
1001
ACAD
1000
RTMaterial
1005
0
  0
LINE
  5
398D1
330
1F
100
AcDbEntity
  8
ZUWAKU
100
AcDbLine
 10
29928.4796627831
 20
-4582.119569631202
 30
0.0
 11
29928.4796627831
 21
-4579.494569631203
 31
0.0
1001
ACAD
1000
RTMaterial
1005
0
  0
ARC
  5
398D2
330
1F
100
AcDbEntity
  8
ZUWAKU
100
AcDbCircle
 10
29929.2671627831
 20
-4582.119569631202
 30
0.0
 40
0.7874999999999999
100
AcDbArc
 50
180.0
 51
270.0
1001
ACAD
1000
RTMaterial
1005
0
  0
ARC
  5
398D3
330
1F
100
AcDbEntity
  8
ZUWAKU
100
AcDbCircle
 10
29929.2671627831
 20
-4579.494569631203
 30
0.0
 40
0.7874999999999999
100
AcDbArc
 50
90.0
 51
180.0
1001
ACAD
1000
RTMaterial
1005
0
  0
LINE
  5
398D4
330
1F
100
AcDbEntity
  8
ZUWAKU
100
AcDbLine
 10
29929.2671627831
 20
-4582.9070696312
 30
0.0
 11
29934.5171627831
 21
-4582.9070696312
 31
0.0
1001
ACAD
1000
RTMaterial
1005
0
  0
LINE
  5
398D5
330
1F
100
AcDbEntity
  8
ZUWAKU
100
AcDbLine
 10
29929.2671627831
 20
-4578.707069631204
 30
0.0
 11
29933.72966278311
 21
-4578.707069631204
 31
0.0
1001
ACAD
1000
RTMaterial
1005
0
  0
LINE
  5
398D6
330
1F
100
AcDbEntity
  8
ZUWAKU
100
AcDbLine
 10
29929.53739006162
 20
-4570.134645390713
 30
0.0
 11
29933.90208702359
 21
-4574.499342352679
 31
0.0
1001
ACAD
1000
RTMaterial
1005
0
  0
LINE
  5
398D7
330
1F
100
AcDbEntity
  8
ZUWAKU
100
AcDbLine
 10
29938.7171627831
 20
-4578.707069631204
 30
0.0
 11
29938.7171627831
 21
-4575.984266593168
 31
0.0
1001
ACAD
1000
RTMaterial
1005
0
  0
ARC
  5
398D8
330
1F
100
AcDbEntity
  8
ZUWAKU
100
AcDbCircle
 10
29948.1671627831
 20
-4576.607069631205
 30
0.0
 40
2.099999999999999
100
AcDbArc
 50
180.0
 51
270.0
1001
ACAD
1000
RTMaterial
1005
0
  0
ARC
  5
398D9
330
1F
100
AcDbEntity
  8
ZUWAKU
100
AcDbCircle
 10
29937.1421627831
 20
-4559.544569631206
 30
0.0
 40
0.7874999999999999
100
AcDbArc
 50
0.0
 51
90.0
1001
ACAD
1000
RTMaterial
1005
0
  0
ARC
  5
398DA
330
1F
100
AcDbEntity
  8
ZUWAKU
100
AcDbCircle
 10
29937.1421627831
 20
-4562.169569631205
 30
0.0
 40
0.7874999999999999
100
AcDbArc
 50
270.0
 51
0.0
1001
ACAD
1000
RTMaterial
1005
0
  0
LINE
  5
398DB
330
1F
100
AcDbEntity
  8
ZUWAKU
100
AcDbLine
 10
29931.8921627831
 20
-4558.7570696312
 30
0.0
 11
29937.1421627831
 21
-4558.7570696312
 31
0.0
1001
ACAD
1000
RTMaterial
1005
0
  0
ARC
  5
398DC
330
1F
100
AcDbEntity
  8
ZUWAKU
100
AcDbCircle
 10
29932.6796627831
 20
-4563.744569631203
 30
0.0
 40
0.7874999999999999
100
AcDbArc
 50
90.0
 51
180.0
1001
ACAD
1000
RTMaterial
1005
0
  0
LINE
  5
398DD
330
1F
100
AcDbEntity
  8
ZUWAKU
100
AcDbLine
 10
29931.8921627831
 20
-4563.744569631203
 30
0.0
 11
29931.8921627831
 21
-4565.679872669239
 31
0.0
1001
ACAD
1000
RTMaterial
1005
0
  0
LINE
  5
398DE
330
1F
100
AcDbEntity
  8
ZUWAKU
100
AcDbLine
 10
29937.1421627831
 20
-4562.957069631203
 30
0.0
 11
29932.6796627831
 21
-4562.957069631203
 31
0.0
1001
ACAD
1000
RTMaterial
1005
0
  0
LINE
  5
398DF
330
1F
100
AcDbEntity
  8
ZUWAKU
100
AcDbLine
 10
29927.6921627831
 20
-4562.957069631203
 30
0.0
 11
29927.6921627831
 21
-4565.679872669239
 31
0.0
1001
ACAD
1000
RTMaterial
1005
0
  0
ARC
  5
398E0
330
1F
100
AcDbEntity
  8
ZUWAKU
100
AcDbCircle
 10
29931.8921627831
 20
-4562.957069631203
 30
0.0
 40
4.199999999999998
100
AcDbArc
 50
90.0
 51
180.0
1001
ACAD
1000
RTMaterial
1005
0
  0
LINE
  5
398E1
330
1F
100
AcDbEntity
  8
ZUWAKU
100
AcDbLine
 10
29937.9296627831
 20
-4559.544569631206
 30
0.0
 11
29937.9296627831
 21
-4562.169569631205
 31
0.0
1001
ACAD
1000
RTMaterial
1005
0
  0
ARC
  5
398E2
330
1F
100
AcDbEntity
  8
ZUWAKU
100
AcDbCircle
 10
29948.1671627831
 20
-4565.057069631202
 30
0.0
 40
2.099999999999999
100
AcDbArc
 50
90.0
 51
180.0
1001
ACAD
1000
RTMaterial
1005
0
  0
ARC
  5
398E3
330
1F
100
AcDbEntity
  8
ZUWAKU
100
AcDbCircle
 10
29948.1671627831
 20
-4565.057069631202
 30
0.0
 40
6.299999999999998
100
AcDbArc
 50
90.0
 51
180.0
1001
ACAD
1000
RTMaterial
1005
0
  0
LINE
  5
398E4
330
1F
100
AcDbEntity
  8
ZUWAKU
100
AcDbLine
 10
30029.74378887291
 20
-4548.632069631199
 30
0.0
 11
30029.74378887291
 21
-4592.432069631202
 31
0.0
1001
ACAD
1000
RTMaterial
1005
0
  0
LINE
  5
398E5
330
1F
100
AcDbEntity
  8
ZUWAKU
100
AcDbLine
 10
30030.04378887291
 20
-4548.632069631199
 30
0.0
 11
30030.04378887291
 21
-4592.432069631202
 31
0.0
1001
ACAD
1000
RTMaterial
1005
0
  0
LINE
  5
398E6
330
1F
100
AcDbEntity
  8
ZUWAKU
100
AcDbLine
 10
30029.44378887291
 20
-4548.632069631199
 30
0.0
 11
30029.44378887291
 21
-4592.432069631202
 31
0.0
1001
ACAD
1000
RTMaterial
1005
0
  0
LINE
  5
398E7
330
1F
100
AcDbEntity
  8
ZUWAKU
100
AcDbLine
 10
30006.9671627831
 20
-4578.707069631204
 30
0.0
 11
30006.9671627831
 21
-4559.544569631206
 31
0.0
1001
ACAD
1000
RTMaterial
1005
0
  0
LINE
  5
398E8
330
1F
100
AcDbEntity
  8
ZUWAKU
100
AcDbLine
 10
30002.7671627831
 20
-4559.544569631206
 30
0.0
 11
30002.7671627831
 21
-4577.1320696312
 31
0.0
1001
ACAD
1000
RTMaterial
1005
0
  0
LINE
  5
398E9
330
1F
100
AcDbEntity
  8
ZUWAKU
100
AcDbLine
 10
30014.31716278311
 20
-4582.119569631202
 30
0.0
 11
30014.31716278311
 21
-4559.544569631206
 31
0.0
1001
ACAD
1000
RTMaterial
1005
0
  0
LINE
  5
398EA
330
1F
100
AcDbEntity
  8
ZUWAKU
100
AcDbLine
 10
30010.1171627831
 20
-4559.544569631206
 30
0.0
 11
30010.1171627831
 21
-4582.119569631202
 31
0.0
1001
ACAD
1000
RTMaterial
1005
0
  0
ARC
  5
398EB
330
1F
100
AcDbEntity
  8
ZUWAKU
100
AcDbCircle
 10
29985.44216278311
 20
-4565.679872669239
 30
0.0
 40
2.099999999999999
100
AcDbArc
 50
180.0
 51
224.9999999998526
1001
ACAD
1000
RTMaterial
1005
0
  0
ARC
  5
398EC
330
1F
100
AcDbEntity
  8
ZUWAKU
100
AcDbCircle
 10
29985.44216278311
 20
-4565.679872669239
 30
0.0
 40
6.299999999999998
100
AcDbArc
 50
180.0
 51
224.9999999998526
1001
ACAD
1000
RTMaterial
1005
0
  0
LINE
  5
398ED
330
1F
100
AcDbEntity
  8
ZUWAKU
100
AcDbLine
 10
29966.72613250637
 20
-4564.824498840859
 30
0.0
 11
29964.82900488837
 21
-4570.832069631204
 31
0.0
1001
ACAD
1000
RTMaterial
1005
0
  0
LINE
  5
398EE
330
1F
100
AcDbEntity
  8
ZUWAKU
100
AcDbLine
 10
29971.7921627831
 20
-4559.544569631206
 30
0.0
 11
29971.7921627831
 21
-4582.119569631202
 31
0.0
1001
ACAD
1000
RTMaterial
1005
0
  0
LINE
  5
398EF
330
1F
100
AcDbEntity
  8
ZUWAKU
100
AcDbLine
 10
29975.9921627831
 20
-4582.119569631202
 30
0.0
 11
29975.9921627831
 21
-4559.544569631206
 31
0.0
1001
ACAD
1000
RTMaterial
1005
0
  0
LINE
  5
398F0
330
1F
100
AcDbEntity
  8
ZUWAKU
100
AcDbLine
 10
29993.31716278311
 20
-4559.544569631206
 30
0.0
 11
29993.31716278311
 21
-4578.707069631204
 31
0.0
1001
ACAD
1000
RTMaterial
1005
0
  0
LINE
  5
398F1
330
1F
100
AcDbEntity
  8
ZUWAKU
100
AcDbLine
 10
29997.5171627831
 20
-4577.1320696312
 30
0.0
 11
29997.5171627831
 21
-4559.544569631206
 31
0.0
1001
ACAD
1000
RTMaterial
1005
0
  0
LINE
  5
398F2
330
1F
100
AcDbEntity
  8
ZUWAKU
100
AcDbLine
 10
29959.7171627831
 20
-4567.944569631199
 30
0.0
 11
29959.7171627831
 21
-4559.544569631206
 31
0.0
1001
ACAD
1000
RTMaterial
1005
0
  0
LINE
  5
398F3
330
1F
100
AcDbEntity
  8
ZUWAKU
100
AcDbLine
 10
29955.5171627831
 20
-4559.544569631206
 30
0.0
 11
29955.5171627831
 21
-4582.119569631202
 31
0.0
1001
ACAD
1000
RTMaterial
1005
0
  0
LINE
  5
398F4
330
1F
100
AcDbEntity
  8
ZUWAKU
100
AcDbLine
 10
29964.26836518908
 20
-4559.307428678952
 30
0.0
 11
29961.46596037713
 21
-4568.181710583452
 31
0.0
1001
ACAD
1000
RTMaterial
1005
0
  0
LINE
  5
398F5
330
1F
100
AcDbEntity
  8
ZUWAKU
100
AcDbLine
 10
30001.19216278311
 20
-4578.707069631204
 30
0.0
 11
29999.0921627831
 21
-4578.707069631204
 31
0.0
1001
ACAD
1000
RTMaterial
1005
0
  0
LINE
  5
398F6
330
1F
100
AcDbEntity
  8
ZUWAKU
100
AcDbLine
 10
29997.5171627831
 20
-4582.9070696312
 30
0.0
 11
30002.7671627831
 21
-4582.9070696312
 31
0.0
1001
ACAD
1000
RTMaterial
1005
0
  0
LINE
  5
398F7
330
1F
100
AcDbEntity
  8
ZUWAKU
100
AcDbLine
 10
29972.5796627831
 20
-4582.9070696312
 30
0.0
 11
29975.2046627831
 21
-4582.9070696312
 31
0.0
1001
ACAD
1000
RTMaterial
1005
0
  0
LINE
  5
398F8
330
1F
100
AcDbEntity
  8
ZUWAKU
100
AcDbLine
 10
29964.26836518908
 20
-4582.356710583455
 30
0.0
 11
29961.46596037713
 21
-4573.482428678948
 31
0.0
1001
ACAD
1000
RTMaterial
1005
0
  0
ARC
  5
398F9
330
1F
100
AcDbEntity
  8
ZUWAKU
100
AcDbCircle
 10
29960.71501402834
 20
-4567.944569631199
 30
0.0
 40
0.7874999999999999
100
AcDbArc
 50
270.0
 51
342.4744316262144
1001
ACAD
1000
RTMaterial
1005
0
  0
LINE
  5
398FA
330
1F
100
AcDbEntity
  8
ZUWAKU
100
AcDbLine
 10
29960.71501402834
 20
-4568.732069631205
 30
0.0
 11
29960.5046627831
 21
-4568.732069631205
 31
0.0
1001
ACAD
1000
RTMaterial
1005
0
  0
LINE
  5
398FB
330
1F
100
AcDbEntity
  8
ZUWAKU
100
AcDbLine
 10
29960.5046627831
 20
-4572.932069631202
 30
0.0
 11
29960.71501402834
 21
-4572.932069631202
 31
0.0
1001
ACAD
1000
RTMaterial
1005
0
  0
ARC
  5
398FC
330
1F
100
AcDbEntity
  8
ZUWAKU
100
AcDbCircle
 10
29960.5046627831
 20
-4567.944569631199
 30
0.0
 40
0.7874999999999999
100
AcDbArc
 50
180.0
 51
270.0
1001
ACAD
1000
RTMaterial
1005
0
  0
LINE
  5
398FD
330
1F
100
AcDbEntity
  8
ZUWAKU
100
AcDbLine
 10
29956.3046627831
 20
-4582.9070696312
 30
0.0
 11
29958.9296627831
 21
-4582.9070696312
 31
0.0
1001
ACAD
1000
RTMaterial
1005
0
  0
ARC
  5
398FE
330
1F
100
AcDbEntity
  8
ZUWAKU
100
AcDbCircle
 10
29958.9296627831
 20
-4582.119569631202
 30
0.0
 40
0.7874999999999999
100
AcDbArc
 50
270.0
 51
0.0
1001
ACAD
1000
RTMaterial
1005
0
  0
LINE
  5
398FF
330
1F
100
AcDbEntity
  8
ZUWAKU
100
AcDbLine
 10
29959.7171627831
 20
-4582.119569631202
 30
0.0
 11
29959.7171627831
 21
-4573.719569631201
 31
0.0
1001
ACAD
1000
RTMaterial
1005
0
  0
LINE
  5
39900
330
1F
100
AcDbEntity
  8
ZUWAKU
100
AcDbLine
 10
29951.8421627831
 20
-4579.494569631203
 30
0.0
 11
29951.8421627831
 21
-4582.119569631202
 31
0.0
1001
ACAD
1000
RTMaterial
1005
0
  0
ARC
  5
39901
330
1F
100
AcDbEntity
  8
ZUWAKU
100
AcDbCircle
 10
29951.0546627831
 20
-4582.119569631202
 30
0.0
 40
0.7874999999999999
100
AcDbArc
 50
270.0
 51
0.0
1001
ACAD
1000
RTMaterial
1005
0
  0
ARC
  5
39902
330
1F
100
AcDbEntity
  8
ZUWAKU
100
AcDbCircle
 10
29951.0546627831
 20
-4579.494569631203
 30
0.0
 40
0.7874999999999999
100
AcDbArc
 50
0.0
 51
90.0
1001
ACAD
1000
RTMaterial
1005
0
  0
ARC
  5
39903
330
1F
100
AcDbEntity
  8
ZUWAKU
100
AcDbCircle
 10
29956.3046627831
 20
-4582.119569631202
 30
0.0
 40
0.7874999999999999
100
AcDbArc
 50
180.0
 51
270.0
1001
ACAD
1000
RTMaterial
1005
0
  0
ARC
  5
39904
330
1F
100
AcDbEntity
  8
ZUWAKU
100
AcDbCircle
 10
29960.71501402834
 20
-4573.719569631201
 30
0.0
 40
0.7874999999999999
100
AcDbArc
 50
17.52556837378564
 51
90.0
1001
ACAD
1000
RTMaterial
1005
0
  0
ARC
  5
39905
330
1F
100
AcDbEntity
  8
ZUWAKU
100
AcDbCircle
 10
29960.5046627831
 20
-4573.719569631201
 30
0.0
 40
0.7874999999999999
100
AcDbArc
 50
90.0
 51
180.0
1001
ACAD
1000
RTMaterial
1005
0
  0
ARC
  5
39906
330
1F
100
AcDbEntity
  8
ZUWAKU
100
AcDbCircle
 10
29972.5796627831
 20
-4582.119569631202
 30
0.0
 40
0.7874999999999999
100
AcDbArc
 50
180.0
 51
270.0
1001
ACAD
1000
RTMaterial
1005
0
  0
LINE
  5
39907
330
1F
100
AcDbEntity
  8
ZUWAKU
100
AcDbLine
 10
29965.01931153787
 20
-4582.9070696312
 30
0.0
 11
29967.56764560728
 21
-4582.9070696312
 31
0.0
1001
ACAD
1000
RTMaterial
1005
0
  0
ARC
  5
39908
330
1F
100
AcDbEntity
  8
ZUWAKU
100
AcDbCircle
 10
29967.56764560728
 20
-4582.119569631202
 30
0.0
 40
0.7874999999999999
100
AcDbArc
 50
270.0
 51
17.52556837378564
1001
ACAD
1000
RTMaterial
1005
0
  0
LINE
  5
39909
330
1F
100
AcDbEntity
  8
ZUWAKU
100
AcDbLine
 10
29968.31859195608
 20
-4581.882428678949
 30
0.0
 11
29964.82900488837
 21
-4570.832069631204
 31
0.0
1001
ACAD
1000
RTMaterial
1005
0
  0
ARC
  5
3990A
330
1F
100
AcDbEntity
  8
ZUWAKU
100
AcDbCircle
 10
29965.01931153787
 20
-4582.119569631202
 30
0.0
 40
0.7874999999999999
100
AcDbArc
 50
197.5255683737856
 51
270.0
1001
ACAD
1000
RTMaterial
1005
0
  0
ARC
  5
3990B
330
1F
100
AcDbEntity
  8
ZUWAKU
100
AcDbCircle
 10
29997.5171627831
 20
-4578.707069631204
 30
0.0
 40
4.199999999999998
100
AcDbArc
 50
180.0
 51
270.0
1001
ACAD
1000
RTMaterial
1005
0
  0
ARC
  5
3990C
330
1F
100
AcDbEntity
  8
ZUWAKU
100
AcDbCircle
 10
29985.9671627831
 20
-4578.707069631204
 30
0.0
 40
4.199999999999998
100
AcDbArc
 50
270.0
 51
0.0
1001
ACAD
1000
RTMaterial
1005
0
  0
LINE
  5
3990D
330
1F
100
AcDbEntity
  8
ZUWAKU
100
AcDbLine
 10
29988.32193550457
 20
-4571.529493871694
 30
0.0
 11
29983.95723854261
 21
-4567.164796909728
 31
0.0
1001
ACAD
1000
RTMaterial
1005
0
  0
LINE
  5
3990E
330
1F
100
AcDbEntity
  8
ZUWAKU
100
AcDbLine
 10
29985.9671627831
 20
-4577.919569631204
 30
0.0
 11
29985.9671627831
 21
-4575.984266593168
 31
0.0
1001
ACAD
1000
RTMaterial
1005
0
  0
ARC
  5
3990F
330
1F
100
AcDbEntity
  8
ZUWAKU
100
AcDbCircle
 10
29983.8671627831
 20
-4575.984266593168
 30
0.0
 40
2.099999999999999
100
AcDbArc
 50
0.0
 51
44.99999999985261
1001
ACAD
1000
RTMaterial
1005
0
  0
ARC
  5
39910
330
1F
100
AcDbEntity
  8
ZUWAKU
100
AcDbCircle
 10
29985.1796627831
 20
-4577.919569631204
 30
0.0
 40
0.7874999999999999
100
AcDbArc
 50
270.0
 51
0.0
1001
ACAD
1000
RTMaterial
1005
0
  0
LINE
  5
39911
330
1F
100
AcDbEntity
  8
ZUWAKU
100
AcDbLine
 10
29979.9296627831
 20
-4582.119569631202
 30
0.0
 11
29979.9296627831
 21
-4579.494569631203
 31
0.0
1001
ACAD
1000
RTMaterial
1005
0
  0
ARC
  5
39912
330
1F
100
AcDbEntity
  8
ZUWAKU
100
AcDbCircle
 10
29980.7171627831
 20
-4582.119569631202
 30
0.0
 40
0.7874999999999999
100
AcDbArc
 50
180.0
 51
270.0
1001
ACAD
1000
RTMaterial
1005
0
  0
ARC
  5
39913
330
1F
100
AcDbEntity
  8
ZUWAKU
100
AcDbCircle
 10
29975.2046627831
 20
-4582.119569631202
 30
0.0
 40
0.7874999999999999
100
AcDbArc
 50
270.0
 51
0.0
1001
ACAD
1000
RTMaterial
1005
0
  0
ARC
  5
39914
330
1F
100
AcDbEntity
  8
ZUWAKU
100
AcDbCircle
 10
29980.7171627831
 20
-4579.494569631203
 30
0.0
 40
0.7874999999999999
100
AcDbArc
 50
90.0
 51
180.0
1001
ACAD
1000
RTMaterial
1005
0
  0
LINE
  5
39915
330
1F
100
AcDbEntity
  8
ZUWAKU
100
AcDbLine
 10
29980.7171627831
 20
-4578.707069631204
 30
0.0
 11
29985.1796627831
 21
-4578.707069631204
 31
0.0
1001
ACAD
1000
RTMaterial
1005
0
  0
LINE
  5
39916
330
1F
100
AcDbEntity
  8
ZUWAKU
100
AcDbLine
 10
29980.7171627831
 20
-4582.9070696312
 30
0.0
 11
29985.9671627831
 21
-4582.9070696312
 31
0.0
1001
ACAD
1000
RTMaterial
1005
0
  0
LINE
  5
39917
330
1F
100
AcDbEntity
  8
ZUWAKU
100
AcDbLine
 10
29980.98739006163
 20
-4570.134645390713
 30
0.0
 11
29985.35208702359
 21
-4574.499342352679
 31
0.0
1001
ACAD
1000
RTMaterial
1005
0
  0
LINE
  5
39918
330
1F
100
AcDbEntity
  8
ZUWAKU
100
AcDbLine
 10
29990.1671627831
 20
-4578.707069631204
 30
0.0
 11
29990.1671627831
 21
-4575.984266593168
 31
0.0
1001
ACAD
1000
RTMaterial
1005
0
  0
ARC
  5
39919
330
1F
100
AcDbEntity
  8
ZUWAKU
100
AcDbCircle
 10
29983.8671627831
 20
-4575.984266593168
 30
0.0
 40
6.299999999999998
100
AcDbArc
 50
0.0
 51
44.99999999985261
1001
ACAD
1000
RTMaterial
1005
0
  0
ARC
  5
3991A
330
1F
100
AcDbEntity
  8
ZUWAKU
100
AcDbCircle
 10
29999.0921627831
 20
-4577.1320696312
 30
0.0
 40
1.574999999999999
100
AcDbArc
 50
180.0
 51
270.0
1001
ACAD
1000
RTMaterial
1005
0
  0
ARC
  5
3991B
330
1F
100
AcDbEntity
  8
ZUWAKU
100
AcDbCircle
 10
30002.7671627831
 20
-4578.707069631204
 30
0.0
 40
4.199999999999998
100
AcDbArc
 50
270.0
 51
0.0
1001
ACAD
1000
RTMaterial
1005
0
  0
LINE
  5
3991C
330
1F
100
AcDbEntity
  8
ZUWAKU
100
AcDbLine
 10
30010.9046627831
 20
-4582.9070696312
 30
0.0
 11
30013.5296627831
 21
-4582.9070696312
 31
0.0
1001
ACAD
1000
RTMaterial
1005
0
  0
ARC
  5
3991D
330
1F
100
AcDbEntity
  8
ZUWAKU
100
AcDbCircle
 10
30010.9046627831
 20
-4582.119569631202
 30
0.0
 40
0.7874999999999999
100
AcDbArc
 50
180.0
 51
270.0
1001
ACAD
1000
RTMaterial
1005
0
  0
ARC
  5
3991E
330
1F
100
AcDbEntity
  8
ZUWAKU
100
AcDbCircle
 10
30001.19216278311
 20
-4577.1320696312
 30
0.0
 40
1.574999999999999
100
AcDbArc
 50
270.0
 51
0.0
1001
ACAD
1000
RTMaterial
1005
0
  0
ARC
  5
3991F
330
1F
100
AcDbEntity
  8
ZUWAKU
100
AcDbCircle
 10
30013.5296627831
 20
-4582.119569631202
 30
0.0
 40
0.7874999999999999
100
AcDbArc
 50
270.0
 51
0.0
1001
ACAD
1000
RTMaterial
1005
0
  0
LINE
  5
39920
330
1F
100
AcDbEntity
  8
ZUWAKU
100
AcDbLine
 10
29975.2046627831
 20
-4558.7570696312
 30
0.0
 11
29972.5796627831
 21
-4558.7570696312
 31
0.0
1001
ACAD
1000
RTMaterial
1005
0
  0
ARC
  5
39921
330
1F
100
AcDbEntity
  8
ZUWAKU
100
AcDbCircle
 10
29958.9296627831
 20
-4559.544569631206
 30
0.0
 40
0.7874999999999999
100
AcDbArc
 50
0.0
 51
90.0
1001
ACAD
1000
RTMaterial
1005
0
  0
LINE
  5
39922
330
1F
100
AcDbEntity
  8
ZUWAKU
100
AcDbLine
 10
29958.9296627831
 20
-4558.7570696312
 30
0.0
 11
29956.3046627831
 21
-4558.7570696312
 31
0.0
1001
ACAD
1000
RTMaterial
1005
0
  0
ARC
  5
39923
330
1F
100
AcDbEntity
  8
ZUWAKU
100
AcDbCircle
 10
29951.0546627831
 20
-4559.544569631206
 30
0.0
 40
0.7874999999999999
100
AcDbArc
 50
0.0
 51
90.0
1001
ACAD
1000
RTMaterial
1005
0
  0
ARC
  5
39924
330
1F
100
AcDbEntity
  8
ZUWAKU
100
AcDbCircle
 10
29956.3046627831
 20
-4559.544569631206
 30
0.0
 40
0.7874999999999999
100
AcDbArc
 50
90.0
 51
180.0
1001
ACAD
1000
RTMaterial
1005
0
  0
ARC
  5
39925
330
1F
100
AcDbEntity
  8
ZUWAKU
100
AcDbCircle
 10
29951.0546627831
 20
-4562.169569631205
 30
0.0
 40
0.7874999999999999
100
AcDbArc
 50
270.0
 51
0.0
1001
ACAD
1000
RTMaterial
1005
0
  0
LINE
  5
39926
330
1F
100
AcDbEntity
  8
ZUWAKU
100
AcDbLine
 10
29951.8421627831
 20
-4559.544569631206
 30
0.0
 11
29951.8421627831
 21
-4562.169569631205
 31
0.0
1001
ACAD
1000
RTMaterial
1005
0
  0
ARC
  5
39927
330
1F
100
AcDbEntity
  8
ZUWAKU
100
AcDbCircle
 10
29972.5796627831
 20
-4559.544569631206
 30
0.0
 40
0.7874999999999999
100
AcDbArc
 50
90.0
 51
180.0
1001
ACAD
1000
RTMaterial
1005
0
  0
LINE
  5
39928
330
1F
100
AcDbEntity
  8
ZUWAKU
100
AcDbLine
 10
29965.01931153787
 20
-4558.7570696312
 30
0.0
 11
29967.56764560728
 21
-4558.7570696312
 31
0.0
1001
ACAD
1000
RTMaterial
1005
0
  0
ARC
  5
39929
330
1F
100
AcDbEntity
  8
ZUWAKU
100
AcDbCircle
 10
29967.56764560728
 20
-4559.544569631206
 30
0.0
 40
0.7874999999999999
100
AcDbArc
 50
342.4744316262144
 51
90.0
1001
ACAD
1000
RTMaterial
1005
0
  0
LINE
  5
3992A
330
1F
100
AcDbEntity
  8
ZUWAKU
100
AcDbLine
 10
29968.31859195608
 20
-4559.78171058345
 30
0.0
 11
29966.72613250637
 21
-4564.824498840859
 31
0.0
1001
ACAD
1000
RTMaterial
1005
0
  0
ARC
  5
3992B
330
1F
100
AcDbEntity
  8
ZUWAKU
100
AcDbCircle
 10
29965.01931153787
 20
-4559.544569631206
 30
0.0
 40
0.7874999999999999
100
AcDbArc
 50
90.0
 51
162.4744316262144
1001
ACAD
1000
RTMaterial
1005
0
  0
LINE
  5
3992C
330
1F
100
AcDbEntity
  8
ZUWAKU
100
AcDbLine
 10
29983.3421627831
 20
-4558.7570696312
 30
0.0
 11
29988.5921627831
 21
-4558.7570696312
 31
0.0
1001
ACAD
1000
RTMaterial
1005
0
  0
LINE
  5
3992D
330
1F
100
AcDbEntity
  8
ZUWAKU
100
AcDbLine
 10
29988.5921627831
 20
-4562.957069631203
 30
0.0
 11
29984.1296627831
 21
-4562.957069631203
 31
0.0
1001
ACAD
1000
RTMaterial
1005
0
  0
ARC
  5
3992E
330
1F
100
AcDbEntity
  8
ZUWAKU
100
AcDbCircle
 10
29984.1296627831
 20
-4563.744569631203
 30
0.0
 40
0.7874999999999999
100
AcDbArc
 50
90.0
 51
180.0
1001
ACAD
1000
RTMaterial
1005
0
  0
LINE
  5
3992F
330
1F
100
AcDbEntity
  8
ZUWAKU
100
AcDbLine
 10
29983.3421627831
 20
-4563.744569631203
 30
0.0
 11
29983.3421627831
 21
-4565.679872669239
 31
0.0
1001
ACAD
1000
RTMaterial
1005
0
  0
ARC
  5
39930
330
1F
100
AcDbEntity
  8
ZUWAKU
100
AcDbCircle
 10
29975.2046627831
 20
-4559.544569631206
 30
0.0
 40
0.7874999999999999
100
AcDbArc
 50
0.0
 51
90.0
1001
ACAD
1000
RTMaterial
1005
0
  0
LINE
  5
39931
330
1F
100
AcDbEntity
  8
ZUWAKU
100
AcDbLine
 10
29979.1421627831
 20
-4562.957069631203
 30
0.0
 11
29979.1421627831
 21
-4565.679872669239
 31
0.0
1001
ACAD
1000
RTMaterial
1005
0
  0
ARC
  5
39932
330
1F
100
AcDbEntity
  8
ZUWAKU
100
AcDbCircle
 10
29983.3421627831
 20
-4562.957069631203
 30
0.0
 40
4.199999999999998
100
AcDbArc
 50
90.0
 51
180.0
1001
ACAD
1000
RTMaterial
1005
0
  0
ARC
  5
39933
330
1F
100
AcDbEntity
  8
ZUWAKU
100
AcDbCircle
 10
29996.7296627831
 20
-4559.544569631206
 30
0.0
 40
0.7874999999999999
100
AcDbArc
 50
0.0
 51
90.0
1001
ACAD
1000
RTMaterial
1005
0
  0
ARC
  5
39934
330
1F
100
AcDbEntity
  8
ZUWAKU
100
AcDbCircle
 10
29994.10466278311
 20
-4559.544569631206
 30
0.0
 40
0.7874999999999999
100
AcDbArc
 50
90.0
 51
180.0
1001
ACAD
1000
RTMaterial
1005
0
  0
LINE
  5
39935
330
1F
100
AcDbEntity
  8
ZUWAKU
100
AcDbLine
 10
29996.7296627831
 20
-4558.7570696312
 30
0.0
 11
29994.10466278311
 21
-4558.7570696312
 31
0.0
1001
ACAD
1000
RTMaterial
1005
0
  0
ARC
  5
39936
330
1F
100
AcDbEntity
  8
ZUWAKU
100
AcDbCircle
 10
29988.5921627831
 20
-4559.544569631206
 30
0.0
 40
0.7874999999999999
100
AcDbArc
 50
0.0
 51
90.0
1001
ACAD
1000
RTMaterial
1005
0
  0
ARC
  5
39937
330
1F
100
AcDbEntity
  8
ZUWAKU
100
AcDbCircle
 10
29988.5921627831
 20
-4562.169569631205
 30
0.0
 40
0.7874999999999999
100
AcDbArc
 50
270.0
 51
0.0
1001
ACAD
1000
RTMaterial
1005
0
  0
LINE
  5
39938
330
1F
100
AcDbEntity
  8
ZUWAKU
100
AcDbLine
 10
29989.3796627831
 20
-4559.544569631206
 30
0.0
 11
29989.3796627831
 21
-4562.169569631205
 31
0.0
1001
ACAD
1000
RTMaterial
1005
0
  0
LINE
  5
39939
330
1F
100
AcDbEntity
  8
ZUWAKU
100
AcDbLine
 10
30013.5296627831
 20
-4558.7570696312
 30
0.0
 11
30010.9046627831
 21
-4558.7570696312
 31
0.0
1001
ACAD
1000
RTMaterial
1005
0
  0
ARC
  5
3993A
330
1F
100
AcDbEntity
  8
ZUWAKU
100
AcDbCircle
 10
30010.9046627831
 20
-4559.544569631206
 30
0.0
 40
0.7874999999999999
100
AcDbArc
 50
90.0
 51
180.0
1001
ACAD
1000
RTMaterial
1005
0
  0
ARC
  5
3993B
330
1F
100
AcDbEntity
  8
ZUWAKU
100
AcDbCircle
 10
30006.1796627831
 20
-4559.544569631206
 30
0.0
 40
0.7874999999999999
100
AcDbArc
 50
0.0
 51
90.0
1001
ACAD
1000
RTMaterial
1005
0
  0
LINE
  5
3993C
330
1F
100
AcDbEntity
  8
ZUWAKU
100
AcDbLine
 10
30006.1796627831
 20
-4558.7570696312
 30
0.0
 11
30003.5546627831
 21
-4558.7570696312
 31
0.0
1001
ACAD
1000
RTMaterial
1005
0
  0
ARC
  5
3993D
330
1F
100
AcDbEntity
  8
ZUWAKU
100
AcDbCircle
 10
30003.5546627831
 20
-4559.544569631206
 30
0.0
 40
0.7874999999999999
100
AcDbArc
 50
90.0
 51
180.0
1001
ACAD
1000
RTMaterial
1005
0
  0
ARC
  5
3993E
330
1F
100
AcDbEntity
  8
ZUWAKU
100
AcDbCircle
 10
30013.5296627831
 20
-4559.544569631206
 30
0.0
 40
0.7874999999999999
100
AcDbArc
 50
0.0
 51
90.0
1001
ACAD
1000
RTMaterial
1005
0
  0
TEXT
  5
3993F
330
1F
100
AcDbEntity
  8
moji
100
AcDbText
 10
30270.49464857221
 20
-4566.624688045089
 30
0.0
 40
8.399999999999996
  1
伸縮カバー
 41
0.9
  7
ｽﾀｲﾙ1
100
AcDbText
1001
ACAD
1000
RTMaterial
1005
0
  0
LINE
  5
39940
330
1F
100
AcDbEntity
  8
ZUWAKU
100
AcDbLine
 10
30223.12374648603
 20
-4548.632069631199
 30
0.0
 11
30223.12374648603
 21
-4592.432069631202
 31
0.0
1001
ACAD
1000
RTMaterial
1005
0
  0
LINE
  5
39941
330
1F
100
AcDbEntity
  8
ZUWAKU
100
AcDbLine
 10
30223.72374648603
 20
-4548.632069631199
 30
0.0
 11
30223.72374648603
 21
-4592.432069631202
 31
0.0
1001
ACAD
1000
RTMaterial
1005
0
  0
LINE
  5
39942
330
1F
100
AcDbEntity
  8
ZUWAKU
100
AcDbLine
 10
30223.42374648604
 20
-4548.632069631199
 30
0.0
 11
30223.42374648604
 21
-4592.432069631202
 31
0.0
1001
ACAD
1000
RTMaterial
1005
0
  0
TEXT
  5
39943
330
1F
100
AcDbEntity
  8
ZUWAKU
100
AcDbText
 10
30225.33991401934
 20
-4579.149034823622
 30
0.0
 40
6.0
  1
サイズ
 41
0.9
  7
ｽﾀｲﾙ1
100
AcDbText
1001
ACAD
1000
RTMaterial
1005
0
  0
TEXT
  5
39944
330
1F
100
AcDbEntity
  8
ZUWAKU
100
AcDbText
 10
30225.33991401934
 20
-4557.549034823623
 30
0.0
 40
6.0
  1
品名
 41
0.9
  7
ｽﾀｲﾙ1
100
AcDbText
1001
ACAD
1000
RTMaterial
1005
0
  0
LINE
  5
39945
330
1F
100
AcDbEntity
  8
ZUWAKU
100
AcDbLine
 10
30883.97964831623
 20
-4570.832069631204
 30
0.0
 11
30956.62736037374
 21
-4570.832069631204
 31
0.0
1001
ACAD
1000
RTMaterial
1005
0
  0
LINE
  5
39946
330
1F
100
AcDbEntity
  8
ZUWAKU
100
AcDbLine
 10
30883.97964831623
 20
-4570.532069631201
 30
0.0
 11
30956.62736037374
 21
-4570.532069631201
 31
0.0
1001
ACAD
1000
RTMaterial
1005
0
  0
LINE
  5
39947
330
1F
100
AcDbEntity
  8
ZUWAKU
100
AcDbLine
 10
30883.97964831623
 20
-4570.232069631205
 30
0.0
 11
30956.62736037374
 21
-4570.232069631205
 31
0.0
1001
ACAD
1000
RTMaterial
1005
0
  0
TEXT
  5
39948
330
1F
100
AcDbEntity
  8
ZUWAKU
100
AcDbText
 10
30898.05975108188
 20
-4566.624688045089
 30
0.0
 40
8.399999999999996
  1
　　．　　．　　
 41
0.9
  7
ｽﾀｲﾙ1
100
AcDbText
1001
ACAD
1000
RTMaterial
1005
0
  0
LINE
  5
39949
330
1F
100
AcDbEntity
  8
ZUWAKU
100
AcDbLine
 10
30668.55261379814
 20
-4570.832069631204
 30
0.0
 11
30739.5442782001
 21
-4570.832069631204
 31
0.0
1001
ACAD
1000
RTMaterial
1005
0
  0
LINE
  5
3994A
330
1F
100
AcDbEntity
  8
ZUWAKU
100
AcDbLine
 10
30668.55261379814
 20
-4570.532069631201
 30
0.0
 11
30739.5442782001
 21
-4570.532069631201
 31
0.0
1001
ACAD
1000
RTMaterial
1005
0
  0
LINE
  5
3994B
330
1F
100
AcDbEntity
  8
ZUWAKU
100
AcDbLine
 10
30668.55261379814
 20
-4570.232069631205
 30
0.0
 11
30739.5442782001
 21
-4570.232069631205
 31
0.0
1001
ACAD
1000
RTMaterial
1005
0
  0
TEXT
  5
3994C
330
1F
100
AcDbEntity
  8
moji
100
AcDbText
 10
30603.76756071951
 20
-4574.27813272479
 30
0.0
 40
8.399999999999996
  1
ＧＸ７２□
 41
0.9
  7
ｽﾀｲﾙ1
100
AcDbText
1001
ACAD
1000
RTMaterial
1005
0
  0
LINE
  5
3994D
330
1F
100
AcDbEntity
  8
ZUWAKU
100
AcDbLine
 10
30582.19039050741
 20
-4548.632069631199
 30
0.0
 11
30582.19039050741
 21
-4592.432069631202
 31
0.0
1001
ACAD
1000
RTMaterial
1005
0
  0
LINE
  5
3994E
330
1F
100
AcDbEntity
  8
ZUWAKU
100
AcDbLine
 10
30582.49039050742
 20
-4548.632069631199
 30
0.0
 11
30582.49039050742
 21
-4592.432069631202
 31
0.0
1001
ACAD
1000
RTMaterial
1005
0
  0
LINE
  5
3994F
330
1F
100
AcDbEntity
  8
ZUWAKU
100
AcDbLine
 10
30581.89039050742
 20
-4548.632069631199
 30
0.0
 11
30581.89039050742
 21
-4592.432069631202
 31
0.0
1001
ACAD
1000
RTMaterial
1005
0
  0
TEXT
  5
39950
330
1F
100
AcDbEntity
  8
moji
100
AcDbText
 10
30702.8152065094
 20
-4566.624688045089
 30
0.0
 40
8.399999999999996
  1
Ａ３
 41
0.9
  7
ｽﾀｲﾙ1
100
AcDbText
1001
ACAD
1000
RTMaterial
1005
0
  0
LINE
  5
39951
330
1F
100
AcDbEntity
  8
ZUWAKU
100
AcDbLine
 10
30668.25261379814
 20
-4548.632069631199
 30
0.0
 11
30668.25261379814
 21
-4592.432069631202
 31
0.0
1001
ACAD
1000
RTMaterial
1005
0
  0
LINE
  5
39952
330
1F
100
AcDbEntity
  8
ZUWAKU
100
AcDbLine
 10
30668.55261379814
 20
-4548.632069631199
 30
0.0
 11
30668.55261379814
 21
-4592.432069631202
 31
0.0
1001
ACAD
1000
RTMaterial
1005
0
  0
LINE
  5
39953
330
1F
100
AcDbEntity
  8
ZUWAKU
100
AcDbLine
 10
30667.95261379815
 20
-4548.632069631199
 30
0.0
 11
30667.95261379815
 21
-4592.432069631202
 31
0.0
1001
ACAD
1000
RTMaterial
1005
0
  0
TEXT
  5
39954
330
1F
100
AcDbEntity
  8
ZUWAKU
100
AcDbText
 10
30604.79448703419
 20
-4589.710963264489
 30
0.0
 40
4.5
  1
□には色品番が入ります
 41
0.9
  7
ｽﾀｲﾙ1
100
AcDbText
1001
ACAD
1000
RTMaterial
1005
0
  0
TEXT
  5
39955
330
1F
100
AcDbEntity
  8
ZUWAKU
100
AcDbText
 10
30670.76878133145
 20
-4579.149034823622
 30
0.0
 40
6.0
  1
縮尺
 41
0.9
  7
ｽﾀｲﾙ1
100
AcDbText
1001
ACAD
1000
RTMaterial
1005
0
  0
TEXT
  5
39956
330
1F
100
AcDbEntity
  8
moji
100
AcDbText
 10
30702.8152065094
 20
-4588.824688045093
 30
0.0
 40
8.399999999999996
  1
１/３
 41
0.9
  7
ｽﾀｲﾙ1
100
AcDbText
1001
ACAD
1000
RTMaterial
1005
0
  0
TEXT
  5
39957
330
1F
100
AcDbEntity
  8
ZUWAKU
100
AcDbText
 10
30584.70655804073
 20
-4557.549034823623
 30
0.0
 40
6.0
  1
品番
 41
0.9
  7
ｽﾀｲﾙ1
100
AcDbText
1001
ACAD
1000
RTMaterial
1005
0
  0
TEXT
  5
39958
330
1F
100
AcDbEntity
  8
ZUWAKU
100
AcDbText
 10
30670.76878133145
 20
-4557.549034823623
 30
0.0
 40
6.0
  1
用紙
 41
0.9
  7
ｽﾀｲﾙ1
100
AcDbText
1001
ACAD
1000
RTMaterial
1005
0
  0
LINE
  5
39959
330
1F
100
AcDbEntity
  8
ZUWAKU
100
AcDbLine
 10
30883.67964831624
 20
-4548.632069631199
 30
0.0
 11
30883.67964831624
 21
-4592.432069631202
 31
0.0
1001
ACAD
1000
RTMaterial
1005
0
  0
LINE
  5
3995A
330
1F
100
AcDbEntity
  8
ZUWAKU
100
AcDbLine
 10
30883.97964831623
 20
-4548.632069631199
 30
0.0
 11
30883.97964831623
 21
-4592.432069631202
 31
0.0
1001
ACAD
1000
RTMaterial
1005
0
  0
LINE
  5
3995B
330
1F
100
AcDbEntity
  8
ZUWAKU
100
AcDbLine
 10
30883.37964831624
 20
-4548.632069631199
 30
0.0
 11
30883.37964831624
 21
-4592.432069631202
 31
0.0
1001
ACAD
1000
RTMaterial
1005
0
  0
LINE
  5
3995C
330
1F
100
AcDbEntity
  8
ZUWAKU
100
AcDbLine
 10
30739.8442782001
 20
-4548.632069631199
 30
0.0
 11
30739.8442782001
 21
-4592.432069631202
 31
0.0
1001
ACAD
1000
RTMaterial
1005
0
  0
LINE
  5
3995D
330
1F
100
AcDbEntity
  8
ZUWAKU
100
AcDbLine
 10
30740.1442782001
 20
-4548.632069631199
 30
0.0
 11
30740.1442782001
 21
-4592.432069631202
 31
0.0
1001
ACAD
1000
RTMaterial
1005
0
  0
LINE
  5
3995E
330
1F
100
AcDbEntity
  8
ZUWAKU
100
AcDbLine
 10
30739.5442782001
 20
-4548.632069631199
 30
0.0
 11
30739.5442782001
 21
-4592.432069631202
 31
0.0
1001
ACAD
1000
RTMaterial
1005
0
  0
TEXT
  5
3995F
330
1F
100
AcDbEntity
  8
ZUWAKU
100
AcDbText
 10
30886.19581584955
 20
-4557.549034823623
 30
0.0
 40
6.0
  1
DATE
 41
0.9
  7
ｽﾀｲﾙ1
100
AcDbText
1001
ACAD
1000
RTMaterial
1005
0
  0
LINE
  5
39960
330
1F
100
AcDbEntity
  8
ZUWAKU
100
AcDbLine
 10
30956.62736037374
 20
-4548.632069631199
 30
0.0
 11
30956.62736037374
 21
-4592.432069631202
 31
0.0
1001
ACAD
1000
RTMaterial
1005
0
  0
LINE
  5
39961
330
1F
100
AcDbEntity
  8
ZUWAKU
100
AcDbLine
 10
30956.92736037375
 20
-4548.632069631199
 30
0.0
 11
30956.92736037375
 21
-4592.432069631202
 31
0.0
1001
ACAD
1000
RTMaterial
1005
0
  0
LINE
  5
39962
330
1F
100
AcDbEntity
  8
ZUWAKU
100
AcDbLine
 10
30957.22736037374
 20
-4548.632069631199
 30
0.0
 11
30957.22736037374
 21
-4592.432069631202
 31
0.0
1001
ACAD
1000
RTMaterial
1005
0
  0
LINE
  5
39963
330
1F
100
AcDbEntity
  8
ZUWAKU
100
AcDbLine
 10
30957.52736037374
 20
-4548.632069631199
 30
0.0
 11
30957.52736037374
 21
-4592.432069631202
 31
0.0
1001
ACAD
1000
RTMaterial
1005
0
  0
TEXT
  5
39964
330
1F
100
AcDbEntity
  8
ZUWAKU
100
AcDbText
 10
30970.62859152586
 20
-4574.98916628856
 30
0.0
 40
9.0
  1
積水化学工業株式会社
 41
0.9
  7
ｽﾀｲﾙ1
100
AcDbText
1001
ACAD
1000
RTMaterial
1005
0
  0
TEXT
  5
39965
330
1F
100
AcDbEntity
  8
moji
100
AcDbText
 10
30272.01486566386
 20
-4588.973602824434
 30
0.0
 40
8.399999999999996
  1
Ｖ-ＭAX
 41
0.9
  7
ｽﾀｲﾙ1
100
AcDbText
1001
ACAD
1000
RTMaterial
1005
0
  0
LINE
  5
39966
330
1F
100
AcDbEntity
  8
ZUWAKU
100
AcDbLine
 10
29910.75384455093
 20
-4547.432069631202
 30
0.0
 11
31106.85384455093
 21
-4547.432069631202
 31
0.0
1001
ACAD
1000
RTMaterial
1005
0
  0
LINE
  5
39967
330
1F
100
AcDbEntity
  8
ZUWAKU
100
AcDbLine
 10
29910.75384455093
 20
-4547.732069631205
 30
0.0
 11
31106.85384455093
 21
-4547.732069631205
 31
0.0
1001
ACAD
1000
RTMaterial
1005
0
  0
LINE
  5
39968
330
1F
100
AcDbEntity
  8
ZUWAKU
100
AcDbLine
 10
29910.75384455093
 20
-4548.032069631201
 30
0.0
 11
31106.85384455093
 21
-4548.032069631201
 31
0.0
1001
ACAD
1000
RTMaterial
1005
0
  0
LINE
  5
39969
330
1F
100
AcDbEntity
  8
ZUWAKU
100
AcDbLine
 10
29910.75384455093
 20
-4548.332069631204
 30
0.0
 11
31106.85384455093
 21
-4548.332069631204
 31
0.0
1001
ACAD
1000
RTMaterial
1005
0
  0
LINE
  5
3996A
330
1F
100
AcDbEntity
  8
ZUWAKU
100
AcDbLine
 10
29910.75384455093
 20
-4548.632069631199
 30
0.0
 11
31106.85384455093
 21
-4548.632069631199
 31
0.0
1001
ACAD
1000
RTMaterial
1005
0
  0
LWPOLYLINE
  5
3996B
330
1F
100
AcDbEntity
  8
ZUWAKU
100
AcDbPolyline
 90
        4
 70
     1
 43
0.0
 10
29911.05384455093
 20
-3766.532069631201
 10
29911.05384455093
 20
-4593.332069631204
 10
31106.85384455093
 20
-4593.332069631204
 10
31106.85384455093
 20
-3766.532069631201
1001
ACAD
1000
RTMaterial
1005
0
  0
LWPOLYLINE
  5
3996C
330
1F
100
AcDbEntity
  8
ZUWAKU
100
AcDbPolyline
 90
        4
 70
     1
 43
0.0
 10
29911.65384455093
 20
-3767.1320696312
 10
29911.65384455093
 20
-4592.732069631205
 10
31106.25384455093
 20
-4592.732069631205
 10
31106.25384455093
 20
-3767.1320696312
1001
ACAD
1000
RTMaterial
1005
0
  0
LWPOLYLINE
  5
3996D
330
1F
100
AcDbEntity
  8
ZUWAKU
100
AcDbPolyline
 90
        4
 70
     1
 43
0.0
 10
29910.75384455093
 20
-3766.232069631206
 10
29910.75384455093
 20
-4593.632069631199
 10
31107.15384455093
 20
-4593.632069631199
 10
31107.15384455093
 20
-3766.232069631206
1001
ACAD
1000
RTMaterial
1005
0
  0
LWPOLYLINE
  5
3996E
330
1F
100
AcDbEntity
  8
ZUWAKU
100
AcDbPolyline
 90
        4
 70
     1
 43
0.0
 10
29911.35384455093
 20
-3766.832069631204
 10
29911.35384455093
 20
-4593.032069631201
 10
31106.55384455093
 20
-4593.032069631201
 10
31106.55384455093
 20
-3766.832069631204
1001
ACAD
1000
RTMaterial
1005
0
  0
LWPOLYLINE
  5
3996F
330
1F
100
AcDbEntity
  8
ZUWAKU
100
AcDbPolyline
 90
        4
 70
     1
 43
0.0
 10
29911.95384455093
 20
-3767.432069631202
 10
29911.95384455093
 20
-4592.432069631202
 10
31105.95384455093
 20
-4592.432069631202
 10
31105.95384455093
 20
-3767.432069631202
1001
ACAD
1000
RTMaterial
1005
0
  0
LINE
  5
39A35
330
1F
100
AcDbEntity
  8
CENTER L
  6
CENTER
 62
     1
 48
5.0
100
AcDbLine
 10
30782.55895801761
 20
-4036.746434985706
 30
0.0
 11
30730.72538063506
 21
-4036.746434985706
 31
0.0
  0
DIMENSION
  5
39A36
330
1F
100
AcDbEntity
  8
SUNPOU
  6
Continuous
100
AcDbDimension
  2
*D6
 10
30550.98681440307
 20
-4154.046434985704
 30
0.0
 11
30540.98681440307
 21
-4038.0464349857
 31
0.0
 70
    32
 71
     5
 42
232.0
  3
STANDARD
100
AcDbAlignedDimension
 13
30503.56083044387
 23
-3922.046434985706
 33
0.0
 14
30503.56083044387
 24
-4154.046434985704
 34
0.0
 50
90.0
100
AcDbRotatedDimension
1001
ACAD
1000
DSTYLE
1002
{
1070
    41
1040
14.0
1070
    42
1040
12.0
1070
    43
1040
28.0
1070
    44
1040
6.0
1070
    73
1070
     0
1070
    74
1070
     0
1070
    77
1070
     3
1070
   140
1040
12.0
1070
   141
1040
150.0
1070
   143
1040
0.03937
1070
   147
1040
4.0
1070
   172
1070
     1
1070
   173
1070
     1
1070
   176
1070
     4
1070
   177
1070
     4
1070
   178
1070
     4
1070
   271
1070
     0
1070
   272
1070
     2
1070
   343
1005
3729
1070
   344
1005
3729
1002
}
  0
LINE
  5
39A37
330
1F
100
AcDbEntity
  8
CENTER L
  6
CENTER
 62
     1
 48
5.0
100
AcDbLine
 10
30346.59080865723
 20
-4332.016541851578
 30
0.0
 11
30346.59080865723
 21
-4396.484226253155
 31
0.0
  0
LINE
  5
39A38
330
1F
100
AcDbEntity
  8
CENTER L
  6
CENTER
 62
     1
 48
5.0
100
AcDbLine
 10
30346.59080865723
 20
-4124.538459085672
 30
0.0
 11
30346.59080865713
 21
-3948.954410885739
 31
0.0
  0
LINE
  5
39A39
330
1F
100
AcDbEntity
  8
CENTER L
  6
CENTER
 62
     1
 48
5.0
100
AcDbLine
 10
30521.85372218214
 20
-4036.746434985706
 30
0.0
 11
30171.32789513222
 21
-4036.746434985706
 31
0.0
  0
DIMENSION
  5
39A3A
330
1F
100
AcDbEntity
  8
SUNPOU
  6
Continuous
100
AcDbDimension
  2
*D7
 10
30503.09080865719
 20
-4421.968550601433
 30
0.0
 11
30346.59080865719
 21
-4411.968550601432
 31
0.0
 70
    32
 71
     5
 42
313.0000000000036
  3
STANDARD
100
AcDbAlignedDimension
 13
30190.09080865719
 23
-4389.250384052366
 33
0.0
 14
30503.09080865719
 24
-4389.250384052366
 34
0.0
100
AcDbRotatedDimension
1001
ACAD
1000
DSTYLE
1002
{
1070
    41
1040
14.0
1070
    42
1040
12.0
1070
    43
1040
28.0
1070
    44
1040
6.0
1070
    73
1070
     0
1070
    74
1070
     0
1070
    77
1070
     3
1070
   140
1040
12.0
1070
   141
1040
150.0
1070
   143
1040
0.03937
1070
   147
1040
4.0
1070
   172
1070
     1
1070
   173
1070
     1
1070
   176
1070
     4
1070
   177
1070
     4
1070
   178
1070
     4
1070
   271
1070
     0
1070
   272
1070
     2
1070
   343
1005
3729
1070
   344
1005
3729
1002
}
  0
LINE
  5
39A3B
330
1F
100
AcDbEntity
  8
SEIHIN
  6
Continuous
 62
     3
100
AcDbLine
 10
30187.67038032617
 20
-3961.746434985706
 30
0.0
 11
30187.67038032617
 21
-4111.746434985706
 31
0.0
  0
LINE
  5
39A3C
330
1F
100
AcDbEntity
  8
SEIHIN
  6
Continuous
 62
     3
100
AcDbLine
 10
30505.51123698829
 20
-4111.746434985706
 30
0.0
 11
30505.51123698829
 21
-3961.746434985706
 31
0.0
  0
LINE
  5
39A3D
330
1F
100
AcDbEntity
  8
SEIHIN
  6
Continuous
 62
     3
100
AcDbLine
 10
30485.46497563213
 20
-4113.046434985705
 30
0.0
 11
30207.71664168211
 21
-4113.046434985705
 31
0.0
  0
CIRCLE
  5
39A3E
330
1F
100
AcDbEntity
  8
SEIHIN
  6
Continuous
 62
     3
100
AcDbCircle
 10
30426.59080865723
 20
-4098.046434985706
 30
0.0
 40
1.25
  0
CIRCLE
  5
39A3F
330
1F
100
AcDbEntity
  8
SEIHIN
  6
Continuous
 62
     3
100
AcDbCircle
 10
30346.59080865723
 20
-4098.046434985706
 30
0.0
 40
1.249999999999772
  0
CIRCLE
  5
39A40
330
1F
100
AcDbEntity
  8
SEIHIN
  6
Continuous
 62
     3
100
AcDbCircle
 10
30266.59080865722
 20
-4098.046434985706
 30
0.0
 40
1.25
  0
LINE
  5
39A41
330
1F
100
AcDbEntity
  8
SEIHIN
  6
Continuous
 62
     3
100
AcDbLine
 10
30207.71664168211
 20
-3960.446434985705
 30
0.0
 11
30485.46497563213
 21
-3960.446434985705
 31
0.0
  0
LINE
  5
39A45
330
1F
100
AcDbEntity
  8
SEIHIN
  6
Continuous
 62
     3
100
AcDbLine
 10
30503.56083044387
 20
-3922.046434985706
 30
0.0
 11
30488.09080865706
 21
-3922.046434985706
 31
0.0
  0
LWPOLYLINE
  5
39A46
330
1F
100
AcDbEntity
  8
SEIHIN
  6
Continuous
 62
     3
100
AcDbPolyline
 90
        9
 70
   128
 43
0.0
 10
30505.06083044387
 20
-3925.046434985706
 10
30505.03200836448
 20
-3924.461164019657
 10
30504.94664974264
 20
-3923.89838468861
 10
30504.80803486233
 20
-3923.379724286647
 10
30504.62149061565
 20
-3922.925114642146
 10
30504.3941857934
 20
-3922.552026148798
 10
30504.13485559242
 20
-3922.274796388172
 10
30503.85346592689
 20
-3922.104079144496
 10
30503.56083044387
 20
-3922.046434985706
  0
LINE
  5
39A47
330
1F
100
AcDbEntity
  8
SEIHIN
  6
Continuous
 62
     3
100
AcDbLine
 10
30505.06083044387
 20
-3961.746434985706
 30
0.0
 11
30505.06083044387
 21
-3925.046434985706
 31
0.0
  0
LINE
  5
39A48
330
1F
100
AcDbEntity
  8
SEIHIN
  6
Continuous
 62
     3
100
AcDbLine
 10
30505.06083044387
 20
-3961.746434985706
 30
0.0
 11
30505.17630049775
 21
-3961.746434985706
 31
0.0
  0
LINE
  5
39A4A
330
1F
100
AcDbEntity
  8
SEIHIN
  6
Continuous
 62
     3
100
AcDbLine
 10
30505.17630049775
 20
-4111.746434985706
 30
0.0
 11
30505.06083044387
 21
-4111.746434985706
 31
0.0
  0
LINE
  5
39A4B
330
1F
100
AcDbEntity
  8
SEIHIN
  6
Continuous
 62
     3
100
AcDbLine
 10
30505.06083044387
 20
-4151.046434985704
 30
0.0
 11
30505.06083044387
 21
-4111.746434985706
 31
0.0
  0
LWPOLYLINE
  5
39A4C
330
1F
100
AcDbEntity
  8
SEIHIN
  6
Continuous
 62
     3
100
AcDbPolyline
 90
        9
 70
   128
 43
0.0
 10
30503.56083044387
 20
-4154.046434985704
 10
30503.85346592689
 20
-4153.988790826915
 10
30504.13485559242
 20
-4153.818073583238
 10
30504.3941857934
 20
-4153.540843822612
 10
30504.62149061565
 20
-4153.167755329264
 10
30504.80803486232
 20
-4152.713145684764
 10
30504.94664974264
 20
-4152.1944852828
 10
30505.03200836447
 20
-4151.631705951753
 10
30505.06083044387
 20
-4151.046434985704
  0
LINE
  5
39A4D
330
1F
100
AcDbEntity
  8
SEIHIN
  6
Continuous
 62
     3
100
AcDbLine
 10
30503.56083044387
 20
-4154.046434985704
 30
0.0
 11
30488.09080865705
 21
-4154.046434985704
 31
0.0
  0
LINE
  5
39A4F
330
1F
100
AcDbEntity
  8
SEIHIN
  6
Continuous
 62
     3
100
AcDbLine
 10
30486.96497563213
 20
-3922.046434985706
 30
0.0
 11
30488.09080865706
 21
-3922.046434985706
 31
0.0
  0
LWPOLYLINE
  5
39A50
330
1F
100
AcDbEntity
  8
SEIHIN
  6
Continuous
 62
     3
100
AcDbPolyline
 90
        9
 70
   128
 43
0.0
 10
30485.46497563213
 20
-3925.046434985706
 10
30485.49379771153
 20
-3924.461164019657
 10
30485.57915633336
 20
-3923.89838468861
 10
30485.71777121368
 20
-3923.379724286647
 10
30485.90431546035
 20
-3922.925114642146
 10
30486.1316202826
 20
-3922.552026148798
 10
30486.39095048359
 20
-3922.274796388172
 10
30486.67234014911
 20
-3922.104079144496
 10
30486.96497563213
 20
-3922.046434985706
  0
LINE
  5
39A51
330
1F
100
AcDbEntity
  8
SEIHIN
  6
Continuous
 62
     3
100
AcDbLine
 10
30488.09080865705
 20
-4154.046434985704
 30
0.0
 11
30486.96497563213
 21
-4154.046434985704
 31
0.0
  0
LWPOLYLINE
  5
39A53
330
1F
100
AcDbEntity
  8
SEIHIN
  6
Continuous
 62
     3
100
AcDbPolyline
 90
        9
 70
   128
 43
0.0
 10
30486.96497563213
 20
-4154.046434985704
 10
30486.67234014911
 20
-4153.988790826915
 10
30486.39095048358
 20
-4153.818073583238
 10
30486.1316202826
 20
-4153.540843822612
 10
30485.90431546035
 20
-4153.167755329264
 10
30485.71777121368
 20
-4152.713145684764
 10
30485.57915633336
 20
-4152.1944852828
 10
30485.49379771152
 20
-4151.631705951753
 10
30485.46497563213
 20
-4151.046434985704
  0
LWPOLYLINE
  5
39A55
330
1F
100
AcDbEntity
  8
SEIHIN
  6
Continuous
 62
     3
100
AcDbPolyline
 90
        9
 70
   128
 43
0.0
 10
30207.7166416821
 20
-4151.046434985704
 10
30207.68781960271
 20
-4151.631705951753
 10
30207.60246098087
 20
-4152.1944852828
 10
30207.46384610056
 20
-4152.713145684764
 10
30207.27730185388
 20
-4153.167755329264
 10
30207.04999703164
 20
-4153.540843822612
 10
30206.79066683066
 20
-4153.818073583238
 10
30206.50927716513
 20
-4153.988790826915
 10
30206.21664168211
 20
-4154.046434985704
  0
LINE
  5
39A56
330
1F
100
AcDbEntity
  8
SEIHIN
  6
Continuous
 62
     3
100
AcDbLine
 10
30206.21664168211
 20
-4154.046434985704
 30
0.0
 11
30205.09080865719
 21
-4154.046434985704
 31
0.0
  0
LINE
  5
39A58
330
1F
100
AcDbEntity
  8
SEIHIN
  6
Continuous
 62
     3
100
AcDbLine
 10
30205.09080865719
 20
-3922.046434985706
 30
0.0
 11
30206.21664168211
 21
-3922.046434985706
 31
0.0
  0
LWPOLYLINE
  5
39A59
330
1F
100
AcDbEntity
  8
SEIHIN
  6
Continuous
 62
     3
100
AcDbPolyline
 90
        9
 70
   128
 43
0.0
 10
30206.21664168211
 20
-3922.046434985706
 10
30206.50927716513
 20
-3922.104079144496
 10
30206.79066683066
 20
-3922.274796388172
 10
30207.04999703164
 20
-3922.552026148798
 10
30207.27730185389
 20
-3922.925114642146
 10
30207.46384610057
 20
-3923.379724286647
 10
30207.60246098087
 20
-3923.89838468861
 10
30207.68781960271
 20
-3924.461164019657
 10
30207.71664168211
 20
-3925.046434985706
  0
LINE
  5
39A5D
330
1F
100
AcDbEntity
  8
SEIHIN
  6
Continuous
 62
     3
100
AcDbLine
 10
30207.7166416821
 20
-4151.046434985704
 30
0.0
 11
30207.71664168211
 21
-3925.046434985706
 31
0.0
  0
LINE
  5
39A5E
330
1F
100
AcDbEntity
  8
SEIHIN
  6
Continuous
 62
     3
100
AcDbLine
 10
30485.46497563213
 20
-3925.046434985706
 30
0.0
 11
30485.46497563213
 21
-4151.046434985704
 31
0.0
  0
LINE
  5
39A5F
330
1F
100
AcDbEntity
  8
SEIHIN
  6
Continuous
 62
     3
100
AcDbLine
 10
30189.62078687054
 20
-4154.046434985704
 30
0.0
 11
30205.09080865719
 21
-4154.046434985704
 31
0.0
  0
LWPOLYLINE
  5
39A60
330
1F
100
AcDbEntity
  8
SEIHIN
  6
Continuous
 62
     3
100
AcDbPolyline
 90
        9
 70
   128
 43
0.0
 10
30188.12078687054
 20
-4151.046434985704
 10
30188.14960894993
 20
-4151.631705951753
 10
30188.23496757177
 20
-4152.1944852828
 10
30188.37358245209
 20
-4152.713145684764
 10
30188.56012669876
 20
-4153.167755329264
 10
30188.78743152101
 20
-4153.540843822612
 10
30189.04676172199
 20
-4153.818073583238
 10
30189.32815138752
 20
-4153.988790826915
 10
30189.62078687054
 20
-4154.046434985704
  0
LINE
  5
39A61
330
1F
100
AcDbEntity
  8
SEIHIN
  6
Continuous
 62
     3
100
AcDbLine
 10
30188.12078687054
 20
-4111.746434985706
 30
0.0
 11
30188.12078687054
 21
-4151.046434985704
 31
0.0
  0
LINE
  5
39A62
330
1F
100
AcDbEntity
  8
SEIHIN
  6
Continuous
 62
     3
100
AcDbLine
 10
30188.12078687054
 20
-4111.746434985706
 30
0.0
 11
30188.0053168167
 21
-4111.746434985706
 31
0.0
  0
LINE
  5
39A64
330
1F
100
AcDbEntity
  8
SEIHIN
  6
Continuous
 62
     3
100
AcDbLine
 10
30188.0053168167
 20
-3961.746434985706
 30
0.0
 11
30188.12078687054
 21
-3961.746434985706
 31
0.0
  0
LINE
  5
39A65
330
1F
100
AcDbEntity
  8
SEIHIN
  6
Continuous
 62
     3
100
AcDbLine
 10
30188.12078687054
 20
-3925.046434985706
 30
0.0
 11
30188.12078687054
 21
-3961.746434985706
 31
0.0
  0
LWPOLYLINE
  5
39A66
330
1F
100
AcDbEntity
  8
SEIHIN
  6
Continuous
 62
     3
100
AcDbPolyline
 90
        9
 70
   128
 43
0.0
 10
30189.62078687054
 20
-3922.046434985706
 10
30189.32815138752
 20
-3922.104079144496
 10
30189.046761722
 20
-3922.274796388172
 10
30188.78743152102
 20
-3922.552026148798
 10
30188.56012669876
 20
-3922.925114642146
 10
30188.37358245209
 20
-3923.379724286647
 10
30188.23496757177
 20
-3923.89838468861
 10
30188.14960894994
 20
-3924.461164019657
 10
30188.12078687054
 20
-3925.046434985706
  0
LINE
  5
39A67
330
1F
100
AcDbEntity
  8
SEIHIN
  6
Continuous
 62
     3
100
AcDbLine
 10
30189.62078687054
 20
-3922.046434985706
 30
0.0
 11
30205.09080865719
 21
-3922.046434985706
 31
0.0
  0
LINE
  5
39A68
330
1F
100
AcDbEntity
  8
SEIHIN
  6
Continuous
 62
     3
100
AcDbLine
 10
30188.0053168167
 20
-3961.746434985706
 30
0.0
 11
30187.67038032617
 21
-3961.746434985706
 31
0.0
  0
LINE
  5
39A69
330
1F
100
AcDbEntity
  8
SEIHIN
  6
Continuous
 62
     3
100
AcDbLine
 10
30187.67038032617
 20
-4111.746434985706
 30
0.0
 11
30188.0053168167
 21
-4111.746434985706
 31
0.0
  0
LINE
  5
39A6A
330
1F
100
AcDbEntity
  8
SEIHIN
  6
Continuous
 62
     3
100
AcDbLine
 10
30505.51123698829
 20
-3961.746434985706
 30
0.0
 11
30505.17630049775
 21
-3961.746434985706
 31
0.0
  0
LINE
  5
39A6B
330
1F
100
AcDbEntity
  8
SEIHIN
  6
Continuous
 62
     3
100
AcDbLine
 10
30505.17630049775
 20
-4111.746434985706
 30
0.0
 11
30505.51123698829
 21
-4111.746434985706
 31
0.0
  0
INSERT
  5
39A6C
330
1F
100
AcDbEntity
  8
SEIHIN
  6
Continuous
 62
     3
100
AcDbBlockReference
  2
SW_CENTERMARKSYMBOL_0
 10
30426.59080865723
 20
-4098.046434985706
 30
0.0
  0
INSERT
  5
39A6D
330
1F
100
AcDbEntity
  8
SEIHIN
  6
Continuous
 62
     3
100
AcDbBlockReference
  2
SW_CENTERMARKSYMBOL_1
 10
30346.59080865723
 20
-4098.046434985706
 30
0.0
  0
INSERT
  5
39A6E
330
1F
100
AcDbEntity
  8
SEIHIN
  6
Continuous
 62
     3
100
AcDbBlockReference
  2
SW_CENTERMARKSYMBOL_2
 10
30266.59080865722
 20
-4098.046434985706
 30
0.0
  0
LINE
  5
39A70
330
1F
100
AcDbEntity
  8
SEIHIN
  6
Continuous
 62
     3
100
AcDbLine
 10
30503.56083044387
 20
-4359.002307840952
 30
0.0
 11
30488.36083044384
 21
-4332.675135565962
 31
0.0
  0
LINE
  5
39A72
330
1F
100
AcDbEntity
  8
SEIHIN
  6
Continuous
 62
     3
100
AcDbLine
 10
30502.43499741895
 20
-4359.652307840952
 30
0.0
 11
30486.96497563213
 21
-4332.857444112101
 31
0.0
  0
LINE
  5
39A73
330
1F
100
AcDbEntity
  8
SEIHIN
  6
Continuous
 62
     3
100
AcDbLine
 10
30189.24661989546
 20
-4362.250384052367
 30
0.0
 11
30188.12078687054
 21
-4361.600384052367
 31
0.0
  0
LINE
  5
39A75
330
1F
100
AcDbEntity
  8
SEIHIN
  6
Continuous
 62
     3
100
AcDbLine
 10
30190.74661989546
 20
-4359.652307841013
 30
0.0
 11
30189.24661989546
 21
-4362.250384052367
 31
0.0
  0
LINE
  5
39A76
330
1F
100
AcDbEntity
  8
SEIHIN
  6
Continuous
 62
     3
100
AcDbLine
 10
30188.12078687054
 20
-4361.600384052367
 30
0.0
 11
30189.62078687054
 21
-4359.002307841014
 31
0.0
  0
LINE
  5
39A77
330
1F
100
AcDbEntity
  8
SEIHIN
  6
Continuous
 62
     3
100
AcDbLine
 10
30505.06083044387
 20
-4361.600384052302
 30
0.0
 11
30503.93499741884
 21
-4362.250384052367
 31
0.0
  0
LINE
  5
39A78
330
1F
100
AcDbEntity
  8
SEIHIN
  6
Continuous
 62
     3
100
AcDbLine
 10
30503.56083044387
 20
-4359.002307840952
 30
0.0
 11
30505.06083044387
 21
-4361.600384052302
 31
0.0
  0
LINE
  5
39A79
330
1F
100
AcDbEntity
  8
SEIHIN
  6
Continuous
 62
     3
100
AcDbLine
 10
30503.93499741884
 20
-4362.250384052367
 30
0.0
 11
30502.43499741895
 21
-4359.652307840952
 31
0.0
  0
LINE
  5
39A7B
330
1F
100
AcDbEntity
  8
SEIHIN
  6
Continuous
 62
     3
100
AcDbLine
 10
30190.74661989546
 20
-4359.652307841013
 30
0.0
 11
30205.94661989547
 21
-4333.325135565964
 31
0.0
  0
LINE
  5
39A7C
330
1F
100
AcDbEntity
  8
SEIHIN
  6
Continuous
 62
     3
100
AcDbLine
 10
30189.62078687054
 20
-4359.002307841014
 30
0.0
 11
30204.82078687054
 21
-4332.675135565964
 31
0.0
  0
LINE
  5
39A7D
330
1F
100
AcDbEntity
  8
SEIHIN
  6
Continuous
 62
     3
100
AcDbLine
 10
30206.32078687055
 20
-4330.077059354611
 30
0.0
 11
30207.44661989547
 21
-4330.72705935461
 31
0.0
  0
LINE
  5
39A7E
330
1F
100
AcDbEntity
  8
SEIHIN
  6
Continuous
 62
     3
100
AcDbLine
 10
30207.44661989547
 20
-4330.72705935461
 30
0.0
 11
30205.94661989547
 21
-4333.325135565964
 31
0.0
  0
LINE
  5
39A7F
330
1F
100
AcDbEntity
  8
SEIHIN
  6
Continuous
 62
     3
100
AcDbLine
 10
30204.82078687054
 20
-4332.675135565964
 30
0.0
 11
30206.32078687055
 21
-4330.077059354611
 31
0.0
  0
LINE
  5
39A80
330
1F
100
AcDbEntity
  8
SEIHIN
  6
Continuous
 62
     3
100
AcDbLine
 10
30485.73499741892
 20
-4330.727059354614
 30
0.0
 11
30486.86083044384
 21
-4330.077059354611
 31
0.0
  0
LINE
  5
39A81
330
1F
100
AcDbEntity
  8
SEIHIN
  6
Continuous
 62
     3
100
AcDbLine
 10
30486.86083044384
 20
-4330.077059354611
 30
0.0
 11
30488.36083044384
 21
-4332.675135565962
 31
0.0
  0
LINE
  5
39A82
330
1F
100
AcDbEntity
  8
SEIHIN
  6
Continuous
 62
     3
100
AcDbLine
 10
30486.96497563213
 20
-4332.857444112101
 30
0.0
 11
30485.73499741892
 21
-4330.727059354614
 31
0.0
  0
ARC
  5
39A84
330
1F
100
AcDbEntity
  8
SEIHIN
  6
Continuous
 62
     3
100
AcDbCircle
 10
30503.01123698829
 20
-4363.050384052367
 30
0.0
 40
2.700000000000045
100
AcDbArc
 50
270.0
 51
271.6888077842321
  0
LINE
  5
39A85
330
1F
100
AcDbEntity
  8
SEIHIN
  6
Continuous
 62
     3
100
AcDbLine
 10
30503.01123698829
 20
-4365.750384052367
 30
0.0
 11
30503.01123698829
 21
-4364.250384052366
 31
0.0
  0
ARC
  5
39A86
330
1F
100
AcDbEntity
  8
SEIHIN
  6
Continuous
 62
     3
100
AcDbCircle
 10
30503.01123698829
 20
-4363.050384052367
 30
0.0
 40
1.199999999999955
100
AcDbArc
 50
270.0
 51
30.00000000010058
  0
SPLINE
  5
39A88
330
1F
100
AcDbEntity
  8
SEIHIN
  6
Continuous
 62
     3
100
AcDbSpline
210
0.0
220
0.0
230
1.0
 70
    24
 71
     3
 72
    11
 73
     7
 74
     0
 42
0.0000000001
 43
0.0000000001
 40
0.0
 40
0.0
 40
0.0
 40
0.0
 40
0.0002611831871337
 40
0.0002611831871337
 40
0.0002611831871337
 40
0.0002689291538262
 40
0.0002689291538262
 40
0.0002689291538262
 40
0.0002689291538262
 10
30503.96057465269
 20
-4362.294685120654
 30
0.0
 10
30503.98983700084
 20
-4362.345368994393
 30
0.0
 10
30504.01886492229
 20
-4362.395646829189
 30
0.0
 10
30504.04788547795
 20
-4362.44591190606
 30
0.0
 10
30504.04874614689
 20
-4362.447402628396
 30
0.0
 10
30504.04960680787
 20
-4362.448893336929
 30
0.0
 10
30504.05046747283
 20
-4362.450384052364
 30
0.0
  0
ARC
  5
39A89
330
1F
100
AcDbEntity
  8
SEIHIN
  6
Continuous
 62
     3
100
AcDbCircle
 10
30190.17038032616
 20
-4363.050384052367
 30
0.0
 40
2.700000000000057
100
AcDbArc
 50
268.3111922142038
 51
270.0
  0
ARC
  5
39A8B
330
1F
100
AcDbEntity
  8
SEIHIN
  6
Continuous
 62
     3
100
AcDbCircle
 10
30190.17038032616
 20
-4363.050384052367
 30
0.0
 40
1.199999999999931
100
AcDbArc
 50
149.9999999999897
 51
270.0
  0
SPLINE
  5
39A8D
330
1F
100
AcDbEntity
  8
SEIHIN
  6
Continuous
 62
     3
100
AcDbSpline
210
0.0
220
0.0
230
1.0
 70
    24
 71
     3
 72
    12
 73
     8
 74
     0
 42
0.0000000001
 43
0.0000000001
 40
0.0
 40
0.0
 40
0.0
 40
0.0
 40
0.2499999999999937
 40
0.2499999999999937
 40
0.4999999999999874
 40
0.4999999999999874
 40
1.0
 40
1.0
 40
1.0
 40
1.0
 10
30190.09080865719
 20
-4365.749211269789
 30
0.0
 10
30190.09080865719
 20
-4365.567867061009
 30
0.0
 10
30190.09080865719
 20
-4365.390805877473
 30
0.0
 10
30190.09080865719
 20
-4365.052406835326
 30
0.0
 10
30190.09080865719
 20
-4364.897055517258
 30
0.0
 10
30190.09080865719
 20
-4364.48987757785
 30
0.0
 10
30190.09080865719
 20
-4364.309627362866
 30
0.0
 10
30190.09080865719
 20
-4364.261165298482
 30
0.0
  0
SPLINE
  5
39A8E
330
1F
100
AcDbEntity
  8
SEIHIN
  6
Continuous
 62
     3
100
AcDbSpline
210
0.0
220
0.0
230
1.0
 70
    24
 71
     3
 72
    11
 73
     7
 74
     0
 42
0.0000000001
 43
0.0000000001
 40
0.0
 40
0.0
 40
0.0
 40
0.0
 40
0.0002611831871335
 40
0.0002611831871335
 40
0.0002611831871335
 40
0.000268929153826
 40
0.000268929153826
 40
0.000268929153826
 40
0.000268929153826
 10
30189.22104266176
 20
-4362.294685120656
 30
0.0
 10
30189.19178031362
 20
-4362.345368994394
 30
0.0
 10
30189.16275239215
 20
-4362.395646829201
 30
0.0
 10
30189.1337318365
 20
-4362.44591190606
 30
0.0
 10
30189.13287116755
 20
-4362.447402628396
 30
0.0
 10
30189.13201050658
 20
-4362.448893336931
 30
0.0
 10
30189.13114984163
 20
-4362.450384052368
 30
0.0
  0
LINE
  5
39A8F
330
1F
100
AcDbEntity
  8
SEIHIN
  6
Continuous
 62
     3
100
AcDbLine
 10
30503.09080865719
 20
-4389.250384052366
 30
0.0
 11
30190.09080865719
 21
-4389.250384052366
 31
0.0
  0
LINE
  5
39A90
330
1F
100
AcDbEntity
  8
SEIHIN
  6
Continuous
 62
     3
100
AcDbLine
 10
30190.09080865719
 20
-4389.250384052366
 30
0.0
 11
30190.09080865719
 21
-4387.750384052366
 31
0.0
  0
LINE
  5
39A91
330
1F
100
AcDbEntity
  8
SEIHIN
  6
Continuous
 62
     3
100
AcDbLine
 10
30503.09080865719
 20
-4387.750384052366
 30
0.0
 11
30503.09080865719
 21
-4389.250384052366
 31
0.0
  0
LINE
  5
39A92
330
1F
100
AcDbEntity
  8
SEIHIN
  6
Continuous
 62
     3
100
AcDbLine
 10
30503.01123698829
 20
-4365.750384052367
 30
0.0
 11
30190.17038032616
 21
-4365.750384052367
 31
0.0
  0
LINE
  5
39A93
330
1F
100
AcDbEntity
  8
SEIHIN
  6
Continuous
 62
     3
100
AcDbLine
 10
30190.09080865719
 20
-4387.750384052366
 30
0.0
 11
30190.09080865719
 21
-4365.749211269789
 31
0.0
  0
LINE
  5
39A94
330
1F
100
AcDbEntity
  8
SEIHIN
  6
Continuous
 62
     3
100
AcDbLine
 10
30503.09080865719
 20
-4365.749211269791
 30
0.0
 11
30503.09080865719
 21
-4387.750384052366
 31
0.0
  0
LINE
  5
39A95
330
1F
100
AcDbEntity
  8
SEIHIN
  6
Continuous
 62
     3
100
AcDbLine
 10
30190.17038032616
 20
-4364.250384052366
 30
0.0
 11
30503.01123698829
 21
-4364.250384052366
 31
0.0
  0
ARC
  5
39A96
330
1F
100
AcDbEntity
  8
SEIHIN
  6
Continuous
 62
     3
100
AcDbCircle
 10
30503.01123698829
 20
-4363.050384052367
 30
0.0
 40
2.500000000000111
100
AcDbArc
 50
271.8239563713295
 51
30.00000000010058
  0
LINE
  5
39A97
330
1F
100
AcDbEntity
  8
SEIHIN
  6
Continuous
 62
     3
100
AcDbLine
 10
30505.17630049775
 20
-4361.800384052363
 30
0.0
 11
30505.06083044387
 21
-4361.600384052302
 31
0.0
  0
LINE
  5
39A98
330
1F
100
AcDbEntity
  8
SEIHIN
  6
Continuous
 62
     3
100
AcDbLine
 10
30503.96057465269
 20
-4362.294685120654
 30
0.0
 11
30503.93499741895
 21
-4362.250384052302
 31
0.0
  0
ARC
  5
39A99
330
1F
100
AcDbEntity
  8
SEIHIN
  6
Continuous
 62
     3
100
AcDbCircle
 10
30190.17038032616
 20
-4363.050384052367
 30
0.0
 40
2.500000000000035
100
AcDbArc
 50
149.9999999999897
 51
268.1760436270022
  0
LINE
  5
39A9A
330
1F
100
AcDbEntity
  8
SEIHIN
  6
Continuous
 62
     3
100
AcDbLine
 10
30189.24661989546
 20
-4362.250384052367
 30
0.0
 11
30189.22104266176
 21
-4362.294685120656
 31
0.0
  0
LINE
  5
39A9B
330
1F
100
AcDbEntity
  8
SEIHIN
  6
Continuous
 62
     3
100
AcDbLine
 10
30188.12078687054
 20
-4361.600384052367
 30
0.0
 11
30188.0053168167
 21
-4361.800384052367
 31
0.0
  0
ARC
  5
39A9C
330
1F
100
AcDbEntity
  8
SEIHIN
  6
Continuous
 62
     3
100
AcDbCircle
 10
30742.82934366257
 20
-4151.233934985707
 30
0.0
 40
2.820821024098846
100
AcDbArc
 50
176.188738950563
 51
265.5980503477386
  0
LINE
  5
39A9D
330
1F
100
AcDbEntity
  8
SEIHIN
  6
Continuous
 62
     3
100
AcDbLine
 10
30740.01476110027
 20
-3925.046434985706
 30
0.0
 11
30740.01476110027
 21
-4151.046434985704
 31
0.0
  0
ARC
  5
39A9E
330
1F
100
AcDbEntity
  8
SEIHIN
  6
Continuous
 62
     3
100
AcDbCircle
 10
30742.82934366258
 20
-3924.858934985707
 30
0.0
 40
2.820821024099398
100
AcDbArc
 50
94.40194965226142
 51
183.811261049437
  0
LINE
  5
39A9F
330
1F
100
AcDbEntity
  8
SEIHIN
  6
Continuous
 62
     3
100
AcDbLine
 10
30769.4077010403
 20
-3922.046434985706
 30
0.0
 11
30742.61283731163
 21
-3922.046434985706
 31
0.0
  0
LINE
  5
39AA3
330
1F
100
AcDbEntity
  8
SEIHIN
  6
Continuous
 62
     3
100
AcDbLine
 10
30772.20577725165
 20
-4110.446434985706
 30
0.0
 11
30772.20577725165
 21
-3963.046434985709
 31
0.0
  0
LINE
  5
39AA7
330
1F
100
AcDbEntity
  8
SEIHIN
  6
Continuous
 62
     3
100
AcDbLine
 10
30769.4077010403
 20
-4154.046434985704
 30
0.0
 11
30742.61283731163
 21
-4154.046434985704
 31
0.0
  0
ARC
  5
39AA8
330
1F
100
AcDbEntity
  8
SEIHIN
  6
Continuous
 62
     3
100
AcDbCircle
 10
30798.15577725165
 20
-4110.246434985707
 30
0.0
 40
1.500000000000227
100
AcDbArc
 50
270.0
 51
0.0
  0
LINE
  5
39AA9
330
1F
100
AcDbEntity
  8
SEIHIN
  6
Continuous
 62
     3
100
AcDbLine
 10
30776.15460446907
 20
-4111.746434985706
 30
0.0
 11
30798.15577725165
 21
-4111.746434985706
 31
0.0
  0
SPLINE
  5
39AAA
330
1F
100
AcDbEntity
  8
SEIHIN
  6
Continuous
 62
     3
100
AcDbSpline
210
0.0
220
0.0
230
1.0
 70
     8
 71
     3
 72
    14
 73
    10
 74
     0
 42
0.0000000001
 43
0.0000000001
 40
0.0
 40
0.0
 40
0.0
 40
0.0
 40
0.25
 40
0.25
 40
0.5
 40
0.5
 40
0.75
 40
0.75
 40
1.0
 40
1.0
 40
1.0
 40
1.0
 10
30774.66655849776
 20
-4110.446434985706
 30
0.0
 10
30774.69080309049
 20
-4110.626257965394
 30
0.0
 10
30774.74591157784
 20
-4110.795964915813
 30
0.0
 10
30774.91751146801
 20
-4111.115259794821
 30
0.0
 10
30775.02985723769
 20
-4111.256140186537
 30
0.0
 10
30775.30234540431
 20
-4111.494339093364
 30
0.0
 10
30775.4576539484
 20
-4111.587076981634
 30
0.0
 10
30775.79540910706
 20
-4111.713952545475
 30
0.0
 10
30775.97316028739
 20
-4111.746434985706
 30
0.0
 10
30776.15460446907
 20
-4111.746434985706
 30
0.0
  0
LINE
  5
39AAB
330
1F
100
AcDbEntity
  8
SEIHIN
  6
Continuous
 62
     3
100
AcDbLine
 10
30775.95451060067
 20
-4110.446434985706
 30
0.0
 11
30775.95451060067
 21
-4109.946434985706
 31
0.0
  0
SPLINE
  5
39AAC
330
1F
100
AcDbEntity
  8
SEIHIN
  6
Continuous
 62
     3
100
AcDbSpline
210
0.0
220
0.0
230
1.0
 70
     8
 71
     3
 72
    10
 73
     6
 74
     0
 42
0.0000000001
 43
0.0000000001
 40
0.0
 40
0.0
 40
0.0
 40
0.0
 40
0.4999999999999999
 40
0.4999999999999999
 40
1.0
 40
1.0
 40
1.0
 40
1.0
 10
30776.4547217909
 20
-4110.446434985706
 30
0.0
 10
30776.32264055285
 20
-4110.446434985706
 30
0.0
 10
30776.19347789371
 20
-4110.392313927134
 30
0.0
 10
30776.00889578317
 20
-4110.20798154346
 30
0.0
 10
30775.95451060067
 20
-4110.07851770814
 30
0.0
 10
30775.95451060067
 20
-4109.946434985706
 30
0.0
  0
LINE
  5
39AAD
330
1F
100
AcDbEntity
  8
SEIHIN
  6
Continuous
 62
     3
100
AcDbLine
 10
30797.85577725165
 20
-4110.446434985706
 30
0.0
 11
30776.4547217909
 21
-4110.446434985706
 31
0.0
  0
ARC
  5
39AAE
330
1F
100
AcDbEntity
  8
SEIHIN
  6
Continuous
 62
     3
100
AcDbCircle
 10
30797.85577725166
 20
-4109.946434985707
 30
0.0
 40
0.5
100
AcDbArc
 50
270.0
 51
0.0
  0
LINE
  5
39AAF
330
1F
100
AcDbEntity
  8
SEIHIN
  6
Continuous
 62
     3
100
AcDbLine
 10
30798.35577725165
 20
-4093.446434985707
 30
0.0
 11
30798.35577725165
 21
-4109.946434985706
 31
0.0
  0
LINE
  5
39AB1
330
1F
100
AcDbEntity
  8
SEIHIN
  6
Continuous
 62
     3
100
AcDbLine
 10
30799.65577725165
 20
-4110.246434985706
 30
0.0
 11
30799.65577725165
 21
-4093.446434985707
 31
0.0
  0
ARC
  5
39AB2
330
1F
100
AcDbEntity
  8
SEIHIN
  6
Continuous
 62
     3
100
AcDbCircle
 10
30797.85577725165
 20
-3963.54643498571
 30
0.0
 40
0.5
100
AcDbArc
 50
0.0
 51
90.0
  0
LINE
  5
39AB3
330
1F
100
AcDbEntity
  8
SEIHIN
  6
Continuous
 62
     3
100
AcDbLine
 10
30776.4547217909
 20
-3963.046434985709
 30
0.0
 11
30797.85577725165
 21
-3963.046434985709
 31
0.0
  0
SPLINE
  5
39AB4
330
1F
100
AcDbEntity
  8
SEIHIN
  6
Continuous
 62
     3
100
AcDbSpline
210
0.0
220
0.0
230
1.0
 70
     8
 71
     3
 72
    10
 73
     6
 74
     0
 42
0.0000000001
 43
0.0000000001
 40
0.0
 40
0.0
 40
0.0
 40
0.0
 40
0.4999999999999999
 40
0.4999999999999999
 40
1.0
 40
1.0
 40
1.0
 40
1.0
 10
30775.95451060067
 20
-3963.546434985709
 30
0.0
 10
30775.95451060067
 20
-3963.414353226437
 30
0.0
 10
30776.00871210686
 20
-3963.285203692218
 30
0.0
 10
30776.19315620821
 20
-3963.100745818703
 30
0.0
 10
30776.32264159881
 20
-3963.046434985709
 30
0.0
 10
30776.4547217909
 20
-3963.046434985709
 30
0.0
  0
LINE
  5
39AB5
330
1F
100
AcDbEntity
  8
SEIHIN
  6
Continuous
 62
     3
100
AcDbLine
 10
30775.95451060067
 20
-3963.546434985709
 30
0.0
 11
30775.95451060067
 21
-3963.046434985709
 31
0.0
  0
SPLINE
  5
39AB6
330
1F
100
AcDbEntity
  8
SEIHIN
  6
Continuous
 62
     3
100
AcDbSpline
210
0.0
220
0.0
230
1.0
 70
     8
 71
     3
 72
    12
 73
     8
 74
     0
 42
0.0000000001
 43
0.0000000001
 40
0.0
 40
0.0
 40
0.0
 40
0.0
 40
0.2499999999999937
 40
0.2499999999999937
 40
0.4999999999999874
 40
0.4999999999999874
 40
1.0
 40
1.0
 40
1.0
 40
1.0
 10
30776.15460446907
 20
-3961.746434985706
 30
0.0
 10
30775.97326026029
 20
-3961.746434985706
 30
0.0
 10
30775.79619907675
 20
-3961.778685020142
 30
0.0
 10
30775.45780003461
 20
-3961.905673949901
 30
0.0
 10
30775.30244871654
 20
-3961.998572333056
 30
0.0
 10
30774.89527077714
 20
-3962.354117576566
 30
0.0
 10
30774.71502056215
 20
-3962.686990184261
 30
0.0
 10
30774.66655849776
 20
-3963.046434985709
 30
0.0
  0
LINE
  5
39AB7
330
1F
100
AcDbEntity
  8
SEIHIN
  6
Continuous
 62
     3
100
AcDbLine
 10
30798.15577725165
 20
-3961.746434985706
 30
0.0
 11
30776.15460446907
 21
-3961.746434985706
 31
0.0
  0
ARC
  5
39AB8
330
1F
100
AcDbEntity
  8
SEIHIN
  6
Continuous
 62
     3
100
AcDbCircle
 10
30798.15577725165
 20
-3963.246434985708
 30
0.0
 40
1.5
100
AcDbArc
 50
0.0
 51
90.0
  0
LINE
  5
39AB9
330
1F
100
AcDbEntity
  8
SEIHIN
  6
Continuous
 62
     3
100
AcDbLine
 10
30799.65577725165
 20
-3980.046434985709
 30
0.0
 11
30799.65577725165
 21
-3963.246434985705
 31
0.0
  0
LINE
  5
39ABB
330
1F
100
AcDbEntity
  8
SEIHIN
  6
Continuous
 62
     3
100
AcDbLine
 10
30798.35577725165
 20
-3963.546434985709
 30
0.0
 11
30798.35577725165
 21
-3980.046434985709
 31
0.0
  0
LINE
  5
39ABC
330
1F
100
AcDbEntity
  8
SEIHIN
  6
Continuous
 62
     3
100
AcDbLine
 10
30775.95451060067
 20
-4109.946434985706
 30
0.0
 11
30775.95577725165
 21
-4109.946434985706
 31
0.0
  0
LINE
  5
39ABD
330
1F
100
AcDbEntity
  8
SEIHIN
  6
Continuous
 62
     3
100
AcDbLine
 10
30775.95577725165
 20
-3963.546434985709
 30
0.0
 11
30775.95451060067
 21
-3963.546434985709
 31
0.0
  0
LINE
  5
39ABE
330
1F
100
AcDbEntity
  8
SEIHIN
  6
Continuous
 62
     3
100
AcDbLine
 10
30775.95577725165
 20
-3963.546434985709
 30
0.0
 11
30775.95577725165
 21
-4109.946434985706
 31
0.0
  0
LINE
  5
39ABF
330
1F
100
AcDbEntity
  8
SEIHIN
  6
Continuous
 62
     3
100
AcDbLine
 10
30775.95451060067
 20
-3963.046434985709
 30
0.0
 11
30772.20577725165
 21
-3963.046434985709
 31
0.0
  0
LINE
  5
39AC0
330
1F
100
AcDbEntity
  8
SEIHIN
  6
Continuous
 62
     3
100
AcDbLine
 10
30772.20577725165
 20
-4110.446434985706
 30
0.0
 11
30775.95451060067
 21
-4110.446434985706
 31
0.0
  0
LINE
  5
39AC2
330
1F
100
AcDbEntity
  8
SEIHIN
  6
Continuous
 62
     3
100
AcDbLine
 10
30770.0577010403
 20
-4154.046434985704
 30
0.0
 11
30769.4077010403
 21
-4154.046434985704
 31
0.0
  0
ARC
  5
39AC3
330
1F
100
AcDbEntity
  8
SEIHIN
  6
Continuous
 62
     3
100
AcDbCircle
 10
30769.84119468936
 20
-4151.233934985707
 30
0.0
 40
2.820821024098732
100
AcDbArc
 50
274.4019496522614
 51
3.811261049436973
  0
LINE
  5
39AC5
330
1F
100
AcDbEntity
  8
SEIHIN
  6
Continuous
 62
     3
100
AcDbLine
 10
30769.4077010403
 20
-3922.046434985706
 30
0.0
 11
30770.0577010403
 21
-3922.046434985706
 31
0.0
  0
ARC
  5
39AC6
330
1F
100
AcDbEntity
  8
SEIHIN
  6
Continuous
 62
     3
100
AcDbCircle
 10
30769.84119468935
 20
-3924.858934985707
 30
0.0
 40
2.820821024099171
100
AcDbArc
 50
356.188738950563
 51
85.59805034773857
  0
LINE
  5
39AC7
330
1F
100
AcDbEntity
  8
SEIHIN
  6
Continuous
 62
     3
100
AcDbLine
 10
30772.65577725165
 20
-4151.046434985704
 30
0.0
 11
30772.65577725165
 21
-4110.446434985706
 31
0.0
  0
LINE
  5
39AC8
330
1F
100
AcDbEntity
  8
SEIHIN
  6
Continuous
 62
     3
100
AcDbLine
 10
30772.65577725165
 20
-3925.046434985706
 30
0.0
 11
30772.65577725165
 21
-3963.046434985709
 31
0.0
  0
LINE
  5
39AC9
330
1F
100
AcDbEntity
  8
SEIHIN
  6
Continuous
 62
     3
100
AcDbLine
 10
30798.35577725165
 20
-4093.446434985707
 30
0.0
 11
30798.35577725165
 21
-4090.446434985707
 31
0.0
  0
LINE
  5
39ACA
330
1F
100
AcDbEntity
  8
SEIHIN
  6
Continuous
 62
     3
100
AcDbLine
 10
30798.35577725165
 20
-4090.446434985707
 30
0.0
 11
30799.65577725165
 21
-4090.446434985707
 31
0.0
  0
LINE
  5
39ACB
330
1F
100
AcDbEntity
  8
SEIHIN
  6
Continuous
 62
     3
100
AcDbLine
 10
30799.65577725165
 20
-4090.446434985707
 30
0.0
 11
30799.65577725165
 21
-4093.446434985707
 31
0.0
  0
LINE
  5
39ACC
330
1F
100
AcDbEntity
  8
SEIHIN
  6
Continuous
 62
     3
100
AcDbLine
 10
30799.65577725165
 20
-3980.046434985709
 30
0.0
 11
30799.65577725165
 21
-3983.046434985709
 31
0.0
  0
LINE
  5
39ACD
330
1F
100
AcDbEntity
  8
SEIHIN
  6
Continuous
 62
     3
100
AcDbLine
 10
30799.65577725165
 20
-3983.046434985709
 30
0.0
 11
30798.35577725165
 21
-3983.046434985709
 31
0.0
  0
LINE
  5
39ACE
330
1F
100
AcDbEntity
  8
SEIHIN
  6
Continuous
 62
     3
100
AcDbLine
 10
30798.35577725165
 20
-3983.046434985709
 30
0.0
 11
30798.35577725165
 21
-3980.046434985709
 31
0.0
  0
DIMENSION
  5
39ACF
330
1F
100
AcDbEntity
  8
SUNPOU
  6
Continuous
100
AcDbDimension
  2
*D12
 10
30836.25463846069
 20
-3961.746434985706
 30
0.0
 11
30826.25463846069
 21
-4036.7464349857
 31
0.0
 70
    32
 71
     5
 42
149.9999999999995
  3
STANDARD
100
AcDbAlignedDimension
 13
30798.15577725165
 23
-4111.746434985706
 33
0.0
 14
30797.85577725165
 24
-3961.746434985706
 34
0.0
 50
90.0
100
AcDbRotatedDimension
1001
ACAD
1000
DSTYLE
1002
{
1070
    41
1040
14.0
1070
    42
1040
12.0
1070
    43
1040
28.0
1070
    44
1040
6.0
1070
    73
1070
     0
1070
    74
1070
     0
1070
    77
1070
     3
1070
   140
1040
12.0
1070
   141
1040
150.0
1070
   143
1040
0.03937
1070
   147
1040
4.0
1070
   172
1070
     1
1070
   173
1070
     1
1070
   176
1070
     4
1070
   177
1070
     4
1070
   178
1070
     4
1070
   271
1070
     0
1070
   272
1070
     2
1070
   343
1005
3729
1070
   344
1005
3729
1002
}
  0
DIMENSION
  5
39AD1
330
1F
100
AcDbEntity
  8
SUNPOU
  6
Continuous
100
AcDbDimension
  2
*D11
 10
30227.76772379089
 20
-4113.046434985705
 30
0.0
 11
30227.76772379089
 21
-4153.046434985701
 31
0.0
 70
   160
 71
     5
 42
15.0
  3
STANDARD
100
AcDbAlignedDimension
 13
30262.84080865722
 23
-4098.046434985706
 33
0.0
 14
30262.84080865722
 24
-4113.046434985705
 34
0.0
 50
90.0
100
AcDbRotatedDimension
1001
ACAD
1000
DSTYLE
1002
{
1070
    41
1040
14.0
1070
    42
1040
12.0
1070
    43
1040
28.0
1070
    44
1040
6.0
1070
    73
1070
     0
1070
    74
1070
     0
1070
    77
1070
     3
1070
   140
1040
12.0
1070
   141
1040
150.0
1070
   143
1040
0.03937
1070
   147
1040
4.0
1070
   172
1070
     1
1070
   173
1070
     1
1070
   176
1070
     4
1070
   177
1070
     4
1070
   178
1070
     4
1070
   271
1070
     0
1070
   272
1070
     2
1070
   343
1005
3729
1070
   344
1005
3729
1002
}
  0
DIMENSION
  5
39AD2
330
1F
100
AcDbEntity
  8
SUNPOU
  6
Continuous
100
AcDbDimension
  2
*D10
 10
30346.59080865723
 20
-4175.502582762978
 30
0.0
 11
30306.59080865722
 21
-4165.502582762978
 31
0.0
 70
    32
 71
     5
 42
80.0
  3
STANDARD
100
AcDbAlignedDimension
 13
30266.59080865722
 23
-4101.796434985706
 33
0.0
 14
30346.59080865723
 24
-4101.796434985706
 34
0.0
100
AcDbRotatedDimension
1001
ACAD
1000
DSTYLE
1002
{
1070
    41
1040
14.0
1070
    42
1040
12.0
1070
    43
1040
28.0
1070
    44
1040
6.0
1070
    73
1070
     0
1070
    74
1070
     0
1070
    77
1070
     3
1070
   140
1040
12.0
1070
   141
1040
150.0
1070
   143
1040
0.03937
1070
   147
1040
4.0
1070
   172
1070
     1
1070
   173
1070
     1
1070
   176
1070
     4
1070
   177
1070
     4
1070
   178
1070
     4
1070
   271
1070
     0
1070
   272
1070
     2
1070
   343
1005
3729
1070
   344
1005
3729
1002
}
  0
DIMENSION
  5
39AD3
330
1F
100
AcDbEntity
  8
SUNPOU
  6
Continuous
100
AcDbDimension
  2
*D9
 10
30426.59080865723
 20
-4175.502582762978
 30
0.0
 11
30386.59080865723
 21
-4165.502582762978
 31
0.0
 70
    32
 71
     5
 42
80.0
  3
STANDARD
100
AcDbAlignedDimension
 13
30346.59080865723
 23
-4101.796434985706
 33
0.0
 14
30426.59080865723
 24
-4101.796434985707
 34
0.0
100
AcDbRotatedDimension
1001
ACAD
1000
DSTYLE
1002
{
1070
    41
1040
14.0
1070
    42
1040
12.0
1070
    43
1040
28.0
1070
    44
1040
6.0
1070
    73
1070
     0
1070
    74
1070
     0
1070
    77
1070
     3
1070
   140
1040
12.0
1070
   141
1040
150.0
1070
   143
1040
0.03937
1070
   147
1040
4.0
1070
   172
1070
     1
1070
   173
1070
     1
1070
   176
1070
     4
1070
   177
1070
     4
1070
   178
1070
     4
1070
   271
1070
     0
1070
   272
1070
     2
1070
   343
1005
3729
1070
   344
1005
3729
1002
}
  0
DIMENSION
  5
39AD4
330
1F
100
AcDbEntity
  8
SUNPOU
  6
Continuous
100
AcDbDimension
  2
*D8
 10
30542.09668933264
 20
-4389.250384052366
 30
0.0
 11
30542.09668933264
 21
-4376.750384052362
 31
0.0
 70
   160
 71
     5
 42
25.0
  3
STANDARD
100
AcDbAlignedDimension
 13
30503.01123698822
 23
-4364.250384052366
 33
0.0
 14
30503.09080865719
 24
-4389.250384052366
 34
0.0
 50
90.0
100
AcDbRotatedDimension
1001
ACAD
1000
DSTYLE
1002
{
1070
    41
1040
14.0
1070
    42
1040
12.0
1070
    43
1040
28.0
1070
    44
1040
6.0
1070
    73
1070
     0
1070
    74
1070
     0
1070
    77
1070
     3
1070
   140
1040
12.0
1070
   141
1040
150.0
1070
   143
1040
0.03937
1070
   147
1040
4.0
1070
   172
1070
     1
1070
   173
1070
     1
1070
   176
1070
     4
1070
   177
1070
     4
1070
   178
1070
     4
1070
   271
1070
     0
1070
   272
1070
     2
1070
   343
1005
3729
1070
   344
1005
3729
1002
}
  0
MTEXT
  5
3B22B
102
{ACAD_REACTORS
330
3B235
102
}
330
1F
100
AcDbEntity
  8
SUNPOU
  6
Continuous
 62
     4
100
AcDbMText
 10
30301.19988312169
 20
-4066.583525730894
 30
0.0
 40
12.0
 41
0.0
 71
     5
 72
     1
  1
\A1;\U+22052.5 x 3
 11
0.8643012973879201
 21
0.50297442015828
 31
0.0
 73
     1
 44
1.0
1001
ACAD
1000
MTEXTBEGIN
1070
    73
1070
     1
1070
    44
1040
1.0
1070
    74
1070
     0
1000
MTEXTEND
  0
LINE
  5
3B22F
102
{ACAD_REACTORS
330
3B235
102
}
330
1F
100
AcDbEntity
  8
SUNPOU
  6
Continuous
 62
     4
100
AcDbLine
 10
30338.61226234451
 20
-4056.134026642848
 30
0.0
 11
30279.77140344237
 21
-4090.376075078278
 31
0.0
  0
LINE
  5
3B230
102
{ACAD_REACTORS
330
3B235
102
}
330
1F
100
AcDbEntity
  8
SUNPOU
  6
Continuous
 62
     4
100
AcDbLine
 10
30253.41021387205
 20
-4105.716794893123
 30
0.0
 11
30241.30999570862
 21
-4112.75843677535
 31
0.0
  0
LINE
  5
3B232
330
1F
100
AcDbEntity
  8
SUNPOU
  6
Continuous
 62
     4
100
AcDbLine
 10
30265.4288640256
 20
-4098.507287101964
 30
0.0
 11
30267.75275328883
 21
-4097.585582869441
 31
0.0
  0
INSERT
  5
3B233
102
{ACAD_REACTORS
330
3B235
102
}
330
1F
100
AcDbEntity
  8
SUNPOU
  6
Continuous
 62
     4
100
AcDbBlockReference
  2
_OPEN
 10
30265.51043203548
 20
-4098.6751530109
 30
0.0
 41
14.0
 42
14.0
 43
14.0
 50
30.19698193829472
  0
INSERT
  5
3B234
102
{ACAD_REACTORS
330
3B235
102
}
330
1F
100
AcDbEntity
  8
SUNPOU
  6
Continuous
 62
     4
100
AcDbBlockReference
  2
_OPEN
 10
30267.67118527895
 20
-4097.417716960505
 30
0.0
 41
14.0
 42
14.0
 43
14.0
 50
210.1969819382947
  0
VIEWPORT
  5
3B100
102
{ACAD_XDICTIONARY
360
3B620
102
}
330
3B0FE
100
AcDbEntity
 67
     1
  8
0
100
AcDbViewport
 10
134.8439918429995
 20
121.349551424346
 30
0.0
 40
704.9711452999319
 41
332.2453393342041
 68
     1
 69
     1
 12
134.8439918429995
 22
121.349551424346
 13
0.0
 23
0.0
 14
10.0
 24
10.0
 15
10.0
 25
10.0
 16
0.0
 26
0.0
 36
1.0
 17
0.0
 27
0.0
 37
0.0
 42
50.0
 43
0.0
 44
0.0
 45
332.2453393342041
 50
0.0
 51
0.0
 72
  2000
 90
    32800
  1

281
     0
 71
     1
 74
     0
110
0.0
120
0.0
130
0.0
111
1.0
121
0.0
131
0.0
112
0.0
122
1.0
132
0.0
 79
     0
146
0.0
  0
VIEWPORT
  5
3B101
102
{ACAD_XDICTIONARY
360
3B622
102
}
330
3B0FE
100
AcDbEntity
 67
     1
  8
0
100
AcDbViewport
 10
135.2920704389401
 20
124.8806473277914
 30
0.0
 40
418.2613698910962
 41
295.0483533347457
 68
     2
 69
     2
 12
30512.96912454977
 22
-4180.575735260504
 13
0.0
 23
0.0
 14
10.0
 24
10.0
 15
10.0
 25
10.0
 16
0.0
 26
0.0
 36
1.0
 17
0.0
 27
0.0
 37
0.0
 42
50.0
 43
0.0
 44
0.0
 45
885.1450546150147
 50
0.0
 51
0.0
 72
  2000
 90
    32832
  1

281
     0
 71
     1
 74
     0
110
0.0
120
0.0
130
0.0
111
1.0
121
0.0
131
0.0
112
0.0
122
1.0
132
0.0
 79
     0
146
0.0
  0
ENDSEC
  0
SECTION
  2
OBJECTS
  0
DICTIONARY
  5
C
330
0
100
AcDbDictionary
281
     1
  3
ACAD_COLOR
350
C5F
  3
ACAD_GROUP
350
D
  3
ACAD_LAYOUT
350
1A
  3
ACAD_MATERIAL
350
C5E
  3
ACAD_MLINESTYLE
350
17
  3
ACAD_PLOTSETTINGS
350
19
  3
ACAD_PLOTSTYLENAME
350
E
  3
ACAD_SCALELIST
350
47
  3
ACDBHEADERROUNDTRIPXREC
350
3B61B
  3
AcDbVariableDictionary
350
3AFDA
  3
DWGPROPS
350
3B61A
  0
DICTIONARY
  5
1F218
330
2
100
AcDbDictionary
280
     1
281
     1
  3
ACAD_LAYERFILTERS
360
3A1CA
  3
ACAD_LAYERSTATES
360
1F219
  0
DICTIONARY
  5
1FBAB
330
1FBAA
100
AcDbDictionary
280
     1
281
     1
  0
DICTIONARY
  5
3B620
330
3B100
100
AcDbDictionary
280
     1
281
     1
  3
ACAD_XREC_ROUNDTRIP
360
3B621
  0
DICTIONARY
  5
3B622
330
3B101
100
AcDbDictionary
280
     1
281
     1
  3
ACAD_XREC_ROUNDTRIP
360
3B623
  0
DICTIONARY
  5
C5F
102
{ACAD_REACTORS
330
C
102
}
330
C
100
AcDbDictionary
281
     1
  0
DICTIONARY
  5
D
102
{ACAD_REACTORS
330
C
102
}
330
C
100
AcDbDictionary
281
     1
  3
*A1
350
36CF
  3
*A10
350
2F6A0
  3
*A100
350
1AB36
  3
*A101
350
16E23
  3
*A102
350
36D5
  3
*A103
350
15424
  3
*A104
350
1AAA2
  3
*A105
350
81BB
  3
*A106
350
11D39
  3
*A107
350
876D
  3
*A108
350
2B930
  3
*A109
350
1B17E
  3
*A11
350
300DE
  3
*A110
350
2E71A
  3
*A111
350
2E9E8
  3
*A112
350
2F6BB
  3
*A113
350
1A7D3
  3
*A114
350
2F6A1
  3
*A115
350
30BB4
  3
*A116
350
16EE2
  3
*A117
350
732C
  3
*A118
350
300E1
  3
*A119
350
E332
  3
*A12
350
2E646
  3
*A120
350
16B77
  3
*A121
350
2FC97
  3
*A122
350
3304A
  3
*A123
350
3304B
  3
*A124
350
76F0
  3
*A125
350
12663
  3
*A126
350
1D242
  3
*A127
350
876C
  3
*A128
350
2F6D8
  3
*A129
350
2E818
  3
*A13
350
98F4
  3
*A130
350
16E25
  3
*A131
350
E3CE
  3
*A132
350
E2E5
  3
*A133
350
1AAF9
  3
*A134
350
1B162
  3
*A135
350
1AB54
  3
*A136
350
2F6BC
  3
*A137
350
2E819
  3
*A138
350
2E719
  3
*A139
350
16CC8
  3
*A14
350
2E9EA
  3
*A140
350
1A381
  3
*A141
350
1A33E
  3
*A142
350
7B00
  3
*A143
350
2B9D6
  3
*A144
350
322E4
  3
*A145
350
7B01
  3
*A146
350
2CDA9
  3
*A147
350
2E334
  3
*A148
350
32210
  3
*A149
350
16BFD
  3
*A15
350
2B9CA
  3
*A150
350
1AAA1
  3
*A151
350
16E24
  3
*A152
350
2D527
  3
*A153
350
2B9D7
  3
*A154
350
16B76
  3
*A155
350
2BA2E
  3
*A156
350
2EB85
  3
*A157
350
1A72F
  3
*A158
350
99FD
  3
*A159
350
1A0E1
  3
*A16
350
2FC1E
  3
*A160
350
12142
  3
*A161
350
1EF06
  3
*A162
350
2B9CE
  3
*A163
350
36403
  3
*A164
350
36404
  3
*A165
350
2C757
  3
*A166
350
1A781
  3
*A167
350
2E9E9
  3
*A168
350
32629
  3
*A169
350
38F76
  3
*A17
350
3089D
  3
*A170
350
39315
  3
*A171
350
3934C
  3
*A172
350
39E38
  3
*A173
350
2CCD2
  3
*A174
350
2BB07
  3
*A175
350
876E
  3
*A176
350
39E39
  3
*A177
350
2C758
  3
*A178
350
D0B3
  3
*A179
350
2D52D
  3
*A18
350
3262B
  3
*A180
350
16EE1
  3
*A181
350
2D52A
  3
*A182
350
1A7AA
  3
*A183
350
2CCEC
  3
*A184
350
7AD8
  3
*A185
350
149D3
  3
*A186
350
2D52E
  3
*A187
350
1FA2F
  3
*A188
350
8802
  3
*A189
350
996B
  3
*A19
350
2F72B
  3
*A190
350
2F6D9
  3
*A191
350
2D915
  3
*A192
350
2E338
  3
*A193
350
2D52F
  3
*A194
350
2CDAA
  3
*A195
350
2FC95
  3
*A196
350
19E53
  3
*A197
350
19A57
  3
*A198
350
81AA
  3
*A199
350
1D241
  3
*A2
350
1A5A1
  3
*A20
350
3262C
  3
*A200
350
2D529
  3
*A201
350
2F72C
  3
*A202
350
1EC4E
  3
*A203
350
7AD9
  3
*A204
350
2C759
  3
*A205
350
16CCA
  3
*A206
350
2D530
  3
*A207
350
8813
  3
*A208
350
16E28
  3
*A209
350
2D531
  3
*A21
350
2E337
  3
*A210
350
1AAF8
  3
*A211
350
2CDA8
  3
*A212
350
1B197
  3
*A213
350
19E52
  3
*A214
350
1A5F5
  3
*A215
350
2F727
  3
*A216
350
2B7FE
  3
*A217
350
9527
  3
*A218
350
2CC76
  3
*A219
350
1EC28
  3
*A22
350
2F752
  3
*A220
350
2BA33
  3
*A221
350
E40A
  3
*A222
350
2D52B
  3
*A223
350
1A7FC
  3
*A224
350
33818
  3
*A225
350
33819
  3
*A226
350
33D7A
  3
*A227
350
33D7B
  3
*A228
350
1ABC9
  3
*A229
350
1AAC1
  3
*A23
350
2E642
  3
*A230
350
2E336
  3
*A231
350
11D38
  3
*A232
350
D2B7
  3
*A233
350
2F725
  3
*A234
350
81AB
  3
*A235
350
3108C
  3
*A236
350
3108D
  3
*A237
350
2F75A
  3
*A238
350
3089E
  3
*A239
350
16BFC
  3
*A24
350
2D52C
  3
*A240
350
16EE3
  3
*A241
350
19E51
  3
*A242
350
3109F
  3
*A243
350
1D274
  3
*A244
350
1006C
  3
*A245
350
2E645
  3
*A246
350
312E7
  3
*A247
350
2FA6A
  3
*A248
350
16A8C
  3
*A249
350
3262A
  3
*A25
350
2AF6D
  3
*A250
350
312E8
  3
*A251
350
312E9
  3
*A252
350
3022C
  3
*A253
350
31B42
  3
*A254
350
1A193
  3
*A255
350
17B62
  3
*A256
350
2B8FE
  3
*A257
350
2F6D6
  3
*A258
350
2FA6B
  3
*A259
350
2FAFF
  3
*A26
350
9529
  3
*A260
350
2EB83
  3
*A261
350
31B43
  3
*A262
350
3B235
  3
*A263
350
2F72A
  3
*A264
350
2FD83
  3
*A265
350
2B7FD
  3
*A27
350
2AF6E
  3
*A28
350
8178
  3
*A29
350
301FC
  3
*A3
350
2B917
  3
*A30
350
1EEB7
  3
*A31
350
2FC1C
  3
*A32
350
E3CD
  3
*A33
350
300DF
  3
*A34
350
1A4E1
  3
*A35
350
1A825
  3
*A36
350
1A2FB
  3
*A37
350
149D2
  3
*A38
350
9528
  3
*A39
350
32204
  3
*A4
350
2BB08
  3
*A40
350
16CC9
  3
*A41
350
12770
  3
*A42
350
2AF6F
  3
*A43
350
12141
  3
*A44
350
2FC1D
  3
*A45
350
1A68B
  3
*A46
350
1252B
  3
*A47
350
2F726
  3
*A48
350
2E814
  3
*A49
350
13067
  3
*A5
350
12771
  3
*A50
350
1A68A
  3
*A51
350
1AB72
  3
*A52
350
16B4C
  3
*A53
350
16E26
  3
*A54
350
2AF83
  3
*A55
350
2BB06
  3
*A56
350
98F3
  3
*A57
350
2F729
  3
*A58
350
1D240
  3
*A59
350
2F762
  3
*A6
350
2FDE3
  3
*A60
350
2B6E6
  3
*A61
350
2EB84
  3
*A62
350
1EC64
  3
*A63
350
15425
  3
*A64
350
1EEB8
  3
*A65
350
2FC96
  3
*A66
350
1B149
  3
*A67
350
301FB
  3
*A68
350
817B
  3
*A69
350
3491D
  3
*A7
350
2FDE4
  3
*A70
350
76F1
  3
*A71
350
2F6D7
  3
*A72
350
1D243
  3
*A73
350
1AB18
  3
*A74
350
16A60
  3
*A75
350
3220A
  3
*A76
350
2F728
  3
*A77
350
16BFE
  3
*A78
350
30B80
  3
*A79
350
2CDAB
  3
*A8
350
300DD
  3
*A80
350
2B7FC
  3
*A81
350
1A61E
  3
*A82
350
1252C
  3
*A83
350
30B81
  3
*A84
350
300E0
  3
*A85
350
2E335
  3
*A86
350
2B8E0
  3
*A87
350
1D244
  3
*A88
350
E31A
  3
*A89
350
2E644
  3
*A9
350
8179
  3
*A90
350
2B972
  3
*A91
350
7B15
  3
*A92
350
DED9
  3
*A93
350
1AAA3
  3
*A94
350
1A758
  3
*A95
350
16E27
  3
*A96
350
2E643
  3
*A97
350
2D528
  3
*A98
350
732B
  3
*A99
350
2CCB9
  0
DICTIONARY
  5
1A
102
{ACAD_REACTORS
330
C
102
}
330
C
100
AcDbDictionary
281
     1
  3
Model
350
22
  3
伸縮カバー
350
3B103
  0
DICTIONARY
  5
C5E
102
{ACAD_REACTORS
330
C
102
}
330
C
100
AcDbDictionary
281
     1
  0
DICTIONARY
  5
17
102
{ACAD_REACTORS
330
C
102
}
330
C
100
AcDbDictionary
281
     1
  3
Standard
350
18
  0
DICTIONARY
  5
19
102
{ACAD_REACTORS
330
C
102
}
330
C
100
AcDbDictionary
281
     1
  0
ACDBDICTIONARYWDFLT
  5
E
102
{ACAD_REACTORS
330
C
102
}
330
C
100
AcDbDictionary
281
     1
  3
Normal
350
F
100
AcDbDictionaryWithDefault
340
F
  0
DICTIONARY
  5
47
102
{ACAD_REACTORS
330
C
102
}
330
C
100
AcDbDictionary
281
     1
  3
A0
350
48
  3
A1
350
49
  3
A2
350
4A
  3
A3
350
4B
  3
A4
350
4C
  3
A5
350
4D
  3
A6
350
4E
  3
A7
350
4F
  3
A8
350
50
  3
A9
350
51
  3
B0
350
52
  3
B1
350
53
  3
B2
350
54
  3
B3
350
55
  3
B4
350
56
  3
B5
350
57
  3
B6
350
58
  3
B7
350
59
  3
B8
350
5A
  3
B9
350
5B
  3
C0
350
5C
  3
C1
350
5D
  3
C2
350
5E
  3
C3
350
5F
  3
C4
350
60
  3
C5
350
61
  3
C6
350
62
  3
C7
350
63
  3
C8
350
64
  3
C9
350
65
  3
D0
350
66
  3
D1
350
67
  3
D2
350
68
  0
DICTIONARY
  5
3B61B
102
{ACAD_REACTORS
330
C
102
}
330
C
100
AcDbDictionary
281
     1
  3
COLORDICT
350
3B61D
  3
MATERIALDICT
350
3B61C
  0
DICTIONARY
  5
3AFDA
102
{ACAD_REACTORS
330
C
102
}
330
C
100
AcDbDictionary
281
     1
  3
DIMASSOC
350
3AFDB
  3
PROJECTNAME
350
3AFDC
  0
XRECORD
  5
3B61A
102
{ACAD_REACTORS
330
C
102
}
330
C
100
AcDbXrecord
280
     1
  1
DWGPROPS COOKIE
  2

  3

  4

  6

  7

  8
CAD1
  9

300
=
301
=
302
=
303
=
304
=
305
=
306
=
307
=
308
=
309
=
 40
11.1497874074074
 41
2459977.552915243
 42
2460199.720214977
  1

 90
        0
  0
DICTIONARY
  5
3A1CA
102
{ACAD_REACTORS
330
1F218
102
}
330
1F218
100
AcDbDictionary
281
     1
  0
DICTIONARY
  5
1F219
102
{ACAD_REACTORS
330
1F218
102
}
330
1F218
100
AcDbDictionary
281
     1
  0
XRECORD
  5
3B621
102
{ACAD_REACTORS
330
3B620
102
}
330
3B620
100
AcDbXrecord
280
     1
102
SHADEPLOT
 70
     0
  0
XRECORD
  5
3B623
102
{ACAD_REACTORS
330
3B622
102
}
330
3B622
100
AcDbXrecord
280
     1
102
SHADEPLOT
 70
     0
  0
GROUP
  5
36CF
102
{ACAD_REACTORS
330
D
102
}
330
D
100
AcDbGroup
300

 70
     1
 71
     1
  0
GROUP
  5
2F6A0
102
{ACAD_REACTORS
330
D
102
}
330
D
100
AcDbGroup
300

 70
     1
 71
     1
  0
GROUP
  5
1AB36
102
{ACAD_REACTORS
330
D
102
}
330
D
100
AcDbGroup
300

 70
     1
 71
     1
  0
GROUP
  5
16E23
102
{ACAD_REACTORS
330
D
102
}
330
D
100
AcDbGroup
300

 70
     1
 71
     1
  0
GROUP
  5
36D5
102
{ACAD_REACTORS
330
D
102
}
330
D
100
AcDbGroup
300

 70
     1
 71
     1
  0
GROUP
  5
15424
102
{ACAD_REACTORS
330
D
102
}
330
D
100
AcDbGroup
300

 70
     1
 71
     1
  0
GROUP
  5
1AAA2
102
{ACAD_REACTORS
330
D
102
}
330
D
100
AcDbGroup
300

 70
     1
 71
     1
  0
GROUP
  5
81BB
102
{ACAD_REACTORS
330
D
102
}
330
D
100
AcDbGroup
300

 70
     1
 71
     1
  0
GROUP
  5
11D39
102
{ACAD_REACTORS
330
D
102
}
330
D
100
AcDbGroup
300

 70
     1
 71
     1
  0
GROUP
  5
876D
102
{ACAD_REACTORS
330
D
102
}
330
D
100
AcDbGroup
300

 70
     1
 71
     1
  0
GROUP
  5
2B930
102
{ACAD_REACTORS
330
D
102
}
330
D
100
AcDbGroup
300

 70
     1
 71
     1
  0
GROUP
  5
1B17E
102
{ACAD_REACTORS
330
D
102
}
330
D
100
AcDbGroup
300

 70
     1
 71
     1
  0
GROUP
  5
300DE
102
{ACAD_REACTORS
330
D
102
}
330
D
100
AcDbGroup
300

 70
     1
 71
     1
  0
GROUP
  5
2E71A
102
{ACAD_REACTORS
330
D
102
}
330
D
100
AcDbGroup
300

 70
     1
 71
     1
  0
GROUP
  5
2E9E8
102
{ACAD_REACTORS
330
D
102
}
330
D
100
AcDbGroup
300

 70
     1
 71
     1
  0
GROUP
  5
2F6BB
102
{ACAD_REACTORS
330
D
102
}
330
D
100
AcDbGroup
300

 70
     1
 71
     1
  0
GROUP
  5
1A7D3
102
{ACAD_REACTORS
330
D
102
}
330
D
100
AcDbGroup
300

 70
     1
 71
     1
  0
GROUP
  5
2F6A1
102
{ACAD_REACTORS
330
D
102
}
330
D
100
AcDbGroup
300

 70
     1
 71
     1
  0
GROUP
  5
30BB4
102
{ACAD_REACTORS
330
D
102
}
330
D
100
AcDbGroup
300

 70
     1
 71
     1
  0
GROUP
  5
16EE2
102
{ACAD_REACTORS
330
D
102
}
330
D
100
AcDbGroup
300

 70
     1
 71
     1
  0
GROUP
  5
732C
102
{ACAD_REACTORS
330
D
102
}
330
D
100
AcDbGroup
300

 70
     1
 71
     1
  0
GROUP
  5
300E1
102
{ACAD_REACTORS
330
D
102
}
330
D
100
AcDbGroup
300

 70
     1
 71
     1
  0
GROUP
  5
E332
102
{ACAD_REACTORS
330
D
102
}
330
D
100
AcDbGroup
300

 70
     1
 71
     1
  0
GROUP
  5
2E646
102
{ACAD_REACTORS
330
D
102
}
330
D
100
AcDbGroup
300

 70
     1
 71
     1
  0
GROUP
  5
16B77
102
{ACAD_REACTORS
330
D
102
}
330
D
100
AcDbGroup
300

 70
     1
 71
     1
  0
GROUP
  5
2FC97
102
{ACAD_REACTORS
330
D
102
}
330
D
100
AcDbGroup
300

 70
     1
 71
     1
  0
GROUP
  5
3304A
102
{ACAD_REACTORS
330
D
102
}
330
D
100
AcDbGroup
300

 70
     1
 71
     1
  0
GROUP
  5
3304B
102
{ACAD_REACTORS
330
D
102
}
330
D
100
AcDbGroup
300

 70
     1
 71
     1
  0
GROUP
  5
76F0
102
{ACAD_REACTORS
330
D
102
}
330
D
100
AcDbGroup
300

 70
     1
 71
     1
  0
GROUP
  5
12663
102
{ACAD_REACTORS
330
D
102
}
330
D
100
AcDbGroup
300

 70
     1
 71
     1
  0
GROUP
  5
1D242
102
{ACAD_REACTORS
330
D
102
}
330
D
100
AcDbGroup
300

 70
     1
 71
     1
  0
GROUP
  5
876C
102
{ACAD_REACTORS
330
D
102
}
330
D
100
AcDbGroup
300

 70
     1
 71
     1
  0
GROUP
  5
2F6D8
102
{ACAD_REACTORS
330
D
102
}
330
D
100
AcDbGroup
300

 70
     1
 71
     1
  0
GROUP
  5
2E818
102
{ACAD_REACTORS
330
D
102
}
330
D
100
AcDbGroup
300

 70
     1
 71
     1
  0
GROUP
  5
98F4
102
{ACAD_REACTORS
330
D
102
}
330
D
100
AcDbGroup
300

 70
     1
 71
     1
  0
GROUP
  5
16E25
102
{ACAD_REACTORS
330
D
102
}
330
D
100
AcDbGroup
300

 70
     1
 71
     1
  0
GROUP
  5
E3CE
102
{ACAD_REACTORS
330
D
102
}
330
D
100
AcDbGroup
300

 70
     1
 71
     1
  0
GROUP
  5
E2E5
102
{ACAD_REACTORS
330
D
102
}
330
D
100
AcDbGroup
300

 70
     1
 71
     1
  0
GROUP
  5
1AAF9
102
{ACAD_REACTORS
330
D
102
}
330
D
100
AcDbGroup
300

 70
     1
 71
     1
  0
GROUP
  5
1B162
102
{ACAD_REACTORS
330
D
102
}
330
D
100
AcDbGroup
300

 70
     1
 71
     1
  0
GROUP
  5
1AB54
102
{ACAD_REACTORS
330
D
102
}
330
D
100
AcDbGroup
300

 70
     1
 71
     1
  0
GROUP
  5
2F6BC
102
{ACAD_REACTORS
330
D
102
}
330
D
100
AcDbGroup
300

 70
     1
 71
     1
  0
GROUP
  5
2E819
102
{ACAD_REACTORS
330
D
102
}
330
D
100
AcDbGroup
300

 70
     1
 71
     1
  0
GROUP
  5
2E719
102
{ACAD_REACTORS
330
D
102
}
330
D
100
AcDbGroup
300

 70
     1
 71
     1
  0
GROUP
  5
16CC8
102
{ACAD_REACTORS
330
D
102
}
330
D
100
AcDbGroup
300

 70
     1
 71
     1
  0
GROUP
  5
2E9EA
102
{ACAD_REACTORS
330
D
102
}
330
D
100
AcDbGroup
300

 70
     1
 71
     1
  0
GROUP
  5
1A381
102
{ACAD_REACTORS
330
D
102
}
330
D
100
AcDbGroup
300

 70
     1
 71
     1
  0
GROUP
  5
1A33E
102
{ACAD_REACTORS
330
D
102
}
330
D
100
AcDbGroup
300

 70
     1
 71
     1
  0
GROUP
  5
7B00
102
{ACAD_REACTORS
330
D
102
}
330
D
100
AcDbGroup
300

 70
     1
 71
     1
  0
GROUP
  5
2B9D6
102
{ACAD_REACTORS
330
D
102
}
330
D
100
AcDbGroup
300

 70
     1
 71
     1
  0
GROUP
  5
322E4
102
{ACAD_REACTORS
330
D
102
}
330
D
100
AcDbGroup
300

 70
     1
 71
     1
  0
GROUP
  5
7B01
102
{ACAD_REACTORS
330
D
102
}
330
D
100
AcDbGroup
300

 70
     1
 71
     1
  0
GROUP
  5
2CDA9
102
{ACAD_REACTORS
330
D
102
}
330
D
100
AcDbGroup
300

 70
     1
 71
     1
  0
GROUP
  5
2E334
102
{ACAD_REACTORS
330
D
102
}
330
D
100
AcDbGroup
300

 70
     1
 71
     1
  0
GROUP
  5
32210
102
{ACAD_REACTORS
330
D
102
}
330
D
100
AcDbGroup
300

 70
     1
 71
     1
  0
GROUP
  5
16BFD
102
{ACAD_REACTORS
330
D
102
}
330
D
100
AcDbGroup
300

 70
     1
 71
     1
  0
GROUP
  5
2B9CA
102
{ACAD_REACTORS
330
D
102
}
330
D
100
AcDbGroup
300

 70
     1
 71
     1
  0
GROUP
  5
1AAA1
102
{ACAD_REACTORS
330
D
102
}
330
D
100
AcDbGroup
300

 70
     1
 71
     1
  0
GROUP
  5
16E24
102
{ACAD_REACTORS
330
D
102
}
330
D
100
AcDbGroup
300

 70
     1
 71
     1
  0
GROUP
  5
2D527
102
{ACAD_REACTORS
330
D
102
}
330
D
100
AcDbGroup
300

 70
     1
 71
     1
  0
GROUP
  5
2B9D7
102
{ACAD_REACTORS
330
D
102
}
330
D
100
AcDbGroup
300

 70
     1
 71
     1
  0
GROUP
  5
16B76
102
{ACAD_REACTORS
330
D
102
}
330
D
100
AcDbGroup
300

 70
     1
 71
     1
  0
GROUP
  5
2BA2E
102
{ACAD_REACTORS
330
D
102
}
330
D
100
AcDbGroup
300

 70
     1
 71
     1
  0
GROUP
  5
2EB85
102
{ACAD_REACTORS
330
D
102
}
330
D
100
AcDbGroup
300

 70
     1
 71
     1
  0
GROUP
  5
1A72F
102
{ACAD_REACTORS
330
D
102
}
330
D
100
AcDbGroup
300

 70
     1
 71
     1
  0
GROUP
  5
99FD
102
{ACAD_REACTORS
330
D
102
}
330
D
100
AcDbGroup
300

 70
     1
 71
     1
  0
GROUP
  5
1A0E1
102
{ACAD_REACTORS
330
D
102
}
330
D
100
AcDbGroup
300

 70
     1
 71
     1
  0
GROUP
  5
2FC1E
102
{ACAD_REACTORS
330
D
102
}
330
D
100
AcDbGroup
300

 70
     1
 71
     1
  0
GROUP
  5
12142
102
{ACAD_REACTORS
330
D
102
}
330
D
100
AcDbGroup
300

 70
     1
 71
     1
  0
GROUP
  5
1EF06
102
{ACAD_REACTORS
330
D
102
}
330
D
100
AcDbGroup
300

 70
     1
 71
     1
  0
GROUP
  5
2B9CE
102
{ACAD_REACTORS
330
D
102
}
330
D
100
AcDbGroup
300

 70
     1
 71
     1
  0
GROUP
  5
36403
102
{ACAD_REACTORS
330
D
102
}
330
D
100
AcDbGroup
300

 70
     1
 71
     1
  0
GROUP
  5
36404
102
{ACAD_REACTORS
330
D
102
}
330
D
100
AcDbGroup
300

 70
     1
 71
     1
  0
GROUP
  5
2C757
102
{ACAD_REACTORS
330
D
102
}
330
D
100
AcDbGroup
300

 70
     1
 71
     1
  0
GROUP
  5
1A781
102
{ACAD_REACTORS
330
D
102
}
330
D
100
AcDbGroup
300

 70
     1
 71
     1
  0
GROUP
  5
2E9E9
102
{ACAD_REACTORS
330
D
102
}
330
D
100
AcDbGroup
300

 70
     1
 71
     1
  0
GROUP
  5
32629
102
{ACAD_REACTORS
330
D
102
}
330
D
100
AcDbGroup
300

 70
     1
 71
     1
  0
GROUP
  5
38F76
102
{ACAD_REACTORS
330
D
102
}
330
D
100
AcDbGroup
300

 70
     1
 71
     1
  0
GROUP
  5
3089D
102
{ACAD_REACTORS
330
D
102
}
330
D
100
AcDbGroup
300

 70
     1
 71
     1
  0
GROUP
  5
39315
102
{ACAD_REACTORS
330
D
102
}
330
D
100
AcDbGroup
300

 70
     1
 71
     1
  0
GROUP
  5
3934C
102
{ACAD_REACTORS
330
D
102
}
330
D
100
AcDbGroup
300

 70
     1
 71
     1
  0
GROUP
  5
39E38
102
{ACAD_REACTORS
330
D
102
}
330
D
100
AcDbGroup
300

 70
     1
 71
     1
  0
GROUP
  5
2CCD2
102
{ACAD_REACTORS
330
D
102
}
330
D
100
AcDbGroup
300

 70
     1
 71
     1
  0
GROUP
  5
2BB07
102
{ACAD_REACTORS
330
D
102
}
330
D
100
AcDbGroup
300

 70
     1
 71
     1
  0
GROUP
  5
876E
102
{ACAD_REACTORS
330
D
102
}
330
D
100
AcDbGroup
300

 70
     1
 71
     1
  0
GROUP
  5
39E39
102
{ACAD_REACTORS
330
D
102
}
330
D
100
AcDbGroup
300

 70
     1
 71
     1
  0
GROUP
  5
2C758
102
{ACAD_REACTORS
330
D
102
}
330
D
100
AcDbGroup
300

 70
     1
 71
     1
  0
GROUP
  5
D0B3
102
{ACAD_REACTORS
330
D
102
}
330
D
100
AcDbGroup
300

 70
     1
 71
     1
  0
GROUP
  5
2D52D
102
{ACAD_REACTORS
330
D
102
}
330
D
100
AcDbGroup
300

 70
     1
 71
     1
  0
GROUP
  5
3262B
102
{ACAD_REACTORS
330
D
102
}
330
D
100
AcDbGroup
300

 70
     1
 71
     1
  0
GROUP
  5
16EE1
102
{ACAD_REACTORS
330
D
102
}
330
D
100
AcDbGroup
300

 70
     1
 71
     1
  0
GROUP
  5
2D52A
102
{ACAD_REACTORS
330
D
102
}
330
D
100
AcDbGroup
300

 70
     1
 71
     1
  0
GROUP
  5
1A7AA
102
{ACAD_REACTORS
330
D
102
}
330
D
100
AcDbGroup
300

 70
     1
 71
     1
  0
GROUP
  5
2CCEC
102
{ACAD_REACTORS
330
D
102
}
330
D
100
AcDbGroup
300

 70
     1
 71
     1
  0
GROUP
  5
7AD8
102
{ACAD_REACTORS
330
D
102
}
330
D
100
AcDbGroup
300

 70
     1
 71
     1
  0
GROUP
  5
149D3
102
{ACAD_REACTORS
330
D
102
}
330
D
100
AcDbGroup
300

 70
     1
 71
     1
  0
GROUP
  5
2D52E
102
{ACAD_REACTORS
330
D
102
}
330
D
100
AcDbGroup
300

 70
     1
 71
     1
  0
GROUP
  5
1FA2F
102
{ACAD_REACTORS
330
D
102
}
330
D
100
AcDbGroup
300

 70
     1
 71
     1
  0
GROUP
  5
8802
102
{ACAD_REACTORS
330
D
102
}
330
D
100
AcDbGroup
300

 70
     1
 71
     1
  0
GROUP
  5
996B
102
{ACAD_REACTORS
330
D
102
}
330
D
100
AcDbGroup
300

 70
     1
 71
     1
  0
GROUP
  5
2F72B
102
{ACAD_REACTORS
330
D
102
}
330
D
100
AcDbGroup
300

 70
     1
 71
     1
  0
GROUP
  5
2F6D9
102
{ACAD_REACTORS
330
D
102
}
330
D
100
AcDbGroup
300

 70
     1
 71
     1
  0
GROUP
  5
2D915
102
{ACAD_REACTORS
330
D
102
}
330
D
100
AcDbGroup
300

 70
     1
 71
     1
  0
GROUP
  5
2E338
102
{ACAD_REACTORS
330
D
102
}
330
D
100
AcDbGroup
300

 70
     1
 71
     1
  0
GROUP
  5
2D52F
102
{ACAD_REACTORS
330
D
102
}
330
D
100
AcDbGroup
300

 70
     1
 71
     1
  0
GROUP
  5
2CDAA
102
{ACAD_REACTORS
330
D
102
}
330
D
100
AcDbGroup
300

 70
     1
 71
     1
  0
GROUP
  5
2FC95
102
{ACAD_REACTORS
330
D
102
}
330
D
100
AcDbGroup
300

 70
     1
 71
     1
  0
GROUP
  5
19E53
102
{ACAD_REACTORS
330
D
102
}
330
D
100
AcDbGroup
300

 70
     1
 71
     1
  0
GROUP
  5
19A57
102
{ACAD_REACTORS
330
D
102
}
330
D
100
AcDbGroup
300

 70
     1
 71
     1
  0
GROUP
  5
81AA
102
{ACAD_REACTORS
330
D
102
}
330
D
100
AcDbGroup
300

 70
     1
 71
     1
  0
GROUP
  5
1D241
102
{ACAD_REACTORS
330
D
102
}
330
D
100
AcDbGroup
300

 70
     1
 71
     1
  0
GROUP
  5
1A5A1
102
{ACAD_REACTORS
330
D
102
}
330
D
100
AcDbGroup
300

 70
     1
 71
     1
  0
GROUP
  5
3262C
102
{ACAD_REACTORS
330
D
102
}
330
D
100
AcDbGroup
300

 70
     1
 71
     1
  0
GROUP
  5
2D529
102
{ACAD_REACTORS
330
D
102
}
330
D
100
AcDbGroup
300

 70
     1
 71
     1
  0
GROUP
  5
2F72C
102
{ACAD_REACTORS
330
D
102
}
330
D
100
AcDbGroup
300

 70
     1
 71
     1
  0
GROUP
  5
1EC4E
102
{ACAD_REACTORS
330
D
102
}
330
D
100
AcDbGroup
300

 70
     1
 71
     1
  0
GROUP
  5
7AD9
102
{ACAD_REACTORS
330
D
102
}
330
D
100
AcDbGroup
300

 70
     1
 71
     1
  0
GROUP
  5
2C759
102
{ACAD_REACTORS
330
D
102
}
330
D
100
AcDbGroup
300

 70
     1
 71
     1
  0
GROUP
  5
16CCA
102
{ACAD_REACTORS
330
D
102
}
330
D
100
AcDbGroup
300

 70
     1
 71
     1
  0
GROUP
  5
2D530
102
{ACAD_REACTORS
330
D
102
}
330
D
100
AcDbGroup
300

 70
     1
 71
     1
  0
GROUP
  5
8813
102
{ACAD_REACTORS
330
D
102
}
330
D
100
AcDbGroup
300

 70
     1
 71
     1
  0
GROUP
  5
16E28
102
{ACAD_REACTORS
330
D
102
}
330
D
100
AcDbGroup
300

 70
     1
 71
     1
  0
GROUP
  5
2D531
102
{ACAD_REACTORS
330
D
102
}
330
D
100
AcDbGroup
300

 70
     1
 71
     1
  0
GROUP
  5
2E337
102
{ACAD_REACTORS
330
D
102
}
330
D
100
AcDbGroup
300

 70
     1
 71
     1
  0
GROUP
  5
1AAF8
102
{ACAD_REACTORS
330
D
102
}
330
D
100
AcDbGroup
300

 70
     1
 71
     1
  0
GROUP
  5
2CDA8
102
{ACAD_REACTORS
330
D
102
}
330
D
100
AcDbGroup
300

 70
     1
 71
     1
  0
GROUP
  5
1B197
102
{ACAD_REACTORS
330
D
102
}
330
D
100
AcDbGroup
300

 70
     1
 71
     1
  0
GROUP
  5
19E52
102
{ACAD_REACTORS
330
D
102
}
330
D
100
AcDbGroup
300

 70
     1
 71
     1
  0
GROUP
  5
1A5F5
102
{ACAD_REACTORS
330
D
102
}
330
D
100
AcDbGroup
300

 70
     1
 71
     1
  0
GROUP
  5
2F727
102
{ACAD_REACTORS
330
D
102
}
330
D
100
AcDbGroup
300

 70
     1
 71
     1
  0
GROUP
  5
2B7FE
102
{ACAD_REACTORS
330
D
102
}
330
D
100
AcDbGroup
300

 70
     1
 71
     1
  0
GROUP
  5
9527
102
{ACAD_REACTORS
330
D
102
}
330
D
100
AcDbGroup
300

 70
     1
 71
     1
  0
GROUP
  5
2CC76
102
{ACAD_REACTORS
330
D
102
}
330
D
100
AcDbGroup
300

 70
     1
 71
     1
  0
GROUP
  5
1EC28
102
{ACAD_REACTORS
330
D
102
}
330
D
100
AcDbGroup
300

 70
     1
 71
     1
  0
GROUP
  5
2F752
102
{ACAD_REACTORS
330
D
102
}
330
D
100
AcDbGroup
300

 70
     1
 71
     1
  0
GROUP
  5
2BA33
102
{ACAD_REACTORS
330
D
102
}
330
D
100
AcDbGroup
300

 70
     1
 71
     1
  0
GROUP
  5
E40A
102
{ACAD_REACTORS
330
D
102
}
330
D
100
AcDbGroup
300

 70
     1
 71
     1
  0
GROUP
  5
2D52B
102
{ACAD_REACTORS
330
D
102
}
330
D
100
AcDbGroup
300

 70
     1
 71
     1
  0
GROUP
  5
1A7FC
102
{ACAD_REACTORS
330
D
102
}
330
D
100
AcDbGroup
300

 70
     1
 71
     1
  0
GROUP
  5
33818
102
{ACAD_REACTORS
330
D
102
}
330
D
100
AcDbGroup
300

 70
     1
 71
     1
  0
GROUP
  5
33819
102
{ACAD_REACTORS
330
D
102
}
330
D
100
AcDbGroup
300

 70
     1
 71
     1
  0
GROUP
  5
33D7A
102
{ACAD_REACTORS
330
D
102
}
330
D
100
AcDbGroup
300

 70
     1
 71
     1
  0
GROUP
  5
33D7B
102
{ACAD_REACTORS
330
D
102
}
330
D
100
AcDbGroup
300

 70
     1
 71
     1
  0
GROUP
  5
1ABC9
102
{ACAD_REACTORS
330
D
102
}
330
D
100
AcDbGroup
300

 70
     1
 71
     1
  0
GROUP
  5
1AAC1
102
{ACAD_REACTORS
330
D
102
}
330
D
100
AcDbGroup
300

 70
     1
 71
     1
  0
GROUP
  5
2E642
102
{ACAD_REACTORS
330
D
102
}
330
D
100
AcDbGroup
300

 70
     1
 71
     1
  0
GROUP
  5
2E336
102
{ACAD_REACTORS
330
D
102
}
330
D
100
AcDbGroup
300

 70
     1
 71
     1
  0
GROUP
  5
11D38
102
{ACAD_REACTORS
330
D
102
}
330
D
100
AcDbGroup
300

 70
     1
 71
     1
  0
GROUP
  5
D2B7
102
{ACAD_REACTORS
330
D
102
}
330
D
100
AcDbGroup
300

 70
     1
 71
     1
  0
GROUP
  5
2F725
102
{ACAD_REACTORS
330
D
102
}
330
D
100
AcDbGroup
300

 70
     1
 71
     1
  0
GROUP
  5
81AB
102
{ACAD_REACTORS
330
D
102
}
330
D
100
AcDbGroup
300

 70
     1
 71
     1
  0
GROUP
  5
3108C
102
{ACAD_REACTORS
330
D
102
}
330
D
100
AcDbGroup
300

 70
     1
 71
     1
  0
GROUP
  5
3108D
102
{ACAD_REACTORS
330
D
102
}
330
D
100
AcDbGroup
300

 70
     1
 71
     1
  0
GROUP
  5
2F75A
102
{ACAD_REACTORS
330
D
102
}
330
D
100
AcDbGroup
300

 70
     1
 71
     1
  0
GROUP
  5
3089E
102
{ACAD_REACTORS
330
D
102
}
330
D
100
AcDbGroup
300

 70
     1
 71
     1
  0
GROUP
  5
16BFC
102
{ACAD_REACTORS
330
D
102
}
330
D
100
AcDbGroup
300

 70
     1
 71
     1
  0
GROUP
  5
2D52C
102
{ACAD_REACTORS
330
D
102
}
330
D
100
AcDbGroup
300

 70
     1
 71
     1
  0
GROUP
  5
16EE3
102
{ACAD_REACTORS
330
D
102
}
330
D
100
AcDbGroup
300

 70
     1
 71
     1
  0
GROUP
  5
19E51
102
{ACAD_REACTORS
330
D
102
}
330
D
100
AcDbGroup
300

 70
     1
 71
     1
  0
GROUP
  5
3109F
102
{ACAD_REACTORS
330
D
102
}
330
D
100
AcDbGroup
300

 70
     1
 71
     1
  0
GROUP
  5
1D274
102
{ACAD_REACTORS
330
D
102
}
330
D
100
AcDbGroup
300

 70
     1
 71
     1
  0
GROUP
  5
1006C
102
{ACAD_REACTORS
330
D
102
}
330
D
100
AcDbGroup
300

 70
     1
 71
     1
  0
GROUP
  5
2E645
102
{ACAD_REACTORS
330
D
102
}
330
D
100
AcDbGroup
300

 70
     1
 71
     1
  0
GROUP
  5
312E7
102
{ACAD_REACTORS
330
D
102
}
330
D
100
AcDbGroup
300

 70
     1
 71
     1
  0
GROUP
  5
2FA6A
102
{ACAD_REACTORS
330
D
102
}
330
D
100
AcDbGroup
300

 70
     1
 71
     1
  0
GROUP
  5
16A8C
102
{ACAD_REACTORS
330
D
102
}
330
D
100
AcDbGroup
300

 70
     1
 71
     1
  0
GROUP
  5
3262A
102
{ACAD_REACTORS
330
D
102
}
330
D
100
AcDbGroup
300

 70
     1
 71
     1
  0
GROUP
  5
2AF6D
102
{ACAD_REACTORS
330
D
102
}
330
D
100
AcDbGroup
300

 70
     1
 71
     1
  0
GROUP
  5
312E8
102
{ACAD_REACTORS
330
D
102
}
330
D
100
AcDbGroup
300

 70
     1
 71
     1
  0
GROUP
  5
312E9
102
{ACAD_REACTORS
330
D
102
}
330
D
100
AcDbGroup
300

 70
     1
 71
     1
  0
GROUP
  5
3022C
102
{ACAD_REACTORS
330
D
102
}
330
D
100
AcDbGroup
300

 70
     1
 71
     1
  0
GROUP
  5
31B42
102
{ACAD_REACTORS
330
D
102
}
330
D
100
AcDbGroup
300

 70
     1
 71
     1
  0
GROUP
  5
1A193
102
{ACAD_REACTORS
330
D
102
}
330
D
100
AcDbGroup
300

 70
     1
 71
     1
  0
GROUP
  5
17B62
102
{ACAD_REACTORS
330
D
102
}
330
D
100
AcDbGroup
300

 70
     1
 71
     1
  0
GROUP
  5
2B8FE
102
{ACAD_REACTORS
330
D
102
}
330
D
100
AcDbGroup
300

 70
     1
 71
     1
  0
GROUP
  5
2F6D6
102
{ACAD_REACTORS
330
D
102
}
330
D
100
AcDbGroup
300

 70
     1
 71
     1
  0
GROUP
  5
2FA6B
102
{ACAD_REACTORS
330
D
102
}
330
D
100
AcDbGroup
300

 70
     1
 71
     1
  0
GROUP
  5
2FAFF
102
{ACAD_REACTORS
330
D
102
}
330
D
100
AcDbGroup
300

 70
     1
 71
     1
  0
GROUP
  5
9529
102
{ACAD_REACTORS
330
D
102
}
330
D
100
AcDbGroup
300

 70
     1
 71
     1
  0
GROUP
  5
2EB83
102
{ACAD_REACTORS
330
D
102
}
330
D
100
AcDbGroup
300

 70
     1
 71
     1
  0
GROUP
  5
31B43
102
{ACAD_REACTORS
330
D
102
}
330
D
100
AcDbGroup
300

 70
     1
 71
     1
  0
GROUP
  5
3B235
102
{ACAD_REACTORS
330
D
102
}
330
D
100
AcDbGroup
300

 70
     1
 71
     1
340
3B234
340
3B22B
340
3B233
340
3B22F
340
3B230
  0
GROUP
  5
2F72A
102
{ACAD_REACTORS
330
D
102
}
330
D
100
AcDbGroup
300

 70
     1
 71
     1
  0
GROUP
  5
2FD83
102
{ACAD_REACTORS
330
D
102
}
330
D
100
AcDbGroup
300

 70
     1
 71
     1
  0
GROUP
  5
2B7FD
102
{ACAD_REACTORS
330
D
102
}
330
D
100
AcDbGroup
300

 70
     1
 71
     1
  0
GROUP
  5
2AF6E
102
{ACAD_REACTORS
330
D
102
}
330
D
100
AcDbGroup
300

 70
     1
 71
     1
  0
GROUP
  5
8178
102
{ACAD_REACTORS
330
D
102
}
330
D
100
AcDbGroup
300

 70
     1
 71
     1
  0
GROUP
  5
301FC
102
{ACAD_REACTORS
330
D
102
}
330
D
100
AcDbGroup
300

 70
     1
 71
     1
  0
GROUP
  5
2B917
102
{ACAD_REACTORS
330
D
102
}
330
D
100
AcDbGroup
300

 70
     1
 71
     1
  0
GROUP
  5
1EEB7
102
{ACAD_REACTORS
330
D
102
}
330
D
100
AcDbGroup
300

 70
     1
 71
     1
  0
GROUP
  5
2FC1C
102
{ACAD_REACTORS
330
D
102
}
330
D
100
AcDbGroup
300

 70
     1
 71
     1
  0
GROUP
  5
E3CD
102
{ACAD_REACTORS
330
D
102
}
330
D
100
AcDbGroup
300

 70
     1
 71
     1
  0
GROUP
  5
300DF
102
{ACAD_REACTORS
330
D
102
}
330
D
100
AcDbGroup
300

 70
     1
 71
     1
  0
GROUP
  5
1A4E1
102
{ACAD_REACTORS
330
D
102
}
330
D
100
AcDbGroup
300

 70
     1
 71
     1
  0
GROUP
  5
1A825
102
{ACAD_REACTORS
330
D
102
}
330
D
100
AcDbGroup
300

 70
     1
 71
     1
  0
GROUP
  5
1A2FB
102
{ACAD_REACTORS
330
D
102
}
330
D
100
AcDbGroup
300

 70
     1
 71
     1
  0
GROUP
  5
149D2
102
{ACAD_REACTORS
330
D
102
}
330
D
100
AcDbGroup
300

 70
     1
 71
     1
  0
GROUP
  5
9528
102
{ACAD_REACTORS
330
D
102
}
330
D
100
AcDbGroup
300

 70
     1
 71
     1
  0
GROUP
  5
32204
102
{ACAD_REACTORS
330
D
102
}
330
D
100
AcDbGroup
300

 70
     1
 71
     1
  0
GROUP
  5
2BB08
102
{ACAD_REACTORS
330
D
102
}
330
D
100
AcDbGroup
300

 70
     1
 71
     1
  0
GROUP
  5
16CC9
102
{ACAD_REACTORS
330
D
102
}
330
D
100
AcDbGroup
300

 70
     1
 71
     1
  0
GROUP
  5
12770
102
{ACAD_REACTORS
330
D
102
}
330
D
100
AcDbGroup
300

 70
     1
 71
     1
  0
GROUP
  5
2AF6F
102
{ACAD_REACTORS
330
D
102
}
330
D
100
AcDbGroup
300

 70
     1
 71
     1
  0
GROUP
  5
12141
102
{ACAD_REACTORS
330
D
102
}
330
D
100
AcDbGroup
300

 70
     1
 71
     1
  0
GROUP
  5
2FC1D
102
{ACAD_REACTORS
330
D
102
}
330
D
100
AcDbGroup
300

 70
     1
 71
     1
  0
GROUP
  5
1A68B
102
{ACAD_REACTORS
330
D
102
}
330
D
100
AcDbGroup
300

 70
     1
 71
     1
  0
GROUP
  5
1252B
102
{ACAD_REACTORS
330
D
102
}
330
D
100
AcDbGroup
300

 70
     1
 71
     1
  0
GROUP
  5
2F726
102
{ACAD_REACTORS
330
D
102
}
330
D
100
AcDbGroup
300

 70
     1
 71
     1
  0
GROUP
  5
2E814
102
{ACAD_REACTORS
330
D
102
}
330
D
100
AcDbGroup
300

 70
     1
 71
     1
  0
GROUP
  5
13067
102
{ACAD_REACTORS
330
D
102
}
330
D
100
AcDbGroup
300

 70
     1
 71
     1
  0
GROUP
  5
12771
102
{ACAD_REACTORS
330
D
102
}
330
D
100
AcDbGroup
300

 70
     1
 71
     1
  0
GROUP
  5
1A68A
102
{ACAD_REACTORS
330
D
102
}
330
D
100
AcDbGroup
300

 70
     1
 71
     1
  0
GROUP
  5
1AB72
102
{ACAD_REACTORS
330
D
102
}
330
D
100
AcDbGroup
300

 70
     1
 71
     1
  0
GROUP
  5
16B4C
102
{ACAD_REACTORS
330
D
102
}
330
D
100
AcDbGroup
300

 70
     1
 71
     1
  0
GROUP
  5
16E26
102
{ACAD_REACTORS
330
D
102
}
330
D
100
AcDbGroup
300

 70
     1
 71
     1
  0
GROUP
  5
2AF83
102
{ACAD_REACTORS
330
D
102
}
330
D
100
AcDbGroup
300

 70
     1
 71
     1
  0
GROUP
  5
2BB06
102
{ACAD_REACTORS
330
D
102
}
330
D
100
AcDbGroup
300

 70
     1
 71
     1
  0
GROUP
  5
98F3
102
{ACAD_REACTORS
330
D
102
}
330
D
100
AcDbGroup
300

 70
     1
 71
     1
  0
GROUP
  5
2F729
102
{ACAD_REACTORS
330
D
102
}
330
D
100
AcDbGroup
300

 70
     1
 71
     1
  0
GROUP
  5
1D240
102
{ACAD_REACTORS
330
D
102
}
330
D
100
AcDbGroup
300

 70
     1
 71
     1
  0
GROUP
  5
2F762
102
{ACAD_REACTORS
330
D
102
}
330
D
100
AcDbGroup
300

 70
     1
 71
     1
  0
GROUP
  5
2FDE3
102
{ACAD_REACTORS
330
D
102
}
330
D
100
AcDbGroup
300

 70
     1
 71
     1
  0
GROUP
  5
2B6E6
102
{ACAD_REACTORS
330
D
102
}
330
D
100
AcDbGroup
300

 70
     1
 71
     1
  0
GROUP
  5
2EB84
102
{ACAD_REACTORS
330
D
102
}
330
D
100
AcDbGroup
300

 70
     1
 71
     1
  0
GROUP
  5
1EC64
102
{ACAD_REACTORS
330
D
102
}
330
D
100
AcDbGroup
300

 70
     1
 71
     1
  0
GROUP
  5
15425
102
{ACAD_REACTORS
330
D
102
}
330
D
100
AcDbGroup
300

 70
     1
 71
     1
  0
GROUP
  5
1EEB8
102
{ACAD_REACTORS
330
D
102
}
330
D
100
AcDbGroup
300

 70
     1
 71
     1
  0
GROUP
  5
2FC96
102
{ACAD_REACTORS
330
D
102
}
330
D
100
AcDbGroup
300

 70
     1
 71
     1
  0
GROUP
  5
1B149
102
{ACAD_REACTORS
330
D
102
}
330
D
100
AcDbGroup
300

 70
     1
 71
     1
  0
GROUP
  5
301FB
102
{ACAD_REACTORS
330
D
102
}
330
D
100
AcDbGroup
300

 70
     1
 71
     1
  0
GROUP
  5
817B
102
{ACAD_REACTORS
330
D
102
}
330
D
100
AcDbGroup
300

 70
     1
 71
     1
  0
GROUP
  5
3491D
102
{ACAD_REACTORS
330
D
102
}
330
D
100
AcDbGroup
300

 70
     1
 71
     1
  0
GROUP
  5
2FDE4
102
{ACAD_REACTORS
330
D
102
}
330
D
100
AcDbGroup
300

 70
     1
 71
     1
  0
GROUP
  5
76F1
102
{ACAD_REACTORS
330
D
102
}
330
D
100
AcDbGroup
300

 70
     1
 71
     1
  0
GROUP
  5
2F6D7
102
{ACAD_REACTORS
330
D
102
}
330
D
100
AcDbGroup
300

 70
     1
 71
     1
  0
GROUP
  5
1D243
102
{ACAD_REACTORS
330
D
102
}
330
D
100
AcDbGroup
300

 70
     1
 71
     1
  0
GROUP
  5
1AB18
102
{ACAD_REACTORS
330
D
102
}
330
D
100
AcDbGroup
300

 70
     1
 71
     1
  0
GROUP
  5
16A60
102
{ACAD_REACTORS
330
D
102
}
330
D
100
AcDbGroup
300

 70
     1
 71
     1
  0
GROUP
  5
3220A
102
{ACAD_REACTORS
330
D
102
}
330
D
100
AcDbGroup
300

 70
     1
 71
     1
  0
GROUP
  5
2F728
102
{ACAD_REACTORS
330
D
102
}
330
D
100
AcDbGroup
300

 70
     1
 71
     1
  0
GROUP
  5
16BFE
102
{ACAD_REACTORS
330
D
102
}
330
D
100
AcDbGroup
300

 70
     1
 71
     1
  0
GROUP
  5
30B80
102
{ACAD_REACTORS
330
D
102
}
330
D
100
AcDbGroup
300

 70
     1
 71
     1
  0
GROUP
  5
2CDAB
102
{ACAD_REACTORS
330
D
102
}
330
D
100
AcDbGroup
300

 70
     1
 71
     1
  0
GROUP
  5
300DD
102
{ACAD_REACTORS
330
D
102
}
330
D
100
AcDbGroup
300

 70
     1
 71
     1
  0
GROUP
  5
2B7FC
102
{ACAD_REACTORS
330
D
102
}
330
D
100
AcDbGroup
300

 70
     1
 71
     1
  0
GROUP
  5
1A61E
102
{ACAD_REACTORS
330
D
102
}
330
D
100
AcDbGroup
300

 70
     1
 71
     1
  0
GROUP
  5
1252C
102
{ACAD_REACTORS
330
D
102
}
330
D
100
AcDbGroup
300

 70
     1
 71
     1
  0
GROUP
  5
30B81
102
{ACAD_REACTORS
330
D
102
}
330
D
100
AcDbGroup
300

 70
     1
 71
     1
  0
GROUP
  5
300E0
102
{ACAD_REACTORS
330
D
102
}
330
D
100
AcDbGroup
300

 70
     1
 71
     1
  0
GROUP
  5
2E335
102
{ACAD_REACTORS
330
D
102
}
330
D
100
AcDbGroup
300

 70
     1
 71
     1
  0
GROUP
  5
2B8E0
102
{ACAD_REACTORS
330
D
102
}
330
D
100
AcDbGroup
300

 70
     1
 71
     1
  0
GROUP
  5
1D244
102
{ACAD_REACTORS
330
D
102
}
330
D
100
AcDbGroup
300

 70
     1
 71
     1
  0
GROUP
  5
E31A
102
{ACAD_REACTORS
330
D
102
}
330
D
100
AcDbGroup
300

 70
     1
 71
     1
  0
GROUP
  5
2E644
102
{ACAD_REACTORS
330
D
102
}
330
D
100
AcDbGroup
300

 70
     1
 71
     1
  0
GROUP
  5
8179
102
{ACAD_REACTORS
330
D
102
}
330
D
100
AcDbGroup
300

 70
     1
 71
     1
  0
GROUP
  5
2B972
102
{ACAD_REACTORS
330
D
102
}
330
D
100
AcDbGroup
300

 70
     1
 71
     1
  0
GROUP
  5
7B15
102
{ACAD_REACTORS
330
D
102
}
330
D
100
AcDbGroup
300

 70
     1
 71
     1
  0
GROUP
  5
DED9
102
{ACAD_REACTORS
330
D
102
}
330
D
100
AcDbGroup
300

 70
     1
 71
     1
  0
GROUP
  5
1AAA3
102
{ACAD_REACTORS
330
D
102
}
330
D
100
AcDbGroup
300

 70
     1
 71
     1
  0
GROUP
  5
1A758
102
{ACAD_REACTORS
330
D
102
}
330
D
100
AcDbGroup
300

 70
     1
 71
     1
  0
GROUP
  5
16E27
102
{ACAD_REACTORS
330
D
102
}
330
D
100
AcDbGroup
300

 70
     1
 71
     1
  0
GROUP
  5
2E643
102
{ACAD_REACTORS
330
D
102
}
330
D
100
AcDbGroup
300

 70
     1
 71
     1
  0
GROUP
  5
2D528
102
{ACAD_REACTORS
330
D
102
}
330
D
100
AcDbGroup
300

 70
     1
 71
     1
  0
GROUP
  5
732B
102
{ACAD_REACTORS
330
D
102
}
330
D
100
AcDbGroup
300

 70
     1
 71
     1
  0
GROUP
  5
2CCB9
102
{ACAD_REACTORS
330
D
102
}
330
D
100
AcDbGroup
300

 70
     1
 71
     1
  0
LAYOUT
  5
22
102
{ACAD_XDICTIONARY
360
3B61E
102
}
102
{ACAD_REACTORS
330
1A
102
}
330
1A
100
AcDbPlotSettings
  1

  2
none_device
  4
Letter_(8.50_x_11.00_Inches)
  6

 40
6.349999999999999
 41
6.349999999999999
 42
6.350005079999999
 43
6.350005079999999
 44
215.9
 45
279.4
 46
0.0
 47
0.0
 48
0.0
 49
0.0
140
0.0
141
0.0
142
1.0
143
1.0
 70
  1712
 72
     1
 73
     0
 74
     0
  7

 75
     0
147
1.0
148
0.0
149
0.0
100
AcDbLayout
  1
Model
 70
     1
 71
     0
 10
0.0
 20
0.0
 11
431.7999999999999
 21
279.4
 12
0.0
 22
0.0
 32
0.0
 14
0.0
 24
0.0
 34
0.0
 15
431.7999999999999
 25
279.4
 35
0.0
146
0.0
 13
0.0
 23
0.0
 33
0.0
 16
1.0
 26
0.0
 36
0.0
 17
0.0
 27
1.0
 37
0.0
 76
     0
330
1F
  0
LAYOUT
  5
3B103
102
{ACAD_XDICTIONARY
360
3B624
102
}
102
{ACAD_REACTORS
330
1A
102
}
330
1A
100
AcDbPlotSettings
  1

  2
RICOH SP C840 JPN RPCS
  4
A3
  6

 40
5.873749732971191
 41
5.873747825622558
 42
5.873748779296875
 43
5.873748779296875
 44
296.9259948730469
 45
419.9466552734374
 46
0.0
 47
0.0
 48
0.0
 49
0.0
140
0.0
141
0.0
142
1.0
143
1.0
 70
   688
 72
     1
 73
     1
 74
     5
  7
monochrome.ctb
 75
    16
147
1.0
148
68.81595875097668
149
17.75511689065621
100
AcDbLayout
  1
伸縮カバー
 70
     1
 71
     1
 10
-74.68970753027355
 20
-23.6288666236274
 11
345.2569477431639
 21
273.2971282494195
 12
0.0
 22
0.0
 32
0.0
 14
-73.83861450660799
 24
-22.64352933958139
 34
0.0
 15
344.4227553844882
 25
272.4048239951644
 35
0.0
146
0.0
 13
0.0
 23
0.0
 33
0.0
 16
1.0
 26
0.0
 36
0.0
 17
0.0
 27
1.0
 37
0.0
 76
     0
330
3B0FE
331
3B100
  0
MLINESTYLE
  5
18
102
{ACAD_REACTORS
330
17
102
}
330
17
100
AcDbMlineStyle
  2
STANDARD
 70
     0
  3

 62
   256
 51
90.0
 52
90.0
 71
     2
 49
0.5
 62
   256
  6
BYLAYER
 49
-0.5
 62
   256
  6
BYLAYER
  0
ACDBPLACEHOLDER
  5
F
102
{ACAD_REACTORS
330
E
102
}
330
E
  0
ACAD_PROXY_OBJECT
  5
48
102
{ACAD_REACTORS
330
47
102
}
330
47
100
AcDbProxyObject
 90
      499
 91
      503
 95
   983063
 70
     0
 93
       41
310
903313A31580
 94
        0
1001
ACAD
1000
AcRTDxfName
1000
SCALE
1000
AcRTDxfName
1000
SCALE
  0
ACAD_PROXY_OBJECT
  5
49
102
{ACAD_REACTORS
330
47
102
}
330
47
100
AcDbProxyObject
 90
      499
 91
      503
 95
   983063
 70
     0
 93
      105
310
903313A324000000000000004000
 94
        0
1001
ACAD
1000
AcRTDxfName
1000
SCALE
1000
AcRTDxfName
1000
SCALE
  0
ACAD_PROXY_OBJECT
  5
4A
102
{ACAD_REACTORS
330
47
102
}
330
47
100
AcDbProxyObject
 90
      499
 91
      503
 95
   983063
 70
     0
 93
      105
310
903313A344000000000000104030
 94
        0
1001
ACAD
1000
AcRTDxfName
1000
SCALE
1000
AcRTDxfName
1000
SCALE
  0
ACAD_PROXY_OBJECT
  5
4B
102
{ACAD_REACTORS
330
47
102
}
330
47
100
AcDbProxyObject
 90
      499
 91
      503
 95
   983063
 70
     0
 93
      105
310
903313A354000000000000144000
 94
        0
1001
ACAD
1000
AcRTDxfName
1000
SCALE
1000
AcRTDxfName
1000
SCALE
  0
ACAD_PROXY_OBJECT
  5
4C
102
{ACAD_REACTORS
330
47
102
}
330
47
100
AcDbProxyObject
 90
      499
 91
      503
 95
   983063
 70
     0
 93
      105
310
903313A384000000000000204030
 94
        0
1001
ACAD
1000
AcRTDxfName
1000
SCALE
1000
AcRTDxfName
1000
SCALE
  0
ACAD_PROXY_OBJECT
  5
4D
102
{ACAD_REACTORS
330
47
102
}
330
47
100
AcDbProxyObject
 90
      499
 91
      503
 95
   983063
 70
     0
 93
      113
310
904313A3130400000000000024402C
 94
        0
1001
ACAD
1000
AcRTDxfName
1000
SCALE
1000
AcRTDxfName
1000
SCALE
  0
ACAD_PROXY_OBJECT
  5
4E
102
{ACAD_REACTORS
330
47
102
}
330
47
100
AcDbProxyObject
 90
      499
 91
      503
 95
   983063
 70
     0
 93
      113
310
904313A31364000000000000304002
 94
        0
1001
ACAD
1000
AcRTDxfName
1000
SCALE
1000
AcRTDxfName
1000
SCALE
  0
ACAD_PROXY_OBJECT
  5
4F
102
{ACAD_REACTORS
330
47
102
}
330
47
100
AcDbProxyObject
 90
      499
 91
      503
 95
   983063
 70
     0
 93
      113
310
904313A32304000000000000344002
 94
        0
1001
ACAD
1000
AcRTDxfName
1000
SCALE
1000
AcRTDxfName
1000
SCALE
  0
ACAD_PROXY_OBJECT
  5
50
102
{ACAD_REACTORS
330
47
102
}
330
47
100
AcDbProxyObject
 90
      499
 91
      503
 95
   983063
 70
     0
 93
      113
310
904313A333040000000000003E4000
 94
        0
1001
ACAD
1000
AcRTDxfName
1000
SCALE
1000
AcRTDxfName
1000
SCALE
  0
ACAD_PROXY_OBJECT
  5
51
102
{ACAD_REACTORS
330
47
102
}
330
47
100
AcDbProxyObject
 90
      499
 91
      503
 95
   983063
 70
     0
 93
      113
310
904313A34304000000000000444002
 94
        0
1001
ACAD
1000
AcRTDxfName
1000
SCALE
1000
AcRTDxfName
1000
SCALE
  0
ACAD_PROXY_OBJECT
  5
52
102
{ACAD_REACTORS
330
47
102
}
330
47
100
AcDbProxyObject
 90
      499
 91
      503
 95
   983063
 70
     0
 93
      113
310
904313A35304000000000000494000
 94
        0
1001
ACAD
1000
AcRTDxfName
1000
SCALE
1000
AcRTDxfName
1000
SCALE
  0
ACAD_PROXY_OBJECT
  5
53
102
{ACAD_REACTORS
330
47
102
}
330
47
100
AcDbProxyObject
 90
      499
 91
      503
 95
   983063
 70
     0
 93
      121
310
905313A3130304000000000000594064
 94
        0
1001
ACAD
1000
AcRTDxfName
1000
SCALE
1000
AcRTDxfName
1000
SCALE
  0
ACAD_PROXY_OBJECT
  5
54
102
{ACAD_REACTORS
330
47
102
}
330
47
100
AcDbProxyObject
 90
      499
 91
      503
 95
   983063
 70
     0
 93
      105
310
903323A310000000000000010140
 94
        0
1001
ACAD
1000
AcRTDxfName
1000
SCALE
1000
AcRTDxfName
1000
SCALE
  0
ACAD_PROXY_OBJECT
  5
55
102
{ACAD_REACTORS
330
47
102
}
330
47
100
AcDbProxyObject
 90
      499
 91
      503
 95
   983063
 70
     0
 93
      105
310
903343A310000000000000410159
 94
        0
1001
ACAD
1000
AcRTDxfName
1000
SCALE
1000
AcRTDxfName
1000
SCALE
  0
ACAD_PROXY_OBJECT
  5
56
102
{ACAD_REACTORS
330
47
102
}
330
47
100
AcDbProxyObject
 90
      499
 91
      503
 95
   983063
 70
     0
 93
      105
310
903383A310000000000000810159
 94
        0
1001
ACAD
1000
AcRTDxfName
1000
SCALE
1000
AcRTDxfName
1000
SCALE
  0
ACAD_PROXY_OBJECT
  5
57
102
{ACAD_REACTORS
330
47
102
}
330
47
100
AcDbProxyObject
 90
      499
 91
      503
 95
   983063
 70
     0
 93
      113
310
90431303A310000000000000910100
 94
        0
1001
ACAD
1000
AcRTDxfName
1000
SCALE
1000
AcRTDxfName
1000
SCALE
  0
ACAD_PROXY_OBJECT
  5
58
102
{ACAD_REACTORS
330
47
102
}
330
47
100
AcDbProxyObject
 90
      499
 91
      503
 95
   983063
 70
     0
 93
      121
310
9053130303A310000000000001650164
 94
        0
1001
ACAD
1000
AcRTDxfName
1000
SCALE
1000
AcRTDxfName
1000
SCALE
  0
ACAD_PROXY_OBJECT
  5
59
102
{ACAD_REACTORS
330
47
102
}
330
47
100
AcDbProxyObject
 90
      499
 91
      503
 95
   983063
 70
     0
 93
      257
310
90E312F31323822203D2031272D3022000000000000200FC000000000000284000
 94
        0
1001
ACAD
1000
AcRTDxfName
1000
SCALE
1000
AcRTDxfName
1000
SCALE
  0
ACAD_PROXY_OBJECT
  5
5A
102
{ACAD_REACTORS
330
47
102
}
330
47
100
AcDbProxyObject
 90
      499
 91
      503
 95
   983063
 70
     0
 93
      249
310
90D312F363422203D2031272D3022000000000000240FC000000000000284034
 94
        0
1001
ACAD
1000
AcRTDxfName
1000
SCALE
1000
AcRTDxfName
1000
SCALE
  0
ACAD_PROXY_OBJECT
  5
5B
102
{ACAD_REACTORS
330
47
102
}
330
47
100
AcDbProxyObject
 90
      499
 91
      503
 95
   983063
 70
     0
 93
      249
310
90D312F333222203D2031272D3022000000000000280FC000000000000284040
 94
        0
1001
ACAD
1000
AcRTDxfName
1000
SCALE
1000
AcRTDxfName
1000
SCALE
  0
ACAD_PROXY_OBJECT
  5
5C
102
{ACAD_REACTORS
330
47
102
}
330
47
100
AcDbProxyObject
 90
      499
 91
      503
 95
   983063
 70
     0
 93
      249
310
90D312F313622203D2031272D30220000000000002C0FC000000000000284034
 94
        0
1001
ACAD
1000
AcRTDxfName
1000
SCALE
1000
AcRTDxfName
1000
SCALE
  0
ACAD_PROXY_OBJECT
  5
5D
102
{ACAD_REACTORS
330
47
102
}
330
47
100
AcDbProxyObject
 90
      499
 91
      503
 95
   983063
 70
     0
 93
      249
310
90D332F333222203D2031272D30220000000000002E0FC000000000000284040
 94
        0
1001
ACAD
1000
AcRTDxfName
1000
SCALE
1000
AcRTDxfName
1000
SCALE
  0
ACAD_PROXY_OBJECT
  5
5E
102
{ACAD_REACTORS
330
47
102
}
330
47
100
AcDbProxyObject
 90
      499
 91
      503
 95
   983063
 70
     0
 93
      241
310
90C312F3822203D2031272D3022000000000000300FC000000000000284040
 94
        0
1001
ACAD
1000
AcRTDxfName
1000
SCALE
1000
AcRTDxfName
1000
SCALE
  0
ACAD_PROXY_OBJECT
  5
5F
102
{ACAD_REACTORS
330
47
102
}
330
47
100
AcDbProxyObject
 90
      499
 91
      503
 95
   983063
 70
     0
 93
      249
310
90D332F313622203D2031272D3022000000000000320FC000000000000284040
 94
        0
1001
ACAD
1000
AcRTDxfName
1000
SCALE
1000
AcRTDxfName
1000
SCALE
  0
ACAD_PROXY_OBJECT
  5
60
102
{ACAD_REACTORS
330
47
102
}
330
47
100
AcDbProxyObject
 90
      499
 91
      503
 95
   983063
 70
     0
 93
      241
310
90C312F3422203D2031272D3022000000000000340FC000000000000284040
 94
        0
1001
ACAD
1000
AcRTDxfName
1000
SCALE
1000
AcRTDxfName
1000
SCALE
  0
ACAD_PROXY_OBJECT
  5
61
102
{ACAD_REACTORS
330
47
102
}
330
47
100
AcDbProxyObject
 90
      499
 91
      503
 95
   983063
 70
     0
 93
      241
310
90C332F3822203D2031272D3022000000000000360FC000000000000284000
 94
        0
1001
ACAD
1000
AcRTDxfName
1000
SCALE
1000
AcRTDxfName
1000
SCALE
  0
ACAD_PROXY_OBJECT
  5
62
102
{ACAD_REACTORS
330
47
102
}
330
47
100
AcDbProxyObject
 90
      499
 91
      503
 95
   983063
 70
     0
 93
      241
310
90C312F3222203D2031272D3022000000000000380FC000000000000284040
 94
        0
1001
ACAD
1000
AcRTDxfName
1000
SCALE
1000
AcRTDxfName
1000
SCALE
  0
ACAD_PROXY_OBJECT
  5
63
102
{ACAD_REACTORS
330
47
102
}
330
47
100
AcDbProxyObject
 90
      499
 91
      503
 95
   983063
 70
     0
 93
      241
310
90C332F3422203D2031272D30220000000000003A0FC000000000000284000
 94
        0
1001
ACAD
1000
AcRTDxfName
1000
SCALE
1000
AcRTDxfName
1000
SCALE
  0
ACAD_PROXY_OBJECT
  5
64
102
{ACAD_REACTORS
330
47
102
}
330
47
100
AcDbProxyObject
 90
      499
 91
      503
 95
   983063
 70
     0
 93
      161
310
90A3122203D2031272D30224000000000000284000
 94
        0
1001
ACAD
1000
AcRTDxfName
1000
SCALE
1000
AcRTDxfName
1000
SCALE
  0
ACAD_PROXY_OBJECT
  5
65
102
{ACAD_REACTORS
330
47
102
}
330
47
100
AcDbProxyObject
 90
      499
 91
      503
 95
   983063
 70
     0
 93
      257
310
90E312D312F3222203D2031272D30220000000000003E0FC000000000000284000
 94
        0
1001
ACAD
1000
AcRTDxfName
1000
SCALE
1000
AcRTDxfName
1000
SCALE
  0
ACAD_PROXY_OBJECT
  5
66
102
{ACAD_REACTORS
330
47
102
}
330
47
100
AcDbProxyObject
 90
      499
 91
      503
 95
   983063
 70
     0
 93
      225
310
90A3322203D2031272D302200000000000002100000000000000284028
 94
        0
1001
ACAD
1000
AcRTDxfName
1000
SCALE
1000
AcRTDxfName
1000
SCALE
  0
ACAD_PROXY_OBJECT
  5
67
102
{ACAD_REACTORS
330
47
102
}
330
47
100
AcDbProxyObject
 90
      499
 91
      503
 95
   983063
 70
     0
 93
      225
310
90A3622203D2031272D302200000000000006100000000000000284000
 94
        0
1001
ACAD
1000
AcRTDxfName
1000
SCALE
1000
AcRTDxfName
1000
SCALE
  0
ACAD_PROXY_OBJECT
  5
68
102
{ACAD_REACTORS
330
47
102
}
330
47
100
AcDbProxyObject
 90
      499
 91
      503
 95
   983063
 70
     0
 93
      249
310
90D31272D3022203D2031272D30220000000000000A100000000000000284040
 94
        0
1001
ACAD
1000
AcRTDxfName
1000
SCALE
1000
AcRTDxfName
1000
SCALE
  0
XRECORD
  5
3B61D
102
{ACAD_REACTORS
330
3B61B
102
}
330
3B61B
100
AcDbXrecord
280
     1
340
C5F
  0
XRECORD
  5
3B61C
102
{ACAD_REACTORS
330
3B61B
102
}
330
3B61B
100
AcDbXrecord
280
     1
340
C5E
  0
DICTIONARYVAR
  5
3AFDB
102
{ACAD_REACTORS
330
3AFDA
102
}
330
3AFDA
100
DictionaryVariables
280
     0
  1
1
  0
DICTIONARYVAR
  5
3AFDC
102
{ACAD_REACTORS
330
3AFDA
102
}
330
3AFDA
100
DictionaryVariables
280
     0
  1

  0
DICTIONARY
  5
3B61E
330
22
100
AcDbDictionary
280
     1
281
     1
  3
ACAD_XREC_ROUNDTRIP
360
3B61F
  0
DICTIONARY
  5
3B624
330
3B103
100
AcDbDictionary
280
     1
281
     1
  3
ACAD_XREC_ROUNDTRIP
360
3B625
  0
XRECORD
  5
3B61F
102
{ACAD_REACTORS
330
3B61E
102
}
330
3B61E
100
AcDbXrecord
280
     1
102
SHADEPLOT
 70
     0
102
SHADEPLOTRESLEVEL
 70
     2
102
SHADEPLOTCUSTOMDPI
 70
   300
  0
XRECORD
  5
3B625
102
{ACAD_REACTORS
330
3B624
102
}
330
3B624
100
AcDbXrecord
280
     1
102
SHADEPLOT
 70
     1
102
SHADEPLOTRESLEVEL
 70
     2
102
SHADEPLOTCUSTOMDPI
 70
   300
  0
ENDSEC
  0
EOF
