  0
SECTION
  2
HEADER
  9
$ACADVER
  1
AC1014
  9
$ACADMAINTVER
 70
     9
  9
$DWGCODEPAGE
  3
ANSI_932
  9
$INSBASE
 10
0.0
 20
0.0
 30
0.0
  9
$EXTMIN
 10
-0.0256328098773793
 20
-0.0181260584133725
 30
-0.0015258207003583
  9
$EXTMAX
 10
797.6000995626677
 20
551.6452344880035
 30
0.0000000349246037
  9
$LIMMIN
 10
0.0
 20
0.0
  9
$LIMMAX
 10
840.0
 20
594.0
  9
$ORTHOMODE
 70
     0
  9
$REGENMODE
 70
     1
  9
$FILLMODE
 70
     1
  9
$QTEXTMODE
 70
     0
  9
$MIRRTEXT
 70
     1
  9
$DRAGMODE
 70
     2
  9
$LTSCALE
 40
2.0
  9
$OSMODE
 70
    37
  9
$ATTMODE
 70
     1
  9
$TEXTSIZE
 40
5.0
  9
$TRACEWID
 40
1.0
  9
$TEXTSTYLE
  7
STANDARD
  9
$CLAYER
  8
SUNPOU
  9
$CELTYPE
  6
BYLAYER
  9
$CECOLOR
 62
   256
  9
$CELTSCALE
 40
1.0
  9
$DELOBJ
 70
     1
  9
$DISPSILH
 70
     0
  9
$DIMSCALE
 40
1.0
  9
$DIMASZ
 40
7.0
  9
$DIMEXO
 40
6.0
  9
$DIMDLI
 40
14.0
  9
$DIMRND
 40
0.0
  9
$DIMDLE
 40
0.0
  9
$DIMEXE
 40
3.0
  9
$DIMTP
 40
0.0
  9
$DIMTM
 40
0.0
  9
$DIMTXT
 40
6.0
  9
$DIMCEN
 40
150.0
  9
$DIMTSZ
 40
0.0
  9
$DIMTOL
 70
     0
  9
$DIMLIM
 70
     0
  9
$DIMTIH
 70
     0
  9
$DIMTOH
 70
     0
  9
$DIMSE1
 70
     0
  9
$DIMSE2
 70
     0
  9
$DIMTAD
 70
     3
  9
$DIMZIN
 70
     0
  9
$DIMBLK
  1

  9
$DIMASO
 70
     1
  9
$DIMSHO
 70
     1
  9
$DIMPOST
  1

  9
$DIMAPOST
  1

  9
$DIMALT
 70
     0
  9
$DIMALTD
 70
     2
  9
$DIMALTF
 40
25.4
  9
$DIMLFAC
 40
1.0
  9
$DIMTOFL
 70
     1
  9
$DIMTVP
 40
0.0
  9
$DIMTIX
 70
     0
  9
$DIMSOXD
 70
     0
  9
$DIMSAH
 70
     1
  9
$DIMBLK1
  1
OPEN
  9
$DIMBLK2
  1
OPEN
  9
$DIMSTYLE
  2
STANDARD
  9
$DIMCLRD
 70
   256
  9
$DIMCLRE
 70
   256
  9
$DIMCLRT
 70
   256
  9
$DIMTFAC
 40
1.0
  9
$DIMGAP
 40
2.0
  9
$DIMJUST
 70
     0
  9
$DIMSD1
 70
     0
  9
$DIMSD2
 70
     0
  9
$DIMTOLJ
 70
     1
  9
$DIMTZIN
 70
     0
  9
$DIMALTZ
 70
     0
  9
$DIMALTTZ
 70
     0
  9
$DIMFIT
 70
     3
  9
$DIMUPT
 70
     0
  9
$DIMUNIT
 70
     2
  9
$DIMDEC
 70
     0
  9
$DIMTDEC
 70
     0
  9
$DIMALTU
 70
     2
  9
$DIMALTTD
 70
     2
  9
$DIMTXSTY
  7
STANDARD
  9
$DIMAUNIT
 70
     0
  9
$LUNITS
 70
     2
  9
$LUPREC
 70
     4
  9
$SKETCHINC
 40
1.0
  9
$FILLETRAD
 40
2.0
  9
$AUNITS
 70
     0
  9
$AUPREC
 70
     0
  9
$MENU
  1
.
  9
$ELEVATION
 40
0.0
  9
$PELEVATION
 40
0.0
  9
$THICKNESS
 40
0.0
  9
$LIMCHECK
 70
     0
  9
$BLIPMODE
 70
     0
  9
$CHAMFERA
 40
20.0
  9
$CHAMFERB
 40
20.0
  9
$CHAMFERC
 40
40.0
  9
$CHAMFERD
 40
0.0
  9
$SKPOLY
 70
     0
  9
$TDCREATE
 40
2450994.354346065
  9
$TDUPDATE
 40
2454515.371293518
  9
$TDINDWG
 40
0.1430139352
  9
$TDUSRTIMER
 40
0.1430139352
  9
$USRTIMER
 70
     1
  9
$ANGBASE
 50
0.0
  9
$ANGDIR
 70
     0
  9
$PDMODE
 70
     1
  9
$PDSIZE
 40
0.0
  9
$PLINEWID
 40
0.0
  9
$COORDS
 70
     2
  9
$SPLFRAME
 70
     0
  9
$SPLINETYPE
 70
     6
  9
$SPLINESEGS
 70
     8
  9
$ATTDIA
 70
     0
  9
$ATTREQ
 70
     1
  9
$HANDLING
 70
 10241
  9
$HANDSEED
  5
CC5
  9
$SURFTAB1
 70
     6
  9
$SURFTAB2
 70
     6
  9
$SURFTYPE
 70
     6
  9
$SURFU
 70
     6
  9
$SURFV
 70
     6
  9
$UCSNAME
  2

  9
$UCSORG
 10
0.0
 20
0.0
 30
0.0
  9
$UCSXDIR
 10
1.0
 20
0.0
 30
0.0
  9
$UCSYDIR
 10
0.0
 20
1.0
 30
0.0
  9
$PUCSNAME
  2

  9
$PUCSORG
 10
0.0
 20
0.0
 30
0.0
  9
$PUCSXDIR
 10
1.0
 20
0.0
 30
0.0
  9
$PUCSYDIR
 10
0.0
 20
1.0
 30
0.0
  9
$USERI1
 70
     0
  9
$USERI2
 70
     0
  9
$USERI3
 70
     0
  9
$USERI4
 70
     0
  9
$USERI5
 70
     0
  9
$USERR1
 40
0.0
  9
$USERR2
 40
0.0
  9
$USERR3
 40
0.0
  9
$USERR4
 40
0.0
  9
$USERR5
 40
0.0
  9
$WORLDVIEW
 70
     1
  9
$SHADEDGE
 70
     3
  9
$SHADEDIF
 70
    70
  9
$TILEMODE
 70
     1
  9
$MAXACTVP
 70
    16
  9
$PINSBASE
 10
0.0
 20
0.0
 30
0.0
  9
$PLIMCHECK
 70
     0
  9
$PEXTMIN
 10
0.0
 20
0.0
 30
0.0
  9
$PEXTMAX
 10
420.0
 20
297.0
 30
0.0
  9
$PLIMMIN
 10
0.0
 20
0.0
  9
$PLIMMAX
 10
420.0
 20
297.0
  9
$UNITMODE
 70
     0
  9
$VISRETAIN
 70
     0
  9
$PLINEGEN
 70
     0
  9
$PSLTSCALE
 70
     1
  9
$TREEDEPTH
 70
  3020
  9
$PICKSTYLE
 70
     1
  9
$CMLSTYLE
  2
STANDARD
  9
$CMLJUST
 70
     0
  9
$CMLSCALE
 40
1.0
  9
$PROXYGRAPHICS
 70
     1
  9
$MEASUREMENT
 70
     1
  0
ENDSEC
  0
SECTION
  2
CLASSES
  0
CLASS
  1
ACDBDICTIONARYWDFLT
  2
AcDbDictionaryWithDefault
  3
AutoCAD 2000
 90
        0
280
     0
281
     0
  0
CLASS
  1
ACDBPLACEHOLDER
  2
AcDbPlaceHolder
  3
AutoCAD 2000
 90
        0
280
     0
281
     0
  0
CLASS
  1
LAYOUT
  2
AcDbLayout
  3
AutoCAD 2000
 90
        0
280
     0
281
     0
  0
CLASS
  1
LONG_TRANSACTION
  2
AcDbLongTransaction
  3
AutoCAD 2000
 90
        0
280
     0
281
     0
  0
CLASS
  1
LWPOLYLINE
  2
AcDbPolyline
  3
AutoCAD 2000
 90
        0
280
     0
281
     1
  0
CLASS
  1
HATCH
  2
AcDbHatch
  3
AutoCAD 2000
 90
        0
280
     0
281
     1
  0
CLASS
  1
XRECORD
  2
AcDbXrecord
  3
AutoCAD 2000
 90
        0
280
     0
281
     0
  0
CLASS
  1
LONG_TRANSACTION
  2
AcDbLongTransaction
  3
AutoCAD 2000
 90
        0
280
     0
281
     0
  0
CLASS
  1
LWPOLYLINE
  2
AcDbPolyline
  3
AutoCAD 2000
 90
        0
280
     0
281
     1
  0
CLASS
  1
HATCH
  2
AcDbHatch
  3
AutoCAD 2000
 90
        0
280
     0
281
     1
  0
CLASS
  1
XRECORD
  2
AcDbXrecord
  3
AutoCAD 2000
 90
        0
280
     0
281
     0
  0
CLASS
  1
LONG_TRANSACTION
  2
AcDbLongTransaction
  3
AutoCAD 2000
 90
        0
280
     0
281
     0
  0
CLASS
  1
LWPOLYLINE
  2
AcDbPolyline
  3
AutoCAD 2000
 90
        0
280
     0
281
     1
  0
CLASS
  1
HATCH
  2
AcDbHatch
  3
AutoCAD 2000
 90
        0
280
     0
281
     1
  0
CLASS
  1
XRECORD
  2
AcDbXrecord
  3
AutoCAD 2000
 90
        0
280
     0
281
     0
  0
ENDSEC
  0
SECTION
  2
TABLES
  0
TABLE
  2
VPORT
  5
8
330
0
100
AcDbSymbolTable
 70
     2
  0
VPORT
  5
CA1
330
8
100
AcDbSymbolTableRecord
100
AcDbViewportTableRecord
  2
*ACTIVE
 70
     0
 10
0.0
 20
0.0
 11
1.0
 21
1.0
 12
398.1344734634305
 22
289.2414457961439
 13
0.0
 23
0.0
 14
5.0
 24
5.0
 15
0.0
 25
0.0
 16
0.0
 26
0.0
 36
1.0
 17
0.0
 27
0.0
 37
0.0
 40
660.7963964773561
 41
1.570153061224489
 42
50.0
 43
0.0
 44
0.0
 50
0.0
 51
0.0
 71
     0
 72
   100
 73
     1
 74
     0
 75
     0
 76
     0
 77
     0
 78
     0
  0
ENDTAB
  0
TABLE
  2
LTYPE
  5
5
330
0
100
AcDbSymbolTable
 70
     3
  0
LTYPE
  5
14
330
5
100
AcDbSymbolTableRecord
100
AcDbLinetypeTableRecord
  2
BYBLOCK
 70
     0
  3

 72
    65
 73
     0
 40
0.0
  0
LTYPE
  5
15
330
5
100
AcDbSymbolTableRecord
100
AcDbLinetypeTableRecord
  2
BYLAYER
 70
     0
  3

 72
    65
 73
     0
 40
0.0
  0
LTYPE
  5
16
330
5
100
AcDbSymbolTableRecord
100
AcDbLinetypeTableRecord
  2
CONTINUOUS
 70
     0
  3
Solid line
 72
    65
 73
     0
 40
0.0
  0
LTYPE
  5
115
330
5
100
AcDbSymbolTableRecord
100
AcDbLinetypeTableRecord
  2
PHANTOM
 70
     0
  3
______  __  __  ______  __  __  ______  __  __ 
 72
    65
 73
     6
 40
2.5
 49
1.25
 74
     0
 49
-0.25
 74
     0
 49
0.25
 74
     0
 49
-0.25
 74
     0
 49
0.25
 74
     0
 49
-0.25
 74
     0
  0
LTYPE
  5
135
330
5
100
AcDbSymbolTableRecord
100
AcDbLinetypeTableRecord
  2
CENTER
 70
     0
  3
____ _ ____ _ ____ _ ____ _ ____ _ ____ _ ____ 
 72
    65
 73
     4
 40
2.0
 49
1.25
 74
     0
 49
-0.25
 74
     0
 49
0.25
 74
     0
 49
-0.25
 74
     0
  0
ENDTAB
  0
TABLE
  2
LAYER
  5
2
330
0
100
AcDbSymbolTable
 70
     9
  0
LAYER
  5
F
330
2
100
AcDbSymbolTableRecord
100
AcDbLayerTableRecord
  2
0
 70
     0
 62
     7
  6
CONTINUOUS
  0
LAYER
  5
62
330
2
100
AcDbSymbolTableRecord
100
AcDbLayerTableRecord
  2
VIEWPORT
 70
     0
 62
     7
  6
CONTINUOUS
  0
LAYER
  5
65
330
2
100
AcDbSymbolTableRecord
100
AcDbLayerTableRecord
  2
ZUWAKU
 70
     0
 62
     7
  6
CONTINUOUS
  0
LAYER
  5
154
330
2
100
AcDbSymbolTableRecord
100
AcDbLayerTableRecord
  2
NOKITOI
 70
     0
 62
     8
  6
PHANTOM
  0
LAYER
  5
155
330
2
100
AcDbSymbolTableRecord
100
AcDbLayerTableRecord
  2
SUNPOU
 70
     0
 62
     4
  6
CONTINUOUS
  0
LAYER
  5
156
330
2
100
AcDbSymbolTableRecord
100
AcDbLayerTableRecord
  2
SEIHIN
 70
     0
 62
     3
  6
CONTINUOUS
  0
LAYER
  5
157
330
2
100
AcDbSymbolTableRecord
100
AcDbLayerTableRecord
  2
CENTER_L
 70
     0
 62
     1
  6
CENTER
  0
LAYER
  5
4B5
330
2
100
AcDbSymbolTableRecord
100
AcDbLayerTableRecord
  2
DEFPOINTS
 70
     0
 62
     7
  6
CONTINUOUS
  0
LAYER
  5
903
330
2
100
AcDbSymbolTableRecord
100
AcDbLayerTableRecord
  2
MOJI
 70
     0
 62
     2
  6
CONTINUOUS
  0
ENDTAB
  0
TABLE
  2
STYLE
  5
3
330
0
100
AcDbSymbolTable
 70
     2
  0
STYLE
  5
10
330
3
100
AcDbSymbolTableRecord
100
AcDbTextStyleTableRecord
  2
STANDARD
 70
     0
 40
0.0
 41
1.0
 50
0.0
 71
     0
 42
5.0
  3
TXT
  4
bigfont.shx
  0
STYLE
  5
904
330
3
100
AcDbSymbolTableRecord
100
AcDbTextStyleTableRecord
  2
ｽﾀｲﾙ1
 70
     0
 40
0.0
 41
1.0
 50
0.0
 71
     0
 42
2.5
  3
MS PGothic.ttf
  4

1001
ACAD
1000
MS PGothic
1071
    32818
  0
ENDTAB
  0
TABLE
  2
VIEW
  5
6
330
0
100
AcDbSymbolTable
 70
     0
  0
ENDTAB
  0
TABLE
  2
UCS
  5
7
330
0
100
AcDbSymbolTable
 70
     0
  0
ENDTAB
  0
TABLE
  2
APPID
  5
9
330
0
100
AcDbSymbolTable
 70
     1
  0
APPID
  5
11
330
9
100
AcDbSymbolTableRecord
100
AcDbRegAppTableRecord
  2
ACAD
 70
     0
  0
ENDTAB
  0
TABLE
  2
DIMSTYLE
  5
A
330
0
100
AcDbSymbolTable
 70
     1
  0
DIMSTYLE
105
1D
102
{ACAD_REACTORS
330
61C
330
62B
330
649
330
656
330
663
330
6FB
330
715
330
737
330
744
330
791
330
807
330
817
330
85C
102
}
330
A
100
AcDbSymbolTableRecord
100
AcDbDimStyleTableRecord
  2
STANDARD
 70
     0
  3

  4

  5

  6

  7

 40
1.0
 41
0.18
 42
0.0625
 43
0.38
 44
0.18
 45
0.0
 46
0.0
 47
0.0
 48
0.0
140
0.18
141
0.09
142
0.0
143
25.4
144
1.0
145
0.0
146
1.0
147
0.09
 71
     0
 72
     0
 73
     1
 74
     1
 75
     0
 76
     0
 77
     0
 78
     0
170
     0
171
     2
172
     0
173
     0
174
     0
175
     0
176
     0
177
     0
178
     0
270
     2
271
     4
272
     4
273
     2
274
     2
340
10
275
     0
280
     0
281
     0
282
     0
283
     1
284
     0
285
     0
286
     0
287
     3
288
     0
  0
ENDTAB
  0
TABLE
  2
BLOCK_RECORD
  5
1
330
0
100
AcDbSymbolTable
 70
    15
  0
BLOCK_RECORD
  5
1A
102
{ACAD_XDICTIONARY
360
8C1
102
}
330
1
100
AcDbSymbolTableRecord
100
AcDbBlockTableRecord
  2
*MODEL_SPACE
  0
BLOCK_RECORD
  5
17
102
{ACAD_XDICTIONARY
360
8BF
102
}
330
1
100
AcDbSymbolTableRecord
100
AcDbBlockTableRecord
  2
*PAPER_SPACE
  0
BLOCK_RECORD
  5
6D
330
1
100
AcDbSymbolTableRecord
100
AcDbBlockTableRecord
  2
_OPEN
  0
BLOCK_RECORD
  5
163
330
1
100
AcDbSymbolTableRecord
100
AcDbBlockTableRecord
  2
A$C1305
  0
BLOCK_RECORD
  5
610
330
1
100
AcDbSymbolTableRecord
100
AcDbBlockTableRecord
  2
*D2
  0
BLOCK_RECORD
  5
61D
330
1
100
AcDbSymbolTableRecord
100
AcDbBlockTableRecord
  2
*D3
  0
BLOCK_RECORD
  5
63B
330
1
100
AcDbSymbolTableRecord
100
AcDbBlockTableRecord
  2
*D4
  0
BLOCK_RECORD
  5
64A
330
1
100
AcDbSymbolTableRecord
100
AcDbBlockTableRecord
  2
*D5
  0
BLOCK_RECORD
  5
657
330
1
100
AcDbSymbolTableRecord
100
AcDbBlockTableRecord
  2
*D6
  0
BLOCK_RECORD
  5
6EF
330
1
100
AcDbSymbolTableRecord
100
AcDbBlockTableRecord
  2
*D7
  0
BLOCK_RECORD
  5
709
330
1
100
AcDbSymbolTableRecord
100
AcDbBlockTableRecord
  2
*D8
  0
BLOCK_RECORD
  5
729
330
1
100
AcDbSymbolTableRecord
100
AcDbBlockTableRecord
  2
*D9
  0
BLOCK_RECORD
  5
738
330
1
100
AcDbSymbolTableRecord
100
AcDbBlockTableRecord
  2
*D10
  0
BLOCK_RECORD
  5
785
330
1
100
AcDbSymbolTableRecord
100
AcDbBlockTableRecord
  2
*D11
  0
BLOCK_RECORD
  5
7FB
330
1
100
AcDbSymbolTableRecord
100
AcDbBlockTableRecord
  2
*D12
  0
BLOCK_RECORD
  5
809
330
1
100
AcDbSymbolTableRecord
100
AcDbBlockTableRecord
  2
*D13
  0
BLOCK_RECORD
  5
850
330
1
100
AcDbSymbolTableRecord
100
AcDbBlockTableRecord
  2
*D14
  0
ENDTAB
  0
ENDSEC
  0
SECTION
  2
BLOCKS
  0
BLOCK
  5
1B
330
1A
100
AcDbEntity
  8
0
100
AcDbBlockBegin
  2
*MODEL_SPACE
 70
     0
 10
0.0
 20
0.0
 30
0.0
  3
*MODEL_SPACE
  1

  0
ENDBLK
  5
1C
330
1A
100
AcDbEntity
  8
0
100
AcDbBlockEnd
  0
BLOCK
  5
18
330
17
100
AcDbEntity
 67
     1
  8
0
100
AcDbBlockBegin
  2
*PAPER_SPACE
 70
     0
 10
0.0
 20
0.0
 30
0.0
  3
*PAPER_SPACE
  1

  0
ENDBLK
  5
19
330
17
100
AcDbEntity
 67
     1
  8
0
100
AcDbBlockEnd
  0
BLOCK
  5
6E
330
6D
100
AcDbEntity
  8
0
100
AcDbBlockBegin
  2
_OPEN
 70
     0
 10
0.0
 20
0.0
 30
0.0
  3
_OPEN
  1

  0
LINE
  5
6F
330
6D
100
AcDbEntity
  8
0
  6
BYBLOCK
 62
     0
100
AcDbLine
 10
-1.0
 20
0.1666666666666666
 30
0.0
 11
0.0
 21
0.0
 31
0.0
  0
LINE
  5
70
330
6D
100
AcDbEntity
  8
0
  6
BYBLOCK
 62
     0
100
AcDbLine
 10
0.0
 20
0.0
 30
0.0
 11
-1.0
 21
-0.1666666666666666
 31
0.0
  0
LINE
  5
71
330
6D
100
AcDbEntity
  8
0
  6
BYBLOCK
 62
     0
100
AcDbLine
 10
0.0
 20
0.0
 30
0.0
 11
-1.0
 21
0.0
 31
0.0
  0
ENDBLK
  5
72
330
6D
100
AcDbEntity
  8
0
100
AcDbBlockEnd
  0
BLOCK
  5
1AB
330
163
100
AcDbEntity
  8
0
100
AcDbBlockBegin
  2
A$C1305
 70
     0
 10
0.0
 20
0.0
 30
0.0
  3
A$C1305
  1

  0
LINE
  5
164
330
163
100
AcDbEntity
  8
NOKITOI
  6
PHANTOM
 62
     8
 48
5.0
100
AcDbLine
 10
29.18435908443393
 20
10.10187063730222
 30
0.0
 11
19.27365908443391
 21
10.10187063730222
 31
0.0
  0
LINE
  5
165
330
163
100
AcDbEntity
  8
NOKITOI
  6
PHANTOM
 62
     8
 48
5.0
100
AcDbLine
 10
90.2981590844339
 20
0.1120706373022813
 30
0.0
 11
24.06755908443392
 21
0.1121706373021425
 31
0.0
  0
LINE
  5
166
330
163
100
AcDbEntity
  8
NOKITOI
  6
PHANTOM
 62
     8
 48
5.0
100
AcDbLine
 10
24.06755908443392
 20
0.1121706373021425
 30
0.0
 11
90.2981590844339
 21
0.1120706373022813
 31
0.0
  0
LINE
  5
167
330
163
100
AcDbEntity
  8
NOKITOI
  6
PHANTOM
 62
     8
 48
5.0
100
AcDbLine
 10
13.05735908443387
 20
12.22087063730214
 30
0.0
 11
7.218759084433713
 21
39.95217063730228
 31
0.0
  0
LINE
  5
168
330
163
100
AcDbEntity
  8
NOKITOI
  6
PHANTOM
 62
     8
 48
5.0
100
AcDbLine
 10
14.16595908443378
 20
13.23377063730208
 30
0.0
 11
8.234959084433853
 21
41.4036706373023
 31
0.0
  0
ARC
  5
169
330
163
100
AcDbEntity
  8
NOKITOI
  6
PHANTOM
 62
     8
 48
5.0
100
AcDbCircle
 10
15.13957896620524
 20
13.43874830022218
 30
0.0
 40
0.995060928010462
100
AcDbArc
 50
191.8877567214145
 51
251.4524867922934
  0
ARC
  5
16A
330
163
100
AcDbEntity
  8
NOKITOI
  6
PHANTOM
 62
     8
 48
5.0
100
AcDbCircle
 10
10.29733292322475
 20
-0.9941694721817384
 30
0.0
 40
14.22848866365036
100
AcDbArc
 50
51.52529185494254
 51
71.45345265407107
  0
ARC
  5
16B
330
163
100
AcDbEntity
  8
NOKITOI
  6
PHANTOM
 62
     8
 48
5.0
100
AcDbCircle
 10
10.29726615422066
 20
-0.9941373355915743
 30
0.0
 40
12.93471022655885
100
AcDbArc
 50
8.676219579622015
 51
74.45245455808978
  0
ARC
  5
16C
330
163
100
AcDbEntity
  8
NOKITOI
  6
PHANTOM
 62
     8
 48
5.0
100
AcDbCircle
 10
24.06756669845151
 20
1.107164097058216
 30
0.0
 40
0.9949934597852239
100
AcDbArc
 50
188.67611256506
 51
269.9995615538235
  0
ARC
  5
16D
330
163
100
AcDbEntity
  8
NOKITOI
  6
PHANTOM
 62
     8
 48
5.0
100
AcDbCircle
 10
19.27366239679292
 20
10.30086948151677
 30
0.0
 40
0.1989988442421132
100
AcDbArc
 50
231.5280949042412
 51
269.9990463050557
  0
ARC
  5
16E
330
163
100
AcDbEntity
  8
NOKITOI
  6
PHANTOM
 62
     8
 48
5.0
100
AcDbCircle
 10
14.03099910882133
 20
12.42582797307631
 30
0.0
 40
0.9949785960395137
100
AcDbArc
 50
191.8875585738773
 51
254.4495841050105
  0
LINE
  5
16F
330
163
100
AcDbEntity
  8
NOKITOI
  6
PHANTOM
 62
     8
 48
5.0
100
AcDbLine
 10
27.88425908443378
 20
1.91217063730221
 30
0.0
 11
27.88425908443378
 21
8.439470637302292
 31
0.0
  0
LINE
  5
170
330
163
100
AcDbEntity
  8
NOKITOI
  6
PHANTOM
 62
     8
 48
5.0
100
AcDbLine
 10
28.37925908443378
 20
9.296770637302074
 30
0.0
 11
27.88425908443378
 21
8.439470637302292
 31
0.0
  0
LINE
  5
171
330
163
100
AcDbEntity
  8
NOKITOI
  6
PHANTOM
 62
     8
 48
5.0
100
AcDbLine
 10
28.37925908443378
 20
9.296770637302074
 30
0.0
 11
27.52195908443377
 21
8.801870637302272
 31
0.0
  0
ARC
  5
172
330
163
100
AcDbEntity
  8
NOKITOI
  6
PHANTOM
 62
     8
 48
5.0
100
AcDbCircle
 10
21.30106274373702
 20
8.501878629181817
 30
0.0
 40
0.2999920081427447
100
AcDbArc
 50
90.00069889403098
 51
220.79672841758
  0
ARC
  5
173
330
163
100
AcDbEntity
  8
NOKITOI
  6
PHANTOM
 62
     8
 48
5.0
100
AcDbCircle
 10
10.29726428144715
 20
-0.9941399784659097
 30
0.0
 40
14.23472333170272
100
AcDbArc
 50
11.37541821407357
 51
40.79334907830751
  0
LINE
  5
174
330
163
100
AcDbEntity
  8
NOKITOI
  6
PHANTOM
 62
     8
 48
5.0
100
AcDbLine
 10
27.52195908443377
 20
8.801870637302272
 30
0.0
 11
21.30105908443386
 21
8.801870637302272
 31
0.0
  0
LINE
  5
175
330
163
100
AcDbEntity
  8
NOKITOI
  6
PHANTOM
 62
     8
 48
5.0
100
AcDbLine
 10
24.74245908443378
 20
1.412170637302097
 30
0.0
 11
27.38425908443378
 21
1.412170637302097
 31
0.0
  0
ARC
  5
176
330
163
100
AcDbEntity
  8
NOKITOI
  6
PHANTOM
 62
     8
 48
5.0
100
AcDbCircle
 10
24.74253604330567
 20
1.912189501590432
 30
0.0
 40
0.5000188648192144
100
AcDbArc
 50
191.3867288554411
 51
270.0026402191985
  0
ARC
  5
177
330
163
100
AcDbEntity
  8
NOKITOI
  6
PHANTOM
 62
     8
 48
5.0
100
AcDbCircle
 10
27.38425908443366
 20
1.91217063730221
 30
0.0
 40
0.5000000000000569
100
AcDbArc
 50
270.0000000000065
 51
0.0000000000065138
  0
LINE
  5
178
330
163
100
AcDbEntity
  8
NOKITOI
  6
PHANTOM
 62
     8
 48
5.0
100
AcDbLine
 10
0.1808590844339051
 20
41.10517063730208
 30
0.0
 11
0.1808590844339051
 21
49.11467063730208
 31
0.0
  0
ARC
  5
179
330
163
100
AcDbEntity
  8
NOKITOI
  6
PHANTOM
 62
     8
 48
5.0
100
AcDbCircle
 10
3.6160590844338
 20
47.32377063730223
 30
0.0
 40
1.492399999999918
100
AcDbArc
 50
0.0000000000021823
 51
90.00000000000218
  0
ARC
  5
17A
330
163
100
AcDbEntity
  8
NOKITOI
  6
PHANTOM
 62
     8
 48
5.0
100
AcDbCircle
 10
2.966809084433748
 20
47.32372063730212
 30
0.0
 40
1.49245000083754
100
AcDbArc
 50
89.99808047909008
 51
179.99808047909
  0
LINE
  5
17B
330
163
100
AcDbEntity
  8
NOKITOI
  6
PHANTOM
 62
     8
 48
5.0
100
AcDbLine
 10
6.401959084433769
 20
49.11467063730208
 30
0.0
 11
6.401959084433769
 21
44.90987063730222
 31
0.0
  0
LINE
  5
17C
330
163
100
AcDbEntity
  8
NOKITOI
  6
PHANTOM
 62
     8
 48
5.0
100
AcDbLine
 10
3.464359084433908
 20
41.4036706373023
 30
0.0
 11
8.234959084433853
 21
41.4036706373023
 31
0.0
  0
LINE
  5
17D
330
163
100
AcDbEntity
  8
NOKITOI
  6
PHANTOM
 62
     8
 48
5.0
100
AcDbLine
 10
7.024059084433929
 20
40.11017063730207
 30
0.0
 11
1.175859084433909
 21
40.11017063730207
 31
0.0
  0
ARC
  5
17E
330
163
100
AcDbEntity
  8
NOKITOI
  6
PHANTOM
 62
     8
 48
5.0
100
AcDbCircle
 10
3.464309084433807
 20
43.39362063730232
 30
0.0
 40
1.989950000628206
100
AcDbArc
 50
180.0014396286234
 51
270.0014396286234
  0
LINE
  5
17F
330
163
100
AcDbEntity
  8
NOKITOI
  6
PHANTOM
 62
     8
 48
5.0
100
AcDbLine
 10
1.474359084433785
 20
47.32377063730223
 30
0.0
 11
1.474359084433785
 21
43.39357063730221
 31
0.0
  0
ARC
  5
180
330
163
100
AcDbEntity
  8
NOKITOI
  6
PHANTOM
 62
     8
 48
5.0
100
AcDbCircle
 10
1.175859084433909
 20
41.10517063730208
 30
0.0
 40
0.9950000000000045
100
AcDbArc
 50
180.0
 51
270.0
  0
LINE
  5
181
330
163
100
AcDbEntity
  8
NOKITOI
  6
PHANTOM
 62
     8
 48
5.0
100
AcDbLine
 10
5.108559084433863
 20
44.90987063730222
 30
0.0
 11
5.108559084433863
 21
47.32377063730223
 31
0.0
  0
LINE
  5
182
330
163
100
AcDbEntity
  8
NOKITOI
  6
PHANTOM
 62
     8
 48
5.0
100
AcDbLine
 10
6.401959084433769
 20
44.90987063730222
 30
0.0
 11
5.108559084433863
 21
44.90987063730222
 31
0.0
  0
ARC
  5
183
330
163
100
AcDbEntity
  8
NOKITOI
  6
PHANTOM
 62
     8
 48
5.0
100
AcDbCircle
 10
7.024040641819624
 20
39.91118560073897
 30
0.0
 40
0.1989850374177657
100
AcDbArc
 50
11.88631382809314
 51
89.99468963106556
  0
LINE
  5
184
330
163
100
AcDbEntity
  8
NOKITOI
  6
PHANTOM
 62
     8
 48
5.0
100
AcDbLine
 10
1.175859084433909
 20
50.1096706373022
 30
0.0
 11
5.407059084433853
 21
50.1096706373022
 31
0.0
  0
ARC
  5
185
330
163
100
AcDbEntity
  8
NOKITOI
  6
PHANTOM
 62
     8
 48
5.0
100
AcDbCircle
 10
1.175859084433909
 20
49.1146706373022
 30
0.0
 40
0.9950000000000613
100
AcDbArc
 50
90.00000000000328
 51
180.0000000000032
  0
LINE
  5
186
330
163
100
AcDbEntity
  8
NOKITOI
  6
PHANTOM
 62
     8
 48
5.0
100
AcDbLine
 10
3.6160590844338
 20
48.81617063730209
 30
0.0
 11
2.966859084433849
 21
48.81617063730209
 31
0.0
  0
ARC
  5
187
330
163
100
AcDbEntity
  8
NOKITOI
  6
PHANTOM
 62
     8
 48
5.0
100
AcDbCircle
 10
5.407009084433752
 20
49.11472063730224
 30
0.0
 40
0.9949500012563332
100
AcDbArc
 50
359.9971206704048
 51
89.99712067040489
  0
LINE
  5
188
330
163
100
AcDbEntity
  8
NOKITOI
  6
PHANTOM
 62
     8
 48
5.0
100
AcDbLine
 10
85.18155908443374
 20
10.10157063730207
 30
0.0
 11
95.16205908443373
 21
10.10147063730221
 31
0.0
  0
ARC
  5
189
330
163
100
AcDbEntity
  8
NOKITOI
  6
PHANTOM
 62
     8
 48
5.0
100
AcDbCircle
 10
104.068453551022
 20
-0.9942356029631582
 30
0.0
 40
12.93461262833301
100
AcDbArc
 50
105.5476727870198
 51
171.3237222126366
  0
ARC
  5
18A
330
163
100
AcDbEntity
  8
NOKITOI
  6
PHANTOM
 62
     8
 48
5.0
100
AcDbCircle
 10
104.0683479281129
 20
-0.994141944171929
 30
0.0
 40
12.93449408578155
100
AcDbArc
 50
105.5473332353544
 51
171.3240617643019
  0
LINE
  5
18B
330
163
100
AcDbEntity
  8
NOKITOI
  6
PHANTOM
 62
     8
 48
5.0
100
AcDbLine
 10
29.38325908443392
 20
1.405570637302162
 30
0.0
 11
84.98245908443392
 21
1.405470637302073
 31
0.0
  0
ARC
  5
18C
330
163
100
AcDbEntity
  8
NOKITOI
  6
PHANTOM
 62
     8
 48
5.0
100
AcDbCircle
 10
29.38325908443392
 20
1.604570637302231
 30
0.0
 40
0.1990000000000691
100
AcDbArc
 50
179.9999999999836
 51
269.9999999999836
  0
LINE
  5
18D
330
163
100
AcDbEntity
  8
NOKITOI
  6
PHANTOM
 62
     8
 48
5.0
100
AcDbLine
 10
29.18425908443385
 20
1.604570637302231
 30
0.0
 11
29.18435908443393
 21
10.10187063730222
 31
0.0
  0
LINE
  5
18E
330
163
100
AcDbEntity
  8
NOKITOI
  6
PHANTOM
 62
     8
 48
5.0
100
AcDbLine
 10
80.98245908443391
 20
1.405470637302073
 30
0.0
 11
66.22805908443377
 21
1.405470637302073
 31
0.0
  0
ARC
  5
18F
330
163
100
AcDbEntity
  8
NOKITOI
  6
PHANTOM
 62
     8
 48
5.0
100
AcDbCircle
 10
90.2982090125298
 20
1.107113524900853
 30
0.0
 40
0.9950428888512103
100
AcDbArc
 50
269.9971250795227
 51
351.3214426795068
  0
LINE
  5
190
330
163
100
AcDbEntity
  8
NOKITOI
  6
PHANTOM
 62
     8
 48
5.0
100
AcDbLine
 10
85.98655908443367
 20
9.296470637302149
 30
0.0
 11
86.4815590844339
 21
8.43917063730214
 31
0.0
  0
LINE
  5
191
330
163
100
AcDbEntity
  8
NOKITOI
  6
PHANTOM
 62
     8
 48
5.0
100
AcDbLine
 10
85.98655908443367
 20
9.296470637302149
 30
0.0
 11
86.84385908443392
 21
8.801470637302145
 31
0.0
  0
ARC
  5
192
330
163
100
AcDbEntity
  8
NOKITOI
  6
PHANTOM
 62
     8
 48
5.0
100
AcDbCircle
 10
84.98240908443381
 20
1.604520637302186
 30
0.0
 40
0.1990500062799141
100
AcDbArc
 50
270.0143923080611
 51
0.014392308061115
  0
LINE
  5
193
330
163
100
AcDbEntity
  8
NOKITOI
  6
PHANTOM
 62
     8
 48
5.0
100
AcDbLine
 10
85.18145908443386
 20
1.604570637302231
 30
0.0
 11
85.18155908443374
 21
10.10157063730207
 31
0.0
  0
LINE
  5
194
330
163
100
AcDbEntity
  8
NOKITOI
  6
PHANTOM
 62
     8
 48
5.0
100
AcDbLine
 10
86.4815590844339
 20
8.43917063730214
 30
0.0
 11
86.4815590844339
 21
1.912070637302122
 31
0.0
  0
ARC
  5
195
330
163
100
AcDbEntity
  8
NOKITOI
  6
PHANTOM
 62
     8
 48
5.0
100
AcDbCircle
 10
104.0684175391246
 20
-0.9943142272541081
 30
0.0
 40
14.23462403148678
100
AcDbArc
 50
139.2075062369005
 51
168.6237859483839
  0
LINE
  5
196
330
163
100
AcDbEntity
  8
NOKITOI
  6
PHANTOM
 62
     8
 48
5.0
100
AcDbLine
 10
93.06445908443368
 20
8.801470637302145
 30
0.0
 11
86.84385908443392
 21
8.801470637302145
 31
0.0
  0
ARC
  5
197
330
163
100
AcDbEntity
  8
NOKITOI
  6
PHANTOM
 62
     8
 48
5.0
100
AcDbCircle
 10
93.06447276228515
 20
8.501440773608294
 30
0.0
 40
0.3000298640056128
100
AcDbArc
 50
319.2190584222776
 51
90.00261201719956
  0
LINE
  5
198
330
163
100
AcDbEntity
  8
NOKITOI
  6
PHANTOM
 62
     8
 48
5.0
100
AcDbLine
 10
89.62325908443393
 20
1.412070637302235
 30
0.0
 11
86.98155908443391
 21
1.412070637302235
 31
0.0
  0
ARC
  5
199
330
163
100
AcDbEntity
  8
NOKITOI
  6
PHANTOM
 62
     8
 48
5.0
100
AcDbCircle
 10
86.9815590844338
 20
1.912070637302235
 30
0.0
 40
0.4999999999999432
100
AcDbArc
 50
180.0000000000065
 51
270.0000000000065
  0
ARC
  5
19A
330
163
100
AcDbEntity
  8
NOKITOI
  6
PHANTOM
 62
     8
 48
5.0
100
AcDbCircle
 10
89.62328212556213
 20
1.912089501590457
 30
0.0
 40
0.5000188648190603
100
AcDbArc
 50
269.9973597808039
 51
348.6132711445602
  0
LINE
  5
19B
330
163
100
AcDbEntity
  8
NOKITOI
  6
PHANTOM
 62
     8
 48
5.0
100
AcDbLine
 10
100.1997590844339
 20
13.23317063730223
 30
0.0
 11
105.6547590844337
 21
39.14207063730214
 31
0.0
  0
LINE
  5
19C
330
163
100
AcDbEntity
  8
NOKITOI
  6
PHANTOM
 62
     8
 48
5.0
100
AcDbLine
 10
101.3084590844339
 20
12.22067063730207
 30
0.0
 11
107.1471590844337
 21
39.95207063730208
 31
0.0
  0
ARC
  5
19D
330
163
100
AcDbEntity
  8
NOKITOI
  6
PHANTOM
 62
     8
 48
5.0
100
AcDbCircle
 10
99.22620265398496
 20
13.43821958907108
 30
0.0
 40
0.9950135261271753
100
AcDbArc
 50
288.5445751594487
 51
348.1074736523478
  0
ARC
  5
19E
330
163
100
AcDbEntity
  8
NOKITOI
  6
PHANTOM
 62
     8
 48
5.0
100
AcDbCircle
 10
104.0684735879824
 20
-0.9942214385093848
 30
0.0
 40
14.22809199964113
100
AcDbArc
 50
108.5474584936555
 51
128.7537062451648
  0
ARC
  5
19F
330
163
100
AcDbEntity
  8
NOKITOI
  6
PHANTOM
 62
     8
 48
5.0
100
AcDbCircle
 10
100.334833421286
 20
12.42574988868966
 30
0.0
 40
0.9949690575286499
100
AcDbArc
 50
285.5437330810338
 51
348.1110361155302
  0
LINE
  5
1A0
330
163
100
AcDbEntity
  8
NOKITOI
  6
PHANTOM
 62
     8
 48
5.0
100
AcDbLine
 10
112.8850590844339
 20
41.40997063730208
 30
0.0
 11
107.4607590844339
 21
41.41007063730216
 31
0.0
  0
LINE
  5
1A1
330
163
100
AcDbEntity
  8
NOKITOI
  6
PHANTOM
 62
     8
 48
5.0
100
AcDbLine
 10
113.1900590844338
 20
50.10957063730223
 30
0.0
 11
107.9863590844338
 21
50.10947063730213
 31
0.0
  0
LINE
  5
1A2
330
163
100
AcDbEntity
  8
NOKITOI
  6
PHANTOM
 62
     8
 48
5.0
100
AcDbLine
 10
112.8850590844339
 20
48.80947063730229
 30
0.0
 11
109.0186590844336
 21
48.80947063730229
 31
0.0
  0
LINE
  5
1A3
330
163
100
AcDbEntity
  8
NOKITOI
  6
PHANTOM
 62
     8
 48
5.0
100
AcDbLine
 10
107.3418590844337
 20
40.10997063730224
 30
0.0
 11
113.1900590844338
 21
40.10997063730224
 31
0.0
  0
LINE
  5
1A4
330
163
100
AcDbEntity
  8
NOKITOI
  6
PHANTOM
 62
     8
 48
5.0
100
AcDbLine
 10
109.0186590844336
 20
48.80947063730229
 30
0.0
 11
107.4607590844339
 21
41.41007063730216
 31
0.0
  0
LINE
  5
1A5
330
163
100
AcDbEntity
  8
NOKITOI
  6
PHANTOM
 62
     8
 48
5.0
100
AcDbLine
 10
105.6547590844337
 20
39.14207063730214
 30
0.0
 11
107.9638590844336
 21
50.10947063730213
 31
0.0
  0
ARC
  5
1A6
330
163
100
AcDbEntity
  8
NOKITOI
  6
PHANTOM
 62
     8
 48
5.0
100
AcDbCircle
 10
107.341877527048
 20
39.91108560073894
 30
0.0
 40
0.1989850374179911
100
AcDbArc
 50
90.00531036897127
 51
168.1136861719432
  0
LINE
  5
1A7
330
163
100
AcDbEntity
  8
NOKITOI
  6
PHANTOM
 62
     8
 48
5.0
100
AcDbLine
 10
114.1850590844338
 20
41.10497063730213
 30
0.0
 11
114.1850590844338
 21
49.1145706373021
 31
0.0
  0
LINE
  5
1A8
330
163
100
AcDbEntity
  8
NOKITOI
  6
PHANTOM
 62
     8
 48
5.0
100
AcDbLine
 10
112.8850590844339
 20
41.40997063730208
 30
0.0
 11
112.8850590844339
 21
48.80947063730229
 31
0.0
  0
ARC
  5
1A9
330
163
100
AcDbEntity
  8
NOKITOI
  6
PHANTOM
 62
     8
 48
5.0
100
AcDbCircle
 10
113.1900590844339
 20
41.10497063730218
 30
0.0
 40
0.9949999999999192
100
AcDbArc
 50
269.9999999999951
 51
359.9999999999951
  0
ARC
  5
1AA
330
163
100
AcDbEntity
  8
NOKITOI
  6
PHANTOM
 62
     8
 48
5.0
100
AcDbCircle
 10
113.1900590844338
 20
49.11457063730222
 30
0.0
 40
0.9950000000000613
100
AcDbArc
 50
359.9999999999967
 51
89.99999999999673
  0
ENDBLK
  5
1AC
330
163
100
AcDbEntity
  8
0
100
AcDbBlockEnd
  0
BLOCK
  5
87E
330
610
100
AcDbEntity
  8
0
100
AcDbBlockBegin
  2
*D2
 70
     1
 10
0.0
 20
0.0
 30
0.0
  3
*D2
  1

  0
LINE
  5
87F
330
610
100
AcDbEntity
  8
0
  6
BYBLOCK
 62
     4
100
AcDbLine
 10
448.5358781375144
 20
376.6666817745317
 30
0.0
 11
468.6610277201184
 21
376.6666817745317
 31
0.0
  0
LINE
  5
880
330
610
100
AcDbEntity
  8
0
  6
BYBLOCK
 62
     4
100
AcDbLine
 10
448.5358781375144
 20
319.1666817745317
 30
0.0
 11
468.6610277201184
 21
319.1666817745317
 31
0.0
  0
LINE
  5
881
330
610
100
AcDbEntity
  8
0
  6
BYBLOCK
 62
     4
100
AcDbLine
 10
465.6610277201184
 20
369.6666817745317
 30
0.0
 11
465.6610277201184
 21
326.1666817745317
 31
0.0
  0
INSERT
  5
882
330
610
100
AcDbEntity
  8
0
  6
BYBLOCK
 62
     4
100
AcDbBlockReference
  2
_OPEN
 10
465.6610277201184
 20
376.6666817745317
 30
0.0
 41
7.0
 42
7.0
 43
7.0
 50
90.0
  0
INSERT
  5
883
330
610
100
AcDbEntity
  8
0
  6
BYBLOCK
 62
     4
100
AcDbBlockReference
  2
_OPEN
 10
465.6610277201184
 20
319.1666817745317
 30
0.0
 41
7.0
 42
7.0
 43
7.0
 50
270.0
  0
MTEXT
  5
884
330
610
100
AcDbEntity
  8
0
  6
BYBLOCK
 62
     4
100
AcDbMText
 10
460.6610277201184
 20
347.9166817745317
 30
0.0
 40
6.0
 41
0.0
 71
     5
 72
     5
  1
\A1;58
 11
0.0
 21
1.0
 31
0.0
1001
ACAD
1000
MTEXTBEGIN
1070
    73
1070
     1
1070
    44
1040
1.0
1070
    74
1070
     0
1000
MTEXTEND
1000
MTEXTBEGIN
1070
    73
1070
     1
1070
    44
1040
1.0
1070
    74
1070
     0
1000
MTEXTEND
1000
MTEXTBEGIN
1070
    73
1070
     1
1070
    44
1040
1.0
1070
    74
1070
     0
1000
MTEXTEND
  0
POINT
  5
885
330
610
100
AcDbEntity
  8
DEFPOINTS
  6
BYBLOCK
 62
     0
100
AcDbPoint
 10
442.5358781375144
 20
376.6666817745317
 30
0.0
  0
POINT
  5
886
330
610
100
AcDbEntity
  8
DEFPOINTS
  6
BYBLOCK
 62
     0
100
AcDbPoint
 10
442.5358781375144
 20
319.1666817745317
 30
0.0
  0
POINT
  5
887
330
610
100
AcDbEntity
  8
DEFPOINTS
  6
BYBLOCK
 62
     0
100
AcDbPoint
 10
465.6610277201184
 20
319.1666817745317
 30
0.0
  0
ENDBLK
  5
888
330
610
100
AcDbEntity
  8
0
100
AcDbBlockEnd
  0
BLOCK
  5
762
330
61D
100
AcDbEntity
  8
0
100
AcDbBlockBegin
  2
*D3
 70
     1
 10
0.0
 20
0.0
 30
0.0
  3
*D3
  1

  0
LINE
  5
763
330
61D
100
AcDbEntity
  8
0
  6
BYBLOCK
 62
     4
100
AcDbLine
 10
337.8647569274472
 20
364.9640235492404
 30
0.0
 11
313.9113251918456
 21
364.9640235492404
 31
0.0
  0
LINE
  5
764
330
61D
100
AcDbEntity
  8
0
  6
BYBLOCK
 62
     4
100
AcDbLine
 10
337.8647569274472
 20
339.9640235492404
 30
0.0
 11
313.9113251918456
 21
339.9640235492404
 31
0.0
  0
LINE
  5
765
330
61D
100
AcDbEntity
  8
0
  6
BYBLOCK
 62
     4
100
AcDbLine
 10
316.9113251918456
 20
371.9640235492404
 30
0.0
 11
316.9113251918456
 21
378.9640235492404
 31
0.0
  0
LINE
  5
766
330
61D
100
AcDbEntity
  8
0
  6
BYBLOCK
 62
     4
100
AcDbLine
 10
316.9113251918456
 20
332.9640235492404
 30
0.0
 11
316.9113251918456
 21
325.9640235492404
 31
0.0
  0
LINE
  5
767
330
61D
100
AcDbEntity
  8
0
  6
BYBLOCK
 62
     4
100
AcDbLine
 10
316.9113251918456
 20
364.9640235492404
 30
0.0
 11
316.9113251918456
 21
339.9640235492404
 31
0.0
  0
INSERT
  5
768
330
61D
100
AcDbEntity
  8
0
  6
BYBLOCK
 62
     4
100
AcDbBlockReference
  2
_OPEN
 10
316.9113251918456
 20
364.9640235492404
 30
0.0
 41
7.0
 42
7.0
 43
7.0
 50
270.0
  0
INSERT
  5
769
330
61D
100
AcDbEntity
  8
0
  6
BYBLOCK
 62
     4
100
AcDbBlockReference
  2
_OPEN
 10
316.9113251918456
 20
339.9640235492404
 30
0.0
 41
7.0
 42
7.0
 43
7.0
 50
90.0
  0
MTEXT
  5
76A
330
61D
100
AcDbEntity
  8
0
  6
BYBLOCK
 62
     4
100
AcDbMText
 10
311.9113251918456
 20
352.4640235492404
 30
0.0
 40
6.0
 41
0.0
 71
     5
 72
     5
  1
\A1;25
 11
0.0
 21
1.0
 31
0.0
1001
ACAD
1000
MTEXTBEGIN
1070
    73
1070
     1
1070
    44
1040
1.0
1070
    74
1070
     0
1000
MTEXTEND
1000
MTEXTBEGIN
1070
    73
1070
     1
1070
    44
1040
1.0
1070
    74
1070
     0
1000
MTEXTEND
1000
MTEXTBEGIN
1070
    73
1070
     1
1070
    44
1040
1.0
1070
    74
1070
     0
1000
MTEXTEND
  0
POINT
  5
76B
330
61D
100
AcDbEntity
  8
DEFPOINTS
  6
BYBLOCK
 62
     0
100
AcDbPoint
 10
343.8647569274472
 20
364.9640235492404
 30
0.0
  0
POINT
  5
76C
330
61D
100
AcDbEntity
  8
DEFPOINTS
  6
BYBLOCK
 62
     0
100
AcDbPoint
 10
343.8647569274472
 20
339.9640235492404
 30
0.0
  0
POINT
  5
76D
330
61D
100
AcDbEntity
  8
DEFPOINTS
  6
BYBLOCK
 62
     0
100
AcDbPoint
 10
316.9113251918456
 20
339.9640235492404
 30
0.0
  0
ENDBLK
  5
76E
330
61D
100
AcDbEntity
  8
0
100
AcDbBlockEnd
  0
BLOCK
  5
792
330
63B
100
AcDbEntity
  8
0
100
AcDbBlockBegin
  2
*D4
 70
     1
 10
0.0
 20
0.0
 30
0.0
  3
*D4
  1

  0
LINE
  5
793
330
63B
100
AcDbEntity
  8
0
  6
BYBLOCK
 62
     4
100
AcDbLine
 10
468.464656927447
 20
230.6494235492403
 30
0.0
 11
468.464656927447
 21
267.9738267045117
 31
0.0
  0
LINE
  5
794
330
63B
100
AcDbEntity
  8
0
  6
BYBLOCK
 62
     4
100
AcDbLine
 10
458.6668569274472
 20
247.4665735492402
 30
0.0
 11
458.6668569274472
 21
267.9738267045117
 31
0.0
  0
LINE
  5
795
330
63B
100
AcDbEntity
  8
0
  6
BYBLOCK
 62
     4
100
AcDbLine
 10
475.4646569274471
 20
264.9738267045118
 30
0.0
 11
482.464656927447
 21
264.9738267045118
 31
0.0
  0
LINE
  5
796
330
63B
100
AcDbEntity
  8
0
  6
BYBLOCK
 62
     4
100
AcDbLine
 10
451.6668569274472
 20
264.9738267045118
 30
0.0
 11
433.6668569274472
 21
264.9738267045118
 31
0.0
  0
LINE
  5
797
330
63B
100
AcDbEntity
  8
0
  6
BYBLOCK
 62
     4
100
AcDbLine
 10
468.464656927447
 20
264.9738267045118
 30
0.0
 11
458.6668569274472
 21
264.9738267045118
 31
0.0
  0
INSERT
  5
798
330
63B
100
AcDbEntity
  8
0
  6
BYBLOCK
 62
     4
100
AcDbBlockReference
  2
_OPEN
 10
468.464656927447
 20
264.9738267045118
 30
0.0
 41
7.0
 42
7.0
 43
7.0
 50
180.0
  0
INSERT
  5
799
330
63B
100
AcDbEntity
  8
0
  6
BYBLOCK
 62
     4
100
AcDbBlockReference
  2
_OPEN
 10
458.6668569274472
 20
264.9738267045118
 30
0.0
 41
7.0
 42
7.0
 43
7.0
  0
MTEXT
  5
79A
330
63B
100
AcDbEntity
  8
0
  6
BYBLOCK
 62
     4
100
AcDbMText
 10
439.1668569274472
 20
269.9738267045117
 30
0.0
 40
6.0
 41
0.0
 71
     5
 72
     5
  1
\A1;10
1001
ACAD
1000
MTEXTBEGIN
1070
    73
1070
     1
1070
    44
1040
1.0
1070
    74
1070
     0
1000
MTEXTEND
1000
MTEXTBEGIN
1070
    73
1070
     1
1070
    44
1040
1.0
1070
    74
1070
     0
1000
MTEXTEND
1000
MTEXTBEGIN
1070
    73
1070
     1
1070
    44
1040
1.0
1070
    74
1070
     0
1000
MTEXTEND
  0
POINT
  5
79B
330
63B
100
AcDbEntity
  8
DEFPOINTS
  6
BYBLOCK
 62
     0
100
AcDbPoint
 10
468.464656927447
 20
224.6494235492403
 30
0.0
  0
POINT
  5
79C
330
63B
100
AcDbEntity
  8
DEFPOINTS
  6
BYBLOCK
 62
     0
100
AcDbPoint
 10
458.6668569274472
 20
241.4665735492402
 30
0.0
  0
POINT
  5
79D
330
63B
100
AcDbEntity
  8
DEFPOINTS
  6
BYBLOCK
 62
     0
100
AcDbPoint
 10
458.6668569274472
 20
264.9738267045118
 30
0.0
  0
ENDBLK
  5
79E
330
63B
100
AcDbEntity
  8
0
100
AcDbBlockEnd
  0
BLOCK
  5
694
330
64A
100
AcDbEntity
  8
0
100
AcDbBlockBegin
  2
*D5
 70
     1
 10
0.0
 20
0.0
 30
0.0
  3
*D5
  1

  0
LINE
  5
695
330
64A
100
AcDbEntity
  8
0
  6
BYBLOCK
 62
     4
100
AcDbLine
 10
605.6247367702767
 20
266.0516060372368
 30
0.0
 11
605.6247367702767
 21
295.8951546338685
 31
0.0
  0
LINE
  5
696
330
64A
100
AcDbEntity
  8
0
  6
BYBLOCK
 62
     4
100
AcDbLine
 10
558.114736770277
 20
266.0516060372368
 30
0.0
 11
558.114736770277
 21
295.8951546338685
 31
0.0
  0
LINE
  5
697
330
64A
100
AcDbEntity
  8
0
  6
BYBLOCK
 62
     4
100
AcDbLine
 10
598.6247367702767
 20
292.8951546338685
 30
0.0
 11
565.1147367702769
 21
292.8951546338685
 31
0.0
  0
INSERT
  5
698
330
64A
100
AcDbEntity
  8
0
  6
BYBLOCK
 62
     4
100
AcDbBlockReference
  2
_OPEN
 10
605.6247367702767
 20
292.8951546338685
 30
0.0
 41
7.0
 42
7.0
 43
7.0
  0
INSERT
  5
699
330
64A
100
AcDbEntity
  8
0
  6
BYBLOCK
 62
     4
100
AcDbBlockReference
  2
_OPEN
 10
558.114736770277
 20
292.8951546338685
 30
0.0
 41
7.0
 42
7.0
 43
7.0
 50
180.0
  0
MTEXT
  5
69A
330
64A
100
AcDbEntity
  8
0
  6
BYBLOCK
 62
     4
100
AcDbMText
 10
581.8697367702768
 20
297.8951546338685
 30
0.0
 40
6.0
 41
0.0
 71
     5
 72
     5
  1
\A1;48
1001
ACAD
1000
MTEXTBEGIN
1070
    73
1070
     1
1070
    44
1040
1.0
1070
    74
1070
     0
1000
MTEXTEND
1000
MTEXTBEGIN
1070
    73
1070
     1
1070
    44
1040
1.0
1070
    74
1070
     0
1000
MTEXTEND
1000
MTEXTBEGIN
1070
    73
1070
     1
1070
    44
1040
1.0
1070
    74
1070
     0
1000
MTEXTEND
  0
POINT
  5
69B
330
64A
100
AcDbEntity
  8
DEFPOINTS
  6
BYBLOCK
 62
     0
100
AcDbPoint
 10
605.6247367702767
 20
260.0516060372368
 30
0.0
  0
POINT
  5
69C
330
64A
100
AcDbEntity
  8
DEFPOINTS
  6
BYBLOCK
 62
     0
100
AcDbPoint
 10
558.114736770277
 20
260.0516060372368
 30
0.0
  0
POINT
  5
69D
330
64A
100
AcDbEntity
  8
DEFPOINTS
  6
BYBLOCK
 62
     0
100
AcDbPoint
 10
558.114736770277
 20
292.8951546338685
 30
0.0
  0
ENDBLK
  5
69E
330
64A
100
AcDbEntity
  8
0
100
AcDbBlockEnd
  0
BLOCK
  5
69F
330
657
100
AcDbEntity
  8
0
100
AcDbBlockBegin
  2
*D6
 70
     1
 10
0.0
 20
0.0
 30
0.0
  3
*D6
  1

  0
LINE
  5
6A0
330
657
100
AcDbEntity
  8
0
  6
BYBLOCK
 62
     4
100
AcDbLine
 10
610.6247367702767
 20
266.0516060372368
 30
0.0
 11
610.6247367702767
 21
311.265549389712
 31
0.0
  0
LINE
  5
6A1
330
657
100
AcDbEntity
  8
0
  6
BYBLOCK
 62
     4
100
AcDbLine
 10
553.114736770277
 20
266.0516060372368
 30
0.0
 11
553.114736770277
 21
311.265549389712
 31
0.0
  0
LINE
  5
6A2
330
657
100
AcDbEntity
  8
0
  6
BYBLOCK
 62
     4
100
AcDbLine
 10
603.6247367702767
 20
308.265549389712
 30
0.0
 11
560.1147367702769
 21
308.265549389712
 31
0.0
  0
INSERT
  5
6A3
330
657
100
AcDbEntity
  8
0
  6
BYBLOCK
 62
     4
100
AcDbBlockReference
  2
_OPEN
 10
610.6247367702767
 20
308.265549389712
 30
0.0
 41
7.0
 42
7.0
 43
7.0
  0
INSERT
  5
6A4
330
657
100
AcDbEntity
  8
0
  6
BYBLOCK
 62
     4
100
AcDbBlockReference
  2
_OPEN
 10
553.114736770277
 20
308.265549389712
 30
0.0
 41
7.0
 42
7.0
 43
7.0
 50
180.0
  0
MTEXT
  5
6A5
330
657
100
AcDbEntity
  8
0
  6
BYBLOCK
 62
     4
100
AcDbMText
 10
581.8697367702768
 20
313.265549389712
 30
0.0
 40
6.0
 41
0.0
 71
     5
 72
     5
  1
\A1;58
1001
ACAD
1000
MTEXTBEGIN
1070
    73
1070
     1
1070
    44
1040
1.0
1070
    74
1070
     0
1000
MTEXTEND
1000
MTEXTBEGIN
1070
    73
1070
     1
1070
    44
1040
1.0
1070
    74
1070
     0
1000
MTEXTEND
1000
MTEXTBEGIN
1070
    73
1070
     1
1070
    44
1040
1.0
1070
    74
1070
     0
1000
MTEXTEND
  0
POINT
  5
6A6
330
657
100
AcDbEntity
  8
DEFPOINTS
  6
BYBLOCK
 62
     0
100
AcDbPoint
 10
610.6247367702767
 20
260.0516060372368
 30
0.0
  0
POINT
  5
6A7
330
657
100
AcDbEntity
  8
DEFPOINTS
  6
BYBLOCK
 62
     0
100
AcDbPoint
 10
553.114736770277
 20
260.0516060372368
 30
0.0
  0
POINT
  5
6A8
330
657
100
AcDbEntity
  8
DEFPOINTS
  6
BYBLOCK
 62
     0
100
AcDbPoint
 10
553.114736770277
 20
308.265549389712
 30
0.0
  0
ENDBLK
  5
6A9
330
657
100
AcDbEntity
  8
0
100
AcDbBlockEnd
  0
BLOCK
  5
873
330
6EF
100
AcDbEntity
  8
0
100
AcDbBlockBegin
  2
*D7
 70
     1
 10
0.0
 20
0.0
 30
0.0
  3
*D7
  1

  0
LINE
  5
874
330
6EF
100
AcDbEntity
  8
0
  6
BYBLOCK
 62
     4
100
AcDbLine
 10
448.5357781375143
 20
225.1829544049537
 30
0.0
 11
483.569470798021
 21
225.1829544049537
 31
0.0
  0
LINE
  5
875
330
6EF
100
AcDbEntity
  8
0
  6
BYBLOCK
 62
     4
100
AcDbLine
 10
448.5357781375143
 20
189.2134817745317
 30
0.0
 11
483.569470798021
 21
189.2134817745317
 31
0.0
  0
LINE
  5
876
330
6EF
100
AcDbEntity
  8
0
  6
BYBLOCK
 62
     4
100
AcDbLine
 10
480.569470798021
 20
218.1829544049537
 30
0.0
 11
480.569470798021
 21
196.2134817745317
 31
0.0
  0
INSERT
  5
877
330
6EF
100
AcDbEntity
  8
0
  6
BYBLOCK
 62
     4
100
AcDbBlockReference
  2
_OPEN
 10
480.569470798021
 20
225.1829544049537
 30
0.0
 41
7.0
 42
7.0
 43
7.0
 50
90.0
  0
INSERT
  5
878
330
6EF
100
AcDbEntity
  8
0
  6
BYBLOCK
 62
     4
100
AcDbBlockReference
  2
_OPEN
 10
480.569470798021
 20
189.2134817745317
 30
0.0
 41
7.0
 42
7.0
 43
7.0
 50
270.0
  0
MTEXT
  5
879
330
6EF
100
AcDbEntity
  8
0
  6
BYBLOCK
 62
     4
100
AcDbMText
 10
475.569470798021
 20
207.1982180897427
 30
0.0
 40
6.0
 41
0.0
 71
     5
 72
     5
  1
\A1;36
 11
0.0
 21
1.0
 31
0.0
1001
ACAD
1000
MTEXTBEGIN
1070
    73
1070
     1
1070
    44
1040
1.0
1070
    74
1070
     0
1000
MTEXTEND
1000
MTEXTBEGIN
1070
    73
1070
     1
1070
    44
1040
1.0
1070
    74
1070
     0
1000
MTEXTEND
1000
MTEXTBEGIN
1070
    73
1070
     1
1070
    44
1040
1.0
1070
    74
1070
     0
1000
MTEXTEND
  0
POINT
  5
87A
330
6EF
100
AcDbEntity
  8
DEFPOINTS
  6
BYBLOCK
 62
     0
100
AcDbPoint
 10
442.5357781375144
 20
225.1829544049537
 30
0.0
  0
POINT
  5
87B
330
6EF
100
AcDbEntity
  8
DEFPOINTS
  6
BYBLOCK
 62
     0
100
AcDbPoint
 10
442.5357781375144
 20
189.2134817745317
 30
0.0
  0
POINT
  5
87C
330
6EF
100
AcDbEntity
  8
DEFPOINTS
  6
BYBLOCK
 62
     0
100
AcDbPoint
 10
480.569470798021
 20
189.2134817745317
 30
0.0
  0
ENDBLK
  5
87D
330
6EF
100
AcDbEntity
  8
0
100
AcDbBlockEnd
  0
BLOCK
  5
79F
330
709
100
AcDbEntity
  8
0
100
AcDbBlockBegin
  2
*D8
 70
     1
 10
0.0
 20
0.0
 30
0.0
  3
*D8
  1

  0
LINE
  5
7A0
330
709
100
AcDbEntity
  8
0
  6
BYBLOCK
 62
     4
100
AcDbLine
 10
468.464656927447
 20
230.6494235492403
 30
0.0
 11
468.464656927447
 21
293.3330979009438
 31
0.0
  0
LINE
  5
7A1
330
709
100
AcDbEntity
  8
0
  6
BYBLOCK
 62
     4
100
AcDbLine
 10
343.8646569274471
 20
271.4641235492403
 30
0.0
 11
343.8646569274471
 21
293.3330979009438
 31
0.0
  0
LINE
  5
7A2
330
709
100
AcDbEntity
  8
0
  6
BYBLOCK
 62
     4
100
AcDbLine
 10
461.464656927447
 20
290.3330979009438
 30
0.0
 11
350.8646569274471
 21
290.3330979009438
 31
0.0
  0
INSERT
  5
7A3
330
709
100
AcDbEntity
  8
0
  6
BYBLOCK
 62
     4
100
AcDbBlockReference
  2
_OPEN
 10
468.464656927447
 20
290.3330979009438
 30
0.0
 41
7.0
 42
7.0
 43
7.0
  0
INSERT
  5
7A4
330
709
100
AcDbEntity
  8
0
  6
BYBLOCK
 62
     4
100
AcDbBlockReference
  2
_OPEN
 10
343.8646569274471
 20
290.3330979009438
 30
0.0
 41
7.0
 42
7.0
 43
7.0
 50
180.0
  0
MTEXT
  5
7A5
330
709
100
AcDbEntity
  8
0
  6
BYBLOCK
 62
     4
100
AcDbMText
 10
406.1646569274471
 20
295.3330979009438
 30
0.0
 40
6.0
 41
0.0
 71
     5
 72
     5
  1
\A1;125
1001
ACAD
1000
MTEXTBEGIN
1070
    73
1070
     1
1070
    44
1040
1.0
1070
    74
1070
     0
1000
MTEXTEND
1000
MTEXTBEGIN
1070
    73
1070
     1
1070
    44
1040
1.0
1070
    74
1070
     0
1000
MTEXTEND
1000
MTEXTBEGIN
1070
    73
1070
     1
1070
    44
1040
1.0
1070
    74
1070
     0
1000
MTEXTEND
  0
POINT
  5
7A6
330
709
100
AcDbEntity
  8
DEFPOINTS
  6
BYBLOCK
 62
     0
100
AcDbPoint
 10
468.464656927447
 20
224.6494235492403
 30
0.0
  0
POINT
  5
7A7
330
709
100
AcDbEntity
  8
DEFPOINTS
  6
BYBLOCK
 62
     0
100
AcDbPoint
 10
343.8646569274471
 20
265.4641235492403
 30
0.0
  0
POINT
  5
7A8
330
709
100
AcDbEntity
  8
DEFPOINTS
  6
BYBLOCK
 62
     0
100
AcDbPoint
 10
343.8646569274471
 20
290.3330979009438
 30
0.0
  0
ENDBLK
  5
7A9
330
709
100
AcDbEntity
  8
0
100
AcDbBlockEnd
  0
BLOCK
  5
7C0
330
729
100
AcDbEntity
  8
0
100
AcDbBlockBegin
  2
*D9
 70
     1
 10
0.0
 20
0.0
 30
0.0
  3
*D9
  1

  0
LINE
  5
7C1
330
729
100
AcDbEntity
  8
0
  6
BYBLOCK
 62
     4
100
AcDbLine
 10
612.2655671669649
 20
218.7608235492404
 30
0.0
 11
590.0296662359182
 21
218.7608235492404
 31
0.0
  0
LINE
  5
7C2
330
729
100
AcDbEntity
  8
0
  6
BYBLOCK
 62
     4
100
AcDbLine
 10
612.2655671669649
 20
198.7608235492404
 30
0.0
 11
590.0296662359182
 21
198.7608235492404
 31
0.0
  0
LINE
  5
7C3
330
729
100
AcDbEntity
  8
0
  6
BYBLOCK
 62
     4
100
AcDbLine
 10
593.0296662359182
 20
225.7608235492404
 30
0.0
 11
593.0296662359182
 21
232.7608235492403
 31
0.0
  0
LINE
  5
7C4
330
729
100
AcDbEntity
  8
0
  6
BYBLOCK
 62
     4
100
AcDbLine
 10
593.0296662359182
 20
191.7608235492404
 30
0.0
 11
593.0296662359182
 21
184.7608235492404
 31
0.0
  0
LINE
  5
7C5
330
729
100
AcDbEntity
  8
0
  6
BYBLOCK
 62
     4
100
AcDbLine
 10
593.0296662359182
 20
218.7608235492404
 30
0.0
 11
593.0296662359182
 21
198.7608235492404
 31
0.0
  0
INSERT
  5
7C6
330
729
100
AcDbEntity
  8
0
  6
BYBLOCK
 62
     4
100
AcDbBlockReference
  2
_OPEN
 10
593.0296662359182
 20
218.7608235492404
 30
0.0
 41
7.0
 42
7.0
 43
7.0
 50
270.0
  0
INSERT
  5
7C7
330
729
100
AcDbEntity
  8
0
  6
BYBLOCK
 62
     4
100
AcDbBlockReference
  2
_OPEN
 10
593.0296662359182
 20
198.7608235492404
 30
0.0
 41
7.0
 42
7.0
 43
7.0
 50
90.0
  0
MTEXT
  5
7C8
330
729
100
AcDbEntity
  8
0
  6
BYBLOCK
 62
     4
100
AcDbMText
 10
588.0296662359183
 20
208.7608235492404
 30
0.0
 40
6.0
 41
0.0
 71
     5
 72
     5
  1
\A1;20
 11
0.0
 21
1.0
 31
0.0
1001
ACAD
1000
MTEXTBEGIN
1070
    73
1070
     1
1070
    44
1040
1.0
1070
    74
1070
     0
1000
MTEXTEND
1000
MTEXTBEGIN
1070
    73
1070
     1
1070
    44
1040
1.0
1070
    74
1070
     0
1000
MTEXTEND
1000
MTEXTBEGIN
1070
    73
1070
     1
1070
    44
1040
1.0
1070
    74
1070
     0
1000
MTEXTEND
  0
POINT
  5
7C9
330
729
100
AcDbEntity
  8
DEFPOINTS
  6
BYBLOCK
 62
     0
100
AcDbPoint
 10
618.265567166965
 20
218.7608235492404
 30
0.0
  0
POINT
  5
7CA
330
729
100
AcDbEntity
  8
DEFPOINTS
  6
BYBLOCK
 62
     0
100
AcDbPoint
 10
618.265567166965
 20
198.7608235492404
 30
0.0
  0
POINT
  5
7CB
330
729
100
AcDbEntity
  8
DEFPOINTS
  6
BYBLOCK
 62
     0
100
AcDbPoint
 10
593.0296662359182
 20
198.7608235492404
 30
0.0
  0
ENDBLK
  5
7CC
330
729
100
AcDbEntity
  8
0
100
AcDbBlockEnd
  0
BLOCK
  5
7CD
330
738
100
AcDbEntity
  8
0
100
AcDbBlockBegin
  2
*D10
 70
     1
 10
0.0
 20
0.0
 30
0.0
  3
*D10
  1

  0
LINE
  5
7CE
330
738
100
AcDbEntity
  8
0
  6
BYBLOCK
 62
     4
100
AcDbLine
 10
614.265567166965
 20
223.7608235492403
 30
0.0
 11
571.1308185119633
 21
223.7608235492403
 31
0.0
  0
LINE
  5
7CF
330
738
100
AcDbEntity
  8
0
  6
BYBLOCK
 62
     4
100
AcDbLine
 10
614.265567166965
 20
193.7608235492404
 30
0.0
 11
571.1308185119633
 21
193.7608235492404
 31
0.0
  0
LINE
  5
7D0
330
738
100
AcDbEntity
  8
0
  6
BYBLOCK
 62
     4
100
AcDbLine
 10
574.1308185119633
 20
216.7608235492403
 30
0.0
 11
574.1308185119633
 21
200.7608235492404
 31
0.0
  0
INSERT
  5
7D1
330
738
100
AcDbEntity
  8
0
  6
BYBLOCK
 62
     4
100
AcDbBlockReference
  2
_OPEN
 10
574.1308185119633
 20
223.7608235492403
 30
0.0
 41
7.0
 42
7.0
 43
7.0
 50
90.0
  0
INSERT
  5
7D2
330
738
100
AcDbEntity
  8
0
  6
BYBLOCK
 62
     4
100
AcDbBlockReference
  2
_OPEN
 10
574.1308185119633
 20
193.7608235492404
 30
0.0
 41
7.0
 42
7.0
 43
7.0
 50
270.0
  0
MTEXT
  5
7D3
330
738
100
AcDbEntity
  8
0
  6
BYBLOCK
 62
     4
100
AcDbMText
 10
569.1308185119632
 20
208.7608235492404
 30
0.0
 40
6.0
 41
0.0
 71
     5
 72
     5
  1
\A1;30
 11
0.0
 21
1.0
 31
0.0
1001
ACAD
1000
MTEXTBEGIN
1070
    73
1070
     1
1070
    44
1040
1.0
1070
    74
1070
     0
1000
MTEXTEND
1000
MTEXTBEGIN
1070
    73
1070
     1
1070
    44
1040
1.0
1070
    74
1070
     0
1000
MTEXTEND
1000
MTEXTBEGIN
1070
    73
1070
     1
1070
    44
1040
1.0
1070
    74
1070
     0
1000
MTEXTEND
  0
POINT
  5
7D4
330
738
100
AcDbEntity
  8
DEFPOINTS
  6
BYBLOCK
 62
     0
100
AcDbPoint
 10
620.2655671669649
 20
223.7608235492403
 30
0.0
  0
POINT
  5
7D5
330
738
100
AcDbEntity
  8
DEFPOINTS
  6
BYBLOCK
 62
     0
100
AcDbPoint
 10
620.2655671669649
 20
193.7608235492404
 30
0.0
  0
POINT
  5
7D6
330
738
100
AcDbEntity
  8
DEFPOINTS
  6
BYBLOCK
 62
     0
100
AcDbPoint
 10
574.1308185119633
 20
193.7608235492404
 30
0.0
  0
ENDBLK
  5
7D7
330
738
100
AcDbEntity
  8
0
100
AcDbBlockEnd
  0
BLOCK
  5
868
330
785
100
AcDbEntity
  8
0
100
AcDbBlockBegin
  2
*D11
 70
     1
 10
0.0
 20
0.0
 30
0.0
  3
*D11
  1

  0
LINE
  5
869
330
785
100
AcDbEntity
  8
0
  6
BYBLOCK
 62
     4
100
AcDbLine
 10
437.7429781375145
 20
237.9142317745317
 30
0.0
 11
499.1940304820336
 21
237.9142317745317
 31
0.0
  0
LINE
  5
86A
330
785
100
AcDbEntity
  8
0
  6
BYBLOCK
 62
     4
100
AcDbLine
 10
448.5357781375143
 20
189.2134817745317
 30
0.0
 11
499.1940304820336
 21
189.2134817745317
 31
0.0
  0
LINE
  5
86B
330
785
100
AcDbEntity
  8
0
  6
BYBLOCK
 62
     4
100
AcDbLine
 10
496.1940304820337
 20
230.9142317745316
 30
0.0
 11
496.1940304820337
 21
196.2134817745317
 31
0.0
  0
INSERT
  5
86C
330
785
100
AcDbEntity
  8
0
  6
BYBLOCK
 62
     4
100
AcDbBlockReference
  2
_OPEN
 10
496.1940304820337
 20
237.9142317745317
 30
0.0
 41
7.0
 42
7.0
 43
7.0
 50
90.0
  0
INSERT
  5
86D
330
785
100
AcDbEntity
  8
0
  6
BYBLOCK
 62
     4
100
AcDbBlockReference
  2
_OPEN
 10
496.1940304820337
 20
189.2134817745317
 30
0.0
 41
7.0
 42
7.0
 43
7.0
 50
270.0
  0
MTEXT
  5
86E
330
785
100
AcDbEntity
  8
0
  6
BYBLOCK
 62
     4
100
AcDbMText
 10
491.1940304820336
 20
213.5638567745317
 30
0.0
 40
6.0
 41
0.0
 71
     5
 72
     5
  1
\A1;49
 11
0.0
 21
1.0
 31
0.0
1001
ACAD
1000
MTEXTBEGIN
1070
    73
1070
     1
1070
    44
1040
1.0
1070
    74
1070
     0
1000
MTEXTEND
1000
MTEXTBEGIN
1070
    73
1070
     1
1070
    44
1040
1.0
1070
    74
1070
     0
1000
MTEXTEND
1000
MTEXTBEGIN
1070
    73
1070
     1
1070
    44
1040
1.0
1070
    74
1070
     0
1000
MTEXTEND
  0
POINT
  5
86F
330
785
100
AcDbEntity
  8
DEFPOINTS
  6
BYBLOCK
 62
     0
100
AcDbPoint
 10
431.7429781375145
 20
237.9142317745317
 30
0.0
  0
POINT
  5
870
330
785
100
AcDbEntity
  8
DEFPOINTS
  6
BYBLOCK
 62
     0
100
AcDbPoint
 10
442.5357781375144
 20
189.2134817745317
 30
0.0
  0
POINT
  5
871
330
785
100
AcDbEntity
  8
DEFPOINTS
  6
BYBLOCK
 62
     0
100
AcDbPoint
 10
496.1940304820337
 20
189.2134817745317
 30
0.0
  0
ENDBLK
  5
872
330
785
100
AcDbEntity
  8
0
100
AcDbBlockEnd
  0
BLOCK
  5
7FC
330
7FB
100
AcDbEntity
  8
0
100
AcDbBlockBegin
  2
*D12
 70
     1
 10
0.0
 20
0.0
 30
0.0
  3
*D12
  1

  0
LINE
  5
7FD
330
7FB
100
AcDbEntity
  8
0
  6
BYBLOCK
 62
     4
100
AcDbLine
 10
362.5441569274471
 20
192.4641235492403
 30
0.0
 11
313.8709283684316
 21
192.4641235492403
 31
0.0
  0
LINE
  5
7FE
330
7FB
100
AcDbEntity
  8
0
  6
BYBLOCK
 62
     4
100
AcDbLine
 10
337.8646569274471
 20
265.4641235492403
 30
0.0
 11
313.8709283684316
 21
265.4641235492403
 31
0.0
  0
LINE
  5
7FF
330
7FB
100
AcDbEntity
  8
0
  6
BYBLOCK
 62
     4
100
AcDbLine
 10
316.8709283684315
 20
199.4641235492403
 30
0.0
 11
316.8709283684315
 21
258.4641235492402
 31
0.0
  0
INSERT
  5
800
330
7FB
100
AcDbEntity
  8
0
  6
BYBLOCK
 62
     4
100
AcDbBlockReference
  2
_OPEN
 10
316.8709283684315
 20
192.4641235492403
 30
0.0
 41
7.0
 42
7.0
 43
7.0
 50
270.0
  0
INSERT
  5
801
330
7FB
100
AcDbEntity
  8
0
  6
BYBLOCK
 62
     4
100
AcDbBlockReference
  2
_OPEN
 10
316.8709283684315
 20
265.4641235492403
 30
0.0
 41
7.0
 42
7.0
 43
7.0
 50
90.0
  0
MTEXT
  5
802
330
7FB
100
AcDbEntity
  8
0
  6
BYBLOCK
 62
     4
100
AcDbMText
 10
311.8709283684315
 20
228.9641235492403
 30
0.0
 40
6.0
 41
0.0
 71
     5
 72
     5
  1
\A1;73
 11
0.0
 21
1.0
 31
0.0
1001
ACAD
1000
MTEXTBEGIN
1070
    73
1070
     1
1070
    44
1040
1.0
1070
    74
1070
     0
1000
MTEXTEND
1000
MTEXTBEGIN
1070
    73
1070
     1
1070
    44
1040
1.0
1070
    74
1070
     0
1000
MTEXTEND
1000
MTEXTBEGIN
1070
    73
1070
     1
1070
    44
1040
1.0
1070
    74
1070
     0
1000
MTEXTEND
  0
POINT
  5
803
330
7FB
100
AcDbEntity
  8
DEFPOINTS
  6
BYBLOCK
 62
     0
100
AcDbPoint
 10
368.5441569274471
 20
192.4641235492403
 30
0.0
  0
POINT
  5
804
330
7FB
100
AcDbEntity
  8
DEFPOINTS
  6
BYBLOCK
 62
     0
100
AcDbPoint
 10
343.8646569274471
 20
265.4641235492403
 30
0.0
  0
POINT
  5
805
330
7FB
100
AcDbEntity
  8
DEFPOINTS
  6
BYBLOCK
 62
     0
100
AcDbPoint
 10
316.8709283684315
 20
265.4641235492403
 30
0.0
  0
ENDBLK
  5
806
330
7FB
100
AcDbEntity
  8
0
100
AcDbBlockEnd
  0
BLOCK
  5
83F
330
809
100
AcDbEntity
  8
0
100
AcDbBlockBegin
  2
*D13
 70
     1
 10
0.0
 20
0.0
 30
0.0
  3
*D13
  1

  0
LINE
  5
840
330
809
100
AcDbEntity
  8
0
  6
BYBLOCK
 62
     4
100
AcDbLine
 10
467.228356927447
 20
187.7608235492404
 30
0.0
 11
467.228356927447
 21
165.8133757226026
 31
0.0
  0
LINE
  5
841
330
809
100
AcDbEntity
  8
0
  6
BYBLOCK
 62
     4
100
AcDbLine
 10
468.464656927447
 20
187.7608235492404
 30
0.0
 11
468.464656927447
 21
165.8133757226026
 31
0.0
  0
LINE
  5
842
330
809
100
AcDbEntity
  8
0
  6
BYBLOCK
 62
     4
100
AcDbLine
 10
460.2283569274471
 20
168.8133757226025
 30
0.0
 11
453.228356927447
 21
168.8133757226025
 31
0.0
  0
LINE
  5
843
330
809
100
AcDbEntity
  8
0
  6
BYBLOCK
 62
     4
100
AcDbLine
 10
475.4646569274471
 20
168.8133757226025
 30
0.0
 11
502.464656927447
 21
168.8133757226025
 31
0.0
  0
LINE
  5
844
330
809
100
AcDbEntity
  8
0
  6
BYBLOCK
 62
     4
100
AcDbLine
 10
467.228356927447
 20
168.8133757226025
 30
0.0
 11
468.464656927447
 21
168.8133757226025
 31
0.0
  0
INSERT
  5
845
330
809
100
AcDbEntity
  8
0
  6
BYBLOCK
 62
     4
100
AcDbBlockReference
  2
_OPEN
 10
467.228356927447
 20
168.8133757226025
 30
0.0
 41
7.0
 42
7.0
 43
7.0
  0
INSERT
  5
846
330
809
100
AcDbEntity
  8
0
  6
BYBLOCK
 62
     4
100
AcDbBlockReference
  2
_OPEN
 10
468.464656927447
 20
168.8133757226025
 30
0.0
 41
7.0
 42
7.0
 43
7.0
 50
180.0
  0
MTEXT
  5
847
330
809
100
AcDbEntity
  8
0
  6
BYBLOCK
 62
     4
100
AcDbMText
 10
492.4646569274471
 20
173.8133757226025
 30
0.0
 40
6.0
 41
0.0
 71
     5
 72
     5
  1
\A1;t1.2
1001
ACAD
1000
MTEXTBEGIN
1070
    73
1070
     1
1070
    44
1040
1.0
1070
    74
1070
     0
1000
MTEXTEND
1000
MTEXTBEGIN
1070
    73
1070
     1
1070
    44
1040
1.0
1070
    74
1070
     0
1000
MTEXTEND
1000
MTEXTBEGIN
1070
    73
1070
     1
1070
    44
1040
1.0
1070
    74
1070
     0
1000
MTEXTEND
  0
POINT
  5
848
330
809
100
AcDbEntity
  8
DEFPOINTS
  6
BYBLOCK
 62
     0
100
AcDbPoint
 10
467.228356927447
 20
193.7608235492404
 30
0.0
  0
POINT
  5
849
330
809
100
AcDbEntity
  8
DEFPOINTS
  6
BYBLOCK
 62
     0
100
AcDbPoint
 10
468.464656927447
 20
193.7608235492404
 30
0.0
  0
POINT
  5
84A
330
809
100
AcDbEntity
  8
DEFPOINTS
  6
BYBLOCK
 62
     0
100
AcDbPoint
 10
468.464656927447
 20
168.8133757226025
 30
0.0
  0
ENDBLK
  5
84B
330
809
100
AcDbEntity
  8
0
100
AcDbBlockEnd
  0
BLOCK
  5
85D
330
850
100
AcDbEntity
  8
0
100
AcDbBlockBegin
  2
*D14
 70
     1
 10
0.0
 20
0.0
 30
0.0
  3
*D14
  1

  0
LINE
  5
85E
330
850
100
AcDbEntity
  8
0
  6
BYBLOCK
 62
     4
100
AcDbLine
 10
448.5357781375143
 20
219.2134817745316
 30
0.0
 11
469.0234816135457
 21
219.2134817745316
 31
0.0
  0
LINE
  5
85F
330
850
100
AcDbEntity
  8
0
  6
BYBLOCK
 62
     4
100
AcDbLine
 10
448.5357781375143
 20
189.2134817745317
 30
0.0
 11
469.0234816135457
 21
189.2134817745317
 31
0.0
  0
LINE
  5
860
330
850
100
AcDbEntity
  8
0
  6
BYBLOCK
 62
     4
100
AcDbLine
 10
466.0234816135457
 20
212.2134817745316
 30
0.0
 11
466.0234816135457
 21
196.2134817745317
 31
0.0
  0
INSERT
  5
861
330
850
100
AcDbEntity
  8
0
  6
BYBLOCK
 62
     4
100
AcDbBlockReference
  2
_OPEN
 10
466.0234816135457
 20
219.2134817745316
 30
0.0
 41
7.0
 42
7.0
 43
7.0
 50
90.0
  0
INSERT
  5
862
330
850
100
AcDbEntity
  8
0
  6
BYBLOCK
 62
     4
100
AcDbBlockReference
  2
_OPEN
 10
466.0234816135457
 20
189.2134817745317
 30
0.0
 41
7.0
 42
7.0
 43
7.0
 50
270.0
  0
MTEXT
  5
863
330
850
100
AcDbEntity
  8
0
  6
BYBLOCK
 62
     4
100
AcDbMText
 10
461.0234816135458
 20
204.2134817745317
 30
0.0
 40
6.0
 41
0.0
 71
     5
 72
     5
  1
\A1;30
 11
0.0
 21
1.0
 31
0.0
1001
ACAD
1000
MTEXTBEGIN
1070
    73
1070
     1
1070
    44
1040
1.0
1070
    74
1070
     0
1000
MTEXTEND
1000
MTEXTBEGIN
1070
    73
1070
     1
1070
    44
1040
1.0
1070
    74
1070
     0
1000
MTEXTEND
1000
MTEXTBEGIN
1070
    73
1070
     1
1070
    44
1040
1.0
1070
    74
1070
     0
1000
MTEXTEND
  0
POINT
  5
864
330
850
100
AcDbEntity
  8
DEFPOINTS
  6
BYBLOCK
 62
     0
100
AcDbPoint
 10
442.5357781375144
 20
219.2134817745316
 30
0.0
  0
POINT
  5
865
330
850
100
AcDbEntity
  8
DEFPOINTS
  6
BYBLOCK
 62
     0
100
AcDbPoint
 10
442.5357781375144
 20
189.2134817745317
 30
0.0
  0
POINT
  5
866
330
850
100
AcDbEntity
  8
DEFPOINTS
  6
BYBLOCK
 62
     0
100
AcDbPoint
 10
466.0234816135457
 20
189.2134817745317
 30
0.0
  0
ENDBLK
  5
867
330
850
100
AcDbEntity
  8
0
100
AcDbBlockEnd
  0
ENDSEC
  0
SECTION
  2
ENTITIES
  0
INSERT
  5
32C
330
1A
100
AcDbEntity
  8
0
100
AcDbBlockReference
  2
A$C1305
 10
318.5529190530806
 20
187.8046611372294
 30
0.0
  0
ARC
  5
32D
330
1A
100
AcDbEntity
  8
SEIHIN
  6
CONTINUOUS
 62
     3
 48
16.0
100
AcDbCircle
 10
390.9277125014135
 20
171.5280517103509
 30
0.0
 40
4.999969935937294
100
AcDbArc
 50
187.6357469676554
 51
269.9996062163565
  0
LINE
  5
32E
330
1A
100
AcDbEntity
  8
SEIHIN
  6
CONTINUOUS
 62
     3
 48
16.0
100
AcDbLine
 10
382.2741781375146
 20
345.4166817745317
 30
0.0
 11
422.5358781375144
 21
345.4166817745317
 31
0.0
  0
LINE
  5
32F
330
1A
100
AcDbEntity
  8
SEIHIN
  6
CONTINUOUS
 62
     3
 48
16.0
100
AcDbLine
 10
375.7357781375145
 20
187.1167817745317
 30
0.0
 11
409.2912781375144
 21
187.1167817745317
 31
0.0
  0
LINE
  5
330
330
1A
100
AcDbEntity
  8
SEIHIN
  6
CONTINUOUS
 62
     3
 48
16.0
100
AcDbLine
 10
375.7357781375145
 20
187.9167817745316
 30
0.0
 11
408.8562781375144
 21
187.9167817745316
 31
0.0
  0
LINE
  5
331
330
1A
100
AcDbEntity
  8
SEIHIN
  6
CONTINUOUS
 62
     3
 48
16.0
100
AcDbLine
 10
408.8562781375144
 20
183.9167817745316
 30
0.0
 11
388.1278781375145
 21
183.9167817745316
 31
0.0
  0
LINE
  5
332
330
1A
100
AcDbEntity
  8
SEIHIN
  6
CONTINUOUS
 62
     3
 48
16.0
100
AcDbLine
 10
375.7358781375145
 20
340.4166817745317
 30
0.0
 11
422.5358781375144
 21
340.4166817745317
 31
0.0
  0
LINE
  5
333
330
1A
100
AcDbEntity
  8
CENTER_L
  6
CENTER
 62
     1
 48
5.0
100
AcDbLine
 10
375.7358781375145
 20
347.9166817745317
 30
0.0
 11
445.7585781375145
 21
347.9166817745317
 31
0.0
  0
LINE
  5
334
330
1A
100
AcDbEntity
  8
SEIHIN
  6
CONTINUOUS
 62
     3
 48
16.0
100
AcDbLine
 10
375.7358781375145
 20
336.9166817745317
 30
0.0
 11
408.8563781375145
 21
336.9166817745317
 31
0.0
  0
LINE
  5
335
330
1A
100
AcDbEntity
  8
SEIHIN
  6
CONTINUOUS
 62
     3
 48
16.0
100
AcDbLine
 10
375.7358781375145
 20
358.9167817745317
 30
0.0
 11
408.8563781375145
 21
358.9167817745317
 31
0.0
  0
LINE
  5
336
330
1A
100
AcDbEntity
  8
SEIHIN
  6
CONTINUOUS
 62
     3
 48
16.0
100
AcDbLine
 10
382.2741781375146
 20
350.4167817745317
 30
0.0
 11
422.5358781375144
 21
350.4166817745317
 31
0.0
  0
LINE
  5
337
330
1A
100
AcDbEntity
  8
SEIHIN
  6
CONTINUOUS
 62
     3
 48
16.0
100
AcDbLine
 10
375.7358781375145
 20
355.4167817745315
 30
0.0
 11
422.5358781375144
 21
355.4166817745317
 31
0.0
  0
ARC
  5
338
330
1A
100
AcDbEntity
  8
SEIHIN
  6
CONTINUOUS
 62
     3
 48
16.0
100
AcDbCircle
 10
394.711245592169
 20
176.3840097363753
 30
0.0
 40
5.000027961949482
100
AcDbArc
 50
188.6642925967974
 51
270.0003729401007
  0
LINE
  5
33B
330
1A
100
AcDbEntity
  8
SEIHIN
  6
CONTINUOUS
 62
     3
 48
16.0
100
AcDbLine
 10
213.4361992048188
 20
238.3168817745317
 30
0.0
 11
206.9361992048188
 21
238.3169817745315
 31
0.0
  0
LINE
  5
33C
330
1A
100
AcDbEntity
  8
SEIHIN
  6
CONTINUOUS
 62
     3
 48
16.0
100
AcDbLine
 10
206.1892992048188
 20
236.9038817745316
 30
0.0
 11
210.2485992048187
 21
233.9834817745317
 31
0.0
  0
LINE
  5
33D
330
1A
100
AcDbEntity
  8
SEIHIN
  6
CONTINUOUS
 62
     3
 48
16.0
100
AcDbLine
 10
201.9361992048187
 20
224.8168817745317
 30
0.0
 11
213.4361992048188
 21
224.8168817745317
 31
0.0
  0
LINE
  5
33E
330
1A
100
AcDbEntity
  8
SEIHIN
  6
CONTINUOUS
 62
     3
 48
16.0
100
AcDbLine
 10
206.1892992048188
 20
226.2299817745317
 30
0.0
 11
210.2485992048187
 21
229.1503817745317
 31
0.0
  0
LINE
  5
33F
330
1A
100
AcDbEntity
  8
SEIHIN
  6
CONTINUOUS
 62
     3
 48
16.0
100
AcDbLine
 10
205.1907992048187
 20
227.9593817745316
 30
0.0
 11
209.7495992048187
 21
230.0146817745316
 31
0.0
  0
LINE
  5
340
330
1A
100
AcDbEntity
  8
SEIHIN
  6
CONTINUOUS
 62
     3
 48
16.0
100
AcDbLine
 10
205.1907992048187
 20
235.1744817745317
 30
0.0
 11
209.7495992048187
 21
233.1191817745317
 31
0.0
  0
LINE
  5
341
330
1A
100
AcDbEntity
  8
SEIHIN
  6
CONTINUOUS
 62
     3
 48
16.0
100
AcDbLine
 10
213.4360992048187
 20
198.5768817745316
 30
0.0
 11
211.4361299700382
 21
198.5768999560701
 31
0.0
  0
ARC
  5
342
330
1A
100
AcDbEntity
  8
SEIHIN
  6
CONTINUOUS
 62
     3
 48
16.0
100
AcDbCircle
 10
208.4360992048187
 20
186.9168817745317
 30
0.0
 40
3.0
100
AcDbArc
 50
180.0
 51
0.0
  0
LINE
  5
343
330
1A
100
AcDbEntity
  8
SEIHIN
  6
CONTINUOUS
 62
     3
 48
16.0
100
AcDbLine
 10
213.4360992048187
 20
166.5280817745317
 30
0.0
 11
205.4360992048187
 21
166.5280817745317
 31
0.0
  0
LINE
  5
344
330
1A
100
AcDbEntity
  8
SEIHIN
  6
CONTINUOUS
 62
     3
 48
16.0
100
AcDbLine
 10
222.4359992048187
 20
242.7133817745317
 30
0.0
 11
204.4361992048187
 21
242.7134817745316
 31
0.0
  0
LINE
  5
345
330
1A
100
AcDbEntity
  8
SEIHIN
  6
CONTINUOUS
 62
     3
 48
16.0
100
AcDbLine
 10
203.4360992048187
 20
187.4168817745317
 30
0.0
 11
203.4360992048187
 21
168.5280817745317
 31
0.0
  0
ARC
  5
346
330
1A
100
AcDbEntity
  8
SEIHIN
  6
CONTINUOUS
 62
     3
 48
16.0
100
AcDbCircle
 10
205.4360992048187
 20
168.5280817745317
 30
0.0
 40
2.0
100
AcDbArc
 50
180.0
 51
270.0
  0
ARC
  5
347
330
1A
100
AcDbEntity
  8
SEIHIN
  6
CONTINUOUS
 62
     3
 48
16.0
100
AcDbCircle
 10
205.6418906525627
 20
227.0669530710922
 30
0.0
 40
0.9999562415177035
100
AcDbArc
 50
116.8149989746452
 51
209.9995484959487
  0
LINE
  5
348
330
1A
100
AcDbEntity
  8
SEIHIN
  6
CONTINUOUS
 62
     3
 48
16.0
100
AcDbLine
 10
200.9361992048188
 20
225.8168817745317
 30
0.0
 11
200.9361992048188
 21
260.3168817745317
 31
0.0
  0
LINE
  5
349
330
1A
100
AcDbEntity
  8
SEIHIN
  6
CONTINUOUS
 62
     3
 48
16.0
100
AcDbLine
 10
205.4360992048187
 20
186.9168817745317
 30
0.0
 11
205.4361992048188
 21
224.8168817745317
 31
0.0
  0
LINE
  5
34A
330
1A
100
AcDbEntity
  8
SEIHIN
  6
CONTINUOUS
 62
     3
 48
16.0
100
AcDbLine
 10
202.4360992048187
 20
198.5769817745316
 30
0.0
 11
202.4361992048188
 21
224.8168817745317
 31
0.0
  0
LINE
  5
34B
330
1A
100
AcDbEntity
  8
SEIHIN
  6
CONTINUOUS
 62
     3
 48
16.0
100
AcDbLine
 10
184.6860992048187
 20
191.2137817745317
 30
0.0
 11
184.6861992048187
 21
217.2137817745317
 31
0.0
  0
ARC
  5
34C
330
1A
100
AcDbEntity
  8
SEIHIN
  6
CONTINUOUS
 62
     3
 48
16.0
100
AcDbCircle
 10
189.6860992048187
 20
194.2137817745316
 30
0.0
 40
2.0
100
AcDbArc
 50
0.0
 51
180.0
  0
ARC
  5
34D
330
1A
100
AcDbEntity
  8
SEIHIN
  6
CONTINUOUS
 62
     3
 48
16.0
100
AcDbCircle
 10
189.6860992048187
 20
194.2137817745316
 30
0.0
 40
2.0
100
AcDbArc
 50
180.0
 51
0.0
  0
LINE
  5
34E
330
1A
100
AcDbEntity
  8
CENTER_L
  6
CENTER
 62
     1
 48
5.0
100
AcDbLine
 10
193.7176992048187
 20
194.2137817745316
 30
0.0
 11
186.1983992048187
 21
194.2137817745316
 31
0.0
  0
LINE
  5
34F
330
1A
100
AcDbEntity
  8
SEIHIN
  6
CONTINUOUS
 62
     3
 48
16.0
100
AcDbLine
 10
202.8917992048188
 20
189.2137817745317
 30
0.0
 11
186.6860992048187
 21
189.2137817745317
 31
0.0
  0
LINE
  5
350
330
1A
100
AcDbEntity
  8
CENTER_L
  6
CENTER
 62
     1
 48
5.0
100
AcDbLine
 10
189.6860992048187
 20
190.0919817745317
 30
0.0
 11
189.6860992048187
 21
198.4940817745316
 31
0.0
  0
ARC
  5
351
330
1A
100
AcDbEntity
  8
SEIHIN
  6
CONTINUOUS
 62
     3
 48
16.0
100
AcDbCircle
 10
186.6860992048187
 20
191.2137817745317
 30
0.0
 40
2.0
100
AcDbArc
 50
180.0
 51
270.0
  0
ARC
  5
352
330
1A
100
AcDbEntity
  8
SEIHIN
  6
CONTINUOUS
 62
     3
 48
16.0
100
AcDbCircle
 10
184.2057992043173
 20
192.9968817745317
 30
0.0
 40
19.06515769953877
100
AcDbArc
 50
342.9814976594928
 51
17.01850234050715
  0
LINE
  5
353
330
1A
100
AcDbEntity
  8
SEIHIN
  6
CONTINUOUS
 62
     3
 48
16.0
100
AcDbLine
 10
202.4360992048187
 20
187.4168817745317
 30
0.0
 11
205.4360992048187
 21
187.4168817745317
 31
0.0
  0
LINE
  5
354
330
1A
100
AcDbEntity
  8
SEIHIN
  6
CONTINUOUS
 62
     3
 48
16.0
100
AcDbLine
 10
198.9839992048187
 20
194.2137817745316
 30
0.0
 11
203.2579992048187
 21
192.2937817745317
 31
0.0
  0
LINE
  5
355
330
1A
100
AcDbEntity
  8
SEIHIN
  6
CONTINUOUS
 62
     3
 48
16.0
100
AcDbLine
 10
203.0280992048188
 20
196.0304817745316
 30
0.0
 11
198.9839992048187
 21
194.2137817745316
 31
0.0
  0
ARC
  5
356
330
1A
100
AcDbEntity
  8
SEIHIN
  6
CONTINUOUS
 62
     3
 48
16.0
100
AcDbCircle
 10
189.6860992048187
 20
214.2137817745317
 30
0.0
 40
2.0
100
AcDbArc
 50
0.0
 51
180.0
  0
ARC
  5
357
330
1A
100
AcDbEntity
  8
SEIHIN
  6
CONTINUOUS
 62
     3
 48
16.0
100
AcDbCircle
 10
189.6860992048187
 20
214.2137817745317
 30
0.0
 40
2.0
100
AcDbArc
 50
180.0
 51
0.0
  0
LINE
  5
358
330
1A
100
AcDbEntity
  8
CENTER_L
  6
CENTER
 62
     1
 48
5.0
100
AcDbLine
 10
194.5318992048187
 20
214.2137817745317
 30
0.0
 11
186.3498992048187
 21
214.2137817745317
 31
0.0
  0
LINE
  5
359
330
1A
100
AcDbEntity
  8
SEIHIN
  6
CONTINUOUS
 62
     3
 48
16.0
100
AcDbLine
 10
201.4361992048187
 20
219.2137817745317
 30
0.0
 11
186.6861992048188
 21
219.2137817745317
 31
0.0
  0
LINE
  5
35A
330
1A
100
AcDbEntity
  8
CENTER_L
  6
CENTER
 62
     1
 48
5.0
100
AcDbLine
 10
189.6860992048187
 20
208.3436817745317
 30
0.0
 11
189.6861992048187
 21
217.4386817745317
 31
0.0
  0
ARC
  5
35B
330
1A
100
AcDbEntity
  8
SEIHIN
  6
CONTINUOUS
 62
     3
 48
16.0
100
AcDbCircle
 10
186.6861992048187
 20
217.2137817745317
 30
0.0
 40
2.000000000000028
100
AcDbArc
 50
89.9999999999992
 51
179.9999999999991
  0
LINE
  5
35C
330
1A
100
AcDbEntity
  8
SEIHIN
  6
CONTINUOUS
 62
     3
 48
16.0
100
AcDbLine
 10
202.4361992048188
 20
215.7645817745317
 30
0.0
 11
198.9839992048187
 21
214.2137817745317
 31
0.0
  0
LINE
  5
35D
330
1A
100
AcDbEntity
  8
SEIHIN
  6
CONTINUOUS
 62
     3
 48
16.0
100
AcDbLine
 10
198.9839992048187
 20
214.2137817745317
 30
0.0
 11
202.4361992048188
 21
212.6629817745316
 31
0.0
  0
ARC
  5
35E
330
1A
100
AcDbEntity
  8
SEIHIN
  6
CONTINUOUS
 62
     3
 48
16.0
100
AcDbCircle
 10
201.9361992048187
 20
225.8168817745316
 30
0.0
 40
0.9999999999999715
100
AcDbArc
 50
179.9999999999983
 51
269.9999999999983
  0
ARC
  5
35F
330
1A
100
AcDbEntity
  8
SEIHIN
  6
CONTINUOUS
 62
     3
 48
16.0
100
AcDbCircle
 10
205.6419861549509
 20
227.066961048469
 30
0.0
 40
1.000042938856267
100
AcDbArc
 50
209.9972085279262
 51
303.1812627458654
  0
ARC
  5
360
330
1A
100
AcDbEntity
  8
SEIHIN
  6
CONTINUOUS
 62
     3
 48
16.0
100
AcDbCircle
 10
201.4361171008836
 20
221.2137597742898
 30
0.0
 40
1.999978001443396
100
AcDbArc
 50
270.0023521303528
 51
300.0030799111798
  0
LINE
  5
362
330
1A
100
AcDbEntity
  8
SEIHIN
  6
CONTINUOUS
 62
     3
 48
16.0
100
AcDbLine
 10
204.4362992048186
 20
260.3168817745317
 30
0.0
 11
204.4361992048187
 21
240.8169817745315
 31
0.0
  0
ARC
  5
367
330
1A
100
AcDbEntity
  8
SEIHIN
  6
CONTINUOUS
 62
     3
 48
16.0
100
AcDbCircle
 10
206.9361992048187
 20
240.8169817745315
 30
0.0
 40
2.500000000000028
100
AcDbArc
 50
180.0000000000006
 51
270.0000000000006
  0
ARC
  5
368
330
1A
100
AcDbEntity
  8
SEIHIN
  6
CONTINUOUS
 62
     3
 48
16.0
100
AcDbCircle
 10
205.6419301247613
 20
236.0669891439385
 30
0.0
 40
1.00000109247136
100
AcDbArc
 50
56.8133335179751
 51
150.0005236927466
  0
ARC
  5
369
330
1A
100
AcDbEntity
  8
SEIHIN
  6
CONTINUOUS
 62
     3
 48
16.0
100
AcDbCircle
 10
205.6419081924891
 20
236.0669516122225
 30
0.0
 40
1.000000864972062
100
AcDbArc
 50
149.9980330729464
 51
243.1851673148768
  0
LINE
  5
36D
330
1A
100
AcDbEntity
  8
SEIHIN
  6
CONTINUOUS
 62
     3
 48
16.0
100
AcDbLine
 10
200.9361992048188
 20
260.3168817745317
 30
0.0
 11
204.4362992048186
 21
260.3168817745317
 31
0.0
  0
LINE
  5
36E
330
1A
100
AcDbEntity
  8
SEIHIN
  6
CONTINUOUS
 62
     3
 48
16.0
100
AcDbLine
 10
379.7434781375145
 20
179.5138817745316
 30
0.0
 11
379.7434781375145
 21
182.3167817745316
 31
0.0
  0
LINE
  5
36F
330
1A
100
AcDbEntity
  8
SEIHIN
  6
CONTINUOUS
 62
     3
 48
16.0
100
AcDbLine
 10
371.7280781375143
 20
182.3167817745316
 30
0.0
 11
371.7280781375143
 21
179.5138817745316
 31
0.0
  0
LINE
  5
370
330
1A
100
AcDbEntity
  8
SEIHIN
  6
CONTINUOUS
 62
     3
 48
16.0
100
AcDbLine
 10
389.7682781375145
 20
175.6307817745317
 30
0.0
 11
388.7827781375145
 21
182.0983817745317
 31
0.0
  0
LINE
  5
371
330
1A
100
AcDbEntity
  8
CENTER_L
  6
CENTER
 62
     1
 48
5.0
100
AcDbLine
 10
375.7357781375145
 20
197.7376817745317
 30
0.0
 11
375.7357781375145
 21
175.6323817745317
 31
0.0
  0
LINE
  5
373
330
1A
100
AcDbEntity
  8
SEIHIN
  6
CONTINUOUS
 62
     3
 48
16.0
100
AcDbLine
 10
223.4360992048187
 20
187.4168817745317
 30
0.0
 11
223.4360992048191
 21
168.5280817745317
 31
0.0
  0
LINE
  5
374
330
1A
100
AcDbEntity
  8
CENTER_L
  6
CENTER
 62
     1
 48
5.0
100
AcDbLine
 10
213.4360992048187
 20
162.3731817745316
 30
0.0
 11
213.4361992048188
 21
264.1898817745316
 31
0.0
  0
ARC
  5
375
330
1A
100
AcDbEntity
  8
SEIHIN
  6
CONTINUOUS
 62
     3
 48
16.0
100
AcDbCircle
 10
221.4360992048188
 20
168.5280817745317
 30
0.0
 40
2.0
100
AcDbArc
 50
270.0
 51
0.0
  0
LINE
  5
376
330
1A
100
AcDbEntity
  8
SEIHIN
  6
CONTINUOUS
 62
     3
 48
16.0
100
AcDbLine
 10
213.4360992048187
 20
166.5280817745317
 30
0.0
 11
221.4360992048188
 21
166.5280817745317
 31
0.0
  0
LINE
  5
377
330
1A
100
AcDbEntity
  8
SEIHIN
  6
CONTINUOUS
 62
     3
 48
16.0
100
AcDbLine
 10
371.7280781375143
 20
179.5138817745316
 30
0.0
 11
379.7434781375145
 21
179.5138817745316
 31
0.0
  0
LINE
  5
378
330
1A
100
AcDbEntity
  8
SEIHIN
  6
CONTINUOUS
 62
     3
 48
16.0
100
AcDbLine
 10
385.9720781375145
 20
170.8636817745316
 30
0.0
 11
385.0178915659214
 21
177.9811511619993
 31
0.0
  0
ARC
  5
379
330
1A
100
AcDbEntity
  8
SEIHIN
  6
CONTINUOUS
 62
     3
 48
16.0
100
AcDbCircle
 10
324.9967072301939
 20
225.1168393078471
 30
0.0
 40
1.299942468618431
100
AcDbArc
 50
11.88598677715723
 51
89.99687471537598
  0
ARC
  5
37A
330
1A
100
AcDbEntity
  8
SEIHIN
  6
CONTINUOUS
 62
     3
 48
16.0
100
AcDbCircle
 10
324.9967926119566
 20
225.1167700298075
 30
0.0
 40
0.5000117449336635
100
AcDbArc
 50
11.8891363518915
 51
90.00165860992394
  0
LINE
  5
37B
330
1A
100
AcDbEntity
  8
SEIHIN
  6
CONTINUOUS
 62
     3
 48
16.0
100
AcDbLine
 10
327.5841781375145
 20
199.2351817745316
 30
0.0
 11
322.0301781375144
 21
225.6167817745317
 31
0.0
  0
LINE
  5
37C
330
1A
100
AcDbEntity
  8
SEIHIN
  6
CONTINUOUS
 62
     3
 48
16.0
100
AcDbLine
 10
220.6829992048188
 20
226.2299817745317
 30
0.0
 11
216.6236992048187
 21
229.1503817745317
 31
0.0
  0
ARC
  5
37D
330
1A
100
AcDbEntity
  8
SEIHIN
  6
CONTINUOUS
 62
     3
 48
16.0
100
AcDbCircle
 10
221.2304077570748
 20
227.0669530710923
 30
0.0
 40
0.9999562415176802
100
AcDbArc
 50
330.0004515040474
 51
63.18500102535178
  0
LINE
  5
37E
330
1A
100
AcDbEntity
  8
SEIHIN
  6
CONTINUOUS
 62
     3
 48
16.0
100
AcDbLine
 10
318.7357781375144
 20
260.9167817745316
 30
0.0
 11
318.7357781375144
 21
226.9167817745316
 31
0.0
  0
LINE
  5
37F
330
1A
100
AcDbEntity
  8
SEIHIN
  6
CONTINUOUS
 62
     3
 48
16.0
100
AcDbLine
 10
317.9357781375144
 20
260.9167817745316
 30
0.0
 11
317.9357781375144
 21
226.9167817745316
 31
0.0
  0
LINE
  5
380
330
1A
100
AcDbEntity
  8
SEIHIN
  6
CONTINUOUS
 62
     3
 48
16.0
100
AcDbLine
 10
225.9360992048187
 20
225.8168817745317
 30
0.0
 11
225.9360992048187
 21
260.3168817745317
 31
0.0
  0
LINE
  5
381
330
1A
100
AcDbEntity
  8
CENTER_L
  6
CENTER
 62
     1
 48
5.0
100
AcDbLine
 10
232.3402992048187
 20
214.2137817745317
 30
0.0
 11
240.5223992048187
 21
214.2137817745317
 31
0.0
  0
LINE
  5
382
330
1A
100
AcDbEntity
  8
SEIHIN
  6
CONTINUOUS
 62
     3
 48
16.0
100
AcDbLine
 10
225.4360992048187
 20
219.2137817745317
 30
0.0
 11
240.1860992048188
 21
219.2137817745317
 31
0.0
  0
LINE
  5
383
330
1A
100
AcDbEntity
  8
CENTER_L
  6
CENTER
 62
     1
 48
5.0
100
AcDbLine
 10
233.1545992048187
 20
194.2137817745316
 30
0.0
 11
240.6738992048187
 21
194.2137817745316
 31
0.0
  0
LINE
  5
384
330
1A
100
AcDbEntity
  8
SEIHIN
  6
CONTINUOUS
 62
     3
 48
16.0
100
AcDbLine
 10
223.9803992048188
 20
189.2137817745317
 30
0.0
 11
240.1860992048188
 21
189.2137817745317
 31
0.0
  0
LINE
  5
385
330
1A
100
AcDbEntity
  8
SEIHIN
  6
CONTINUOUS
 62
     3
 48
16.0
100
AcDbLine
 10
221.4360992048188
 20
186.9168817745317
 30
0.0
 11
221.4360992048188
 21
224.8168817745317
 31
0.0
  0
LINE
  5
386
330
1A
100
AcDbEntity
  8
SEIHIN
  6
CONTINUOUS
 62
     3
 48
16.0
100
AcDbLine
 10
224.4360992048187
 20
198.5768817745316
 30
0.0
 11
224.4360992048187
 21
224.8168817745317
 31
0.0
  0
LINE
  5
388
330
1A
100
AcDbEntity
  8
SEIHIN
  6
CONTINUOUS
 62
     3
 48
16.0
100
AcDbLine
 10
215.4360992048187
 20
186.9168817745317
 30
0.0
 11
215.4360992048187
 21
224.8168817745317
 31
0.0
  0
LINE
  5
38A
330
1A
100
AcDbEntity
  8
SEIHIN
  6
CONTINUOUS
 62
     3
 48
16.0
100
AcDbLine
 10
211.4360992048187
 20
186.9168817745317
 30
0.0
 11
211.4361992048188
 21
224.8168817745317
 31
0.0
  0
LINE
  5
38B
330
1A
100
AcDbEntity
  8
SEIHIN
  6
CONTINUOUS
 62
     3
 48
16.0
100
AcDbLine
 10
227.8881992048188
 20
194.2137817745316
 30
0.0
 11
223.6141992048187
 21
192.2937817745317
 31
0.0
  0
LINE
  5
38C
330
1A
100
AcDbEntity
  8
SEIHIN
  6
CONTINUOUS
 62
     3
 48
16.0
100
AcDbLine
 10
224.4360992048187
 20
187.4168817745317
 30
0.0
 11
221.4360992048188
 21
187.4168817745317
 31
0.0
  0
ARC
  5
38D
330
1A
100
AcDbEntity
  8
SEIHIN
  6
CONTINUOUS
 62
     3
 48
16.0
100
AcDbCircle
 10
242.6664992044473
 20
192.9967684216047
 30
0.0
 40
19.06522014403829
100
AcDbArc
 50
162.9808845565924
 51
197.0180886465237
  0
LINE
  5
38E
330
1A
100
AcDbEntity
  8
SEIHIN
  6
CONTINUOUS
 62
     3
 48
16.0
100
AcDbLine
 10
213.4360992048187
 20
198.5768817745316
 30
0.0
 11
215.4360992048187
 21
198.5768817745316
 31
0.0
  0
LINE
  5
38F
330
1A
100
AcDbEntity
  8
SEIHIN
  6
CONTINUOUS
 62
     3
 48
16.0
100
AcDbLine
 10
213.4360992048187
 20
183.9168817745316
 30
0.0
 11
218.4360992048187
 21
183.9168817745316
 31
0.0
  0
ARC
  5
390
330
1A
100
AcDbEntity
  8
SEIHIN
  6
CONTINUOUS
 62
     3
 48
16.0
100
AcDbCircle
 10
218.4360992048187
 20
186.9168817745317
 30
0.0
 40
3.000000000000028
100
AcDbArc
 50
180.0
 51
0.0
  0
LINE
  5
391
330
1A
100
AcDbEntity
  8
SEIHIN
  6
CONTINUOUS
 62
     3
 48
16.0
100
AcDbLine
 10
215.4360992048187
 20
187.4168817745317
 30
0.0
 11
213.4360992048187
 21
187.4168817745317
 31
0.0
  0
LINE
  5
392
330
1A
100
AcDbEntity
  8
SEIHIN
  6
CONTINUOUS
 62
     3
 48
16.0
100
AcDbLine
 10
213.4360992048187
 20
183.9168817745316
 30
0.0
 11
208.4360992048187
 21
183.9168817745316
 31
0.0
  0
LINE
  5
393
330
1A
100
AcDbEntity
  8
SEIHIN
  6
CONTINUOUS
 62
     3
 48
16.0
100
AcDbLine
 10
211.4360992048187
 20
187.4168817745317
 30
0.0
 11
213.4360992048187
 21
187.4168817745317
 31
0.0
  0
LINE
  5
394
330
1A
100
AcDbEntity
  8
CENTER_L
  6
CENTER
 62
     1
 48
5.0
100
AcDbLine
 10
237.1860992048187
 20
190.0919817745317
 30
0.0
 11
237.1860992048187
 21
198.4940817745316
 31
0.0
  0
ARC
  5
395
330
1A
100
AcDbEntity
  8
SEIHIN
  6
CONTINUOUS
 62
     3
 48
16.0
100
AcDbCircle
 10
237.1860992048187
 20
194.2137817745316
 30
0.0
 40
2.0
100
AcDbArc
 50
180.0
 51
0.0
  0
LINE
  5
396
330
1A
100
AcDbEntity
  8
SEIHIN
  6
CONTINUOUS
 62
     3
 48
16.0
100
AcDbLine
 10
223.8441992048188
 20
196.0304817745316
 30
0.0
 11
227.8881992048188
 21
194.2137817745316
 31
0.0
  0
ARC
  5
397
330
1A
100
AcDbEntity
  8
SEIHIN
  6
CONTINUOUS
 62
     3
 48
16.0
100
AcDbCircle
 10
237.1860992048187
 20
194.2137817745316
 30
0.0
 40
2.0
100
AcDbArc
 50
0.0
 51
180.0
  0
LINE
  5
398
330
1A
100
AcDbEntity
  8
SEIHIN
  6
CONTINUOUS
 62
     3
 48
16.0
100
AcDbLine
 10
224.9360992048187
 20
224.8168817745317
 30
0.0
 11
213.4360992048187
 21
224.8168817745317
 31
0.0
  0
ARC
  5
399
330
1A
100
AcDbEntity
  8
SEIHIN
  6
CONTINUOUS
 62
     3
 48
16.0
100
AcDbCircle
 10
221.2303122546866
 20
227.066961048469
 30
0.0
 40
1.000042938856214
100
AcDbArc
 50
236.8187372541356
 51
330.0027914720744
  0
ARC
  5
39A
330
1A
100
AcDbEntity
  8
SEIHIN
  6
CONTINUOUS
 62
     3
 48
16.0
100
AcDbCircle
 10
237.1860992048187
 20
214.2137817745317
 30
0.0
 40
2.0
100
AcDbArc
 50
0.0
 51
180.0
  0
LINE
  5
39B
330
1A
100
AcDbEntity
  8
CENTER_L
  6
CENTER
 62
     1
 48
5.0
100
AcDbLine
 10
237.1860992048187
 20
208.3436817745317
 30
0.0
 11
237.1860992048187
 21
217.4386817745317
 31
0.0
  0
LINE
  5
39C
330
1A
100
AcDbEntity
  8
SEIHIN
  6
CONTINUOUS
 62
     3
 48
16.0
100
AcDbLine
 10
224.4360992048187
 20
215.7645817745317
 30
0.0
 11
227.8881992048188
 21
214.2137817745317
 31
0.0
  0
LINE
  5
39D
330
1A
100
AcDbEntity
  8
SEIHIN
  6
CONTINUOUS
 62
     3
 48
16.0
100
AcDbLine
 10
227.8881992048188
 20
214.2137817745317
 30
0.0
 11
224.4360992048187
 21
212.6629817745316
 31
0.0
  0
ARC
  5
39E
330
1A
100
AcDbEntity
  8
SEIHIN
  6
CONTINUOUS
 62
     3
 48
16.0
100
AcDbCircle
 10
237.1860992048187
 20
214.2137817745317
 30
0.0
 40
2.0
100
AcDbArc
 50
180.0
 51
0.0
  0
ARC
  5
39F
330
1A
100
AcDbEntity
  8
SEIHIN
  6
CONTINUOUS
 62
     3
 48
16.0
100
AcDbCircle
 10
224.9360992048187
 20
225.8168817745316
 30
0.0
 40
0.9999999999999715
100
AcDbArc
 50
270.0000000000016
 51
0.0000000000016284
  0
ARC
  5
3A0
330
1A
100
AcDbEntity
  8
SEIHIN
  6
CONTINUOUS
 62
     3
 48
16.0
100
AcDbCircle
 10
225.4361813087538
 20
221.2137597742898
 30
0.0
 40
1.999978001443396
100
AcDbArc
 50
239.9969200888202
 51
269.9976478696471
  0
LINE
  5
3A1
330
1A
100
AcDbEntity
  8
SEIHIN
  6
CONTINUOUS
 62
     3
 48
16.0
100
AcDbLine
 10
242.1860992048187
 20
191.2137817745317
 30
0.0
 11
242.1860992048187
 21
217.2137817745317
 31
0.0
  0
ARC
  5
3A2
330
1A
100
AcDbEntity
  8
SEIHIN
  6
CONTINUOUS
 62
     3
 48
16.0
100
AcDbCircle
 10
240.1860992048188
 20
191.2137817745317
 30
0.0
 40
2.0
100
AcDbArc
 50
270.0
 51
0.0
  0
ARC
  5
3A3
330
1A
100
AcDbEntity
  8
SEIHIN
  6
CONTINUOUS
 62
     3
 48
16.0
100
AcDbCircle
 10
240.1860992048188
 20
217.2137817745317
 30
0.0
 40
2.0
100
AcDbArc
 50
0.0
 51
90.0
  0
ARC
  5
3A4
330
1A
100
AcDbEntity
  8
SEIHIN
  6
CONTINUOUS
 62
     3
 48
16.0
100
AcDbCircle
 10
319.2357781375144
 20
226.9167817745317
 30
0.0
 40
0.5000000000000285
100
AcDbArc
 50
180.0000000000097
 51
270.0000000000097
  0
ARC
  5
3A5
330
1A
100
AcDbEntity
  8
SEIHIN
  6
CONTINUOUS
 62
     3
 48
16.0
100
AcDbCircle
 10
319.2357781375144
 20
226.9167817745317
 30
0.0
 40
1.300000000000039
100
AcDbArc
 50
180.0000000000037
 51
270.0000000000037
  0
LINE
  5
3A6
330
1A
100
AcDbEntity
  8
SEIHIN
  6
CONTINUOUS
 62
     3
 48
16.0
100
AcDbLine
 10
324.9967781375145
 20
225.6167817745317
 30
0.0
 11
319.2357781375145
 21
225.6167817745317
 31
0.0
  0
LINE
  5
3A7
330
1A
100
AcDbEntity
  8
SEIHIN
  6
CONTINUOUS
 62
     3
 48
16.0
100
AcDbLine
 10
324.9967781375145
 20
226.4167817745317
 30
0.0
 11
319.2357781375145
 21
226.4167817745317
 31
0.0
  0
LINE
  5
3A8
330
1A
100
AcDbEntity
  8
SEIHIN
  6
CONTINUOUS
 62
     3
 48
16.0
100
AcDbLine
 10
222.4360992048187
 20
260.3168817745317
 30
0.0
 11
222.4359992048187
 21
240.8168817745316
 31
0.0
  0
ARC
  5
3A9
330
1A
100
AcDbEntity
  8
SEIHIN
  6
CONTINUOUS
 62
     3
 48
16.0
100
AcDbCircle
 10
219.9359992048188
 20
240.8168817745317
 30
0.0
 40
2.499999999999971
100
AcDbArc
 50
269.999999999998
 51
359.999999999998
  0
LINE
  5
3AA
330
1A
100
AcDbEntity
  8
SEIHIN
  6
CONTINUOUS
 62
     3
 48
16.0
100
AcDbLine
 10
213.4360992048187
 20
238.3168817745317
 30
0.0
 11
219.9359992048187
 21
238.3168817745317
 31
0.0
  0
ARC
  5
3AB
330
1A
100
AcDbEntity
  8
SEIHIN
  6
CONTINUOUS
 62
     3
 48
16.0
100
AcDbCircle
 10
213.4360992048188
 20
231.5669817745316
 30
0.0
 40
1.0
100
AcDbArc
 50
0.0
 51
180.0
  0
ARC
  5
3AC
330
1A
100
AcDbEntity
  8
SEIHIN
  6
CONTINUOUS
 62
     3
 48
16.0
100
AcDbCircle
 10
213.4360992048188
 20
231.5669817745316
 30
0.0
 40
1.0
100
AcDbArc
 50
180.0
 51
0.0
  0
ARC
  5
3AD
330
1A
100
AcDbEntity
  8
SEIHIN
  6
CONTINUOUS
 62
     3
 48
16.0
100
AcDbCircle
 10
209.9720697785512
 20
233.5669728964648
 30
0.0
 40
0.5000100449581179
100
AcDbArc
 50
243.5809984124371
 51
330.0018392514274
  0
ARC
  5
3AE
330
1A
100
AcDbEntity
  8
SEIHIN
  6
CONTINUOUS
 62
     3
 48
16.0
100
AcDbCircle
 10
209.9719868372233
 20
229.5669290807002
 30
0.0
 40
0.5000260595038509
100
AcDbArc
 50
303.5865427614119
 51
30.005248174011
  0
ARC
  5
3AF
330
1A
100
AcDbEntity
  8
SEIHIN
  6
CONTINUOUS
 62
     3
 48
16.0
100
AcDbCircle
 10
209.9720697785512
 20
229.5668906525985
 30
0.0
 40
0.5000100449581183
100
AcDbArc
 50
29.99816074857253
 51
116.4190015875627
  0
ARC
  5
3B0
330
1A
100
AcDbEntity
  8
SEIHIN
  6
CONTINUOUS
 62
     3
 48
16.0
100
AcDbCircle
 10
209.972109969685
 20
233.5669359151192
 30
0.0
 40
0.4999567482678377
100
AcDbArc
 50
330.0032067826358
 51
56.42512083846401
  0
LINE
  5
3B1
330
1A
100
AcDbEntity
  8
SEIHIN
  6
CONTINUOUS
 62
     3
 48
16.0
100
AcDbLine
 10
220.6829992048188
 20
236.9037817745317
 30
0.0
 11
216.6236992048187
 21
233.9834817745317
 31
0.0
  0
ARC
  5
3B2
330
1A
100
AcDbEntity
  8
SEIHIN
  6
CONTINUOUS
 62
     3
 48
16.0
100
AcDbCircle
 10
221.2303682848763
 20
236.0669891439386
 30
0.0
 40
1.000001092471308
100
AcDbArc
 50
29.99947630725291
 51
123.1866664820237
  0
ARC
  5
3B3
330
1A
100
AcDbEntity
  8
SEIHIN
  6
CONTINUOUS
 62
     3
 48
16.0
100
AcDbCircle
 10
221.2303902171484
 20
236.0669516122225
 30
0.0
 40
1.000000864972037
100
AcDbArc
 50
296.8148326851259
 51
30.00196692705718
  0
LINE
  5
3B4
330
1A
100
AcDbEntity
  8
SEIHIN
  6
CONTINUOUS
 62
     3
 48
16.0
100
AcDbLine
 10
221.6814992048188
 20
227.9593817745316
 30
0.0
 11
217.1226992048187
 21
230.0146817745316
 31
0.0
  0
ARC
  5
3B5
330
1A
100
AcDbEntity
  8
SEIHIN
  6
CONTINUOUS
 62
     3
 48
16.0
100
AcDbCircle
 10
216.9002023444473
 20
229.5669684027223
 30
0.0
 40
0.4999984050091399
100
AcDbArc
 50
149.9981251089928
 51
236.42637693614
  0
ARC
  5
3B6
330
1A
100
AcDbEntity
  8
SEIHIN
  6
CONTINUOUS
 62
     3
 48
16.0
100
AcDbCircle
 10
216.9002286310862
 20
233.5669728964647
 30
0.0
 40
0.5000100449580081
100
AcDbArc
 50
209.9981607485694
 51
296.4190015875577
  0
ARC
  5
3B7
330
1A
100
AcDbEntity
  8
SEIHIN
  6
CONTINUOUS
 62
     3
 48
16.0
100
AcDbCircle
 10
216.9002286310862
 20
229.5668906525985
 30
0.0
 40
0.5000100449580084
100
AcDbArc
 50
63.58099841244232
 51
150.0018392514305
  0
LINE
  5
3B8
330
1A
100
AcDbEntity
  8
SEIHIN
  6
CONTINUOUS
 62
     3
 48
16.0
100
AcDbLine
 10
221.6814992048188
 20
235.1744817745317
 30
0.0
 11
217.1226992048187
 21
233.1191817745317
 31
0.0
  0
ARC
  5
3B9
330
1A
100
AcDbEntity
  8
SEIHIN
  6
CONTINUOUS
 62
     3
 48
16.0
100
AcDbCircle
 10
216.9001884399524
 20
233.5669359151192
 30
0.0
 40
0.4999567482678169
100
AcDbArc
 50
123.5748791615419
 51
209.9967932173717
  0
LINE
  5
3BA
330
1A
100
AcDbEntity
  8
SEIHIN
  6
CONTINUOUS
 62
     3
 48
16.0
100
AcDbLine
 10
225.9360992048187
 20
260.3168817745317
 30
0.0
 11
222.4360992048187
 21
260.3168817745317
 31
0.0
  0
LINE
  5
3BB
330
1A
100
AcDbEntity
  8
SEIHIN
  6
CONTINUOUS
 62
     3
 48
16.0
100
AcDbLine
 10
318.7357781375144
 20
260.9167817745316
 30
0.0
 11
317.9357781375144
 21
260.9167817745316
 31
0.0
  0
LINE
  5
3BC
330
1A
100
AcDbEntity
  8
SEIHIN
  6
CONTINUOUS
 62
     3
 48
16.0
100
AcDbLine
 10
375.7357781375145
 20
187.9167817745316
 30
0.0
 11
342.6152781375144
 21
187.9167817745316
 31
0.0
  0
LINE
  5
3BD
330
1A
100
AcDbEntity
  8
SEIHIN
  6
CONTINUOUS
 62
     3
 48
16.0
100
AcDbLine
 10
342.6152781375144
 20
183.9167817745316
 30
0.0
 11
368.0260781375144
 21
183.9167817745316
 31
0.0
  0
LINE
  5
3BE
330
1A
100
AcDbEntity
  8
SEIHIN
  6
CONTINUOUS
 62
     3
 48
16.0
100
AcDbLine
 10
375.7357781375145
 20
187.1167817745317
 30
0.0
 11
342.1802781375145
 21
187.1167817745317
 31
0.0
  0
LINE
  5
3BF
330
1A
100
AcDbEntity
  8
SEIHIN
  6
CONTINUOUS
 62
     3
 48
16.0
100
AcDbLine
 10
331.6068781375145
 20
200.0289817745317
 30
0.0
 11
326.2687781375145
 21
225.3845817745317
 31
0.0
  0
LINE
  5
3C0
330
1A
100
AcDbEntity
  8
SEIHIN
  6
CONTINUOUS
 62
     3
 48
16.0
100
AcDbLine
 10
330.8871781375145
 20
199.5644817745317
 30
0.0
 11
325.4860781375146
 21
225.2197817745316
 31
0.0
  0
ARC
  5
3C1
330
1A
100
AcDbEntity
  8
SEIHIN
  6
CONTINUOUS
 62
     3
 48
16.0
100
AcDbCircle
 10
342.6152613166862
 20
188.9167961768242
 30
0.0
 40
1.000014402433989
100
AcDbArc
 50
188.8595106762549
 51
270.0009637485855
  0
ARC
  5
3C2
330
1A
100
AcDbEntity
  8
SEIHIN
  6
CONTINUOUS
 62
     3
 48
16.0
100
AcDbCircle
 10
342.1802728298311
 20
188.4167864668224
 30
0.0
 40
1.300004692301531
100
AcDbArc
 50
187.04325083954
 51
270.0002339282799
  0
ARC
  5
3C3
330
1A
100
AcDbEntity
  8
SEIHIN
  6
CONTINUOUS
 62
     3
 48
16.0
100
AcDbCircle
 10
342.6152787068466
 20
188.9167812870316
 30
0.0
 40
4.999999512499991
100
AcDbArc
 50
188.8553201291488
 51
269.9999934759336
  0
ARC
  5
3C4
330
1A
100
AcDbEntity
  8
SEIHIN
  6
CONTINUOUS
 62
     3
 48
16.0
100
AcDbCircle
 10
328.7821579334706
 20
186.7615047900003
 30
0.0
 40
12.19997457457788
100
AcDbArc
 50
7.042937452311937
 51
75.51314301765884
  0
ARC
  5
3C5
330
1A
100
AcDbEntity
  8
SEIHIN
  6
CONTINUOUS
 62
     3
 48
16.0
100
AcDbCircle
 10
328.7821735370915
 20
186.7614869658711
 30
0.0
 40
12.99998939865037
100
AcDbArc
 50
8.85611193388512
 51
74.23680372393802
  0
ARC
  5
3C6
330
1A
100
AcDbEntity
  8
SEIHIN
  6
CONTINUOUS
 62
     3
 48
16.0
100
AcDbCircle
 10
328.7821823493402
 20
186.7614770599957
 30
0.0
 40
8.999981205258936
100
AcDbArc
 50
8.855631650214338
 51
74.69773417452515
  0
ARC
  5
3C7
330
1A
100
AcDbEntity
  8
SEIHIN
  6
CONTINUOUS
 62
     3
 48
16.0
100
AcDbCircle
 10
332.1593097639663
 20
199.8322486804628
 30
0.0
 40
1.300006919570292
100
AcDbArc
 50
191.8864896219361
 51
255.5120229390784
  0
ARC
  5
3C8
330
1A
100
AcDbEntity
  8
SEIHIN
  6
CONTINUOUS
 62
     3
 48
16.0
100
AcDbCircle
 10
332.5854585801159
 20
200.2350027024466
 30
0.0
 40
1.000032152173499
100
AcDbArc
 50
191.8888818863373
 51
254.2362325537057
  0
ARC
  5
3C9
330
1A
100
AcDbEntity
  8
SEIHIN
  6
CONTINUOUS
 62
     3
 48
16.0
100
AcDbCircle
 10
332.4768848654883
 20
200.2651746332855
 30
0.0
 40
4.999946441217532
100
AcDbArc
 50
191.8880899322046
 51
254.6981512804594
  0
LINE
  5
3CA
330
1A
100
AcDbEntity
  8
SEIHIN
  6
CONTINUOUS
 62
     3
 48
16.0
100
AcDbLine
 10
369.9202781375145
 20
182.3167817745316
 30
0.0
 11
380.0622267954798
 21
182.3167817745316
 31
0.0
  0
LINE
  5
3CB
330
1A
100
AcDbEntity
  8
SEIHIN
  6
CONTINUOUS
 62
     3
 48
16.0
100
AcDbLine
 10
368.0260781375144
 20
186.3451817745317
 30
0.0
 11
383.8398781375143
 21
186.3451817745317
 31
0.0
  0
LINE
  5
3CC
330
1A
100
AcDbEntity
  8
SEIHIN
  6
CONTINUOUS
 62
     3
 48
16.0
100
AcDbLine
 10
368.0260781375144
 20
183.5474817745316
 30
0.0
 11
368.0260781375144
 21
186.3451817745317
 31
0.0
  0
LINE
  5
3CD
330
1A
100
AcDbEntity
  8
SEIHIN
  6
CONTINUOUS
 62
     3
 48
16.0
100
AcDbLine
 10
369.9202781375145
 20
182.3167817745316
 30
0.0
 11
368.0260781375144
 21
183.5474817745316
 31
0.0
  0
ARC
  5
3CE
330
1A
100
AcDbEntity
  8
SEIHIN
  6
CONTINUOUS
 62
     3
 48
16.0
100
AcDbCircle
 10
383.8398531508811
 20
181.3452032421237
 30
0.0
 40
4.999978532470367
100
AcDbArc
 50
8.663805950017948
 51
89.99971367304558
  0
ARC
  5
3D2
330
1A
100
AcDbEntity
  8
SEIHIN
  6
CONTINUOUS
 62
     3
 48
16.0
100
AcDbCircle
 10
325.5689781375146
 20
352.9166817745317
 30
0.0
 40
2.5
100
AcDbArc
 50
90.0
 51
270.0
  0
ARC
  5
3D3
330
1A
100
AcDbEntity
  8
SEIHIN
  6
CONTINUOUS
 62
     3
 48
16.0
100
AcDbCircle
 10
325.5689781375146
 20
342.9167817745316
 30
0.0
 40
2.500000000000085
100
AcDbArc
 50
90.0
 51
270.0
  0
LINE
  5
3D4
330
1A
100
AcDbEntity
  8
CENTER_L
  6
CENTER
 62
     1
 48
5.0
100
AcDbLine
 10
375.7358781375145
 20
347.9166817745317
 30
0.0
 11
311.9021781375145
 21
347.9167817745317
 31
0.0
  0
LINE
  5
3D5
330
1A
100
AcDbEntity
  8
SEIHIN
  6
CONTINUOUS
 62
     3
 48
16.0
100
AcDbLine
 10
331.6069781375144
 20
336.9166817745317
 30
0.0
 11
318.7358781375146
 21
336.9167817745315
 31
0.0
  0
LINE
  5
3D6
330
1A
100
AcDbEntity
  8
SEIHIN
  6
CONTINUOUS
 62
     3
 48
16.0
100
AcDbLine
 10
331.6069781375144
 20
358.9166817745317
 30
0.0
 11
318.7358781375146
 21
358.9166817745317
 31
0.0
  0
LINE
  5
3D7
330
1A
100
AcDbEntity
  8
SEIHIN
  6
CONTINUOUS
 62
     3
 48
16.0
100
AcDbLine
 10
318.7358781375146
 20
347.9167817745317
 30
0.0
 11
318.7358781375146
 21
360.4166817745317
 31
0.0
  0
LINE
  5
3D8
330
1A
100
AcDbEntity
  8
SEIHIN
  6
CONTINUOUS
 62
     3
 48
16.0
100
AcDbLine
 10
317.9358781375146
 20
360.4166817745317
 30
0.0
 11
317.9358781375146
 21
347.9167817745317
 31
0.0
  0
LINE
  5
3DC
330
1A
100
AcDbEntity
  8
SEIHIN
  6
CONTINUOUS
 62
     3
 48
16.0
100
AcDbLine
 10
317.9358781375146
 20
335.4166817745317
 30
0.0
 11
317.9358781375146
 21
347.9165817745315
 31
0.0
  0
LINE
  5
3DD
330
1A
100
AcDbEntity
  8
SEIHIN
  6
CONTINUOUS
 62
     3
 48
16.0
100
AcDbLine
 10
318.7358781375146
 20
347.9166817745317
 30
0.0
 11
318.7358781375146
 21
335.4166817745317
 31
0.0
  0
LINE
  5
3DE
330
1A
100
AcDbEntity
  8
SEIHIN
  6
CONTINUOUS
 62
     3
 48
16.0
100
AcDbLine
 10
318.7358781375146
 20
335.4167817745317
 30
0.0
 11
317.9358781375146
 21
335.4167817745317
 31
0.0
  0
LINE
  5
3DF
330
1A
100
AcDbEntity
  8
SEIHIN
  6
CONTINUOUS
 62
     3
 48
16.0
100
AcDbLine
 10
318.7358781375146
 20
360.4166817745317
 30
0.0
 11
317.9358781375146
 21
360.4166817745317
 31
0.0
  0
ARC
  5
3E0
330
1A
100
AcDbEntity
  8
SEIHIN
  6
CONTINUOUS
 62
     3
 48
16.0
100
AcDbCircle
 10
375.7358781375145
 20
347.9166817745317
 30
0.0
 40
5.0
100
AcDbArc
 50
0.0
 51
180.0
  0
LINE
  5
3E1
330
1A
100
AcDbEntity
  8
SEIHIN
  6
CONTINUOUS
 62
     3
 48
16.0
100
AcDbLine
 10
342.6153781375144
 20
350.4166817745317
 30
0.0
 11
342.6153781375144
 21
347.9166817745317
 31
0.0
  0
LINE
  5
3E2
330
1A
100
AcDbEntity
  8
SEIHIN
  6
CONTINUOUS
 62
     3
 48
16.0
100
AcDbLine
 10
331.6069781375144
 20
350.4166817745317
 30
0.0
 11
331.6069781375144
 21
347.9166817745317
 31
0.0
  0
LINE
  5
3E3
330
1A
100
AcDbEntity
  8
SEIHIN
  6
CONTINUOUS
 62
     3
 48
16.0
100
AcDbLine
 10
326.2689781375145
 20
350.4166817745317
 30
0.0
 11
326.2689781375145
 21
347.9166817745317
 31
0.0
  0
LINE
  5
3E4
330
1A
100
AcDbEntity
  8
CENTER_L
  6
CENTER
 62
     1
 48
5.0
100
AcDbLine
 10
375.7358781375145
 20
330.4382817745317
 30
0.0
 11
375.7358781375145
 21
364.5966817745317
 31
0.0
  0
LINE
  5
3E5
330
1A
100
AcDbEntity
  8
SEIHIN
  6
CONTINUOUS
 62
     3
 48
16.0
100
AcDbLine
 10
375.7358781375145
 20
336.9166817745317
 30
0.0
 11
342.6153781375144
 21
336.9166817745317
 31
0.0
  0
LINE
  5
3E6
330
1A
100
AcDbEntity
  8
SEIHIN
  6
CONTINUOUS
 62
     3
 48
16.0
100
AcDbLine
 10
369.1975781375144
 20
345.4166817745317
 30
0.0
 11
325.5689781375146
 21
345.4167817745317
 31
0.0
  0
LINE
  5
3E7
330
1A
100
AcDbEntity
  8
SEIHIN
  6
CONTINUOUS
 62
     3
 48
16.0
100
AcDbLine
 10
375.7358781375145
 20
340.4166817745317
 30
0.0
 11
325.5689781375146
 21
340.4167817745315
 31
0.0
  0
ARC
  5
3E8
330
1A
100
AcDbEntity
  8
SEIHIN
  6
CONTINUOUS
 62
     3
 48
16.0
100
AcDbCircle
 10
337.1111781375144
 20
307.5436817745317
 30
0.0
 40
29.88426587085582
100
AcDbArc
 50
79.38644552492009
 51
100.6135544750799
  0
LINE
  5
3E9
330
1A
100
AcDbEntity
  8
SEIHIN
  6
CONTINUOUS
 62
     3
 48
16.0
100
AcDbLine
 10
331.6069781375144
 20
336.9166817745317
 30
0.0
 11
331.6069781375144
 21
340.4166817745317
 31
0.0
  0
LINE
  5
3EA
330
1A
100
AcDbEntity
  8
SEIHIN
  6
CONTINUOUS
 62
     3
 48
16.0
100
AcDbLine
 10
326.2689781375145
 20
336.9166817745317
 30
0.0
 11
326.2689781375145
 21
340.4166817745317
 31
0.0
  0
LINE
  5
3EB
330
1A
100
AcDbEntity
  8
SEIHIN
  6
CONTINUOUS
 62
     3
 48
16.0
100
AcDbLine
 10
331.6069781375144
 20
345.4166817745317
 30
0.0
 11
331.6069781375144
 21
347.9166817745317
 31
0.0
  0
LINE
  5
3EC
330
1A
100
AcDbEntity
  8
SEIHIN
  6
CONTINUOUS
 62
     3
 48
16.0
100
AcDbLine
 10
326.2689781375145
 20
345.4166817745317
 30
0.0
 11
326.2689781375145
 21
347.9166817745317
 31
0.0
  0
LINE
  5
3ED
330
1A
100
AcDbEntity
  8
SEIHIN
  6
CONTINUOUS
 62
     3
 48
16.0
100
AcDbLine
 10
342.6153781375144
 20
336.9166817745317
 30
0.0
 11
342.6153781375144
 21
340.4166817745317
 31
0.0
  0
LINE
  5
3EE
330
1A
100
AcDbEntity
  8
SEIHIN
  6
CONTINUOUS
 62
     3
 48
16.0
100
AcDbLine
 10
342.6153781375144
 20
345.4166817745317
 30
0.0
 11
342.6153781375144
 21
347.9166817745317
 31
0.0
  0
ARC
  5
3EF
330
1A
100
AcDbEntity
  8
SEIHIN
  6
CONTINUOUS
 62
     3
 48
16.0
100
AcDbCircle
 10
375.7358781375145
 20
347.9166817745317
 30
0.0
 40
5.0
100
AcDbArc
 50
180.0
 51
0.0
  0
ARC
  5
3F0
330
1A
100
AcDbEntity
  8
SEIHIN
  6
CONTINUOUS
 62
     3
 48
16.0
100
AcDbCircle
 10
375.7358781375145
 20
347.9166817745317
 30
0.0
 40
6.999954777711145
100
AcDbArc
 50
200.9249739588067
 51
339.0750260411932
  0
LINE
  5
3F1
330
1A
100
AcDbEntity
  8
SEIHIN
  6
CONTINUOUS
 62
     3
 48
16.0
100
AcDbLine
 10
375.7358781375145
 20
358.9167817745317
 30
0.0
 11
342.6153781375144
 21
358.9166817745317
 31
0.0
  0
LINE
  5
3F2
330
1A
100
AcDbEntity
  8
SEIHIN
  6
CONTINUOUS
 62
     3
 48
16.0
100
AcDbLine
 10
369.1975781375144
 20
350.4166817745317
 30
0.0
 11
325.5689781375146
 21
350.4166817745317
 31
0.0
  0
LINE
  5
3F3
330
1A
100
AcDbEntity
  8
SEIHIN
  6
CONTINUOUS
 62
     3
 48
16.0
100
AcDbLine
 10
375.7358781375145
 20
355.4167817745315
 30
0.0
 11
325.5689781375146
 21
355.4166817745317
 31
0.0
  0
ARC
  5
3F4
330
1A
100
AcDbEntity
  8
SEIHIN
  6
CONTINUOUS
 62
     3
 48
16.0
100
AcDbCircle
 10
337.1111281375144
 20
388.2897817746139
 30
0.0
 40
29.88425666178313
100
AcDbArc
 50
259.3865397477245
 51
280.6134602522754
  0
LINE
  5
3F5
330
1A
100
AcDbEntity
  8
SEIHIN
  6
CONTINUOUS
 62
     3
 48
16.0
100
AcDbLine
 10
331.6069781375144
 20
358.9166817745317
 30
0.0
 11
331.6069781375144
 21
355.4166817745317
 31
0.0
  0
LINE
  5
3F6
330
1A
100
AcDbEntity
  8
SEIHIN
  6
CONTINUOUS
 62
     3
 48
16.0
100
AcDbLine
 10
326.2689781375145
 20
358.9166817745317
 30
0.0
 11
326.2689781375145
 21
355.4166817745317
 31
0.0
  0
LINE
  5
3F7
330
1A
100
AcDbEntity
  8
SEIHIN
  6
CONTINUOUS
 62
     3
 48
16.0
100
AcDbLine
 10
342.6153781375144
 20
358.9166817745317
 30
0.0
 11
342.6153781375144
 21
355.4166817745317
 31
0.0
  0
ARC
  5
3F8
330
1A
100
AcDbEntity
  8
SEIHIN
  6
CONTINUOUS
 62
     3
 48
16.0
100
AcDbCircle
 10
375.7358781375145
 20
347.9166817745317
 30
0.0
 40
6.999990492850755
100
AcDbArc
 50
20.92573848926407
 51
159.0742615107359
  0
LINE
  5
3FA
330
1A
100
AcDbEntity
  8
SEIHIN
  6
CONTINUOUS
 62
     3
 48
16.0
100
AcDbLine
 10
632.2866883770323
 20
216.2134817745317
 30
0.0
 11
627.834588377032
 21
214.2134817745317
 31
0.0
  0
LINE
  5
3FB
330
1A
100
AcDbEntity
  8
SEIHIN
  6
CONTINUOUS
 62
     3
 48
16.0
100
AcDbLine
 10
627.834588377032
 20
214.2134817745317
 30
0.0
 11
632.2866883770323
 21
212.2134817745317
 31
0.0
  0
LINE
  5
3FD
330
1A
100
AcDbEntity
  8
SEIHIN
  6
CONTINUOUS
 62
     3
 48
16.0
100
AcDbLine
 10
632.2866883770323
 20
196.2134817745317
 30
0.0
 11
627.834588377032
 21
194.2134817745317
 31
0.0
  0
LINE
  5
3FE
330
1A
100
AcDbEntity
  8
SEIHIN
  6
CONTINUOUS
 62
     3
 48
16.0
100
AcDbLine
 10
627.834588377032
 20
194.2134817745317
 30
0.0
 11
632.2866883770323
 21
192.2134817745317
 31
0.0
  0
LINE
  5
3FF
330
1A
100
AcDbEntity
  8
SEIHIN
  6
CONTINUOUS
 62
     3
 48
16.0
100
AcDbLine
 10
641.0916883770322
 20
189.2134817745317
 30
0.0
 11
614.3366883770323
 21
189.2134817745317
 31
0.0
  0
LINE
  5
403
330
1A
100
AcDbEntity
  8
SEIHIN
  6
CONTINUOUS
 62
     3
 48
16.0
100
AcDbLine
 10
430.4733781375144
 20
219.9984817745317
 30
0.0
 11
420.7030781375145
 21
170.5586817745316
 31
0.0
  0
LINE
  5
404
330
1A
100
AcDbEntity
  8
SEIHIN
  6
CONTINUOUS
 62
     3
 48
16.0
100
AcDbLine
 10
426.0787781375145
 20
220.9661817745316
 30
0.0
 11
417.0436781375145
 21
175.2465817745316
 31
0.0
  0
LINE
  5
405
330
1A
100
AcDbEntity
  8
SEIHIN
  6
CONTINUOUS
 62
     3
 48
16.0
100
AcDbLine
 10
412.1747781375145
 20
171.3839817745317
 30
0.0
 11
394.7112781375143
 21
171.3839817745317
 31
0.0
  0
LINE
  5
406
330
1A
100
AcDbEntity
  8
SEIHIN
  6
CONTINUOUS
 62
     3
 48
16.0
100
AcDbLine
 10
415.7979781375146
 20
166.5280817745317
 30
0.0
 11
390.9276781375146
 21
166.5280817745317
 31
0.0
  0
ARC
  5
407
330
1A
100
AcDbEntity
  8
SEIHIN
  6
CONTINUOUS
 62
     3
 48
16.0
100
AcDbCircle
 10
415.7979624610366
 20
171.5280688929985
 30
0.0
 40
4.999987118491366
100
AcDbArc
 50
270.0001796396678
 51
348.8208175552967
  0
ARC
  5
408
330
1A
100
AcDbEntity
  8
SEIHIN
  6
CONTINUOUS
 62
     3
 48
16.0
100
AcDbCircle
 10
412.1747696900724
 20
176.3839750730227
 30
0.0
 40
4.999993298498113
100
AcDbArc
 50
270.0000968006863
 51
346.8513068508602
  0
LINE
  5
40A
330
1A
100
AcDbEntity
  8
SEIHIN
  6
CONTINUOUS
 62
     3
 48
16.0
100
AcDbLine
 10
432.7357781375144
 20
240.7651817745317
 30
0.0
 11
432.7357781375144
 21
226.9167817745316
 31
0.0
  0
LINE
  5
40B
330
1A
100
AcDbEntity
  8
SEIHIN
  6
CONTINUOUS
 62
     3
 48
16.0
100
AcDbLine
 10
433.5357781375144
 20
240.7651817745317
 30
0.0
 11
433.5357781375144
 21
226.9167817745316
 31
0.0
  0
LINE
  5
40D
330
1A
100
AcDbEntity
  8
SEIHIN
  6
CONTINUOUS
 62
     3
 48
16.0
100
AcDbLine
 10
419.8646781375144
 20
200.0289817745317
 30
0.0
 11
425.2026781375145
 21
225.3845817745317
 31
0.0
  0
LINE
  5
40E
330
1A
100
AcDbEntity
  8
SEIHIN
  6
CONTINUOUS
 62
     3
 48
16.0
100
AcDbLine
 10
420.5844781375145
 20
199.5644817745317
 30
0.0
 11
425.9854781375145
 21
225.2197817745316
 31
0.0
  0
ARC
  5
40F
330
1A
100
AcDbEntity
  8
SEIHIN
  6
CONTINUOUS
 62
     3
 48
16.0
100
AcDbCircle
 10
422.6894644894998
 20
186.7614664977008
 30
0.0
 40
8.999988902780431
100
AcDbArc
 50
105.3021901366663
 51
171.1436636300561
  0
ARC
  5
410
330
1A
100
AcDbEntity
  8
SEIHIN
  6
CONTINUOUS
 62
     3
 48
16.0
100
AcDbCircle
 10
422.6894401520499
 20
186.7614385032852
 30
0.0
 40
12.20002419736196
100
AcDbArc
 50
104.4865145161784
 51
172.9567776659507
  0
ARC
  5
411
330
1A
100
AcDbEntity
  8
SEIHIN
  6
CONTINUOUS
 62
     3
 48
16.0
100
AcDbCircle
 10
422.689422071269
 20
186.7614185065963
 30
0.0
 40
13.00003880274885
100
AcDbArc
 50
105.762856984912
 51
171.1436166277192
  0
ARC
  5
412
330
1A
100
AcDbEntity
  8
SEIHIN
  6
CONTINUOUS
 62
     3
 48
16.0
100
AcDbCircle
 10
409.2912834451979
 20
188.4167864668225
 30
0.0
 40
1.300004692301633
100
AcDbArc
 50
269.9997660717162
 51
352.9567491604564
  0
ARC
  5
413
330
1A
100
AcDbEntity
  8
SEIHIN
  6
CONTINUOUS
 62
     3
 48
16.0
100
AcDbCircle
 10
408.8562949583428
 20
188.9167961768243
 30
0.0
 40
1.000014402434152
100
AcDbArc
 50
269.9990362514071
 51
351.1404893237372
  0
ARC
  5
414
330
1A
100
AcDbEntity
  8
SEIHIN
  6
CONTINUOUS
 62
     3
 48
16.0
100
AcDbCircle
 10
408.8562865579464
 20
188.9167889845213
 30
0.0
 40
5.000007209996794
100
AcDbArc
 50
269.9999035090963
 51
351.1434446026492
  0
ARC
  5
415
330
1A
100
AcDbEntity
  8
SEIHIN
  6
CONTINUOUS
 62
     3
 48
16.0
100
AcDbCircle
 10
418.8861510733424
 20
200.2349528171853
 30
0.0
 40
0.9999696424036439
100
AcDbArc
 50
285.7616005428545
 51
348.1132850171158
  0
ARC
  5
416
330
1A
100
AcDbEntity
  8
SEIHIN
  6
CONTINUOUS
 62
     3
 48
16.0
100
AcDbCircle
 10
419.3123106366505
 20
199.8323157823208
 30
0.0
 40
1.300055847255394
100
AcDbArc
 50
284.484500954752
 51
348.1109421453334
  0
ARC
  5
417
330
1A
100
AcDbEntity
  8
SEIHIN
  6
CONTINUOUS
 62
     3
 48
16.0
100
AcDbCircle
 10
418.9946827518843
 20
200.2651834580542
 30
0.0
 40
4.999978350955865
100
AcDbArc
 50
285.3028019621686
 51
294.7854089329347
  0
LINE
  5
418
330
1A
100
AcDbEntity
  8
SEIHIN
  6
CONTINUOUS
 62
     3
 48
16.0
100
AcDbLine
 10
442.5357781375144
 20
189.2134817745317
 30
0.0
 11
442.5357781375144
 21
220.1020817745316
 31
0.0
  0
LINE
  5
419
330
1A
100
AcDbEntity
  8
SEIHIN
  6
CONTINUOUS
 62
     3
 48
16.0
100
AcDbLine
 10
437.6838781375144
 20
189.2134817745317
 30
0.0
 11
437.6838781375144
 21
219.6107817745317
 31
0.0
  0
LINE
  5
41A
330
1A
100
AcDbEntity
  8
SEIHIN
  6
CONTINUOUS
 62
     3
 48
16.0
100
AcDbLine
 10
441.2994781375143
 20
220.0821757809987
 30
0.0
 11
441.2994781375143
 21
189.2134817745317
 31
0.0
  0
LINE
  5
41B
330
1A
100
AcDbEntity
  8
SEIHIN
  6
CONTINUOUS
 62
     3
 48
16.0
100
AcDbLine
 10
442.5357781375144
 20
189.2134817745317
 30
0.0
 11
437.6838781375144
 21
189.2134817745317
 31
0.0
  0
LINE
  5
41C
330
1A
100
AcDbEntity
  8
CENTER_L
  6
CENTER
 62
     1
 48
5.0
100
AcDbLine
 10
449.5358781375143
 20
194.2134817745317
 30
0.0
 11
434.4970781375144
 21
194.2134817745317
 31
0.0
  0
LINE
  5
41D
330
1A
100
AcDbEntity
  8
SEIHIN
  6
CONTINUOUS
 62
     3
 48
16.0
100
AcDbLine
 10
439.2994781375145
 20
194.2134817745317
 30
0.0
 11
441.2994781375143
 21
192.2134817745317
 31
0.0
  0
LINE
  5
41E
330
1A
100
AcDbEntity
  8
SEIHIN
  6
CONTINUOUS
 62
     3
 48
16.0
100
AcDbLine
 10
439.2994781375145
 20
194.2134817745317
 30
0.0
 11
441.2994781375143
 21
196.2134817745317
 31
0.0
  0
LINE
  5
41F
330
1A
100
AcDbEntity
  8
CENTER_L
  6
CENTER
 62
     1
 48
5.0
100
AcDbLine
 10
449.5358781375143
 20
214.2136817745316
 30
0.0
 11
434.4970781375144
 21
214.2136817745316
 31
0.0
  0
LINE
  5
420
330
1A
100
AcDbEntity
  8
SEIHIN
  6
CONTINUOUS
 62
     3
 48
16.0
100
AcDbLine
 10
439.2994781375145
 20
214.2136817745316
 30
0.0
 11
441.2994781375143
 21
212.2136817745316
 31
0.0
  0
LINE
  5
421
330
1A
100
AcDbEntity
  8
SEIHIN
  6
CONTINUOUS
 62
     3
 48
16.0
100
AcDbLine
 10
439.2994781375145
 20
214.2136817745316
 30
0.0
 11
441.2994781375143
 21
216.2136817745316
 31
0.0
  0
ARC
  5
422
330
1A
100
AcDbEntity
  8
SEIHIN
  6
CONTINUOUS
 62
     3
 48
16.0
100
AcDbCircle
 10
437.5358057086664
 20
220.1020546426779
 30
0.0
 40
4.999972428921553
100
AcDbArc
 50
0.0003109098558062
 51
90.92053083851263
  0
LINE
  5
424
330
1A
100
AcDbEntity
  8
SEIHIN
  6
CONTINUOUS
 62
     3
 48
16.0
100
AcDbLine
 10
437.4554780557796
 20
225.1013817732192
 30
0.0
 11
430.9036781375145
 21
224.9961817745317
 31
0.0
  0
LINE
  5
425
330
1A
100
AcDbEntity
  8
SEIHIN
  6
CONTINUOUS
 62
     3
 48
16.0
100
AcDbLine
 10
426.4747781375145
 20
226.4167817745317
 30
0.0
 11
432.2357781375144
 21
226.4167817745317
 31
0.0
  0
LINE
  5
426
330
1A
100
AcDbEntity
  8
SEIHIN
  6
CONTINUOUS
 62
     3
 48
16.0
100
AcDbLine
 10
426.4747781375145
 20
225.6167817745317
 30
0.0
 11
432.2357781375144
 21
225.6167817745317
 31
0.0
  0
ARC
  5
427
330
1A
100
AcDbEntity
  8
SEIHIN
  6
CONTINUOUS
 62
     3
 48
16.0
100
AcDbCircle
 10
432.4354556701652
 20
219.6107633122021
 30
0.0
 40
2.000018462455843
100
AcDbArc
 50
89.99935636379374
 51
168.8220137568857
  0
LINE
  5
428
330
1A
100
AcDbEntity
  8
SEIHIN
  6
CONTINUOUS
 62
     3
 48
16.0
100
AcDbLine
 10
429.2452781375144
 20
224.6847817745317
 30
0.0
 11
429.4414781375145
 21
225.6167817745317
 31
0.0
  0
ARC
  5
429
330
1A
100
AcDbEntity
  8
SEIHIN
  6
CONTINUOUS
 62
     3
 48
16.0
100
AcDbCircle
 10
426.4747636630724
 20
225.1167700298075
 30
0.0
 40
0.5000117449336631
100
AcDbArc
 50
89.99834139007605
 51
168.1108636481084
  0
ARC
  5
42A
330
1A
100
AcDbEntity
  8
SEIHIN
  6
CONTINUOUS
 62
     3
 48
16.0
100
AcDbCircle
 10
426.474788743651
 20
225.1167903803578
 30
0.0
 40
1.299991394217085
100
AcDbArc
 50
90.00046745452271
 51
168.1122634028694
  0
ARC
  5
42B
330
1A
100
AcDbEntity
  8
SEIHIN
  6
CONTINUOUS
 62
     3
 48
16.0
100
AcDbCircle
 10
430.9840212391661
 20
219.9968177753135
 30
0.0
 40
5.000009541057125
100
AcDbArc
 50
90.92070199441675
 51
168.8211383848316
  0
ARC
  5
42C
330
1A
100
AcDbEntity
  8
SEIHIN
  6
CONTINUOUS
 62
     3
 48
16.0
100
AcDbCircle
 10
432.2357781375144
 20
226.9167817745317
 30
0.0
 40
1.299999999999982
100
AcDbArc
 50
269.9999999999987
 51
359.9999999999987
  0
ARC
  5
42D
330
1A
100
AcDbEntity
  8
SEIHIN
  6
CONTINUOUS
 62
     3
 48
16.0
100
AcDbCircle
 10
432.2357781375144
 20
226.9167817745317
 30
0.0
 40
0.4999999999999716
100
AcDbArc
 50
269.9999999999967
 51
359.9999999999967
  0
LINE
  5
42E
330
1A
100
AcDbEntity
  8
SEIHIN
  6
CONTINUOUS
 62
     3
 48
16.0
100
AcDbLine
 10
435.6838781375145
 20
221.6107817745317
 30
0.0
 11
432.4354781375145
 21
221.6107817745317
 31
0.0
  0
ARC
  5
42F
330
1A
100
AcDbEntity
  8
SEIHIN
  6
CONTINUOUS
 62
     3
 48
16.0
100
AcDbCircle
 10
435.6838781375144
 20
219.6107817745318
 30
0.0
 40
1.999999999999914
100
AcDbArc
 50
359.9999999999975
 51
89.99999999999756
  0
LINE
  5
430
330
1A
100
AcDbEntity
  8
SEIHIN
  6
CONTINUOUS
 62
     3
 48
16.0
100
AcDbLine
 10
441.2994781375143
 20
219.2134817745317
 30
0.0
 11
442.5357781375144
 21
219.2134817745316
 31
0.0
  0
LINE
  5
431
330
1A
100
AcDbEntity
  8
SEIHIN
  6
CONTINUOUS
 62
     3
 48
16.0
100
AcDbLine
 10
423.5328781375145
 20
237.1254817745316
 30
0.0
 11
432.7357781375144
 21
241.4167817745317
 31
0.0
  0
LINE
  5
432
330
1A
100
AcDbEntity
  8
SEIHIN
  6
CONTINUOUS
 62
     3
 48
16.0
100
AcDbLine
 10
431.8993781375145
 20
242.0208817745317
 30
0.0
 11
422.8694781375145
 21
239.6013817745317
 31
0.0
  0
LINE
  5
433
330
1A
100
AcDbEntity
  8
SEIHIN
  6
CONTINUOUS
 62
     3
 48
16.0
100
AcDbLine
 10
423.0765781375144
 20
238.8285817745317
 30
0.0
 11
432.1063781375145
 21
241.2480817745316
 31
0.0
  0
LINE
  5
434
330
1A
100
AcDbEntity
  8
SEIHIN
  6
CONTINUOUS
 62
     3
 48
16.0
100
AcDbLine
 10
422.8694781375145
 20
239.6013817745317
 30
0.0
 11
423.5328781375145
 21
237.1254817745316
 31
0.0
  0
ARC
  5
436
330
1A
100
AcDbEntity
  8
SEIHIN
  6
CONTINUOUS
 62
     3
 48
16.0
100
AcDbCircle
 10
432.2357882433622
 20
240.7651740196615
 30
0.0
 40
1.299989894175263
100
AcDbArc
 50
0.0003417883011339
 51
104.9976256188562
  0
ARC
  5
437
330
1A
100
AcDbEntity
  8
SEIHIN
  6
CONTINUOUS
 62
     3
 48
16.0
100
AcDbCircle
 10
432.2357614580709
 20
240.7651945736171
 30
0.0
 40
0.5000166796073015
100
AcDbArc
 50
359.9985333817786
 51
104.9963795636715
  0
LINE
  5
44D
330
1A
100
AcDbEntity
  8
SEIHIN
  6
CONTINUOUS
 62
     3
 48
16.0
100
AcDbLine
 10
612.3366883770322
 20
191.2134817745317
 30
0.0
 11
612.3366883770322
 21
217.2134817745316
 31
0.0
  0
LINE
  5
44F
330
1A
100
AcDbEntity
  8
CENTER_L
  6
CENTER
 62
     1
 48
5.0
100
AcDbLine
 10
621.3682883770323
 20
194.2134817745317
 30
0.0
 11
613.5268883770322
 21
194.2134817745317
 31
0.0
  0
ARC
  5
450
330
1A
100
AcDbEntity
  8
SEIHIN
  6
CONTINUOUS
 62
     3
 48
16.0
100
AcDbCircle
 10
614.3366883770323
 20
191.2134817745317
 30
0.0
 40
2.0
100
AcDbArc
 50
180.0
 51
270.0
  0
LINE
  5
452
330
1A
100
AcDbEntity
  8
CENTER_L
  6
CENTER
 62
     1
 48
5.0
100
AcDbLine
 10
617.3366883770322
 20
190.0917817745317
 30
0.0
 11
617.3366883770322
 21
198.4937817745317
 31
0.0
  0
ARC
  5
453
330
1A
100
AcDbEntity
  8
SEIHIN
  6
CONTINUOUS
 62
     3
 48
16.0
100
AcDbCircle
 10
617.336688377032
 20
194.2134817745317
 30
0.0
 40
2.0
100
AcDbArc
 50
180.0
 51
0.0
  0
ARC
  5
456
330
1A
100
AcDbEntity
  8
SEIHIN
  6
CONTINUOUS
 62
     3
 48
16.0
100
AcDbCircle
 10
617.336688377032
 20
194.2134817745317
 30
0.0
 40
2.0
100
AcDbArc
 50
0.0
 51
180.0
  0
ARC
  5
457
330
1A
100
AcDbEntity
  8
SEIHIN
  6
CONTINUOUS
 62
     3
 48
16.0
100
AcDbCircle
 10
614.3366883770323
 20
217.2134817745316
 30
0.0
 40
2.0
100
AcDbArc
 50
90.0
 51
180.0
  0
LINE
  5
458
330
1A
100
AcDbEntity
  8
CENTER_L
  6
CENTER
 62
     1
 48
5.0
100
AcDbLine
 10
622.1824883770323
 20
214.2134817745317
 30
0.0
 11
613.8345883770321
 21
214.2134817745317
 31
0.0
  0
ARC
  5
45A
330
1A
100
AcDbEntity
  8
SEIHIN
  6
CONTINUOUS
 62
     3
 48
16.0
100
AcDbCircle
 10
617.336688377032
 20
214.2134817745317
 30
0.0
 40
2.0
100
AcDbArc
 50
0.0
 51
180.0
  0
LINE
  5
45B
330
1A
100
AcDbEntity
  8
CENTER_L
  6
CENTER
 62
     1
 48
5.0
100
AcDbLine
 10
617.3366883770322
 20
208.3433817745316
 30
0.0
 11
617.3366883770322
 21
217.4383817745317
 31
0.0
  0
ARC
  5
45C
330
1A
100
AcDbEntity
  8
SEIHIN
  6
CONTINUOUS
 62
     3
 48
16.0
100
AcDbCircle
 10
617.336688377032
 20
214.2134817745317
 30
0.0
 40
2.0
100
AcDbArc
 50
180.0
 51
0.0
  0
LINE
  5
45D
330
1A
100
AcDbEntity
  8
SEIHIN
  6
CONTINUOUS
 62
     3
 48
16.0
100
AcDbLine
 10
630.2867798055956
 20
219.2134817745316
 30
0.0
 11
614.3366883770323
 21
219.2134817745316
 31
0.0
  0
LINE
  5
463
330
1A
100
AcDbEntity
  8
CENTER_L
  6
CENTER
 62
     1
 48
5.0
100
AcDbLine
 10
641.0916883770322
 20
184.5049817745316
 30
0.0
 11
641.0916883770322
 21
228.6468817745316
 31
0.0
  0
LINE
  5
465
330
1A
100
AcDbEntity
  8
CENTER_L
  6
CENTER
 62
     1
 48
5.0
100
AcDbLine
 10
660.0008883770321
 20
214.2134817745317
 30
0.0
 11
668.1829883770322
 21
214.2134817745317
 31
0.0
  0
ARC
  5
466
330
1A
100
AcDbEntity
  8
SEIHIN
  6
CONTINUOUS
 62
     3
 48
16.0
100
AcDbCircle
 10
664.846688377032
 20
214.2134817745317
 30
0.0
 40
2.0
100
AcDbArc
 50
0.0
 51
180.0
  0
ARC
  5
467
330
1A
100
AcDbEntity
  8
SEIHIN
  6
CONTINUOUS
 62
     3
 48
16.0
100
AcDbCircle
 10
664.846688377032
 20
214.2134817745317
 30
0.0
 40
2.0
100
AcDbArc
 50
180.0
 51
0.0
  0
LINE
  5
468
330
1A
100
AcDbEntity
  8
SEIHIN
  6
CONTINUOUS
 62
     3
 48
16.0
100
AcDbLine
 10
651.8966883770319
 20
219.2134817745317
 30
0.0
 11
667.846688377032
 21
219.2134817745316
 31
0.0
  0
LINE
  5
469
330
1A
100
AcDbEntity
  8
CENTER_L
  6
CENTER
 62
     1
 48
5.0
100
AcDbLine
 10
660.8151883770322
 20
194.2134817745317
 30
0.0
 11
668.3344883770323
 21
194.2134817745317
 31
0.0
  0
ARC
  5
46A
330
1A
100
AcDbEntity
  8
SEIHIN
  6
CONTINUOUS
 62
     3
 48
16.0
100
AcDbCircle
 10
664.846688377032
 20
194.2134817745317
 30
0.0
 40
2.0
100
AcDbArc
 50
0.0
 51
180.0
  0
ARC
  5
46B
330
1A
100
AcDbEntity
  8
SEIHIN
  6
CONTINUOUS
 62
     3
 48
16.0
100
AcDbCircle
 10
664.846688377032
 20
194.2134817745317
 30
0.0
 40
2.0
100
AcDbArc
 50
180.0
 51
0.0
  0
LINE
  5
46C
330
1A
100
AcDbEntity
  8
SEIHIN
  6
CONTINUOUS
 62
     3
 48
16.0
100
AcDbLine
 10
641.0916883770322
 20
189.2134817745317
 30
0.0
 11
667.846688377032
 21
189.2134817745317
 31
0.0
  0
LINE
  5
46D
330
1A
100
AcDbEntity
  8
SEIHIN
  6
CONTINUOUS
 62
     3
 48
16.0
100
AcDbLine
 10
649.8966883770321
 20
189.2134817745317
 30
0.0
 11
649.896688377032
 21
225.1013817745316
 31
0.0
  0
LINE
  5
46E
330
1A
100
AcDbEntity
  8
SEIHIN
  6
CONTINUOUS
 62
     3
 48
16.0
100
AcDbLine
 10
632.2866883770333
 20
189.2134817745317
 30
0.0
 11
632.2867909138893
 21
225.1013817745316
 31
0.0
  0
LINE
  5
46F
330
1A
100
AcDbEntity
  8
SEIHIN
  6
CONTINUOUS
 62
     3
 48
16.0
100
AcDbLine
 10
654.3488883770321
 20
194.2134817745317
 30
0.0
 11
649.896688377032
 21
192.2134817745317
 31
0.0
  0
LINE
  5
470
330
1A
100
AcDbEntity
  8
SEIHIN
  6
CONTINUOUS
 62
     3
 48
16.0
100
AcDbLine
 10
649.896688377032
 20
196.2134817745317
 30
0.0
 11
654.3488883770321
 21
194.2134817745317
 31
0.0
  0
LINE
  5
473
330
1A
100
AcDbEntity
  8
SEIHIN
  6
CONTINUOUS
 62
     3
 48
16.0
100
AcDbLine
 10
649.896688377032
 20
216.2134817745317
 30
0.0
 11
654.3488883770321
 21
214.2134817745317
 31
0.0
  0
LINE
  5
474
330
1A
100
AcDbEntity
  8
SEIHIN
  6
CONTINUOUS
 62
     3
 48
16.0
100
AcDbLine
 10
654.3488883770321
 20
214.2134817745317
 30
0.0
 11
649.896688377032
 21
212.2134817745317
 31
0.0
  0
LINE
  5
476
330
1A
100
AcDbEntity
  8
SEIHIN
  6
CONTINUOUS
 62
     3
 48
16.0
100
AcDbLine
 10
669.846688377032
 20
191.2134817745317
 30
0.0
 11
669.846688377032
 21
217.2134817745316
 31
0.0
  0
LINE
  5
477
330
1A
100
AcDbEntity
  8
CENTER_L
  6
CENTER
 62
     1
 48
5.0
100
AcDbLine
 10
664.846688377032
 20
190.0916817745317
 30
0.0
 11
664.846688377032
 21
198.4937817745317
 31
0.0
  0
ARC
  5
478
330
1A
100
AcDbEntity
  8
SEIHIN
  6
CONTINUOUS
 62
     3
 48
16.0
100
AcDbCircle
 10
667.846688377032
 20
191.2134817745317
 30
0.0
 40
2.0
100
AcDbArc
 50
270.0
 51
0.0
  0
LINE
  5
479
330
1A
100
AcDbEntity
  8
CENTER_L
  6
CENTER
 62
     1
 48
5.0
100
AcDbLine
 10
664.846688377032
 20
208.3433817745316
 30
0.0
 11
664.846688377032
 21
217.4383817745317
 31
0.0
  0
ARC
  5
47A
330
1A
100
AcDbEntity
  8
SEIHIN
  6
CONTINUOUS
 62
     3
 48
16.0
100
AcDbCircle
 10
667.846688377032
 20
217.2134817745316
 30
0.0
 40
2.0
100
AcDbArc
 50
0.0
 51
90.0
  0
LINE
  5
481
330
1A
100
AcDbEntity
  8
SEIHIN
  6
CONTINUOUS
 62
     3
 48
16.0
100
AcDbLine
 10
433.5358781375145
 20
360.4167817745317
 30
0.0
 11
433.5358781375146
 21
335.4166817745318
 31
0.0
  0
LINE
  5
482
330
1A
100
AcDbEntity
  8
SEIHIN
  6
CONTINUOUS
 62
     3
 48
16.0
100
AcDbLine
 10
419.8647781375144
 20
350.4167817745317
 30
0.0
 11
419.8647781375144
 21
347.9167817745317
 31
0.0
  0
LINE
  5
483
330
1A
100
AcDbEntity
  8
SEIHIN
  6
CONTINUOUS
 62
     3
 48
16.0
100
AcDbLine
 10
408.8563781375145
 20
350.4167817745317
 30
0.0
 11
408.8563781375145
 21
347.9167817745317
 31
0.0
  0
LINE
  5
484
330
1A
100
AcDbEntity
  8
SEIHIN
  6
CONTINUOUS
 62
     3
 48
16.0
100
AcDbLine
 10
422.5358781375144
 20
347.9166817745317
 30
0.0
 11
422.5358781375144
 21
356.9166817745317
 31
0.0
  0
LINE
  5
485
330
1A
100
AcDbEntity
  8
SEIHIN
  6
CONTINUOUS
 62
     3
 48
16.0
100
AcDbLine
 10
442.5358781375144
 20
357.2166817745316
 30
0.0
 11
442.5358781375144
 21
376.6666817745317
 31
0.0
  0
LINE
  5
486
330
1A
100
AcDbEntity
  8
SEIHIN
  6
CONTINUOUS
 62
     3
 48
16.0
100
AcDbLine
 10
433.5358781375145
 20
338.9166817745317
 30
0.0
 11
422.5358781375144
 21
338.9166817745317
 31
0.0
  0
LINE
  5
487
330
1A
100
AcDbEntity
  8
SEIHIN
  6
CONTINUOUS
 62
     3
 48
16.0
100
AcDbLine
 10
419.8647781375144
 20
336.9166817745317
 30
0.0
 11
432.7358781375146
 21
336.9166817745317
 31
0.0
  0
LINE
  5
488
330
1A
100
AcDbEntity
  8
SEIHIN
  6
CONTINUOUS
 62
     3
 48
16.0
100
AcDbLine
 10
419.8647781375144
 20
336.9166817745317
 30
0.0
 11
419.8647781375144
 21
340.4166817745317
 31
0.0
  0
LINE
  5
489
330
1A
100
AcDbEntity
  8
SEIHIN
  6
CONTINUOUS
 62
     3
 48
16.0
100
AcDbLine
 10
408.8563781375145
 20
336.9166817745317
 30
0.0
 11
408.8563781375145
 21
340.4166817745317
 31
0.0
  0
ARC
  5
48A
330
1A
100
AcDbEntity
  8
SEIHIN
  6
CONTINUOUS
 62
     3
 48
16.0
100
AcDbCircle
 10
414.3605781375145
 20
307.5435817742032
 30
0.0
 40
29.88426587117864
100
AcDbArc
 50
79.38644552503624
 51
100.6135544749637
  0
LINE
  5
48B
330
1A
100
AcDbEntity
  8
SEIHIN
  6
CONTINUOUS
 62
     3
 48
16.0
100
AcDbLine
 10
408.8563781375145
 20
345.4166817745317
 30
0.0
 11
408.8563781375145
 21
347.9166817745317
 31
0.0
  0
LINE
  5
48C
330
1A
100
AcDbEntity
  8
SEIHIN
  6
CONTINUOUS
 62
     3
 48
16.0
100
AcDbLine
 10
419.8647781375144
 20
345.4166817745317
 30
0.0
 11
419.8647781375144
 21
347.9166817745317
 31
0.0
  0
LINE
  5
48D
330
1A
100
AcDbEntity
  8
SEIHIN
  6
CONTINUOUS
 62
     3
 48
16.0
100
AcDbLine
 10
422.5358781375144
 20
347.9166817745317
 30
0.0
 11
422.5358781375144
 21
338.9166817745317
 31
0.0
  0
LINE
  5
48F
330
1A
100
AcDbEntity
  8
SEIHIN
  6
CONTINUOUS
 62
     3
 48
16.0
100
AcDbLine
 10
442.5358781375144
 20
338.6166817745317
 30
0.0
 11
442.5358781375144
 21
319.1666817745317
 31
0.0
  0
LINE
  5
490
330
1A
100
AcDbEntity
  8
CENTER_L
  6
CENTER
 62
     1
 48
5.0
100
AcDbLine
 10
449.5358781375143
 20
324.1666817745317
 30
0.0
 11
437.6463781375144
 21
324.1666817745317
 31
0.0
  0
LINE
  5
491
330
1A
100
AcDbEntity
  8
SEIHIN
  6
CONTINUOUS
 62
     3
 48
16.0
100
AcDbLine
 10
442.5358781375144
 20
319.1666817745317
 30
0.0
 11
441.3358781375143
 21
319.1666817745318
 31
0.0
  0
LINE
  5
492
330
1A
100
AcDbEntity
  8
SEIHIN
  6
CONTINUOUS
 62
     3
 48
16.0
100
AcDbLine
 10
440.8358781375143
 20
337.9166817745316
 30
0.0
 11
433.5358781375146
 21
337.9166817745316
 31
0.0
  0
LINE
  5
493
330
1A
100
AcDbEntity
  8
SEIHIN
  6
CONTINUOUS
 62
     3
 48
16.0
100
AcDbLine
 10
441.3358781375144
 20
336.1833484411984
 30
0.0
 11
438.7358781375145
 21
337.9166817745317
 31
0.0
  0
LINE
  5
494
330
1A
100
AcDbEntity
  8
SEIHIN
  6
CONTINUOUS
 62
     3
 48
16.0
100
AcDbLine
 10
432.7358781375146
 20
338.9166817745317
 30
0.0
 11
432.7358781375146
 21
335.4166817745317
 31
0.0
  0
LINE
  5
495
330
1A
100
AcDbEntity
  8
SEIHIN
  6
CONTINUOUS
 62
     3
 48
16.0
100
AcDbLine
 10
425.2027781375144
 20
336.9166817745317
 30
0.0
 11
425.2027781375144
 21
338.9166817745317
 31
0.0
  0
LINE
  5
497
330
1A
100
AcDbEntity
  8
SEIHIN
  6
CONTINUOUS
 62
     3
 48
16.0
100
AcDbLine
 10
432.7358781375146
 20
335.4166817745317
 30
0.0
 11
433.5357781375144
 21
335.4166817745317
 31
0.0
  0
LINE
  5
498
330
1A
100
AcDbEntity
  8
SEIHIN
  6
CONTINUOUS
 62
     3
 48
16.0
100
AcDbLine
 10
433.5358781375145
 20
356.9166817745317
 30
0.0
 11
422.5358781375144
 21
356.9166817745317
 31
0.0
  0
LINE
  5
499
330
1A
100
AcDbEntity
  8
SEIHIN
  6
CONTINUOUS
 62
     3
 48
16.0
100
AcDbLine
 10
419.8647781375144
 20
358.9167817745317
 30
0.0
 11
432.7358781375146
 21
358.9167817745317
 31
0.0
  0
ARC
  5
49A
330
1A
100
AcDbEntity
  8
SEIHIN
  6
CONTINUOUS
 62
     3
 48
16.0
100
AcDbCircle
 10
414.3604781375144
 20
388.2897817745316
 30
0.0
 40
29.88426587085578
100
AcDbArc
 50
259.38644552492
 51
280.6135544750799
  0
LINE
  5
49B
330
1A
100
AcDbEntity
  8
SEIHIN
  6
CONTINUOUS
 62
     3
 48
16.0
100
AcDbLine
 10
408.8563781375145
 20
358.9167817745317
 30
0.0
 11
408.8563781375145
 21
355.4167817745315
 31
0.0
  0
LINE
  5
49C
330
1A
100
AcDbEntity
  8
SEIHIN
  6
CONTINUOUS
 62
     3
 48
16.0
100
AcDbLine
 10
419.8647781375144
 20
358.9167817745317
 30
0.0
 11
419.8647781375144
 21
355.4167817745315
 31
0.0
  0
LINE
  5
49E
330
1A
100
AcDbEntity
  8
CENTER_L
  6
CENTER
 62
     1
 48
5.0
100
AcDbLine
 10
449.5358781375143
 20
371.6666817745317
 30
0.0
 11
437.6463781375144
 21
371.6666817745317
 31
0.0
  0
LINE
  5
49F
330
1A
100
AcDbEntity
  8
SEIHIN
  6
CONTINUOUS
 62
     3
 48
16.0
100
AcDbLine
 10
440.8358781375143
 20
357.9166817745317
 30
0.0
 11
433.5358781375145
 21
357.9166817745317
 31
0.0
  0
LINE
  5
4A0
330
1A
100
AcDbEntity
  8
SEIHIN
  6
CONTINUOUS
 62
     3
 48
16.0
100
AcDbLine
 10
441.3358781375143
 20
359.6500151078649
 30
0.0
 11
438.7358781375145
 21
357.9166817745317
 31
0.0
  0
LINE
  5
4A1
330
1A
100
AcDbEntity
  8
SEIHIN
  6
CONTINUOUS
 62
     3
 48
16.0
100
AcDbLine
 10
425.2027781375144
 20
358.9167817745317
 30
0.0
 11
425.2027781375144
 21
356.9166817745317
 31
0.0
  0
LINE
  5
4A2
330
1A
100
AcDbEntity
  8
SEIHIN
  6
CONTINUOUS
 62
     3
 48
16.0
100
AcDbLine
 10
432.7358781375146
 20
356.9166817745317
 30
0.0
 11
432.7358781375146
 21
360.4166817745317
 31
0.0
  0
LINE
  5
4A3
330
1A
100
AcDbEntity
  8
SEIHIN
  6
CONTINUOUS
 62
     3
 48
16.0
100
AcDbLine
 10
432.7358781375146
 20
360.4166817745317
 30
0.0
 11
433.5357781375144
 21
360.4166817745317
 31
0.0
  0
LINE
  5
4A4
330
1A
100
AcDbEntity
  8
SEIHIN
  6
CONTINUOUS
 62
     3
 48
16.0
100
AcDbLine
 10
442.5358781375144
 20
376.6666817745317
 30
0.0
 11
441.3358781375144
 21
376.6666817745317
 31
0.0
  0
ARC
  5
4FF
330
1A
100
AcDbEntity
  8
SEIHIN
  6
CONTINUOUS
 62
     3
 48
16.0
100
AcDbCircle
 10
380.0622267954798
 20
177.3167817745316
 30
0.0
 40
5.0
100
AcDbArc
 50
7.635694441725362
 51
90.0
  0
LINE
  5
501
330
1A
100
AcDbEntity
  8
SEIHIN
  6
CONTINUOUS
 62
     3
100
AcDbLine
 10
221.4360992048188
 20
182.3167817745316
 30
0.0
 11
205.4360992048187
 21
182.3167817745316
 31
0.0
  0
LINE
  5
502
330
1A
100
AcDbEntity
  8
SEIHIN
  6
CONTINUOUS
 62
     3
100
AcDbLine
 10
220.8360992048187
 20
183.9167817745316
 30
0.0
 11
206.0360992048188
 21
183.9167817745317
 31
0.0
  0
LINE
  5
503
330
1A
100
AcDbEntity
  8
SEIHIN
  6
CONTINUOUS
 62
     3
 48
16.0
100
AcDbLine
 10
209.4284187925679
 20
179.5138817745316
 30
0.0
 11
217.4438187925681
 21
179.5138817745316
 31
0.0
  0
LINE
  5
504
330
1A
100
AcDbEntity
  8
SEIHIN
  6
CONTINUOUS
 62
     3
 48
16.0
100
AcDbLine
 10
217.4438187925681
 20
179.5138817745316
 30
0.0
 11
217.4438187925681
 21
182.3167817745316
 31
0.0
  0
LINE
  5
505
330
1A
100
AcDbEntity
  8
SEIHIN
  6
CONTINUOUS
 62
     3
 48
16.0
100
AcDbLine
 10
209.4284187925679
 20
182.3167817745316
 30
0.0
 11
209.4284187925679
 21
179.5138817745316
 31
0.0
  0
LINE
  5
506
330
1A
100
AcDbEntity
  8
SEIHIN
  6
CONTINUOUS
 62
     3
 48
16.0
100
AcDbLine
 10
205.0360992048187
 20
187.4168817745317
 30
0.0
 11
205.0360992048188
 21
184.9167817745317
 31
0.0
  0
LINE
  5
507
330
1A
100
AcDbEntity
  8
SEIHIN
  6
CONTINUOUS
 62
     3
 48
16.0
100
AcDbLine
 10
221.8360992048187
 20
187.4168817745317
 30
0.0
 11
221.8360992048187
 21
184.9167817745317
 31
0.0
  0
ARC
  5
508
330
1A
100
AcDbEntity
  8
SEIHIN
  6
CONTINUOUS
 62
     3
 48
16.0
100
AcDbCircle
 10
221.4360992048188
 20
184.3167817745317
 30
0.0
 40
2.0
100
AcDbArc
 50
270.0
 51
0.0
  0
ARC
  5
509
330
1A
100
AcDbEntity
  8
SEIHIN
  6
CONTINUOUS
 62
     3
100
AcDbCircle
 10
205.4360992048187
 20
184.3167817745317
 30
0.0
 40
2.0
100
AcDbArc
 50
180.0
 51
270.0
  0
ARC
  5
50A
330
1A
100
AcDbEntity
  8
SEIHIN
  6
CONTINUOUS
 62
     3
100
AcDbCircle
 10
220.8360992048187
 20
184.9167817745317
 30
0.0
 40
1.0
100
AcDbArc
 50
270.0
 51
0.0
  0
ARC
  5
50B
330
1A
100
AcDbEntity
  8
SEIHIN
  6
CONTINUOUS
 62
     3
 48
16.0
100
AcDbCircle
 10
206.0360992048188
 20
184.9167817745317
 30
0.0
 40
1.0
100
AcDbArc
 50
180.0
 51
270.0
  0
LINE
  5
50C
330
1A
100
AcDbEntity
  8
SEIHIN
  6
CONTINUOUS
 62
     3
 48
16.0
100
AcDbLine
 10
221.4360992048188
 20
198.5768817745316
 30
0.0
 11
224.4360992048187
 21
198.5768817745316
 31
0.0
  0
LINE
  5
50D
330
1A
100
AcDbEntity
  8
SEIHIN
  6
CONTINUOUS
 62
     3
 48
16.0
100
AcDbLine
 10
205.436129970182
 20
198.5769545015246
 30
0.0
 11
202.4360992048187
 21
198.5769817745316
 31
0.0
  0
ARC
  5
608
330
1A
100
AcDbEntity
  8
SEIHIN
  6
CONTINUOUS
100
AcDbCircle
 10
218.4360992048191
 20
199.8268817745276
 30
0.0
 40
3.249999999998867
100
AcDbArc
 50
202.6198649479713
 51
337.3801350520229
  0
ARC
  5
609
330
1A
100
AcDbEntity
  8
SEIHIN
  6
CONTINUOUS
100
AcDbCircle
 10
208.4361727756665
 20
199.8268915960268
 30
0.0
 40
3.249999999998867
100
AcDbArc
 50
202.6197524010574
 51
337.3800225051098
  0
LINE
  5
60A
330
1A
100
AcDbEntity
  8
SEIHIN
  6
CONTINUOUS
100
AcDbLine
 10
222.1206181075109
 20
239.6013817745317
 30
0.0
 11
204.7516359441186
 21
239.6013817745317
 31
0.0
  0
DIMENSION
  5
61C
330
1A
100
AcDbEntity
  8
SUNPOU
  6
CONTINUOUS
100
AcDbDimension
  2
*D2
 10
465.6610277201184
 20
319.1666817745317
 30
0.0
 11
460.6610277201184
 21
347.9166817745317
 31
0.0
 70
    32
  3
STANDARD
100
AcDbAlignedDimension
 13
442.5358781375144
 23
376.6666817745317
 33
0.0
 14
442.5358781375144
 24
319.1666817745317
 34
0.0
 50
90.0
100
AcDbRotatedDimension
1001
ACAD
1000
DSTYLE
1002
{
1070
   140
1040
6.0
1070
    74
1070
     0
1070
   172
1070
     1
1070
    73
1070
     0
1070
   272
1070
     2
1070
    77
1070
     3
1070
   173
1070
     1
1070
   147
1040
2.0
1070
    42
1040
6.0
1070
    44
1040
3.0
1070
    43
1040
14.0
1070
   271
1070
     0
1070
   178
1070
     4
1070
   177
1070
     4
1070
   176
1070
     4
1070
   141
1040
150.0
1070
     7
1000
_OPEN
1070
     6
1000
_OPEN
1070
    41
1040
7.0
1002
}
  0
DIMENSION
  5
62B
330
1A
100
AcDbEntity
  8
SUNPOU
  6
CONTINUOUS
100
AcDbDimension
  2
*D3
 10
290.9824464019129
 20
335.4166817745317
 30
0.0
 11
285.982446401913
 21
347.9166817745317
 31
0.0
 12
-25.92887878993269
 22
-4.547341774708684
 32
0.0
 70
    32
  3
STANDARD
100
AcDbAlignedDimension
 13
317.9358781375146
 23
360.4166817745317
 33
0.0
 14
317.9358781375146
 24
335.4166817745317
 34
0.0
 50
90.0
100
AcDbRotatedDimension
1001
ACAD
1000
DSTYLE
1002
{
1070
   140
1040
6.0
1070
    74
1070
     0
1070
   172
1070
     1
1070
    73
1070
     0
1070
   272
1070
     2
1070
    77
1070
     3
1070
   173
1070
     1
1070
   147
1040
2.0
1070
    42
1040
6.0
1070
    44
1040
3.0
1070
    43
1040
14.0
1070
   271
1070
     0
1070
   178
1070
     4
1070
   177
1070
     4
1070
   176
1070
     4
1070
   141
1040
150.0
1070
     7
1000
_OPEN
1070
     6
1000
_OPEN
1070
    41
1040
7.0
1002
}
  0
DIMENSION
  5
649
330
1A
100
AcDbEntity
  8
SUNPOU
  6
CONTINUOUS
100
AcDbDimension
  2
*D4
 10
432.7379781375145
 20
260.4264849298031
 30
0.0
 11
413.2379781375145
 21
265.426484929803
 31
0.0
 12
-25.92887878993269
 22
-4.547341774708684
 32
0.0
 70
    32
  3
STANDARD
100
AcDbAlignedDimension
 13
442.5357781375144
 23
220.1020817745316
 33
0.0
 14
432.7379781375145
 24
236.9192317745315
 34
0.0
100
AcDbRotatedDimension
1001
ACAD
1000
DSTYLE
1002
{
1070
   140
1040
6.0
1070
    74
1070
     0
1070
   172
1070
     1
1070
    73
1070
     0
1070
   272
1070
     2
1070
    77
1070
     3
1070
   173
1070
     1
1070
   147
1040
2.0
1070
    42
1040
6.0
1070
    44
1040
3.0
1070
    43
1040
14.0
1070
   271
1070
     0
1070
   178
1070
     4
1070
   177
1070
     4
1070
   176
1070
     4
1070
   141
1040
150.0
1070
     7
1000
_OPEN
1070
     6
1000
_OPEN
1070
    41
1040
7.0
1002
}
  0
DIMENSION
  5
656
330
1A
100
AcDbEntity
  8
SUNPOU
  6
CONTINUOUS
100
AcDbDimension
  2
*D5
 10
617.3366883770322
 20
252.0570303711633
 30
0.0
 11
641.0916883770321
 21
257.0570303711633
 31
0.0
 12
59.22195160675528
 22
-40.83812426270514
 32
0.0
 70
    32
  3
STANDARD
100
AcDbAlignedDimension
 13
664.846688377032
 23
219.2134817745316
 33
0.0
 14
617.3366883770322
 24
219.2134817745316
 34
0.0
100
AcDbRotatedDimension
1001
ACAD
1000
DSTYLE
1002
{
1070
   140
1040
6.0
1070
    74
1070
     0
1070
   172
1070
     1
1070
    73
1070
     0
1070
   272
1070
     2
1070
    77
1070
     3
1070
   173
1070
     1
1070
   147
1040
2.0
1070
    42
1040
6.0
1070
    44
1040
3.0
1070
    43
1040
14.0
1070
   271
1070
     0
1070
   178
1070
     4
1070
   177
1070
     4
1070
   176
1070
     4
1070
   141
1040
150.0
1070
     7
1000
_OPEN
1070
     6
1000
_OPEN
1070
    41
1040
7.0
1002
}
  0
DIMENSION
  5
663
330
1A
100
AcDbEntity
  8
SUNPOU
  6
CONTINUOUS
100
AcDbDimension
  2
*D6
 10
612.3366883770322
 20
267.4274251270069
 30
0.0
 11
641.0916883770321
 21
272.4274251270069
 31
0.0
 12
59.22195160675528
 22
-40.83812426270514
 32
0.0
 70
    32
  3
STANDARD
100
AcDbAlignedDimension
 13
669.846688377032
 23
219.2134817745316
 33
0.0
 14
612.3366883770322
 24
219.2134817745316
 34
0.0
100
AcDbRotatedDimension
1001
ACAD
1000
DSTYLE
1002
{
1070
   140
1040
6.0
1070
    74
1070
     0
1070
   172
1070
     1
1070
    73
1070
     0
1070
   272
1070
     2
1070
    77
1070
     3
1070
   173
1070
     1
1070
   147
1040
2.0
1070
    42
1040
6.0
1070
    44
1040
3.0
1070
    43
1040
14.0
1070
   271
1070
     0
1070
   178
1070
     4
1070
   177
1070
     4
1070
   176
1070
     4
1070
   141
1040
150.0
1070
     7
1000
_OPEN
1070
     6
1000
_OPEN
1070
    41
1040
7.0
1002
}
  0
LEADER
  5
6AA
330
1A
100
AcDbEntity
  8
SUNPOU
  6
CONTINUOUS
 62
     4
100
AcDbLeader
  3
STANDARD
 73
     0
 40
6.0
 41
30.19999999999999
 76
     3
 10
615.9648805215944
 20
215.6688659876382
 30
0.0
 10
604.5687889779469
 20
237.8510282196537
 30
0.0
 10
602.3640326453783
 20
237.8510282196537
 30
0.0
1001
ACAD
1000
DSTYLE
1002
{
1070
     6
1000
OPEN
1070
    41
1040
7.0
1070
    42
1040
6.0
1070
    43
1040
14.0
1070
    44
1040
3.0
1070
    73
1070
     0
1070
    74
1070
     0
1070
    77
1070
     3
1070
   140
1040
6.0
1070
   141
1040
150.0
1070
   147
1040
2.0
1070
   172
1070
     1
1070
   173
1070
     1
1070
   176
1070
     4
1070
   177
1070
     4
1070
   178
1070
     4
1070
   271
1070
     0
1070
   272
1070
     2
1070
   341
1005
6D
1070
   343
1005
6D
1070
   344
1005
6D
1002
}
  0
MTEXT
  5
6AB
330
1A
100
AcDbEntity
  8
SUNPOU
  6
CONTINUOUS
 62
     4
100
AcDbMText
 10
600.3640326453782
 20
239.8510282196537
 30
0.0
 40
6.0
 41
0.0
 71
     9
 72
     5
  1
4-φ4.0
1001
ACAD
1000
MTEXTBEGIN
1070
    73
1070
     1
1070
    44
1040
1.0
1070
    74
1070
     0
1000
MTEXTEND
1000
MTEXTBEGIN
1070
    73
1070
     1
1070
    44
1040
1.0
1070
    74
1070
     0
1000
MTEXTEND
1000
MTEXTBEGIN
1070
    73
1070
     1
1070
    44
1040
1.0
1070
    74
1070
     0
1000
MTEXTEND
  0
DIMENSION
  5
6FB
330
1A
100
AcDbEntity
  8
SUNPOU
  6
CONTINUOUS
100
AcDbDimension
  2
*D7
 10
480.569470798021
 20
189.2134817745317
 30
0.0
 11
475.569470798021
 21
207.1982180897427
 31
0.0
 70
    32
  3
STANDARD
100
AcDbAlignedDimension
 13
442.5357781375144
 23
225.1829544049537
 33
0.0
 14
442.5357781375144
 24
189.2134817745317
 34
0.0
 50
90.0
100
AcDbRotatedDimension
1001
ACAD
1000
DSTYLE
1002
{
1070
   140
1040
6.0
1070
    74
1070
     0
1070
   172
1070
     1
1070
    73
1070
     0
1070
   272
1070
     2
1070
    77
1070
     3
1070
   173
1070
     1
1070
   147
1040
2.0
1070
    42
1040
6.0
1070
    44
1040
3.0
1070
    43
1040
14.0
1070
   271
1070
     0
1070
   178
1070
     4
1070
   177
1070
     4
1070
   176
1070
     4
1070
   141
1040
150.0
1070
     7
1000
_OPEN
1070
     6
1000
_OPEN
1070
    41
1040
7.0
1002
}
  0
DIMENSION
  5
715
330
1A
100
AcDbEntity
  8
SUNPOU
  6
CONTINUOUS
100
AcDbDimension
  2
*D8
 10
317.9357781375144
 20
285.7857561262351
 30
0.0
 11
380.2357781375144
 21
290.7857561262351
 31
0.0
 12
-25.92887878993269
 22
-4.547341774708684
 32
0.0
 70
    32
  3
STANDARD
100
AcDbAlignedDimension
 13
442.5357781375144
 23
220.1020817745316
 33
0.0
 14
317.9357781375144
 24
260.9167817745316
 34
0.0
100
AcDbRotatedDimension
1001
ACAD
1000
DSTYLE
1002
{
1070
   140
1040
6.0
1070
    74
1070
     0
1070
   172
1070
     1
1070
    73
1070
     0
1070
   272
1070
     2
1070
    77
1070
     3
1070
   173
1070
     1
1070
   147
1040
2.0
1070
    42
1040
6.0
1070
    44
1040
3.0
1070
    43
1040
14.0
1070
   271
1070
     0
1070
   178
1070
     4
1070
   177
1070
     4
1070
   176
1070
     4
1070
   141
1040
150.0
1070
     7
1000
_OPEN
1070
     6
1000
_OPEN
1070
    41
1040
7.0
1002
}
  0
DIMENSION
  5
737
330
1A
100
AcDbEntity
  8
SUNPOU
  6
CONTINUOUS
100
AcDbDimension
  2
*D9
 10
587.1007874459856
 20
194.2134817745317
 30
0.0
 11
582.1007874459856
 21
204.2134817745317
 31
0.0
 12
-5.928878789932696
 22
-4.547341774708684
 32
0.0
 70
    32
  3
STANDARD
100
AcDbAlignedDimension
 13
612.3366883770322
 23
214.2134817745317
 33
0.0
 14
612.3366883770322
 24
194.2134817745317
 34
0.0
 50
90.0
100
AcDbRotatedDimension
1001
ACAD
1000
DSTYLE
1002
{
1070
   140
1040
6.0
1070
    74
1070
     0
1070
   172
1070
     1
1070
    73
1070
     0
1070
   272
1070
     2
1070
    77
1070
     3
1070
   173
1070
     1
1070
   147
1040
2.0
1070
    42
1040
6.0
1070
    44
1040
3.0
1070
    43
1040
14.0
1070
   271
1070
     0
1070
   178
1070
     4
1070
   177
1070
     4
1070
   176
1070
     4
1070
   141
1040
150.0
1070
     7
1000
_OPEN
1070
     6
1000
_OPEN
1070
    41
1040
7.0
1002
}
  0
DIMENSION
  5
744
330
1A
100
AcDbEntity
  8
SUNPOU
  6
CONTINUOUS
100
AcDbDimension
  2
*D10
 10
568.2019397220305
 20
189.2134817745317
 30
0.0
 11
563.2019397220306
 21
204.2134817745317
 31
0.0
 12
-5.928878789932696
 22
-4.547341774708684
 32
0.0
 70
    32
  3
STANDARD
100
AcDbAlignedDimension
 13
614.3366883770323
 23
219.2134817745316
 33
0.0
 14
614.3366883770323
 24
189.2134817745317
 34
0.0
 50
90.0
100
AcDbRotatedDimension
1001
ACAD
1000
DSTYLE
1002
{
1070
   140
1040
6.0
1070
    74
1070
     0
1070
   172
1070
     1
1070
    73
1070
     0
1070
   272
1070
     2
1070
    77
1070
     3
1070
   173
1070
     1
1070
   147
1040
2.0
1070
    42
1040
6.0
1070
    44
1040
3.0
1070
    43
1040
14.0
1070
   271
1070
     0
1070
   178
1070
     4
1070
   177
1070
     4
1070
   176
1070
     4
1070
   141
1040
150.0
1070
     7
1000
_OPEN
1070
     6
1000
_OPEN
1070
    41
1040
7.0
1002
}
  0
LINE
  5
749
330
1A
100
AcDbEntity
  8
SEIHIN
  6
CONTINUOUS
 62
     3
 48
16.0
100
AcDbLine
 10
318.7358781375146
 20
356.9166817745317
 30
0.0
 11
317.9358781375146
 21
356.9166817745317
 31
0.0
  0
LINE
  5
74A
330
1A
100
AcDbEntity
  8
SEIHIN
  6
CONTINUOUS
 62
     3
 48
16.0
100
AcDbLine
 10
318.7358781375146
 20
338.9167817745317
 30
0.0
 11
317.9358781375146
 21
338.9167817745317
 31
0.0
  0
LINE
  5
74B
330
1A
100
AcDbEntity
  8
SEIHIN
  6
CONTINUOUS
 62
     3
 48
16.0
100
AcDbLine
 10
651.096688377032
 20
221.2134817745316
 30
0.0
 11
651.096688377032
 21
225.1013817745316
 31
0.0
  0
LINE
  5
74C
330
1A
100
AcDbEntity
  8
SEIHIN
  6
CONTINUOUS
 62
     3
 48
16.0
100
AcDbLine
 10
631.0867797888643
 20
221.2076252347596
 30
0.0
 11
631.0867909138828
 21
225.1013817745316
 31
0.0
  0
LINE
  5
74F
330
1A
100
AcDbEntity
  8
SEIHIN
  6
CONTINUOUS
100
AcDbLine
 10
632.7867869407485
 20
223.2107817745317
 30
0.0
 11
649.3966883770319
 21
223.2107817745317
 31
0.0
  0
LINE
  5
750
330
1A
100
AcDbEntity
  8
SEIHIN
  6
CONTINUOUS
100
AcDbLine
 10
631.0867909138828
 20
225.1013817745316
 30
0.0
 11
632.2867909138893
 21
225.1013817745316
 31
0.0
  0
LINE
  5
751
330
1A
100
AcDbEntity
  8
SEIHIN
  6
CONTINUOUS
100
AcDbLine
 10
649.896688377032
 20
225.1013817745316
 30
0.0
 11
651.096688377032
 21
225.1013817745316
 31
0.0
  0
DIMENSION
  5
791
330
1A
100
AcDbEntity
  8
SEIHIN
  6
CONTINUOUS
100
AcDbDimension
  2
*D11
 10
496.1940304820337
 20
189.2134817745317
 30
0.0
 11
491.1940304820336
 21
213.5638567745317
 31
0.0
 70
    32
  3
STANDARD
100
AcDbAlignedDimension
 13
431.7429781375145
 23
237.9142317745317
 33
0.0
 14
442.5357781375144
 24
189.2134817745317
 34
0.0
 50
90.0
100
AcDbRotatedDimension
1001
ACAD
1000
DSTYLE
1002
{
1070
   140
1040
6.0
1070
    74
1070
     0
1070
   172
1070
     1
1070
    73
1070
     0
1070
   272
1070
     2
1070
    77
1070
     3
1070
   173
1070
     1
1070
   147
1040
2.0
1070
    42
1040
6.0
1070
    44
1040
3.0
1070
    43
1040
14.0
1070
   271
1070
     0
1070
   178
1070
     4
1070
   177
1070
     4
1070
   176
1070
     4
1070
   141
1040
150.0
1070
     7
1000
_OPEN
1070
     6
1000
_OPEN
1070
    41
1040
7.0
1002
}
  0
LINE
  5
7B1
330
1A
100
AcDbEntity
  8
SEIHIN
  6
CONTINUOUS
100
AcDbLine
 10
439.2838781375143
 20
339.6166817745318
 30
0.0
 11
439.2838781375144
 21
356.2166817745317
 31
0.0
  0
LINE
  5
7B2
330
1A
100
AcDbEntity
  8
SEIHIN
  6
CONTINUOUS
 62
     3
 48
16.0
100
AcDbLine
 10
442.0358781375144
 20
356.7166817745316
 30
0.0
 11
433.5358781375145
 21
356.7166817745318
 31
0.0
  0
LINE
  5
7B3
330
1A
100
AcDbEntity
  8
SEIHIN
  6
CONTINUOUS
 62
     3
 48
16.0
100
AcDbLine
 10
442.0358781375144
 20
339.1166817745318
 30
0.0
 11
433.5358781375145
 21
339.1166817745318
 31
0.0
  0
ARC
  5
7B4
330
1A
100
AcDbEntity
  8
SEIHIN
  6
CONTINUOUS
100
AcDbCircle
 10
439.7838781375144
 20
356.2166817745317
 30
0.0
 40
0.5
100
AcDbArc
 50
90.0
 51
180.0
  0
ARC
  5
7B5
330
1A
100
AcDbEntity
  8
SEIHIN
  6
CONTINUOUS
 48
16.0
100
AcDbCircle
 10
439.7838781375144
 20
339.6166817745318
 30
0.0
 40
0.5
100
AcDbArc
 50
180.0
 51
270.0
  0
ARC
  5
7B6
330
1A
100
AcDbEntity
  8
SEIHIN
  6
CONTINUOUS
 62
     3
 48
16.0
100
AcDbCircle
 10
442.0358781375144
 20
338.6166817745317
 30
0.0
 40
0.5
100
AcDbArc
 50
0.0
 51
90.0
  0
ARC
  5
7B7
330
1A
100
AcDbEntity
  8
SEIHIN
  6
CONTINUOUS
 62
     3
 48
16.0
100
AcDbCircle
 10
442.0358781375144
 20
357.2166817745316
 30
0.0
 40
0.5
100
AcDbArc
 50
270.0
 51
0.0
  0
ARC
  5
7DC
330
1A
100
AcDbEntity
  8
SEIHIN
  6
CONTINUOUS
 62
     3
 48
16.0
100
AcDbCircle
 10
653.096688377032
 20
221.2134817745316
 30
0.0
 40
2.0
100
AcDbArc
 50
180.0
 51
270.0
  0
ARC
  5
7DD
330
1A
100
AcDbEntity
  8
SEIHIN
  6
CONTINUOUS
 62
     3
 48
16.0
100
AcDbCircle
 10
629.0867883770389
 20
221.2134863459601
 30
0.0
 40
1.999999999999943
100
AcDbArc
 50
270.0000000000016
 51
0.0000000000016284
  0
LINE
  5
7E0
330
1A
100
AcDbEntity
  8
SEIHIN
  6
CONTINUOUS
 62
     3
 48
16.0
100
AcDbLine
 10
441.3358781375143
 20
358.4166817745317
 30
0.0
 11
441.3358781375143
 21
376.6666817745317
 31
0.0
  0
LINE
  5
7E1
330
1A
100
AcDbEntity
  8
SEIHIN
  6
CONTINUOUS
 62
     3
 48
16.0
100
AcDbLine
 10
441.3358781375143
 20
337.4166817745317
 30
0.0
 11
441.3358781375143
 21
319.1666817745317
 31
0.0
  0
ARC
  5
7E2
330
1A
100
AcDbEntity
  8
SEIHIN
  6
CONTINUOUS
 62
     3
 48
16.0
100
AcDbCircle
 10
440.8358781375143
 20
358.4166817745317
 30
0.0
 40
0.5
100
AcDbArc
 50
270.0
 51
0.0
  0
ARC
  5
7E3
330
1A
100
AcDbEntity
  8
SEIHIN
  6
CONTINUOUS
 62
     3
 48
16.0
100
AcDbCircle
 10
440.8358781375143
 20
337.4166817745317
 30
0.0
 40
0.5
100
AcDbArc
 50
0.0
 51
89.99999999999955
  0
ARC
  5
7EF
330
1A
100
AcDbEntity
  8
SEIHIN
  6
CONTINUOUS
100
AcDbCircle
 10
332.5176924232287
 20
352.9166817745317
 30
0.0
 40
2.660714285714282
100
AcDbArc
 50
110.0159596028825
 51
249.9840403971174
  0
ARC
  5
7F0
330
1A
100
AcDbEntity
  8
SEIHIN
  6
CONTINUOUS
100
AcDbCircle
 10
345.2403781375144
 20
352.9166817745317
 30
0.0
 40
3.625000000000041
100
AcDbArc
 50
136.3971810272969
 51
223.602818972703
  0
ARC
  5
7F1
330
1A
100
AcDbEntity
  8
SEIHIN
  6
CONTINUOUS
100
AcDbCircle
 10
345.2403781375144
 20
342.9166817745317
 30
0.0
 40
3.625000000000041
100
AcDbArc
 50
136.3971810272969
 51
223.602818972703
  0
ARC
  5
7F2
330
1A
100
AcDbEntity
  8
SEIHIN
  6
CONTINUOUS
100
AcDbCircle
 10
332.5176924232287
 20
342.9166817745317
 30
0.0
 40
2.660714285714282
100
AcDbArc
 50
110.0159596028825
 51
249.9840403971174
  0
ARC
  5
7F3
330
1A
100
AcDbEntity
  8
SEIHIN
  6
CONTINUOUS
100
AcDbCircle
 10
406.2313781375147
 20
352.9166817745317
 30
0.0
 40
3.625000000000041
100
AcDbArc
 50
316.397181027297
 51
43.60281897270302
  0
ARC
  5
7F4
330
1A
100
AcDbEntity
  8
SEIHIN
  6
CONTINUOUS
100
AcDbCircle
 10
418.9540638518004
 20
352.9166817745317
 30
0.0
 40
2.660714285714282
100
AcDbArc
 50
290.0159596028825
 51
69.98404039711745
  0
ARC
  5
7F5
330
1A
100
AcDbEntity
  8
SEIHIN
  6
CONTINUOUS
100
AcDbCircle
 10
418.9540638518004
 20
342.9166817745317
 30
0.0
 40
2.660714285714282
100
AcDbArc
 50
290.0159596028825
 51
69.98404039711745
  0
ARC
  5
7F6
330
1A
100
AcDbEntity
  8
SEIHIN
  6
CONTINUOUS
100
AcDbCircle
 10
406.2313781375147
 20
342.9166817745317
 30
0.0
 40
3.625000000000041
100
AcDbArc
 50
316.397181027297
 51
43.60281897270302
  0
DIMENSION
  5
807
330
1A
100
AcDbEntity
  8
SUNPOU
  6
CONTINUOUS
100
AcDbDimension
  2
*D12
 10
290.9420495784988
 20
260.9167817745316
 30
0.0
 11
285.9420495784988
 21
224.4167817745316
 31
0.0
 12
-25.92887878993269
 22
-4.547341774708684
 32
0.0
 70
    32
  3
STANDARD
100
AcDbAlignedDimension
 13
342.6152781375144
 23
187.9167817745316
 33
0.0
 14
317.9357781375144
 24
260.9167817745316
 34
0.0
 50
90.0
100
AcDbRotatedDimension
1001
ACAD
1000
DSTYLE
1002
{
1070
   140
1040
6.0
1070
    74
1070
     0
1070
   172
1070
     1
1070
    73
1070
     0
1070
   272
1070
     2
1070
    77
1070
     3
1070
   173
1070
     1
1070
   147
1040
2.0
1070
    42
1040
6.0
1070
    44
1040
3.0
1070
    43
1040
14.0
1070
   271
1070
     0
1070
   178
1070
     4
1070
   177
1070
     4
1070
   176
1070
     4
1070
   141
1040
150.0
1070
     7
1000
_OPEN
1070
     6
1000
_OPEN
1070
    41
1040
7.0
1002
}
  0
ARC
  5
808
330
1A
100
AcDbEntity
  8
SEIHIN
  6
CONTINUOUS
 62
     3
 48
16.0
100
AcDbCircle
 10
436.2994781375142
 20
220.0821757809987
 30
0.0
 40
5.0
100
AcDbArc
 50
0.0
 51
90.91989958298162
  0
DIMENSION
  5
817
330
1A
100
AcDbEntity
  8
SUNPOU
  6
CONTINUOUS
100
AcDbDimension
  2
*D13
 10
442.5357781375144
 20
164.2660339478938
 30
0.0
 11
466.5357781375144
 21
169.2660339478939
 31
0.0
 12
-25.92887878993269
 22
-4.547341774708684
 32
0.0
 70
    32
  1
t<>
  3
STANDARD
100
AcDbAlignedDimension
 13
441.2994781375143
 23
189.2134817745317
 33
0.0
 14
442.5357781375144
 24
189.2134817745317
 34
0.0
100
AcDbRotatedDimension
1001
ACAD
1000
DSTYLE
1002
{
1070
   140
1040
6.0
1070
    74
1070
     0
1070
   172
1070
     1
1070
    73
1070
     0
1070
   272
1070
     2
1070
    77
1070
     3
1070
   173
1070
     1
1070
   147
1040
2.0
1070
    42
1040
6.0
1070
    44
1040
3.0
1070
    43
1040
14.0
1070
   271
1070
     1
1070
   178
1070
     4
1070
   177
1070
     4
1070
   176
1070
     4
1070
   141
1040
150.0
1070
     7
1000
_OPEN
1070
     6
1000
_OPEN
1070
    41
1040
7.0
1002
}
  0
ARC
  5
84C
330
1A
100
AcDbEntity
  8
SEIHIN
  6
CONTINUOUS
100
AcDbCircle
 10
632.7867869407485
 20
223.7107817745317
 30
0.0
 40
0.5
100
AcDbArc
 50
179.999836297774
 51
270.0
  0
ARC
  5
84D
330
1A
100
AcDbEntity
  8
SEIHIN
  6
CONTINUOUS
100
AcDbCircle
 10
649.3966883770319
 20
223.7107817745317
 30
0.0
 40
0.5
100
AcDbArc
 50
269.9999999999998
 51
0.0
  0
ARC
  5
84E
330
1A
100
AcDbEntity
  8
SEIHIN
  6
CONTINUOUS
 62
     3
 48
16.0
100
AcDbCircle
 10
630.2867798055956
 20
221.2134817745316
 30
0.0
 40
2.0
100
AcDbArc
 50
270.0
 51
359.999836297774
  0
ARC
  5
84F
330
1A
100
AcDbEntity
  8
SEIHIN
  6
CONTINUOUS
 62
     3
 48
16.0
100
AcDbCircle
 10
651.8966883770319
 20
221.2134817745317
 30
0.0
 40
2.0
100
AcDbArc
 50
180.0
 51
270.0
  0
DIMENSION
  5
85C
330
1A
100
AcDbEntity
  8
SUNPOU
  6
CONTINUOUS
100
AcDbDimension
  2
*D14
 10
466.0234816135457
 20
189.2134817745317
 30
0.0
 11
461.0234816135458
 21
204.2134817745317
 31
0.0
 70
    32
  3
STANDARD
100
AcDbAlignedDimension
 13
442.5357781375144
 23
219.2134817745316
 33
0.0
 14
442.5357781375144
 24
189.2134817745317
 34
0.0
 50
90.0
100
AcDbRotatedDimension
1001
ACAD
1000
DSTYLE
1002
{
1070
   140
1040
6.0
1070
    74
1070
     0
1070
   172
1070
     1
1070
    73
1070
     0
1070
   272
1070
     2
1070
    77
1070
     3
1070
   173
1070
     1
1070
   147
1040
2.0
1070
    42
1040
6.0
1070
    44
1040
3.0
1070
    43
1040
14.0
1070
   271
1070
     0
1070
   178
1070
     4
1070
   177
1070
     4
1070
   176
1070
     4
1070
   141
1040
150.0
1070
     7
1000
_OPEN
1070
     6
1000
_OPEN
1070
    41
1040
7.0
1002
}
  0
LWPOLYLINE
  5
A77
330
1A
100
AcDbEntity
  8
ZUWAKU
100
AcDbPolyline
 90
        4
 70
     1
 43
0.0
 10
0.8000004852767688
 20
550.8000005356857
 10
0.8000004852767688
 20
0.80000053568574
 10
796.8000004852767
 20
0.80000053568574
 10
796.8000004852767
 20
550.8000005356857
  0
LWPOLYLINE
  5
A78
330
1A
100
AcDbEntity
  8
ZUWAKU
100
AcDbPolyline
 90
        4
 70
     1
 43
0.0
 10
0.4000004852767916
 20
551.2000005356857
 10
0.4000004852767916
 20
0.4000005356857628
 10
797.2000004852768
 20
0.4000005356857397
 10
797.2000004852768
 20
551.2000005356857
  0
LWPOLYLINE
  5
A79
330
1A
100
AcDbEntity
  8
ZUWAKU
100
AcDbPolyline
 90
        4
 70
     1
 43
0.0
 10
0.0000004852768143
 20
551.6000005356857
 10
0.0000004852768143
 20
0.0000005356856718
 10
797.6000004852769
 20
0.0000005356857393
 10
797.6000004852769
 20
551.6000005356858
  0
LWPOLYLINE
  5
A7A
330
1A
100
AcDbEntity
  8
ZUWAKU
100
AcDbPolyline
 90
        4
 70
     1
 43
0.0
 10
0.6000004852767234
 20
551.0000005356857
 10
0.6000004852767234
 20
0.6000005356856946
 10
797.000000485277
 20
0.6000005356857408
 10
797.0000004852768
 20
551.0000005356857
  0
LWPOLYLINE
  5
A7B
330
1A
100
AcDbEntity
  8
ZUWAKU
100
AcDbPolyline
 90
        4
 70
     1
 43
0.0
 10
0.2000004852767461
 20
551.4000005356857
 10
0.2000004852767461
 20
0.2000005356857173
 10
797.4000004852767
 20
0.2000005356857404
 10
797.4000004852769
 20
551.4000005356857
  0
LINE
  5
A7C
330
1A
100
AcDbEntity
  8
ZUWAKU
100
AcDbLine
 10
0.0000004852768143
 20
30.00000053568567
 30
0.0
 11
797.4000004852767
 21
30.00000053568567
 31
0.0
  0
LINE
  5
A7D
330
1A
100
AcDbEntity
  8
ZUWAKU
100
AcDbLine
 10
0.0000004852768143
 20
30.20000053568567
 30
0.0
 11
797.4000004852767
 21
30.20000053568567
 31
0.0
  0
LINE
  5
A7E
330
1A
100
AcDbEntity
  8
ZUWAKU
100
AcDbLine
 10
0.0000004852768143
 20
30.40000053568567
 30
0.0
 11
797.4000004852767
 21
30.40000053568567
 31
0.0
  0
LINE
  5
A7F
330
1A
100
AcDbEntity
  8
ZUWAKU
100
AcDbLine
 10
0.0000004852768143
 20
30.60000053568568
 30
0.0
 11
797.4000004852767
 21
30.60000053568568
 31
0.0
  0
LINE
  5
A80
330
1A
100
AcDbEntity
  8
ZUWAKU
100
AcDbLine
 10
0.0000004852768143
 20
30.80000053568568
 30
0.0
 11
797.4000004852767
 21
30.80000053568568
 31
0.0
  0
LINE
  5
A81
330
1A
100
AcDbEntity
  8
ZUWAKU
100
AcDbLine
 10
208.6466017753448
 20
15.4000005356857
 30
0.0
 11
447.4243644562682
 21
15.4000005356857
 31
0.0
  0
LINE
  5
A82
330
1A
100
AcDbEntity
  8
ZUWAKU
100
AcDbLine
 10
208.6466017753448
 20
15.6000005356857
 30
0.0
 11
447.4243644562682
 21
15.60000053568571
 31
0.0
  0
LINE
  5
A83
330
1A
100
AcDbEntity
  8
ZUWAKU
100
AcDbLine
 10
208.6466017753448
 20
15.20000053568571
 30
0.0
 11
447.4243644562682
 21
15.2000005356857
 31
0.0
  0
TEXT
  5
A84
330
1A
100
AcDbEntity
  8
MOJI
100
AcDbText
 10
92.95779007344595
 20
12.74117866596043
 30
0.0
 40
6.0
  1
ライナートップＸ７０Ｕ
 41
0.9
  7
ｽﾀｲﾙ1
100
AcDbText
  0
CIRCLE
  5
A85
330
1A
100
AcDbEntity
  8
ZUWAKU
100
AcDbCircle
 10
25.99221264005791
 20
15.20000053568567
 30
0.0
 40
1.75
  0
LINE
  5
A86
330
1A
100
AcDbEntity
  8
ZUWAKU
100
AcDbLine
 10
26.86721264005791
 20
7.150000535685677
 30
0.0
 11
24.94221264005796
 21
7.150000535685677
 31
0.0
  0
LINE
  5
A87
330
1A
100
AcDbEntity
  8
ZUWAKU
100
AcDbLine
 10
24.94221264005796
 20
9.950000535685674
 30
0.0
 11
26.86721264005791
 21
9.950000535685674
 31
0.0
  0
LINE
  5
A88
330
1A
100
AcDbEntity
  8
ZUWAKU
100
AcDbLine
 10
26.86721264005791
 20
20.45000053568567
 30
0.0
 11
24.94221264005796
 21
20.45000053568567
 31
0.0
  0
LINE
  5
A89
330
1A
100
AcDbEntity
  8
ZUWAKU
100
AcDbLine
 10
24.94221264005796
 20
23.25000053568563
 30
0.0
 11
26.86721264005791
 21
23.25000053568567
 31
0.0
  0
HATCH
  5
A8A
330
1A
100
AcDbEntity
  8
ZUWAKU
100
AcDbHatch
 10
0.0
 20
0.0
 30
0.0
210
0.0
220
0.0
230
1.0
  2
ANSI37
 70
     0
 71
     0
 91
        8
 92
        7
 72
     1
 73
     1
 93
       24
 10
14.50226314639667
 20
17.64484901666925
 42
-0.1989123673796348
 10
14.09221264005793
 20
18.6347985103303
 42
0.0
 10
14.09221264005793
 20
19.92500053568568
 42
-0.4142135623730912
 10
14.61721264005791
 20
20.45000053568567
 42
0.0
 10
17.59221264005782
 20
20.45000053568567
 42
0.4142135623731546
 10
18.11721264005791
 20
20.97500053568566
 42
0.0
 10
18.11721264005791
 20
22.72500053568568
 42
0.4142135623731586
 10
17.59221264005782
 20
23.25000053568567
 42
0.0
 10
14.09221264005793
 20
23.25000053568567
 42
0.4142135623730928
 10
11.29221264005798
 20
20.4500005356857
 42
0.0
 10
11.29221264005798
 20
18.63479851033043
 42
0.1989123673796619
 10
12.52236415907441
 20
15.66495002934682
 42
0.0
 10
15.43216213371908
 20
12.75515205470217
 42
-0.1989123673796613
 10
15.84221264005793
 20
11.76520256104098
 42
0.0
 10
15.84221264005793
 20
10.47500053568566
 42
-0.4142135623730911
 10
15.31721264005796
 20
9.950000535685674
 42
0.0
 10
12.34221264005805
 20
9.950000535685674
 42
0.4142135623731526
 10
11.81721264005796
 20
9.425000535685686
 42
0.0
 10
11.81721264005796
 20
7.675000535685665
 42
0.4142135623731526
 10
12.34221264005805
 20
7.150000535685677
 42
0.0
 10
15.84221264005793
 20
7.150000535685677
 42
0.4142135623731044
 10
18.642212640058
 20
9.950000535685653
 42
0.0
 10
18.642212640058
 20
11.76520256104092
 42
0.1989123673796604
 10
17.41206112104146
 20
14.73505104202446
 42
0.0
 97
        0
 92
        7
 72
     1
 73
     1
 93
       16
 10
23.54221264005798
 20
19.05000053568568
 42
-0.4142135623730935
 10
24.94221264005796
 20
20.45000053568567
 42
0.0
 10
26.86721264005791
 20
20.45000053568567
 42
0.4142135623731546
 10
27.392212640058
 20
20.97500053568566
 42
0.0
 10
27.392212640058
 20
22.72500053568568
 42
0.4142135623730951
 10
26.86721264005802
 20
23.25000053568567
 42
0.0
 10
24.94221264005784
 20
23.25000053568563
 42
0.4142135623730892
 10
20.74221264005791
 20
19.05000053568561
 42
0.0
 10
20.74221264005791
 20
11.3500005356857
 42
0.4142135623730969
 10
24.94221264005796
 20
7.150000535685677
 42
0.0
 10
26.86721264005791
 20
7.150000535685677
 42
0.4142135623731526
 10
27.392212640058
 20
7.675000535685665
 42
0.0
 10
27.392212640058
 20
9.425000535685686
 42
0.4142135623730891
 10
26.86721264005802
 20
9.950000535685674
 42
0.0
 10
24.94221264005796
 20
9.950000535685674
 42
-0.4142135623730928
 10
23.54221264005798
 20
11.35000053568566
 42
0.0
 97
        0
 92
        7
 72
     1
 73
     1
 93
        2
 10
24.24221264005791
 20
15.20000053568567
 42
1.0
 10
27.74221264005791
 20
15.20000053568567
 42
1.0
 97
        0
 92
        7
 72
     1
 73
     1
 93
       26
 10
37.31485912223593
 20
19.2050477292491
 42
0.0
 10
38.37649875537374
 20
22.56690656751869
 42
0.5069206636600134
 10
37.87586785617838
 20
23.25000053568567
 42
0.0
 10
36.17697847656916
 20
23.25000053568567
 42
0.3272098845218764
 10
35.6763475773738
 20
22.88309450385264
 42
0.0
 10
33.80807770274202
 20
16.96690656751875
 42
-0.3272098845219541
 10
33.30744680354655
 20
16.60000053568567
 42
0.0
 10
33.16721264005809
 20
16.60000053568567
 42
-0.4142135623731526
 10
32.642212640058
 20
17.12500053568566
 42
0.0
 10
32.642212640058
 20
22.72500053568568
 42
0.4142135623730951
 10
32.11721264005802
 20
23.25000053568567
 42
0.0
 10
30.36721264005791
 20
23.25000053568567
 42
0.4142135623730871
 10
29.84221264005793
 20
22.72500053568569
 42
0.0
 10
29.84221264005793
 20
7.675000535685665
 42
0.4142135623730891
 10
30.36721264005791
 20
7.150000535685677
 42
0.0
 10
32.11721264005791
 20
7.150000535685677
 42
0.4142135623731526
 10
32.642212640058
 20
7.675000535685665
 42
0.0
 10
32.642212640058
 20
13.27500053568568
 42
-0.4142135623731526
 10
33.16721264005809
 20
13.80000053568567
 42
0.0
 10
33.30744680354666
 20
13.80000053568567
 42
-0.3272098845218915
 10
33.80807770274202
 20
13.4330945038526
 42
0.0
 10
35.6763475773738
 20
7.516906567518748
 42
0.3272098845218902
 10
36.17697847656916
 20
7.150000535685677
 42
0.0
 10
37.87586785617838
 20
7.150000535685677
 42
0.5069206636600335
 10
38.37649875537374
 20
7.833094503852684
 42
0.0
 10
36.05010737690008
 20
15.20000053568581
 42
0.0
 97
        0
 92
        7
 72
     1
 73
     1
 93
        8
 10
43.49221264005791
 20
22.72500053568568
 42
0.4142135623731546
 10
42.96721264005782
 20
23.25000053568567
 42
0.0
 10
41.21721264005805
 20
23.25000053568567
 42
0.4142135623731507
 10
40.69221264005796
 20
22.72500053568569
 42
0.0
 10
40.69221264005796
 20
7.675000535685665
 42
0.4142135623731526
 10
41.21721264005805
 20
7.150000535685677
 42
0.0
 10
42.96721264005782
 20
7.150000535685677
 42
0.4142135623731526
 10
43.49221264005791
 20
7.675000535685665
 42
0.0
 97
        0
 92
        7
 72
     1
 73
     1
 93
       24
 10
48.392212640058
 20
19.92500053568568
 42
-0.4142135623731546
 10
48.91721264005809
 20
20.45000053568567
 42
0.0
 10
51.89221264005801
 20
20.45000053568567
 42
0.4142135623730911
 10
52.41721264005798
 20
20.97500053568566
 42
0.0
 10
52.41721264005798
 20
22.72500053568568
 42
0.4142135623730952
 10
51.89221264005801
 20
23.25000053568567
 42
0.0
 10
48.392212640058
 20
23.25000053568567
 42
0.4142135623731048
 10
45.59221264005794
 20
20.4500005356857
 42
0.0
 10
45.59221264005794
 20
18.63479851033043
 42
0.1989123673796613
 10
46.82236415907448
 20
15.66495002934688
 42
0.0
 10
49.73216213371916
 20
12.75515205470221
 42
-0.1989123673796402
 10
50.14221264005801
 20
11.76520256104114
 42
0.0
 10
50.14221264005801
 20
10.47500053568566
 42
-0.4142135623730911
 10
49.61721264005802
 20
9.950000535685674
 42
0.0
 10
46.642212640058
 20
9.950000535685674
 42
0.4142135623731526
 10
46.11721264005791
 20
9.425000535685686
 42
0.0
 10
46.11721264005791
 20
7.675000535685665
 42
0.4142135623730891
 10
46.64221264005789
 20
7.150000535685677
 42
0.0
 10
50.14221264005801
 20
7.150000535685677
 42
0.4142135623730925
 10
52.94221264005796
 20
9.950000535685653
 42
0.0
 10
52.94221264005796
 20
11.76520256104092
 42
0.1989123673796675
 10
51.71206112104141
 20
14.73505104202458
 42
0.0
 10
48.80226314639685
 20
17.64484901666909
 42
-0.1989123673796652
 10
48.392212640058
 20
18.63479851033026
 42
0.0
 97
        0
 92
        7
 72
     1
 73
     1
 93
       16
 10
57.84221264005793
 20
22.72500053568566
 42
0.414213562373103
 10
57.31721264005796
 20
23.25000053568567
 42
0.0
 10
55.56721264005796
 20
23.25000053568567
 42
0.4142135623730871
 10
55.04221264005798
 20
22.72500053568569
 42
0.0
 10
55.04221264005798
 20
9.950000535685653
 42
0.4142135623730926
 10
57.84221264005793
 20
7.150000535685677
 42
0.0
 10
61.34221264005794
 20
7.150000535685677
 42
0.4142135623731044
 10
64.142212640058
 20
9.950000535685653
 42
0.0
 10
64.142212640058
 20
22.72500053568568
 42
0.4142135623730951
 10
63.61721264005803
 20
23.25000053568567
 42
0.0
 10
61.86721264005791
 20
23.25000053568567
 42
0.4142135623730871
 10
61.34221264005794
 20
22.72500053568569
 42
0.0
 10
61.34221264005794
 20
11.00000053568565
 42
-0.414213562373088
 10
60.29221264005798
 20
9.950000535685674
 42
0.0
 10
58.89221264005801
 20
9.950000535685674
 42
-0.4142135623731197
 10
57.84221264005793
 20
11.00000053568565
 42
0.0
 97
        0
 92
        7
 72
     1
 73
     1
 93
        8
 10
69.04221264005798
 20
22.72500053568569
 42
0.4142135623730871
 10
68.517212640058
 20
23.25000053568567
 42
0.0
 10
66.767212640058
 20
23.25000053568567
 42
0.4142135623731507
 10
66.24221264005791
 20
22.72500053568569
 42
0.0
 10
66.24221264005791
 20
7.675000535685665
 42
0.4142135623730891
 10
66.76721264005789
 20
7.150000535685677
 42
0.0
 10
68.517212640058
 20
7.150000535685677
 42
0.4142135623730891
 10
69.04221264005798
 20
7.675000535685665
 42
0.0
 97
        0
 75
     0
 76
     1
 52
0.0
 41
0.2
 77
     0
 78
     2
 53
45.0
 43
-900.9423038494022
 44
-13.19999946431426
 45
-0.4490128060534576
 46
0.4490128060534577
 79
     0
 53
135.0
 43
-900.9423038494022
 44
-13.19999946431426
 45
-0.4490128060534577
 46
-0.4490128060534576
 79
     0
 47
0.057451373970553
 98
        8
 10
16.07985544830012
 20
15.16717418157122
 10
22.40451549171598
 20
18.84406271813668
 10
25.16436837093647
 20
15.51188218175639
 10
30.91406046691395
 20
16.20129818212717
 10
41.83847250423355
 20
16.66091044966879
 10
46.89820138040636
 20
19.41857685209288
 10
56.55768645767716
 20
18.72915845078068
 10
67.82708010489955
 20
19.1887707183223
  0
ARC
  5
A8B
330
1A
100
AcDbEntity
  8
ZUWAKU
100
AcDbCircle
 10
15.49221264005791
 20
18.63479851033037
 30
0.0
 40
4.199999999999999
100
AcDbArc
 50
180.0
 51
225.0
  0
LINE
  5
A8C
330
1A
100
AcDbEntity
  8
ZUWAKU
100
AcDbLine
 10
20.74221264005791
 20
11.35000053568568
 30
0.0
 11
20.74221264005791
 21
19.05000053568563
 31
0.0
  0
LINE
  5
A8D
330
1A
100
AcDbEntity
  8
ZUWAKU
100
AcDbLine
 10
23.54221264005798
 20
19.05000053568567
 30
0.0
 11
23.54221264005798
 21
11.35000053568568
 31
0.0
  0
ARC
  5
A8E
330
1A
100
AcDbEntity
  8
ZUWAKU
100
AcDbCircle
 10
15.49221264005791
 20
18.63479851033037
 30
0.0
 40
1.399999999999999
100
AcDbArc
 50
180.0000000000016
 51
224.9999999999988
  0
ARC
  5
A8F
330
1A
100
AcDbEntity
  8
ZUWAKU
100
AcDbCircle
 10
24.94221264005796
 20
11.35000053568568
 30
0.0
 40
4.199999999999999
100
AcDbArc
 50
180.0
 51
270.0
  0
ARC
  5
A90
330
1A
100
AcDbEntity
  8
ZUWAKU
100
AcDbCircle
 10
15.84221264005793
 20
9.950000535685674
 30
0.0
 40
2.799999999999999
100
AcDbArc
 50
270.0
 51
0.0
  0
ARC
  5
A91
330
1A
100
AcDbEntity
  8
ZUWAKU
100
AcDbCircle
 10
14.44221264005796
 20
11.76520256104097
 30
0.0
 40
4.199999999999999
100
AcDbArc
 50
0.0
 51
45.0
  0
LINE
  5
A92
330
1A
100
AcDbEntity
  8
ZUWAKU
100
AcDbLine
 10
12.52236415907441
 20
15.66495002934685
 30
0.0
 11
15.43216213371908
 21
12.75515205470219
 31
0.0
  0
LINE
  5
A93
330
1A
100
AcDbEntity
  8
ZUWAKU
100
AcDbLine
 10
12.34221264005793
 20
9.950000535685674
 30
0.0
 11
15.31721264005796
 21
9.950000535685674
 31
0.0
  0
LINE
  5
A94
330
1A
100
AcDbEntity
  8
ZUWAKU
100
AcDbLine
 10
12.34221264005793
 20
7.150000535685677
 30
0.0
 11
15.84221264005793
 21
7.150000535685677
 31
0.0
  0
ARC
  5
A95
330
1A
100
AcDbEntity
  8
ZUWAKU
100
AcDbCircle
 10
12.34221264005793
 20
9.425000535685676
 30
0.0
 40
0.525
100
AcDbArc
 50
90.0
 51
180.0
  0
ARC
  5
A96
330
1A
100
AcDbEntity
  8
ZUWAKU
100
AcDbCircle
 10
12.34221264005793
 20
7.675000535685676
 30
0.0
 40
0.525
100
AcDbArc
 50
180.0
 51
270.0
  0
LINE
  5
A97
330
1A
100
AcDbEntity
  8
ZUWAKU
100
AcDbLine
 10
11.81721264005796
 20
7.675000535685676
 30
0.0
 11
11.81721264005796
 21
9.425000535685676
 31
0.0
  0
ARC
  5
A98
330
1A
100
AcDbEntity
  8
ZUWAKU
100
AcDbCircle
 10
14.44221264005796
 20
11.76520256104102
 30
0.0
 40
1.399999999999999
100
AcDbArc
 50
0.0
 51
45.0
  0
ARC
  5
A99
330
1A
100
AcDbEntity
  8
ZUWAKU
100
AcDbCircle
 10
15.31721264005796
 20
10.47500053568568
 30
0.0
 40
0.525
100
AcDbArc
 50
270.0
 51
0.0
  0
LINE
  5
A9A
330
1A
100
AcDbEntity
  8
ZUWAKU
100
AcDbLine
 10
15.84221264005793
 20
10.47500053568568
 30
0.0
 11
15.84221264005793
 21
11.76520256104102
 31
0.0
  0
LINE
  5
A9B
330
1A
100
AcDbEntity
  8
ZUWAKU
100
AcDbLine
 10
17.41206112104146
 20
14.7350510420245
 30
0.0
 11
14.50226314639678
 21
17.64484901666917
 31
0.0
  0
ARC
  5
A9C
330
1A
100
AcDbEntity
  8
ZUWAKU
100
AcDbCircle
 10
24.94221264005796
 20
11.35000053568568
 30
0.0
 40
1.399999999999999
100
AcDbArc
 50
180.0
 51
270.0
  0
LINE
  5
A9D
330
1A
100
AcDbEntity
  8
ZUWAKU
100
AcDbLine
 10
18.642212640058
 20
9.950000535685674
 30
0.0
 11
18.642212640058
 21
11.76520256104102
 31
0.0
  0
ARC
  5
A9E
330
1A
100
AcDbEntity
  8
ZUWAKU
100
AcDbCircle
 10
17.59221264005793
 20
20.97500053568567
 30
0.0
 40
0.525
100
AcDbArc
 50
270.0
 51
0.0
  0
ARC
  5
A9F
330
1A
100
AcDbEntity
  8
ZUWAKU
100
AcDbCircle
 10
17.59221264005793
 20
22.72500053568567
 30
0.0
 40
0.525
100
AcDbArc
 50
0.0
 51
90.0
  0
ARC
  5
AA0
330
1A
100
AcDbEntity
  8
ZUWAKU
100
AcDbCircle
 10
14.09221264005793
 20
20.45000053568567
 30
0.0
 40
2.799999999999999
100
AcDbArc
 50
90.0
 51
180.0
  0
LINE
  5
AA1
330
1A
100
AcDbEntity
  8
ZUWAKU
100
AcDbLine
 10
11.29221264005798
 20
20.45000053568567
 30
0.0
 11
11.29221264005798
 21
18.63479851033033
 31
0.0
  0
LINE
  5
AA2
330
1A
100
AcDbEntity
  8
ZUWAKU
100
AcDbLine
 10
17.59221264005793
 20
20.45000053568567
 30
0.0
 11
14.61721264005791
 21
20.45000053568567
 31
0.0
  0
LINE
  5
AA3
330
1A
100
AcDbEntity
  8
ZUWAKU
100
AcDbLine
 10
14.09221264005793
 20
19.92500053568567
 30
0.0
 11
14.09221264005793
 21
18.63479851033033
 31
0.0
  0
ARC
  5
AA4
330
1A
100
AcDbEntity
  8
ZUWAKU
100
AcDbCircle
 10
14.61721264005791
 20
19.92500053568567
 30
0.0
 40
0.525
100
AcDbArc
 50
90.0
 51
180.0
  0
LINE
  5
AA5
330
1A
100
AcDbEntity
  8
ZUWAKU
100
AcDbLine
 10
14.09221264005793
 20
23.25000053568567
 30
0.0
 11
17.59221264005793
 21
23.25000053568567
 31
0.0
  0
ARC
  5
AA6
330
1A
100
AcDbEntity
  8
ZUWAKU
100
AcDbCircle
 10
24.94221264005796
 20
19.05000053568563
 30
0.0
 40
4.199999999999999
100
AcDbArc
 50
90.0
 51
180.0
  0
ARC
  5
AA7
330
1A
100
AcDbEntity
  8
ZUWAKU
100
AcDbCircle
 10
24.94221264005796
 20
19.05000053568567
 30
0.0
 40
1.399999999999999
100
AcDbArc
 50
90.0
 51
180.0
  0
LINE
  5
AA8
330
1A
100
AcDbEntity
  8
ZUWAKU
100
AcDbLine
 10
18.11721264005791
 20
22.72500053568567
 30
0.0
 11
18.11721264005791
 21
20.97500053568567
 31
0.0
  0
LINE
  5
AA9
330
1A
100
AcDbEntity
  8
ZUWAKU
100
AcDbLine
 10
35.6763475773738
 20
22.88309450385264
 30
0.0
 11
33.80807770274202
 21
16.9669065675187
 31
0.0
  0
LINE
  5
AAA
330
1A
100
AcDbEntity
  8
ZUWAKU
100
AcDbLine
 10
29.84221264005793
 20
22.72500053568567
 30
0.0
 11
29.84221264005793
 21
7.675000535685676
 31
0.0
  0
LINE
  5
AAB
330
1A
100
AcDbEntity
  8
ZUWAKU
100
AcDbLine
 10
32.642212640058
 20
17.12500053568567
 30
0.0
 11
32.642212640058
 21
22.72500053568567
 31
0.0
  0
LINE
  5
AAC
330
1A
100
AcDbEntity
  8
ZUWAKU
100
AcDbLine
 10
57.84221264005793
 20
11.00000053568567
 30
0.0
 11
57.84221264005793
 21
22.72500053568567
 31
0.0
  0
LINE
  5
AAD
330
1A
100
AcDbEntity
  8
ZUWAKU
100
AcDbLine
 10
55.04221264005798
 20
22.72500053568567
 30
0.0
 11
55.04221264005798
 21
9.950000535685674
 31
0.0
  0
LINE
  5
AAE
330
1A
100
AcDbEntity
  8
ZUWAKU
100
AcDbLine
 10
43.49221264005791
 20
7.675000535685676
 30
0.0
 11
43.49221264005791
 21
22.72500053568567
 31
0.0
  0
LINE
  5
AAF
330
1A
100
AcDbEntity
  8
ZUWAKU
100
AcDbLine
 10
40.69221264005796
 20
22.72500053568567
 30
0.0
 11
40.69221264005796
 21
7.675000535685676
 31
0.0
  0
LINE
  5
AB0
330
1A
100
AcDbEntity
  8
ZUWAKU
100
AcDbLine
 10
37.31485912223593
 20
19.2050477292491
 30
0.0
 11
36.05010737690008
 21
15.20000053568569
 31
0.0
  0
ARC
  5
AB1
330
1A
100
AcDbEntity
  8
ZUWAKU
100
AcDbCircle
 10
49.79221264005798
 20
18.63479851033037
 30
0.0
 40
4.199999999999999
100
AcDbArc
 50
180.0
 51
225.0
  0
ARC
  5
AB2
330
1A
100
AcDbEntity
  8
ZUWAKU
100
AcDbCircle
 10
49.79221264005798
 20
18.63479851033037
 30
0.0
 40
1.399999999999999
100
AcDbArc
 50
180.0000000000016
 51
224.9999999999988
  0
LINE
  5
AB3
330
1A
100
AcDbEntity
  8
ZUWAKU
100
AcDbLine
 10
66.24221264005791
 20
22.72500053568567
 30
0.0
 11
66.24221264005791
 21
7.675000535685676
 31
0.0
  0
LINE
  5
AB4
330
1A
100
AcDbEntity
  8
ZUWAKU
100
AcDbLine
 10
69.04221264005798
 20
7.675000535685676
 30
0.0
 11
69.04221264005798
 21
22.72500053568567
 31
0.0
  0
LINE
  5
AB5
330
1A
100
AcDbEntity
  8
ZUWAKU
100
AcDbLine
 10
61.34221264005794
 20
22.72500053568567
 30
0.0
 11
61.34221264005794
 21
11.00000053568567
 31
0.0
  0
LINE
  5
AB6
330
1A
100
AcDbEntity
  8
ZUWAKU
100
AcDbLine
 10
64.142212640058
 20
9.950000535685674
 30
0.0
 11
64.142212640058
 21
22.72500053568567
 31
0.0
  0
LINE
  5
AB7
330
1A
100
AcDbEntity
  8
ZUWAKU
100
AcDbLine
 10
79.1266300332652
 20
30.00000053568567
 30
0.0
 11
79.1266300332652
 21
0.80000053568574
 31
0.0
  0
LINE
  5
AB8
330
1A
100
AcDbEntity
  8
ZUWAKU
100
AcDbLine
 10
79.52663003326506
 20
30.00000053568567
 30
0.0
 11
79.52663003326529
 21
0.80000053568574
 31
0.0
  0
LINE
  5
AB9
330
1A
100
AcDbEntity
  8
ZUWAKU
100
AcDbLine
 10
79.32663003326502
 20
30.00000053568567
 30
0.0
 11
79.32663003326524
 21
0.80000053568574
 31
0.0
  0
LINE
  5
ABA
330
1A
100
AcDbEntity
  8
ZUWAKU
100
AcDbLine
 10
57.84221264005793
 20
7.150000535685677
 30
0.0
 11
61.34221264005794
 21
7.150000535685677
 31
0.0
  0
LINE
  5
ABB
330
1A
100
AcDbEntity
  8
ZUWAKU
100
AcDbLine
 10
60.29221264005798
 20
9.950000535685674
 30
0.0
 11
58.89221264005801
 21
9.950000535685674
 31
0.0
  0
LINE
  5
ABC
330
1A
100
AcDbEntity
  8
ZUWAKU
100
AcDbLine
 10
41.21721264005794
 20
7.150000535685677
 30
0.0
 11
42.96721264005793
 21
7.150000535685677
 31
0.0
  0
LINE
  5
ABD
330
1A
100
AcDbEntity
  8
ZUWAKU
100
AcDbLine
 10
35.6763475773738
 20
7.516906567518702
 30
0.0
 11
33.80807770274202
 21
13.43309450385264
 31
0.0
  0
ARC
  5
ABE
330
1A
100
AcDbEntity
  8
ZUWAKU
100
AcDbCircle
 10
33.16721264005798
 20
13.27500053568567
 30
0.0
 40
0.525
100
AcDbArc
 50
90.0
 51
180.0
  0
ARC
  5
ABF
330
1A
100
AcDbEntity
  8
ZUWAKU
100
AcDbCircle
 10
33.30744680354666
 20
13.27500053568567
 30
0.0
 40
0.525
100
AcDbArc
 50
17.52556837372303
 51
90.0
  0
ARC
  5
AC0
330
1A
100
AcDbEntity
  8
ZUWAKU
100
AcDbCircle
 10
30.36721264005791
 20
7.675000535685676
 30
0.0
 40
0.525
100
AcDbArc
 50
180.0
 51
270.0
  0
ARC
  5
AC1
330
1A
100
AcDbEntity
  8
ZUWAKU
100
AcDbCircle
 10
26.86721264005791
 20
9.425000535685676
 30
0.0
 40
0.525
100
AcDbArc
 50
0.0
 51
90.0
  0
ARC
  5
AC2
330
1A
100
AcDbEntity
  8
ZUWAKU
100
AcDbCircle
 10
26.86721264005791
 20
7.675000535685676
 30
0.0
 40
0.525
100
AcDbArc
 50
270.0
 51
0.0
  0
LINE
  5
AC3
330
1A
100
AcDbEntity
  8
ZUWAKU
100
AcDbLine
 10
27.392212640058
 20
9.425000535685676
 30
0.0
 11
27.392212640058
 21
7.675000535685676
 31
0.0
  0
LINE
  5
AC4
330
1A
100
AcDbEntity
  8
ZUWAKU
100
AcDbLine
 10
32.642212640058
 20
7.675000535685676
 30
0.0
 11
32.642212640058
 21
13.27500053568567
 31
0.0
  0
ARC
  5
AC5
330
1A
100
AcDbEntity
  8
ZUWAKU
100
AcDbCircle
 10
32.11721264005791
 20
7.675000535685676
 30
0.0
 40
0.525
100
AcDbArc
 50
270.0
 51
0.0
  0
LINE
  5
AC6
330
1A
100
AcDbEntity
  8
ZUWAKU
100
AcDbLine
 10
30.36721264005791
 20
7.150000535685677
 30
0.0
 11
32.11721264005791
 21
7.150000535685677
 31
0.0
  0
ARC
  5
AC7
330
1A
100
AcDbEntity
  8
ZUWAKU
100
AcDbCircle
 10
33.16721264005798
 20
17.12500053568567
 30
0.0
 40
0.525
100
AcDbArc
 50
180.0
 51
270.0
  0
LINE
  5
AC8
330
1A
100
AcDbEntity
  8
ZUWAKU
100
AcDbLine
 10
33.16721264005798
 20
13.80000053568567
 30
0.0
 11
33.30744680354666
 21
13.80000053568567
 31
0.0
  0
LINE
  5
AC9
330
1A
100
AcDbEntity
  8
ZUWAKU
100
AcDbLine
 10
33.30744680354666
 20
16.60000053568567
 30
0.0
 11
33.16721264005798
 21
16.60000053568567
 31
0.0
  0
ARC
  5
ACA
330
1A
100
AcDbEntity
  8
ZUWAKU
100
AcDbCircle
 10
33.30744680354666
 20
17.12500053568567
 30
0.0
 40
0.525
100
AcDbArc
 50
270.0
 51
342.4744316262769
  0
ARC
  5
ACB
330
1A
100
AcDbEntity
  8
ZUWAKU
100
AcDbCircle
 10
36.17697847656927
 20
7.675000535685676
 30
0.0
 40
0.525
100
AcDbArc
 50
197.525568373723
 51
270.0
  0
LINE
  5
ACC
330
1A
100
AcDbEntity
  8
ZUWAKU
100
AcDbLine
 10
38.37649875537374
 20
7.833094503852649
 30
0.0
 11
36.05010737690008
 21
15.20000053568569
 31
0.0
  0
ARC
  5
ACD
330
1A
100
AcDbEntity
  8
ZUWAKU
100
AcDbCircle
 10
37.87586785617827
 20
7.675000535685676
 30
0.0
 40
0.525
100
AcDbArc
 50
270.0
 51
17.52556837372303
  0
LINE
  5
ACE
330
1A
100
AcDbEntity
  8
ZUWAKU
100
AcDbLine
 10
36.17697847656927
 20
7.150000535685677
 30
0.0
 11
37.87586785617827
 21
7.150000535685677
 31
0.0
  0
ARC
  5
ACF
330
1A
100
AcDbEntity
  8
ZUWAKU
100
AcDbCircle
 10
41.21721264005794
 20
7.675000535685676
 30
0.0
 40
0.525
100
AcDbArc
 50
180.0
 51
270.0
  0
ARC
  5
AD0
330
1A
100
AcDbEntity
  8
ZUWAKU
100
AcDbCircle
 10
50.14221264005801
 20
9.950000535685674
 30
0.0
 40
2.799999999999999
100
AcDbArc
 50
270.0
 51
0.0
  0
ARC
  5
AD1
330
1A
100
AcDbEntity
  8
ZUWAKU
100
AcDbCircle
 10
57.84221264005793
 20
9.950000535685674
 30
0.0
 40
2.799999999999999
100
AcDbArc
 50
180.0
 51
270.0
  0
LINE
  5
AD2
330
1A
100
AcDbEntity
  8
ZUWAKU
100
AcDbLine
 10
51.71206112104153
 20
14.7350510420245
 30
0.0
 11
48.80226314639674
 21
17.64484901666917
 31
0.0
  0
LINE
  5
AD3
330
1A
100
AcDbEntity
  8
ZUWAKU
100
AcDbLine
 10
46.82236415907448
 20
15.66495002934685
 30
0.0
 11
49.73216213371916
 21
12.75515205470219
 31
0.0
  0
LINE
  5
AD4
330
1A
100
AcDbEntity
  8
ZUWAKU
100
AcDbLine
 10
46.642212640058
 20
7.150000535685677
 30
0.0
 11
50.14221264005801
 21
7.150000535685677
 31
0.0
  0
LINE
  5
AD5
330
1A
100
AcDbEntity
  8
ZUWAKU
100
AcDbLine
 10
46.642212640058
 20
9.950000535685674
 30
0.0
 11
49.61721264005792
 21
9.950000535685674
 31
0.0
  0
ARC
  5
AD6
330
1A
100
AcDbEntity
  8
ZUWAKU
100
AcDbCircle
 10
46.642212640058
 20
9.425000535685676
 30
0.0
 40
0.525
100
AcDbArc
 50
90.0
 51
180.0
  0
ARC
  5
AD7
330
1A
100
AcDbEntity
  8
ZUWAKU
100
AcDbCircle
 10
42.96721264005793
 20
7.675000535685676
 30
0.0
 40
0.525
100
AcDbArc
 50
270.0
 51
0.0
  0
ARC
  5
AD8
330
1A
100
AcDbEntity
  8
ZUWAKU
100
AcDbCircle
 10
46.642212640058
 20
7.675000535685676
 30
0.0
 40
0.525
100
AcDbArc
 50
180.0
 51
270.0
  0
LINE
  5
AD9
330
1A
100
AcDbEntity
  8
ZUWAKU
100
AcDbLine
 10
46.11721264005791
 20
7.675000535685676
 30
0.0
 11
46.11721264005791
 21
9.425000535685676
 31
0.0
  0
ARC
  5
ADA
330
1A
100
AcDbEntity
  8
ZUWAKU
100
AcDbCircle
 10
49.61721264005792
 20
10.47500053568568
 30
0.0
 40
0.525
100
AcDbArc
 50
270.0
 51
0.0
  0
ARC
  5
ADB
330
1A
100
AcDbEntity
  8
ZUWAKU
100
AcDbCircle
 10
48.74221264005791
 20
11.76520256104102
 30
0.0
 40
1.399999999999999
100
AcDbArc
 50
0.0
 51
45.0
  0
LINE
  5
ADC
330
1A
100
AcDbEntity
  8
ZUWAKU
100
AcDbLine
 10
50.14221264005801
 20
10.47500053568568
 30
0.0
 11
50.14221264005801
 21
11.76520256104102
 31
0.0
  0
ARC
  5
ADD
330
1A
100
AcDbEntity
  8
ZUWAKU
100
AcDbCircle
 10
58.89221264005801
 20
11.00000053568567
 30
0.0
 40
1.049999999999999
100
AcDbArc
 50
180.0
 51
270.0
  0
ARC
  5
ADE
330
1A
100
AcDbEntity
  8
ZUWAKU
100
AcDbCircle
 10
48.74221264005791
 20
11.76520256104097
 30
0.0
 40
4.199999999999999
100
AcDbArc
 50
0.0
 51
45.0
  0
LINE
  5
ADF
330
1A
100
AcDbEntity
  8
ZUWAKU
100
AcDbLine
 10
52.94221264005796
 20
9.950000535685674
 30
0.0
 11
52.94221264005796
 21
11.76520256104102
 31
0.0
  0
ARC
  5
AE0
330
1A
100
AcDbEntity
  8
ZUWAKU
100
AcDbCircle
 10
61.34221264005794
 20
9.950000535685674
 30
0.0
 40
2.799999999999999
100
AcDbArc
 50
270.0
 51
0.0
  0
LINE
  5
AE1
330
1A
100
AcDbEntity
  8
ZUWAKU
100
AcDbLine
 10
66.767212640058
 20
7.150000535685677
 30
0.0
 11
68.517212640058
 21
7.150000535685677
 31
0.0
  0
ARC
  5
AE2
330
1A
100
AcDbEntity
  8
ZUWAKU
100
AcDbCircle
 10
60.29221264005798
 20
11.00000053568567
 30
0.0
 40
1.049999999999999
100
AcDbArc
 50
270.0
 51
0.0
  0
ARC
  5
AE3
330
1A
100
AcDbEntity
  8
ZUWAKU
100
AcDbCircle
 10
66.767212640058
 20
7.675000535685676
 30
0.0
 40
0.525
100
AcDbArc
 50
180.0
 51
270.0
  0
ARC
  5
AE4
330
1A
100
AcDbEntity
  8
ZUWAKU
100
AcDbCircle
 10
68.517212640058
 20
7.675000535685676
 30
0.0
 40
0.525
100
AcDbArc
 50
270.0
 51
0.0
  0
LINE
  5
AE5
330
1A
100
AcDbEntity
  8
ZUWAKU
100
AcDbLine
 10
42.96721264005793
 20
23.25000053568567
 30
0.0
 11
41.21721264005794
 21
23.25000053568567
 31
0.0
  0
LINE
  5
AE6
330
1A
100
AcDbEntity
  8
ZUWAKU
100
AcDbLine
 10
27.392212640058
 20
22.72500053568567
 30
0.0
 11
27.392212640058
 21
20.97500053568567
 31
0.0
  0
ARC
  5
AE7
330
1A
100
AcDbEntity
  8
ZUWAKU
100
AcDbCircle
 10
26.86721264005791
 20
20.97500053568567
 30
0.0
 40
0.525
100
AcDbArc
 50
270.0
 51
0.0
  0
ARC
  5
AE8
330
1A
100
AcDbEntity
  8
ZUWAKU
100
AcDbCircle
 10
30.36721264005791
 20
22.72500053568567
 30
0.0
 40
0.525
100
AcDbArc
 50
90.0
 51
180.0
  0
ARC
  5
AE9
330
1A
100
AcDbEntity
  8
ZUWAKU
100
AcDbCircle
 10
26.86721264005791
 20
22.72500053568567
 30
0.0
 40
0.525
100
AcDbArc
 50
0.0
 51
90.0
  0
LINE
  5
AEA
330
1A
100
AcDbEntity
  8
ZUWAKU
100
AcDbLine
 10
32.11721264005791
 20
23.25000053568567
 30
0.0
 11
30.36721264005791
 21
23.25000053568567
 31
0.0
  0
ARC
  5
AEB
330
1A
100
AcDbEntity
  8
ZUWAKU
100
AcDbCircle
 10
32.11721264005791
 20
22.72500053568567
 30
0.0
 40
0.525
100
AcDbArc
 50
0.0
 51
90.0
  0
ARC
  5
AEC
330
1A
100
AcDbEntity
  8
ZUWAKU
100
AcDbCircle
 10
36.17697847656927
 20
22.72500053568567
 30
0.0
 40
0.525
100
AcDbArc
 50
90.0
 51
162.4744316262769
  0
LINE
  5
AED
330
1A
100
AcDbEntity
  8
ZUWAKU
100
AcDbLine
 10
38.37649875537374
 20
22.5669065675187
 30
0.0
 11
37.31485912223593
 21
19.2050477292491
 31
0.0
  0
ARC
  5
AEE
330
1A
100
AcDbEntity
  8
ZUWAKU
100
AcDbCircle
 10
37.87586785617827
 20
22.72500053568567
 30
0.0
 40
0.525
100
AcDbArc
 50
342.4744316262769
 51
90.0
  0
LINE
  5
AEF
330
1A
100
AcDbEntity
  8
ZUWAKU
100
AcDbLine
 10
36.17697847656927
 20
23.25000053568567
 30
0.0
 11
37.87586785617827
 21
23.25000053568567
 31
0.0
  0
ARC
  5
AF0
330
1A
100
AcDbEntity
  8
ZUWAKU
100
AcDbCircle
 10
41.21721264005794
 20
22.72500053568567
 30
0.0
 40
0.525
100
AcDbArc
 50
90.0
 51
180.0
  0
LINE
  5
AF1
330
1A
100
AcDbEntity
  8
ZUWAKU
100
AcDbLine
 10
51.89221264005801
 20
20.45000053568567
 30
0.0
 11
48.91721264005798
 21
20.45000053568567
 31
0.0
  0
LINE
  5
AF2
330
1A
100
AcDbEntity
  8
ZUWAKU
100
AcDbLine
 10
48.392212640058
 20
23.25000053568567
 30
0.0
 11
51.89221264005801
 21
23.25000053568567
 31
0.0
  0
ARC
  5
AF3
330
1A
100
AcDbEntity
  8
ZUWAKU
100
AcDbCircle
 10
48.392212640058
 20
20.45000053568567
 30
0.0
 40
2.799999999999999
100
AcDbArc
 50
90.0
 51
180.0
  0
LINE
  5
AF4
330
1A
100
AcDbEntity
  8
ZUWAKU
100
AcDbLine
 10
45.59221264005794
 20
20.45000053568567
 30
0.0
 11
45.59221264005794
 21
18.63479851033033
 31
0.0
  0
ARC
  5
AF5
330
1A
100
AcDbEntity
  8
ZUWAKU
100
AcDbCircle
 10
42.96721264005793
 20
22.72500053568567
 30
0.0
 40
0.525
100
AcDbArc
 50
0.0
 51
90.0
  0
LINE
  5
AF6
330
1A
100
AcDbEntity
  8
ZUWAKU
100
AcDbLine
 10
48.392212640058
 20
19.92500053568567
 30
0.0
 11
48.392212640058
 21
18.63479851033033
 31
0.0
  0
ARC
  5
AF7
330
1A
100
AcDbEntity
  8
ZUWAKU
100
AcDbCircle
 10
48.91721264005798
 20
19.92500053568567
 30
0.0
 40
0.525
100
AcDbArc
 50
90.0
 51
180.0
  0
LINE
  5
AF8
330
1A
100
AcDbEntity
  8
ZUWAKU
100
AcDbLine
 10
52.41721264005798
 20
22.72500053568567
 30
0.0
 11
52.41721264005798
 21
20.97500053568567
 31
0.0
  0
ARC
  5
AF9
330
1A
100
AcDbEntity
  8
ZUWAKU
100
AcDbCircle
 10
51.89221264005801
 20
20.97500053568567
 30
0.0
 40
0.525
100
AcDbArc
 50
270.0
 51
0.0
  0
ARC
  5
AFA
330
1A
100
AcDbEntity
  8
ZUWAKU
100
AcDbCircle
 10
51.89221264005801
 20
22.72500053568567
 30
0.0
 40
0.525
100
AcDbArc
 50
0.0
 51
90.0
  0
LINE
  5
AFB
330
1A
100
AcDbEntity
  8
ZUWAKU
100
AcDbLine
 10
57.31721264005796
 20
23.25000053568567
 30
0.0
 11
55.56721264005796
 21
23.25000053568567
 31
0.0
  0
ARC
  5
AFC
330
1A
100
AcDbEntity
  8
ZUWAKU
100
AcDbCircle
 10
55.56721264005796
 20
22.72500053568567
 30
0.0
 40
0.525
100
AcDbArc
 50
90.0
 51
180.0
  0
ARC
  5
AFD
330
1A
100
AcDbEntity
  8
ZUWAKU
100
AcDbCircle
 10
57.31721264005796
 20
22.72500053568567
 30
0.0
 40
0.525
100
AcDbArc
 50
0.0
 51
90.0
  0
LINE
  5
AFE
330
1A
100
AcDbEntity
  8
ZUWAKU
100
AcDbLine
 10
68.517212640058
 20
23.25000053568567
 30
0.0
 11
66.767212640058
 21
23.25000053568567
 31
0.0
  0
ARC
  5
AFF
330
1A
100
AcDbEntity
  8
ZUWAKU
100
AcDbCircle
 10
61.86721264005791
 20
22.72500053568567
 30
0.0
 40
0.525
100
AcDbArc
 50
90.0
 51
180.0
  0
LINE
  5
B00
330
1A
100
AcDbEntity
  8
ZUWAKU
100
AcDbLine
 10
63.61721264005791
 20
23.25000053568567
 30
0.0
 11
61.86721264005791
 21
23.25000053568567
 31
0.0
  0
ARC
  5
B01
330
1A
100
AcDbEntity
  8
ZUWAKU
100
AcDbCircle
 10
63.61721264005791
 20
22.72500053568567
 30
0.0
 40
0.525
100
AcDbArc
 50
0.0
 51
90.0
  0
ARC
  5
B02
330
1A
100
AcDbEntity
  8
ZUWAKU
100
AcDbCircle
 10
66.767212640058
 20
22.72500053568567
 30
0.0
 40
0.525
100
AcDbArc
 50
90.0
 51
180.0
  0
ARC
  5
B03
330
1A
100
AcDbEntity
  8
ZUWAKU
100
AcDbCircle
 10
68.517212640058
 20
22.72500053568567
 30
0.0
 40
0.525
100
AcDbArc
 50
0.0
 51
90.0
  0
LINE
  5
B04
330
1A
100
AcDbEntity
  8
ZUWAKU
100
AcDbLine
 10
208.4466017753445
 20
30.00000053568567
 30
0.0
 11
208.4466017753447
 21
0.80000053568574
 31
0.0
  0
LINE
  5
B05
330
1A
100
AcDbEntity
  8
ZUWAKU
100
AcDbLine
 10
208.6466017753445
 20
30.00000053568567
 30
0.0
 11
208.6466017753448
 21
0.80000053568574
 31
0.0
  0
LINE
  5
B06
330
1A
100
AcDbEntity
  8
ZUWAKU
100
AcDbLine
 10
208.2466017753447
 20
30.00000053568567
 30
0.0
 11
208.2466017753447
 21
0.80000053568574
 31
0.0
  0
TEXT
  5
B07
330
1A
100
AcDbEntity
  8
MOJI
100
AcDbText
 10
239.8272031661278
 20
18.00492159309305
 30
0.0
 40
5.599999999999999
  1
ステンレス金具正面打（受）固定式
 41
0.9
  7
ｽﾀｲﾙ1
100
AcDbText
  0
TEXT
  5
B08
330
1A
100
AcDbEntity
  8
ZUWAKU
100
AcDbText
 10
209.7240467975543
 20
9.655357074071289
 30
0.0
 40
4.0
  1
サイズ
 41
0.9
  7
ｽﾀｲﾙ1
100
AcDbText
  0
TEXT
  5
B09
330
1A
100
AcDbEntity
  8
MOJI
100
AcDbText
 10
239.8272031661278
 20
3.204921593093093
 30
0.0
 40
5.599999999999999
  1
Ｘ７０Ｕ－０寸－１０m/m（3分）
 41
0.9
  7
ｽﾀｲﾙ1
100
AcDbText
  0
TEXT
  5
B0A
330
1A
100
AcDbEntity
  8
ZUWAKU
100
AcDbText
 10
209.7240467975541
 20
24.05535707407125
 30
0.0
 40
4.0
  1
品名
 41
0.9
  7
ｽﾀｲﾙ1
100
AcDbText
  0
TEXT
  5
B0C
330
1A
100
AcDbEntity
  8
ZUWAKU
100
AcDbText
 10
658.2039381725792
 20
18.00492159309305
 30
0.0
 40
5.599999999999999
  1
　　．　　．　　
 41
0.9
  7
ｽﾀｲﾙ1
100
AcDbText
  0
LINE
  5
B0D
330
1A
100
AcDbEntity
  8
ZUWAKU
100
AcDbLine
 10
648.817202995481
 20
15.6000005356857
 30
0.0
 11
697.249011033818
 21
15.6000005356857
 31
0.0
  0
LINE
  5
B0E
330
1A
100
AcDbEntity
  8
ZUWAKU
100
AcDbLine
 10
648.8172029954812
 20
15.4000005356857
 30
0.0
 11
697.249011033818
 21
15.4000005356857
 31
0.0
  0
LINE
  5
B0F
330
1A
100
AcDbEntity
  8
ZUWAKU
100
AcDbLine
 10
648.817202995481
 20
15.2000005356857
 30
0.0
 11
697.249011033818
 21
15.2000005356857
 31
0.0
  0
LINE
  5
B10
330
1A
100
AcDbEntity
  8
ZUWAKU
100
AcDbLine
 10
505.1991799834176
 20
15.6000005356857
 30
0.0
 11
552.5269562513893
 21
15.6000005356857
 31
0.0
  0
LINE
  5
B11
330
1A
100
AcDbEntity
  8
ZUWAKU
100
AcDbLine
 10
505.1991799834176
 20
15.4000005356857
 30
0.0
 11
552.5269562513893
 21
15.4000005356857
 31
0.0
  0
LINE
  5
B12
330
1A
100
AcDbEntity
  8
ZUWAKU
100
AcDbLine
 10
505.1991799834176
 20
15.20000053568571
 30
0.0
 11
552.5269562513893
 21
15.20000053568571
 31
0.0
  0
LINE
  5
B13
330
1A
100
AcDbEntity
  8
ZUWAKU
100
AcDbLine
 10
504.7991799834178
 20
30.00000053568567
 30
0.0
 11
504.7991799834178
 21
0.80000053568574
 31
0.0
  0
LINE
  5
B14
330
1A
100
AcDbEntity
  8
ZUWAKU
100
AcDbLine
 10
505.1991799834176
 20
30.00000053568567
 30
0.0
 11
505.1991799834179
 21
0.80000053568574
 31
0.0
  0
LINE
  5
B15
330
1A
100
AcDbEntity
  8
ZUWAKU
100
AcDbLine
 10
504.9991799834177
 20
30.00000053568567
 30
0.0
 11
504.9991799834178
 21
0.80000053568574
 31
0.0
  0
TEXT
  5
B16
330
1A
100
AcDbEntity
  8
MOJI
100
AcDbText
 10
528.0409084575897
 20
18.00492159309305
 30
0.0
 40
5.599999999999999
  1
Ａ３
 41
0.9
  7
ｽﾀｲﾙ1
100
AcDbText
  0
LINE
  5
B17
330
1A
100
AcDbEntity
  8
ZUWAKU
100
AcDbLine
 10
447.4243644562682
 20
30.00000053568567
 30
0.0
 11
447.4243644562682
 21
0.80000053568574
 31
0.0
  0
LINE
  5
B18
330
1A
100
AcDbEntity
  8
ZUWAKU
100
AcDbLine
 10
447.824364456268
 20
30.00000053568567
 30
0.0
 11
447.8243644562683
 21
0.80000053568574
 31
0.0
  0
LINE
  5
B19
330
1A
100
AcDbEntity
  8
ZUWAKU
100
AcDbLine
 10
447.624364456268
 20
30.00000053568567
 30
0.0
 11
447.6243644562682
 21
0.80000053568574
 31
0.0
  0
TEXT
  5
B1A
330
1A
100
AcDbEntity
  8
MOJI
100
AcDbText
 10
463.2464324762788
 20
11.94261825734565
 30
0.0
 40
5.599999999999999
  1
ＬＣ７２□
 41
0.9
  7
ｽﾀｲﾙ1
100
AcDbText
  0
TEXT
  5
B1B
330
1A
100
AcDbEntity
  8
ZUWAKU
100
AcDbText
 10
461.6981357131892
 20
2.908329775574884
 30
0.0
 40
3.0
  1
□には色品番が入ります
 41
0.9
  7
ｽﾀｲﾙ1
100
AcDbText
  0
TEXT
  5
B1C
330
1A
100
AcDbEntity
  8
ZUWAKU
100
AcDbText
 10
506.6766250056275
 20
9.655357074071289
 30
0.0
 40
4.0
  1
縮尺
 41
0.9
  7
ｽﾀｲﾙ1
100
AcDbText
  0
TEXT
  5
B1D
330
1A
100
AcDbEntity
  8
MOJI
100
AcDbText
 10
528.0409084575897
 20
3.204921593093093
 30
0.0
 40
5.599999999999999
  1
１/２
 41
0.9
  7
ｽﾀｲﾙ1
100
AcDbText
  0
TEXT
  5
B1E
330
1A
100
AcDbEntity
  8
ZUWAKU
100
AcDbText
 10
449.3018094784777
 20
24.05535707407125
 30
0.0
 40
4.0
  1
品番
 41
0.9
  7
ｽﾀｲﾙ1
100
AcDbText
  0
TEXT
  5
B1F
330
1A
100
AcDbEntity
  8
ZUWAKU
100
AcDbText
 10
506.6766250056273
 20
24.05535707407125
 30
0.0
 40
4.0
  1
用紙
 41
0.9
  7
ｽﾀｲﾙ1
100
AcDbText
  0
LINE
  5
B20
330
1A
100
AcDbEntity
  8
ZUWAKU
100
AcDbLine
 10
552.5269562513893
 20
30.00000053568567
 30
0.0
 11
552.5269562513893
 21
0.80000053568574
 31
0.0
  0
LINE
  5
B21
330
1A
100
AcDbEntity
  8
ZUWAKU
100
AcDbLine
 10
552.9269562513891
 20
30.00000053568567
 30
0.0
 11
552.9269562513893
 21
0.80000053568574
 31
0.0
  0
LINE
  5
B22
330
1A
100
AcDbEntity
  8
ZUWAKU
100
AcDbLine
 10
552.7269562513891
 20
30.00000053568567
 30
0.0
 11
552.7269562513892
 21
0.80000053568574
 31
0.0
  0
LINE
  5
B23
330
1A
100
AcDbEntity
  8
ZUWAKU
100
AcDbLine
 10
648.4172029954813
 20
30.00000053568567
 30
0.0
 11
648.4172029954813
 21
0.80000053568574
 31
0.0
  0
LINE
  5
B24
330
1A
100
AcDbEntity
  8
ZUWAKU
100
AcDbLine
 10
648.8172029954812
 20
30.00000053568567
 30
0.0
 11
648.8172029954815
 21
0.80000053568574
 31
0.0
  0
LINE
  5
B25
330
1A
100
AcDbEntity
  8
ZUWAKU
100
AcDbLine
 10
648.6172029954811
 20
30.00000053568567
 30
0.0
 11
648.6172029954814
 21
0.80000053568574
 31
0.0
  0
TEXT
  5
B26
330
1A
100
AcDbEntity
  8
ZUWAKU
100
AcDbText
 10
650.2946480176908
 20
24.05535707407125
 30
0.0
 40
4.0
  1
DATE
 41
0.9
  7
ｽﾀｲﾙ1
100
AcDbText
  0
TEXT
  5
B27
330
1A
100
AcDbEntity
  8
ZUWAKU
100
AcDbText
 10
708.5280846775206
 20
17.55383987137247
 30
0.0
 40
6.0
  1
積水化学工業株式会社
 41
0.9
  7
ｽﾀｲﾙ1
100
AcDbText
  0
LINE
  5
B28
330
1A
100
AcDbEntity
  8
ZUWAKU
100
AcDbLine
 10
697.849011033818
 20
30.00000053568567
 30
0.0
 11
697.8490110338182
 21
0.80000053568574
 31
0.0
  0
LINE
  5
B29
330
1A
100
AcDbEntity
  8
ZUWAKU
100
AcDbLine
 10
697.6490110338179
 20
30.00000053568567
 30
0.0
 11
697.6490110338182
 21
0.80000053568574
 31
0.0
  0
LINE
  5
B2A
330
1A
100
AcDbEntity
  8
ZUWAKU
100
AcDbLine
 10
697.4490110338181
 20
30.00000053568567
 30
0.0
 11
697.4490110338181
 21
0.80000053568574
 31
0.0
  0
LINE
  5
B2B
330
1A
100
AcDbEntity
  8
ZUWAKU
100
AcDbLine
 10
697.249011033818
 20
30.00000053568567
 30
0.0
 11
697.249011033818
 21
0.80000053568574
 31
0.0
  0
TEXT
  5
B2C
330
1A
100
AcDbEntity
  8
ZUWAKU
100
AcDbText
 10
708.5280846775206
 20
6.648840849539737
 30
0.0
 40
6.0
  1
建材事業部
 41
0.9
  7
ｽﾀｲﾙ1
100
AcDbText
  0
VIEWPORT
  5
22
330
17
100
AcDbEntity
 67
     1
  8
0
100
AcDbViewport
 10
313.6808219178082
 20
148.5
 30
0.0
 40
627.3616438356165
 41
297.0
 68
     2
 69
     1
1001
ACAD
1000
MVIEW
1002
{
1070
    16
1010
0.0
1020
0.0
1030
0.0
1010
0.0
1020
0.0
1030
1.0
1040
0.0
1040
297.0
1040
313.6808219178082
1040
148.5
1040
50.0
1040
0.0
1040
0.0
1070
     0
1070
   100
1070
     1
1070
     0
1070
     0
1070
     0
1070
     0
1070
     0
1040
0.0
1040
0.0
1040
0.0
1040
1.0
1040
1.0
1040
10.0
1040
10.0
1070
     0
1002
{
1002
}
1002
}
  0
VIEWPORT
  5
64
330
17
100
AcDbEntity
 67
     1
  8
VIEWPORT
100
AcDbViewport
 10
210.0
 20
148.5
 30
0.0
 40
420.0
 41
297.0
 68
     1
 69
     2
1001
ACAD
1000
MVIEW
1002
{
1070
    16
1010
0.0
1020
0.0
1030
0.0
1010
0.0
1020
0.0
1030
1.0
1040
0.0
1040
605.8799999999998
1040
420.0
1040
297.0
1040
50.0
1040
0.0
1040
0.0
1070
     0
1070
   100
1070
     1
1070
     0
1070
     0
1070
     0
1070
     0
1070
     0
1040
0.0
1040
0.0
1040
0.0
1040
10.0
1040
10.0
1040
0.0
1040
0.0
1070
     0
1002
{
1002
}
1002
}
  0
ENDSEC
  0
SECTION
  2
OBJECTS
  0
DICTIONARY
  5
C
330
0
100
AcDbDictionary
  3
ACAD_GROUP
350
D
  3
ACAD_LAYOUT
350
892
  3
ACAD_MLINESTYLE
350
E
  3
ACAD_PLOTSETTINGS
350
893
  3
ACAD_PLOTSTYLENAME
350
890
  3
ACDBHEADERROUNDTRIPXREC
350
CA2
  0
DICTIONARY
  5
8C1
330
1A
100
AcDbDictionary
280
     1
  3
ACAD_LAYOUTSELFREF
360
CC4
  0
DICTIONARY
  5
8BF
330
17
100
AcDbDictionary
280
     1
  3
ACAD_LAYOUTSELFREF
360
CC3
  0
DICTIONARY
  5
D
102
{ACAD_REACTORS
330
C
102
}
330
C
100
AcDbDictionary
  0
DICTIONARY
  5
892
102
{ACAD_REACTORS
330
C
102
}
330
C
100
AcDbDictionary
  0
DICTIONARY
  5
E
102
{ACAD_REACTORS
330
C
102
}
330
C
100
AcDbDictionary
  3
STANDARD
350
13
  0
DICTIONARY
  5
893
102
{ACAD_REACTORS
330
C
102
}
330
C
100
AcDbDictionary
  0
ACDBDICTIONARYWDFLT
  5
890
102
{ACAD_REACTORS
330
C
102
}
330
C
100
AcDbDictionary
281
     1
  3
Normal
350
891
100
AcDbDictionaryWithDefault
340
891
1001
ACAD
1000
TREAT_AS_HARD
1070
     0
1000
TREAT_AS_HARD
1070
     0
  0
DICTIONARY
  5
CA2
102
{ACAD_REACTORS
330
C
102
}
330
C
100
AcDbDictionary
  3
TSTACKALIGN
350
CA3
  3
TSTACKSIZE
350
CA4
  3
HYPERLINKBASE
350
CA5
  3
STYLESHEET
350
CA6
  3
LAYOUTDICT
350
CA7
  3
PLOTSETDICT
350
CA8
  3
PLOTSTYLNAMDICT
350
CA9
  3
LWETCUNION
350
CAA
  3
INSUNITS
350
CAB
  3
CEPSNTYPE
350
CAC
  3
FINGERPRINTGUID
350
CAD
  3
VERSIONGUID
350
CAE
  3
PSVPSCALE
350
CAF
  3
DIMSTYLEDATA
350
CB0
  3
PUCSORTHOREF
350
CB1
  3
PUCSORTHOVIEW
350
CB2
  3
PUCSBASE
350
CB3
  3
PUCSORGTOP
350
CB4
  3
PUCSORGBOTTOM
350
CB5
  3
PUCSORGLEFT
350
CB6
  3
PUCSORGRIGHT
350
CB7
  3
PUCSORGFRONT
350
CB8
  3
PUCSORGBACK
350
CB9
  3
UCSORTHOREF
350
CBA
  3
UCSORTHOVIEW
350
CBB
  3
UCSBASE
350
CBC
  3
UCSORGTOP
350
CBD
  3
UCSORGBOTTOM
350
CBE
  3
UCSORGLEFT
350
CBF
  3
UCSORGRIGHT
350
CC0
  3
UCSORGFRONT
350
CC1
  3
UCSORGBACK
350
CC2
  0
XRECORD
  5
CC4
102
{ACAD_REACTORS
330
8C1
102
}
330
8C1
100
AcDbXrecord
340
1A
  0
XRECORD
  5
CC3
102
{ACAD_REACTORS
330
8BF
102
}
330
8BF
100
AcDbXrecord
340
17
  0
MLINESTYLE
  5
13
102
{ACAD_REACTORS
330
E
102
}
330
E
100
AcDbMlineStyle
  2
STANDARD
 70
     0
  3

 62
     0
 51
90.0
 52
90.0
 71
     2
 49
0.5
 62
   256
  6
BYLAYER
 49
-0.5
 62
   256
  6
BYLAYER
  0
ACDBPLACEHOLDER
  5
891
102
{ACAD_REACTORS
330
890
102
}
330
890
100
AcDbPlaceHolder
280
     0
  0
XRECORD
  5
CA3
102
{ACAD_REACTORS
330
CA2
102
}
330
CA2
100
AcDbXrecord
 90
        1
  0
XRECORD
  5
CA4
102
{ACAD_REACTORS
330
CA2
102
}
330
CA2
100
AcDbXrecord
 90
       70
  0
XRECORD
  5
CA5
102
{ACAD_REACTORS
330
CA2
102
}
330
CA2
100
AcDbXrecord
  1

  0
XRECORD
  5
CA6
102
{ACAD_REACTORS
330
CA2
102
}
330
CA2
100
AcDbXrecord
  1
systemprinter.ctb
  0
XRECORD
  5
CA7
102
{ACAD_REACTORS
330
CA2
102
}
330
CA2
100
AcDbXrecord
340
892
  0
XRECORD
  5
CA8
102
{ACAD_REACTORS
330
CA2
102
}
330
CA2
100
AcDbXrecord
340
893
  0
XRECORD
  5
CA9
102
{ACAD_REACTORS
330
CA2
102
}
330
CA2
100
AcDbXrecord
340
890
  0
XRECORD
  5
CAA
102
{ACAD_REACTORS
330
CA2
102
}
330
CA2
100
AcDbXrecord
 90
    10781
  0
XRECORD
  5
CAB
102
{ACAD_REACTORS
330
CA2
102
}
330
CA2
100
AcDbXrecord
 90
        0
  0
XRECORD
  5
CAC
102
{ACAD_REACTORS
330
CA2
102
}
330
CA2
100
AcDbXrecord
 90
        0
  0
XRECORD
  5
CAD
102
{ACAD_REACTORS
330
CA2
102
}
330
CA2
100
AcDbXrecord
  1
{E5F3D53B-1EE9-4714-BADE-C6736019F9EF}
  0
XRECORD
  5
CAE
102
{ACAD_REACTORS
330
CA2
102
}
330
CA2
100
AcDbXrecord
  1
{EAF5B2DE-C3BE-4D88-9B04-DB54E8B33824}
  0
XRECORD
  5
CAF
102
{ACAD_REACTORS
330
CA2
102
}
330
CA2
100
AcDbXrecord
 40
0.0
  0
XRECORD
  5
CB0
102
{ACAD_REACTORS
330
CA2
102
}
330
CA2
100
AcDbXrecord
1000
DSTYLE
1002
{
1070
   341
340
6D
1070
   343
340
6D
1070
   344
340
6D
1070
   371
 70
    -1
1070
   372
 70
    -1
1002
}
  0
XRECORD
  5
CB1
102
{ACAD_REACTORS
330
CA2
102
}
330
CA2
100
AcDbXrecord
340
0
  0
XRECORD
  5
CB2
102
{ACAD_REACTORS
330
CA2
102
}
330
CA2
100
AcDbXrecord
 70
     0
  0
XRECORD
  5
CB3
102
{ACAD_REACTORS
330
CA2
102
}
330
CA2
100
AcDbXrecord
340
0
  0
XRECORD
  5
CB4
102
{ACAD_REACTORS
330
CA2
102
}
330
CA2
100
AcDbXrecord
 10
0.0
 20
0.0
 30
0.0
  0
XRECORD
  5
CB5
102
{ACAD_REACTORS
330
CA2
102
}
330
CA2
100
AcDbXrecord
 10
0.0
 20
0.0
 30
0.0
  0
XRECORD
  5
CB6
102
{ACAD_REACTORS
330
CA2
102
}
330
CA2
100
AcDbXrecord
 10
0.0
 20
0.0
 30
0.0
  0
XRECORD
  5
CB7
102
{ACAD_REACTORS
330
CA2
102
}
330
CA2
100
AcDbXrecord
 10
0.0
 20
0.0
 30
0.0
  0
XRECORD
  5
CB8
102
{ACAD_REACTORS
330
CA2
102
}
330
CA2
100
AcDbXrecord
 10
0.0
 20
0.0
 30
0.0
  0
XRECORD
  5
CB9
102
{ACAD_REACTORS
330
CA2
102
}
330
CA2
100
AcDbXrecord
 10
0.0
 20
0.0
 30
0.0
  0
XRECORD
  5
CBA
102
{ACAD_REACTORS
330
CA2
102
}
330
CA2
100
AcDbXrecord
340
0
  0
XRECORD
  5
CBB
102
{ACAD_REACTORS
330
CA2
102
}
330
CA2
100
AcDbXrecord
 70
     0
  0
XRECORD
  5
CBC
102
{ACAD_REACTORS
330
CA2
102
}
330
CA2
100
AcDbXrecord
340
0
  0
XRECORD
  5
CBD
102
{ACAD_REACTORS
330
CA2
102
}
330
CA2
100
AcDbXrecord
 10
0.0
 20
0.0
 30
0.0
  0
XRECORD
  5
CBE
102
{ACAD_REACTORS
330
CA2
102
}
330
CA2
100
AcDbXrecord
 10
0.0
 20
0.0
 30
0.0
  0
XRECORD
  5
CBF
102
{ACAD_REACTORS
330
CA2
102
}
330
CA2
100
AcDbXrecord
 10
0.0
 20
0.0
 30
0.0
  0
XRECORD
  5
CC0
102
{ACAD_REACTORS
330
CA2
102
}
330
CA2
100
AcDbXrecord
 10
0.0
 20
0.0
 30
0.0
  0
XRECORD
  5
CC1
102
{ACAD_REACTORS
330
CA2
102
}
330
CA2
100
AcDbXrecord
 10
0.0
 20
0.0
 30
0.0
  0
XRECORD
  5
CC2
102
{ACAD_REACTORS
330
CA2
102
}
330
CA2
100
AcDbXrecord
 10
0.0
 20
0.0
 30
0.0
  0
ENDSEC
  0
EOF
