  0
SECTION
  2
HEADER
  9
$ACADVER
  1
AC1014
  9
$ACADMAINTVER
 70
     9
  9
$DWGCODEPAGE
  3
ANSI_932
  9
$INSBASE
 10
0.0
 20
0.0
 30
0.0
  9
$EXTMIN
 10
-0.0128168413908725
 20
-0.0090633266842133
 30
-0.0015258207003583
  9
$EXTMAX
 10
398.800049759304
 20
275.822617222791
 30
0.0000000349246037
  9
$LIMMIN
 10
0.0
 20
0.0
  9
$LIMMAX
 10
420.0
 20
297.0
  9
$ORTHOMODE
 70
     0
  9
$REGENMODE
 70
     1
  9
$FILLMODE
 70
     1
  9
$QTEXTMODE
 70
     0
  9
$MIRRTEXT
 70
     1
  9
$DRAGMODE
 70
     2
  9
$LTSCALE
 40
1.0
  9
$OSMODE
 70
    37
  9
$ATTMODE
 70
     1
  9
$TEXTSIZE
 40
2.5
  9
$TRACEWID
 40
1.0
  9
$TEXTSTYLE
  7
STANDARD
  9
$CLAYER
  8
ZUWAKU
  9
$CELTYPE
  6
BYLAYER
  9
$CECOLOR
 62
   256
  9
$CELTSCALE
 40
1.0
  9
$DELOBJ
 70
     1
  9
$DISPSILH
 70
     0
  9
$DIMSCALE
 40
1.0
  9
$DIMASZ
 40
3.0
  9
$DIMEXO
 40
3.0
  9
$DIMDLI
 40
7.0
  9
$DIMRND
 40
0.0
  9
$DIMDLE
 40
0.0
  9
$DIMEXE
 40
1.5
  9
$DIMTP
 40
0.0
  9
$DIMTM
 40
0.0
  9
$DIMTXT
 40
3.0
  9
$DIMCEN
 40
150.0
  9
$DIMTSZ
 40
0.0
  9
$DIMTOL
 70
     0
  9
$DIMLIM
 70
     0
  9
$DIMTIH
 70
     0
  9
$DIMTOH
 70
     0
  9
$DIMSE1
 70
     0
  9
$DIMSE2
 70
     0
  9
$DIMTAD
 70
     3
  9
$DIMZIN
 70
     0
  9
$DIMBLK
  1

  9
$DIMASO
 70
     1
  9
$DIMSHO
 70
     1
  9
$DIMPOST
  1

  9
$DIMAPOST
  1

  9
$DIMALT
 70
     0
  9
$DIMALTD
 70
     2
  9
$DIMALTF
 40
25.4
  9
$DIMLFAC
 40
1.0
  9
$DIMTOFL
 70
     1
  9
$DIMTVP
 40
0.0
  9
$DIMTIX
 70
     0
  9
$DIMSOXD
 70
     0
  9
$DIMSAH
 70
     1
  9
$DIMBLK1
  1
OPEN
  9
$DIMBLK2
  1
OPEN
  9
$DIMSTYLE
  2
STANDARD
  9
$DIMCLRD
 70
   256
  9
$DIMCLRE
 70
   256
  9
$DIMCLRT
 70
   256
  9
$DIMTFAC
 40
1.0
  9
$DIMGAP
 40
1.0
  9
$DIMJUST
 70
     0
  9
$DIMSD1
 70
     0
  9
$DIMSD2
 70
     0
  9
$DIMTOLJ
 70
     1
  9
$DIMTZIN
 70
     0
  9
$DIMALTZ
 70
     0
  9
$DIMALTTZ
 70
     0
  9
$DIMFIT
 70
     3
  9
$DIMUPT
 70
     0
  9
$DIMUNIT
 70
     2
  9
$DIMDEC
 70
     0
  9
$DIMTDEC
 70
     0
  9
$DIMALTU
 70
     2
  9
$DIMALTTD
 70
     2
  9
$DIMTXSTY
  7
STANDARD
  9
$DIMAUNIT
 70
     0
  9
$LUNITS
 70
     2
  9
$LUPREC
 70
     4
  9
$SKETCHINC
 40
1.0
  9
$FILLETRAD
 40
10.0
  9
$AUNITS
 70
     0
  9
$AUPREC
 70
     0
  9
$MENU
  1
.
  9
$ELEVATION
 40
0.0
  9
$PELEVATION
 40
0.0
  9
$THICKNESS
 40
0.0
  9
$LIMCHECK
 70
     0
  9
$BLIPMODE
 70
     0
  9
$CHAMFERA
 40
10.0
  9
$CHAMFERB
 40
10.0
  9
$CHAMFERC
 40
20.0
  9
$CHAMFERD
 40
0.0
  9
$SKPOLY
 70
     0
  9
$TDCREATE
 40
2450994.350997107
  9
$TDUPDATE
 40
2454484.390565301
  9
$TDINDWG
 40
0.0164849769
  9
$TDUSRTIMER
 40
0.0164849769
  9
$USRTIMER
 70
     1
  9
$ANGBASE
 50
0.0
  9
$ANGDIR
 70
     0
  9
$PDMODE
 70
     1
  9
$PDSIZE
 40
0.0
  9
$PLINEWID
 40
0.0
  9
$COORDS
 70
     1
  9
$SPLFRAME
 70
     0
  9
$SPLINETYPE
 70
     6
  9
$SPLINESEGS
 70
     8
  9
$ATTDIA
 70
     0
  9
$ATTREQ
 70
     1
  9
$HANDLING
 70
 10241
  9
$HANDSEED
  5
858
  9
$SURFTAB1
 70
     6
  9
$SURFTAB2
 70
     6
  9
$SURFTYPE
 70
     6
  9
$SURFU
 70
     6
  9
$SURFV
 70
     6
  9
$UCSNAME
  2

  9
$UCSORG
 10
0.0
 20
0.0
 30
0.0
  9
$UCSXDIR
 10
1.0
 20
0.0
 30
0.0
  9
$UCSYDIR
 10
0.0
 20
1.0
 30
0.0
  9
$PUCSNAME
  2

  9
$PUCSORG
 10
0.0
 20
0.0
 30
0.0
  9
$PUCSXDIR
 10
1.0
 20
0.0
 30
0.0
  9
$PUCSYDIR
 10
0.0
 20
1.0
 30
0.0
  9
$USERI1
 70
     0
  9
$USERI2
 70
     0
  9
$USERI3
 70
     0
  9
$USERI4
 70
     0
  9
$USERI5
 70
     0
  9
$USERR1
 40
0.0
  9
$USERR2
 40
0.0
  9
$USERR3
 40
0.0
  9
$USERR4
 40
0.0
  9
$USERR5
 40
0.0
  9
$WORLDVIEW
 70
     1
  9
$SHADEDGE
 70
     3
  9
$SHADEDIF
 70
    70
  9
$TILEMODE
 70
     1
  9
$MAXACTVP
 70
    16
  9
$PINSBASE
 10
0.0
 20
0.0
 30
0.0
  9
$PLIMCHECK
 70
     0
  9
$PEXTMIN
 10
0.0
 20
0.0
 30
0.0
  9
$PEXTMAX
 10
420.0
 20
297.0
 30
0.0
  9
$PLIMMIN
 10
0.0
 20
0.0
  9
$PLIMMAX
 10
420.0
 20
297.0
  9
$UNITMODE
 70
     0
  9
$VISRETAIN
 70
     0
  9
$PLINEGEN
 70
     0
  9
$PSLTSCALE
 70
     1
  9
$TREEDEPTH
 70
  3020
  9
$PICKSTYLE
 70
     1
  9
$CMLSTYLE
  2
STANDARD
  9
$CMLJUST
 70
     0
  9
$CMLSCALE
 40
1.0
  9
$PROXYGRAPHICS
 70
     1
  9
$MEASUREMENT
 70
     1
  0
ENDSEC
  0
SECTION
  2
CLASSES
  0
CLASS
  1
ACDBDICTIONARYWDFLT
  2
AcDbDictionaryWithDefault
  3
AutoCAD 2000
 90
        0
280
     0
281
     0
  0
CLASS
  1
ACDBPLACEHOLDER
  2
AcDbPlaceHolder
  3
AutoCAD 2000
 90
        0
280
     0
281
     0
  0
CLASS
  1
LAYOUT
  2
AcDbLayout
  3
AutoCAD 2000
 90
        0
280
     0
281
     0
  0
CLASS
  1
LONG_TRANSACTION
  2
AcDbLongTransaction
  3
AutoCAD 2000
 90
        0
280
     0
281
     0
  0
CLASS
  1
LWPOLYLINE
  2
AcDbPolyline
  3
AutoCAD 2000
 90
        0
280
     0
281
     1
  0
CLASS
  1
HATCH
  2
AcDbHatch
  3
AutoCAD 2000
 90
        0
280
     0
281
     1
  0
CLASS
  1
XRECORD
  2
AcDbXrecord
  3
AutoCAD 2000
 90
        0
280
     0
281
     0
  0
CLASS
  1
LONG_TRANSACTION
  2
AcDbLongTransaction
  3
AutoCAD 2000
 90
        0
280
     0
281
     0
  0
CLASS
  1
LWPOLYLINE
  2
AcDbPolyline
  3
AutoCAD 2000
 90
        0
280
     0
281
     1
  0
CLASS
  1
HATCH
  2
AcDbHatch
  3
AutoCAD 2000
 90
        0
280
     0
281
     1
  0
CLASS
  1
XRECORD
  2
AcDbXrecord
  3
AutoCAD 2000
 90
        0
280
     0
281
     0
  0
CLASS
  1
LONG_TRANSACTION
  2
AcDbLongTransaction
  3
AutoCAD 2000
 90
        0
280
     0
281
     0
  0
CLASS
  1
LWPOLYLINE
  2
AcDbPolyline
  3
AutoCAD 2000
 90
        0
280
     0
281
     1
  0
CLASS
  1
HATCH
  2
AcDbHatch
  3
AutoCAD 2000
 90
        0
280
     0
281
     1
  0
CLASS
  1
XRECORD
  2
AcDbXrecord
  3
AutoCAD 2000
 90
        0
280
     0
281
     0
  0
ENDSEC
  0
SECTION
  2
TABLES
  0
TABLE
  2
VPORT
  5
8
330
0
100
AcDbSymbolTable
 70
     2
  0
VPORT
  5
834
330
8
100
AcDbSymbolTableRecord
100
AcDbViewportTableRecord
  2
*ACTIVE
 70
     0
 10
0.0
 20
0.0
 11
1.0
 21
1.0
 12
221.8327481952075
 22
158.4916619242285
 13
0.0
 23
0.0
 14
5.0
 24
5.0
 15
0.0
 25
0.0
 16
0.0
 26
0.0
 36
1.0
 17
0.0
 27
0.0
 37
0.0
 40
376.5323885315049
 41
1.570153061224489
 42
50.0
 43
0.0
 44
0.0
 50
0.0
 51
0.0
 71
     0
 72
   100
 73
     1
 74
     0
 75
     0
 76
     0
 77
     0
 78
     0
  0
ENDTAB
  0
TABLE
  2
LTYPE
  5
5
330
0
100
AcDbSymbolTable
 70
     3
  0
LTYPE
  5
14
330
5
100
AcDbSymbolTableRecord
100
AcDbLinetypeTableRecord
  2
BYBLOCK
 70
     0
  3

 72
    65
 73
     0
 40
0.0
  0
LTYPE
  5
15
330
5
100
AcDbSymbolTableRecord
100
AcDbLinetypeTableRecord
  2
BYLAYER
 70
     0
  3

 72
    65
 73
     0
 40
0.0
  0
LTYPE
  5
16
330
5
100
AcDbSymbolTableRecord
100
AcDbLinetypeTableRecord
  2
CONTINUOUS
 70
     0
  3
Solid line
 72
    65
 73
     0
 40
0.0
  0
LTYPE
  5
120
330
5
100
AcDbSymbolTableRecord
100
AcDbLinetypeTableRecord
  2
CENTER
 70
     0
  3
____ _ ____ _ ____ _ ____ _ ____ _ ____ _ ____ 
 72
    65
 73
     4
 40
2.0
 49
1.25
 74
     0
 49
-0.25
 74
     0
 49
0.25
 74
     0
 49
-0.25
 74
     0
  0
LTYPE
  5
122
330
5
100
AcDbSymbolTableRecord
100
AcDbLinetypeTableRecord
  2
PHANTOM
 70
     0
  3
______  __  __  ______  __  __  ______  __  __ 
 72
    65
 73
     6
 40
2.5
 49
1.25
 74
     0
 49
-0.25
 74
     0
 49
0.25
 74
     0
 49
-0.25
 74
     0
 49
0.25
 74
     0
 49
-0.25
 74
     0
  0
ENDTAB
  0
TABLE
  2
LAYER
  5
2
330
0
100
AcDbSymbolTable
 70
    10
  0
LAYER
  5
F
330
2
100
AcDbSymbolTableRecord
100
AcDbLayerTableRecord
  2
0
 70
     0
 62
     7
  6
CONTINUOUS
  0
LAYER
  5
62
330
2
100
AcDbSymbolTableRecord
100
AcDbLayerTableRecord
  2
VIEWPORT
 70
     0
 62
     7
  6
CONTINUOUS
  0
LAYER
  5
6B
330
2
100
AcDbSymbolTableRecord
100
AcDbLayerTableRecord
  2
ZUWAKU
 70
     0
 62
     7
  6
CONTINUOUS
  0
LAYER
  5
146
330
2
100
AcDbSymbolTableRecord
100
AcDbLayerTableRecord
  2
SUNPOU_L
 70
     0
 62
     4
  6
CONTINUOUS
  0
LAYER
  5
185
330
2
100
AcDbSymbolTableRecord
100
AcDbLayerTableRecord
  2
CENTER_L
 70
     0
 62
     1
  6
CENTER
  0
LAYER
  5
18C
330
2
100
AcDbSymbolTableRecord
100
AcDbLayerTableRecord
  2
DEFPOINTS
 70
     0
 62
     7
  6
CONTINUOUS
  0
LAYER
  5
2A9
330
2
100
AcDbSymbolTableRecord
100
AcDbLayerTableRecord
  2
SUNPOU
 70
     0
 62
     4
  6
CONTINUOUS
  0
LAYER
  5
2AA
330
2
100
AcDbSymbolTableRecord
100
AcDbLayerTableRecord
  2
SEIHIN
 70
     0
 62
     3
  6
CONTINUOUS
  0
LAYER
  5
2AB
330
2
100
AcDbSymbolTableRecord
100
AcDbLayerTableRecord
  2
NOKITOI
 70
     0
 62
     8
  6
PHANTOM
  0
LAYER
  5
605
330
2
100
AcDbSymbolTableRecord
100
AcDbLayerTableRecord
  2
MOJI
 70
     0
 62
     2
  6
CONTINUOUS
  0
ENDTAB
  0
TABLE
  2
STYLE
  5
3
330
0
100
AcDbSymbolTable
 70
     2
  0
STYLE
  5
10
330
3
100
AcDbSymbolTableRecord
100
AcDbTextStyleTableRecord
  2
STANDARD
 70
     0
 40
0.0
 41
1.0
 50
0.0
 71
     0
 42
2.5
  3
TXT
  4
bigfont.shx
  0
STYLE
  5
606
330
3
100
AcDbSymbolTableRecord
100
AcDbTextStyleTableRecord
  2
ｽﾀｲﾙ1
 70
     0
 40
0.0
 41
1.0
 50
0.0
 71
     0
 42
2.5
  3
MS PGothic.ttf
  4

1001
ACAD
1000
MS PGothic
1071
    32818
  0
ENDTAB
  0
TABLE
  2
VIEW
  5
6
330
0
100
AcDbSymbolTable
 70
     0
  0
ENDTAB
  0
TABLE
  2
UCS
  5
7
330
0
100
AcDbSymbolTable
 70
     0
  0
ENDTAB
  0
TABLE
  2
APPID
  5
9
330
0
100
AcDbSymbolTable
 70
     1
  0
APPID
  5
11
330
9
100
AcDbSymbolTableRecord
100
AcDbRegAppTableRecord
  2
ACAD
 70
     0
  0
ENDTAB
  0
TABLE
  2
DIMSTYLE
  5
A
330
0
100
AcDbSymbolTable
 70
     1
  0
DIMSTYLE
105
1D
102
{ACAD_REACTORS
330
3C0
330
3D2
330
3D3
330
3DC
330
416
330
473
330
4AB
330
4BD
102
}
330
A
100
AcDbSymbolTableRecord
100
AcDbDimStyleTableRecord
  2
STANDARD
 70
     0
  3

  4

  5

  6

  7

 40
1.0
 41
0.18
 42
0.0625
 43
0.38
 44
0.18
 45
0.0
 46
0.0
 47
0.0
 48
0.0
140
0.18
141
0.09
142
0.0
143
25.4
144
1.0
145
0.0
146
1.0
147
0.09
 71
     0
 72
     0
 73
     1
 74
     1
 75
     0
 76
     0
 77
     0
 78
     0
170
     0
171
     2
172
     0
173
     0
174
     0
175
     0
176
     0
177
     0
178
     0
270
     2
271
     4
272
     4
273
     2
274
     2
340
10
275
     0
280
     0
281
     0
282
     0
283
     1
284
     0
285
     0
286
     0
287
     3
288
     0
  0
ENDTAB
  0
TABLE
  2
BLOCK_RECORD
  5
1
330
0
100
AcDbSymbolTable
 70
     9
  0
BLOCK_RECORD
  5
1A
102
{ACAD_XDICTIONARY
360
5C1
102
}
330
1
100
AcDbSymbolTableRecord
100
AcDbBlockTableRecord
  2
*MODEL_SPACE
  0
BLOCK_RECORD
  5
17
102
{ACAD_XDICTIONARY
360
5BF
102
}
330
1
100
AcDbSymbolTableRecord
100
AcDbBlockTableRecord
  2
*PAPER_SPACE
  0
BLOCK_RECORD
  5
B2
330
1
100
AcDbSymbolTableRecord
100
AcDbBlockTableRecord
  2
_OPEN
  0
BLOCK_RECORD
  5
4C8
330
1
100
AcDbSymbolTableRecord
100
AcDbBlockTableRecord
  2
*D1
  0
BLOCK_RECORD
  5
4D4
330
1
100
AcDbSymbolTableRecord
100
AcDbBlockTableRecord
  2
*D2
  0
BLOCK_RECORD
  5
4E0
330
1
100
AcDbSymbolTableRecord
100
AcDbBlockTableRecord
  2
*D3
  0
BLOCK_RECORD
  5
4EC
330
1
100
AcDbSymbolTableRecord
100
AcDbBlockTableRecord
  2
*D4
  0
BLOCK_RECORD
  5
4F8
330
1
100
AcDbSymbolTableRecord
100
AcDbBlockTableRecord
  2
*D5
  0
BLOCK_RECORD
  5
504
330
1
100
AcDbSymbolTableRecord
100
AcDbBlockTableRecord
  2
*D6
  0
BLOCK_RECORD
  5
510
330
1
100
AcDbSymbolTableRecord
100
AcDbBlockTableRecord
  2
*D7
  0
BLOCK_RECORD
  5
51E
330
1
100
AcDbSymbolTableRecord
100
AcDbBlockTableRecord
  2
*D8
  0
ENDTAB
  0
ENDSEC
  0
SECTION
  2
BLOCKS
  0
BLOCK
  5
1B
330
1A
100
AcDbEntity
  8
0
100
AcDbBlockBegin
  2
*MODEL_SPACE
 70
     0
 10
0.0
 20
0.0
 30
0.0
  3
*MODEL_SPACE
  1

  0
ENDBLK
  5
1C
330
1A
100
AcDbEntity
  8
0
100
AcDbBlockEnd
  0
BLOCK
  5
18
330
17
100
AcDbEntity
 67
     1
  8
0
100
AcDbBlockBegin
  2
*PAPER_SPACE
 70
     0
 10
0.0
 20
0.0
 30
0.0
  3
*PAPER_SPACE
  1

  0
ENDBLK
  5
19
330
17
100
AcDbEntity
 67
     1
  8
0
100
AcDbBlockEnd
  0
BLOCK
  5
B3
330
B2
100
AcDbEntity
  8
0
100
AcDbBlockBegin
  2
_OPEN
 70
     0
 10
0.0
 20
0.0
 30
0.0
  3
_OPEN
  1

  0
LINE
  5
B4
330
B2
100
AcDbEntity
  8
0
  6
BYBLOCK
 62
     0
100
AcDbLine
 10
-1.0
 20
0.1666666666666666
 30
0.0
 11
0.0
 21
0.0
 31
0.0
  0
LINE
  5
B5
330
B2
100
AcDbEntity
  8
0
  6
BYBLOCK
 62
     0
100
AcDbLine
 10
0.0
 20
0.0
 30
0.0
 11
-1.0
 21
-0.1666666666666666
 31
0.0
  0
LINE
  5
B6
330
B2
100
AcDbEntity
  8
0
  6
BYBLOCK
 62
     0
100
AcDbLine
 10
0.0
 20
0.0
 30
0.0
 11
-1.0
 21
0.0
 31
0.0
  0
ENDBLK
  5
B7
330
B2
100
AcDbEntity
  8
0
100
AcDbBlockEnd
  0
BLOCK
  5
52C
330
4C8
100
AcDbEntity
  8
0
100
AcDbBlockBegin
  2
*D1
 70
     1
 10
0.0
 20
0.0
 30
0.0
  3
*D1
  1

  0
LINE
  5
52D
330
4C8
100
AcDbEntity
  8
0
  6
BYBLOCK
 62
     4
100
AcDbLine
 10
314.5364674654469
 20
125.6740117452536
 30
0.0
 11
321.2601605368983
 21
108.863500263613
 31
0.0
  0
LINE
  5
52E
330
4C8
100
AcDbEntity
  8
0
  6
BYBLOCK
 62
     4
100
AcDbLine
 10
175.2635855647992
 20
69.96909687105915
 30
0.0
 11
181.9872786362504
 21
53.15858538941902
 31
0.0
  0
LINE
  5
52F
330
4C8
100
AcDbEntity
  8
0
  6
BYBLOCK
 62
     4
100
AcDbLine
 10
317.9176517575658
 20
109.1421309512364
 30
0.0
 11
184.2156884539486
 21
55.66541400031096
 31
0.0
  0
INSERT
  5
530
330
4C8
100
AcDbEntity
  8
0
  6
BYBLOCK
 62
     4
100
AcDbBlockReference
  2
_OPEN
 10
320.7031110560811
 20
110.2562299128707
 30
0.0
 41
3.0
 42
3.0
 43
3.0
 50
21.79990651080662
  0
INSERT
  5
531
330
4C8
100
AcDbEntity
  8
0
  6
BYBLOCK
 62
     4
100
AcDbBlockReference
  2
_OPEN
 10
181.4302291554333
 20
54.55131503867666
 30
0.0
 41
3.0
 42
3.0
 43
3.0
 50
201.7999065108065
  0
MTEXT
  5
532
330
4C8
100
AcDbEntity
  8
0
  6
BYBLOCK
 62
     4
100
AcDbMText
 10
250.1382543043953
 20
84.7249885578698
 30
0.0
 40
3.0
 41
0.0
 71
     5
 72
     5
  1
\A1;150
 11
0.9284864328384356
 21
0.3713663205447649
 31
0.0
1001
ACAD
1000
MTEXTBEGIN
1070
    73
1070
     1
1070
    44
1040
1.0
1070
    74
1070
     0
1000
MTEXTEND
1000
MTEXTBEGIN
1070
    73
1070
     1
1070
    44
1040
1.0
1070
    74
1070
     0
1000
MTEXTEND
1000
MTEXTBEGIN
1070
    73
1070
     1
1070
    44
1040
1.0
1070
    74
1070
     0
1000
MTEXTEND
  0
POINT
  5
533
330
4C8
100
AcDbEntity
  8
DEFPOINTS
  6
BYBLOCK
 62
     0
100
AcDbPoint
 10
313.4223685038126
 20
128.4594710437689
 30
0.0
  0
POINT
  5
534
330
4C8
100
AcDbEntity
  8
DEFPOINTS
  6
BYBLOCK
 62
     0
100
AcDbPoint
 10
174.1494866031649
 20
72.75455616957447
 30
0.0
  0
POINT
  5
535
330
4C8
100
AcDbEntity
  8
DEFPOINTS
  6
BYBLOCK
 62
     0
100
AcDbPoint
 10
181.4302291554333
 20
54.55131503867666
 30
0.0
  0
ENDBLK
  5
536
330
4C8
100
AcDbEntity
  8
0
100
AcDbBlockEnd
  0
BLOCK
  5
537
330
4D4
100
AcDbEntity
  8
0
100
AcDbBlockBegin
  2
*D2
 70
     1
 10
0.0
 20
0.0
 30
0.0
  3
*D2
  1

  0
LINE
  5
538
330
4D4
100
AcDbEntity
  8
0
  6
BYBLOCK
 62
     4
100
AcDbLine
 10
219.213137389581
 20
142.1522760248439
 30
0.0
 11
219.213137389581
 21
170.5222937434069
 31
0.0
  0
LINE
  5
539
330
4D4
100
AcDbEntity
  8
0
  6
BYBLOCK
 62
     4
100
AcDbLine
 10
132.6133373895812
 20
160.9981760248438
 30
0.0
 11
132.6133373895812
 21
170.5222937434069
 31
0.0
  0
LINE
  5
53A
330
4D4
100
AcDbEntity
  8
0
  6
BYBLOCK
 62
     4
100
AcDbLine
 10
216.213137389581
 20
169.0222937434068
 30
0.0
 11
135.6133373895812
 21
169.0222937434068
 31
0.0
  0
INSERT
  5
53B
330
4D4
100
AcDbEntity
  8
0
  6
BYBLOCK
 62
     4
100
AcDbBlockReference
  2
_OPEN
 10
219.213137389581
 20
169.0222937434068
 30
0.0
 41
3.0
 42
3.0
 43
3.0
  0
INSERT
  5
53C
330
4D4
100
AcDbEntity
  8
0
  6
BYBLOCK
 62
     4
100
AcDbBlockReference
  2
_OPEN
 10
132.6133373895812
 20
169.0222937434068
 30
0.0
 41
3.0
 42
3.0
 43
3.0
 50
180.0
  0
MTEXT
  5
53D
330
4D4
100
AcDbEntity
  8
0
  6
BYBLOCK
 62
     4
100
AcDbMText
 10
175.9132373895811
 20
171.5222937434068
 30
0.0
 40
3.0
 41
0.0
 71
     5
 72
     5
  1
\A1;87
1001
ACAD
1000
MTEXTBEGIN
1070
    73
1070
     1
1070
    44
1040
1.0
1070
    74
1070
     0
1000
MTEXTEND
1000
MTEXTBEGIN
1070
    73
1070
     1
1070
    44
1040
1.0
1070
    74
1070
     0
1000
MTEXTEND
1000
MTEXTBEGIN
1070
    73
1070
     1
1070
    44
1040
1.0
1070
    74
1070
     0
1000
MTEXTEND
  0
POINT
  5
53E
330
4D4
100
AcDbEntity
  8
DEFPOINTS
  6
BYBLOCK
 62
     0
100
AcDbPoint
 10
219.213137389581
 20
139.1522760248439
 30
0.0
  0
POINT
  5
53F
330
4D4
100
AcDbEntity
  8
DEFPOINTS
  6
BYBLOCK
 62
     0
100
AcDbPoint
 10
132.6133373895812
 20
157.9981760248438
 30
0.0
  0
POINT
  5
540
330
4D4
100
AcDbEntity
  8
DEFPOINTS
  6
BYBLOCK
 62
     0
100
AcDbPoint
 10
132.6133373895812
 20
169.0222937434068
 30
0.0
  0
ENDBLK
  5
541
330
4D4
100
AcDbEntity
  8
0
100
AcDbBlockEnd
  0
BLOCK
  5
542
330
4E0
100
AcDbEntity
  8
0
100
AcDbBlockBegin
  2
*D3
 70
     1
 10
0.0
 20
0.0
 30
0.0
  3
*D3
  1

  0
LINE
  5
543
330
4E0
100
AcDbEntity
  8
0
  6
BYBLOCK
 62
     4
100
AcDbLine
 10
216.213137389581
 20
141.498102106997
 30
0.0
 11
187.0188430279491
 21
141.498102106997
 31
0.0
  0
LINE
  5
544
330
4E0
100
AcDbEntity
  8
0
  6
BYBLOCK
 62
     4
100
AcDbLine
 10
197.213237389581
 20
98.49797602484398
 30
0.0
 11
187.0188430279491
 21
98.49797602484398
 31
0.0
  0
LINE
  5
545
330
4E0
100
AcDbEntity
  8
0
  6
BYBLOCK
 62
     4
100
AcDbLine
 10
188.5188430279491
 20
138.498102106997
 30
0.0
 11
188.5188430279491
 21
101.4979760248439
 31
0.0
  0
INSERT
  5
546
330
4E0
100
AcDbEntity
  8
0
  6
BYBLOCK
 62
     4
100
AcDbBlockReference
  2
_OPEN
 10
188.5188430279491
 20
141.498102106997
 30
0.0
 41
3.0
 42
3.0
 43
3.0
 50
90.0
  0
INSERT
  5
547
330
4E0
100
AcDbEntity
  8
0
  6
BYBLOCK
 62
     4
100
AcDbBlockReference
  2
_OPEN
 10
188.5188430279491
 20
98.49797602484398
 30
0.0
 41
3.0
 42
3.0
 43
3.0
 50
270.0
  0
MTEXT
  5
548
330
4E0
100
AcDbEntity
  8
0
  6
BYBLOCK
 62
     4
100
AcDbMText
 10
186.0188430279491
 20
119.9980390659205
 30
0.0
 40
3.0
 41
0.0
 71
     5
 72
     5
  1
\A1;43
 11
0.0
 21
1.0
 31
0.0
1001
ACAD
1000
MTEXTBEGIN
1070
    73
1070
     1
1070
    44
1040
1.0
1070
    74
1070
     0
1000
MTEXTEND
1000
MTEXTBEGIN
1070
    73
1070
     1
1070
    44
1040
1.0
1070
    74
1070
     0
1000
MTEXTEND
1000
MTEXTBEGIN
1070
    73
1070
     1
1070
    44
1040
1.0
1070
    74
1070
     0
1000
MTEXTEND
  0
POINT
  5
549
330
4E0
100
AcDbEntity
  8
DEFPOINTS
  6
BYBLOCK
 62
     0
100
AcDbPoint
 10
219.213137389581
 20
141.498102106997
 30
0.0
  0
POINT
  5
54A
330
4E0
100
AcDbEntity
  8
DEFPOINTS
  6
BYBLOCK
 62
     0
100
AcDbPoint
 10
200.213237389581
 20
98.49797602484398
 30
0.0
  0
POINT
  5
54B
330
4E0
100
AcDbEntity
  8
DEFPOINTS
  6
BYBLOCK
 62
     0
100
AcDbPoint
 10
188.5188430279491
 20
98.49797602484398
 30
0.0
  0
ENDBLK
  5
54C
330
4E0
100
AcDbEntity
  8
0
100
AcDbBlockEnd
  0
BLOCK
  5
54D
330
4EC
100
AcDbEntity
  8
0
100
AcDbBlockBegin
  2
*D4
 70
     1
 10
0.0
 20
0.0
 30
0.0
  3
*D4
  1

  0
LINE
  5
54E
330
4EC
100
AcDbEntity
  8
0
  6
BYBLOCK
 62
     4
100
AcDbLine
 10
129.6133373895812
 20
157.9981760248438
 30
0.0
 11
107.5459638370254
 21
157.9981760248438
 31
0.0
  0
LINE
  5
54F
330
4EC
100
AcDbEntity
  8
0
  6
BYBLOCK
 62
     4
100
AcDbLine
 10
147.750337389581
 20
97.69817602484383
 30
0.0
 11
107.5459638370254
 21
97.69817602484383
 31
0.0
  0
LINE
  5
550
330
4EC
100
AcDbEntity
  8
0
  6
BYBLOCK
 62
     4
100
AcDbLine
 10
109.0459638370254
 20
154.9981760248439
 30
0.0
 11
109.0459638370254
 21
100.6981760248438
 31
0.0
  0
INSERT
  5
551
330
4EC
100
AcDbEntity
  8
0
  6
BYBLOCK
 62
     4
100
AcDbBlockReference
  2
_OPEN
 10
109.0459638370254
 20
157.9981760248438
 30
0.0
 41
3.0
 42
3.0
 43
3.0
 50
90.0
  0
INSERT
  5
552
330
4EC
100
AcDbEntity
  8
0
  6
BYBLOCK
 62
     4
100
AcDbBlockReference
  2
_OPEN
 10
109.0459638370254
 20
97.69817602484383
 30
0.0
 41
3.0
 42
3.0
 43
3.0
 50
270.0
  0
MTEXT
  5
553
330
4EC
100
AcDbEntity
  8
0
  6
BYBLOCK
 62
     4
100
AcDbMText
 10
106.5459638370254
 20
127.8481760248438
 30
0.0
 40
3.0
 41
0.0
 71
     5
 72
     5
  1
\A1;60
 11
0.0
 21
1.0
 31
0.0
1001
ACAD
1000
MTEXTBEGIN
1070
    73
1070
     1
1070
    44
1040
1.0
1070
    74
1070
     0
1000
MTEXTEND
1000
MTEXTBEGIN
1070
    73
1070
     1
1070
    44
1040
1.0
1070
    74
1070
     0
1000
MTEXTEND
1000
MTEXTBEGIN
1070
    73
1070
     1
1070
    44
1040
1.0
1070
    74
1070
     0
1000
MTEXTEND
  0
POINT
  5
554
330
4EC
100
AcDbEntity
  8
DEFPOINTS
  6
BYBLOCK
 62
     0
100
AcDbPoint
 10
132.6133373895812
 20
157.9981760248438
 30
0.0
  0
POINT
  5
555
330
4EC
100
AcDbEntity
  8
DEFPOINTS
  6
BYBLOCK
 62
     0
100
AcDbPoint
 10
150.750337389581
 20
97.69817602484383
 30
0.0
  0
POINT
  5
556
330
4EC
100
AcDbEntity
  8
DEFPOINTS
  6
BYBLOCK
 62
     0
100
AcDbPoint
 10
109.0459638370254
 20
97.69817602484383
 30
0.0
  0
ENDBLK
  5
557
330
4EC
100
AcDbEntity
  8
0
100
AcDbBlockEnd
  0
BLOCK
  5
558
330
4F8
100
AcDbEntity
  8
0
100
AcDbBlockBegin
  2
*D5
 70
     1
 10
0.0
 20
0.0
 30
0.0
  3
*D5
  1

  0
LINE
  5
559
330
4F8
100
AcDbEntity
  8
0
  6
BYBLOCK
 62
     4
100
AcDbLine
 10
146.9266793406683
 20
97.69817929814719
 30
0.0
 11
107.5459638370254
 21
97.69817929814719
 31
0.0
  0
LINE
  5
55A
330
4F8
100
AcDbEntity
  8
0
  6
BYBLOCK
 62
     4
100
AcDbLine
 10
172.3193373895811
 20
69.82988832754756
 30
0.0
 11
107.5459638370254
 21
69.82988832754756
 31
0.0
  0
LINE
  5
55B
330
4F8
100
AcDbEntity
  8
0
  6
BYBLOCK
 62
     4
100
AcDbLine
 10
109.0459638370254
 20
94.69817929814718
 30
0.0
 11
109.0459638370254
 21
72.82988832754757
 31
0.0
  0
INSERT
  5
55C
330
4F8
100
AcDbEntity
  8
0
  6
BYBLOCK
 62
     4
100
AcDbBlockReference
  2
_OPEN
 10
109.0459638370254
 20
97.69817929814719
 30
0.0
 41
3.0
 42
3.0
 43
3.0
 50
90.0
  0
INSERT
  5
55D
330
4F8
100
AcDbEntity
  8
0
  6
BYBLOCK
 62
     4
100
AcDbBlockReference
  2
_OPEN
 10
109.0459638370254
 20
69.82988832754756
 30
0.0
 41
3.0
 42
3.0
 43
3.0
 50
270.0
  0
MTEXT
  5
55E
330
4F8
100
AcDbEntity
  8
0
  6
BYBLOCK
 62
     4
100
AcDbMText
 10
106.5459638370254
 20
83.76403381284736
 30
0.0
 40
3.0
 41
0.0
 71
     5
 72
     5
  1
\A1;28
 11
0.0
 21
1.0
 31
0.0
1001
ACAD
1000
MTEXTBEGIN
1070
    73
1070
     1
1070
    44
1040
1.0
1070
    74
1070
     0
1000
MTEXTEND
1000
MTEXTBEGIN
1070
    73
1070
     1
1070
    44
1040
1.0
1070
    74
1070
     0
1000
MTEXTEND
1000
MTEXTBEGIN
1070
    73
1070
     1
1070
    44
1040
1.0
1070
    74
1070
     0
1000
MTEXTEND
  0
POINT
  5
55F
330
4F8
100
AcDbEntity
  8
DEFPOINTS
  6
BYBLOCK
 62
     0
100
AcDbPoint
 10
149.9266793406683
 20
97.69817929814719
 30
0.0
  0
POINT
  5
560
330
4F8
100
AcDbEntity
  8
DEFPOINTS
  6
BYBLOCK
 62
     0
100
AcDbPoint
 10
175.3193373895811
 20
69.82988832754756
 30
0.0
  0
POINT
  5
561
330
4F8
100
AcDbEntity
  8
DEFPOINTS
  6
BYBLOCK
 62
     0
100
AcDbPoint
 10
109.0459638370254
 20
69.82988832754756
 30
0.0
  0
ENDBLK
  5
562
330
4F8
100
AcDbEntity
  8
0
100
AcDbBlockEnd
  0
BLOCK
  5
563
330
504
100
AcDbEntity
  8
0
100
AcDbBlockBegin
  2
*D6
 70
     1
 10
0.0
 20
0.0
 30
0.0
  3
*D6
  1

  0
LINE
  5
564
330
504
100
AcDbEntity
  8
0
  6
BYBLOCK
 62
     4
100
AcDbLine
 10
129.6134373895811
 20
218.4981760248438
 30
0.0
 11
107.5089782436786
 21
218.4981760248438
 31
0.0
  0
LINE
  5
565
330
504
100
AcDbEntity
  8
0
  6
BYBLOCK
 62
     4
100
AcDbLine
 10
129.6134373895811
 20
198.4982760248438
 30
0.0
 11
107.5089782436786
 21
198.4982760248438
 31
0.0
  0
LINE
  5
566
330
504
100
AcDbEntity
  8
0
  6
BYBLOCK
 62
     4
100
AcDbLine
 10
109.0089782436786
 20
215.4981760248437
 30
0.0
 11
109.0089782436786
 21
201.4982760248438
 31
0.0
  0
INSERT
  5
567
330
504
100
AcDbEntity
  8
0
  6
BYBLOCK
 62
     4
100
AcDbBlockReference
  2
_OPEN
 10
109.0089782436786
 20
218.4981760248438
 30
0.0
 41
3.0
 42
3.0
 43
3.0
 50
90.0
  0
INSERT
  5
568
330
504
100
AcDbEntity
  8
0
  6
BYBLOCK
 62
     4
100
AcDbBlockReference
  2
_OPEN
 10
109.0089782436786
 20
198.4982760248438
 30
0.0
 41
3.0
 42
3.0
 43
3.0
 50
270.0
  0
MTEXT
  5
569
330
504
100
AcDbEntity
  8
0
  6
BYBLOCK
 62
     4
100
AcDbMText
 10
106.5089782436786
 20
208.4982260248438
 30
0.0
 40
3.0
 41
0.0
 71
     5
 72
     5
  1
\A1;20
 11
0.0
 21
1.0
 31
0.0
1001
ACAD
1000
MTEXTBEGIN
1070
    73
1070
     1
1070
    44
1040
1.0
1070
    74
1070
     0
1000
MTEXTEND
1000
MTEXTBEGIN
1070
    73
1070
     1
1070
    44
1040
1.0
1070
    74
1070
     0
1000
MTEXTEND
1000
MTEXTBEGIN
1070
    73
1070
     1
1070
    44
1040
1.0
1070
    74
1070
     0
1000
MTEXTEND
  0
POINT
  5
56A
330
504
100
AcDbEntity
  8
DEFPOINTS
  6
BYBLOCK
 62
     0
100
AcDbPoint
 10
132.6134373895811
 20
218.4981760248438
 30
0.0
  0
POINT
  5
56B
330
504
100
AcDbEntity
  8
DEFPOINTS
  6
BYBLOCK
 62
     0
100
AcDbPoint
 10
132.6134373895811
 20
198.4982760248438
 30
0.0
  0
POINT
  5
56C
330
504
100
AcDbEntity
  8
DEFPOINTS
  6
BYBLOCK
 62
     0
100
AcDbPoint
 10
109.0089782436786
 20
198.4982760248438
 30
0.0
  0
ENDBLK
  5
56D
330
504
100
AcDbEntity
  8
0
100
AcDbBlockEnd
  0
BLOCK
  5
56E
330
510
100
AcDbEntity
  8
0
100
AcDbBlockBegin
  2
*D7
 70
     1
 10
0.0
 20
0.0
 30
0.0
  3
*D7
  1

  0
LINE
  5
56F
330
510
100
AcDbEntity
  8
0
  6
BYBLOCK
 62
     4
100
AcDbLine
 10
301.110897897632
 20
126.9277563416535
 30
0.0
 11
333.8399236837394
 21
140.0176881010515
 31
0.0
  0
LINE
  5
570
330
510
100
AcDbEntity
  8
0
  6
BYBLOCK
 62
     4
100
AcDbLine
 10
303.4503978976319
 20
121.0782563416534
 30
0.0
 11
336.1794236837394
 21
134.1681881010514
 31
0.0
  0
LINE
  5
571
330
510
100
AcDbEntity
  8
0
  6
BYBLOCK
 62
     4
100
AcDbLine
 10
331.333135143078
 20
142.2461429945615
 30
0.0
 11
330.2190862679529
 21
145.0316223256341
 31
0.0
  0
LINE
  5
572
330
510
100
AcDbEntity
  8
0
  6
BYBLOCK
 62
     4
100
AcDbLine
 10
335.9007328933282
 20
130.8256843324163
 30
0.0
 11
339.9855787687869
 21
120.6122601184835
 31
0.0
  0
LINE
  5
573
330
510
100
AcDbEntity
  8
0
  6
BYBLOCK
 62
     4
100
AcDbLine
 10
332.4471840182031
 20
139.4606636634889
 30
0.0
 11
334.7866840182031
 21
133.6111636634888
 31
0.0
  0
INSERT
  5
574
330
510
100
AcDbEntity
  8
0
  6
BYBLOCK
 62
     4
100
AcDbBlockReference
  2
_OPEN
 10
332.4471840182031
 20
139.4606636634889
 30
0.0
 41
3.0
 42
3.0
 43
3.0
 50
291.7988762551251
  0
INSERT
  5
575
330
510
100
AcDbEntity
  8
0
  6
BYBLOCK
 62
     4
100
AcDbBlockReference
  2
_OPEN
 10
334.7866840182031
 20
133.6111636634888
 30
0.0
 41
3.0
 42
3.0
 43
3.0
 50
111.7988762551251
  0
MTEXT
  5
576
330
510
100
AcDbEntity
  8
0
  6
BYBLOCK
 62
     4
100
AcDbMText
 10
340.8214130445139
 20
125.2546066225179
 30
0.0
 40
3.0
 41
0.0
 71
     5
 72
     5
  1
\A1;6.3
 11
0.3713496250417018
 21
-0.9284931103575232
 31
0.0
1001
ACAD
1000
MTEXTBEGIN
1070
    73
1070
     1
1070
    44
1040
1.0
1070
    74
1070
     0
1000
MTEXTEND
1000
MTEXTBEGIN
1070
    73
1070
     1
1070
    44
1040
1.0
1070
    74
1070
     0
1000
MTEXTEND
1000
MTEXTBEGIN
1070
    73
1070
     1
1070
    44
1040
1.0
1070
    74
1070
     0
1000
MTEXTEND
  0
POINT
  5
577
330
510
100
AcDbEntity
  8
DEFPOINTS
  6
BYBLOCK
 62
     0
100
AcDbPoint
 10
298.3254185665594
 20
125.8137074665284
 30
0.0
  0
POINT
  5
578
330
510
100
AcDbEntity
  8
DEFPOINTS
  6
BYBLOCK
 62
     0
100
AcDbPoint
 10
300.6649185665594
 20
119.9642074665283
 30
0.0
  0
POINT
  5
579
330
510
100
AcDbEntity
  8
DEFPOINTS
  6
BYBLOCK
 62
     0
100
AcDbPoint
 10
334.7866840182031
 20
133.6111636634888
 30
0.0
  0
ENDBLK
  5
57A
330
510
100
AcDbEntity
  8
0
100
AcDbBlockEnd
  0
BLOCK
  5
57B
330
51E
100
AcDbEntity
  8
0
100
AcDbBlockBegin
  2
*D8
 70
     1
 10
0.0
 20
0.0
 30
0.0
  3
*D8
  1

  0
LINE
  5
57C
330
51E
100
AcDbEntity
  8
0
  6
BYBLOCK
 62
     4
100
AcDbLine
 10
301.4225185665594
 20
210.8479009915716
 30
0.0
 11
346.1155049885356
 21
210.8479009915716
 31
0.0
  0
LINE
  5
57D
330
51E
100
AcDbEntity
  8
0
  6
BYBLOCK
 62
     4
100
AcDbLine
 10
301.4225185665594
 20
206.1479009915717
 30
0.0
 11
346.1155049885356
 21
206.1479009915717
 31
0.0
  0
LINE
  5
57E
330
51E
100
AcDbEntity
  8
0
  6
BYBLOCK
 62
     4
100
AcDbLine
 10
344.6155049885356
 20
213.8479009915716
 30
0.0
 11
344.6155049885356
 21
216.8479009915716
 31
0.0
  0
LINE
  5
57F
330
51E
100
AcDbEntity
  8
0
  6
BYBLOCK
 62
     4
100
AcDbLine
 10
344.6155049885356
 20
203.1479009915717
 30
0.0
 11
344.6155049885356
 21
192.1479009915717
 31
0.0
  0
LINE
  5
580
330
51E
100
AcDbEntity
  8
0
  6
BYBLOCK
 62
     4
100
AcDbLine
 10
344.6155049885356
 20
210.8479009915716
 30
0.0
 11
344.6155049885356
 21
206.1479009915717
 31
0.0
  0
INSERT
  5
581
330
51E
100
AcDbEntity
  8
0
  6
BYBLOCK
 62
     4
100
AcDbBlockReference
  2
_OPEN
 10
344.6155049885356
 20
210.8479009915716
 30
0.0
 41
3.0
 42
3.0
 43
3.0
 50
270.0
  0
INSERT
  5
582
330
51E
100
AcDbEntity
  8
0
  6
BYBLOCK
 62
     4
100
AcDbBlockReference
  2
_OPEN
 10
344.6155049885356
 20
206.1479009915717
 30
0.0
 41
3.0
 42
3.0
 43
3.0
 50
90.0
  0
MTEXT
  5
583
330
51E
100
AcDbEntity
  8
0
  6
BYBLOCK
 62
     4
100
AcDbMText
 10
342.1155049885356
 20
196.1479009915717
 30
0.0
 40
3.0
 41
0.0
 71
     5
 72
     5
  1
\A1;4.7
 11
0.0
 21
1.0
 31
0.0
1001
ACAD
1000
MTEXTBEGIN
1070
    73
1070
     1
1070
    44
1040
1.0
1070
    74
1070
     0
1000
MTEXTEND
1000
MTEXTBEGIN
1070
    73
1070
     1
1070
    44
1040
1.0
1070
    74
1070
     0
1000
MTEXTEND
1000
MTEXTBEGIN
1070
    73
1070
     1
1070
    44
1040
1.0
1070
    74
1070
     0
1000
MTEXTEND
  0
POINT
  5
584
330
51E
100
AcDbEntity
  8
DEFPOINTS
  6
BYBLOCK
 62
     0
100
AcDbPoint
 10
298.4225185665593
 20
210.8479009915716
 30
0.0
  0
POINT
  5
585
330
51E
100
AcDbEntity
  8
DEFPOINTS
  6
BYBLOCK
 62
     0
100
AcDbPoint
 10
298.4225185665593
 20
206.1479009915717
 30
0.0
  0
POINT
  5
586
330
51E
100
AcDbEntity
  8
DEFPOINTS
  6
BYBLOCK
 62
     0
100
AcDbPoint
 10
344.6155049885356
 20
206.1479009915717
 30
0.0
  0
ENDBLK
  5
587
330
51E
100
AcDbEntity
  8
0
100
AcDbBlockEnd
  0
ENDSEC
  0
SECTION
  2
ENTITIES
  0
POINT
  5
1A1
330
1A
100
AcDbEntity
  8
SUNPOU_L
  6
CONTINUOUS
100
AcDbPoint
 10
205.9553251990115
 20
146.5650665787895
 30
0.0
  0
POINT
  5
1A2
330
1A
100
AcDbEntity
  8
SUNPOU_L
  6
CONTINUOUS
100
AcDbPoint
 10
205.4553267650654
 20
145.6990402718312
 30
0.0
  0
LINE
  5
3BC
330
1A
100
AcDbEntity
  8
SEIHIN
  6
CONTINUOUS
 62
     3
 48
16.0
100
AcDbLine
 10
175.3193373895811
 20
69.82988832754756
 30
0.0
 11
300.6649185665594
 21
119.9642074665283
 31
0.0
  0
LINE
  5
3BD
330
1A
100
AcDbEntity
  8
SEIHIN
  6
CONTINUOUS
 62
     3
 48
16.0
100
AcDbLine
 10
172.9797373895813
 20
75.67928832754751
 30
0.0
 11
298.3254185665594
 21
125.8137074665284
 31
0.0
  0
LINE
  5
3BE
330
1A
100
AcDbEntity
  8
SEIHIN
  6
CONTINUOUS
 62
     3
 48
16.0
100
AcDbLine
 10
174.9479373895814
 20
70.75838832754749
 30
0.0
 11
300.2936185665594
 21
120.8927074665284
 31
0.0
  0
LINE
  5
3BF
330
1A
100
AcDbEntity
  8
SEIHIN
  6
CONTINUOUS
 62
     3
 48
16.0
100
AcDbLine
 10
173.3510373895814
 20
74.75078832754758
 30
0.0
 11
298.6967185665594
 21
124.8853074665284
 31
0.0
  0
DIMENSION
  5
3C0
330
1A
100
AcDbEntity
  8
SUNPOU
  6
CONTINUOUS
 62
     4
100
AcDbDimension
  2
*D1
 10
181.4302291554333
 20
54.55131503867666
 30
0.0
 11
250.1382543043953
 21
84.7249885578698
 31
0.0
 70
    33
  3
STANDARD
100
AcDbAlignedDimension
 13
313.4223685038126
 23
128.4594710437689
 33
0.0
 14
174.1494866031649
 24
72.75455616957447
 34
0.0
1001
ACAD
1000
DSTYLE
1002
{
1070
   140
1040
3.0
1070
    74
1070
     0
1070
   172
1070
     1
1070
    73
1070
     0
1070
   272
1070
     2
1070
    77
1070
     3
1070
   173
1070
     1
1070
   147
1040
1.0
1070
    42
1040
3.0
1070
    44
1040
1.5
1070
    43
1040
7.0
1070
   271
1070
     0
1070
   178
1070
     4
1070
   177
1070
     4
1070
   176
1070
     4
1070
   141
1040
150.0
1070
     7
1000
_OPEN
1070
     6
1000
_OPEN
1070
    41
1040
3.0
1002
}
  0
ARC
  5
3C1
330
1A
100
AcDbEntity
  8
SEIHIN
  6
CONTINUOUS
 62
     3
 48
16.0
100
AcDbCircle
 10
214.1560908256944
 20
212.7480760343592
 30
0.0
 40
2.263587590040538
100
AcDbArc
 50
83.71901391138047
 51
96.30407991321508
  0
LINE
  5
3C2
330
1A
100
AcDbEntity
  8
SEIHIN
  6
CONTINUOUS
 62
     3
 48
16.0
100
AcDbLine
 10
208.313537389581
 20
217.4981760248439
 30
0.0
 11
218.4135373895811
 21
217.4980760248437
 31
0.0
  0
LINE
  5
3C3
330
1A
100
AcDbEntity
  8
SEIHIN
  6
CONTINUOUS
 62
     3
 48
16.0
100
AcDbLine
 10
213.7136373895811
 20
214.9980760248439
 30
0.0
 11
219.2134373895811
 21
214.9980760248439
 31
0.0
  0
ARC
  5
3C4
330
1A
100
AcDbEntity
  8
SEIHIN
  6
CONTINUOUS
 62
     3
 48
16.0
100
AcDbCircle
 10
214.1561457464494
 20
204.2482759862539
 30
0.0
 40
2.263593592378674
100
AcDbArc
 50
263.6945382651647
 51
276.2591995011374
  0
LINE
  5
3C5
330
1A
100
AcDbEntity
  8
SEIHIN
  6
CONTINUOUS
 62
     3
 48
16.0
100
AcDbLine
 10
208.313537389581
 20
199.4981760248437
 30
0.0
 11
218.4134373895811
 21
199.4981760248437
 31
0.0
  0
LINE
  5
3C6
330
1A
100
AcDbEntity
  8
SEIHIN
  6
CONTINUOUS
 62
     3
 48
16.0
100
AcDbLine
 10
213.7136373895811
 20
201.9981760248438
 30
0.0
 11
219.2134373895811
 21
201.9981760248438
 31
0.0
  0
LINE
  5
3C7
330
1A
100
AcDbEntity
  8
NOKITOI
  6
PHANTOM
 62
     8
 48
5.0
100
AcDbLine
 10
218.4132373895812
 20
138.4979760248437
 30
0.0
 11
213.5148373895811
 21
138.4979760248437
 31
0.0
  0
LINE
  5
3C8
330
1A
100
AcDbEntity
  8
SEIHIN
  6
CONTINUOUS
 62
     3
 48
16.0
100
AcDbLine
 10
217.154437389581
 20
140.1182760248439
 30
0.0
 11
212.1758373895811
 21
138.7842760248439
 31
0.0
  0
LINE
  5
3C9
330
1A
100
AcDbEntity
  8
SEIHIN
  6
CONTINUOUS
 62
     3
 48
16.0
100
AcDbLine
 10
216.947337389581
 20
140.8909760248438
 30
0.0
 11
211.968837389581
 21
139.5569760248439
 31
0.0
  0
LINE
  5
3CA
330
1A
100
AcDbEntity
  8
NOKITOI
  6
PHANTOM
 62
     8
 48
5.0
100
AcDbLine
 10
214.496937389581
 20
137.2979760248438
 30
0.0
 11
213.5581373895811
 21
132.6979760248439
 31
0.0
  0
LINE
  5
3CB
330
1A
100
AcDbEntity
  8
NOKITOI
  6
PHANTOM
 62
     8
 48
5.0
100
AcDbLine
 10
213.5581373895811
 20
132.6979760248439
 30
0.0
 11
217.213237389581
 21
132.6979760248439
 31
0.0
  0
LINE
  5
3CC
330
1A
100
AcDbEntity
  8
NOKITOI
  6
PHANTOM
 62
     8
 48
5.0
100
AcDbLine
 10
218.4132373895812
 20
131.4979760248437
 30
0.0
 11
213.3132373895811
 21
131.4979760248437
 31
0.0
  0
LINE
  5
3CD
330
1A
100
AcDbEntity
  8
SEIHIN
  6
CONTINUOUS
 62
     3
 48
16.0
100
AcDbLine
 10
218.213137389581
 20
129.1980760248439
 30
0.0
 11
214.0686373895809
 21
129.1980760248439
 31
0.0
  0
LINE
  5
3CE
330
1A
100
AcDbEntity
  8
SEIHIN
  6
CONTINUOUS
 62
     3
 48
16.0
100
AcDbLine
 10
213.4154373895812
 20
129.9981760248438
 30
0.0
 11
217.913237389581
 21
129.9981760248438
 31
0.0
  0
LINE
  5
3CF
330
1A
100
AcDbEntity
  8
SEIHIN
  6
CONTINUOUS
 62
     3
 48
16.0
100
AcDbLine
 10
211.633437389581
 20
105.7634760248439
 30
0.0
 11
216.416037389581
 21
129.1980760248439
 31
0.0
  0
LINE
  5
3D0
330
1A
100
AcDbEntity
  8
SEIHIN
  6
CONTINUOUS
 62
     3
 48
16.0
100
AcDbLine
 10
217.7211373895811
 20
140.1037760248439
 30
0.0
 11
212.346437389581
 21
138.1474760248439
 31
0.0
  0
LINE
  5
3D1
330
1A
100
AcDbEntity
  8
CENTER_L
  6
CENTER
 62
     1
 48
5.0
100
AcDbLine
 10
167.9078373895811
 20
70.25807602484391
 30
0.0
 11
320.4224461965253
 21
131.2594662412836
 31
0.0
  0
DIMENSION
  5
3D2
330
1A
100
AcDbEntity
  8
SUNPOU
100
AcDbDimension
  2
*D2
 10
132.6133373895812
 20
169.0222937434068
 30
0.0
 11
175.9132373895811
 21
171.5222937434068
 31
0.0
 70
    32
  3
STANDARD
100
AcDbAlignedDimension
 13
219.213137389581
 23
139.1522760248439
 33
0.0
 14
132.6133373895812
 24
157.9981760248438
 34
0.0
100
AcDbRotatedDimension
1001
ACAD
1000
DSTYLE
1002
{
1070
   140
1040
3.0
1070
    74
1070
     0
1070
   172
1070
     1
1070
    73
1070
     0
1070
   272
1070
     2
1070
    77
1070
     3
1070
   173
1070
     1
1070
   147
1040
1.0
1070
    42
1040
3.0
1070
    44
1040
1.5
1070
    43
1040
7.0
1070
   271
1070
     0
1070
   178
1070
     4
1070
   177
1070
     4
1070
   176
1070
     4
1070
   141
1040
150.0
1070
     7
1000
_OPEN
1070
     6
1000
_OPEN
1070
    41
1040
3.0
1002
}
  0
DIMENSION
  5
3D3
330
1A
100
AcDbEntity
  8
SUNPOU
100
AcDbDimension
  2
*D3
 10
188.5188430279491
 20
98.49797602484398
 30
0.0
 11
186.0188430279491
 21
119.9980390659205
 31
0.0
 70
    32
  3
STANDARD
100
AcDbAlignedDimension
 13
219.213137389581
 23
141.498102106997
 33
0.0
 14
200.213237389581
 24
98.49797602484398
 34
0.0
 50
90.0
100
AcDbRotatedDimension
1001
ACAD
1000
DSTYLE
1002
{
1070
   140
1040
3.0
1070
    74
1070
     0
1070
   172
1070
     1
1070
    73
1070
     0
1070
   272
1070
     2
1070
    77
1070
     3
1070
   173
1070
     1
1070
   147
1040
1.0
1070
    42
1040
3.0
1070
    44
1040
1.5
1070
    43
1040
7.0
1070
   271
1070
     0
1070
   178
1070
     4
1070
   177
1070
     4
1070
   176
1070
     4
1070
   141
1040
150.0
1070
     7
1000
_OPEN
1070
     6
1000
_OPEN
1070
    41
1040
3.0
1002
}
  0
LINE
  5
3D4
330
1A
100
AcDbEntity
  8
CENTER_L
  6
CENTER
 62
     1
 48
5.0
100
AcDbLine
 10
125.6134373895811
 20
208.4982520976711
 30
0.0
 11
320.4224643625477
 21
208.4979374285175
 31
0.0
  0
LINE
  5
3D5
330
1A
100
AcDbEntity
  8
SEIHIN
  6
CONTINUOUS
 62
     3
 48
16.0
100
AcDbLine
 10
72.41328738958118
 20
140.9982760248439
 30
0.0
 11
72.41328738958118
 21
156.9982760248439
 31
0.0
  0
LINE
  5
3D6
330
1A
100
AcDbEntity
  8
SEIHIN
  6
CONTINUOUS
 62
     3
 48
16.0
100
AcDbLine
 10
59.41328738958112
 20
140.9982760248439
 30
0.0
 11
59.41328738958112
 21
156.9983760248438
 31
0.0
  0
LINE
  5
3D7
330
1A
100
AcDbEntity
  8
SEIHIN
  6
CONTINUOUS
 62
     3
 48
16.0
100
AcDbLine
 10
133.4132373895811
 20
130.4981760248438
 30
0.0
 11
133.413337389581
 21
157.9981760248438
 31
0.0
  0
LINE
  5
3D8
330
1A
100
AcDbEntity
  8
SEIHIN
  6
CONTINUOUS
 62
     3
 48
16.0
100
AcDbLine
 10
132.6133373895812
 20
130.1981760248438
 30
0.0
 11
132.6133373895812
 21
157.9981760248438
 31
0.0
  0
LINE
  5
3D9
330
1A
100
AcDbEntity
  8
CENTER_L
  6
CENTER
 62
     1
 48
5.0
100
AcDbLine
 10
65.9132373895812
 20
66.55947602484392
 30
0.0
 11
65.91323738958118
 21
164.9982760248439
 31
0.0
  0
LINE
  5
3DA
330
1A
100
AcDbEntity
  8
SEIHIN
  6
CONTINUOUS
 62
     3
 48
16.0
100
AcDbLine
 10
55.91328738958122
 20
157.9982760248439
 30
0.0
 11
55.91328738958122
 21
129.1982760248439
 31
0.0
  0
LINE
  5
3DB
330
1A
100
AcDbEntity
  8
SEIHIN
  6
CONTINUOUS
 62
     3
 48
16.0
100
AcDbLine
 10
75.91328738958113
 20
157.9982760248439
 30
0.0
 11
75.91328738958113
 21
129.1982760248439
 31
0.0
  0
DIMENSION
  5
3DC
330
1A
100
AcDbEntity
  8
SUNPOU
100
AcDbDimension
  2
*D4
 10
109.0459638370254
 20
97.69817602484383
 30
0.0
 11
106.5459638370254
 21
127.8481760248438
 31
0.0
 70
    32
  3
STANDARD
100
AcDbAlignedDimension
 13
132.6133373895812
 23
157.9981760248438
 33
0.0
 14
150.750337389581
 24
97.69817602484383
 34
0.0
 50
90.0
100
AcDbRotatedDimension
1001
ACAD
1000
DSTYLE
1002
{
1070
   140
1040
3.0
1070
    74
1070
     0
1070
   172
1070
     1
1070
    73
1070
     0
1070
   272
1070
     2
1070
    77
1070
     3
1070
   173
1070
     1
1070
   147
1040
1.0
1070
    42
1040
3.0
1070
    44
1040
1.5
1070
    43
1040
7.0
1070
   271
1070
     0
1070
   178
1070
     4
1070
   177
1070
     4
1070
   176
1070
     4
1070
   141
1040
150.0
1070
     7
1000
_OPEN
1070
     6
1000
_OPEN
1070
    41
1040
3.0
1002
}
  0
ARC
  5
3DD
330
1A
100
AcDbEntity
  8
SEIHIN
  6
CONTINUOUS
 62
     3
 48
16.0
100
AcDbCircle
 10
70.16328738958119
 20
97.28537602484397
 30
0.0
 40
2.287572164981906
100
AcDbArc
 50
169.6012878060621
 51
10.39871219393784
  0
ARC
  5
3DE
330
1A
100
AcDbEntity
  8
SEIHIN
  6
CONTINUOUS
 62
     3
 48
16.0
100
AcDbCircle
 10
61.66328738958118
 20
97.28537602484397
 30
0.0
 40
2.287572164981949
100
AcDbArc
 50
169.6012878060621
 51
10.39871219393784
  0
LINE
  5
3DF
330
1A
100
AcDbEntity
  8
SEIHIN
  6
CONTINUOUS
 62
     3
 48
16.0
100
AcDbLine
 10
67.91328738958118
 20
97.69827602484401
 30
0.0
 11
67.91318738958121
 21
129.1982760248439
 31
0.0
  0
LINE
  5
3E0
330
1A
100
AcDbEntity
  8
SEIHIN
  6
CONTINUOUS
 62
     3
 48
16.0
100
AcDbLine
 10
56.91328738958112
 20
97.69827602484401
 30
0.0
 11
56.91328738958112
 21
129.1982760248439
 31
0.0
  0
LINE
  5
3E1
330
1A
100
AcDbEntity
  8
SEIHIN
  6
CONTINUOUS
 62
     3
 48
16.0
100
AcDbLine
 10
63.91328738958119
 20
97.69827602484401
 30
0.0
 11
63.91328738958119
 21
129.1982760248439
 31
0.0
  0
LINE
  5
3E2
330
1A
100
AcDbEntity
  8
SEIHIN
  6
CONTINUOUS
 62
     3
 48
16.0
100
AcDbLine
 10
59.41328738958112
 20
129.1982760248439
 30
0.0
 11
59.41328738958112
 21
97.69827602484401
 31
0.0
  0
LINE
  5
3E3
330
1A
100
AcDbEntity
  8
SEIHIN
  6
CONTINUOUS
 62
     3
 48
16.0
100
AcDbLine
 10
74.91328738958118
 20
97.69827602484401
 30
0.0
 11
74.91328738958118
 21
129.1982760248439
 31
0.0
  0
LINE
  5
3E4
330
1A
100
AcDbEntity
  8
SEIHIN
  6
CONTINUOUS
 62
     3
 48
16.0
100
AcDbLine
 10
72.41318738958115
 20
129.1982760248439
 30
0.0
 11
72.41318738958115
 21
97.69827602484401
 31
0.0
  0
LINE
  5
3E5
330
1A
100
AcDbEntity
  8
SEIHIN
  6
CONTINUOUS
 62
     3
 48
16.0
100
AcDbLine
 10
68.26323738958122
 20
70.49817602484381
 30
0.0
 11
68.26323738958122
 21
89.99827602484391
 31
0.0
  0
LINE
  5
3E6
330
1A
100
AcDbEntity
  8
SEIHIN
  6
CONTINUOUS
 62
     3
 48
16.0
100
AcDbLine
 10
63.5631373895812
 20
70.49817602484381
 30
0.0
 11
63.5631373895812
 21
89.99827602484391
 31
0.0
  0
LINE
  5
3E7
330
1A
100
AcDbEntity
  8
SEIHIN
  6
CONTINUOUS
 62
     3
 48
16.0
100
AcDbLine
 10
63.56313738958121
 20
70.4982760248439
 30
0.0
 11
68.26323738958122
 21
70.4982760248439
 31
0.0
  0
LINE
  5
3E8
330
1A
100
AcDbEntity
  8
SEIHIN
  6
CONTINUOUS
 62
     3
 48
16.0
100
AcDbLine
 10
67.91328738958135
 20
97.69827602484401
 30
0.0
 11
63.91328738958119
 21
97.69827602484401
 31
0.0
  0
LINE
  5
3E9
330
1A
100
AcDbEntity
  8
SEIHIN
  6
CONTINUOUS
 62
     3
 48
16.0
100
AcDbLine
 10
70.91328738958118
 20
93.99827602484391
 30
0.0
 11
60.91318738958115
 21
93.99827602484391
 31
0.0
  0
LINE
  5
3EA
330
1A
100
AcDbEntity
  8
SEIHIN
  6
CONTINUOUS
 62
     3
 48
16.0
100
AcDbLine
 10
70.91328738958118
 20
94.99886426013807
 30
0.0
 11
61.66328738958118
 21
94.99777602484398
 31
0.0
  0
LINE
  5
3EB
330
1A
100
AcDbEntity
  8
SEIHIN
  6
CONTINUOUS
 62
     3
 48
16.0
100
AcDbLine
 10
68.26328738958121
 20
89.99827602484391
 30
0.0
 11
63.56318738958119
 21
89.99827602484391
 31
0.0
  0
LINE
  5
3EC
330
1A
100
AcDbEntity
  8
SEIHIN
  6
CONTINUOUS
 62
     3
 48
16.0
100
AcDbLine
 10
59.41328738958112
 20
97.69827602484401
 30
0.0
 11
56.91328738958112
 21
97.69827602484401
 31
0.0
  0
LINE
  5
3ED
330
1A
100
AcDbEntity
  8
SEIHIN
  6
CONTINUOUS
 62
     3
 48
16.0
100
AcDbLine
 10
60.91318738958115
 20
93.99827602484391
 30
0.0
 11
63.56318738958119
 21
89.99827602484391
 31
0.0
  0
LINE
  5
3EE
330
1A
100
AcDbEntity
  8
SEIHIN
  6
CONTINUOUS
 62
     3
 48
16.0
100
AcDbLine
 10
60.91318738958115
 20
93.99827602484391
 30
0.0
 11
60.91318738958115
 21
94.99827602484396
 31
0.0
  0
LINE
  5
3EF
330
1A
100
AcDbEntity
  8
SEIHIN
  6
CONTINUOUS
 62
     3
 48
16.0
100
AcDbLine
 10
72.41318738958115
 20
97.69827602484401
 30
0.0
 11
74.91328738958118
 21
97.69827602484401
 31
0.0
  0
LINE
  5
3F0
330
1A
100
AcDbEntity
  8
SEIHIN
  6
CONTINUOUS
 62
     3
 48
16.0
100
AcDbLine
 10
70.91328738958118
 20
93.99827602484391
 30
0.0
 11
68.26328738958121
 21
89.99827602484391
 31
0.0
  0
LINE
  5
3F1
330
1A
100
AcDbEntity
  8
SEIHIN
  6
CONTINUOUS
 62
     3
 48
16.0
100
AcDbLine
 10
70.91328738958118
 20
93.99827602484391
 30
0.0
 11
70.91328738958118
 21
94.99827602484396
 31
0.0
  0
LINE
  5
3F2
330
1A
100
AcDbEntity
  8
SEIHIN
  6
CONTINUOUS
 62
     3
 48
16.0
100
AcDbLine
 10
63.91328738958119
 20
105.080976024844
 30
0.0
 11
67.91326395243832
 21
105.080976024844
 31
0.0
  0
LINE
  5
3F3
330
1A
100
AcDbEntity
  8
SEIHIN
  6
CONTINUOUS
 62
     3
 48
16.0
100
AcDbLine
 10
56.91328738958112
 20
105.080976024844
 30
0.0
 11
59.41328738958112
 21
105.080976024844
 31
0.0
  0
ARC
  5
3F4
330
1A
100
AcDbEntity
  8
SEIHIN
100
AcDbCircle
 10
61.6633373895812
 20
105.3465447754507
 30
0.0
 40
2.265568750622844
100
AcDbArc
 50
186.731656852122
 51
353.268343147878
  0
LINE
  5
3F5
330
1A
100
AcDbEntity
  8
SEIHIN
  6
CONTINUOUS
 62
     3
 48
16.0
100
AcDbLine
 10
74.91328738958118
 20
105.080976024844
 30
0.0
 11
72.41318738958115
 21
105.080976024844
 31
0.0
  0
ARC
  5
3F6
330
1A
100
AcDbEntity
  8
SEIHIN
100
AcDbCircle
 10
70.16323738958117
 20
105.3465447754507
 30
0.0
 40
2.265568750622844
100
AcDbArc
 50
186.731656852122
 51
353.268343147878
  0
LINE
  5
3F7
330
1A
100
AcDbEntity
  8
SEIHIN
  6
CONTINUOUS
 62
     3
 48
16.0
100
AcDbLine
 10
70.41328738958118
 20
138.9982760248439
 30
0.0
 11
61.41328738958113
 21
138.9982760248439
 31
0.0
  0
LINE
  5
3F8
330
1A
100
AcDbEntity
  8
SEIHIN
  6
CONTINUOUS
 62
     3
 48
16.0
100
AcDbLine
 10
59.41328738958112
 20
141.4983760248439
 30
0.0
 11
72.41328738958118
 21
141.4983760248439
 31
0.0
  0
ARC
  5
3F9
330
1A
100
AcDbEntity
  8
SEIHIN
  6
CONTINUOUS
 62
     3
 48
16.0
100
AcDbCircle
 10
65.91328738958113
 20
133.8321760248438
 30
0.0
 40
1.0
100
AcDbArc
 50
180.0
 51
0.0
  0
ARC
  5
3FA
330
1A
100
AcDbEntity
  8
SEIHIN
  6
CONTINUOUS
 62
     3
 48
16.0
100
AcDbCircle
 10
65.91328738958113
 20
133.8321760248438
 30
0.0
 40
1.0
100
AcDbArc
 50
0.0
 51
180.0
  0
LINE
  5
3FB
330
1A
100
AcDbEntity
  8
SEIHIN
  6
CONTINUOUS
 62
     3
 48
16.0
100
AcDbLine
 10
75.91328738958113
 20
129.1982760248439
 30
0.0
 11
55.91328738958122
 21
129.1982760248439
 31
0.0
  0
ARC
  5
3FC
330
1A
100
AcDbEntity
  8
SEIHIN
  6
CONTINUOUS
 62
     3
 48
16.0
100
AcDbCircle
 10
63.31369575615049
 20
133.0310921158719
 30
0.0
 40
0.2999810411755784
100
AcDbArc
 50
293.2034348480818
 51
11.84663221983273
  0
ARC
  5
3FD
330
1A
100
AcDbEntity
  8
SEIHIN
  6
CONTINUOUS
 62
     3
 48
16.0
100
AcDbCircle
 10
60.17646848543712
 20
132.2301491737607
 30
0.0
 40
0.8000335429435061
100
AcDbArc
 50
95.4425364140595
 51
194.2605117095231
  0
LINE
  5
3FE
330
1A
100
AcDbEntity
  8
SEIHIN
  6
CONTINUOUS
 62
     3
 48
16.0
100
AcDbLine
 10
60.10058738958112
 20
133.026576024844
 30
0.0
 11
63.28518738958123
 21
133.3297760248439
 31
0.0
  0
LINE
  5
3FF
330
1A
100
AcDbEntity
  8
SEIHIN
  6
CONTINUOUS
 62
     3
 48
16.0
100
AcDbLine
 10
60.49168738958123
 20
131.4948760248439
 30
0.0
 11
63.43188738958118
 21
132.7553760248439
 31
0.0
  0
ARC
  5
400
330
1A
100
AcDbEntity
  8
SEIHIN
  6
CONTINUOUS
 62
     3
 48
16.0
100
AcDbCircle
 10
60.1764592081736
 20
132.2301899329763
 30
0.0
 40
0.8000345929061422
100
AcDbArc
 50
194.2635044630389
 51
293.2047550821392
  0
ARC
  5
401
330
1A
100
AcDbEntity
  8
SEIHIN
  6
CONTINUOUS
 62
     3
 48
16.0
100
AcDbCircle
 10
61.41328738958113
 20
140.9982760248439
 30
0.0
 40
2.0
100
AcDbArc
 50
180.0
 51
270.0
  0
LINE
  5
402
330
1A
100
AcDbEntity
  8
SEIHIN
  6
CONTINUOUS
 62
     3
 48
16.0
100
AcDbLine
 10
60.55008738958118
 20
137.7039760248439
 30
0.0
 11
63.61228738958114
 21
135.6845760248438
 31
0.0
  0
LINE
  5
403
330
1A
100
AcDbEntity
  8
SEIHIN
  6
CONTINUOUS
 62
     3
 48
16.0
100
AcDbLine
 10
59.86408738958125
 20
136.2747760248439
 30
0.0
 11
63.35508738958124
 21
135.1485760248439
 31
0.0
  0
ARC
  5
404
330
1A
100
AcDbEntity
  8
SEIHIN
  6
CONTINUOUS
 62
     3
 48
16.0
100
AcDbCircle
 10
60.10968706404056
 20
137.0360769541125
 30
0.0
 40
0.7999364380997652
100
AcDbArc
 50
146.4927361374526
 51
252.1200266769127
  0
ARC
  5
405
330
1A
100
AcDbEntity
  8
SEIHIN
  6
CONTINUOUS
 62
     3
 48
16.0
100
AcDbCircle
 10
60.10978754390944
 20
137.036096480352
 30
0.0
 40
0.8000094437057423
100
AcDbArc
 50
56.59913740782207
 51
146.4978748253907
  0
ARC
  5
406
330
1A
100
AcDbEntity
  8
SEIHIN
  6
CONTINUOUS
 62
     3
 48
16.0
100
AcDbCircle
 10
63.44720805683592
 20
135.434084864872
 30
0.0
 40
0.3000025251054579
100
AcDbArc
 50
252.1174788821403
 51
334.1918515621244
  0
ARC
  5
407
330
1A
100
AcDbEntity
  8
SEIHIN
  6
CONTINUOUS
 62
     3
 48
16.0
100
AcDbCircle
 10
63.31364870554707
 20
133.031104493307
 30
0.0
 40
0.3000245494240687
100
AcDbArc
 50
11.8424742334153
 51
95.4434513951937
  0
ARC
  5
408
330
1A
100
AcDbEntity
  8
SEIHIN
  6
CONTINUOUS
 62
     3
 48
16.0
100
AcDbCircle
 10
63.44718809846854
 20
135.4340734518529
 30
0.0
 40
0.3000155245999041
100
AcDbArc
 50
334.1954731758403
 51
56.61223227605979
  0
ARC
  5
409
330
1A
100
AcDbEntity
  8
SEIHIN
  6
CONTINUOUS
 62
     3
 48
16.0
100
AcDbCircle
 10
71.65007315130278
 20
132.2301962466096
 30
0.0
 40
0.799980343449913
100
AcDbArc
 50
345.7350412097582
 51
84.56191066667004
  0
ARC
  5
40A
330
1A
100
AcDbEntity
  8
SEIHIN
  6
CONTINUOUS
 62
     3
 48
16.0
100
AcDbCircle
 10
68.51284339321394
 20
133.0311606339087
 30
0.0
 40
0.3000299848206265
100
AcDbArc
 50
168.1686973337289
 51
246.8079742114879
  0
LINE
  5
40B
330
1A
100
AcDbEntity
  8
SEIHIN
  6
CONTINUOUS
 62
     3
 48
16.0
100
AcDbLine
 10
71.72588738958116
 20
133.026576024844
 30
0.0
 11
68.54128738958123
 21
133.3297760248439
 31
0.0
  0
LINE
  5
40C
330
1A
100
AcDbEntity
  8
SEIHIN
  6
CONTINUOUS
 62
     3
 48
16.0
100
AcDbLine
 10
71.3348873895812
 20
131.4948760248439
 30
0.0
 11
68.39468738958119
 21
132.7553760248439
 31
0.0
  0
ARC
  5
40D
330
1A
100
AcDbEntity
  8
SEIHIN
  6
CONTINUOUS
 62
     3
 48
16.0
100
AcDbCircle
 10
71.65005839842059
 20
132.230161717636
 30
0.0
 40
0.7999861341533095
100
AcDbArc
 50
246.7982121817283
 51
345.737698314064
  0
ARC
  5
40E
330
1A
100
AcDbEntity
  8
SEIHIN
  6
CONTINUOUS
 62
     3
 48
16.0
100
AcDbCircle
 10
70.41328738958118
 20
140.9982760248439
 30
0.0
 40
2.0
100
AcDbArc
 50
270.0
 51
0.0
  0
LINE
  5
40F
330
1A
100
AcDbEntity
  8
SEIHIN
  6
CONTINUOUS
 62
     3
 48
16.0
100
AcDbLine
 10
71.96238738958125
 20
136.2747760248439
 30
0.0
 11
68.47148738958124
 21
135.1485760248439
 31
0.0
  0
LINE
  5
410
330
1A
100
AcDbEntity
  8
SEIHIN
  6
CONTINUOUS
 62
     3
 48
16.0
100
AcDbLine
 10
71.2763873895811
 20
137.7039760248439
 30
0.0
 11
68.21418738958126
 21
135.6845760248438
 31
0.0
  0
ARC
  5
411
330
1A
100
AcDbEntity
  8
SEIHIN
  6
CONTINUOUS
 62
     3
 48
16.0
100
AcDbCircle
 10
68.37939719062372
 20
135.4340718308929
 30
0.0
 40
0.2999807660761266
100
AcDbArc
 50
205.7861790119682
 51
287.8777473054459
  0
ARC
  5
412
330
1A
100
AcDbEntity
  8
SEIHIN
  6
CONTINUOUS
 62
     3
 48
16.0
100
AcDbCircle
 10
68.51286121475682
 20
133.0310567541183
 30
0.0
 40
0.300068742320863
100
AcDbArc
 50
84.56409299043707
 51
168.1499813809538
  0
ARC
  5
413
330
1A
100
AcDbEntity
  8
SEIHIN
  6
CONTINUOUS
 62
     3
 48
16.0
100
AcDbCircle
 10
68.37940655642121
 20
135.4341455901942
 30
0.0
 40
0.3000212920612555
100
AcDbArc
 50
123.4144637516614
 51
205.7980843013433
  0
ARC
  5
414
330
1A
100
AcDbEntity
  8
SEIHIN
  6
CONTINUOUS
 62
     3
 48
16.0
100
AcDbCircle
 10
71.71680501933998
 20
137.0361263441195
 30
0.0
 40
0.799978130472554
100
AcDbArc
 50
287.8777077593881
 51
33.50104468163908
  0
ARC
  5
415
330
1A
100
AcDbEntity
  8
SEIHIN
  6
CONTINUOUS
 62
     3
 48
16.0
100
AcDbCircle
 10
71.7167832291981
 20
137.0360768749357
 30
0.0
 40
0.8000236059017472
100
AcDbArc
 50
33.50313763733201
 51
123.3998501294571
  0
DIMENSION
  5
416
330
1A
100
AcDbEntity
  8
SUNPOU
100
AcDbDimension
  2
*D5
 10
109.0459638370254
 20
69.82988832754756
 30
0.0
 11
106.5459638370254
 21
83.76403381284736
 31
0.0
 70
    32
  3
STANDARD
100
AcDbAlignedDimension
 13
149.9266793406683
 23
97.69817929814719
 33
0.0
 14
175.3193373895811
 24
69.82988832754756
 34
0.0
 50
90.0
100
AcDbRotatedDimension
1001
ACAD
1000
DSTYLE
1002
{
1070
   140
1040
3.0
1070
    74
1070
     0
1070
   172
1070
     1
1070
    73
1070
     0
1070
   272
1070
     2
1070
    77
1070
     3
1070
   173
1070
     1
1070
   147
1040
1.0
1070
    42
1040
3.0
1070
    44
1040
1.5
1070
    43
1040
7.0
1070
   271
1070
     0
1070
   178
1070
     4
1070
   177
1070
     4
1070
   176
1070
     4
1070
   141
1040
150.0
1070
     7
1000
_OPEN
1070
     6
1000
_OPEN
1070
    41
1040
3.0
1002
}
  0
ARC
  5
417
330
1A
100
AcDbEntity
  8
NOKITOI
  6
PHANTOM
 62
     8
 48
5.0
100
AcDbCircle
 10
140.8288956026049
 20
96.33070001973292
 30
0.0
 40
12.19997945109428
100
AcDbArc
 50
48.00719042627341
 51
72.26181654227993
  0
ARC
  5
418
330
1A
100
AcDbEntity
  8
SEIHIN
  6
CONTINUOUS
 62
     3
 48
16.0
100
AcDbCircle
 10
151.3630354469179
 20
99.49817746928772
 30
0.0
 40
4.500001444444297
100
AcDbArc
 50
196.7356113084857
 51
270.0000247347468
  0
ARC
  5
419
330
1A
100
AcDbEntity
  8
NOKITOI
  6
PHANTOM
 62
     8
 48
5.0
100
AcDbCircle
 10
140.8289332767111
 20
96.33068034081475
 30
0.0
 40
10.99994632941524
100
AcDbArc
 50
11.36374015671925
 51
75.87555169639184
  0
ARC
  5
41A
330
1A
100
AcDbEntity
  8
SEIHIN
  6
CONTINUOUS
 62
     3
 48
16.0
100
AcDbCircle
 10
140.8289181762697
 20
96.33079668674273
 30
0.0
 40
9.199945293881421
100
AcDbArc
 50
13.42056006984956
 51
72.41807934622672
  0
ARC
  5
41B
330
1A
100
AcDbEntity
  8
SEIHIN
  6
CONTINUOUS
 62
     3
 48
16.0
100
AcDbCircle
 10
140.8289375444911
 20
96.33077585921066
 30
0.0
 40
9.999963980685205
100
AcDbArc
 50
14.71676328417721
 51
71.45126755184699
  0
ARC
  5
41C
330
1A
100
AcDbEntity
  8
SEIHIN
  6
CONTINUOUS
 62
     3
 48
16.0
100
AcDbCircle
 10
140.8289556116034
 20
96.3307567130351
 30
0.0
 40
6.499970929582921
100
AcDbArc
 50
16.73482970711813
 51
69.93938296814767
  0
LINE
  5
41D
330
1A
100
AcDbEntity
  8
SEIHIN
  6
CONTINUOUS
 62
     3
 48
16.0
100
AcDbLine
 10
140.193037389581
 20
105.7634760248439
 30
0.0
 11
135.4105373895811
 21
129.1981760248438
 31
0.0
  0
LINE
  5
41E
330
1A
100
AcDbEntity
  8
NOKITOI
  6
PHANTOM
 62
     8
 48
5.0
100
AcDbLine
 10
138.5133373895811
 20
131.4980760248439
 30
0.0
 11
143.5132373895812
 21
106.9980760248439
 31
0.0
  0
LINE
  5
41F
330
1A
100
AcDbEntity
  8
SEIHIN
  6
CONTINUOUS
 62
     3
 48
16.0
100
AcDbLine
 10
138.9010373895811
 20
129.5981760248439
 30
0.0
 11
143.6791373895811
 21
106.1853760248439
 31
0.0
  0
LINE
  5
420
330
1A
100
AcDbEntity
  8
SEIHIN
  6
CONTINUOUS
 62
     3
 48
16.0
100
AcDbLine
 10
142.9302373895811
 20
105.8542760248439
 30
0.0
 11
138.247837389581
 21
128.7981760248438
 31
0.0
  0
LINE
  5
421
330
1A
100
AcDbEntity
  8
NOKITOI
  6
PHANTOM
 62
     8
 48
5.0
100
AcDbLine
 10
138.311737389581
 20
138.4980760248439
 30
0.0
 11
144.545837389581
 21
107.9506760248438
 31
0.0
  0
ARC
  5
422
330
1A
100
AcDbEntity
  8
SEIHIN
  6
CONTINUOUS
 62
     3
 48
16.0
100
AcDbCircle
 10
144.6022292489723
 20
106.6632854771898
 30
0.0
 40
4.499972008255389
100
AcDbArc
 50
191.5345556217938
 51
249.9375131742009
  0
ARC
  5
423
330
1A
100
AcDbEntity
  8
SEIHIN
  6
CONTINUOUS
 62
     3
 48
16.0
100
AcDbCircle
 10
144.1690207953596
 20
106.2852947871321
 30
0.0
 40
0.4999695093846522
100
AcDbArc
 50
191.5281707198886
 51
251.458817405489
  0
ARC
  5
424
330
1A
100
AcDbEntity
  8
SEIHIN
  6
CONTINUOUS
 62
     3
 48
16.0
100
AcDbCircle
 10
143.9100496865559
 20
106.0542623565308
 30
0.0
 40
1.000013334993361
100
AcDbArc
 50
191.5360038029055
 51
252.4157252969602
  0
LINE
  5
425
330
1A
100
AcDbEntity
  8
NOKITOI
  6
PHANTOM
 62
     8
 48
5.0
100
AcDbLine
 10
137.329637389581
 20
137.2980760248439
 30
0.0
 11
138.2683373895811
 21
132.6980760248439
 31
0.0
  0
LINE
  5
426
330
1A
100
AcDbEntity
  8
NOKITOI
  6
PHANTOM
 62
     8
 48
5.0
100
AcDbLine
 10
134.6133373895811
 20
137.2980760248439
 30
0.0
 11
134.6133373895811
 21
132.6980760248439
 31
0.0
  0
LINE
  5
427
330
1A
100
AcDbEntity
  8
NOKITOI
  6
PHANTOM
 62
     8
 48
5.0
100
AcDbLine
 10
133.4132373895811
 20
131.4980760248439
 30
0.0
 11
133.413337389581
 21
138.4980760248439
 31
0.0
  0
LINE
  5
428
330
1A
100
AcDbEntity
  8
NOKITOI
  6
PHANTOM
 62
     8
 48
5.0
100
AcDbLine
 10
138.2683373895811
 20
132.6980760248439
 30
0.0
 11
134.6133373895811
 21
132.6980760248439
 31
0.0
  0
LINE
  5
429
330
1A
100
AcDbEntity
  8
NOKITOI
  6
PHANTOM
 62
     8
 48
5.0
100
AcDbLine
 10
133.4132373895811
 20
131.4980760248439
 30
0.0
 11
138.5133373895811
 21
131.4980760248439
 31
0.0
  0
LINE
  5
42A
330
1A
100
AcDbEntity
  8
SEIHIN
  6
CONTINUOUS
 62
     3
 48
16.0
100
AcDbLine
 10
133.6133373895812
 20
129.1981760248438
 30
0.0
 11
137.7579373895811
 21
129.1981760248438
 31
0.0
  0
LINE
  5
42B
330
1A
100
AcDbEntity
  8
SEIHIN
  6
CONTINUOUS
 62
     3
 48
16.0
100
AcDbLine
 10
138.4111373895811
 20
129.9981760248438
 30
0.0
 11
133.913237389581
 21
129.9981760248438
 31
0.0
  0
ARC
  5
42C
330
1A
100
AcDbEntity
  8
SEIHIN
  6
CONTINUOUS
 62
     3
 48
16.0
100
AcDbCircle
 10
133.6133373895812
 20
130.1981760248438
 30
0.0
 40
1.0
100
AcDbArc
 50
180.0
 51
270.0
  0
ARC
  5
42D
330
1A
100
AcDbEntity
  8
SEIHIN
  6
CONTINUOUS
 62
     3
 48
16.0
100
AcDbCircle
 10
133.9132373895811
 20
130.4981760248437
 30
0.0
 40
0.4999999999999432
100
AcDbArc
 50
179.9999999999934
 51
269.9999999999934
  0
ARC
  5
42E
330
1A
100
AcDbEntity
  8
SEIHIN
  6
CONTINUOUS
 62
     3
 48
16.0
100
AcDbCircle
 10
138.4111386204463
 20
129.4981750198458
 30
0.0
 40
0.5000010049994628
100
AcDbArc
 50
11.53705306385751
 51
90.00014104646831
  0
ARC
  5
42F
330
1A
100
AcDbEntity
  8
SEIHIN
  6
CONTINUOUS
 62
     3
 48
16.0
100
AcDbCircle
 10
137.7579386204461
 20
128.6981750198459
 30
0.0
 40
0.5000010049994151
100
AcDbArc
 50
11.53705306384699
 51
90.00014104645858
  0
LINE
  5
430
330
1A
100
AcDbEntity
  8
NOKITOI
  6
PHANTOM
 62
     8
 48
5.0
100
AcDbLine
 10
133.413337389581
 20
138.4980760248439
 30
0.0
 11
138.311737389581
 21
138.4980760248439
 31
0.0
  0
LINE
  5
431
330
1A
100
AcDbEntity
  8
NOKITOI
  6
PHANTOM
 62
     8
 48
5.0
100
AcDbLine
 10
137.329637389581
 20
137.2980760248439
 30
0.0
 11
134.6133373895811
 21
137.2980760248439
 31
0.0
  0
ARC
  5
432
330
1A
100
AcDbEntity
  8
SEIHIN
  6
CONTINUOUS
 62
     3
 48
16.0
100
AcDbCircle
 10
201.0760807552239
 20
98.69813131534488
 30
0.0
 40
0.9999552921048582
100
AcDbArc
 50
270.0032450547215
 51
346.5812833143991
  0
ARC
  5
433
330
1A
100
AcDbEntity
  8
SEIHIN
  6
CONTINUOUS
 62
     3
 48
16.0
100
AcDbCircle
 10
150.7503324178484
 20
98.69817994982833
 30
0.0
 40
1.000003924996877
100
AcDbArc
 50
193.4209166549711
 51
270.000284858174
  0
LINE
  5
434
330
1A
100
AcDbEntity
  8
CENTER_L
  6
CENTER
 62
     1
 48
5.0
100
AcDbLine
 10
175.9132373895811
 20
65.18647602484392
 30
0.0
 11
175.9132373895811
 21
110.2472760248438
 31
0.0
  0
ARC
  5
435
330
1A
100
AcDbEntity
  8
SEIHIN
  6
CONTINUOUS
 62
     3
 48
16.0
100
AcDbCircle
 10
210.9976233877608
 20
96.33066118563483
 30
0.0
 40
6.500002478095645
100
AcDbArc
 50
110.0614934925781
 51
163.2643746186527
  0
LINE
  5
436
330
1A
100
AcDbEntity
  8
SEIHIN
  6
CONTINUOUS
 62
     3
 48
16.0
100
AcDbLine
 10
175.9132373895811
 20
94.99807602484393
 30
0.0
 11
200.4634373895811
 21
94.99807602484393
 31
0.0
  0
LINE
  5
437
330
1A
100
AcDbEntity
  8
SEIHIN
  6
CONTINUOUS
 62
     3
 48
16.0
100
AcDbLine
 10
175.9132373895811
 20
97.69807602484391
 30
0.0
 11
201.076137389581
 21
97.69817602484383
 31
0.0
  0
LINE
  5
438
330
1A
100
AcDbEntity
  8
SEIHIN
  6
CONTINUOUS
 62
     3
 48
16.0
100
AcDbLine
 10
172.9797373895813
 20
75.67928832754751
 30
0.0
 11
175.3193373895811
 21
69.82988832754756
 31
0.0
  0
LINE
  5
439
330
1A
100
AcDbEntity
  8
SEIHIN
  6
CONTINUOUS
 62
     3
 48
16.0
100
AcDbLine
 10
175.9132373895811
 20
97.69807602484391
 30
0.0
 11
150.750337389581
 21
97.69817602484383
 31
0.0
  0
LINE
  5
43A
330
1A
100
AcDbEntity
  8
SEIHIN
  6
CONTINUOUS
 62
     3
 48
16.0
100
AcDbLine
 10
175.9132373895811
 20
94.99807602484393
 30
0.0
 11
151.363037389581
 21
94.99817602484384
 31
0.0
  0
LINE
  5
43B
330
1A
100
AcDbEntity
  8
SEIHIN
  6
CONTINUOUS
 62
     3
 48
16.0
100
AcDbLine
 10
178.698237389581
 20
77.53567602484384
 30
0.0
 11
178.698237389581
 21
89.99817602484384
 31
0.0
  0
LINE
  5
43C
330
1A
100
AcDbEntity
  8
SEIHIN
  6
CONTINUOUS
 62
     3
 48
16.0
100
AcDbLine
 10
173.128237389581
 20
75.30787602484384
 30
0.0
 11
173.128237389581
 21
89.99817602484384
 31
0.0
  0
LINE
  5
43D
330
1A
100
AcDbEntity
  8
SEIHIN
  6
CONTINUOUS
 62
     3
 48
16.0
100
AcDbLine
 10
175.9132373895811
 20
93.99807602484392
 30
0.0
 11
170.9132373895811
 21
93.99817602484384
 31
0.0
  0
LINE
  5
43E
330
1A
100
AcDbEntity
  8
SEIHIN
  6
CONTINUOUS
 62
     3
 48
16.0
100
AcDbLine
 10
173.128237389581
 20
89.99817602484384
 30
0.0
 11
178.698237389581
 21
89.99817602484384
 31
0.0
  0
LINE
  5
43F
330
1A
100
AcDbEntity
  8
SEIHIN
  6
CONTINUOUS
 62
     3
 48
16.0
100
AcDbLine
 10
170.9132373895811
 20
93.99807602484392
 30
0.0
 11
173.128237389581
 21
89.99817602484384
 31
0.0
  0
LINE
  5
440
330
1A
100
AcDbEntity
  8
SEIHIN
  6
CONTINUOUS
 62
     3
 48
16.0
100
AcDbLine
 10
170.9132373895811
 20
93.99807602484392
 30
0.0
 11
170.9132373895811
 21
94.99807602484393
 31
0.0
  0
LINE
  5
441
330
1A
100
AcDbEntity
  8
SEIHIN
  6
CONTINUOUS
 62
     3
 48
16.0
100
AcDbLine
 10
180.913337389581
 20
93.99817602484384
 30
0.0
 11
178.698237389581
 21
89.99817602484384
 31
0.0
  0
LINE
  5
442
330
1A
100
AcDbEntity
  8
SEIHIN
  6
CONTINUOUS
 62
     3
 48
16.0
100
AcDbLine
 10
175.9132373895811
 20
93.99807602484392
 30
0.0
 11
180.913337389581
 21
93.99817602484384
 31
0.0
  0
LINE
  5
443
330
1A
100
AcDbEntity
  8
SEIHIN
  6
CONTINUOUS
 62
     3
 48
16.0
100
AcDbLine
 10
180.913337389581
 20
93.99817602484384
 30
0.0
 11
180.913337389581
 21
94.99817602484384
 31
0.0
  0
ARC
  5
444
330
1A
100
AcDbEntity
  8
SEIHIN
  6
CONTINUOUS
 62
     3
 48
16.0
100
AcDbCircle
 10
200.4634199694543
 20
99.49806307202884
 30
0.0
 40
4.499987047218606
100
AcDbArc
 50
270.0002218005818
 51
343.2658545438558
  0
LINE
  5
445
330
1A
100
AcDbEntity
  8
NOKITOI
  6
PHANTOM
 62
     8
 48
5.0
100
AcDbLine
 10
200.213237389581
 20
98.49807602484393
 30
0.0
 11
175.9132373895811
 21
98.49807602484393
 31
0.0
  0
LINE
  5
446
330
1A
100
AcDbEntity
  8
SEIHIN
  6
CONTINUOUS
 62
     3
 48
16.0
100
AcDbLine
 10
200.842037389581
 20
98.49807602484393
 30
0.0
 11
175.9132373895811
 21
98.49807602484393
 31
0.0
  0
LINE
  5
447
330
1A
100
AcDbEntity
  8
NOKITOI
  6
PHANTOM
 62
     8
 48
5.0
100
AcDbLine
 10
175.9132373895811
 20
99.69807602484394
 30
0.0
 11
195.4132373895811
 21
99.69807602484394
 31
0.0
  0
LINE
  5
448
330
1A
100
AcDbEntity
  8
NOKITOI
  6
PHANTOM
 62
     8
 48
5.0
100
AcDbLine
 10
175.9132373895811
 20
99.69807602484394
 30
0.0
 11
156.4132373895811
 21
99.69807602484394
 31
0.0
  0
LINE
  5
449
330
1A
100
AcDbEntity
  8
NOKITOI
  6
PHANTOM
 62
     8
 48
5.0
100
AcDbLine
 10
151.6132373895812
 20
98.49807602484393
 30
0.0
 11
175.9132373895811
 21
98.49807602484393
 31
0.0
  0
LINE
  5
44A
330
1A
100
AcDbEntity
  8
SEIHIN
  6
CONTINUOUS
 62
     3
 48
16.0
100
AcDbLine
 10
150.984437389581
 20
98.49817602484385
 30
0.0
 11
175.9132373895811
 21
98.49807602484393
 31
0.0
  0
ARC
  5
44B
330
1A
100
AcDbEntity
  8
NOKITOI
  6
PHANTOM
 62
     8
 48
5.0
100
AcDbCircle
 10
140.8289330284556
 20
96.33068419615165
 30
0.0
 40
12.19993877054614
100
AcDbArc
 50
16.02263637925393
 51
40.15603560521631
  0
LINE
  5
44C
330
1A
100
AcDbEntity
  8
NOKITOI
  6
PHANTOM
 62
     8
 48
5.0
100
AcDbLine
 10
155.213237389581
 20
99.69807602484394
 30
0.0
 11
155.213237389581
 21
104.1980760248438
 31
0.0
  0
LINE
  5
44D
330
1A
100
AcDbEntity
  8
NOKITOI
  6
PHANTOM
 62
     8
 48
5.0
100
AcDbLine
 10
156.4132373895811
 20
99.69807602484394
 30
0.0
 11
156.4132373895811
 21
105.3980760248438
 31
0.0
  0
LINE
  5
44E
330
1A
100
AcDbEntity
  8
NOKITOI
  6
PHANTOM
 62
     8
 48
5.0
100
AcDbLine
 10
155.213237389581
 20
99.69807602484394
 30
0.0
 11
152.554937389581
 21
99.69807602484394
 31
0.0
  0
ARC
  5
44F
330
1A
100
AcDbEntity
  8
SEIHIN
  6
CONTINUOUS
 62
     3
 48
16.0
100
AcDbCircle
 10
150.984438712036
 20
98.99817500484168
 30
0.0
 40
0.4999989799995632
100
AcDbArc
 50
194.7142483898061
 51
269.9998484575067
  0
LINE
  5
450
330
1A
100
AcDbEntity
  8
NOKITOI
  6
PHANTOM
 62
     8
 48
5.0
100
AcDbLine
 10
148.9911373895811
 20
105.3980760248438
 30
0.0
 11
156.4132373895811
 21
105.3980760248438
 31
0.0
  0
LINE
  5
451
330
1A
100
AcDbEntity
  8
NOKITOI
  6
PHANTOM
 62
     8
 48
5.0
100
AcDbLine
 10
150.153237389581
 20
104.1980760248438
 30
0.0
 11
155.213237389581
 21
104.1980760248438
 31
0.0
  0
LINE
  5
452
330
1A
100
AcDbEntity
  8
NOKITOI
  6
PHANTOM
 62
     8
 48
5.0
100
AcDbLine
 10
213.3132373895811
 20
131.4979760248437
 30
0.0
 11
208.3132373895811
 21
106.9980760248439
 31
0.0
  0
LINE
  5
453
330
1A
100
AcDbEntity
  8
SEIHIN
  6
CONTINUOUS
 62
     3
 48
16.0
100
AcDbLine
 10
212.9255373895809
 20
129.5981760248439
 30
0.0
 11
208.147337389581
 21
106.1852760248439
 31
0.0
  0
LINE
  5
454
330
1A
100
AcDbEntity
  8
SEIHIN
  6
CONTINUOUS
 62
     3
 48
16.0
100
AcDbLine
 10
208.8962373895812
 20
105.8542760248439
 30
0.0
 11
213.5787373895812
 21
128.7980760248439
 31
0.0
  0
LINE
  5
455
330
1A
100
AcDbEntity
  8
NOKITOI
  6
PHANTOM
 62
     8
 48
5.0
100
AcDbLine
 10
213.5148373895811
 20
138.4979760248437
 30
0.0
 11
207.2806373895811
 21
107.9505760248439
 31
0.0
  0
LINE
  5
456
330
1A
100
AcDbEntity
  8
NOKITOI
  6
PHANTOM
 62
     8
 48
5.0
100
AcDbLine
 10
202.8353373895811
 20
105.3979760248439
 30
0.0
 11
195.4132373895811
 21
105.3980760248438
 31
0.0
  0
LINE
  5
457
330
1A
100
AcDbEntity
  8
NOKITOI
  6
PHANTOM
 62
     8
 48
5.0
100
AcDbLine
 10
201.6732373895811
 20
104.1980760248438
 30
0.0
 11
196.6132373895812
 21
104.1980760248438
 31
0.0
  0
LINE
  5
458
330
1A
100
AcDbEntity
  8
NOKITOI
  6
PHANTOM
 62
     8
 48
5.0
100
AcDbLine
 10
196.6132373895812
 20
99.69807602484394
 30
0.0
 11
199.2715373895811
 21
99.69807602484394
 31
0.0
  0
LINE
  5
459
330
1A
100
AcDbEntity
  8
SEIHIN
  6
CONTINUOUS
 62
     3
 48
16.0
100
AcDbLine
 10
196.842037389581
 20
98.49807602484393
 30
0.0
 11
188.4311373895812
 21
98.49807602484393
 31
0.0
  0
LINE
  5
45A
330
1A
100
AcDbEntity
  8
NOKITOI
  6
PHANTOM
 62
     8
 48
5.0
100
AcDbLine
 10
196.6132373895812
 20
99.69807602484394
 30
0.0
 11
196.6132373895812
 21
104.1980760248438
 31
0.0
  0
LINE
  5
45B
330
1A
100
AcDbEntity
  8
NOKITOI
  6
PHANTOM
 62
     8
 48
5.0
100
AcDbLine
 10
195.4132373895811
 20
99.69797602484385
 30
0.0
 11
195.4132373895811
 21
105.3980760248438
 31
0.0
  0
ARC
  5
45C
330
1A
100
AcDbEntity
  8
NOKITOI
  6
PHANTOM
 62
     8
 48
5.0
100
AcDbCircle
 10
210.9975791765573
 20
96.33060001973332
 30
0.0
 40
12.19997945109404
100
AcDbArc
 50
107.7381834577211
 51
131.9928095737274
  0
ARC
  5
45D
330
1A
100
AcDbEntity
  8
SEIHIN
  6
CONTINUOUS
 62
     3
 48
16.0
100
AcDbCircle
 10
210.9976358588333
 20
96.33067438813734
 30
0.0
 40
10.00005974307162
100
AcDbArc
 50
108.5485400303348
 51
165.2833721150334
  0
ARC
  5
45E
330
1A
100
AcDbEntity
  8
NOKITOI
  6
PHANTOM
 62
     8
 48
5.0
100
AcDbCircle
 10
210.9975415024511
 20
96.33058034081464
 30
0.0
 40
10.99994632941526
100
AcDbArc
 50
104.1244483036074
 51
168.6362598432798
  0
ARC
  5
45F
330
1A
100
AcDbEntity
  8
SEIHIN
  6
CONTINUOUS
 62
     3
 48
16.0
100
AcDbCircle
 10
210.9975941813195
 20
96.33062955878784
 30
0.0
 40
9.200020637317884
100
AcDbArc
 50
107.5820174691518
 51
166.5784818329253
  0
ARC
  5
460
330
1A
100
AcDbEntity
  8
NOKITOI
  6
PHANTOM
 62
     8
 48
5.0
100
AcDbCircle
 10
210.9976143732519
 20
96.33072026570923
 30
0.0
 40
12.19997101530972
100
AcDbArc
 50
139.8443138052131
 51
163.9780719705774
  0
ARC
  5
461
330
1A
100
AcDbEntity
  8
SEIHIN
  6
CONTINUOUS
 62
     3
 48
16.0
100
AcDbCircle
 10
200.842036067126
 20
98.99807500484181
 30
0.0
 40
0.4999989799996439
100
AcDbArc
 50
270.0001515424867
 51
345.2857516101863
  0
ARC
  5
462
330
1A
100
AcDbEntity
  8
SEIHIN
  6
CONTINUOUS
 62
     3
 48
16.0
100
AcDbCircle
 10
207.2242482377005
 20
106.6632886209348
 30
0.0
 40
4.500067964502843
100
AcDbArc
 50
290.062003942498
 51
348.465652858411
  0
ARC
  5
463
330
1A
100
AcDbEntity
  8
SEIHIN
  6
CONTINUOUS
 62
     3
 48
16.0
100
AcDbCircle
 10
207.9164118979042
 20
106.0541476875853
 30
0.0
 40
1.000003337847921
100
AcDbArc
 50
287.5852492878878
 51
348.4705846895445
  0
ARC
  5
464
330
1A
100
AcDbEntity
  8
SEIHIN
  6
CONTINUOUS
 62
     3
 48
16.0
100
AcDbCircle
 10
207.6574461468325
 20
106.2852859261839
 30
0.0
 40
0.4999954100666085
100
AcDbArc
 50
288.5532213949857
 51
348.4617755835556
  0
ARC
  5
465
330
1A
100
AcDbEntity
  8
SEIHIN
  6
CONTINUOUS
 62
     3
 48
16.0
100
AcDbCircle
 10
214.0686483980242
 20
128.6981850150056
 30
0.0
 40
0.4999910099593997
100
AcDbArc
 50
90.00126149735825
 51
168.4755775196243
  0
ARC
  5
466
330
1A
100
AcDbEntity
  8
SEIHIN
  6
CONTINUOUS
 62
     3
 48
16.0
100
AcDbCircle
 10
213.4154483980243
 20
129.4981850150053
 30
0.0
 40
0.4999910099596626
100
AcDbArc
 50
90.00126149733871
 51
168.4755775196127
  0
LINE
  5
467
330
1A
100
AcDbEntity
  8
SEIHIN
  6
CONTINUOUS
 62
     3
 48
16.0
100
AcDbLine
 10
212.346437389581
 20
138.1474760248439
 30
0.0
 11
211.968837389581
 21
139.5569760248439
 31
0.0
  0
LINE
  5
468
330
1A
100
AcDbEntity
  8
SEIHIN
  6
CONTINUOUS
 62
     3
 48
16.0
100
AcDbLine
 10
58.41328738958118
 20
157.9982760248439
 30
0.0
 11
55.91328738958122
 21
157.9982760248439
 31
0.0
  0
ARC
  5
469
330
1A
100
AcDbEntity
  8
SEIHIN
  6
CONTINUOUS
 62
     3
 48
16.0
100
AcDbCircle
 10
58.41328738958113
 20
156.9983760248439
 30
0.0
 40
1.000000000000014
100
AcDbArc
 50
359.9999999999943
 51
89.99999999999429
  0
LINE
  5
46A
330
1A
100
AcDbEntity
  8
SEIHIN
  6
CONTINUOUS
 62
     3
 48
16.0
100
AcDbLine
 10
73.41328738958113
 20
157.9982760248439
 30
0.0
 11
75.91328738958113
 21
157.9982760248439
 31
0.0
  0
ARC
  5
46B
330
1A
100
AcDbEntity
  8
SEIHIN
  6
CONTINUOUS
 62
     3
 48
16.0
100
AcDbCircle
 10
73.41328738958118
 20
156.998276024844
 30
0.0
 40
0.9999999999999573
100
AcDbArc
 50
90.00000000000245
 51
180.0000000000024
  0
ARC
  5
46C
330
1A
100
AcDbEntity
  8
SEIHIN
  6
CONTINUOUS
 62
     3
 48
16.0
100
AcDbCircle
 10
147.5637421803219
 20
234.0862760247016
 30
0.0
 40
17.0753009590525
100
AcDbArc
 50
256.2788546782437
 51
283.7197306111506
  0
ARC
  5
46D
330
1A
100
AcDbEntity
  8
SEIHIN
  6
CONTINUOUS
 62
     3
 48
16.0
100
AcDbCircle
 10
147.5635373895812
 20
182.9101760242748
 30
0.0
 40
17.07525238521743
100
AcDbArc
 50
76.27952224061047
 51
103.7204777593895
  0
LINE
  5
46E
330
1A
100
AcDbEntity
  8
SEIHIN
  6
CONTINUOUS
 62
     3
 48
16.0
100
AcDbLine
 10
170.256637389581
 20
210.4981760248437
 30
0.0
 11
139.119437389581
 21
210.4981760248437
 31
0.0
  0
LINE
  5
46F
330
1A
100
AcDbEntity
  8
SEIHIN
  6
CONTINUOUS
 62
     3
 48
16.0
100
AcDbLine
 10
170.256637389581
 20
206.4981760248437
 30
0.0
 11
139.119437389581
 21
206.4982760248438
 31
0.0
  0
LINE
  5
470
330
1A
100
AcDbEntity
  8
SEIHIN
  6
CONTINUOUS
 62
     3
 48
16.0
100
AcDbLine
 10
139.117619044829
 20
214.998276030419
 30
0.0
 11
213.9075373895812
 21
214.9980760248439
 31
0.0
  0
LINE
  5
471
330
1A
100
AcDbEntity
  8
SEIHIN
  6
CONTINUOUS
 62
     3
 48
16.0
100
AcDbLine
 10
139.1176198372757
 20
201.9981760248438
 30
0.0
 11
213.9075373895812
 21
201.9981760248438
 31
0.0
  0
LINE
  5
472
330
1A
100
AcDbEntity
  8
SEIHIN
  6
CONTINUOUS
 62
     3
 48
16.0
100
AcDbLine
 10
133.413337389581
 20
157.9981760248438
 30
0.0
 11
132.6133373895812
 21
157.9981760248438
 31
0.0
  0
DIMENSION
  5
473
330
1A
100
AcDbEntity
  8
SUNPOU
  6
CONTINUOUS
100
AcDbDimension
  2
*D6
 10
109.0089782436786
 20
198.4982760248438
 30
0.0
 11
106.5089782436786
 21
208.4982260248438
 31
0.0
 70
    32
  3
STANDARD
100
AcDbAlignedDimension
 13
132.6134373895811
 23
218.4981760248438
 33
0.0
 14
132.6134373895811
 24
198.4982760248438
 34
0.0
 50
90.0
100
AcDbRotatedDimension
1001
ACAD
1000
DSTYLE
1002
{
1070
   140
1040
3.0
1070
    74
1070
     0
1070
   172
1070
     1
1070
    73
1070
     0
1070
   272
1070
     2
1070
    77
1070
     3
1070
   173
1070
     1
1070
   147
1040
1.0
1070
    42
1040
3.0
1070
    44
1040
1.5
1070
    43
1040
7.0
1070
   271
1070
     0
1070
   178
1070
     4
1070
   177
1070
     4
1070
   176
1070
     4
1070
   141
1040
150.0
1070
     7
1000
_OPEN
1070
     6
1000
_OPEN
1070
    41
1040
3.0
1002
}
  0
ARC
  5
474
330
1A
100
AcDbEntity
  8
SEIHIN
  6
CONTINUOUS
 62
     3
 48
16.0
100
AcDbCircle
 10
138.8710373906654
 20
212.74812050361
 30
0.0
 40
2.263625942374752
100
AcDbArc
 50
83.69993466723116
 51
276.3026118684512
  0
LINE
  5
475
330
1A
100
AcDbEntity
  8
SEIHIN
  6
CONTINUOUS
 62
     3
 48
16.0
100
AcDbLine
 10
133.4135373895811
 20
198.4982760248438
 30
0.0
 11
133.4135373895811
 21
218.4981760248438
 31
0.0
  0
LINE
  5
476
330
1A
100
AcDbEntity
  8
SEIHIN
  6
CONTINUOUS
 62
     3
 48
16.0
100
AcDbLine
 10
132.6134373895811
 20
198.4982760248438
 30
0.0
 11
132.6134373895811
 21
218.4981760248438
 31
0.0
  0
ARC
  5
477
330
1A
100
AcDbEntity
  8
SEIHIN
100
AcDbCircle
 10
144.450906656055
 20
212.7482817905374
 30
0.0
 40
2.437469267203474
100
AcDbArc
 50
112.6193833216257
 51
247.3806166783735
  0
ARC
  5
478
330
1A
100
AcDbEntity
  8
SEIHIN
  6
CONTINUOUS
 62
     3
 48
16.0
100
AcDbCircle
 10
138.8709373894598
 20
204.2483260248438
 30
0.0
 40
2.263631430370302
100
AcDbArc
 50
83.69740344296623
 51
276.3025965570337
  0
ARC
  5
479
330
1A
100
AcDbEntity
  8
SEIHIN
100
AcDbCircle
 10
144.4509066560549
 20
204.248196513164
 30
0.0
 40
2.437469267203474
100
AcDbArc
 50
112.6193833216257
 51
247.3806166783735
  0
LINE
  5
47A
330
1A
100
AcDbEntity
  8
SEIHIN
  6
CONTINUOUS
 62
     3
 48
16.0
100
AcDbLine
 10
143.513437389581
 20
199.4982760248438
 30
0.0
 11
133.4135373895811
 21
199.4982760248438
 31
0.0
  0
LINE
  5
47B
330
1A
100
AcDbEntity
  8
SEIHIN
  6
CONTINUOUS
 62
     3
 48
16.0
100
AcDbLine
 10
133.4135373895811
 20
201.9982760248438
 30
0.0
 11
132.6135373895811
 21
201.9982760248438
 31
0.0
  0
LINE
  5
47C
330
1A
100
AcDbEntity
  8
SEIHIN
  6
CONTINUOUS
 62
     3
 48
16.0
100
AcDbLine
 10
133.4135373895811
 20
198.4982760248438
 30
0.0
 11
132.6135373895811
 21
198.4982760248438
 31
0.0
  0
LINE
  5
47D
330
1A
100
AcDbEntity
  8
SEIHIN
  6
CONTINUOUS
 62
     3
 48
16.0
100
AcDbLine
 10
138.9012373895811
 20
199.4981760248437
 30
0.0
 11
138.9012373895811
 21
201.9981760248438
 31
0.0
  0
LINE
  5
47E
330
1A
100
AcDbEntity
  8
SEIHIN
  6
CONTINUOUS
 62
     3
 48
16.0
100
AcDbLine
 10
143.513437389581
 20
199.4981760248437
 30
0.0
 11
143.513437389581
 21
201.9981760248438
 31
0.0
  0
LINE
  5
47F
330
1A
100
AcDbEntity
  8
SEIHIN
  6
CONTINUOUS
 62
     3
 48
16.0
100
AcDbLine
 10
138.9012373895811
 20
206.4981760248437
 30
0.0
 11
138.9012373895811
 21
210.4983175798211
 31
0.0
  0
LINE
  5
480
330
1A
100
AcDbEntity
  8
SEIHIN
  6
CONTINUOUS
 62
     3
 48
16.0
100
AcDbLine
 10
143.513437389581
 20
206.4981760248437
 30
0.0
 11
143.513437389581
 21
210.4983022788577
 31
0.0
  0
LINE
  5
481
330
1A
100
AcDbEntity
  8
SEIHIN
  6
CONTINUOUS
 62
     3
 48
16.0
100
AcDbLine
 10
143.513437389581
 20
217.4982760248438
 30
0.0
 11
133.413637389581
 21
217.4981760248439
 31
0.0
  0
LINE
  5
482
330
1A
100
AcDbEntity
  8
SEIHIN
  6
CONTINUOUS
 62
     3
 48
16.0
100
AcDbLine
 10
133.4135373895811
 20
218.4981760248438
 30
0.0
 11
132.6135373895811
 21
218.4981760248438
 31
0.0
  0
LINE
  5
483
330
1A
100
AcDbEntity
  8
SEIHIN
  6
CONTINUOUS
 62
     3
 48
16.0
100
AcDbLine
 10
133.413637389581
 20
214.9981760248437
 30
0.0
 11
132.6136373895811
 21
214.9981760248437
 31
0.0
  0
LINE
  5
484
330
1A
100
AcDbEntity
  8
SEIHIN
  6
CONTINUOUS
 62
     3
 48
16.0
100
AcDbLine
 10
138.9012373895811
 20
214.9982734415342
 30
0.0
 11
138.9012373895811
 21
217.4982303585931
 31
0.0
  0
LINE
  5
485
330
1A
100
AcDbEntity
  8
SEIHIN
  6
CONTINUOUS
 62
     3
 48
16.0
100
AcDbLine
 10
143.513437389581
 20
214.998261302217
 30
0.0
 11
143.513437389581
 21
217.4982760248439
 31
0.0
  0
ARC
  5
486
330
1A
100
AcDbEntity
  8
SEIHIN
  6
CONTINUOUS
 62
     3
 48
16.0
100
AcDbCircle
 10
175.9134373895811
 20
208.4981760248437
 30
0.0
 40
6.0
100
AcDbArc
 50
0.0
 51
180.0
  0
LINE
  5
487
330
1A
100
AcDbEntity
  8
SEIHIN
  6
CONTINUOUS
 62
     3
 48
16.0
100
AcDbLine
 10
151.6134373895811
 20
217.4981760248439
 30
0.0
 11
200.2135373895811
 21
217.4981760248439
 31
0.0
  0
LINE
  5
488
330
1A
100
AcDbEntity
  8
SEIHIN
  6
CONTINUOUS
 62
     3
 48
16.0
100
AcDbLine
 10
151.6134373895811
 20
199.4981760248437
 30
0.0
 11
200.2135373895811
 21
199.4981760248437
 31
0.0
  0
ARC
  5
489
330
1A
100
AcDbEntity
  8
SEIHIN
  6
CONTINUOUS
 62
     3
 48
16.0
100
AcDbCircle
 10
175.9134373895811
 20
208.4981760248437
 30
0.0
 40
6.0
100
AcDbArc
 50
180.0
 51
0.0
  0
LINE
  5
48A
330
1A
100
AcDbEntity
  8
CENTER_L
  6
CENTER
 62
     1
 48
5.0
100
AcDbLine
 10
175.9134373895811
 20
224.4981760248438
 30
0.0
 11
175.9134373895811
 21
192.4981760248437
 31
0.0
  0
ARC
  5
48B
330
1A
100
AcDbEntity
  8
SEIHIN
100
AcDbCircle
 10
154.6133842521139
 20
212.7482576950654
 30
0.0
 40
3.749946862832026
100
AcDbArc
 50
143.1298317181791
 51
216.8701682818208
  0
ARC
  5
48C
330
1A
100
AcDbEntity
  8
SEIHIN
100
AcDbCircle
 10
154.6133842521139
 20
204.248172417692
 30
0.0
 40
3.749946862832026
100
AcDbArc
 50
143.1298317181791
 51
216.8701682818208
  0
LINE
  5
48D
330
1A
100
AcDbEntity
  8
SEIHIN
  6
CONTINUOUS
 62
     3
 48
16.0
100
AcDbLine
 10
151.6134373895811
 20
199.4981760248437
 30
0.0
 11
151.6134373895811
 21
201.9981760248437
 31
0.0
  0
LINE
  5
48E
330
1A
100
AcDbEntity
  8
SEIHIN
  6
CONTINUOUS
 62
     3
 48
16.0
100
AcDbLine
 10
151.6134373895811
 20
206.4981760248437
 30
0.0
 11
151.6134373895811
 21
210.4982754071255
 31
0.0
  0
ARC
  5
48F
330
1A
100
AcDbEntity
  8
SEIHIN
  6
CONTINUOUS
 62
     3
 48
16.0
100
AcDbCircle
 10
175.9134373895811
 20
208.4981760248437
 30
0.0
 40
4.5
100
AcDbArc
 50
0.0
 51
180.0
  0
ARC
  5
490
330
1A
100
AcDbEntity
  8
SEIHIN
  6
CONTINUOUS
 62
     3
 48
16.0
100
AcDbCircle
 10
175.9134373895811
 20
208.4981760248437
 30
0.0
 40
4.5
100
AcDbArc
 50
180.0
 51
0.0
  0
LINE
  5
491
330
1A
100
AcDbEntity
  8
SEIHIN
  6
CONTINUOUS
 62
     3
 48
16.0
100
AcDbLine
 10
177.913637389581
 20
210.4981760248437
 30
0.0
 11
177.913637389581
 21
206.4981760248437
 31
0.0
  0
LINE
  5
492
330
1A
100
AcDbEntity
  8
SEIHIN
  6
CONTINUOUS
 62
     3
 48
16.0
100
AcDbLine
 10
173.9134373895812
 20
210.4981760248437
 30
0.0
 11
173.9134373895812
 21
206.4981760248437
 31
0.0
  0
LINE
  5
493
330
1A
100
AcDbEntity
  8
SEIHIN
  6
CONTINUOUS
 62
     3
 48
16.0
100
AcDbLine
 10
173.9134373895812
 20
206.4981760248437
 30
0.0
 11
177.913637389581
 21
206.4981760248437
 31
0.0
  0
LINE
  5
494
330
1A
100
AcDbEntity
  8
SEIHIN
  6
CONTINUOUS
 62
     3
 48
16.0
100
AcDbLine
 10
177.913637389581
 20
210.4981760248437
 30
0.0
 11
173.9134373895812
 21
210.4981760248437
 31
0.0
  0
LINE
  5
495
330
1A
100
AcDbEntity
  8
SEIHIN
  6
CONTINUOUS
 62
     3
 48
16.0
100
AcDbLine
 10
151.6134373895811
 20
214.9982399830054
 30
0.0
 11
151.6134373895811
 21
217.4981760248439
 31
0.0
  0
ARC
  5
496
330
1A
100
AcDbEntity
  8
SEIHIN
  6
CONTINUOUS
 62
     3
 48
16.0
100
AcDbCircle
 10
213.7136373895811
 20
212.9980760248439
 30
0.0
 40
2.0
100
AcDbArc
 50
90.0
 51
180.0
  0
ARC
  5
497
330
1A
100
AcDbEntity
  8
SEIHIN
100
AcDbCircle
 10
207.3761820297134
 20
212.7480994428458
 30
0.0
 40
2.437502582848008
100
AcDbArc
 50
292.6192687952511
 51
67.37945795105467
  0
ARC
  5
498
330
1A
100
AcDbEntity
  8
SEIHIN
100
AcDbCircle
 10
197.213687774364
 20
212.7481464548047
 30
0.0
 40
3.749996836930897
100
AcDbArc
 50
323.1294496248567
 51
36.86927713559971
  0
LINE
  5
499
330
1A
100
AcDbEntity
  8
SEIHIN
  6
CONTINUOUS
 62
     3
 48
16.0
100
AcDbLine
 10
181.570437389581
 20
210.4981760248437
 30
0.0
 11
211.7136373895811
 21
210.4980760248439
 31
0.0
  0
LINE
  5
49A
330
1A
100
AcDbEntity
  8
SEIHIN
  6
CONTINUOUS
 62
     3
 48
16.0
100
AcDbLine
 10
181.570437389581
 20
206.4981760248437
 30
0.0
 11
211.7136373895811
 21
206.4981760248437
 31
0.0
  0
ARC
  5
49B
330
1A
100
AcDbEntity
  8
SEIHIN
  6
CONTINUOUS
 62
     3
 48
16.0
100
AcDbCircle
 10
213.7136373895811
 20
203.9981760248438
 30
0.0
 40
2.0
100
AcDbArc
 50
180.0
 51
270.0
  0
ARC
  5
49C
330
1A
100
AcDbEntity
  8
SEIHIN
100
AcDbCircle
 10
207.3760875859797
 20
204.248163400671
 30
0.0
 40
2.437502582848008
100
AcDbArc
 50
292.6192687952511
 51
67.37945795105467
  0
ARC
  5
49D
330
1A
100
AcDbEntity
  8
SEIHIN
100
AcDbCircle
 10
197.2135933306303
 20
204.24821041263
 30
0.0
 40
3.749996836930897
100
AcDbArc
 50
323.1294496248567
 51
36.86927713559971
  0
ARC
  5
49E
330
1A
100
AcDbEntity
  8
SEIHIN
  6
CONTINUOUS
 62
     3
 48
16.0
100
AcDbCircle
 10
204.2635373895811
 20
182.9100760248439
 30
0.0
 40
17.07534953112208
100
AcDbArc
 50
76.27960182693543
 51
103.7203981730645
  0
LINE
  5
49F
330
1A
100
AcDbEntity
  8
SEIHIN
  6
CONTINUOUS
 62
     3
 48
16.0
100
AcDbLine
 10
200.2135373895811
 20
199.4981760248437
 30
0.0
 11
200.2135651673589
 21
201.9981760248438
 31
0.0
  0
LINE
  5
4A0
330
1A
100
AcDbEntity
  8
SEIHIN
  6
CONTINUOUS
 62
     3
 48
16.0
100
AcDbLine
 10
208.313537389581
 20
199.4981760248437
 30
0.0
 11
208.3135651676674
 21
201.9981760248437
 31
0.0
  0
LINE
  5
4A1
330
1A
100
AcDbEntity
  8
SEIHIN
  6
CONTINUOUS
 62
     3
 48
16.0
100
AcDbLine
 10
212.925837389581
 20
199.4981760248437
 30
0.0
 11
212.925837389581
 21
202.1598760248437
 31
0.0
  0
LINE
  5
4A2
330
1A
100
AcDbEntity
  8
SEIHIN
  6
CONTINUOUS
 62
     3
 48
16.0
100
AcDbLine
 10
200.2136151673588
 20
206.4981760248437
 30
0.0
 11
200.213659611116
 21
210.4981141759949
 31
0.0
  0
LINE
  5
4A3
330
1A
100
AcDbEntity
  8
SEIHIN
  6
CONTINUOUS
 62
     3
 48
16.0
100
AcDbLine
 10
208.3136151682231
 20
206.4981760248437
 30
0.0
 11
208.3136596121756
 21
210.4980873042626
 31
0.0
  0
LINE
  5
4A4
330
1A
100
AcDbEntity
  8
SEIHIN
  6
CONTINUOUS
 62
     3
 48
16.0
100
AcDbLine
 10
211.7136373895811
 20
203.9981760248438
 30
0.0
 11
211.7136373895811
 21
212.9980760248439
 31
0.0
  0
ARC
  5
4A5
330
1A
100
AcDbEntity
  8
SEIHIN
  6
CONTINUOUS
 62
     3
 48
16.0
100
AcDbCircle
 10
204.2635373895811
 20
234.0862760248436
 30
0.0
 40
17.07534953112204
100
AcDbArc
 50
256.2796018269354
 51
283.7203981730645
  0
LINE
  5
4A6
330
1A
100
AcDbEntity
  8
SEIHIN
  6
CONTINUOUS
 62
     3
 48
16.0
100
AcDbLine
 10
200.2137096110925
 20
214.9981120670184
 30
0.0
 11
200.2137373895808
 21
217.4981760248439
 31
0.0
  0
LINE
  5
4A7
330
1A
100
AcDbEntity
  8
SEIHIN
  6
CONTINUOUS
 62
     3
 48
16.0
100
AcDbLine
 10
208.3137096127695
 20
214.9980907478066
 30
0.0
 11
208.3137373918035
 21
217.4981760228637
 31
0.0
  0
LINE
  5
4A8
330
1A
100
AcDbEntity
  8
SEIHIN
  6
CONTINUOUS
 62
     3
 48
16.0
100
AcDbLine
 10
212.925837389581
 20
217.4981760248439
 30
0.0
 11
212.925837389581
 21
214.8363760248439
 31
0.0
  0
TEXT
  5
4A9
330
1A
100
AcDbEntity
  8
SUNPOU
  6
CONTINUOUS
 62
     4
100
AcDbText
 10
362.7785611090081
 20
144.261495710646
 30
0.0
 40
3.0
  1
4
100
AcDbText
  0
LINE
  5
4AA
330
1A
100
AcDbEntity
  8
SUNPOU
  6
CONTINUOUS
 62
     4
100
AcDbLine
 10
360.5619691580654
 20
147.314171043769
 30
0.0
 11
360.5619691580654
 21
143.314171043769
 31
0.0
  0
DIMENSION
  5
4AB
330
1A
100
AcDbEntity
  8
SUNPOU
  6
CONTINUOUS
 62
     4
100
AcDbDimension
  2
*D7
 10
334.7866840182031
 20
133.6111636634888
 30
0.0
 11
340.8214130445139
 21
125.2546066225179
 31
0.0
 70
    33
  3
STANDARD
100
AcDbAlignedDimension
 13
298.3254185665594
 23
125.8137074665284
 33
0.0
 14
300.6649185665594
 24
119.9642074665283
 34
0.0
1001
ACAD
1000
DSTYLE
1002
{
1070
   140
1040
3.0
1070
    74
1070
     0
1070
   172
1070
     1
1070
    73
1070
     0
1070
   272
1070
     2
1070
    77
1070
     3
1070
   173
1070
     1
1070
   147
1040
1.0
1070
    42
1040
3.0
1070
    44
1040
1.5
1070
    43
1040
7.0
1070
   271
1070
     1
1070
   178
1070
     4
1070
   177
1070
     4
1070
   176
1070
     4
1070
   141
1040
150.0
1070
     7
1000
_OPEN
1070
     6
1000
_OPEN
1070
    41
1040
3.0
1002
}
  0
LINE
  5
4AC
330
1A
100
AcDbEntity
  8
SUNPOU
  6
CONTINUOUS
 62
     4
100
AcDbLine
 10
360.5619691580654
 20
147.3141710437691
 30
0.0
 11
350.5618685038125
 21
143.314171043769
 31
0.0
  0
LINE
  5
4AD
330
1A
100
AcDbEntity
  8
NOKITOI
  6
PHANTOM
 62
     8
 48
5.0
100
AcDbLine
 10
217.213237389581
 20
137.2979760248438
 30
0.0
 11
217.213237389581
 21
132.6979760248439
 31
0.0
  0
LINE
  5
4AE
330
1A
100
AcDbEntity
  8
NOKITOI
  6
PHANTOM
 62
     8
 48
5.0
100
AcDbLine
 10
218.4132373895812
 20
131.4979760248437
 30
0.0
 11
218.4132373895812
 21
138.4979760248437
 31
0.0
  0
LINE
  5
4AF
330
1A
100
AcDbEntity
  8
SEIHIN
  6
CONTINUOUS
 62
     3
 48
16.0
100
AcDbLine
 10
219.213137389581
 20
130.1980760248438
 30
0.0
 11
219.213137389581
 21
139.1522760248439
 31
0.0
  0
LINE
  5
4B0
330
1A
100
AcDbEntity
  8
SEIHIN
  6
CONTINUOUS
 62
     3
 48
16.0
100
AcDbLine
 10
218.4132373895812
 20
130.4981760248438
 30
0.0
 11
218.4132373895812
 21
139.1522760248439
 31
0.0
  0
ARC
  5
4B1
330
1A
100
AcDbEntity
  8
SEIHIN
  6
CONTINUOUS
 62
     3
 48
16.0
100
AcDbCircle
 10
217.913237389581
 20
130.4981760248439
 30
0.0
 40
0.5000000000000853
100
AcDbArc
 50
269.9999999999902
 51
359.9999999999902
  0
ARC
  5
4B2
330
1A
100
AcDbEntity
  8
SEIHIN
  6
CONTINUOUS
 62
     3
 48
16.0
100
AcDbCircle
 10
218.213137389581
 20
130.1980760248439
 30
0.0
 40
0.9999999999999715
100
AcDbArc
 50
269.9999999999983
 51
359.9999999999983
  0
LINE
  5
4B3
330
1A
100
AcDbEntity
  8
NOKITOI
  6
PHANTOM
 62
     8
 48
5.0
100
AcDbLine
 10
214.496937389581
 20
137.2979760248438
 30
0.0
 11
217.213237389581
 21
137.2979760248438
 31
0.0
  0
ARC
  5
4B4
330
1A
100
AcDbEntity
  8
SEIHIN
  6
CONTINUOUS
 62
     3
 48
16.0
100
AcDbCircle
 10
217.4132040306939
 20
139.1523016230145
 30
0.0
 40
1.000033359214887
100
AcDbArc
 50
359.9985333817891
 51
104.9963795636845
  0
ARC
  5
4B5
330
1A
100
AcDbEntity
  8
SEIHIN
  6
CONTINUOUS
 62
     3
 48
16.0
100
AcDbCircle
 10
217.4131678759037
 20
139.1523293640684
 30
0.0
 40
1.799969514467608
100
AcDbArc
 50
359.998302130993
 51
104.9988167870791
  0
LINE
  5
4B6
330
1A
100
AcDbEntity
  8
SEIHIN
  6
CONTINUOUS
 62
     3
 48
16.0
100
AcDbLine
 10
300.6649185665594
 20
119.9642074665283
 30
0.0
 11
313.4225185665596
 21
128.4595074665283
 31
0.0
  0
LINE
  5
4B7
330
1A
100
AcDbEntity
  8
SEIHIN
  6
CONTINUOUS
 62
     3
 48
16.0
100
AcDbLine
 10
298.3254185665594
 20
125.8138074665284
 30
0.0
 11
313.4225185665596
 21
128.4595074665283
 31
0.0
  0
LINE
  5
4B8
330
1A
100
AcDbEntity
  8
SEIHIN
  6
CONTINUOUS
 62
     3
 48
16.0
100
AcDbLine
 10
313.4225185665596
 20
128.4595074665283
 30
0.0
 11
298.6967185665594
 21
124.8853074665284
 31
0.0
  0
LINE
  5
4B9
330
1A
100
AcDbEntity
  8
SEIHIN
  6
CONTINUOUS
 62
     3
 48
16.0
100
AcDbLine
 10
313.4225185665596
 20
128.4595074665283
 30
0.0
 11
300.2936185665594
 21
120.8927074665284
 31
0.0
  0
LINE
  5
4BA
330
1A
100
AcDbEntity
  8
SEIHIN
  6
CONTINUOUS
 62
     3
 48
16.0
100
AcDbLine
 10
298.3260185665593
 20
125.8123074665283
 30
0.0
 11
300.6655185665593
 21
119.9627074665283
 31
0.0
  0
LINE
  5
4BB
330
1A
100
AcDbEntity
  8
SUNPOU
  6
CONTINUOUS
 62
     4
100
AcDbLine
 10
360.5619691580654
 20
143.314171043769
 30
0.0
 11
350.5618685038125
 21
143.314171043769
 31
0.0
  0
TEXT
  5
4BC
330
1A
100
AcDbEntity
  8
SUNPOU
  6
CONTINUOUS
 62
     4
100
AcDbText
 10
355.0716901293042
 20
138.1876532885501
 30
0.0
 40
3.0
  1
10
100
AcDbText
  0
DIMENSION
  5
4BD
330
1A
100
AcDbEntity
  8
SUNPOU
  6
CONTINUOUS
 62
     4
100
AcDbDimension
  2
*D8
 10
344.6155049885356
 20
206.1479009915717
 30
0.0
 11
342.1155049885356
 21
196.1479009915717
 31
0.0
 70
    32
  3
STANDARD
100
AcDbAlignedDimension
 13
298.4225185665593
 23
210.8479009915716
 33
0.0
 14
298.4225185665593
 24
206.1479009915717
 34
0.0
 50
90.0
100
AcDbRotatedDimension
1001
ACAD
1000
DSTYLE
1002
{
1070
   140
1040
3.0
1070
    74
1070
     0
1070
   172
1070
     1
1070
    73
1070
     0
1070
   272
1070
     2
1070
    77
1070
     3
1070
   173
1070
     1
1070
   147
1040
1.0
1070
    42
1040
3.0
1070
    44
1040
1.5
1070
    43
1040
7.0
1070
   271
1070
     1
1070
   178
1070
     4
1070
   177
1070
     4
1070
   176
1070
     4
1070
   141
1040
150.0
1070
     7
1000
_OPEN
1070
     6
1000
_OPEN
1070
    41
1040
3.0
1002
}
  0
LINE
  5
4BE
330
1A
100
AcDbEntity
  8
SEIHIN
  6
CONTINUOUS
 62
     3
 48
16.0
100
AcDbLine
 10
219.213637389581
 20
206.1480924377344
 30
0.0
 11
298.4225185665593
 21
206.1479009915717
 31
0.0
  0
LINE
  5
4BF
330
1A
100
AcDbEntity
  8
SEIHIN
  6
CONTINUOUS
 62
     3
 48
16.0
100
AcDbLine
 10
219.213637389581
 20
210.8480924377344
 30
0.0
 11
298.4225185665593
 21
210.8479009915716
 31
0.0
  0
LINE
  5
4C0
330
1A
100
AcDbEntity
  8
SEIHIN
  6
CONTINUOUS
 62
     3
 48
16.0
100
AcDbLine
 10
219.213637389581
 20
218.4980760248439
 30
0.0
 11
219.213637389581
 21
208.4981760248437
 31
0.0
  0
LINE
  5
4C1
330
1A
100
AcDbEntity
  8
SEIHIN
  6
CONTINUOUS
 62
     3
 48
16.0
100
AcDbLine
 10
219.213637389581
 20
198.4980760248439
 30
0.0
 11
219.213637389581
 21
208.4980760248439
 31
0.0
  0
LINE
  5
4C2
330
1A
100
AcDbEntity
  8
SEIHIN
  6
CONTINUOUS
 62
     3
 48
16.0
100
AcDbLine
 10
218.4135373895811
 20
198.4980760248439
 30
0.0
 11
219.2134373895811
 21
198.4980760248439
 31
0.0
  0
LINE
  5
4C3
330
1A
100
AcDbEntity
  8
SEIHIN
  6
CONTINUOUS
 62
     3
 48
16.0
100
AcDbLine
 10
218.4135373895811
 20
198.4980760248439
 30
0.0
 11
218.4135373895811
 21
201.9981760248438
 31
0.0
  0
LINE
  5
4C4
330
1A
100
AcDbEntity
  8
SEIHIN
  6
CONTINUOUS
 62
     3
 48
16.0
100
AcDbLine
 10
218.4135373895811
 20
218.4980760248439
 30
0.0
 11
219.2134373895811
 21
218.4980760248439
 31
0.0
  0
LINE
  5
4C5
330
1A
100
AcDbEntity
  8
SEIHIN
  6
CONTINUOUS
 62
     3
 48
16.0
100
AcDbLine
 10
218.4135373895811
 20
218.4980760248439
 30
0.0
 11
218.4135373895811
 21
214.9980760248439
 31
0.0
  0
LINE
  5
4C6
330
1A
100
AcDbEntity
  8
SEIHIN
  6
CONTINUOUS
 62
     3
 48
16.0
100
AcDbLine
 10
298.4225185665593
 20
210.8480009915715
 30
0.0
 11
313.4225185665596
 21
208.4980009915717
 31
0.0
  0
LINE
  5
4C7
330
1A
100
AcDbEntity
  8
SEIHIN
  6
CONTINUOUS
 62
     3
 48
16.0
100
AcDbLine
 10
298.4225185665593
 20
206.1478009915715
 30
0.0
 11
313.4225185665596
 21
208.4979009915715
 31
0.0
  0
LWPOLYLINE
  5
779
330
1A
100
AcDbEntity
  8
ZUWAKU
100
AcDbPolyline
 90
        4
 70
     1
 43
0.0
 10
0.3999995635609821
 20
275.3999997025315
 10
0.3999995635609821
 20
0.399999702531602
 10
398.3999995635609
 20
0.399999702531602
 10
398.3999995635609
 20
275.3999997025315
  0
LWPOLYLINE
  5
77A
330
1A
100
AcDbEntity
  8
ZUWAKU
100
AcDbPolyline
 90
        4
 70
     1
 43
0.0
 10
0.1999995635609935
 20
275.5999997025316
 10
0.1999995635609935
 20
0.1999997025316134
 10
398.599999563561
 20
0.1999997025316018
 10
398.599999563561
 20
275.5999997025316
  0
LWPOLYLINE
  5
77B
330
1A
100
AcDbEntity
  8
ZUWAKU
100
AcDbPolyline
 90
        4
 70
     1
 43
0.0
 10
-0.0000004364389952
 20
275.7999997025315
 10
-0.0000004364389952
 20
-0.0000002974684321
 10
398.799999563561
 20
-0.0000002974683984
 10
398.799999563561
 20
275.7999997025316
  0
LWPOLYLINE
  5
77C
330
1A
100
AcDbEntity
  8
ZUWAKU
100
AcDbPolyline
 90
        4
 70
     1
 43
0.0
 10
0.2999995635609593
 20
275.4999997025316
 10
0.2999995635609593
 20
0.2999997025315792
 10
398.4999995635611
 20
0.2999997025316023
 10
398.499999563561
 20
275.4999997025316
  0
LWPOLYLINE
  5
77D
330
1A
100
AcDbEntity
  8
ZUWAKU
100
AcDbPolyline
 90
        4
 70
     1
 43
0.0
 10
0.0999995635609707
 20
275.6999997025316
 10
0.0999995635609707
 20
0.0999997025315906
 10
398.6999995635609
 20
0.0999997025316022
 10
398.699999563561
 20
275.6999997025316
  0
LINE
  5
77E
330
1A
100
AcDbEntity
  8
ZUWAKU
100
AcDbLine
 10
-0.0000004364389952
 20
14.99999970253156
 30
0.0
 11
398.6999995635609
 21
14.99999970253156
 31
0.0
  0
LINE
  5
77F
330
1A
100
AcDbEntity
  8
ZUWAKU
100
AcDbLine
 10
-0.0000004364389952
 20
15.09999970253157
 30
0.0
 11
398.6999995635609
 21
15.09999970253157
 31
0.0
  0
LINE
  5
780
330
1A
100
AcDbEntity
  8
ZUWAKU
100
AcDbLine
 10
-0.0000004364389952
 20
15.19999970253157
 30
0.0
 11
398.6999995635609
 21
15.19999970253157
 31
0.0
  0
LINE
  5
781
330
1A
100
AcDbEntity
  8
ZUWAKU
100
AcDbLine
 10
-0.0000004364389952
 20
15.29999970253157
 30
0.0
 11
398.6999995635609
 21
15.29999970253157
 31
0.0
  0
LINE
  5
782
330
1A
100
AcDbEntity
  8
ZUWAKU
100
AcDbLine
 10
-0.0000004364389952
 20
15.39999970253157
 30
0.0
 11
398.6999995635609
 21
15.39999970253157
 31
0.0
  0
LINE
  5
783
330
1A
100
AcDbEntity
  8
ZUWAKU
100
AcDbLine
 10
104.323300208595
 20
7.699999702531584
 30
0.0
 11
223.7121815490567
 21
7.699999702531584
 31
0.0
  0
LINE
  5
784
330
1A
100
AcDbEntity
  8
ZUWAKU
100
AcDbLine
 10
104.323300208595
 20
7.799999702531584
 30
0.0
 11
223.7121815490567
 21
7.799999702531588
 31
0.0
  0
LINE
  5
785
330
1A
100
AcDbEntity
  8
ZUWAKU
100
AcDbLine
 10
104.323300208595
 20
7.599999702531587
 30
0.0
 11
223.7121815490567
 21
7.599999702531583
 31
0.0
  0
CIRCLE
  5
786
330
1A
100
AcDbEntity
  8
ZUWAKU
100
AcDbCircle
 10
12.99610564095155
 20
7.599999702531569
 30
0.0
 40
0.875
  0
LINE
  5
787
330
1A
100
AcDbEntity
  8
ZUWAKU
100
AcDbLine
 10
13.43360564095155
 20
3.57499970253157
 30
0.0
 11
12.47110564095157
 21
3.57499970253157
 31
0.0
  0
LINE
  5
788
330
1A
100
AcDbEntity
  8
ZUWAKU
100
AcDbLine
 10
12.47110564095157
 20
4.974999702531569
 30
0.0
 11
13.43360564095155
 21
4.974999702531569
 31
0.0
  0
LINE
  5
789
330
1A
100
AcDbEntity
  8
ZUWAKU
100
AcDbLine
 10
13.43360564095155
 20
10.22499970253156
 30
0.0
 11
12.47110564095157
 21
10.22499970253156
 31
0.0
  0
LINE
  5
78A
330
1A
100
AcDbEntity
  8
ZUWAKU
100
AcDbLine
 10
12.47110564095157
 20
11.62499970253155
 30
0.0
 11
13.43360564095155
 21
11.62499970253157
 31
0.0
  0
HATCH
  5
78B
330
1A
100
AcDbEntity
  8
ZUWAKU
100
AcDbHatch
 10
0.0
 20
0.0
 30
0.0
210
0.0
220
0.0
230
1.0
  2
ANSI37
 70
     0
 71
     0
 91
        8
 92
        7
 72
     1
 73
     1
 93
       24
 10
7.251130894120933
 20
8.822423943023359
 42
-0.1989123673796348
 10
7.046105640951566
 20
9.317398689853884
 42
0.0
 10
7.046105640951566
 20
9.962499702531573
 42
-0.4142135623730912
 10
7.308605640951554
 20
10.22499970253156
 42
0.0
 10
8.796105640951509
 20
10.22499970253156
 42
0.4142135623731546
 10
9.058605640951554
 20
10.48749970253156
 42
0.0
 10
9.058605640951554
 20
11.36249970253157
 42
0.4142135623731586
 10
8.796105640951509
 20
11.62499970253157
 42
0.0
 10
7.046105640951566
 20
11.62499970253157
 42
0.4142135623730928
 10
5.646105640951589
 20
10.22499970253158
 42
0.0
 10
5.646105640951589
 20
9.317398689853948
 42
0.1989123673796619
 10
6.261181400459804
 20
7.832474449362145
 42
0.0
 10
7.716080387782142
 20
6.377575462039816
 42
-0.1989123673796613
 10
7.921105640951566
 20
5.882600715209223
 42
0.0
 10
7.921105640951566
 20
5.237499702531565
 42
-0.4142135623730911
 10
7.658605640951577
 20
4.974999702531569
 42
0.0
 10
6.171105640951623
 20
4.974999702531569
 42
0.4142135623731526
 10
5.908605640951577
 20
4.712499702531575
 42
0.0
 10
5.908605640951577
 20
3.837499702531564
 42
0.4142135623731526
 10
6.171105640951623
 20
3.57499970253157
 42
0.0
 10
7.921105640951566
 20
3.57499970253157
 42
0.4142135623731044
 10
9.3211056409516
 20
4.974999702531558
 42
0.0
 10
9.3211056409516
 20
5.882600715209195
 42
0.1989123673796604
 10
8.706029881443328
 20
7.367524955700964
 42
0.0
 97
        0
 92
        7
 72
     1
 73
     1
 93
       16
 10
11.77110564095158
 20
9.524999702531573
 42
-0.4142135623730935
 10
12.47110564095157
 20
10.22499970253156
 42
0.0
 10
13.43360564095155
 20
10.22499970253156
 42
0.4142135623731546
 10
13.6961056409516
 20
10.48749970253156
 42
0.0
 10
13.6961056409516
 20
11.36249970253157
 42
0.4142135623730951
 10
13.43360564095161
 20
11.62499970253157
 42
0.0
 10
12.47110564095152
 20
11.62499970253155
 42
0.4142135623730892
 10
10.37110564095155
 20
9.524999702531538
 42
0.0
 10
10.37110564095155
 20
5.674999702531582
 42
0.4142135623730969
 10
12.47110564095157
 20
3.57499970253157
 42
0.0
 10
13.43360564095155
 20
3.57499970253157
 42
0.4142135623731526
 10
13.6961056409516
 20
3.837499702531564
 42
0.0
 10
13.6961056409516
 20
4.712499702531575
 42
0.4142135623730891
 10
13.43360564095161
 20
4.974999702531569
 42
0.0
 10
12.47110564095157
 20
4.974999702531569
 42
-0.4142135623730928
 10
11.77110564095158
 20
5.674999702531563
 42
0.0
 97
        0
 92
        7
 72
     1
 73
     1
 93
        2
 10
12.12110564095155
 20
7.599999702531569
 42
1.0
 10
13.87110564095155
 20
7.599999702531569
 42
1.0
 97
        0
 92
        7
 72
     1
 73
     1
 93
       26
 10
18.65742888204056
 20
9.602523299313283
 42
0.0
 10
19.18824869860947
 20
11.28345271844807
 42
0.5069206636600134
 10
18.93793324901179
 20
11.62499970253157
 42
0.0
 10
18.08848855920717
 20
11.62499970253157
 42
0.3272098845218764
 10
17.8381731096095
 20
11.44154668661505
 42
0.0
 10
16.90403817229361
 20
8.483452718448109
 42
-0.3272098845219541
 10
16.65372272269587
 20
8.299999702531568
 42
0.0
 10
16.58360564095164
 20
8.299999702531568
 42
-0.4142135623731526
 10
16.3211056409516
 20
8.562499702531562
 42
0.0
 10
16.3211056409516
 20
11.36249970253157
 42
0.4142135623730951
 10
16.05860564095161
 20
11.62499970253157
 42
0.0
 10
15.18360564095155
 20
11.62499970253157
 42
0.4142135623730871
 10
14.92110564095156
 20
11.36249970253157
 42
0.0
 10
14.92110564095156
 20
3.837499702531564
 42
0.4142135623730891
 10
15.18360564095155
 20
3.57499970253157
 42
0.0
 10
16.05860564095155
 20
3.57499970253157
 42
0.4142135623731526
 10
16.3211056409516
 20
3.837499702531564
 42
0.0
 10
16.3211056409516
 20
6.637499702531576
 42
-0.4142135623731526
 10
16.58360564095164
 20
6.89999970253157
 42
0.0
 10
16.65372272269593
 20
6.89999970253157
 42
-0.3272098845218915
 10
16.90403817229361
 20
6.716546686615032
 42
0.0
 10
17.8381731096095
 20
3.758452718448106
 42
0.3272098845218902
 10
18.08848855920717
 20
3.57499970253157
 42
0.0
 10
18.93793324901179
 20
3.57499970253157
 42
0.5069206636600335
 10
19.18824869860947
 20
3.916546686615074
 42
0.0
 10
18.02505300937264
 20
7.599999702531638
 42
0.0
 97
        0
 92
        7
 72
     1
 73
     1
 93
        8
 10
21.74610564095155
 20
11.36249970253157
 42
0.4142135623731546
 10
21.4836056409515
 20
11.62499970253157
 42
0.0
 10
20.60860564095162
 20
11.62499970253157
 42
0.4142135623731507
 10
20.34610564095157
 20
11.36249970253157
 42
0.0
 10
20.34610564095157
 20
3.837499702531564
 42
0.4142135623731526
 10
20.60860564095162
 20
3.57499970253157
 42
0.0
 10
21.4836056409515
 20
3.57499970253157
 42
0.4142135623731526
 10
21.74610564095155
 20
3.837499702531564
 42
0.0
 97
        0
 92
        7
 72
     1
 73
     1
 93
       24
 10
24.1961056409516
 20
9.962499702531573
 42
-0.4142135623731546
 10
24.45860564095164
 20
10.22499970253156
 42
0.0
 10
25.9461056409516
 20
10.22499970253156
 42
0.4142135623730911
 10
26.20860564095158
 20
10.48749970253156
 42
0.0
 10
26.20860564095158
 20
11.36249970253157
 42
0.4142135623730952
 10
25.9461056409516
 20
11.62499970253157
 42
0.0
 10
24.1961056409516
 20
11.62499970253157
 42
0.4142135623731048
 10
22.79610564095156
 20
10.22499970253158
 42
0.0
 10
22.79610564095156
 20
9.317398689853948
 42
0.1989123673796613
 10
23.41118140045983
 20
7.832474449362173
 42
0.0
 10
24.86608038778217
 20
6.377575462039839
 42
-0.1989123673796402
 10
25.0711056409516
 20
5.882600715209303
 42
0.0
 10
25.0711056409516
 20
5.237499702531565
 42
-0.4142135623730911
 10
24.80860564095161
 20
4.974999702531569
 42
0.0
 10
23.3211056409516
 20
4.974999702531569
 42
0.4142135623731526
 10
23.05860564095155
 20
4.712499702531575
 42
0.0
 10
23.05860564095155
 20
3.837499702531564
 42
0.4142135623730891
 10
23.32110564095154
 20
3.57499970253157
 42
0.0
 10
25.0711056409516
 20
3.57499970253157
 42
0.4142135623730925
 10
26.47110564095157
 20
4.974999702531558
 42
0.0
 10
26.47110564095157
 20
5.882600715209195
 42
0.1989123673796675
 10
25.8560298814433
 20
7.367524955701021
 42
0.0
 10
24.40113089412102
 20
8.822423943023279
 42
-0.1989123673796652
 10
24.1961056409516
 20
9.317398689853863
 42
0.0
 97
        0
 92
        7
 72
     1
 73
     1
 93
       16
 10
28.92110564095156
 20
11.36249970253156
 42
0.414213562373103
 10
28.65860564095157
 20
11.62499970253157
 42
0.0
 10
27.78360564095157
 20
11.62499970253157
 42
0.4142135623730871
 10
27.52110564095159
 20
11.36249970253157
 42
0.0
 10
27.52110564095159
 20
4.974999702531558
 42
0.4142135623730926
 10
28.92110564095156
 20
3.57499970253157
 42
0.0
 10
30.67110564095156
 20
3.57499970253157
 42
0.4142135623731044
 10
32.0711056409516
 20
4.974999702531558
 42
0.0
 10
32.0711056409516
 20
11.36249970253157
 42
0.4142135623730951
 10
31.80860564095161
 20
11.62499970253157
 42
0.0
 10
30.93360564095155
 20
11.62499970253157
 42
0.4142135623730871
 10
30.67110564095156
 20
11.36249970253157
 42
0.0
 10
30.67110564095156
 20
5.499999702531557
 42
-0.414213562373088
 10
30.14610564095159
 20
4.974999702531569
 42
0.0
 10
29.4461056409516
 20
4.974999702531569
 42
-0.4142135623731197
 10
28.92110564095156
 20
5.499999702531557
 42
0.0
 97
        0
 92
        7
 72
     1
 73
     1
 93
        8
 10
34.52110564095159
 20
11.36249970253157
 42
0.4142135623730871
 10
34.2586056409516
 20
11.62499970253157
 42
0.0
 10
33.3836056409516
 20
11.62499970253157
 42
0.4142135623731507
 10
33.12110564095155
 20
11.36249970253157
 42
0.0
 10
33.12110564095155
 20
3.837499702531564
 42
0.4142135623730891
 10
33.38360564095154
 20
3.57499970253157
 42
0.0
 10
34.2586056409516
 20
3.57499970253157
 42
0.4142135623730891
 10
34.52110564095159
 20
3.837499702531564
 42
0.0
 97
        0
 75
     0
 76
     1
 52
0.0
 41
0.1
 77
     0
 78
     2
 53
45.0
 43
-450.4711526037785
 44
-6.600000297468398
 45
-0.2245064030267288
 46
0.2245064030267288
 79
     0
 53
135.0
 43
-450.4711526037785
 44
-6.600000297468398
 45
-0.2245064030267288
 46
-0.2245064030267288
 79
     0
 47
0.057451373970553
 98
        8
 10
8.039927045072658
 20
7.583586525474345
 10
11.20225706678058
 20
9.422030793757073
 10
12.58218350639083
 20
7.755940525566927
 10
15.45702955437957
 20
8.100648525752319
 10
20.91923557303937
 20
8.330454659523127
 10
23.44910001112578
 20
9.709287860735173
 10
28.27884254976117
 20
9.364578660079075
 10
33.91353937337237
 20
9.594384793849883
  0
ARC
  5
78C
330
1A
100
AcDbEntity
  8
ZUWAKU
100
AcDbCircle
 10
7.746105640951554
 20
9.31739868985392
 30
0.0
 40
2.099999999999999
100
AcDbArc
 50
180.0
 51
225.0
  0
LINE
  5
78D
330
1A
100
AcDbEntity
  8
ZUWAKU
100
AcDbLine
 10
10.37110564095155
 20
5.674999702531572
 30
0.0
 11
10.37110564095155
 21
9.524999702531548
 31
0.0
  0
LINE
  5
78E
330
1A
100
AcDbEntity
  8
ZUWAKU
100
AcDbLine
 10
11.77110564095158
 20
9.52499970253157
 30
0.0
 11
11.77110564095158
 21
5.674999702531572
 31
0.0
  0
ARC
  5
78F
330
1A
100
AcDbEntity
  8
ZUWAKU
100
AcDbCircle
 10
7.746105640951554
 20
9.31739868985392
 30
0.0
 40
0.7
100
AcDbArc
 50
180.0000000000016
 51
224.9999999999988
  0
ARC
  5
790
330
1A
100
AcDbEntity
  8
ZUWAKU
100
AcDbCircle
 10
12.47110564095157
 20
5.674999702531572
 30
0.0
 40
2.099999999999999
100
AcDbArc
 50
180.0
 51
270.0
  0
ARC
  5
791
330
1A
100
AcDbEntity
  8
ZUWAKU
100
AcDbCircle
 10
7.921105640951566
 20
4.974999702531569
 30
0.0
 40
1.399999999999999
100
AcDbArc
 50
270.0
 51
0.0
  0
ARC
  5
792
330
1A
100
AcDbEntity
  8
ZUWAKU
100
AcDbCircle
 10
7.221105640951577
 20
5.882600715209221
 30
0.0
 40
2.099999999999999
100
AcDbArc
 50
0.0
 51
45.0
  0
LINE
  5
793
330
1A
100
AcDbEntity
  8
ZUWAKU
100
AcDbLine
 10
6.261181400459804
 20
7.832474449362159
 30
0.0
 11
7.716080387782142
 21
6.377575462039828
 31
0.0
  0
LINE
  5
794
330
1A
100
AcDbEntity
  8
ZUWAKU
100
AcDbLine
 10
6.171105640951566
 20
4.974999702531569
 30
0.0
 11
7.658605640951577
 21
4.974999702531569
 31
0.0
  0
LINE
  5
795
330
1A
100
AcDbEntity
  8
ZUWAKU
100
AcDbLine
 10
6.171105640951566
 20
3.57499970253157
 30
0.0
 11
7.921105640951566
 21
3.57499970253157
 31
0.0
  0
ARC
  5
796
330
1A
100
AcDbEntity
  8
ZUWAKU
100
AcDbCircle
 10
6.171105640951566
 20
4.71249970253157
 30
0.0
 40
0.2625
100
AcDbArc
 50
90.0
 51
180.0
  0
ARC
  5
797
330
1A
100
AcDbEntity
  8
ZUWAKU
100
AcDbCircle
 10
6.171105640951566
 20
3.83749970253157
 30
0.0
 40
0.2625
100
AcDbArc
 50
180.0
 51
270.0
  0
LINE
  5
798
330
1A
100
AcDbEntity
  8
ZUWAKU
100
AcDbLine
 10
5.908605640951577
 20
3.83749970253157
 30
0.0
 11
5.908605640951577
 21
4.71249970253157
 31
0.0
  0
ARC
  5
799
330
1A
100
AcDbEntity
  8
ZUWAKU
100
AcDbCircle
 10
7.221105640951577
 20
5.882600715209242
 30
0.0
 40
0.7
100
AcDbArc
 50
0.0
 51
45.0
  0
ARC
  5
79A
330
1A
100
AcDbEntity
  8
ZUWAKU
100
AcDbCircle
 10
7.658605640951577
 20
5.237499702531572
 30
0.0
 40
0.2625
100
AcDbArc
 50
270.0
 51
0.0
  0
LINE
  5
79B
330
1A
100
AcDbEntity
  8
ZUWAKU
100
AcDbLine
 10
7.921105640951566
 20
5.237499702531572
 30
0.0
 11
7.921105640951566
 21
5.882600715209242
 31
0.0
  0
LINE
  5
79C
330
1A
100
AcDbEntity
  8
ZUWAKU
100
AcDbLine
 10
8.706029881443328
 20
7.367524955700982
 30
0.0
 11
7.25113089412099
 21
8.82242394302332
 31
0.0
  0
ARC
  5
79D
330
1A
100
AcDbEntity
  8
ZUWAKU
100
AcDbCircle
 10
12.47110564095157
 20
5.674999702531572
 30
0.0
 40
0.7
100
AcDbArc
 50
180.0
 51
270.0
  0
LINE
  5
79E
330
1A
100
AcDbEntity
  8
ZUWAKU
100
AcDbLine
 10
9.3211056409516
 20
4.974999702531569
 30
0.0
 11
9.3211056409516
 21
5.882600715209242
 31
0.0
  0
ARC
  5
79F
330
1A
100
AcDbEntity
  8
ZUWAKU
100
AcDbCircle
 10
8.796105640951566
 20
10.48749970253156
 30
0.0
 40
0.2625
100
AcDbArc
 50
270.0
 51
0.0
  0
ARC
  5
7A0
330
1A
100
AcDbEntity
  8
ZUWAKU
100
AcDbCircle
 10
8.796105640951566
 20
11.36249970253156
 30
0.0
 40
0.2625
100
AcDbArc
 50
0.0
 51
90.0
  0
ARC
  5
7A1
330
1A
100
AcDbEntity
  8
ZUWAKU
100
AcDbCircle
 10
7.046105640951566
 20
10.22499970253156
 30
0.0
 40
1.399999999999999
100
AcDbArc
 50
90.0
 51
180.0
  0
LINE
  5
7A2
330
1A
100
AcDbEntity
  8
ZUWAKU
100
AcDbLine
 10
5.646105640951589
 20
10.22499970253156
 30
0.0
 11
5.646105640951589
 21
9.317398689853899
 31
0.0
  0
LINE
  5
7A3
330
1A
100
AcDbEntity
  8
ZUWAKU
100
AcDbLine
 10
8.796105640951566
 20
10.22499970253156
 30
0.0
 11
7.308605640951554
 21
10.22499970253156
 31
0.0
  0
LINE
  5
7A4
330
1A
100
AcDbEntity
  8
ZUWAKU
100
AcDbLine
 10
7.046105640951566
 20
9.96249970253157
 30
0.0
 11
7.046105640951566
 21
9.317398689853899
 31
0.0
  0
ARC
  5
7A5
330
1A
100
AcDbEntity
  8
ZUWAKU
100
AcDbCircle
 10
7.308605640951554
 20
9.96249970253157
 30
0.0
 40
0.2625
100
AcDbArc
 50
90.0
 51
180.0
  0
LINE
  5
7A6
330
1A
100
AcDbEntity
  8
ZUWAKU
100
AcDbLine
 10
7.046105640951566
 20
11.62499970253157
 30
0.0
 11
8.796105640951566
 21
11.62499970253157
 31
0.0
  0
ARC
  5
7A7
330
1A
100
AcDbEntity
  8
ZUWAKU
100
AcDbCircle
 10
12.47110564095157
 20
9.524999702531548
 30
0.0
 40
2.099999999999999
100
AcDbArc
 50
90.0
 51
180.0
  0
ARC
  5
7A8
330
1A
100
AcDbEntity
  8
ZUWAKU
100
AcDbCircle
 10
12.47110564095157
 20
9.52499970253157
 30
0.0
 40
0.7
100
AcDbArc
 50
90.0
 51
180.0
  0
LINE
  5
7A9
330
1A
100
AcDbEntity
  8
ZUWAKU
100
AcDbLine
 10
9.058605640951554
 20
11.36249970253156
 30
0.0
 11
9.058605640951554
 21
10.48749970253156
 31
0.0
  0
LINE
  5
7AA
330
1A
100
AcDbEntity
  8
ZUWAKU
100
AcDbLine
 10
17.8381731096095
 20
11.44154668661505
 30
0.0
 11
16.90403817229361
 21
8.483452718448084
 31
0.0
  0
LINE
  5
7AB
330
1A
100
AcDbEntity
  8
ZUWAKU
100
AcDbLine
 10
14.92110564095156
 20
11.36249970253156
 30
0.0
 11
14.92110564095156
 21
3.83749970253157
 31
0.0
  0
LINE
  5
7AC
330
1A
100
AcDbEntity
  8
ZUWAKU
100
AcDbLine
 10
16.3211056409516
 20
8.562499702531571
 30
0.0
 11
16.3211056409516
 21
11.36249970253156
 31
0.0
  0
LINE
  5
7AD
330
1A
100
AcDbEntity
  8
ZUWAKU
100
AcDbLine
 10
28.92110564095156
 20
5.499999702531567
 30
0.0
 11
28.92110564095156
 21
11.36249970253156
 31
0.0
  0
LINE
  5
7AE
330
1A
100
AcDbEntity
  8
ZUWAKU
100
AcDbLine
 10
27.52110564095159
 20
11.36249970253156
 30
0.0
 11
27.52110564095159
 21
4.974999702531569
 31
0.0
  0
LINE
  5
7AF
330
1A
100
AcDbEntity
  8
ZUWAKU
100
AcDbLine
 10
21.74610564095155
 20
3.83749970253157
 30
0.0
 11
21.74610564095155
 21
11.36249970253156
 31
0.0
  0
LINE
  5
7B0
330
1A
100
AcDbEntity
  8
ZUWAKU
100
AcDbLine
 10
20.34610564095157
 20
11.36249970253156
 30
0.0
 11
20.34610564095157
 21
3.83749970253157
 31
0.0
  0
LINE
  5
7B1
330
1A
100
AcDbEntity
  8
ZUWAKU
100
AcDbLine
 10
18.65742888204056
 20
9.602523299313283
 30
0.0
 11
18.02505300937264
 21
7.599999702531579
 31
0.0
  0
ARC
  5
7B2
330
1A
100
AcDbEntity
  8
ZUWAKU
100
AcDbCircle
 10
24.89610564095158
 20
9.31739868985392
 30
0.0
 40
2.099999999999999
100
AcDbArc
 50
180.0
 51
225.0
  0
ARC
  5
7B3
330
1A
100
AcDbEntity
  8
ZUWAKU
100
AcDbCircle
 10
24.89610564095158
 20
9.31739868985392
 30
0.0
 40
0.7
100
AcDbArc
 50
180.0000000000016
 51
224.9999999999988
  0
LINE
  5
7B4
330
1A
100
AcDbEntity
  8
ZUWAKU
100
AcDbLine
 10
33.12110564095155
 20
11.36249970253156
 30
0.0
 11
33.12110564095155
 21
3.83749970253157
 31
0.0
  0
LINE
  5
7B5
330
1A
100
AcDbEntity
  8
ZUWAKU
100
AcDbLine
 10
34.52110564095159
 20
3.83749970253157
 30
0.0
 11
34.52110564095159
 21
11.36249970253156
 31
0.0
  0
LINE
  5
7B6
330
1A
100
AcDbEntity
  8
ZUWAKU
100
AcDbLine
 10
30.67110564095156
 20
11.36249970253156
 30
0.0
 11
30.67110564095156
 21
5.499999702531567
 31
0.0
  0
LINE
  5
7B7
330
1A
100
AcDbEntity
  8
ZUWAKU
100
AcDbLine
 10
32.0711056409516
 20
4.974999702531569
 30
0.0
 11
32.0711056409516
 21
11.36249970253156
 31
0.0
  0
LINE
  5
7B8
330
1A
100
AcDbEntity
  8
ZUWAKU
100
AcDbLine
 10
39.56331433755519
 20
14.99999970253156
 30
0.0
 11
39.56331433755519
 21
0.399999702531602
 31
0.0
  0
LINE
  5
7B9
330
1A
100
AcDbEntity
  8
ZUWAKU
100
AcDbLine
 10
39.76331433755513
 20
14.99999970253156
 30
0.0
 11
39.76331433755524
 21
0.399999702531602
 31
0.0
  0
LINE
  5
7BA
330
1A
100
AcDbEntity
  8
ZUWAKU
100
AcDbLine
 10
39.6633143375551
 20
14.99999970253156
 30
0.0
 11
39.66331433755522
 21
0.399999702531602
 31
0.0
  0
TEXT
  5
7BB
330
1A
100
AcDbEntity
  8
MOJI
100
AcDbText
 10
46.47889435764557
 20
6.370588767668948
 30
0.0
 40
3.0
  1
ライナートップ
 41
0.9
  7
ｽﾀｲﾙ1
100
AcDbText
  0
LINE
  5
7BC
330
1A
100
AcDbEntity
  8
ZUWAKU
100
AcDbLine
 10
28.92110564095156
 20
3.57499970253157
 30
0.0
 11
30.67110564095156
 21
3.57499970253157
 31
0.0
  0
LINE
  5
7BD
330
1A
100
AcDbEntity
  8
ZUWAKU
100
AcDbLine
 10
30.14610564095159
 20
4.974999702531569
 30
0.0
 11
29.4461056409516
 21
4.974999702531569
 31
0.0
  0
LINE
  5
7BE
330
1A
100
AcDbEntity
  8
ZUWAKU
100
AcDbLine
 10
20.60860564095156
 20
3.57499970253157
 30
0.0
 11
21.48360564095156
 21
3.57499970253157
 31
0.0
  0
LINE
  5
7BF
330
1A
100
AcDbEntity
  8
ZUWAKU
100
AcDbLine
 10
17.8381731096095
 20
3.758452718448083
 30
0.0
 11
16.90403817229361
 21
6.716546686615053
 31
0.0
  0
ARC
  5
7C0
330
1A
100
AcDbEntity
  8
ZUWAKU
100
AcDbCircle
 10
16.58360564095159
 20
6.63749970253157
 30
0.0
 40
0.2625
100
AcDbArc
 50
90.0
 51
180.0
  0
ARC
  5
7C1
330
1A
100
AcDbEntity
  8
ZUWAKU
100
AcDbCircle
 10
16.65372272269593
 20
6.63749970253157
 30
0.0
 40
0.2625
100
AcDbArc
 50
17.52556837372303
 51
90.0
  0
ARC
  5
7C2
330
1A
100
AcDbEntity
  8
ZUWAKU
100
AcDbCircle
 10
15.18360564095155
 20
3.83749970253157
 30
0.0
 40
0.2625
100
AcDbArc
 50
180.0
 51
270.0
  0
ARC
  5
7C3
330
1A
100
AcDbEntity
  8
ZUWAKU
100
AcDbCircle
 10
13.43360564095155
 20
4.71249970253157
 30
0.0
 40
0.2625
100
AcDbArc
 50
0.0
 51
90.0
  0
ARC
  5
7C4
330
1A
100
AcDbEntity
  8
ZUWAKU
100
AcDbCircle
 10
13.43360564095155
 20
3.83749970253157
 30
0.0
 40
0.2625
100
AcDbArc
 50
270.0
 51
0.0
  0
LINE
  5
7C5
330
1A
100
AcDbEntity
  8
ZUWAKU
100
AcDbLine
 10
13.6961056409516
 20
4.71249970253157
 30
0.0
 11
13.6961056409516
 21
3.83749970253157
 31
0.0
  0
LINE
  5
7C6
330
1A
100
AcDbEntity
  8
ZUWAKU
100
AcDbLine
 10
16.3211056409516
 20
3.83749970253157
 30
0.0
 11
16.3211056409516
 21
6.63749970253157
 31
0.0
  0
ARC
  5
7C7
330
1A
100
AcDbEntity
  8
ZUWAKU
100
AcDbCircle
 10
16.05860564095155
 20
3.83749970253157
 30
0.0
 40
0.2625
100
AcDbArc
 50
270.0
 51
0.0
  0
LINE
  5
7C8
330
1A
100
AcDbEntity
  8
ZUWAKU
100
AcDbLine
 10
15.18360564095155
 20
3.57499970253157
 30
0.0
 11
16.05860564095155
 21
3.57499970253157
 31
0.0
  0
ARC
  5
7C9
330
1A
100
AcDbEntity
  8
ZUWAKU
100
AcDbCircle
 10
16.58360564095159
 20
8.562499702531571
 30
0.0
 40
0.2625
100
AcDbArc
 50
180.0
 51
270.0
  0
LINE
  5
7CA
330
1A
100
AcDbEntity
  8
ZUWAKU
100
AcDbLine
 10
16.58360564095159
 20
6.89999970253157
 30
0.0
 11
16.65372272269593
 21
6.89999970253157
 31
0.0
  0
LINE
  5
7CB
330
1A
100
AcDbEntity
  8
ZUWAKU
100
AcDbLine
 10
16.65372272269593
 20
8.299999702531568
 30
0.0
 11
16.58360564095159
 21
8.299999702531568
 31
0.0
  0
ARC
  5
7CC
330
1A
100
AcDbEntity
  8
ZUWAKU
100
AcDbCircle
 10
16.65372272269593
 20
8.562499702531571
 30
0.0
 40
0.2625
100
AcDbArc
 50
270.0
 51
342.4744316262769
  0
ARC
  5
7CD
330
1A
100
AcDbEntity
  8
ZUWAKU
100
AcDbCircle
 10
18.08848855920723
 20
3.83749970253157
 30
0.0
 40
0.2625
100
AcDbArc
 50
197.525568373723
 51
270.0
  0
LINE
  5
7CE
330
1A
100
AcDbEntity
  8
ZUWAKU
100
AcDbLine
 10
19.18824869860947
 20
3.916546686615056
 30
0.0
 11
18.02505300937264
 21
7.599999702531579
 31
0.0
  0
ARC
  5
7CF
330
1A
100
AcDbEntity
  8
ZUWAKU
100
AcDbCircle
 10
18.93793324901173
 20
3.83749970253157
 30
0.0
 40
0.2625
100
AcDbArc
 50
270.0
 51
17.52556837372303
  0
LINE
  5
7D0
330
1A
100
AcDbEntity
  8
ZUWAKU
100
AcDbLine
 10
18.08848855920723
 20
3.57499970253157
 30
0.0
 11
18.93793324901173
 21
3.57499970253157
 31
0.0
  0
ARC
  5
7D1
330
1A
100
AcDbEntity
  8
ZUWAKU
100
AcDbCircle
 10
20.60860564095156
 20
3.83749970253157
 30
0.0
 40
0.2625
100
AcDbArc
 50
180.0
 51
270.0
  0
ARC
  5
7D2
330
1A
100
AcDbEntity
  8
ZUWAKU
100
AcDbCircle
 10
25.0711056409516
 20
4.974999702531569
 30
0.0
 40
1.399999999999999
100
AcDbArc
 50
270.0
 51
0.0
  0
ARC
  5
7D3
330
1A
100
AcDbEntity
  8
ZUWAKU
100
AcDbCircle
 10
28.92110564095156
 20
4.974999702531569
 30
0.0
 40
1.399999999999999
100
AcDbArc
 50
180.0
 51
270.0
  0
LINE
  5
7D4
330
1A
100
AcDbEntity
  8
ZUWAKU
100
AcDbLine
 10
25.85602988144336
 20
7.367524955700982
 30
0.0
 11
24.40113089412097
 21
8.82242394302332
 31
0.0
  0
LINE
  5
7D5
330
1A
100
AcDbEntity
  8
ZUWAKU
100
AcDbLine
 10
23.41118140045983
 20
7.832474449362159
 30
0.0
 11
24.86608038778217
 21
6.377575462039828
 31
0.0
  0
LINE
  5
7D6
330
1A
100
AcDbEntity
  8
ZUWAKU
100
AcDbLine
 10
23.3211056409516
 20
3.57499970253157
 30
0.0
 11
25.0711056409516
 21
3.57499970253157
 31
0.0
  0
LINE
  5
7D7
330
1A
100
AcDbEntity
  8
ZUWAKU
100
AcDbLine
 10
23.3211056409516
 20
4.974999702531569
 30
0.0
 11
24.80860564095155
 21
4.974999702531569
 31
0.0
  0
ARC
  5
7D8
330
1A
100
AcDbEntity
  8
ZUWAKU
100
AcDbCircle
 10
23.3211056409516
 20
4.71249970253157
 30
0.0
 40
0.2625
100
AcDbArc
 50
90.0
 51
180.0
  0
ARC
  5
7D9
330
1A
100
AcDbEntity
  8
ZUWAKU
100
AcDbCircle
 10
21.48360564095156
 20
3.83749970253157
 30
0.0
 40
0.2625
100
AcDbArc
 50
270.0
 51
0.0
  0
ARC
  5
7DA
330
1A
100
AcDbEntity
  8
ZUWAKU
100
AcDbCircle
 10
23.3211056409516
 20
3.83749970253157
 30
0.0
 40
0.2625
100
AcDbArc
 50
180.0
 51
270.0
  0
LINE
  5
7DB
330
1A
100
AcDbEntity
  8
ZUWAKU
100
AcDbLine
 10
23.05860564095155
 20
3.83749970253157
 30
0.0
 11
23.05860564095155
 21
4.71249970253157
 31
0.0
  0
ARC
  5
7DC
330
1A
100
AcDbEntity
  8
ZUWAKU
100
AcDbCircle
 10
24.80860564095155
 20
5.237499702531572
 30
0.0
 40
0.2625
100
AcDbArc
 50
270.0
 51
0.0
  0
ARC
  5
7DD
330
1A
100
AcDbEntity
  8
ZUWAKU
100
AcDbCircle
 10
24.37110564095155
 20
5.882600715209242
 30
0.0
 40
0.7
100
AcDbArc
 50
0.0
 51
45.0
  0
LINE
  5
7DE
330
1A
100
AcDbEntity
  8
ZUWAKU
100
AcDbLine
 10
25.0711056409516
 20
5.237499702531572
 30
0.0
 11
25.0711056409516
 21
5.882600715209242
 31
0.0
  0
ARC
  5
7DF
330
1A
100
AcDbEntity
  8
ZUWAKU
100
AcDbCircle
 10
29.4461056409516
 20
5.499999702531567
 30
0.0
 40
0.525
100
AcDbArc
 50
180.0
 51
270.0
  0
ARC
  5
7E0
330
1A
100
AcDbEntity
  8
ZUWAKU
100
AcDbCircle
 10
24.37110564095155
 20
5.882600715209221
 30
0.0
 40
2.099999999999999
100
AcDbArc
 50
0.0
 51
45.0
  0
LINE
  5
7E1
330
1A
100
AcDbEntity
  8
ZUWAKU
100
AcDbLine
 10
26.47110564095157
 20
4.974999702531569
 30
0.0
 11
26.47110564095157
 21
5.882600715209242
 31
0.0
  0
ARC
  5
7E2
330
1A
100
AcDbEntity
  8
ZUWAKU
100
AcDbCircle
 10
30.67110564095156
 20
4.974999702531569
 30
0.0
 40
1.399999999999999
100
AcDbArc
 50
270.0
 51
0.0
  0
LINE
  5
7E3
330
1A
100
AcDbEntity
  8
ZUWAKU
100
AcDbLine
 10
33.3836056409516
 20
3.57499970253157
 30
0.0
 11
34.2586056409516
 21
3.57499970253157
 31
0.0
  0
ARC
  5
7E4
330
1A
100
AcDbEntity
  8
ZUWAKU
100
AcDbCircle
 10
30.14610564095159
 20
5.499999702531567
 30
0.0
 40
0.525
100
AcDbArc
 50
270.0
 51
0.0
  0
ARC
  5
7E5
330
1A
100
AcDbEntity
  8
ZUWAKU
100
AcDbCircle
 10
33.3836056409516
 20
3.83749970253157
 30
0.0
 40
0.2625
100
AcDbArc
 50
180.0
 51
270.0
  0
ARC
  5
7E6
330
1A
100
AcDbEntity
  8
ZUWAKU
100
AcDbCircle
 10
34.2586056409516
 20
3.83749970253157
 30
0.0
 40
0.2625
100
AcDbArc
 50
270.0
 51
0.0
  0
LINE
  5
7E7
330
1A
100
AcDbEntity
  8
ZUWAKU
100
AcDbLine
 10
21.48360564095156
 20
11.62499970253157
 30
0.0
 11
20.60860564095156
 21
11.62499970253157
 31
0.0
  0
LINE
  5
7E8
330
1A
100
AcDbEntity
  8
ZUWAKU
100
AcDbLine
 10
13.6961056409516
 20
11.36249970253156
 30
0.0
 11
13.6961056409516
 21
10.48749970253156
 31
0.0
  0
ARC
  5
7E9
330
1A
100
AcDbEntity
  8
ZUWAKU
100
AcDbCircle
 10
13.43360564095155
 20
10.48749970253156
 30
0.0
 40
0.2625
100
AcDbArc
 50
270.0
 51
0.0
  0
ARC
  5
7EA
330
1A
100
AcDbEntity
  8
ZUWAKU
100
AcDbCircle
 10
15.18360564095155
 20
11.36249970253156
 30
0.0
 40
0.2625
100
AcDbArc
 50
90.0
 51
180.0
  0
ARC
  5
7EB
330
1A
100
AcDbEntity
  8
ZUWAKU
100
AcDbCircle
 10
13.43360564095155
 20
11.36249970253156
 30
0.0
 40
0.2625
100
AcDbArc
 50
0.0
 51
90.0
  0
LINE
  5
7EC
330
1A
100
AcDbEntity
  8
ZUWAKU
100
AcDbLine
 10
16.05860564095155
 20
11.62499970253157
 30
0.0
 11
15.18360564095155
 21
11.62499970253157
 31
0.0
  0
ARC
  5
7ED
330
1A
100
AcDbEntity
  8
ZUWAKU
100
AcDbCircle
 10
16.05860564095155
 20
11.36249970253156
 30
0.0
 40
0.2625
100
AcDbArc
 50
0.0
 51
90.0
  0
ARC
  5
7EE
330
1A
100
AcDbEntity
  8
ZUWAKU
100
AcDbCircle
 10
18.08848855920723
 20
11.36249970253156
 30
0.0
 40
0.2625
100
AcDbArc
 50
90.0
 51
162.4744316262769
  0
LINE
  5
7EF
330
1A
100
AcDbEntity
  8
ZUWAKU
100
AcDbLine
 10
19.18824869860947
 20
11.28345271844808
 30
0.0
 11
18.65742888204056
 21
9.602523299313283
 31
0.0
  0
ARC
  5
7F0
330
1A
100
AcDbEntity
  8
ZUWAKU
100
AcDbCircle
 10
18.93793324901173
 20
11.36249970253156
 30
0.0
 40
0.2625
100
AcDbArc
 50
342.4744316262769
 51
90.0
  0
LINE
  5
7F1
330
1A
100
AcDbEntity
  8
ZUWAKU
100
AcDbLine
 10
18.08848855920723
 20
11.62499970253157
 30
0.0
 11
18.93793324901173
 21
11.62499970253157
 31
0.0
  0
ARC
  5
7F2
330
1A
100
AcDbEntity
  8
ZUWAKU
100
AcDbCircle
 10
20.60860564095156
 20
11.36249970253156
 30
0.0
 40
0.2625
100
AcDbArc
 50
90.0
 51
180.0
  0
LINE
  5
7F3
330
1A
100
AcDbEntity
  8
ZUWAKU
100
AcDbLine
 10
25.9461056409516
 20
10.22499970253156
 30
0.0
 11
24.45860564095159
 21
10.22499970253156
 31
0.0
  0
LINE
  5
7F4
330
1A
100
AcDbEntity
  8
ZUWAKU
100
AcDbLine
 10
24.1961056409516
 20
11.62499970253157
 30
0.0
 11
25.9461056409516
 21
11.62499970253157
 31
0.0
  0
ARC
  5
7F5
330
1A
100
AcDbEntity
  8
ZUWAKU
100
AcDbCircle
 10
24.1961056409516
 20
10.22499970253156
 30
0.0
 40
1.399999999999999
100
AcDbArc
 50
90.0
 51
180.0
  0
LINE
  5
7F6
330
1A
100
AcDbEntity
  8
ZUWAKU
100
AcDbLine
 10
22.79610564095156
 20
10.22499970253156
 30
0.0
 11
22.79610564095156
 21
9.317398689853899
 31
0.0
  0
ARC
  5
7F7
330
1A
100
AcDbEntity
  8
ZUWAKU
100
AcDbCircle
 10
21.48360564095156
 20
11.36249970253156
 30
0.0
 40
0.2625
100
AcDbArc
 50
0.0
 51
90.0
  0
LINE
  5
7F8
330
1A
100
AcDbEntity
  8
ZUWAKU
100
AcDbLine
 10
24.1961056409516
 20
9.96249970253157
 30
0.0
 11
24.1961056409516
 21
9.317398689853899
 31
0.0
  0
ARC
  5
7F9
330
1A
100
AcDbEntity
  8
ZUWAKU
100
AcDbCircle
 10
24.45860564095159
 20
9.96249970253157
 30
0.0
 40
0.2625
100
AcDbArc
 50
90.0
 51
180.0
  0
LINE
  5
7FA
330
1A
100
AcDbEntity
  8
ZUWAKU
100
AcDbLine
 10
26.20860564095158
 20
11.36249970253156
 30
0.0
 11
26.20860564095158
 21
10.48749970253156
 31
0.0
  0
ARC
  5
7FB
330
1A
100
AcDbEntity
  8
ZUWAKU
100
AcDbCircle
 10
25.9461056409516
 20
10.48749970253156
 30
0.0
 40
0.2625
100
AcDbArc
 50
270.0
 51
0.0
  0
ARC
  5
7FC
330
1A
100
AcDbEntity
  8
ZUWAKU
100
AcDbCircle
 10
25.9461056409516
 20
11.36249970253156
 30
0.0
 40
0.2625
100
AcDbArc
 50
0.0
 51
90.0
  0
LINE
  5
7FD
330
1A
100
AcDbEntity
  8
ZUWAKU
100
AcDbLine
 10
28.65860564095157
 20
11.62499970253157
 30
0.0
 11
27.78360564095157
 21
11.62499970253157
 31
0.0
  0
ARC
  5
7FE
330
1A
100
AcDbEntity
  8
ZUWAKU
100
AcDbCircle
 10
27.78360564095157
 20
11.36249970253156
 30
0.0
 40
0.2625
100
AcDbArc
 50
90.0
 51
180.0
  0
ARC
  5
7FF
330
1A
100
AcDbEntity
  8
ZUWAKU
100
AcDbCircle
 10
28.65860564095157
 20
11.36249970253156
 30
0.0
 40
0.2625
100
AcDbArc
 50
0.0
 51
90.0
  0
LINE
  5
800
330
1A
100
AcDbEntity
  8
ZUWAKU
100
AcDbLine
 10
34.2586056409516
 20
11.62499970253157
 30
0.0
 11
33.3836056409516
 21
11.62499970253157
 31
0.0
  0
ARC
  5
801
330
1A
100
AcDbEntity
  8
ZUWAKU
100
AcDbCircle
 10
30.93360564095155
 20
11.36249970253156
 30
0.0
 40
0.2625
100
AcDbArc
 50
90.0
 51
180.0
  0
LINE
  5
802
330
1A
100
AcDbEntity
  8
ZUWAKU
100
AcDbLine
 10
31.80860564095155
 20
11.62499970253157
 30
0.0
 11
30.93360564095155
 21
11.62499970253157
 31
0.0
  0
ARC
  5
803
330
1A
100
AcDbEntity
  8
ZUWAKU
100
AcDbCircle
 10
31.80860564095155
 20
11.36249970253156
 30
0.0
 40
0.2625
100
AcDbArc
 50
0.0
 51
90.0
  0
ARC
  5
804
330
1A
100
AcDbEntity
  8
ZUWAKU
100
AcDbCircle
 10
33.3836056409516
 20
11.36249970253156
 30
0.0
 40
0.2625
100
AcDbArc
 50
90.0
 51
180.0
  0
ARC
  5
805
330
1A
100
AcDbEntity
  8
ZUWAKU
100
AcDbCircle
 10
34.2586056409516
 20
11.36249970253156
 30
0.0
 40
0.2625
100
AcDbArc
 50
0.0
 51
90.0
  0
TEXT
  5
806
330
1A
100
AcDbEntity
  8
MOJI
100
AcDbText
 10
119.9136009039865
 20
9.002460231235261
 30
0.0
 40
2.799999999999999
  1
ステンレス金具打込丸足
 41
0.9
  7
ｽﾀｲﾙ1
100
AcDbText
  0
LINE
  5
807
330
1A
100
AcDbEntity
  8
ZUWAKU
100
AcDbLine
 10
104.2233002085948
 20
14.99999970253156
 30
0.0
 11
104.223300208595
 21
0.399999702531602
 31
0.0
  0
LINE
  5
808
330
1A
100
AcDbEntity
  8
ZUWAKU
100
AcDbLine
 10
104.3233002085949
 20
14.99999970253156
 30
0.0
 11
104.323300208595
 21
0.399999702531602
 31
0.0
  0
LINE
  5
809
330
1A
100
AcDbEntity
  8
ZUWAKU
100
AcDbLine
 10
104.1233002085949
 20
14.99999970253156
 30
0.0
 11
104.1233002085949
 21
0.399999702531602
 31
0.0
  0
TEXT
  5
80A
330
1A
100
AcDbEntity
  8
ZUWAKU
100
AcDbText
 10
104.8620227196997
 20
4.827677971724376
 30
0.0
 40
2.0
  1
サイズ
 41
0.9
  7
ｽﾀｲﾙ1
100
AcDbText
  0
TEXT
  5
80B
330
1A
100
AcDbEntity
  8
MOJI
100
AcDbText
 10
119.9136009039865
 20
1.602460231235278
 30
0.0
 40
2.799999999999999
  1
Ｘ４０－Ｌ１５０
 41
0.9
  7
ｽﾀｲﾙ1
100
AcDbText
  0
TEXT
  5
80C
330
1A
100
AcDbEntity
  8
ZUWAKU
100
AcDbText
 10
104.8620227196996
 20
12.02767797172435
 30
0.0
 40
2.0
  1
品名
 41
0.9
  7
ｽﾀｲﾙ1
100
AcDbText
  0
TEXT
  5
80D
330
1A
100
AcDbEntity
  8
ZUWAKU
100
AcDbText
 10
329.1019684072121
 20
9.002460231235261
 30
0.0
 40
2.799999999999999
  1
　　．　　．　　
 41
0.9
  7
ｽﾀｲﾙ1
100
AcDbText
  0
LINE
  5
80E
330
1A
100
AcDbEntity
  8
ZUWAKU
100
AcDbLine
 10
324.4086008186631
 20
7.799999702531584
 30
0.0
 11
348.6245048378316
 21
7.799999702531584
 31
0.0
  0
LINE
  5
80F
330
1A
100
AcDbEntity
  8
ZUWAKU
100
AcDbLine
 10
324.4086008186632
 20
7.699999702531586
 30
0.0
 11
348.6245048378316
 21
7.699999702531584
 31
0.0
  0
LINE
  5
810
330
1A
100
AcDbEntity
  8
ZUWAKU
100
AcDbLine
 10
324.4086008186631
 20
7.599999702531583
 30
0.0
 11
348.6245048378316
 21
7.599999702531585
 31
0.0
  0
LINE
  5
811
330
1A
100
AcDbEntity
  8
ZUWAKU
100
AcDbLine
 10
252.5995893126314
 20
7.799999702531584
 30
0.0
 11
276.2634774466172
 21
7.799999702531584
 31
0.0
  0
LINE
  5
812
330
1A
100
AcDbEntity
  8
ZUWAKU
100
AcDbLine
 10
252.5995893126314
 20
7.699999702531584
 30
0.0
 11
276.2634774466172
 21
7.699999702531584
 31
0.0
  0
LINE
  5
813
330
1A
100
AcDbEntity
  8
ZUWAKU
100
AcDbLine
 10
252.5995893126314
 20
7.599999702531587
 30
0.0
 11
276.2634774466172
 21
7.599999702531587
 31
0.0
  0
LINE
  5
814
330
1A
100
AcDbEntity
  8
ZUWAKU
100
AcDbLine
 10
252.3995893126315
 20
14.99999970253156
 30
0.0
 11
252.3995893126315
 21
0.399999702531602
 31
0.0
  0
LINE
  5
815
330
1A
100
AcDbEntity
  8
ZUWAKU
100
AcDbLine
 10
252.5995893126314
 20
14.99999970253156
 30
0.0
 11
252.5995893126315
 21
0.399999702531602
 31
0.0
  0
LINE
  5
816
330
1A
100
AcDbEntity
  8
ZUWAKU
100
AcDbLine
 10
252.4995893126314
 20
14.99999970253156
 30
0.0
 11
252.4995893126315
 21
0.399999702531602
 31
0.0
  0
TEXT
  5
817
330
1A
100
AcDbEntity
  8
MOJI
100
AcDbText
 10
264.0204535497174
 20
9.002460231235261
 30
0.0
 40
2.799999999999999
  1
Ａ３
 41
0.9
  7
ｽﾀｲﾙ1
100
AcDbText
  0
LINE
  5
818
330
1A
100
AcDbEntity
  8
ZUWAKU
100
AcDbLine
 10
223.7121815490567
 20
14.99999970253156
 30
0.0
 11
223.7121815490567
 21
0.399999702531602
 31
0.0
  0
LINE
  5
819
330
1A
100
AcDbEntity
  8
ZUWAKU
100
AcDbLine
 10
223.9121815490566
 20
14.99999970253156
 30
0.0
 11
223.9121815490567
 21
0.399999702531602
 31
0.0
  0
LINE
  5
81A
330
1A
100
AcDbEntity
  8
ZUWAKU
100
AcDbLine
 10
223.8121815490566
 20
14.99999970253156
 30
0.0
 11
223.8121815490567
 21
0.399999702531602
 31
0.0
  0
TEXT
  5
81B
330
1A
100
AcDbEntity
  8
MOJI
100
AcDbText
 10
231.2836387245553
 20
5.97130856336156
 30
0.0
 40
2.799999999999999
  1
ＬＤ１１□
 41
0.9
  7
ｽﾀｲﾙ1
100
AcDbText
  0
TEXT
  5
81C
330
1A
100
AcDbEntity
  8
ZUWAKU
100
AcDbText
 10
230.8507805931075
 20
1.623757184374028
 30
0.0
 40
1.5
  1
□には色品番が入ります
 41
0.9
  7
ｽﾀｲﾙ1
100
AcDbText
  0
TEXT
  5
81D
330
1A
100
AcDbEntity
  8
ZUWAKU
100
AcDbText
 10
253.3383118237363
 20
4.827677971724376
 30
0.0
 40
2.0
  1
縮尺
 41
0.9
  7
ｽﾀｲﾙ1
100
AcDbText
  0
TEXT
  5
81E
330
1A
100
AcDbEntity
  8
MOJI
100
AcDbText
 10
264.0204535497174
 20
1.602460231235278
 30
0.0
 40
2.799999999999999
  1
１/１
 41
0.9
  7
ｽﾀｲﾙ1
100
AcDbText
  0
TEXT
  5
81F
330
1A
100
AcDbEntity
  8
ZUWAKU
100
AcDbText
 10
224.6509040601614
 20
12.02767797172435
 30
0.0
 40
2.0
  1
品番
 41
0.9
  7
ｽﾀｲﾙ1
100
AcDbText
  0
TEXT
  5
820
330
1A
100
AcDbEntity
  8
ZUWAKU
100
AcDbText
 10
253.3383118237362
 20
12.02767797172435
 30
0.0
 40
2.0
  1
用紙
 41
0.9
  7
ｽﾀｲﾙ1
100
AcDbText
  0
LINE
  5
821
330
1A
100
AcDbEntity
  8
ZUWAKU
100
AcDbLine
 10
276.2634774466172
 20
14.99999970253156
 30
0.0
 11
276.2634774466172
 21
0.399999702531602
 31
0.0
  0
LINE
  5
822
330
1A
100
AcDbEntity
  8
ZUWAKU
100
AcDbLine
 10
276.4634774466171
 20
14.99999970253156
 30
0.0
 11
276.4634774466173
 21
0.399999702531602
 31
0.0
  0
LINE
  5
823
330
1A
100
AcDbEntity
  8
ZUWAKU
100
AcDbLine
 10
276.3634774466171
 20
14.99999970253156
 30
0.0
 11
276.3634774466172
 21
0.399999702531602
 31
0.0
  0
LINE
  5
824
330
1A
100
AcDbEntity
  8
ZUWAKU
100
AcDbLine
 10
324.2086008186632
 20
14.99999970253156
 30
0.0
 11
324.2086008186632
 21
0.399999702531602
 31
0.0
  0
LINE
  5
825
330
1A
100
AcDbEntity
  8
ZUWAKU
100
AcDbLine
 10
324.4086008186632
 20
14.99999970253156
 30
0.0
 11
324.4086008186633
 21
0.399999702531602
 31
0.0
  0
LINE
  5
826
330
1A
100
AcDbEntity
  8
ZUWAKU
100
AcDbLine
 10
324.3086008186632
 20
14.99999970253156
 30
0.0
 11
324.3086008186633
 21
0.399999702531602
 31
0.0
  0
TEXT
  5
827
330
1A
100
AcDbEntity
  8
ZUWAKU
100
AcDbText
 10
325.147323329768
 20
12.02767797172435
 30
0.0
 40
2.0
  1
DATE
 41
0.9
  7
ｽﾀｲﾙ1
100
AcDbText
  0
TEXT
  5
828
330
1A
100
AcDbEntity
  8
ZUWAKU
100
AcDbText
 10
354.2640416596829
 20
8.776919370374969
 30
0.0
 40
3.0
  1
積水化学工業株式会社
 41
0.9
  7
ｽﾀｲﾙ1
100
AcDbText
  0
LINE
  5
829
330
1A
100
AcDbEntity
  8
ZUWAKU
100
AcDbLine
 10
348.9245048378315
 20
14.99999970253156
 30
0.0
 11
348.9245048378317
 21
0.399999702531602
 31
0.0
  0
LINE
  5
82A
330
1A
100
AcDbEntity
  8
ZUWAKU
100
AcDbLine
 10
348.8245048378315
 20
14.99999970253156
 30
0.0
 11
348.8245048378316
 21
0.399999702531602
 31
0.0
  0
LINE
  5
82B
330
1A
100
AcDbEntity
  8
ZUWAKU
100
AcDbLine
 10
348.7245048378316
 20
14.99999970253156
 30
0.0
 11
348.7245048378316
 21
0.399999702531602
 31
0.0
  0
LINE
  5
82C
330
1A
100
AcDbEntity
  8
ZUWAKU
100
AcDbLine
 10
348.6245048378316
 20
14.99999970253156
 30
0.0
 11
348.6245048378316
 21
0.399999702531602
 31
0.0
  0
TEXT
  5
82D
330
1A
100
AcDbEntity
  8
ZUWAKU
100
AcDbText
 10
354.2640416596829
 20
3.3244198594586
 30
0.0
 40
3.0
  1
建材事業部
 41
0.9
  7
ｽﾀｲﾙ1
100
AcDbText
  0
VIEWPORT
  5
22
330
17
100
AcDbEntity
 67
     1
  8
0
100
AcDbViewport
 10
313.6808219178082
 20
148.5
 30
0.0
 40
627.3616438356165
 41
297.0
 68
     2
 69
     1
1001
ACAD
1000
MVIEW
1002
{
1070
    16
1010
0.0
1020
0.0
1030
0.0
1010
0.0
1020
0.0
1030
1.0
1040
0.0
1040
297.0
1040
313.6808219178082
1040
148.5
1040
50.0
1040
0.0
1040
0.0
1070
     0
1070
   100
1070
     1
1070
     0
1070
     0
1070
     0
1070
     0
1070
     0
1040
0.0
1040
0.0
1040
0.0
1040
1.0
1040
1.0
1040
10.0
1040
10.0
1070
     0
1002
{
1002
}
1002
}
  0
VIEWPORT
  5
64
330
17
100
AcDbEntity
 67
     1
  8
VIEWPORT
100
AcDbViewport
 10
210.0
 20
148.5
 30
0.0
 40
420.0
 41
297.0
 68
     1
 69
     2
1001
ACAD
1000
MVIEW
1002
{
1070
    16
1010
0.0
1020
0.0
1030
0.0
1010
0.0
1020
0.0
1030
1.0
1040
0.0
1040
302.9399999999998
1040
210.0
1040
148.5
1040
50.0
1040
0.0
1040
0.0
1070
     0
1070
   100
1070
     1
1070
     0
1070
     0
1070
     0
1070
     0
1070
     0
1040
0.0
1040
0.0
1040
0.0
1040
5.0
1040
5.0
1040
0.0
1040
0.0
1070
     0
1002
{
1002
}
1002
}
  0
ENDSEC
  0
SECTION
  2
OBJECTS
  0
DICTIONARY
  5
C
330
0
100
AcDbDictionary
  3
ACAD_GROUP
350
D
  3
ACAD_LAYOUT
350
590
  3
ACAD_MLINESTYLE
350
E
  3
ACAD_PLOTSETTINGS
350
591
  3
ACAD_PLOTSTYLENAME
350
58E
  3
ACDBHEADERROUNDTRIPXREC
350
835
  0
DICTIONARY
  5
5C1
330
1A
100
AcDbDictionary
280
     1
  3
ACAD_LAYOUTSELFREF
360
857
  0
DICTIONARY
  5
5BF
330
17
100
AcDbDictionary
280
     1
  3
ACAD_LAYOUTSELFREF
360
856
  0
DICTIONARY
  5
D
102
{ACAD_REACTORS
330
C
102
}
330
C
100
AcDbDictionary
  0
DICTIONARY
  5
590
102
{ACAD_REACTORS
330
C
102
}
330
C
100
AcDbDictionary
  0
DICTIONARY
  5
E
102
{ACAD_REACTORS
330
C
102
}
330
C
100
AcDbDictionary
  3
STANDARD
350
13
  0
DICTIONARY
  5
591
102
{ACAD_REACTORS
330
C
102
}
330
C
100
AcDbDictionary
  0
ACDBDICTIONARYWDFLT
  5
58E
102
{ACAD_REACTORS
330
C
102
}
330
C
100
AcDbDictionary
281
     1
  3
Normal
350
58F
100
AcDbDictionaryWithDefault
340
58F
1001
ACAD
1000
TREAT_AS_HARD
1070
     0
1000
TREAT_AS_HARD
1070
     0
  0
DICTIONARY
  5
835
102
{ACAD_REACTORS
330
C
102
}
330
C
100
AcDbDictionary
  3
TSTACKALIGN
350
836
  3
TSTACKSIZE
350
837
  3
HYPERLINKBASE
350
838
  3
STYLESHEET
350
839
  3
LAYOUTDICT
350
83A
  3
PLOTSETDICT
350
83B
  3
PLOTSTYLNAMDICT
350
83C
  3
LWETCUNION
350
83D
  3
INSUNITS
350
83E
  3
CEPSNTYPE
350
83F
  3
FINGERPRINTGUID
350
840
  3
VERSIONGUID
350
841
  3
PSVPSCALE
350
842
  3
DIMSTYLEDATA
350
843
  3
PUCSORTHOREF
350
844
  3
PUCSORTHOVIEW
350
845
  3
PUCSBASE
350
846
  3
PUCSORGTOP
350
847
  3
PUCSORGBOTTOM
350
848
  3
PUCSORGLEFT
350
849
  3
PUCSORGRIGHT
350
84A
  3
PUCSORGFRONT
350
84B
  3
PUCSORGBACK
350
84C
  3
UCSORTHOREF
350
84D
  3
UCSORTHOVIEW
350
84E
  3
UCSBASE
350
84F
  3
UCSORGTOP
350
850
  3
UCSORGBOTTOM
350
851
  3
UCSORGLEFT
350
852
  3
UCSORGRIGHT
350
853
  3
UCSORGFRONT
350
854
  3
UCSORGBACK
350
855
  0
XRECORD
  5
857
102
{ACAD_REACTORS
330
5C1
102
}
330
5C1
100
AcDbXrecord
340
1A
  0
XRECORD
  5
856
102
{ACAD_REACTORS
330
5BF
102
}
330
5BF
100
AcDbXrecord
340
17
  0
MLINESTYLE
  5
13
102
{ACAD_REACTORS
330
E
102
}
330
E
100
AcDbMlineStyle
  2
STANDARD
 70
     0
  3

 62
     0
 51
90.0
 52
90.0
 71
     2
 49
0.5
 62
   256
  6
BYLAYER
 49
-0.5
 62
   256
  6
BYLAYER
  0
ACDBPLACEHOLDER
  5
58F
102
{ACAD_REACTORS
330
58E
102
}
330
58E
100
AcDbPlaceHolder
280
     0
  0
XRECORD
  5
836
102
{ACAD_REACTORS
330
835
102
}
330
835
100
AcDbXrecord
 90
        1
  0
XRECORD
  5
837
102
{ACAD_REACTORS
330
835
102
}
330
835
100
AcDbXrecord
 90
       70
  0
XRECORD
  5
838
102
{ACAD_REACTORS
330
835
102
}
330
835
100
AcDbXrecord
  1

  0
XRECORD
  5
839
102
{ACAD_REACTORS
330
835
102
}
330
835
100
AcDbXrecord
  1
systemprinter.ctb
  0
XRECORD
  5
83A
102
{ACAD_REACTORS
330
835
102
}
330
835
100
AcDbXrecord
340
590
  0
XRECORD
  5
83B
102
{ACAD_REACTORS
330
835
102
}
330
835
100
AcDbXrecord
340
591
  0
XRECORD
  5
83C
102
{ACAD_REACTORS
330
835
102
}
330
835
100
AcDbXrecord
340
58E
  0
XRECORD
  5
83D
102
{ACAD_REACTORS
330
835
102
}
330
835
100
AcDbXrecord
 90
    10781
  0
XRECORD
  5
83E
102
{ACAD_REACTORS
330
835
102
}
330
835
100
AcDbXrecord
 90
        0
  0
XRECORD
  5
83F
102
{ACAD_REACTORS
330
835
102
}
330
835
100
AcDbXrecord
 90
        0
  0
XRECORD
  5
840
102
{ACAD_REACTORS
330
835
102
}
330
835
100
AcDbXrecord
  1
{0BE33D20-6233-4BFB-9F36-13CA9AC0E96E}
  0
XRECORD
  5
841
102
{ACAD_REACTORS
330
835
102
}
330
835
100
AcDbXrecord
  1
{F571D928-CF43-4620-943F-9B9865EAD686}
  0
XRECORD
  5
842
102
{ACAD_REACTORS
330
835
102
}
330
835
100
AcDbXrecord
 40
0.0
  0
XRECORD
  5
843
102
{ACAD_REACTORS
330
835
102
}
330
835
100
AcDbXrecord
1000
DSTYLE
1002
{
1070
   341
340
B2
1070
   343
340
B2
1070
   344
340
B2
1070
   371
 70
    -1
1070
   372
 70
    -1
1002
}
  0
XRECORD
  5
844
102
{ACAD_REACTORS
330
835
102
}
330
835
100
AcDbXrecord
340
0
  0
XRECORD
  5
845
102
{ACAD_REACTORS
330
835
102
}
330
835
100
AcDbXrecord
 70
     0
  0
XRECORD
  5
846
102
{ACAD_REACTORS
330
835
102
}
330
835
100
AcDbXrecord
340
0
  0
XRECORD
  5
847
102
{ACAD_REACTORS
330
835
102
}
330
835
100
AcDbXrecord
 10
0.0
 20
0.0
 30
0.0
  0
XRECORD
  5
848
102
{ACAD_REACTORS
330
835
102
}
330
835
100
AcDbXrecord
 10
0.0
 20
0.0
 30
0.0
  0
XRECORD
  5
849
102
{ACAD_REACTORS
330
835
102
}
330
835
100
AcDbXrecord
 10
0.0
 20
0.0
 30
0.0
  0
XRECORD
  5
84A
102
{ACAD_REACTORS
330
835
102
}
330
835
100
AcDbXrecord
 10
0.0
 20
0.0
 30
0.0
  0
XRECORD
  5
84B
102
{ACAD_REACTORS
330
835
102
}
330
835
100
AcDbXrecord
 10
0.0
 20
0.0
 30
0.0
  0
XRECORD
  5
84C
102
{ACAD_REACTORS
330
835
102
}
330
835
100
AcDbXrecord
 10
0.0
 20
0.0
 30
0.0
  0
XRECORD
  5
84D
102
{ACAD_REACTORS
330
835
102
}
330
835
100
AcDbXrecord
340
0
  0
XRECORD
  5
84E
102
{ACAD_REACTORS
330
835
102
}
330
835
100
AcDbXrecord
 70
     0
  0
XRECORD
  5
84F
102
{ACAD_REACTORS
330
835
102
}
330
835
100
AcDbXrecord
340
0
  0
XRECORD
  5
850
102
{ACAD_REACTORS
330
835
102
}
330
835
100
AcDbXrecord
 10
0.0
 20
0.0
 30
0.0
  0
XRECORD
  5
851
102
{ACAD_REACTORS
330
835
102
}
330
835
100
AcDbXrecord
 10
0.0
 20
0.0
 30
0.0
  0
XRECORD
  5
852
102
{ACAD_REACTORS
330
835
102
}
330
835
100
AcDbXrecord
 10
0.0
 20
0.0
 30
0.0
  0
XRECORD
  5
853
102
{ACAD_REACTORS
330
835
102
}
330
835
100
AcDbXrecord
 10
0.0
 20
0.0
 30
0.0
  0
XRECORD
  5
854
102
{ACAD_REACTORS
330
835
102
}
330
835
100
AcDbXrecord
 10
0.0
 20
0.0
 30
0.0
  0
XRECORD
  5
855
102
{ACAD_REACTORS
330
835
102
}
330
835
100
AcDbXrecord
 10
0.0
 20
0.0
 30
0.0
  0
ENDSEC
  0
EOF
